  0
SECTION
  2
HEADER
  9
$ACADVER
  1
AC1009
  9
$INSBASE
 10
402.590624
 20
-1.041018
 30
0.0
  9
$EXTMIN
 10
1103.100991
 20
33.728457
 30
0.0
  9
$EXTMAX
 10
1164.410515
 20
193.228457
 30
0.0
  9
$LIMMIN
 10
-407.970438
 20
-367.832444
  9
$LIMMAX
 10
429.804077
 20
234.370848
  9
$ORTHOMODE
 70
     1
  9
$REGENMODE
 70
     1
  9
$FILLMODE
 70
     1
  9
$QTEXTMODE
 70
     0
  9
$MIRRTEXT
 70
     1
  9
$DRAGMODE
 70
     2
  9
$LTSCALE
 40
10.0
  9
$OSMODE
 70
    35
  9
$ATTMODE
 70
     1
  9
$TEXTSIZE
 40
6.0
  9
$TRACEWID
 40
1.0
  9
$TEXTSTYLE
  7
ROMANS
  9
$CLAYER
  8
ALPHA
  9
$CELTYPE
  6
BYLAYER
  9
$CECOLOR
 62
   256
  9
$DIMSCALE
 40
1.0
  9
$DIMASZ
 40
5.0
  9
$DIMEXO
 40
2.0
  9
$DIMDLI
 40
0.38
  9
$DIMRND
 40
0.0
  9
$DIMDLE
 40
0.0
  9
$DIMEXE
 40
2.5
  9
$DIMTP
 40
0.0
  9
$DIMTM
 40
0.0
  9
$DIMTXT
 40
2.5
  9
$DIMCEN
 40
0.0
  9
$DIMTSZ
 40
0.0
  9
$DIMTOL
 70
     0
  9
$DIMLIM
 70
     0
  9
$DIMTIH
 70
     1
  9
$DIMTOH
 70
     1
  9
$DIMSE1
 70
     0
  9
$DIMSE2
 70
     0
  9
$DIMTAD
 70
     1
  9
$DIMZIN
 70
    12
  9
$DIMBLK
  1
OPEN30
  9
$DIMASO
 70
     1
  9
$DIMSHO
 70
     1
  9
$DIMPOST
  1

  9
$DIMAPOST
  1

  9
$DIMALT
 70
     0
  9
$DIMALTD
 70
     2
  9
$DIMALTF
 40
25.4
  9
$DIMLFAC
 40
1.0
  9
$DIMTOFL
 70
     0
  9
$DIMTVP
 40
0.0
  9
$DIMTIX
 70
     0
  9
$DIMSOXD
 70
     0
  9
$DIMSAH
 70
     0
  9
$DIMBLK1
  1

  9
$DIMBLK2
  1

  9
$DIMSTYLE
  2
SC_DEFAUT
  9
$DIMCLRD
 70
     0
  9
$DIMCLRE
 70
     0
  9
$DIMCLRT
 70
     0
  9
$DIMTFAC
 40
1.0
  9
$DIMGAP
 40
2.0
  9
$LUNITS
 70
     2
  9
$LUPREC
 70
     1
  9
$SKETCHINC
 40
0.1
  9
$FILLETRAD
 40
0.0
  9
$AUNITS
 70
     0
  9
$AUPREC
 70
     0
  9
$MENU
  1
acad
  9
$ELEVATION
 40
0.0
  9
$PELEVATION
 40
0.0
  9
$THICKNESS
 40
0.0
  9
$LIMCHECK
 70
     0
  9
$BLIPMODE
 70
     0
  9
$CHAMFERA
 40
0.0
  9
$CHAMFERB
 40
0.0
  9
$SKPOLY
 70
     0
  9
$TDCREATE
 40
2450373.687919
  9
$TDUPDATE
 40
2453055.468274
  9
$TDINDWG
 40
0.839389
  9
$TDUSRTIMER
 40
0.839389
  9
$USRTIMER
 70
     1
  9
$ANGBASE
 50
0.0
  9
$ANGDIR
 70
     0
  9
$PDMODE
 70
    32
  9
$PDSIZE
 40
0.0
  9
$PLINEWID
 40
0.0
  9
$COORDS
 70
     1
  9
$SPLFRAME
 70
     0
  9
$SPLINETYPE
 70
     6
  9
$SPLINESEGS
 70
     8
  9
$ATTDIA
 70
     0
  9
$ATTREQ
 70
     1
  9
$HANDLING
 70
     1
  9
$HANDSEED
  5
7157
  9
$SURFTAB1
 70
     6
  9
$SURFTAB2
 70
     6
  9
$SURFTYPE
 70
     6
  9
$SURFU
 70
     6
  9
$SURFV
 70
     6
  9
$UCSNAME
  2

  9
$UCSORG
 10
0.0
 20
0.0
 30
0.0
  9
$UCSXDIR
 10
1.0
 20
0.0
 30
0.0
  9
$UCSYDIR
 10
0.0
 20
1.0
 30
0.0
  9
$PUCSNAME
  2

  9
$PUCSORG
 10
0.0
 20
0.0
 30
0.0
  9
$PUCSXDIR
 10
1.0
 20
0.0
 30
0.0
  9
$PUCSYDIR
 10
0.0
 20
1.0
 30
0.0
  9
$USERI1
 70
     0
  9
$USERI2
 70
     0
  9
$USERI3
 70
     0
  9
$USERI4
 70
     0
  9
$USERI5
 70
     0
  9
$USERR1
 40
0.0
  9
$USERR2
 40
0.0
  9
$USERR3
 40
0.0
  9
$USERR4
 40
0.0
  9
$USERR5
 40
0.0
  9
$WORLDVIEW
 70
     1
  9
$SHADEDGE
 70
     3
  9
$SHADEDIF
 70
    70
  9
$TILEMODE
 70
     1
  9
$MAXACTVP
 70
    16
  9
$PLIMCHECK
 70
     0
  9
$PEXTMIN
 10
-1.452248
 20
-0.437698
 30
0.0
  9
$PEXTMAX
 10
12.749749
 20
8.310198
 30
0.0
  9
$PLIMMIN
 10
0.0
 20
0.0
  9
$PLIMMAX
 10
12.0
 20
9.0
  9
$UNITMODE
 70
     0
  9
$VISRETAIN
 70
     0
  9
$PLINEGEN
 70
     0
  9
$PSLTSCALE
 70
     0
  0
ENDSEC
  0
SECTION
  2
TABLES
  0
TABLE
  2
VPORT
 70
     2
  0
VPORT
  2
*ACTIVE
 70
     0
 10
0.0
 20
0.0
 11
1.0
 21
1.0
 12
1133.707314
 22
113.486368
 13
0.0
 23
0.0
 14
1.0
 24
1.0
 15
10.0
 25
10.0
 16
0.0
 26
0.0
 36
1.0
 17
0.0
 27
0.0
 37
0.0
 40
160.714455
 41
1.466346
 42
50.0
 43
0.0
 44
0.0
 50
0.0
 51
0.0
 71
     0
 72
   100
 73
     1
 74
     0
 75
     0
 76
     0
 77
     0
 78
     0
  0
ENDTAB
  0
TABLE
  2
LTYPE
 70
     3
  0
LTYPE
  2
CONTINUOUS
 70
     0
  3
Solid line
 72
    65
 73
     0
 40
0.0
  0
LTYPE
  2
AXES2
 70
     0
  3
___ _ ___ _ ___ _ ___ _ ___ _ ___ _ ___ _ ___ _
 72
    65
 73
     4
 40
1.125
 49
0.75
 49
-0.125
 49
0.125
 49
-0.125
  0
LTYPE
  2
CACHE2
 70
     0
  3
Caché (x.5) _ _ _ _ _ _ _ _ _ _ _ _ _ _ _ _ _
 72
    65
 73
     2
 40
0.1875
 49
0.125
 49
-0.0625
  0
ENDTAB
  0
TABLE
  2
LAYER
 70
     6
  0
LAYER
  2
0
 70
     0
 62
   255
  6
CONTINUOUS
  0
LAYER
  2
COTATION1
 70
     0
 62
     2
  6
CONTINUOUS
  0
LAYER
  2
AXE
 70
     0
 62
    80
  6
AXES2
  0
LAYER
  2
DEFPOINTS
 70
     0
 62
     7
  6
CONTINUOUS
  0
LAYER
  2
ALPHA
 70
     0
 62
   254
  6
CONTINUOUS
  0
LAYER
  2
POINTILLE_COURT
 70
     0
 62
    41
  6
CACHE2
  0
ENDTAB
  0
TABLE
  2
STYLE
 70
     2
  0
STYLE
  2
ROMANS
 70
     0
 40
0.0
 41
1.0
 50
0.0
 71
     0
 42
6.0
  3
romans
  4

  0
STYLE
  2
STANDARD
 70
     0
 40
0.2
 41
1.0
 50
0.0
 71
     0
 42
0.2
  3
txt
  4

  0
ENDTAB
  0
TABLE
  2
VIEW
 70
     0
  0
ENDTAB
  0
TABLE
  2
UCS
 70
     0
  0
ENDTAB
  0
TABLE
  2
APPID
 70
     1
  0
APPID
  2
ACAD
 70
     0
  0
ENDTAB
  0
TABLE
  2
DIMSTYLE
 70
     1
  0
DIMSTYLE
  2
SC_DEFAUT
 70
     0
  3

  4

  5
OPEN30
  6

  7

 40
1.0
 41
5.0
 42
2.0
 43
0.38
 44
2.5
 45
0.0
 46
0.0
 47
0.0
 48
0.0
140
2.5
141
0.0
142
0.0
143
25.4
144
1.0
145
0.0
146
1.0
147
2.0
 71
     0
 72
     0
 73
     1
 74
     1
 75
     0
 76
     0
 77
     1
 78
    12
170
     0
171
     2
172
     0
173
     0
174
     0
175
     0
176
     0
177
     0
178
     0
  0
ENDTAB
  0
ENDSEC
  0
SECTION
  2
BLOCKS
  0
BLOCK
  8
0
  2
$MODEL_SPACE
 70
     0
 10
0.0
 20
0.0
 30
0.0
  3
$MODEL_SPACE
  1

  0
ENDBLK
  5
7127
  8
0
  0
BLOCK
 67
     1
  8
0
  2
$PAPER_SPACE
 70
     0
 10
0.0
 20
0.0
 30
0.0
  3
$PAPER_SPACE
  1

  0
ENDBLK
  5
7125
 67
     1
  8
0
  0
BLOCK
  8
0
  2
COTE
 70
     0
 10
0.0
 20
0.0
 30
0.0
  3
COTE
  1

  0
ENDBLK
  5
F
  8
0
  0
BLOCK
  8
0
  2
FOND
 70
     0
 10
0.0
 20
0.0
 30
0.0
  3
FOND
  1

  0
ENDBLK
  5
75
  8
0
  0
BLOCK
  8
0
  2
_OPEN30
 70
     0
 10
0.0
 20
0.0
 30
0.0
  3
_OPEN30
  1

  0
LINE
  5
4B05
  8
COTATION1
 62
     0
 10
-1.0
 20
0.267949
 30
0.0
 11
0.0
 21
0.0
 31
0.0
1001
ACAD
1000
RTLwPs
1070
   158
  0
LINE
  5
4B06
  8
COTATION1
 62
     0
 10
0.0
 20
0.0
 30
0.0
 11
-1.0
 21
-0.267949
 31
0.0
1001
ACAD
1000
RTLwPs
1070
   158
  0
LINE
  5
4B07
  8
COTATION1
 62
     0
 10
0.0
 20
0.0
 30
0.0
 11
-1.0
 21
0.0
 31
0.0
1001
ACAD
1000
RTLwPs
1070
   158
  0
ENDBLK
  5
4B09
  8
0
  0
BLOCK
  8
0
  2
*D3
 70
     1
 10
0.0
 20
0.0
 30
0.0
  3
*D3
  1

  0
LINE
  5
6F04
  8
COTATION1
 62
     0
 10
1108.100991
 20
108.204829
 30
0.0
 11
1108.100991
 21
191.228457
 31
0.0
1001
ACAD
1000
RTLwPs
1070
   158
  0
LINE
  5
6F05
  8
COTATION1
 62
     0
 10
1138.100991
 20
120.728457
 30
0.0
 11
1138.100991
 21
191.228457
 31
0.0
1001
ACAD
1000
RTLwPs
1070
   158
  0
LINE
  5
6F06
  8
COTATION1
 62
     0
 10
1113.100991
 20
188.728457
 30
0.0
 11
1133.100991
 21
188.728457
 31
0.0
1001
ACAD
1000
RTLwPs
1070
   158
  0
INSERT
  5
6F07
  8
COTATION1
 62
     0
  2
_OPEN30
 10
1108.100991
 20
188.728457
 30
0.0
 41
5.0
 42
5.0
 43
5.0
 50
180.0
1001
ACAD
1000
RTLwPs
1070
   158
  0
INSERT
  5
6F08
  8
COTATION1
 62
     0
  2
_OPEN30
 10
1138.100991
 20
188.728457
 30
0.0
 41
5.0
 42
5.0
 43
5.0
1001
ACAD
1000
RTLwPs
1070
   158
  0
TEXT
  5
6F09
  8
COTATION1
 62
     0
 10
1120.720039
 20
190.728457
 30
0.0
 40
2.5
  1
30
1001
ACAD
1000
MTEXTBEGIN
1070
    73
1070
     1
1070
    44
1040
1.0
1070
    74
1070
     0
1000
MTEXTEND
  0
POINT
  5
6F0A
  8
DEFPOINTS
 62
     0
 10
1108.100991
 20
106.204829
 30
0.0
  0
POINT
  5
6F0B
  8
DEFPOINTS
 62
     0
 10
1138.100991
 20
118.728457
 30
0.0
  0
POINT
  5
6F0C
  8
DEFPOINTS
 62
     0
 10
1138.100991
 20
188.728457
 30
0.0
  0
ENDBLK
  5
6706
  8
0
  0
BLOCK
  8
0
  2
*D4
 70
     1
 10
0.0
 20
0.0
 30
0.0
  3
*D4
  1

  0
LINE
  5
6F17
  8
COTATION1
 62
     0
 10
1122.850991
 20
151.728457
 30
0.0
 11
1122.850991
 21
168.478457
 31
0.0
1001
ACAD
1000
RTLwPs
1070
   158
  0
LINE
  5
6F18
  8
COTATION1
 62
     0
 10
1128.350991
 20
151.728457
 30
0.0
 11
1128.350991
 21
168.478457
 31
0.0
1001
ACAD
1000
RTLwPs
1070
   158
  0
LINE
  5
6F19
  8
COTATION1
 62
     0
 10
1117.850991
 20
165.978457
 30
0.0
 11
1112.850991
 21
165.978457
 31
0.0
1001
ACAD
1000
RTLwPs
1070
   158
  0
LINE
  5
6F1A
  8
COTATION1
 62
     0
 10
1133.350991
 20
165.978457
 30
0.0
 11
1138.350991
 21
165.978457
 31
0.0
1001
ACAD
1000
RTLwPs
1070
   158
  0
TEXT
  5
6F1B
  8
COTATION1
 62
     0
 10
1109.874801
 20
167.978457
 30
0.0
 40
2.5
  1
5.5
1001
ACAD
1000
MTEXTBEGIN
1070
    73
1070
     1
1070
    44
1040
1.0
1070
    74
1070
     0
1000
MTEXTEND
  0
INSERT
  5
6F1C
  8
COTATION1
 62
     0
  2
_OPEN30
 10
1122.850991
 20
165.978457
 30
0.0
 41
5.0
 42
5.0
 43
5.0
1001
ACAD
1000
RTLwPs
1070
   158
  0
INSERT
  5
6F1D
  8
COTATION1
 62
     0
  2
_OPEN30
 10
1128.350991
 20
165.978457
 30
0.0
 41
5.0
 42
5.0
 43
5.0
 50
180.0
1001
ACAD
1000
RTLwPs
1070
   158
  0
POINT
  5
6F1E
  8
DEFPOINTS
 62
     0
 10
1122.850991
 20
149.728457
 30
0.0
  0
POINT
  5
6F1F
  8
DEFPOINTS
 62
     0
 10
1128.350991
 20
149.728457
 30
0.0
  0
POINT
  5
6F20
  8
DEFPOINTS
 62
     0
 10
1128.350991
 20
165.978457
 30
0.0
  0
ENDBLK
  5
6EB0
  8
0
  0
BLOCK
  8
0
  2
*D5
 70
     1
 10
0.0
 20
0.0
 30
0.0
  3
*D5
  1

  0
LINE
  5
6EF1
  8
COTATION1
 62
     0
 10
1125.600991
 20
159.728457
 30
0.0
 11
1125.600991
 21
181.228457
 31
0.0
1001
ACAD
1000
RTLwPs
1070
   158
  0
LINE
  5
6EF2
  8
COTATION1
 62
     0
 10
1138.100991
 20
120.728457
 30
0.0
 11
1138.100991
 21
181.228457
 31
0.0
1001
ACAD
1000
RTLwPs
1070
   158
  0
LINE
  5
6EF3
  8
COTATION1
 62
     0
 10
1120.600991
 20
178.728457
 30
0.0
 11
1115.600991
 21
178.728457
 31
0.0
1001
ACAD
1000
RTLwPs
1070
   158
  0
LINE
  5
6EF4
  8
COTATION1
 62
     0
 10
1143.100991
 20
178.728457
 30
0.0
 11
1148.100991
 21
178.728457
 31
0.0
1001
ACAD
1000
RTLwPs
1070
   158
  0
TEXT
  5
6EF5
  8
COTATION1
 62
     0
 10
1144.476452
 20
180.502426
 30
0.0
 40
2.5
  1
12.5
1001
ACAD
1000
MTEXTBEGIN
1070
    73
1070
     1
1070
    44
1040
1.0
1070
    74
1070
     0
1000
MTEXTEND
  0
INSERT
  5
6EF6
  8
COTATION1
 62
     0
  2
_OPEN30
 10
1125.600991
 20
178.728457
 30
0.0
 41
5.0
 42
5.0
 43
5.0
1001
ACAD
1000
RTLwPs
1070
   158
  0
INSERT
  5
6EF7
  8
COTATION1
 62
     0
  2
_OPEN30
 10
1138.100991
 20
178.728457
 30
0.0
 41
5.0
 42
5.0
 43
5.0
 50
180.0
1001
ACAD
1000
RTLwPs
1070
   158
  0
POINT
  5
6EF8
  8
DEFPOINTS
 62
     0
 10
1125.600991
 20
157.728457
 30
0.0
  0
POINT
  5
6EF9
  8
DEFPOINTS
 62
     0
 10
1138.100991
 20
118.728457
 30
0.0
  0
POINT
  5
6EFA
  8
DEFPOINTS
 62
     0
 10
1138.100991
 20
178.728457
 30
0.0
  0
ENDBLK
  5
6EBD
  8
0
  0
BLOCK
  8
0
  2
*D6
 70
     1
 10
0.0
 20
0.0
 30
0.0
  3
*D6
  1

  0
LINE
  5
6FF8
  8
COTATION1
 62
     0
 10
1134.100991
 20
59.728457
 30
0.0
 11
1134.100991
 21
74.087159
 31
0.0
1001
ACAD
1000
RTLwPs
1070
   158
  0
LINE
  5
6FF9
  8
COTATION1
 62
     0
 10
1138.100991
 20
61.728457
 30
0.0
 11
1138.100991
 21
74.087159
 31
0.0
1001
ACAD
1000
RTLwPs
1070
   158
  0
LINE
  5
6FFA
  8
COTATION1
 62
     0
 10
1129.100991
 20
71.587159
 30
0.0
 11
1124.100991
 21
71.587159
 31
0.0
1001
ACAD
1000
RTLwPs
1070
   158
  0
LINE
  5
6FFB
  8
COTATION1
 62
     0
 10
1143.100991
 20
71.587159
 30
0.0
 11
1148.100991
 21
71.587159
 31
0.0
1001
ACAD
1000
RTLwPs
1070
   158
  0
TEXT
  5
6FFC
  8
COTATION1
 62
     0
 10
1145.610505
 20
72.574117
 30
0.0
 40
2.5
  1
4
1001
ACAD
1000
MTEXTBEGIN
1070
    73
1070
     1
1070
    44
1040
1.0
1070
    74
1070
     0
1000
MTEXTEND
  0
INSERT
  5
6FFD
  8
COTATION1
 62
     0
  2
_OPEN30
 10
1134.100991
 20
71.587159
 30
0.0
 41
5.0
 42
5.0
 43
5.0
1001
ACAD
1000
RTLwPs
1070
   158
  0
INSERT
  5
6FFE
  8
COTATION1
 62
     0
  2
_OPEN30
 10
1138.100991
 20
71.587159
 30
0.0
 41
5.0
 42
5.0
 43
5.0
 50
180.0
1001
ACAD
1000
RTLwPs
1070
   158
  0
POINT
  5
6FFF
  8
DEFPOINTS
 62
     0
 10
1134.100991
 20
57.728457
 30
0.0
  0
POINT
  5
7000
  8
DEFPOINTS
 62
     0
 10
1138.100991
 20
59.728457
 30
0.0
  0
POINT
  5
7001
  8
DEFPOINTS
 62
     0
 10
1138.100991
 20
71.587159
 30
0.0
  0
ENDBLK
  5
6FED
  8
0
  0
BLOCK
  8
0
  2
*D7
 70
     1
 10
0.0
 20
0.0
 30
0.0
  3
*D7
  1

  0
LINE
  5
704B
  8
COTATION1
 62
     0
 10
1130.350991
 20
149.728457
 30
0.0
 11
1163.100991
 21
149.728457
 31
0.0
1001
ACAD
1000
RTLwPs
1070
   158
  0
LINE
  5
704C
  8
COTATION1
 62
     0
 10
1138.450991
 20
50.228457
 30
0.0
 11
1163.100991
 21
50.228457
 31
0.0
1001
ACAD
1000
RTLwPs
1070
   158
  0
LINE
  5
704D
  8
COTATION1
 62
     0
 10
1160.600991
 20
144.728457
 30
0.0
 11
1160.600991
 21
103.228457
 31
0.0
1001
ACAD
1000
RTLwPs
1070
   158
  0
LINE
  5
704E
  8
COTATION1
 62
     0
 10
1160.600991
 20
55.228457
 30
0.0
 11
1160.600991
 21
96.728457
 31
0.0
1001
ACAD
1000
RTLwPs
1070
   158
  0
INSERT
  5
704F
  8
COTATION1
 62
     0
  2
_OPEN30
 10
1160.600991
 20
149.728457
 30
0.0
 41
5.0
 42
5.0
 43
5.0
 50
90.0
1001
ACAD
1000
RTLwPs
1070
   158
  0
INSERT
  5
7050
  8
COTATION1
 62
     0
  2
_OPEN30
 10
1160.600991
 20
50.228457
 30
0.0
 41
5.0
 42
5.0
 43
5.0
 50
270.0
1001
ACAD
1000
RTLwPs
1070
   158
  0
TEXT
  5
7051
  8
COTATION1
 62
     0
 10
1156.434325
 20
98.728457
 30
0.0
 40
2.5
  1
99.5
1001
ACAD
1000
MTEXTBEGIN
1070
    73
1070
     1
1070
    44
1040
1.0
1070
    74
1070
     0
1000
MTEXTEND
  0
POINT
  5
7052
  8
DEFPOINTS
 62
     0
 10
1128.350991
 20
149.728457
 30
0.0
  0
POINT
  5
7053
  8
DEFPOINTS
 62
     0
 10
1136.450991
 20
50.228457
 30
0.0
  0
POINT
  5
7054
  8
DEFPOINTS
 62
     0
 10
1160.600991
 20
50.228457
 30
0.0
  0
ENDBLK
  5
7056
  8
0
  0
ENDSEC
  0
SECTION
  2
ENTITIES
  0
INSERT
  5
A
  8
0
  2
COTE
 10
0.0
 20
0.0
 30
0.0
  0
INSERT
  5
17
  8
0
  2
COTE
 10
284.010391
 20
6.373258
 30
0.0
  0
INSERT
  5
72
  8
0
  2
FOND
 10
0.0
 20
0.0
 30
0.0
  0
POLYLINE
  5
662C
  8
ALPHA
 66
     1
 10
0.0
 20
0.0
 30
0.0
 70
   128
210
0.0
220
0.0
230
-1.0
  0
VERTEX
  5
712D
  8
ALPHA
 10
-1126.147734
 20
58.413808
 30
0.0
  0
VERTEX
  5
712E
  8
ALPHA
 10
-1126.887576
 20
58.413808
 30
0.0
  0
VERTEX
  5
712F
  8
ALPHA
 10
-1127.337529
 20
58.282761
 30
0.0
  0
VERTEX
  5
7130
  8
ALPHA
 10
-1127.501346
 20
58.087451
 30
0.0
  0
VERTEX
  5
7131
  8
ALPHA
 10
-1127.730024
 20
57.699099
 30
0.0
  0
VERTEX
  5
7132
  8
ALPHA
 10
-1128.12566
 20
56.893738
 30
0.0
  0
VERTEX
  5
7133
  8
ALPHA
 10
-1128.340684
 20
56.440208
 30
0.0
  0
SEQEND
  5
7134
  8
ALPHA
  0
POLYLINE
  5
662D
  8
ALPHA
 66
     1
 10
0.0
 20
0.0
 30
0.0
 70
   128
210
0.0
220
0.0
230
-1.0
  0
VERTEX
  5
7135
  8
ALPHA
 10
-1120.923893
 20
54.728457
 30
0.0
  0
VERTEX
  5
7136
  8
ALPHA
 10
-1119.236833
 20
54.883982
 30
0.0
  0
VERTEX
  5
7137
  8
ALPHA
 10
-1117.323207
 20
55.250769
 30
0.0
  0
VERTEX
  5
7138
  8
ALPHA
 10
-1113.340514
 20
56.356367
 30
0.0
  0
VERTEX
  5
7139
  8
ALPHA
 10
-1111.533574
 20
56.964297
 30
0.0
  0
VERTEX
  5
713A
  8
ALPHA
 10
-1110.024324
 20
57.521728
 30
0.0
  0
VERTEX
  5
713B
  8
ALPHA
 10
-1108.943826
 20
57.963219
 30
0.0
  0
VERTEX
  5
713C
  8
ALPHA
 10
-1108.423144
 20
58.22333
 30
0.0
  0
SEQEND
  5
713D
  8
ALPHA
  0
POLYLINE
  5
662E
  8
ALPHA
 66
     1
 10
0.0
 20
0.0
 30
0.0
 70
   128
210
0.0
220
0.0
230
-1.0
  0
VERTEX
  5
713E
  8
ALPHA
 10
-1108.423144
 20
58.22333
 30
0.0
  0
VERTEX
  5
713F
  8
ALPHA
 10
-1108.262068
 20
58.365784
 30
0.0
  0
VERTEX
  5
7140
  8
ALPHA
 10
-1108.100991
 20
58.780776
 30
0.0
  0
SEQEND
  5
7141
  8
ALPHA
  0
POLYLINE
  5
662F
  8
ALPHA
 66
     1
 10
0.0
 20
0.0
 30
0.0
 70
   128
  0
VERTEX
  5
7142
  8
ALPHA
 10
1122.585142
 20
56.728457
 30
0.0
  0
VERTEX
  5
7143
  8
ALPHA
 10
1122.30042
 20
63.035415
 30
0.0
  0
VERTEX
  5
7144
  8
ALPHA
 10
1121.779375
 20
69.214045
 30
0.0
  0
VERTEX
  5
7145
  8
ALPHA
 10
1121.052439
 20
75.23619
 30
0.0
  0
VERTEX
  5
7146
  8
ALPHA
 10
1120.150045
 20
81.073691
 30
0.0
  0
VERTEX
  5
7147
  8
ALPHA
 10
1119.102626
 20
86.698389
 30
0.0
  0
VERTEX
  5
7148
  8
ALPHA
 10
1117.940614
 20
92.082127
 30
0.0
  0
VERTEX
  5
7149
  8
ALPHA
 10
1116.694443
 20
97.196747
 30
0.0
  0
VERTEX
  5
714A
  8
ALPHA
 10
1115.394545
 20
102.014089
 30
0.0
  0
SEQEND
  5
714B
  8
ALPHA
  0
POLYLINE
  5
6630
  8
ALPHA
 66
     1
 10
0.0
 20
0.0
 30
0.0
 70
   128
210
0.0
220
0.0
230
-1.0
  0
VERTEX
  5
714C
  8
ALPHA
 10
-1125.490234
 20
57.976207
 30
0.0
  0
VERTEX
  5
714D
  8
ALPHA
 10
-1125.752808
 20
58.342615
 30
0.0
  0
VERTEX
  5
714E
  8
ALPHA
 10
-1126.147734
 20
58.413808
 30
0.0
  0
SEQEND
  5
714F
  8
ALPHA
  0
POLYLINE
  5
6631
  8
ALPHA
 66
     1
 10
0.0
 20
0.0
 30
0.0
 70
   128
210
0.0
220
0.0
230
-1.0
  0
VERTEX
  5
7150
  8
ALPHA
 10
-1128.340684
 20
56.440208
 30
0.0
  0
VERTEX
  5
7151
  8
ALPHA
 10
-1128.42132
 20
56.312131
 30
0.0
  0
VERTEX
  5
7152
  8
ALPHA
 10
-1128.570362
 20
55.94747
 30
0.0
  0
VERTEX
  5
7153
  8
ALPHA
 10
-1128.648426
 20
55.37562
 30
0.0
  0
VERTEX
  5
7154
  8
ALPHA
 10
-1128.331238
 20
54.728457
 30
0.0
  0
SEQEND
  5
7155
  8
ALPHA
  0
DIMENSION
  5
6642
  8
COTATION1
  2
*D3
 10
1138.100991
 20
188.728457
 30
0.0
 11
1123.100991
 21
191.978457
 31
0.0
 13
1108.100991
 23
106.204829
 33
0.0
 14
1138.100991
 24
118.728457
 34
0.0
  0
LINE
  5
6651
  8
AXE
 10
1103.100991
 20
86.228457
 30
0.0
 11
1153.100991
 21
86.228457
 31
0.0
  0
LINE
  5
6654
  8
ALPHA
 10
1113.100991
 20
116.028457
 30
0.0
 11
1138.100991
 21
116.028457
 31
0.0
  0
LINE
  5
6655
  8
ALPHA
 10
1114.100991
 20
53.728457
 30
0.0
 11
1138.100991
 21
53.728457
 31
0.0
  0
ARC
  5
6656
  8
ALPHA
 10
963.75876
 20
55.387689
 30
0.0
 40
156.451664
 50
0.857269
 51
18.449068
  0
LINE
  5
6657
  8
ALPHA
 10
1108.100991
 20
102.228457
 30
0.0
 11
1108.100991
 21
58.780776
 31
0.0
  0
LINE
  5
6658
  8
ALPHA
 10
1113.450516
 20
56.331078
 30
0.0
 11
1114.100991
 21
53.728457
 31
0.0
  0
ARC
  5
6659
  8
ALPHA
 10
1141.770578
 20
106.515651
 30
0.0
 40
33.671021
 50
166.958519
 51
180.528913
  0
LINE
  5
665A
  8
ALPHA
 10
1113.100991
 20
118.728457
 30
0.0
 11
1113.100991
 21
102.014089
 31
0.0
  0
LINE
  5
665B
  8
ALPHA
 10
1113.100991
 20
104.898623
 30
0.0
 11
1112.169644
 21
104.898623
 31
0.0
  0
LINE
  5
665C
  8
ALPHA
 10
1113.100991
 20
102.014089
 30
0.0
 11
1115.394545
 21
102.014089
 31
0.0
  0
LINE
  5
665D
  8
ALPHA
 10
1108.100991
 20
103.014089
 30
0.0
 11
1112.785097
 21
103.014089
 31
0.0
  0
LINE
  5
665E
  8
ALPHA
 10
1108.100991
 20
102.228457
 30
0.0
 11
1108.100991
 21
106.204829
 31
0.0
  0
ARC
  5
665F
  8
ALPHA
 10
1110.437819
 20
113.814173
 30
0.0
 40
1.5
 50
90.0
 51
168.480193
  0
LINE
  5
6660
  8
ALPHA
 10
1110.437819
 20
115.314173
 30
0.0
 11
1113.100991
 21
115.314173
 31
0.0
  0
DIMENSION
  5
6661
  8
COTATION1
  2
*D7
 10
1160.600991
 20
50.228457
 30
0.0
 11
1160.600991
 21
99.978457
 31
0.0
 13
1128.350991
 23
149.728457
 33
0.0
 14
1136.450991
 24
50.228457
 34
0.0
 50
90.0
  0
LINE
  5
6663
  8
ALPHA
 10
1138.100991
 20
118.728457
 30
0.0
 11
1138.100991
 21
53.728457
 31
0.0
  0
TEXT
  5
6665
  8
AXE
 10
1118.124801
 20
33.728457
 30
0.0
 40
8.0
  1
Y
 72
     2
 11
1124.600991
 21
33.728457
 31
0.0
  0
LINE
  5
6666
  8
ALPHA
 10
1126.074747
 20
59.728457
 30
0.0
 11
1138.100991
 21
59.728457
 31
0.0
  0
LINE
  5
6667
  8
ALPHA
 10
1120.923893
 20
54.728457
 30
0.0
 11
1138.100991
 21
54.728457
 31
0.0
  0
LINE
  5
6668
  8
ALPHA
 10
1122.585142
 20
56.728457
 30
0.0
 11
1125.074011
 21
56.728457
 31
0.0
  0
LINE
  5
6669
  8
ALPHA
 10
1120.192912
 20
57.728457
 30
0.0
 11
1122.55724
 21
57.728457
 31
0.0
  0
LINE
  5
666A
  8
ALPHA
 10
1126.074747
 20
59.728457
 30
0.0
 11
1125.074011
 21
56.728457
 31
0.0
  0
TEXT
  5
667F
  8
AXE
 10
1146.624801
 20
87.228457
 30
0.0
 40
8.0
  1
Z
 72
     2
 11
1153.100991
 21
87.228457
 31
0.0
  0
LINE
  5
6CAE
  8
ALPHA
 10
1113.100991
 20
118.728457
 30
0.0
 11
1138.100991
 21
118.728457
 31
0.0
  0
DIMENSION
  5
6E72
  8
COTATION1
  2
*D4
 10
1128.350991
 20
165.978457
 30
0.0
 11
1112.850991
 21
165.978457
 31
0.0
 70
   128
 13
1122.850991
 23
149.728457
 33
0.0
 14
1128.350991
 24
149.728457
 34
0.0
  0
DIMENSION
  5
6E73
  8
COTATION1
  2
*D5
 10
1138.100991
 20
178.728457
 30
0.0
 11
1148.82169
 21
178.502426
 31
0.0
 70
   128
 13
1125.600991
 23
157.728457
 33
0.0
 14
1138.100991
 24
118.728457
 34
0.0
  0
LINE
  5
6E74
  8
AXE
 10
1125.600991
 20
157.728457
 30
0.0
 11
1125.600991
 21
33.728457
 31
0.0
  0
LINE
  5
6E84
  8
ALPHA
 10
1132.800991
 20
132.778457
 30
0.0
 11
1132.800991
 21
122.728457
 31
0.0
  0
LINE
  5
6E85
  8
ALPHA
 10
1135.100991
 20
132.078457
 30
0.0
 11
1135.100991
 21
118.728457
 31
0.0
  0
LINE
  5
6E86
  8
ALPHA
 10
1134.400991
 20
132.778457
 30
0.0
 11
1134.400991
 21
119.486237
 31
0.0
  0
LINE
  5
6E87
  8
ALPHA
 10
1118.400991
 20
132.778457
 30
0.0
 11
1118.400991
 21
122.728457
 31
0.0
  0
LINE
  5
6E88
  8
ALPHA
 10
1116.800991
 20
132.778457
 30
0.0
 11
1116.800991
 21
119.486237
 31
0.0
  0
LINE
  5
6E89
  8
ALPHA
 10
1116.100991
 20
132.078457
 30
0.0
 11
1116.100991
 21
118.728457
 31
0.0
  0
LINE
  5
6E8A
  8
ALPHA
 10
1132.600991
 20
147.228457
 30
0.0
 11
1132.600991
 21
123.028457
 31
0.0
  0
LINE
  5
6E8B
  8
ALPHA
 10
1118.600991
 20
147.228457
 30
0.0
 11
1118.600991
 21
123.028457
 31
0.0
  0
LINE
  5
6E8C
  8
ALPHA
 10
1118.600991
 20
123.028457
 30
0.0
 11
1125.600991
 21
123.028457
 31
0.0
  0
LINE
  5
6E8D
  8
ALPHA
 10
1116.100991
 20
119.486237
 30
0.0
 11
1125.600991
 21
119.486237
 31
0.0
  0
LINE
  5
6E8E
  8
ALPHA
 10
1116.800991
 20
122.728457
 30
0.0
 11
1125.600991
 21
122.728457
 31
0.0
  0
LINE
  5
6E91
  8
ALPHA
 10
1134.400991
 20
122.728457
 30
0.0
 11
1125.600991
 21
122.728457
 31
0.0
  0
LINE
  5
6E92
  8
ALPHA
 10
1132.600991
 20
123.028457
 30
0.0
 11
1125.600991
 21
123.028457
 31
0.0
  0
LINE
  5
6E93
  8
ALPHA
 10
1135.100991
 20
119.486237
 30
0.0
 11
1125.600991
 21
119.486237
 31
0.0
  0
LINE
  5
6E94
  8
ALPHA
 10
1118.600991
 20
147.228457
 30
0.0
 11
1122.350991
 21
147.228457
 31
0.0
  0
LINE
  5
6E95
  8
ALPHA
 10
1116.100991
 20
132.078457
 30
0.0
 11
1116.800991
 21
132.778457
 31
0.0
  0
LINE
  5
6E96
  8
ALPHA
 10
1116.800991
 20
132.778457
 30
0.0
 11
1118.400991
 21
132.778457
 31
0.0
  0
LINE
  5
6E97
  8
ALPHA
 10
1128.350991
 20
149.728457
 30
0.0
 11
1125.600991
 21
149.728457
 31
0.0
  0
LINE
  5
6E98
  8
ALPHA
 10
1132.600991
 20
147.228457
 30
0.0
 11
1128.850991
 21
147.228457
 31
0.0
  0
LINE
  5
6E99
  8
ALPHA
 10
1122.850991
 20
149.728457
 30
0.0
 11
1125.600991
 21
149.728457
 31
0.0
  0
LINE
  5
6E9A
  8
ALPHA
 10
1128.350991
 20
135.728457
 30
0.0
 11
1125.600991
 21
135.728457
 31
0.0
  0
LINE
  5
6E9B
  8
ALPHA
 10
1128.850991
 20
135.228457
 30
0.0
 11
1125.600991
 21
135.228457
 31
0.0
  0
LINE
  5
6E9C
  8
ALPHA
 10
1122.350991
 20
135.228457
 30
0.0
 11
1125.600991
 21
135.228457
 31
0.0
  0
LINE
  5
6E9D
  8
ALPHA
 10
1122.850991
 20
135.728457
 30
0.0
 11
1125.600991
 21
135.728457
 31
0.0
  0
LINE
  5
6E9E
  8
ALPHA
 10
1134.400991
 20
132.778457
 30
0.0
 11
1132.800991
 21
132.778457
 31
0.0
  0
LINE
  5
6E9F
  8
ALPHA
 10
1135.100991
 20
132.078457
 30
0.0
 11
1134.400991
 21
132.778457
 31
0.0
  0
LINE
  5
6EA0
  8
ALPHA
 10
1128.350991
 20
149.728457
 30
0.0
 11
1128.350991
 21
135.728457
 31
0.0
  0
LINE
  5
6EA1
  8
ALPHA
 10
1128.850991
 20
147.228457
 30
0.0
 11
1128.850991
 21
135.228457
 31
0.0
  0
LINE
  5
6EA2
  8
ALPHA
 10
1122.350991
 20
147.228457
 30
0.0
 11
1122.350991
 21
135.228457
 31
0.0
  0
LINE
  5
6EA3
  8
ALPHA
 10
1122.850991
 20
149.728457
 30
0.0
 11
1122.850991
 21
135.728457
 31
0.0
  0
DIMENSION
  5
6FDC
  8
COTATION1
  2
*D6
 10
1138.100991
 20
71.587159
 30
0.0
 11
1146.860505
 21
73.824117
 31
0.0
 70
   128
 13
1134.100991
 23
57.728457
 33
0.0
 14
1138.100991
 24
59.728457
 34
0.0
  0
LINE
  5
6FDD
  8
POINTILLE_COURT
 10
1138.100991
 20
56.228457
 30
0.0
 11
1135.600991
 21
56.228457
 31
0.0
  0
LINE
  5
6FDE
  8
POINTILLE_COURT
 10
1138.100991
 20
59.228457
 30
0.0
 11
1135.600991
 21
59.228457
 31
0.0
  0
ARC
  5
6FDF
  8
POINTILLE_COURT
 10
1135.600991
 20
57.728457
 30
0.0
 40
1.5
 50
90.0
 51
270.0
  0
LINE
  5
7046
  8
ALPHA
 10
1114.750991
 20
50.228457
 30
0.0
 11
1136.450991
 21
50.228457
 31
0.0
  0
LINE
  5
7047
  8
ALPHA
 10
1114.750991
 20
50.228457
 30
0.0
 11
1114.750991
 21
53.728457
 31
0.0
  0
LINE
  5
7048
  8
ALPHA
 10
1136.450991
 20
53.728457
 30
0.0
 11
1136.450991
 21
50.228457
 31
0.0
  0
VIEWPORT
  5
494D
 67
     1
  8
0
 10
4.995325
 20
6.556512
 30
0.0
 40
22.70986
 41
13.988421
 68
    -1
 69
     1
1001
ACAD
1000
MVIEW
1002
{
1070
    16
1010
0.0
1020
0.0
1030
0.0
1010
0.0
1020
0.0
1030
1.0
1040
0.0
1040
13.988421
1040
4.995325
1040
6.556512
1040
50.0
1040
0.0
1040
0.0
1070
     0
1070
   100
1070
     1
1070
     1
1070
     0
1070
     0
1070
     0
1070
     0
1040
0.0
1040
0.0
1040
0.0
1040
10.0
1040
10.0
1040
10.0
1040
10.0
1070
     0
1002
{
1002
}
1002
}
  0
ENDSEC
  0
EOF
