  0
SECTION
  2
HEADER
  9
$ACADVER
  1
AC1009
  9
$INSBASE
 10
402.590624
 20
-1.041018
 30
0.0
  9
$EXTMIN
 10
-80.103176
 20
23.728457
 30
0.0
  9
$EXTMAX
 10
-8.281748
 20
222.656652
 30
0.0
  9
$LIMMIN
 10
-407.970438
 20
-367.832444
  9
$LIMMAX
 10
429.804077
 20
234.370848
  9
$ORTHOMODE
 70
     1
  9
$REGENMODE
 70
     1
  9
$FILLMODE
 70
     1
  9
$QTEXTMODE
 70
     0
  9
$MIRRTEXT
 70
     1
  9
$DRAGMODE
 70
     2
  9
$LTSCALE
 40
10.0
  9
$OSMODE
 70
    33
  9
$ATTMODE
 70
     1
  9
$TEXTSIZE
 40
6.0
  9
$TRACEWID
 40
1.0
  9
$TEXTSTYLE
  7
ROMANS
  9
$CLAYER
  8
ALPHA
  9
$CELTYPE
  6
BYLAYER
  9
$CECOLOR
 62
   256
  9
$DIMSCALE
 40
1.0
  9
$DIMASZ
 40
5.0
  9
$DIMEXO
 40
2.0
  9
$DIMDLI
 40
0.38
  9
$DIMRND
 40
0.0
  9
$DIMDLE
 40
0.0
  9
$DIMEXE
 40
2.5
  9
$DIMTP
 40
0.0
  9
$DIMTM
 40
0.0
  9
$DIMTXT
 40
2.5
  9
$DIMCEN
 40
0.0
  9
$DIMTSZ
 40
0.0
  9
$DIMTOL
 70
     0
  9
$DIMLIM
 70
     0
  9
$DIMTIH
 70
     1
  9
$DIMTOH
 70
     1
  9
$DIMSE1
 70
     0
  9
$DIMSE2
 70
     0
  9
$DIMTAD
 70
     1
  9
$DIMZIN
 70
    12
  9
$DIMBLK
  1
OPEN30
  9
$DIMASO
 70
     1
  9
$DIMSHO
 70
     1
  9
$DIMPOST
  1

  9
$DIMAPOST
  1

  9
$DIMALT
 70
     0
  9
$DIMALTD
 70
     2
  9
$DIMALTF
 40
25.4
  9
$DIMLFAC
 40
1.0
  9
$DIMTOFL
 70
     0
  9
$DIMTVP
 40
0.0
  9
$DIMTIX
 70
     0
  9
$DIMSOXD
 70
     0
  9
$DIMSAH
 70
     0
  9
$DIMBLK1
  1

  9
$DIMBLK2
  1

  9
$DIMSTYLE
  2
SC_DEFAUT
  9
$DIMCLRD
 70
     0
  9
$DIMCLRE
 70
     0
  9
$DIMCLRT
 70
     0
  9
$DIMTFAC
 40
1.0
  9
$DIMGAP
 40
2.0
  9
$LUNITS
 70
     2
  9
$LUPREC
 70
     1
  9
$SKETCHINC
 40
0.1
  9
$FILLETRAD
 40
0.0
  9
$AUNITS
 70
     0
  9
$AUPREC
 70
     0
  9
$MENU
  1
acad
  9
$ELEVATION
 40
0.0
  9
$PELEVATION
 40
0.0
  9
$THICKNESS
 40
0.0
  9
$LIMCHECK
 70
     0
  9
$BLIPMODE
 70
     0
  9
$CHAMFERA
 40
0.0
  9
$CHAMFERB
 40
0.0
  9
$SKPOLY
 70
     0
  9
$TDCREATE
 40
2450373.687919
  9
$TDUPDATE
 40
2452824.597323
  9
$TDINDWG
 40
1.27057
  9
$TDUSRTIMER
 40
1.27057
  9
$USRTIMER
 70
     1
  9
$ANGBASE
 50
0.0
  9
$ANGDIR
 70
     0
  9
$PDMODE
 70
    32
  9
$PDSIZE
 40
0.0
  9
$PLINEWID
 40
0.0
  9
$COORDS
 70
     1
  9
$SPLFRAME
 70
     0
  9
$SPLINETYPE
 70
     6
  9
$SPLINESEGS
 70
     8
  9
$ATTDIA
 70
     0
  9
$ATTREQ
 70
     1
  9
$HANDLING
 70
     1
  9
$HANDSEED
  5
D2EB
  9
$SURFTAB1
 70
     6
  9
$SURFTAB2
 70
     6
  9
$SURFTYPE
 70
     6
  9
$SURFU
 70
     6
  9
$SURFV
 70
     6
  9
$UCSNAME
  2

  9
$UCSORG
 10
0.0
 20
0.0
 30
0.0
  9
$UCSXDIR
 10
1.0
 20
0.0
 30
0.0
  9
$UCSYDIR
 10
0.0
 20
1.0
 30
0.0
  9
$PUCSNAME
  2

  9
$PUCSORG
 10
0.0
 20
0.0
 30
0.0
  9
$PUCSXDIR
 10
1.0
 20
0.0
 30
0.0
  9
$PUCSYDIR
 10
0.0
 20
1.0
 30
0.0
  9
$USERI1
 70
     0
  9
$USERI2
 70
     0
  9
$USERI3
 70
     0
  9
$USERI4
 70
     0
  9
$USERI5
 70
     0
  9
$USERR1
 40
0.0
  9
$USERR2
 40
0.0
  9
$USERR3
 40
0.0
  9
$USERR4
 40
0.0
  9
$USERR5
 40
0.0
  9
$WORLDVIEW
 70
     1
  9
$SHADEDGE
 70
     3
  9
$SHADEDIF
 70
    70
  9
$TILEMODE
 70
     1
  9
$MAXACTVP
 70
    16
  9
$PLIMCHECK
 70
     0
  9
$PEXTMIN
 10
-1.452248
 20
-0.437698
 30
0.0
  9
$PEXTMAX
 10
12.749749
 20
8.310198
 30
0.0
  9
$PLIMMIN
 10
0.0
 20
0.0
  9
$PLIMMAX
 10
12.0
 20
9.0
  9
$UNITMODE
 70
     0
  9
$VISRETAIN
 70
     0
  9
$PLINEGEN
 70
     0
  9
$PSLTSCALE
 70
     0
  0
ENDSEC
  0
SECTION
  2
TABLES
  0
TABLE
  2
VPORT
 70
     2
  0
VPORT
  2
*ACTIVE
 70
     0
 10
0.0
 20
0.0
 11
1.0
 21
1.0
 12
-44.211697
 22
123.18065
 13
0.0
 23
0.0
 14
1.0
 24
1.0
 15
10.0
 25
10.0
 16
0.0
 26
0.0
 36
1.0
 17
0.0
 27
0.0
 37
0.0
 40
200.688634
 41
1.56
 42
50.0
 43
0.0
 44
0.0
 50
0.0
 51
0.0
 71
     0
 72
   100
 73
     1
 74
     0
 75
     0
 76
     0
 77
     0
 78
     0
  0
ENDTAB
  0
TABLE
  2
LTYPE
 70
     3
  0
LTYPE
  2
CONTINUOUS
 70
     0
  3
Solid line
 72
    65
 73
     0
 40
0.0
  0
LTYPE
  2
AXES2
 70
     0
  3
___ _ ___ _ ___ _ ___ _ ___ _ ___ _ ___ _ ___ _
 72
    65
 73
     4
 40
1.125
 49
0.75
 49
-0.125
 49
0.125
 49
-0.125
  0
LTYPE
  2
CACHE2
 70
     0
  3
Caché (x.5) _ _ _ _ _ _ _ _ _ _ _ _ _ _ _ _ _
 72
    65
 73
     2
 40
0.1875
 49
0.125
 49
-0.0625
  0
ENDTAB
  0
TABLE
  2
LAYER
 70
     6
  0
LAYER
  2
0
 70
     0
 62
   255
  6
CONTINUOUS
  0
LAYER
  2
COTATION1
 70
     0
 62
     2
  6
CONTINUOUS
  0
LAYER
  2
AXE
 70
     0
 62
    80
  6
AXES2
  0
LAYER
  2
DEFPOINTS
 70
     0
 62
     7
  6
CONTINUOUS
  0
LAYER
  2
ALPHA
 70
     0
 62
   254
  6
CONTINUOUS
  0
LAYER
  2
POINTILLE_COURT
 70
     0
 62
    41
  6
CACHE2
  0
ENDTAB
  0
TABLE
  2
STYLE
 70
     2
  0
STYLE
  2
ROMANS
 70
     0
 40
0.0
 41
1.0
 50
0.0
 71
     0
 42
6.0
  3
romans
  4

  0
STYLE
  2
STANDARD
 70
     0
 40
0.2
 41
1.0
 50
0.0
 71
     0
 42
0.2
  3
txt
  4

  0
ENDTAB
  0
TABLE
  2
VIEW
 70
     0
  0
ENDTAB
  0
TABLE
  2
UCS
 70
     0
  0
ENDTAB
  0
TABLE
  2
APPID
 70
     1
  0
APPID
  2
ACAD
 70
     0
  0
ENDTAB
  0
TABLE
  2
DIMSTYLE
 70
     1
  0
DIMSTYLE
  2
SC_DEFAUT
 70
     0
  3

  4

  5
OPEN30
  6

  7

 40
1.0
 41
5.0
 42
2.0
 43
0.38
 44
2.5
 45
0.0
 46
0.0
 47
0.0
 48
0.0
140
2.5
141
0.0
142
0.0
143
25.4
144
1.0
145
0.0
146
1.0
147
2.0
 71
     0
 72
     0
 73
     1
 74
     1
 75
     0
 76
     0
 77
     1
 78
    12
170
     0
171
     2
172
     0
173
     0
174
     0
175
     0
176
     0
177
     0
178
     0
  0
ENDTAB
  0
ENDSEC
  0
SECTION
  2
BLOCKS
  0
BLOCK
  8
0
  2
$MODEL_SPACE
 70
     0
 10
0.0
 20
0.0
 30
0.0
  3
$MODEL_SPACE
  1

  0
ENDBLK
  5
D2C4
  8
0
  0
BLOCK
 67
     1
  8
0
  2
$PAPER_SPACE
 70
     0
 10
0.0
 20
0.0
 30
0.0
  3
$PAPER_SPACE
  1

  0
ENDBLK
  5
D2C2
 67
     1
  8
0
  0
BLOCK
  8
0
  2
COTE
 70
     0
 10
0.0
 20
0.0
 30
0.0
  3
COTE
  1

  0
ENDBLK
  5
F
  8
0
  0
BLOCK
  8
0
  2
FOND
 70
     0
 10
0.0
 20
0.0
 30
0.0
  3
FOND
  1

  0
ENDBLK
  5
75
  8
0
  0
BLOCK
  8
0
  2
_OPEN30
 70
     0
 10
0.0
 20
0.0
 30
0.0
  3
_OPEN30
  1

  0
LINE
  5
4B05
  8
COTATION1
 62
     0
 10
-1.0
 20
0.267949
 30
0.0
 11
0.0
 21
0.0
 31
0.0
1001
ACAD
1000
RTLwPs
1070
   158
  0
LINE
  5
4B06
  8
COTATION1
 62
     0
 10
0.0
 20
0.0
 30
0.0
 11
-1.0
 21
-0.267949
 31
0.0
1001
ACAD
1000
RTLwPs
1070
   158
  0
LINE
  5
4B07
  8
COTATION1
 62
     0
 10
0.0
 20
0.0
 30
0.0
 11
-1.0
 21
0.0
 31
0.0
1001
ACAD
1000
RTLwPs
1070
   158
  0
ENDBLK
  5
4B09
  8
0
  0
BLOCK
  8
0
  2
*D3
 70
     1
 10
0.0
 20
0.0
 30
0.0
  3
*D3
  1

  0
LINE
  5
CF94
  8
COTATION1
 62
     0
 10
-70.603176
 20
108.204829
 30
0.0
 11
-70.603176
 21
210.656652
 31
0.0
1001
ACAD
1000
RTLwPs
1070
   158
  0
LINE
  5
CF95
  8
COTATION1
 62
     0
 10
-40.603176
 20
135.67456
 30
0.0
 11
-40.603176
 21
210.656652
 31
0.0
1001
ACAD
1000
RTLwPs
1070
   158
  0
LINE
  5
CF96
  8
COTATION1
 62
     0
 10
-65.603176
 20
208.156652
 30
0.0
 11
-45.603176
 21
208.156652
 31
0.0
1001
ACAD
1000
RTLwPs
1070
   158
  0
INSERT
  5
CF97
  8
COTATION1
 62
     0
  2
_OPEN30
 10
-70.603176
 20
208.156652
 30
0.0
 41
5.0
 42
5.0
 43
5.0
 50
180.0
1001
ACAD
1000
RTLwPs
1070
   158
  0
INSERT
  5
CF98
  8
COTATION1
 62
     0
  2
_OPEN30
 10
-40.603176
 20
208.156652
 30
0.0
 41
5.0
 42
5.0
 43
5.0
1001
ACAD
1000
RTLwPs
1070
   158
  0
TEXT
  5
CF99
  8
COTATION1
 62
     0
 10
-57.984129
 20
210.156652
 30
0.0
 40
2.5
  1
30
1001
ACAD
1000
MTEXTBEGIN
1070
    73
1070
     1
1070
    44
1040
1.0
1070
    74
1070
     0
1000
MTEXTEND
1000
MTEXTBEGIN
1070
    73
1070
     1
1070
    44
1040
1.0
1070
    74
1070
     0
1000
MTEXTEND
1000
MTEXTBEGIN
1070
    73
1070
     1
1070
    44
1040
1.0
1070
    74
1070
     0
1000
MTEXTEND
1000
MTEXTBEGIN
1070
    73
1070
     1
1070
    44
1040
1.0
1070
    74
1070
     0
1000
MTEXTEND
  0
POINT
  5
CF9A
  8
DEFPOINTS
 62
     0
 10
-70.603176
 20
106.204829
 30
0.0
  0
POINT
  5
CF9B
  8
DEFPOINTS
 62
     0
 10
-40.603176
 20
133.67456
 30
0.0
  0
POINT
  5
CF9C
  8
DEFPOINTS
 62
     0
 10
-40.603176
 20
208.156652
 30
0.0
  0
ENDBLK
  5
C7B0
  8
0
  0
BLOCK
  8
0
  2
*D4
 70
     1
 10
0.0
 20
0.0
 30
0.0
  3
*D4
  1

  0
LINE
  5
D01D
  8
COTATION1
 62
     0
 10
-48.353176
 20
163.228457
 30
0.0
 11
-10.603176
 21
163.228457
 31
0.0
1001
ACAD
1000
RTLwPs
1070
   158
  0
LINE
  5
D01E
  8
COTATION1
 62
     0
 10
-38.603176
 20
39.728457
 30
0.0
 11
-10.603176
 21
39.728457
 31
0.0
1001
ACAD
1000
RTLwPs
1070
   158
  0
LINE
  5
D01F
  8
COTATION1
 62
     0
 10
-13.103176
 20
158.228457
 30
0.0
 11
-13.103176
 21
104.728457
 31
0.0
1001
ACAD
1000
RTLwPs
1070
   158
  0
LINE
  5
D020
  8
COTATION1
 62
     0
 10
-13.103176
 20
44.728457
 30
0.0
 11
-13.103176
 21
98.228457
 31
0.0
1001
ACAD
1000
RTLwPs
1070
   158
  0
INSERT
  5
D021
  8
COTATION1
 62
     0
  2
_OPEN30
 10
-13.103176
 20
163.228457
 30
0.0
 41
5.0
 42
5.0
 43
5.0
 50
90.0
1001
ACAD
1000
RTLwPs
1070
   158
  0
INSERT
  5
D022
  8
COTATION1
 62
     0
  2
_OPEN30
 10
-13.103176
 20
39.728457
 30
0.0
 41
5.0
 42
5.0
 43
5.0
 50
270.0
1001
ACAD
1000
RTLwPs
1070
   158
  0
TEXT
  5
D023
  8
COTATION1
 62
     0
 10
-18.63889
 20
100.228457
 30
0.0
 40
2.5
  1
123.5
1001
ACAD
1000
MTEXTBEGIN
1070
    73
1070
     1
1070
    44
1040
1.0
1070
    74
1070
     0
1000
MTEXTEND
1000
MTEXTBEGIN
1070
    73
1070
     1
1070
    44
1040
1.0
1070
    74
1070
     0
1000
MTEXTEND
1000
MTEXTBEGIN
1070
    73
1070
     1
1070
    44
1040
1.0
1070
    74
1070
     0
1000
MTEXTEND
1000
MTEXTBEGIN
1070
    73
1070
     1
1070
    44
1040
1.0
1070
    74
1070
     0
1000
MTEXTEND
  0
POINT
  5
D024
  8
DEFPOINTS
 62
     0
 10
-50.353176
 20
163.228457
 30
0.0
  0
POINT
  5
D025
  8
DEFPOINTS
 62
     0
 10
-40.603176
 20
39.728457
 30
0.0
  0
POINT
  5
D026
  8
DEFPOINTS
 62
     0
 10
-13.103176
 20
39.728457
 30
0.0
  0
ENDBLK
  5
C7BD
  8
0
  0
BLOCK
  8
0
  2
*D5
 70
     1
 10
0.0
 20
0.0
 30
0.0
  3
*D5
  1

  0
LINE
  5
CF8B
  8
COTATION1
 62
     0
 10
-80.103176
 20
123.428421
 30
0.0
 11
-80.103176
 21
220.656652
 31
0.0
1001
ACAD
1000
RTLwPs
1070
   158
  0
LINE
  5
CF8C
  8
COTATION1
 62
     0
 10
-40.603176
 20
135.67456
 30
0.0
 11
-40.603176
 21
220.656652
 31
0.0
1001
ACAD
1000
RTLwPs
1070
   158
  0
LINE
  5
CF8D
  8
COTATION1
 62
     0
 10
-75.103176
 20
218.156652
 30
0.0
 11
-45.603176
 21
218.156652
 31
0.0
1001
ACAD
1000
RTLwPs
1070
   158
  0
INSERT
  5
CF8E
  8
COTATION1
 62
     0
  2
_OPEN30
 10
-80.103176
 20
218.156652
 30
0.0
 41
5.0
 42
5.0
 43
5.0
 50
180.0
1001
ACAD
1000
RTLwPs
1070
   158
  0
INSERT
  5
CF8F
  8
COTATION1
 62
     0
  2
_OPEN30
 10
-40.603176
 20
218.156652
 30
0.0
 41
5.0
 42
5.0
 43
5.0
1001
ACAD
1000
RTLwPs
1070
   158
  0
TEXT
  5
CF90
  8
COTATION1
 62
     0
 10
-64.519843
 20
220.156652
 30
0.0
 40
2.5
  1
39.5
1001
ACAD
1000
MTEXTBEGIN
1070
    73
1070
     1
1070
    44
1040
1.0
1070
    74
1070
     0
1000
MTEXTEND
1000
MTEXTBEGIN
1070
    73
1070
     1
1070
    44
1040
1.0
1070
    74
1070
     0
1000
MTEXTEND
1000
MTEXTBEGIN
1070
    73
1070
     1
1070
    44
1040
1.0
1070
    74
1070
     0
1000
MTEXTEND
1000
MTEXTBEGIN
1070
    73
1070
     1
1070
    44
1040
1.0
1070
    74
1070
     0
1000
MTEXTEND
  0
POINT
  5
CF91
  8
DEFPOINTS
 62
     0
 10
-80.103176
 20
121.428421
 30
0.0
  0
POINT
  5
CF92
  8
DEFPOINTS
 62
     0
 10
-40.603176
 20
133.67456
 30
0.0
  0
POINT
  5
CF93
  8
DEFPOINTS
 62
     0
 10
-40.603176
 20
218.156652
 30
0.0
  0
ENDBLK
  5
C8DB
  8
0
  0
BLOCK
  8
0
  2
*D6
 70
     1
 10
0.0
 20
0.0
 30
0.0
  3
*D6
  1

  0
LINE
  5
CFB1
  8
COTATION1
 62
     0
 10
-53.103176
 20
170.228457
 30
0.0
 11
-53.103176
 21
191.728457
 31
0.0
1001
ACAD
1000
RTLwPs
1070
   158
  0
LINE
  5
CFB2
  8
COTATION1
 62
     0
 10
-40.603176
 20
135.67456
 30
0.0
 11
-40.603176
 21
191.728457
 31
0.0
1001
ACAD
1000
RTLwPs
1070
   158
  0
LINE
  5
CFB3
  8
COTATION1
 62
     0
 10
-58.103176
 20
189.228457
 30
0.0
 11
-63.103176
 21
189.228457
 31
0.0
1001
ACAD
1000
RTLwPs
1070
   158
  0
LINE
  5
CFB4
  8
COTATION1
 62
     0
 10
-35.603176
 20
189.228457
 30
0.0
 11
-30.603176
 21
189.228457
 31
0.0
1001
ACAD
1000
RTLwPs
1070
   158
  0
TEXT
  5
CFB5
  8
COTATION1
 62
     0
 10
-34.227715
 20
191.002426
 30
0.0
 40
2.5
  1
12.5
1001
ACAD
1000
MTEXTBEGIN
1070
    73
1070
     1
1070
    44
1040
1.0
1070
    74
1070
     0
1000
MTEXTEND
1000
MTEXTBEGIN
1070
    73
1070
     1
1070
    44
1040
1.0
1070
    74
1070
     0
1000
MTEXTEND
1000
MTEXTBEGIN
1070
    73
1070
     1
1070
    44
1040
1.0
1070
    74
1070
     0
1000
MTEXTEND
1000
MTEXTBEGIN
1070
    73
1070
     1
1070
    44
1040
1.0
1070
    74
1070
     0
1000
MTEXTEND
  0
INSERT
  5
CFB6
  8
COTATION1
 62
     0
  2
_OPEN30
 10
-53.103176
 20
189.228457
 30
0.0
 41
5.0
 42
5.0
 43
5.0
1001
ACAD
1000
RTLwPs
1070
   158
  0
INSERT
  5
CFB7
  8
COTATION1
 62
     0
  2
_OPEN30
 10
-40.603176
 20
189.228457
 30
0.0
 41
5.0
 42
5.0
 43
5.0
 50
180.0
1001
ACAD
1000
RTLwPs
1070
   158
  0
POINT
  5
CFB8
  8
DEFPOINTS
 62
     0
 10
-53.103176
 20
168.228457
 30
0.0
  0
POINT
  5
CFB9
  8
DEFPOINTS
 62
     0
 10
-40.603176
 20
133.67456
 30
0.0
  0
POINT
  5
CFBA
  8
DEFPOINTS
 62
     0
 10
-40.603176
 20
189.228457
 30
0.0
  0
ENDBLK
  5
CDE8
  8
0
  0
BLOCK
  8
0
  2
*D7
 70
     1
 10
0.0
 20
0.0
 30
0.0
  3
*D7
  1

  0
LINE
  5
CFA7
  8
COTATION1
 62
     0
 10
-55.853176
 20
165.228457
 30
0.0
 11
-55.853176
 21
180.728457
 31
0.0
1001
ACAD
1000
RTLwPs
1070
   158
  0
LINE
  5
CFA8
  8
COTATION1
 62
     0
 10
-50.353176
 20
165.228457
 30
0.0
 11
-50.353176
 21
180.728457
 31
0.0
1001
ACAD
1000
RTLwPs
1070
   158
  0
LINE
  5
CFA9
  8
COTATION1
 62
     0
 10
-60.853176
 20
178.228457
 30
0.0
 11
-65.853176
 21
178.228457
 31
0.0
1001
ACAD
1000
RTLwPs
1070
   158
  0
LINE
  5
CFAA
  8
COTATION1
 62
     0
 10
-45.353176
 20
178.228457
 30
0.0
 11
-40.353176
 21
178.228457
 31
0.0
1001
ACAD
1000
RTLwPs
1070
   158
  0
TEXT
  5
CFAB
  8
COTATION1
 62
     0
 10
-68.829367
 20
180.228457
 30
0.0
 40
2.5
  1
5.5
1001
ACAD
1000
MTEXTBEGIN
1070
    73
1070
     1
1070
    44
1040
1.0
1070
    74
1070
     0
1000
MTEXTEND
1000
MTEXTBEGIN
1070
    73
1070
     1
1070
    44
1040
1.0
1070
    74
1070
     0
1000
MTEXTEND
1000
MTEXTBEGIN
1070
    73
1070
     1
1070
    44
1040
1.0
1070
    74
1070
     0
1000
MTEXTEND
1000
MTEXTBEGIN
1070
    73
1070
     1
1070
    44
1040
1.0
1070
    74
1070
     0
1000
MTEXTEND
  0
INSERT
  5
CFAC
  8
COTATION1
 62
     0
  2
_OPEN30
 10
-55.853176
 20
178.228457
 30
0.0
 41
5.0
 42
5.0
 43
5.0
1001
ACAD
1000
RTLwPs
1070
   158
  0
INSERT
  5
CFAD
  8
COTATION1
 62
     0
  2
_OPEN30
 10
-50.353176
 20
178.228457
 30
0.0
 41
5.0
 42
5.0
 43
5.0
 50
180.0
1001
ACAD
1000
RTLwPs
1070
   158
  0
POINT
  5
CFAE
  8
DEFPOINTS
 62
     0
 10
-55.853176
 20
163.228457
 30
0.0
  0
POINT
  5
CFAF
  8
DEFPOINTS
 62
     0
 10
-50.353176
 20
163.228457
 30
0.0
  0
POINT
  5
CFB0
  8
DEFPOINTS
 62
     0
 10
-50.353176
 20
178.228457
 30
0.0
  0
ENDBLK
  5
CDF5
  8
0
  0
BLOCK
  8
0
  2
*D8
 70
     1
 10
0.0
 20
0.0
 30
0.0
  3
*D8
  1

  0
LINE
  5
CF78
  8
COTATION1
 62
     0
 10
-61.103176
 20
149.728457
 30
0.0
 11
-61.103176
 21
201.728457
 31
0.0
1001
ACAD
1000
RTLwPs
1070
   158
  0
LINE
  5
CF79
  8
COTATION1
 62
     0
 10
-45.103176
 20
149.728457
 30
0.0
 11
-45.103176
 21
201.728457
 31
0.0
1001
ACAD
1000
RTLwPs
1070
   158
  0
LINE
  5
CF7A
  8
COTATION1
 62
     0
 10
-56.103176
 20
199.228457
 30
0.0
 11
-50.103176
 21
199.228457
 31
0.0
1001
ACAD
1000
RTLwPs
1070
   158
  0
INSERT
  5
CF7B
  8
COTATION1
 62
     0
  2
_OPEN30
 10
-61.103176
 20
199.228457
 30
0.0
 41
5.0
 42
5.0
 43
5.0
 50
180.0
1001
ACAD
1000
RTLwPs
1070
   158
  0
INSERT
  5
CF7C
  8
COTATION1
 62
     0
  2
_OPEN30
 10
-45.103176
 20
199.228457
 30
0.0
 41
5.0
 42
5.0
 43
5.0
1001
ACAD
1000
RTLwPs
1070
   158
  0
TEXT
  5
CF7D
  8
COTATION1
 62
     0
 10
-55.6627
 20
201.228457
 30
0.0
 40
2.5
  1
16
1001
ACAD
1000
MTEXTBEGIN
1070
    73
1070
     1
1070
    44
1040
1.0
1070
    74
1070
     0
1000
MTEXTEND
1000
MTEXTBEGIN
1070
    73
1070
     1
1070
    44
1040
1.0
1070
    74
1070
     0
1000
MTEXTEND
1000
MTEXTBEGIN
1070
    73
1070
     1
1070
    44
1040
1.0
1070
    74
1070
     0
1000
MTEXTEND
1000
MTEXTBEGIN
1070
    73
1070
     1
1070
    44
1040
1.0
1070
    74
1070
     0
1000
MTEXTEND
  0
POINT
  5
CF7E
  8
DEFPOINTS
 62
     0
 10
-61.103176
 20
147.728457
 30
0.0
  0
POINT
  5
CF7F
  8
DEFPOINTS
 62
     0
 10
-45.103176
 20
147.728457
 30
0.0
  0
POINT
  5
CF80
  8
DEFPOINTS
 62
     0
 10
-45.103176
 20
199.228457
 30
0.0
  0
ENDBLK
  5
CE1B
  8
0
  0
BLOCK
  8
0
  2
*D9
 70
     1
 10
0.0
 20
0.0
 30
0.0
  3
*D9
  1

  0
LINE
  5
D22B
  8
COTATION1
 62
     0
 10
-44.603176
 20
59.728457
 30
0.0
 11
-44.603176
 21
72.981314
 31
0.0
1001
ACAD
1000
RTLwPs
1070
   158
  0
LINE
  5
D22C
  8
COTATION1
 62
     0
 10
-40.603176
 20
61.728457
 30
0.0
 11
-40.603176
 21
72.981314
 31
0.0
1001
ACAD
1000
RTLwPs
1070
   158
  0
LINE
  5
D22D
  8
COTATION1
 62
     0
 10
-49.603176
 20
70.481314
 30
0.0
 11
-54.603176
 21
70.481314
 31
0.0
1001
ACAD
1000
RTLwPs
1070
   158
  0
LINE
  5
D22E
  8
COTATION1
 62
     0
 10
-35.603176
 20
70.481314
 30
0.0
 11
-30.603176
 21
70.481314
 31
0.0
1001
ACAD
1000
RTLwPs
1070
   158
  0
TEXT
  5
D22F
  8
COTATION1
 62
     0
 10
-31.853176
 20
72.481314
 30
0.0
 40
2.5
  1
4
1001
ACAD
1000
MTEXTBEGIN
1070
    73
1070
     1
1070
    44
1040
1.0
1070
    74
1070
     0
1000
MTEXTEND
  0
INSERT
  5
D230
  8
COTATION1
 62
     0
  2
_OPEN30
 10
-44.603176
 20
70.481314
 30
0.0
 41
5.0
 42
5.0
 43
5.0
1001
ACAD
1000
RTLwPs
1070
   158
  0
INSERT
  5
D231
  8
COTATION1
 62
     0
  2
_OPEN30
 10
-40.603176
 20
70.481314
 30
0.0
 41
5.0
 42
5.0
 43
5.0
 50
180.0
1001
ACAD
1000
RTLwPs
1070
   158
  0
POINT
  5
D232
  8
DEFPOINTS
 62
     0
 10
-44.603176
 20
57.728457
 30
0.0
  0
POINT
  5
D233
  8
DEFPOINTS
 62
     0
 10
-40.603176
 20
59.728457
 30
0.0
  0
POINT
  5
D234
  8
DEFPOINTS
 62
     0
 10
-40.603176
 20
70.481314
 30
0.0
  0
ENDBLK
  5
D220
  8
0
  0
ENDSEC
  0
SECTION
  2
ENTITIES
  0
INSERT
  5
A
  8
0
  2
COTE
 10
0.0
 20
0.0
 30
0.0
  0
INSERT
  5
17
  8
0
  2
COTE
 10
284.010391
 20
6.373258
 30
0.0
  0
INSERT
  5
72
  8
0
  2
FOND
 10
0.0
 20
0.0
 30
0.0
  0
POLYLINE
  5
C76E
  8
ALPHA
 66
     1
 10
0.0
 20
0.0
 30
0.0
 70
   128
210
0.0
220
0.0
230
-1.0
  0
VERTEX
  5
D2CA
  8
ALPHA
 10
50.363484
 20
56.440208
 30
0.0
  0
VERTEX
  5
D2CB
  8
ALPHA
 10
50.133805
 20
55.94747
 30
0.0
  0
VERTEX
  5
D2CC
  8
ALPHA
 10
50.055742
 20
55.37562
 30
0.0
  0
VERTEX
  5
D2CD
  8
ALPHA
 10
50.37293
 20
54.728457
 30
0.0
  0
SEQEND
  5
D2CE
  8
ALPHA
  0
POLYLINE
  5
C76F
  8
ALPHA
 66
     1
 10
0.0
 20
0.0
 30
0.0
 70
   128
210
0.0
220
0.0
230
-1.0
  0
VERTEX
  5
D2CF
  8
ALPHA
 10
53.213934
 20
57.976207
 30
0.0
  0
VERTEX
  5
D2D0
  8
ALPHA
 10
52.95136
 20
58.342615
 30
0.0
  0
VERTEX
  5
D2D1
  8
ALPHA
 10
52.556433
 20
58.413808
 30
0.0
  0
SEQEND
  5
D2D2
  8
ALPHA
  0
POLYLINE
  5
C770
  8
ALPHA
 66
     1
 10
0.0
 20
0.0
 30
0.0
 70
   128
  0
VERTEX
  5
D2D3
  8
ALPHA
 10
-56.119025
 20
56.728457
 30
0.0
  0
VERTEX
  5
D2D4
  8
ALPHA
 10
-56.924792
 20
69.214045
 30
0.0
  0
VERTEX
  5
D2D5
  8
ALPHA
 10
-58.554122
 20
81.073691
 30
0.0
  0
VERTEX
  5
D2D6
  8
ALPHA
 10
-60.763553
 20
92.082127
 30
0.0
  0
VERTEX
  5
D2D7
  8
ALPHA
 10
-62.009724
 20
97.196747
 30
0.0
  0
VERTEX
  5
D2D8
  8
ALPHA
 10
-63.309622
 20
102.014089
 30
0.0
  0
SEQEND
  5
D2D9
  8
ALPHA
  0
LINE
  5
C771
  8
ALPHA
 10
-70.281023
 20
58.22333
 30
0.0
 11
-70.603176
 21
58.780776
 31
0.0
  0
POLYLINE
  5
C772
  8
ALPHA
 66
     1
 10
0.0
 20
0.0
 30
0.0
 70
   128
210
0.0
220
0.0
230
-1.0
  0
VERTEX
  5
D2DA
  8
ALPHA
 10
57.780274
 20
54.728457
 30
0.0
  0
VERTEX
  5
D2DB
  8
ALPHA
 10
59.467334
 20
54.883982
 30
0.0
  0
VERTEX
  5
D2DC
  8
ALPHA
 10
61.38096
 20
55.250769
 30
0.0
  0
VERTEX
  5
D2DD
  8
ALPHA
 10
65.363653
 20
56.356367
 30
0.0
  0
VERTEX
  5
D2DE
  8
ALPHA
 10
67.170593
 20
56.964297
 30
0.0
  0
VERTEX
  5
D2DF
  8
ALPHA
 10
68.679844
 20
57.521728
 30
0.0
  0
VERTEX
  5
D2E0
  8
ALPHA
 10
69.760342
 20
57.963219
 30
0.0
  0
VERTEX
  5
D2E1
  8
ALPHA
 10
70.281023
 20
58.22333
 30
0.0
  0
SEQEND
  5
D2E2
  8
ALPHA
  0
POLYLINE
  5
C773
  8
ALPHA
 66
     1
 10
0.0
 20
0.0
 30
0.0
 70
   128
210
0.0
220
0.0
230
-1.0
  0
VERTEX
  5
D2E3
  8
ALPHA
 10
52.556433
 20
58.413808
 30
0.0
  0
VERTEX
  5
D2E4
  8
ALPHA
 10
51.816591
 20
58.413808
 30
0.0
  0
VERTEX
  5
D2E5
  8
ALPHA
 10
51.366639
 20
58.282761
 30
0.0
  0
VERTEX
  5
D2E6
  8
ALPHA
 10
50.974143
 20
57.699099
 30
0.0
  0
VERTEX
  5
D2E7
  8
ALPHA
 10
50.578507
 20
56.893738
 30
0.0
  0
VERTEX
  5
D2E8
  8
ALPHA
 10
50.363484
 20
56.440208
 30
0.0
  0
SEQEND
  5
D2E9
  8
ALPHA
  0
LINE
  5
C774
  8
ALPHA
 10
-40.603176
 20
133.67456
 30
0.0
 11
-40.603176
 21
53.728457
 31
0.0
  0
DIMENSION
  5
C775
  8
COTATION1
  2
*D4
 10
-13.103176
 20
39.728457
 30
0.0
 11
-13.103176
 21
101.478457
 31
0.0
 13
-50.353176
 23
163.228457
 33
0.0
 14
-40.603176
 24
39.728457
 34
0.0
 50
90.0
  0
LINE
  5
C776
  8
ALPHA
 10
-65.603176
 20
133.67456
 30
0.0
 11
-65.603176
 21
102.014089
 31
0.0
  0
ARC
  5
C777
  8
ALPHA
 10
-36.93359
 20
106.515651
 30
0.0
 40
33.671021
 50
166.958519
 51
180.528913
  0
DIMENSION
  5
C778
  8
COTATION1
  2
*D3
 10
-40.603176
 20
208.156652
 30
0.0
 11
-55.603176
 21
211.406652
 31
0.0
 13
-70.603176
 23
106.204829
 33
0.0
 14
-40.603176
 24
133.67456
 34
0.0
  0
LINE
  5
C779
  8
AXE
 10
-53.103176
 20
168.228457
 30
0.0
 11
-53.103176
 21
23.728457
 31
0.0
  0
LINE
  5
C77A
  8
ALPHA
 10
-70.603176
 20
103.014089
 30
0.0
 11
-65.91907
 21
103.014089
 31
0.0
  0
LINE
  5
C77C
  8
AXE
 10
-75.603176
 20
86.228457
 30
0.0
 11
-25.603176
 21
86.228457
 31
0.0
  0
LINE
  5
C77D
  8
ALPHA
 10
-70.603176
 20
102.228457
 30
0.0
 11
-70.603176
 21
58.780776
 31
0.0
  0
LINE
  5
C77E
  8
ALPHA
 10
-70.603176
 20
102.228457
 30
0.0
 11
-70.603176
 21
106.204829
 31
0.0
  0
ARC
  5
C780
  8
ALPHA
 10
-214.945408
 20
55.387689
 30
0.0
 40
156.451664
 50
0.857269
 51
18.449068
  0
TEXT
  5
C781
  8
AXE
 10
-60.579367
 20
23.728457
 30
0.0
 40
8.0
  1
Y
 72
     2
 11
-54.103176
 21
23.728457
 31
0.0
  0
LINE
  5
C782
  8
ALPHA
 10
-57.780274
 20
54.728457
 30
0.0
 11
-40.603176
 21
54.728457
 31
0.0
  0
LINE
  5
C783
  8
ALPHA
 10
-52.629421
 20
59.728457
 30
0.0
 11
-40.603176
 21
59.728457
 31
0.0
  0
LINE
  5
C784
  8
ALPHA
 10
-64.603176
 20
53.728457
 30
0.0
 11
-40.603176
 21
53.728457
 31
0.0
  0
LINE
  5
C785
  8
ALPHA
 10
-52.629421
 20
59.728457
 30
0.0
 11
-53.630156
 21
56.728457
 31
0.0
  0
LINE
  5
C786
  8
ALPHA
 10
-58.511255
 20
57.728457
 30
0.0
 11
-56.146928
 21
57.728457
 31
0.0
  0
LINE
  5
C787
  8
ALPHA
 10
-56.119025
 20
56.728457
 30
0.0
 11
-53.630156
 21
56.728457
 31
0.0
  0
LINE
  5
C788
  8
ALPHA
 10
-65.253652
 20
56.331078
 30
0.0
 11
-64.603176
 21
53.728457
 31
0.0
  0
TEXT
  5
C78A
  8
AXE
 10
-32.079367
 20
87.228457
 30
0.0
 40
8.0
  1
Z
 72
     2
 11
-25.603176
 21
87.228457
 31
0.0
  0
LINE
  5
C78C
  8
ALPHA
 10
-65.603176
 20
102.014089
 30
0.0
 11
-63.309622
 21
102.014089
 31
0.0
  0
LINE
  5
C78D
  8
ALPHA
 10
-65.603176
 20
104.898623
 30
0.0
 11
-66.534523
 21
104.898623
 31
0.0
  0
LINE
  5
C78E
  8
ALPHA
 10
-68.266349
 20
115.314173
 30
0.0
 11
-65.603176
 21
115.314173
 31
0.0
  0
ARC
  5
C78F
  8
ALPHA
 10
-68.266349
 20
113.814173
 30
0.0
 40
1.5
 50
90.0
 51
168.480193
  0
LINE
  5
C794
  8
ALPHA
 10
-65.603176
 20
116.028457
 30
0.0
 11
-40.603176
 21
116.028457
 31
0.0
  0
LINE
  5
C79F
  8
ALPHA
 10
-65.603176
 20
118.728457
 30
0.0
 11
-40.603176
 21
118.728457
 31
0.0
  0
LINE
  5
C7D2
  8
ALPHA
 10
-46.103176
 20
47.728457
 30
0.0
 11
-40.603176
 21
47.728457
 31
0.0
  0
LINE
  5
C7D3
  8
ALPHA
 10
-52.603176
 20
49.228457
 30
0.0
 11
-40.903176
 21
49.228457
 31
0.0
  0
LINE
  5
C7D4
  8
ALPHA
 10
-52.603176
 20
39.728457
 30
0.0
 11
-40.603176
 21
39.728457
 31
0.0
  0
LINE
  5
C7D5
  8
ALPHA
 10
-46.103176
 20
47.728457
 30
0.0
 11
-46.103176
 21
39.728457
 31
0.0
  0
LINE
  5
C7D6
  8
ALPHA
 10
-59.103176
 20
47.728457
 30
0.0
 11
-59.103176
 21
39.728457
 31
0.0
  0
LINE
  5
C7D7
  8
ALPHA
 10
-64.603176
 20
47.728457
 30
0.0
 11
-64.603176
 21
39.728457
 31
0.0
  0
LINE
  5
C7D8
  8
ALPHA
 10
-52.603176
 20
39.728457
 30
0.0
 11
-64.603176
 21
39.728457
 31
0.0
  0
LINE
  5
C7D9
  8
ALPHA
 10
-52.603176
 20
49.228457
 30
0.0
 11
-64.303176
 21
49.228457
 31
0.0
  0
LINE
  5
C7DA
  8
ALPHA
 10
-59.103176
 20
47.728457
 30
0.0
 11
-64.603176
 21
47.728457
 31
0.0
  0
ARC
  5
C7DB
  8
ALPHA
 10
-68.742558
 20
51.192498
 30
0.0
 40
4.854438
 50
336.134766
 51
31.493383
  0
LINE
  5
C7DC
  8
ALPHA
 10
-64.303176
 20
49.228457
 30
0.0
 11
-64.603176
 21
47.728457
 31
0.0
  0
ARC
  5
C7DD
  8
ALPHA
 10
-52.603176
 20
34.395124
 30
0.0
 40
14.833333
 50
64.010766
 51
115.989234
  0
LINE
  5
C7DE
  8
ALPHA
 10
-40.603176
 20
47.728457
 30
0.0
 11
-40.603176
 21
39.728457
 31
0.0
  0
LINE
  5
C7DF
  8
ALPHA
 10
-40.903176
 20
49.228457
 30
0.0
 11
-40.603176
 21
47.728457
 31
0.0
  0
ARC
  5
C7E0
  8
ALPHA
 10
-36.463795
 20
51.192498
 30
0.0
 40
4.854438
 50
148.506617
 51
203.865234
  0
LINE
  5
C895
  8
ALPHA
 10
-40.603176
 20
133.67456
 30
0.0
 11
-65.603176
 21
133.67456
 31
0.0
  0
LINE
  5
C896
  8
ALPHA
 10
-40.603176
 20
131.541916
 30
0.0
 11
-65.603176
 21
131.541916
 31
0.0
  0
LINE
  5
C898
  8
ALPHA
 10
-80.103176
 20
120.930987
 30
0.0
 11
-65.603176
 21
120.930987
 31
0.0
  0
LINE
  5
C899
  8
ALPHA
 10
-65.603176
 20
125.986992
 30
0.0
 11
-40.603176
 21
125.986992
 31
0.0
  0
LINE
  5
C89B
  8
ALPHA
 10
-80.103176
 20
121.428421
 30
0.0
 11
-65.603176
 21
121.428421
 31
0.0
  0
LINE
  5
C89C
  8
ALPHA
 10
-80.103176
 20
121.428421
 30
0.0
 11
-80.103176
 21
120.930987
 31
0.0
  0
LINE
  5
C89F
  8
ALPHA
 10
-70.153176
 20
125.428421
 30
0.0
 11
-65.603176
 21
125.428421
 31
0.0
  0
ARC
  5
C8A0
  8
ALPHA
 10
-70.153176
 20
121.428421
 30
0.0
 40
4.0
 50
90.0
 51
180.0
  0
DIMENSION
  5
C8CF
  8
COTATION1
  2
*D5
 10
-40.603176
 20
218.156652
 30
0.0
 11
-60.353176
 21
221.406652
 31
0.0
 13
-80.103176
 23
121.428421
 33
0.0
 14
-40.603176
 24
133.67456
 34
0.0
  0
DIMENSION
  5
CD70
  8
COTATION1
  2
*D8
 10
-45.103176
 20
199.228457
 30
0.0
 11
-53.103176
 21
202.478457
 31
0.0
 13
-61.103176
 23
147.728457
 33
0.0
 14
-45.103176
 24
147.728457
 34
0.0
  0
LINE
  5
CD71
  8
ALPHA
 10
-45.103176
 20
147.728457
 30
0.0
 11
-48.853176
 21
147.728457
 31
0.0
  0
LINE
  5
CD72
  8
ALPHA
 10
-45.103176
 20
138.228457
 30
0.0
 11
-53.103176
 21
138.228457
 31
0.0
  0
DIMENSION
  5
CD73
  8
COTATION1
  2
*D7
 10
-50.353176
 20
178.228457
 30
0.0
 11
-65.853176
 21
178.228457
 31
0.0
 70
   128
 13
-55.853176
 23
163.228457
 33
0.0
 14
-50.353176
 24
163.228457
 34
0.0
  0
DIMENSION
  5
CD78
  8
COTATION1
  2
*D6
 10
-40.603176
 20
189.228457
 30
0.0
 11
-29.882477
 21
189.002426
 31
0.0
 70
   128
 13
-53.103176
 23
168.228457
 33
0.0
 14
-40.603176
 24
133.67456
 34
0.0
  0
LINE
  5
CD79
  8
ALPHA
 10
-61.103176
 20
147.728457
 30
0.0
 11
-61.103176
 21
133.67456
 31
0.0
  0
LINE
  5
CD86
  8
ALPHA
 10
-50.353176
 20
163.228457
 30
0.0
 11
-50.353176
 21
149.228457
 31
0.0
  0
LINE
  5
CD87
  8
ALPHA
 10
-48.853176
 20
162.028457
 30
0.0
 11
-48.853176
 21
138.228457
 31
0.0
  0
LINE
  5
CD88
  8
ALPHA
 10
-57.353176
 20
162.028457
 30
0.0
 11
-57.353176
 21
138.228457
 31
0.0
  0
LINE
  5
CD89
  8
ALPHA
 10
-55.853176
 20
163.228457
 30
0.0
 11
-55.853176
 21
149.228457
 31
0.0
  0
ARC
  5
CD8A
  8
ALPHA
 10
-53.103176
 20
125.915957
 30
0.0
 40
18.3125
 50
76.580326
 51
103.419674
  0
LINE
  5
CD8B
  8
ALPHA
 10
-50.353176
 20
149.228457
 30
0.0
 11
-53.103176
 21
149.228457
 31
0.0
  0
LINE
  5
CD8C
  8
ALPHA
 10
-61.103176
 20
138.228457
 30
0.0
 11
-53.103176
 21
138.228457
 31
0.0
  0
LINE
  5
CD8D
  8
ALPHA
 10
-61.103176
 20
147.728457
 30
0.0
 11
-57.353176
 21
147.728457
 31
0.0
  0
LINE
  5
CD8E
  8
ALPHA
 10
-55.853176
 20
149.228457
 30
0.0
 11
-53.103176
 21
149.228457
 31
0.0
  0
LINE
  5
CD8F
  8
ALPHA
 10
-50.353176
 20
163.228457
 30
0.0
 11
-53.103176
 21
163.228457
 31
0.0
  0
LINE
  5
CD90
  8
ALPHA
 10
-48.853176
 20
162.028457
 30
0.0
 11
-50.353176
 21
162.028457
 31
0.0
  0
LINE
  5
CD91
  8
ALPHA
 10
-57.353176
 20
162.028457
 30
0.0
 11
-55.853176
 21
162.028457
 31
0.0
  0
LINE
  5
CD92
  8
ALPHA
 10
-55.853176
 20
163.228457
 30
0.0
 11
-53.103176
 21
163.228457
 31
0.0
  0
LINE
  5
CD97
  8
ALPHA
 10
-45.103176
 20
147.728457
 30
0.0
 11
-45.103176
 21
133.67456
 31
0.0
  0
LINE
  5
D1B7
  8
ALPHA
 10
-74.153176
 20
121.428421
 30
0.0
 11
-74.153176
 21
120.930987
 31
0.0
  0
DIMENSION
  5
D20F
  8
COTATION1
  2
*D9
 10
-40.603176
 20
70.481314
 30
0.0
 11
-30.603176
 21
70.481314
 31
0.0
 70
   128
 13
-44.603176
 23
57.728457
 33
0.0
 14
-40.603176
 24
59.728457
 34
0.0
  0
LINE
  5
D210
  8
POINTILLE_COURT
 10
-43.103176
 20
56.228457
 30
0.0
 11
-40.603176
 21
56.228457
 31
0.0
  0
LINE
  5
D211
  8
POINTILLE_COURT
 10
-43.103176
 20
59.228457
 30
0.0
 11
-40.603176
 21
59.228457
 31
0.0
  0
ARC
  5
D212
  8
POINTILLE_COURT
 10
-43.103176
 20
57.728457
 30
0.0
 40
1.5
 50
90.0
 51
270.0
  0
VIEWPORT
  5
494D
 67
     1
  8
0
 10
4.995325
 20
6.556512
 30
0.0
 40
22.70986
 41
13.988421
 68
    -1
 69
     1
1001
ACAD
1000
MVIEW
1002
{
1070
    16
1010
0.0
1020
0.0
1030
0.0
1010
0.0
1020
0.0
1030
1.0
1040
0.0
1040
13.988421
1040
4.995325
1040
6.556512
1040
50.0
1040
0.0
1040
0.0
1070
     0
1070
   100
1070
     1
1070
     1
1070
     0
1070
     0
1070
     0
1070
     0
1040
0.0
1040
0.0
1040
0.0
1040
10.0
1040
10.0
1040
10.0
1040
10.0
1070
     0
1002
{
1002
}
1002
}
  0
ENDSEC
  0
EOF
