  0
SECTION
  2
HEADER
  9
$ACADVER
  1
AC1009
  9
$INSBASE
 10
402.590624
 20
-1.041018
 30
0.0
  9
$EXTMIN
 10
-195.995089
 20
28.332779
 30
0.0
  9
$EXTMAX
 10
-88.181894
 20
184.332779
 30
0.0
  9
$LIMMIN
 10
-407.970438
 20
-367.832444
  9
$LIMMAX
 10
429.804077
 20
234.370848
  9
$ORTHOMODE
 70
     1
  9
$REGENMODE
 70
     1
  9
$FILLMODE
 70
     1
  9
$QTEXTMODE
 70
     0
  9
$MIRRTEXT
 70
     1
  9
$DRAGMODE
 70
     2
  9
$LTSCALE
 40
10.0
  9
$OSMODE
 70
    37
  9
$ATTMODE
 70
     1
  9
$TEXTSIZE
 40
6.0
  9
$TRACEWID
 40
1.0
  9
$TEXTSTYLE
  7
ROMANS
  9
$CLAYER
  8
ALPHA
  9
$CELTYPE
  6
BYLAYER
  9
$CECOLOR
 62
   256
  9
$DIMSCALE
 40
1.0
  9
$DIMASZ
 40
5.0
  9
$DIMEXO
 40
2.0
  9
$DIMDLI
 40
0.38
  9
$DIMRND
 40
0.0
  9
$DIMDLE
 40
0.0
  9
$DIMEXE
 40
2.5
  9
$DIMTP
 40
0.0
  9
$DIMTM
 40
0.0
  9
$DIMTXT
 40
2.5
  9
$DIMCEN
 40
0.0
  9
$DIMTSZ
 40
0.0
  9
$DIMTOL
 70
     0
  9
$DIMLIM
 70
     0
  9
$DIMTIH
 70
     1
  9
$DIMTOH
 70
     1
  9
$DIMSE1
 70
     0
  9
$DIMSE2
 70
     0
  9
$DIMTAD
 70
     1
  9
$DIMZIN
 70
    12
  9
$DIMBLK
  1
OPEN30
  9
$DIMASO
 70
     1
  9
$DIMSHO
 70
     1
  9
$DIMPOST
  1

  9
$DIMAPOST
  1

  9
$DIMALT
 70
     0
  9
$DIMALTD
 70
     2
  9
$DIMALTF
 40
25.4
  9
$DIMLFAC
 40
1.0
  9
$DIMTOFL
 70
     0
  9
$DIMTVP
 40
0.0
  9
$DIMTIX
 70
     0
  9
$DIMSOXD
 70
     0
  9
$DIMSAH
 70
     0
  9
$DIMBLK1
  1

  9
$DIMBLK2
  1

  9
$DIMSTYLE
  2
SC_DEFAUT
  9
$DIMCLRD
 70
     0
  9
$DIMCLRE
 70
     0
  9
$DIMCLRT
 70
     0
  9
$DIMTFAC
 40
1.0
  9
$DIMGAP
 40
2.0
  9
$LUNITS
 70
     2
  9
$LUPREC
 70
     1
  9
$SKETCHINC
 40
0.1
  9
$FILLETRAD
 40
0.2
  9
$AUNITS
 70
     0
  9
$AUPREC
 70
     0
  9
$MENU
  1
acad
  9
$ELEVATION
 40
0.0
  9
$PELEVATION
 40
0.0
  9
$THICKNESS
 40
0.0
  9
$LIMCHECK
 70
     0
  9
$BLIPMODE
 70
     0
  9
$CHAMFERA
 40
0.0
  9
$CHAMFERB
 40
0.0
  9
$SKPOLY
 70
     0
  9
$TDCREATE
 40
2450373.687919
  9
$TDUPDATE
 40
2452850.662544
  9
$TDINDWG
 40
1.598335
  9
$TDUSRTIMER
 40
1.598335
  9
$USRTIMER
 70
     1
  9
$ANGBASE
 50
0.0
  9
$ANGDIR
 70
     0
  9
$PDMODE
 70
    32
  9
$PDSIZE
 40
0.0
  9
$PLINEWID
 40
0.0
  9
$COORDS
 70
     1
  9
$SPLFRAME
 70
     0
  9
$SPLINETYPE
 70
     6
  9
$SPLINESEGS
 70
     8
  9
$ATTDIA
 70
     0
  9
$ATTREQ
 70
     1
  9
$HANDLING
 70
     1
  9
$HANDSEED
  5
126B6
  9
$SURFTAB1
 70
     6
  9
$SURFTAB2
 70
     6
  9
$SURFTYPE
 70
     6
  9
$SURFU
 70
     6
  9
$SURFV
 70
     6
  9
$UCSNAME
  2

  9
$UCSORG
 10
0.0
 20
0.0
 30
0.0
  9
$UCSXDIR
 10
1.0
 20
0.0
 30
0.0
  9
$UCSYDIR
 10
0.0
 20
1.0
 30
0.0
  9
$PUCSNAME
  2

  9
$PUCSORG
 10
0.0
 20
0.0
 30
0.0
  9
$PUCSXDIR
 10
1.0
 20
0.0
 30
0.0
  9
$PUCSYDIR
 10
0.0
 20
1.0
 30
0.0
  9
$USERI1
 70
     0
  9
$USERI2
 70
     0
  9
$USERI3
 70
     0
  9
$USERI4
 70
     0
  9
$USERI5
 70
     0
  9
$USERR1
 40
0.0
  9
$USERR2
 40
0.0
  9
$USERR3
 40
0.0
  9
$USERR4
 40
0.0
  9
$USERR5
 40
0.0
  9
$WORLDVIEW
 70
     1
  9
$SHADEDGE
 70
     3
  9
$SHADEDIF
 70
    70
  9
$TILEMODE
 70
     1
  9
$MAXACTVP
 70
    16
  9
$PLIMCHECK
 70
     0
  9
$PEXTMIN
 10
-1.452248
 20
-0.437698
 30
0.0
  9
$PEXTMAX
 10
12.749749
 20
8.310198
 30
0.0
  9
$PLIMMIN
 10
0.0
 20
0.0
  9
$PLIMMAX
 10
12.0
 20
9.0
  9
$UNITMODE
 70
     0
  9
$VISRETAIN
 70
     0
  9
$PLINEGEN
 70
     0
  9
$PSLTSCALE
 70
     0
  0
ENDSEC
  0
SECTION
  2
TABLES
  0
TABLE
  2
VPORT
 70
     2
  0
VPORT
  2
*ACTIVE
 70
     0
 10
0.0
 20
0.0
 11
1.0
 21
1.0
 12
-142.100771
 22
106.342003
 13
0.0
 23
0.0
 14
1.0
 24
1.0
 15
10.0
 25
10.0
 16
0.0
 26
0.0
 36
1.0
 17
0.0
 27
0.0
 37
0.0
 40
157.362873
 41
1.56
 42
50.0
 43
0.0
 44
0.0
 50
0.0
 51
0.0
 71
     0
 72
   100
 73
     1
 74
     0
 75
     0
 76
     0
 77
     0
 78
     0
  0
ENDTAB
  0
TABLE
  2
LTYPE
 70
     2
  0
LTYPE
  2
CONTINUOUS
 70
     0
  3
Solid line
 72
    65
 73
     0
 40
0.0
  0
LTYPE
  2
AXES2
 70
     0
  3
___ _ ___ _ ___ _ ___ _ ___ _ ___ _ ___ _ ___ _
 72
    65
 73
     4
 40
1.125
 49
0.75
 49
-0.125
 49
0.125
 49
-0.125
  0
ENDTAB
  0
TABLE
  2
LAYER
 70
     6
  0
LAYER
  2
0
 70
     0
 62
   255
  6
CONTINUOUS
  0
LAYER
  2
COTATION1
 70
     0
 62
     2
  6
CONTINUOUS
  0
LAYER
  2
AXE
 70
     0
 62
    80
  6
AXES2
  0
LAYER
  2
DEFPOINTS
 70
     0
 62
     7
  6
CONTINUOUS
  0
LAYER
  2
ALPHA
 70
     0
 62
   254
  6
CONTINUOUS
  0
LAYER
  2
ALPHA_FIN
 70
     0
 62
   255
  6
CONTINUOUS
  0
ENDTAB
  0
TABLE
  2
STYLE
 70
     2
  0
STYLE
  2
ROMANS
 70
     0
 40
0.0
 41
1.0
 50
0.0
 71
     0
 42
6.0
  3
romans
  4

  0
STYLE
  2
STANDARD
 70
     0
 40
0.2
 41
1.0
 50
0.0
 71
     0
 42
0.2
  3
txt
  4

  0
ENDTAB
  0
TABLE
  2
VIEW
 70
     0
  0
ENDTAB
  0
TABLE
  2
UCS
 70
     0
  0
ENDTAB
  0
TABLE
  2
APPID
 70
     1
  0
APPID
  2
ACAD
 70
     0
  0
ENDTAB
  0
TABLE
  2
DIMSTYLE
 70
     1
  0
DIMSTYLE
  2
SC_DEFAUT
 70
     0
  3

  4

  5
OPEN30
  6

  7

 40
1.0
 41
5.0
 42
2.0
 43
0.38
 44
2.5
 45
0.0
 46
0.0
 47
0.0
 48
0.0
140
2.5
141
0.0
142
0.0
143
25.4
144
1.0
145
0.0
146
1.0
147
2.0
 71
     0
 72
     0
 73
     1
 74
     1
 75
     0
 76
     0
 77
     1
 78
    12
170
     0
171
     2
172
     0
173
     0
174
     0
175
     0
176
     0
177
     0
178
     0
  0
ENDTAB
  0
ENDSEC
  0
SECTION
  2
BLOCKS
  0
BLOCK
  8
0
  2
$MODEL_SPACE
 70
     0
 10
0.0
 20
0.0
 30
0.0
  3
$MODEL_SPACE
  1

  0
ENDBLK
  5
12643
  8
0
  0
BLOCK
 67
     1
  8
0
  2
$PAPER_SPACE
 70
     0
 10
0.0
 20
0.0
 30
0.0
  3
$PAPER_SPACE
  1

  0
ENDBLK
  5
12641
 67
     1
  8
0
  0
BLOCK
  8
0
  2
COTE
 70
     0
 10
0.0
 20
0.0
 30
0.0
  3
COTE
  1

  0
ENDBLK
  5
F
  8
0
  0
BLOCK
  8
0
  2
FOND
 70
     0
 10
0.0
 20
0.0
 30
0.0
  3
FOND
  1

  0
ENDBLK
  5
75
  8
0
  0
BLOCK
  8
0
  2
_OPEN30
 70
     0
 10
0.0
 20
0.0
 30
0.0
  3
_OPEN30
  1

  0
LINE
  5
4B05
  8
COTATION1
 62
     0
 10
-1.0
 20
0.267949
 30
0.0
 11
0.0
 21
0.0
 31
0.0
1001
ACAD
1000
RTLwPs
1070
   158
  0
LINE
  5
4B06
  8
COTATION1
 62
     0
 10
0.0
 20
0.0
 30
0.0
 11
-1.0
 21
-0.267949
 31
0.0
1001
ACAD
1000
RTLwPs
1070
   158
  0
LINE
  5
4B07
  8
COTATION1
 62
     0
 10
0.0
 20
0.0
 30
0.0
 11
-1.0
 21
0.0
 31
0.0
1001
ACAD
1000
RTLwPs
1070
   158
  0
ENDBLK
  5
4B09
  8
0
  0
BLOCK
  8
0
  2
*D3
 70
     1
 10
0.0
 20
0.0
 30
0.0
  3
*D3
  1

  0
LINE
  5
12283
  8
COTATION1
 62
     0
 10
-143.802225
 20
116.832779
 30
0.0
 11
-98.181894
 21
116.832779
 31
0.0
1001
ACAD
1000
RTLwPs
1070
   158
  0
LINE
  5
12284
  8
COTATION1
 62
     0
 10
-133.681894
 20
66.832779
 30
0.0
 11
-98.181894
 21
66.832779
 31
0.0
1001
ACAD
1000
RTLwPs
1070
   158
  0
LINE
  5
12285
  8
COTATION1
 62
     0
 10
-100.681894
 20
111.832779
 30
0.0
 11
-100.681894
 21
95.082779
 31
0.0
1001
ACAD
1000
RTLwPs
1070
   158
  0
LINE
  5
12286
  8
COTATION1
 62
     0
 10
-100.681894
 20
71.832779
 30
0.0
 11
-100.681894
 21
88.582779
 31
0.0
1001
ACAD
1000
RTLwPs
1070
   158
  0
INSERT
  5
12287
  8
COTATION1
 62
     0
  2
_OPEN30
 10
-100.681894
 20
116.832779
 30
0.0
 41
5.0
 42
5.0
 43
5.0
 50
90.0
1001
ACAD
1000
RTLwPs
1070
   158
  0
INSERT
  5
12288
  8
COTATION1
 62
     0
  2
_OPEN30
 10
-100.681894
 20
66.832779
 30
0.0
 41
5.0
 42
5.0
 43
5.0
 50
270.0
1001
ACAD
1000
RTLwPs
1070
   158
  0
TEXT
  5
12289
  8
COTATION1
 62
     0
 10
-103.062846
 20
90.582779
 30
0.0
 40
2.5
  1
50
1001
ACAD
1000
MTEXTBEGIN
1070
    73
1070
     1
1070
    44
1040
1.0
1070
    74
1070
     0
1000
MTEXTEND
1000
MTEXTBEGIN
1070
    73
1070
     1
1070
    44
1040
1.0
1070
    74
1070
     0
1000
MTEXTEND
1000
MTEXTBEGIN
1070
    73
1070
     1
1070
    44
1040
1.0
1070
    74
1070
     0
1000
MTEXTEND
  0
POINT
  5
1228A
  8
DEFPOINTS
 62
     0
 10
-145.802225
 20
116.832779
 30
0.0
  0
POINT
  5
1228B
  8
DEFPOINTS
 62
     0
 10
-135.681894
 20
66.832779
 30
0.0
  0
POINT
  5
1228C
  8
DEFPOINTS
 62
     0
 10
-100.681894
 20
66.832779
 30
0.0
  0
ENDBLK
  5
FFB5
  8
0
  0
BLOCK
  8
0
  2
*D4
 70
     1
 10
0.0
 20
0.0
 30
0.0
  3
*D4
  1

  0
LINE
  5
1228D
  8
COTATION1
 62
     0
 10
-127.302225
 20
106.832779
 30
0.0
 11
-108.181894
 21
106.832779
 31
0.0
1001
ACAD
1000
RTLwPs
1070
   158
  0
LINE
  5
1228E
  8
COTATION1
 62
     0
 10
-133.681894
 20
66.832779
 30
0.0
 11
-108.181894
 21
66.832779
 31
0.0
1001
ACAD
1000
RTLwPs
1070
   158
  0
LINE
  5
1228F
  8
COTATION1
 62
     0
 10
-110.681894
 20
101.832779
 30
0.0
 11
-110.681894
 21
90.082779
 31
0.0
1001
ACAD
1000
RTLwPs
1070
   158
  0
LINE
  5
12290
  8
COTATION1
 62
     0
 10
-110.681894
 20
71.832779
 30
0.0
 11
-110.681894
 21
83.582779
 31
0.0
1001
ACAD
1000
RTLwPs
1070
   158
  0
INSERT
  5
12291
  8
COTATION1
 62
     0
  2
_OPEN30
 10
-110.681894
 20
106.832779
 30
0.0
 41
5.0
 42
5.0
 43
5.0
 50
90.0
1001
ACAD
1000
RTLwPs
1070
   158
  0
INSERT
  5
12292
  8
COTATION1
 62
     0
  2
_OPEN30
 10
-110.681894
 20
66.832779
 30
0.0
 41
5.0
 42
5.0
 43
5.0
 50
270.0
1001
ACAD
1000
RTLwPs
1070
   158
  0
TEXT
  5
12293
  8
COTATION1
 62
     0
 10
-113.062846
 20
85.582779
 30
0.0
 40
2.5
  1
40
1001
ACAD
1000
MTEXTBEGIN
1070
    73
1070
     1
1070
    44
1040
1.0
1070
    74
1070
     0
1000
MTEXTEND
1000
MTEXTBEGIN
1070
    73
1070
     1
1070
    44
1040
1.0
1070
    74
1070
     0
1000
MTEXTEND
1000
MTEXTBEGIN
1070
    73
1070
     1
1070
    44
1040
1.0
1070
    74
1070
     0
1000
MTEXTEND
  0
POINT
  5
12294
  8
DEFPOINTS
 62
     0
 10
-129.302225
 20
106.832779
 30
0.0
  0
POINT
  5
12295
  8
DEFPOINTS
 62
     0
 10
-135.681894
 20
66.832779
 30
0.0
  0
POINT
  5
12296
  8
DEFPOINTS
 62
     0
 10
-110.681894
 20
66.832779
 30
0.0
  0
ENDBLK
  5
FFC2
  8
0
  0
BLOCK
  8
0
  2
*D5
 70
     1
 10
0.0
 20
0.0
 30
0.0
  3
*D5
  1

  0
LINE
  5
12297
  8
COTATION1
 62
     0
 10
-155.802225
 20
98.332779
 30
0.0
 11
-155.802225
 21
38.332779
 31
0.0
1001
ACAD
1000
RTLwPs
1070
   158
  0
LINE
  5
12298
  8
COTATION1
 62
     0
 10
-135.802225
 20
98.332779
 30
0.0
 11
-135.802225
 21
38.332779
 31
0.0
1001
ACAD
1000
RTLwPs
1070
   158
  0
LINE
  5
12299
  8
COTATION1
 62
     0
 10
-150.802225
 20
40.832779
 30
0.0
 11
-140.802225
 21
40.832779
 31
0.0
1001
ACAD
1000
RTLwPs
1070
   158
  0
INSERT
  5
1229A
  8
COTATION1
 62
     0
  2
_OPEN30
 10
-155.802225
 20
40.832779
 30
0.0
 41
5.0
 42
5.0
 43
5.0
 50
180.0
1001
ACAD
1000
RTLwPs
1070
   158
  0
INSERT
  5
1229B
  8
COTATION1
 62
     0
  2
_OPEN30
 10
-135.802225
 20
40.832779
 30
0.0
 41
5.0
 42
5.0
 43
5.0
1001
ACAD
1000
RTLwPs
1070
   158
  0
TEXT
  5
1229C
  8
COTATION1
 62
     0
 10
-148.183177
 20
42.832779
 30
0.0
 40
2.5
  1
20
1001
ACAD
1000
MTEXTBEGIN
1070
    73
1070
     1
1070
    44
1040
1.0
1070
    74
1070
     0
1000
MTEXTEND
1000
MTEXTBEGIN
1070
    73
1070
     1
1070
    44
1040
1.0
1070
    74
1070
     0
1000
MTEXTEND
1000
MTEXTBEGIN
1070
    73
1070
     1
1070
    44
1040
1.0
1070
    74
1070
     0
1000
MTEXTEND
  0
POINT
  5
1229D
  8
DEFPOINTS
 62
     0
 10
-155.802225
 20
100.332779
 30
0.0
  0
POINT
  5
1229E
  8
DEFPOINTS
 62
     0
 10
-135.802225
 20
100.332779
 30
0.0
  0
POINT
  5
1229F
  8
DEFPOINTS
 62
     0
 10
-135.802225
 20
40.832779
 30
0.0
  0
ENDBLK
  5
FFCE
  8
0
  0
BLOCK
  8
0
  2
*D6
 70
     1
 10
0.0
 20
0.0
 30
0.0
  3
*D6
  1

  0
LINE
  5
122A0
  8
COTATION1
 62
     0
 10
-160.681894
 20
64.832779
 30
0.0
 11
-160.681894
 21
28.332779
 31
0.0
1001
ACAD
1000
RTLwPs
1070
   158
  0
LINE
  5
122A1
  8
COTATION1
 62
     0
 10
-130.681894
 20
69.832779
 30
0.0
 11
-130.681894
 21
28.332779
 31
0.0
1001
ACAD
1000
RTLwPs
1070
   158
  0
LINE
  5
122A2
  8
COTATION1
 62
     0
 10
-155.681894
 20
30.832779
 30
0.0
 11
-135.681894
 21
30.832779
 31
0.0
1001
ACAD
1000
RTLwPs
1070
   158
  0
INSERT
  5
122A3
  8
COTATION1
 62
     0
  2
_OPEN30
 10
-160.681894
 20
30.832779
 30
0.0
 41
5.0
 42
5.0
 43
5.0
 50
180.0
1001
ACAD
1000
RTLwPs
1070
   158
  0
INSERT
  5
122A4
  8
COTATION1
 62
     0
  2
_OPEN30
 10
-130.681894
 20
30.832779
 30
0.0
 41
5.0
 42
5.0
 43
5.0
1001
ACAD
1000
RTLwPs
1070
   158
  0
TEXT
  5
122A5
  8
COTATION1
 62
     0
 10
-148.062846
 20
32.832779
 30
0.0
 40
2.5
  1
30
1001
ACAD
1000
MTEXTBEGIN
1070
    73
1070
     1
1070
    44
1040
1.0
1070
    74
1070
     0
1000
MTEXTEND
1000
MTEXTBEGIN
1070
    73
1070
     1
1070
    44
1040
1.0
1070
    74
1070
     0
1000
MTEXTEND
1000
MTEXTBEGIN
1070
    73
1070
     1
1070
    44
1040
1.0
1070
    74
1070
     0
1000
MTEXTEND
  0
POINT
  5
122A6
  8
DEFPOINTS
 62
     0
 10
-160.681894
 20
66.832779
 30
0.0
  0
POINT
  5
122A7
  8
DEFPOINTS
 62
     0
 10
-130.681894
 20
71.832779
 30
0.0
  0
POINT
  5
122A8
  8
DEFPOINTS
 62
     0
 10
-130.681894
 20
30.832779
 30
0.0
  0
ENDBLK
  5
FFDA
  8
0
  0
BLOCK
  8
0
  2
*D7
 70
     1
 10
0.0
 20
0.0
 30
0.0
  3
*D7
  1

  0
LINE
  5
12404
  8
COTATION1
 62
     0
 10
-162.555683
 20
109.023851
 30
0.0
 11
-167.540445
 21
110.641093
 31
0.0
1001
ACAD
1000
RTLwPs
1070
   158
  0
LINE
  5
12405
  8
COTATION1
 62
     0
 10
-167.540445
 20
110.641093
 30
0.0
 11
-177.040445
 21
110.641093
 31
0.0
1001
ACAD
1000
RTLwPs
1070
   158
  0
INSERT
  5
12406
  8
COTATION1
 62
     0
  2
_OPEN30
 10
-157.799727
 20
107.480842
 30
0.0
 41
5.0
 42
5.0
 43
5.0
 50
342.025015
1001
ACAD
1000
RTLwPs
1070
   158
  0
TEXT
  5
12407
  8
COTATION1
 62
     0
 10
-177.27854
 20
112.641093
 30
0.0
 40
2.5
  1
%%c4.2
1001
ACAD
1000
MTEXTBEGIN
1070
    73
1070
     1
1070
    44
1040
1.0
1070
    74
1070
     0
1000
MTEXTEND
1000
MTEXTBEGIN
1070
    73
1070
     1
1070
    44
1040
1.0
1070
    74
1070
     0
1000
MTEXTEND
1000
MTEXTBEGIN
1070
    73
1070
     1
1070
    44
1040
1.0
1070
    74
1070
     0
1000
MTEXTEND
  0
POINT
  5
12408
  8
DEFPOINTS
 62
     0
 10
-157.799727
 20
107.480842
 30
0.0
  0
POINT
  5
12409
  8
DEFPOINTS
 62
     0
 10
-153.804723
 20
106.184715
 30
0.0
  0
ENDBLK
  5
10363
  8
0
  0
BLOCK
  8
0
  2
*D8
 70
     1
 10
0.0
 20
0.0
 30
0.0
  3
*D8
  1

  0
LINE
  5
12376
  8
COTATION1
 62
     0
 10
-163.04959
 20
101.496516
 30
0.0
 11
-173.934229
 21
93.482114
 31
0.0
1001
ACAD
1000
RTLwPs
1070
   158
  0
LINE
  5
12377
  8
COTATION1
 62
     0
 10
-173.934229
 20
93.482114
 30
0.0
 11
-179.862801
 21
93.482114
 31
0.0
1001
ACAD
1000
RTLwPs
1070
   158
  0
INSERT
  5
12378
  8
COTATION1
 62
     0
  2
_OPEN30
 10
-159.023276
 20
104.461106
 30
0.0
 41
5.0
 42
5.0
 43
5.0
 50
36.364358
1001
ACAD
1000
RTLwPs
1070
   158
  0
TEXT
  5
12379
  8
COTATION1
 62
     0
 10
-180.100896
 20
95.482114
 30
0.0
 40
2.5
  1
%%c8
1001
ACAD
1000
MTEXTBEGIN
1070
    73
1070
     1
1070
    44
1040
1.0
1070
    74
1070
     0
1000
MTEXTEND
1000
MTEXTBEGIN
1070
    73
1070
     1
1070
    44
1040
1.0
1070
    74
1070
     0
1000
MTEXTEND
1000
MTEXTBEGIN
1070
    73
1070
     1
1070
    44
1040
1.0
1070
    74
1070
     0
1000
MTEXTEND
  0
POINT
  5
1237A
  8
DEFPOINTS
 62
     0
 10
-159.023276
 20
104.461106
 30
0.0
  0
POINT
  5
1237B
  8
DEFPOINTS
 62
     0
 10
-152.581174
 20
109.204451
 30
0.0
  0
ENDBLK
  5
1036C
  8
0
  0
BLOCK
  8
0
  2
*D9
 70
     1
 10
0.0
 20
0.0
 30
0.0
  3
*D9
  1

  0
LINE
  5
1254A
  8
COTATION1
 62
     0
 10
-155.802225
 20
129.299445
 30
0.0
 11
-183.194324
 21
129.299445
 31
0.0
1001
ACAD
1000
RTLwPs
1070
   158
  0
LINE
  5
1254B
  8
COTATION1
 62
     0
 10
-155.802225
 20
121.299445
 30
0.0
 11
-183.194324
 21
121.299445
 31
0.0
1001
ACAD
1000
RTLwPs
1070
   158
  0
LINE
  5
1254C
  8
COTATION1
 62
     0
 10
-180.694324
 20
134.299445
 30
0.0
 11
-180.694324
 21
139.299445
 31
0.0
1001
ACAD
1000
RTLwPs
1070
   158
  0
LINE
  5
1254D
  8
COTATION1
 62
     0
 10
-180.694324
 20
116.299445
 30
0.0
 11
-180.694324
 21
111.299445
 31
0.0
1001
ACAD
1000
RTLwPs
1070
   158
  0
INSERT
  5
1254E
  8
COTATION1
 62
     0
  2
_OPEN30
 10
-180.694324
 20
129.299445
 30
0.0
 41
5.0
 42
5.0
 43
5.0
 50
270.0
1001
ACAD
1000
RTLwPs
1070
   158
  0
INSERT
  5
1254F
  8
COTATION1
 62
     0
  2
_OPEN30
 10
-180.694324
 20
121.299445
 30
0.0
 41
5.0
 42
5.0
 43
5.0
 50
90.0
1001
ACAD
1000
RTLwPs
1070
   158
  0
TEXT
  5
12550
  8
COTATION1
 62
     0
 10
-187.599086
 20
124.049445
 30
0.0
 40
2.5
  1
8 max.
1001
ACAD
1000
MTEXTBEGIN
1070
    73
1070
     1
1070
    44
1040
1.0
1070
    74
1070
     0
1000
MTEXTEND
  0
POINT
  5
12551
  8
DEFPOINTS
 62
     0
 10
-153.802225
 20
129.299445
 30
0.0
  0
POINT
  5
12552
  8
DEFPOINTS
 62
     0
 10
-153.802225
 20
121.299445
 30
0.0
  0
POINT
  5
12553
  8
DEFPOINTS
 62
     0
 10
-180.694324
 20
121.299445
 30
0.0
  0
ENDBLK
  5
11608
  8
0
  0
BLOCK
  8
0
  2
*D10
 70
     1
 10
0.0
 20
0.0
 30
0.0
  3
*D10
  1

  0
LINE
  5
123F5
  8
COTATION1
 62
     0
 10
-147.802225
 20
154.832779
 30
0.0
 11
-195.995089
 21
154.832779
 31
0.0
1001
ACAD
1000
RTLwPs
1070
   158
  0
LINE
  5
123F6
  8
COTATION1
 62
     0
 10
-147.802225
 20
116.832779
 30
0.0
 11
-195.995089
 21
116.832779
 31
0.0
1001
ACAD
1000
RTLwPs
1070
   158
  0
LINE
  5
123F7
  8
COTATION1
 62
     0
 10
-193.495089
 20
149.832779
 30
0.0
 11
-193.495089
 21
139.859875
 31
0.0
1001
ACAD
1000
RTLwPs
1070
   158
  0
LINE
  5
123F8
  8
COTATION1
 62
     0
 10
-193.495089
 20
121.832779
 30
0.0
 11
-193.495089
 21
133.359875
 31
0.0
1001
ACAD
1000
RTLwPs
1070
   158
  0
INSERT
  5
123F9
  8
COTATION1
 62
     0
  2
_OPEN30
 10
-193.495089
 20
154.832779
 30
0.0
 41
5.0
 42
5.0
 43
5.0
 50
90.0
1001
ACAD
1000
RTLwPs
1070
   158
  0
INSERT
  5
123FA
  8
COTATION1
 62
     0
  2
_OPEN30
 10
-193.495089
 20
116.832779
 30
0.0
 41
5.0
 42
5.0
 43
5.0
 50
270.0
1001
ACAD
1000
RTLwPs
1070
   158
  0
TEXT
  5
123FB
  8
COTATION1
 62
     0
 10
-195.876041
 20
135.359875
 30
0.0
 40
2.5
  1
38
1001
ACAD
1000
MTEXTBEGIN
1070
    73
1070
     1
1070
    44
1040
1.0
1070
    74
1070
     0
1000
MTEXTEND
1000
MTEXTBEGIN
1070
    73
1070
     1
1070
    44
1040
1.0
1070
    74
1070
     0
1000
MTEXTEND
1000
MTEXTBEGIN
1070
    73
1070
     1
1070
    44
1040
1.0
1070
    74
1070
     0
1000
MTEXTEND
  0
POINT
  5
123FC
  8
DEFPOINTS
 62
     0
 10
-145.802225
 20
154.832779
 30
0.0
  0
POINT
  5
123FD
  8
DEFPOINTS
 62
     0
 10
-145.802225
 20
116.832779
 30
0.0
  0
POINT
  5
123FE
  8
DEFPOINTS
 62
     0
 10
-193.495089
 20
116.832779
 30
0.0
  0
ENDBLK
  5
11615
  8
0
  0
BLOCK
  8
0
  2
*D11
 70
     1
 10
0.0
 20
0.0
 30
0.0
  3
*D11
  1

  0
LINE
  5
12425
  8
COTATION1
 62
     0
 10
-143.802225
 20
154.832779
 30
0.0
 11
-88.181894
 21
154.832779
 31
0.0
1001
ACAD
1000
RTLwPs
1070
   158
  0
LINE
  5
12426
  8
COTATION1
 62
     0
 10
-133.681894
 20
66.832779
 30
0.0
 11
-88.181894
 21
66.832779
 31
0.0
1001
ACAD
1000
RTLwPs
1070
   158
  0
LINE
  5
12427
  8
COTATION1
 62
     0
 10
-90.681894
 20
149.832779
 30
0.0
 11
-90.681894
 21
114.082779
 31
0.0
1001
ACAD
1000
RTLwPs
1070
   158
  0
LINE
  5
12428
  8
COTATION1
 62
     0
 10
-90.681894
 20
71.832779
 30
0.0
 11
-90.681894
 21
107.582779
 31
0.0
1001
ACAD
1000
RTLwPs
1070
   158
  0
INSERT
  5
12429
  8
COTATION1
 62
     0
  2
_OPEN30
 10
-90.681894
 20
154.832779
 30
0.0
 41
5.0
 42
5.0
 43
5.0
 50
90.0
1001
ACAD
1000
RTLwPs
1070
   158
  0
INSERT
  5
1242A
  8
COTATION1
 62
     0
  2
_OPEN30
 10
-90.681894
 20
66.832779
 30
0.0
 41
5.0
 42
5.0
 43
5.0
 50
270.0
1001
ACAD
1000
RTLwPs
1070
   158
  0
TEXT
  5
1242B
  8
COTATION1
 62
     0
 10
-93.062846
 20
109.582779
 30
0.0
 40
2.5
  1
88
1001
ACAD
1000
MTEXTBEGIN
1070
    73
1070
     1
1070
    44
1040
1.0
1070
    74
1070
     0
1000
MTEXTEND
1000
MTEXTBEGIN
1070
    73
1070
     1
1070
    44
1040
1.0
1070
    74
1070
     0
1000
MTEXTEND
1000
MTEXTBEGIN
1070
    73
1070
     1
1070
    44
1040
1.0
1070
    74
1070
     0
1000
MTEXTEND
  0
POINT
  5
1242C
  8
DEFPOINTS
 62
     0
 10
-145.802225
 20
154.832779
 30
0.0
  0
POINT
  5
1242D
  8
DEFPOINTS
 62
     0
 10
-135.681894
 20
66.832779
 30
0.0
  0
POINT
  5
1242E
  8
DEFPOINTS
 62
     0
 10
-90.681894
 20
66.832779
 30
0.0
  0
ENDBLK
  5
11622
  8
0
  0
BLOCK
  8
0
  2
*D12
 70
     1
 10
0.0
 20
0.0
 30
0.0
  3
*D12
  1

  0
LINE
  5
1258F
  8
COTATION1
 62
     0
 10
-135.802225
 20
132.766112
 30
0.0
 11
-98.181894
 21
132.766112
 31
0.0
  0
LINE
  5
12590
  8
COTATION1
 62
     0
 10
-135.802225
 20
129.299445
 30
0.0
 11
-98.181894
 21
129.299445
 31
0.0
  0
LINE
  5
12591
  8
COTATION1
 62
     0
 10
-100.681894
 20
137.766112
 30
0.0
 11
-100.681894
 21
142.766112
 31
0.0
  0
LINE
  5
12592
  8
COTATION1
 62
     0
 10
-100.681894
 20
124.299445
 30
0.0
 11
-100.681894
 21
119.299445
 31
0.0
  0
TEXT
  5
12593
  8
COTATION1
 62
     0
 10
-108.277132
 20
139.564388
 30
0.0
 40
2.5
  1
3.5
  0
INSERT
  5
12594
  8
COTATION1
 62
     0
  2
_OPEN30
 10
-100.681894
 20
132.766112
 30
0.0
 41
5.0
 42
5.0
 43
5.0
 50
270.0
  0
INSERT
  5
12595
  8
COTATION1
 62
     0
  2
_OPEN30
 10
-100.681894
 20
129.299445
 30
0.0
 41
5.0
 42
5.0
 43
5.0
 50
90.0
  0
POINT
  5
12596
  8
DEFPOINTS
 62
     0
 10
-137.802225
 20
132.766112
 30
0.0
  0
POINT
  5
12597
  8
DEFPOINTS
 62
     0
 10
-137.802225
 20
129.299445
 30
0.0
  0
POINT
  5
12598
  8
DEFPOINTS
 62
     0
 10
-100.681894
 20
129.299445
 30
0.0
  0
ENDBLK
  5
1162F
  8
0
  0
BLOCK
  8
0
  2
*D13
 70
     1
 10
0.0
 20
0.0
 30
0.0
  3
*D13
  1

  0
LINE
  5
122F9
  8
COTATION1
 62
     0
 10
-153.802225
 20
136.22422
 30
0.0
 11
-153.802225
 21
182.332779
 31
0.0
1001
ACAD
1000
RTLwPs
1070
   158
  0
LINE
  5
122FA
  8
COTATION1
 62
     0
 10
-137.802225
 20
136.22422
 30
0.0
 11
-137.802225
 21
182.332779
 31
0.0
1001
ACAD
1000
RTLwPs
1070
   158
  0
LINE
  5
122FB
  8
COTATION1
 62
     0
 10
-158.802225
 20
179.832779
 30
0.0
 11
-163.802225
 21
179.832779
 31
0.0
1001
ACAD
1000
RTLwPs
1070
   158
  0
LINE
  5
122FC
  8
COTATION1
 62
     0
 10
-132.802225
 20
179.832779
 30
0.0
 11
-113.326034
 21
179.832779
 31
0.0
1001
ACAD
1000
RTLwPs
1070
   158
  0
INSERT
  5
122FD
  8
COTATION1
 62
     0
  2
_OPEN30
 10
-153.802225
 20
179.832779
 30
0.0
 41
5.0
 42
5.0
 43
5.0
1001
ACAD
1000
RTLwPs
1070
   158
  0
INSERT
  5
122FE
  8
COTATION1
 62
     0
  2
_OPEN30
 10
-137.802225
 20
179.832779
 30
0.0
 41
5.0
 42
5.0
 43
5.0
 50
180.0
1001
ACAD
1000
RTLwPs
1070
   158
  0
TEXT
  5
122FF
  8
COTATION1
 62
     0
 10
-126.278415
 20
181.832779
 30
0.0
 40
2.5
  1
M16x1
1001
ACAD
1000
MTEXTBEGIN
1070
    73
1070
     1
1070
    44
1040
1.0
1070
    74
1070
     0
1000
MTEXTEND
1000
MTEXTBEGIN
1070
    73
1070
     1
1070
    44
1040
1.0
1070
    74
1070
     0
1000
MTEXTEND
1000
MTEXTBEGIN
1070
    73
1070
     1
1070
    44
1040
1.0
1070
    74
1070
     0
1000
MTEXTEND
  0
POINT
  5
12300
  8
DEFPOINTS
 62
     0
 10
-153.802225
 20
134.22422
 30
0.0
  0
POINT
  5
12301
  8
DEFPOINTS
 62
     0
 10
-137.802225
 20
134.22422
 30
0.0
  0
POINT
  5
12302
  8
DEFPOINTS
 62
     0
 10
-137.802225
 20
179.832779
 30
0.0
  0
ENDBLK
  5
1163C
  8
0
  0
BLOCK
  8
0
  2
*D14
 70
     1
 10
0.0
 20
0.0
 30
0.0
  3
*D14
  1

  0
LINE
  5
1241B
  8
COTATION1
 62
     0
 10
-149.302225
 20
155.663436
 30
0.0
 11
-149.302225
 21
172.332779
 31
0.0
1001
ACAD
1000
RTLwPs
1070
   158
  0
LINE
  5
1241C
  8
COTATION1
 62
     0
 10
-142.302225
 20
155.663436
 30
0.0
 11
-142.302225
 21
172.332779
 31
0.0
1001
ACAD
1000
RTLwPs
1070
   158
  0
LINE
  5
1241D
  8
COTATION1
 62
     0
 10
-154.302225
 20
169.832779
 30
0.0
 11
-159.302225
 21
169.832779
 31
0.0
1001
ACAD
1000
RTLwPs
1070
   158
  0
LINE
  5
1241E
  8
COTATION1
 62
     0
 10
-137.302225
 20
169.832779
 30
0.0
 11
-132.302225
 21
169.832779
 31
0.0
1001
ACAD
1000
RTLwPs
1070
   158
  0
INSERT
  5
1241F
  8
COTATION1
 62
     0
  2
_OPEN30
 10
-149.302225
 20
169.832779
 30
0.0
 41
5.0
 42
5.0
 43
5.0
1001
ACAD
1000
RTLwPs
1070
   158
  0
INSERT
  5
12420
  8
COTATION1
 62
     0
  2
_OPEN30
 10
-142.302225
 20
169.832779
 30
0.0
 41
5.0
 42
5.0
 43
5.0
 50
180.0
1001
ACAD
1000
RTLwPs
1070
   158
  0
TEXT
  5
12421
  8
COTATION1
 62
     0
 10
-148.004606
 20
171.832779
 30
0.0
 40
2.5
  1
%%c
1001
ACAD
1000
MTEXTBEGIN
1070
    73
1070
     1
1070
    44
1040
1.0
1070
    74
1070
     0
1000
MTEXTEND
1000
MTEXTBEGIN
1070
    73
1070
     1
1070
    44
1040
1.0
1070
    74
1070
     0
1000
MTEXTEND
1000
MTEXTBEGIN
1070
    73
1070
     1
1070
    44
1040
1.0
1070
    74
1070
     0
1000
MTEXTEND
  0
TEXT
  5
1260A
  8
COTATION1
 62
     0
 10
-145.742701
 20
171.832779
 30
0.0
 40
2.5
  1
7
1001
ACAD
1000
R13OBJECT
1002
{
1005
12421
1002
}
  0
POINT
  5
12422
  8
DEFPOINTS
 62
     0
 10
-149.302225
 20
153.663436
 30
0.0
  0
POINT
  5
12423
  8
DEFPOINTS
 62
     0
 10
-142.302225
 20
153.663436
 30
0.0
  0
POINT
  5
12424
  8
DEFPOINTS
 62
     0
 10
-142.302225
 20
169.832779
 30
0.0
  0
ENDBLK
  5
1220A
  8
0
  0
ENDSEC
  0
SECTION
  2
ENTITIES
  0
INSERT
  5
A
  8
0
  2
COTE
 10
0.0
 20
0.0
 30
0.0
  0
INSERT
  5
17
  8
0
  2
COTE
 10
284.010391
 20
6.373258
 30
0.0
  0
INSERT
  5
72
  8
0
  2
FOND
 10
0.0
 20
0.0
 30
0.0
  0
LINE
  5
FF41
  8
AXE
 10
-145.802225
 20
159.832779
 30
0.0
 11
-145.802225
 21
50.832779
 31
0.0
  0
DIMENSION
  5
FF42
  8
COTATION1
  2
*D3
 10
-100.681894
 20
66.832779
 30
0.0
 11
-100.681894
 21
91.832779
 31
0.0
 13
-145.802225
 23
116.832779
 33
0.0
 14
-135.681894
 24
66.832779
 34
0.0
 50
90.0
  0
DIMENSION
  5
FF43
  8
COTATION1
  2
*D4
 10
-110.681894
 20
66.832779
 30
0.0
 11
-110.681894
 21
86.832779
 31
0.0
 13
-129.302225
 23
106.832779
 33
0.0
 14
-135.681894
 24
66.832779
 34
0.0
 50
90.0
  0
LINE
  5
FF44
  8
AXE
 10
-165.681894
 20
91.832779
 30
0.0
 11
-118.181894
 21
91.832779
 31
0.0
  0
ARC
  5
FF45
  8
ALPHA
 10
-149.069586
 20
53.014506
 30
0.0
 40
26.27482
 50
17.344588
 51
45.588038
  0
ARC
  5
FF46
  8
ALPHA
 10
-154.019333
 20
48.064759
 30
0.0
 40
26.27482
 50
17.344588
 51
45.586396
  0
LINE
  5
FF47
  8
AXE
 10
-122.928845
 20
61.908158
 30
0.0
 11
-129.999913
 21
54.83709
 31
0.0
  0
DIMENSION
  5
FF48
  8
COTATION1
  2
*D5
 10
-135.802225
 20
40.832779
 30
0.0
 11
-145.802225
 21
44.082779
 31
0.0
 13
-155.802225
 23
100.332779
 33
0.0
 14
-135.802225
 24
100.332779
 34
0.0
  0
LINE
  5
FF49
  8
ALPHA
 10
-130.681894
 20
71.832779
 30
0.0
 11
-130.681894
 21
114.832779
 31
0.0
  0
LINE
  5
FF4A
  8
ALPHA
 10
-160.681894
 20
66.832779
 30
0.0
 11
-160.681894
 21
114.832779
 31
0.0
  0
DIMENSION
  5
FF4B
  8
COTATION1
  2
*D6
 10
-130.681894
 20
30.832779
 30
0.0
 11
-145.681894
 21
34.082779
 31
0.0
 13
-160.681894
 23
66.832779
 33
0.0
 14
-130.681894
 24
71.832779
 34
0.0
  0
LINE
  5
FF4C
  8
ALPHA
 10
-149.302225
 20
71.132779
 30
0.0
 11
-145.802225
 21
71.132779
 31
0.0
  0
LINE
  5
FF4D
  8
ALPHA
 10
-149.302225
 20
69.132779
 30
0.0
 11
-145.802225
 21
69.132779
 31
0.0
  0
LINE
  5
FF4E
  8
ALPHA
 10
-160.681894
 20
66.832779
 30
0.0
 11
-135.681894
 21
66.832779
 31
0.0
  0
TEXT
  5
FF4F
  8
AXE
 10
-153.278415
 20
50.832779
 30
0.0
 40
8.0
  1
Y
 72
     2
 11
-146.802225
 21
50.832779
 31
0.0
  0
ARC
  5
FF50
  8
ALPHA
 10
-149.302225
 20
70.132779
 30
0.0
 40
1.0
 50
90.0
 51
270.0
  0
ARC
  5
FF51
  8
ALPHA
 10
-142.302225
 20
70.132779
 30
0.0
 40
1.0
 50
270.0
 51
90.0
  0
LINE
  5
FF52
  8
ALPHA
 10
-142.302225
 20
71.132779
 30
0.0
 11
-145.802225
 21
71.132779
 31
0.0
  0
LINE
  5
FF53
  8
ALPHA
 10
-142.302225
 20
69.132779
 30
0.0
 11
-145.802225
 21
69.132779
 31
0.0
  0
ARC
  5
FF54
  8
ALPHA
 10
-135.681894
 20
71.832779
 30
0.0
 40
5.0
 50
270.0
 51
0.0
  0
ARC
  5
FF58
  8
ALPHA
 10
-145.681894
 20
59.586399
 30
0.0
 40
57.246507
 50
74.809764
 51
105.190236
  0
TEXT
  5
FF7C
  8
AXE
 10
-124.658084
 20
92.832779
 30
0.0
 40
8.0
  1
X
 72
     2
 11
-118.181894
 21
92.832779
 31
0.0
  0
DIMENSION
  5
10351
  8
COTATION1
  2
*D7
 10
-153.804723
 20
106.184715
 30
0.0
 11
-173.290445
 21
110.641093
 31
0.0
 70
   131
 15
-157.799727
 25
107.480842
 35
0.0
 40
0.0
  0
CIRCLE
  5
10352
  8
ALPHA
 10
-155.802225
 20
106.832779
 30
0.0
 40
4.0
  0
CIRCLE
  5
10353
  8
ALPHA
 10
-155.802225
 20
106.832779
 30
0.0
 40
2.1
  0
LINE
  5
10354
  8
AXE
 10
-162.302225
 20
106.832779
 30
0.0
 11
-149.302225
 21
106.832779
 31
0.0
  0
CIRCLE
  5
10355
  8
ALPHA
 10
-135.802225
 20
106.832779
 30
0.0
 40
4.0
  0
CIRCLE
  5
10356
  8
ALPHA
 10
-135.802225
 20
106.832779
 30
0.0
 40
2.1
  0
LINE
  5
10357
  8
AXE
 10
-135.802225
 20
100.332779
 30
0.0
 11
-135.802225
 21
113.332779
 31
0.0
  0
LINE
  5
10358
  8
AXE
 10
-129.302225
 20
106.832779
 30
0.0
 11
-142.302225
 21
106.832779
 31
0.0
  0
LINE
  5
10359
  8
AXE
 10
-155.802225
 20
100.332779
 30
0.0
 11
-155.802225
 21
113.332779
 31
0.0
  0
DIMENSION
  5
1035A
  8
COTATION1
  2
*D8
 10
-152.581174
 20
109.204451
 30
0.0
 11
-177.898515
 21
93.482114
 31
0.0
 70
   131
 15
-159.023276
 25
104.461106
 35
0.0
 40
0.0
  0
SOLID
  5
10445
  8
COTATION1
  6
CONTINUOUS
 10
125.917883
 20
57.282386
 30
0.0
 11
127.423725
 21
62.122519
 31
0.0
 12
124.429507
 22
58.032396
 32
0.0
 13
124.429507
 23
58.032396
 33
0.0
210
0.0
220
0.0
230
-1.0
1001
ACAD
1000
DSTYLE
1002
{
1070
     5
1000
OPEN30
1070
   342
1005
B425360300004B04
1002
}
  0
POLYLINE
  5
1259C
  8
COTATION1
 66
     1
 10
0.0
 20
0.0
 30
0.0
 70
   128
1001
ACAD
1000
R13OBJECT
1002
{
1005
10445
1002
}
  0
VERTEX
  5
126B1
  8
COTATION1
 10
-125.173695
 20
57.657391
 30
0.0
  0
VERTEX
  5
126B2
  8
COTATION1
 10
-121.475411
 20
50.318238
 30
0.0
  0
VERTEX
  5
126B3
  8
COTATION1
 10
-106.975411
 20
50.318238
 30
0.0
  0
SEQEND
  5
126B4
  8
COTATION1
  0
TEXT
  5
10446
  8
COTATION1
 10
-115.741606
 20
52.15522
 30
0.0
 40
2.5
  1
%%c
1001
ACAD
1000
MTEXTBEGIN
1070
    73
1070
     1
1070
    44
1040
1.0
1070
    74
1070
     0
1000
MTEXTEND
1000
MTEXTBEGIN
1070
    73
1070
     1
1070
    44
1040
1.0
1070
    74
1070
     0
1000
MTEXTEND
1000
MTEXTBEGIN
1070
    73
1070
     1
1070
    44
1040
1.0
1070
    74
1070
     0
1000
MTEXTEND
1000
MTEXTBEGIN
1070
    73
1070
     1
1070
    44
1040
1.0
1070
    74
1070
     0
1000
MTEXTEND
1000
MTEXTBEGIN
1070
    73
1070
     1
1070
    44
1040
1.0
1070
    74
1070
     0
1000
MTEXTEND
1000
MTEXTBEGIN
1070
    73
1070
     1
1070
    44
1040
1.0
1070
    74
1070
     0
1000
MTEXTEND
1000
MTEXTBEGIN
1070
    73
1070
     1
1070
    44
1040
1.0
1070
    74
1070
     0
1000
MTEXTEND
1000
MTEXTBEGIN
1070
    73
1070
     1
1070
    44
1040
1.0
1070
    74
1070
     0
1000
MTEXTEND
  0
TEXT
  5
125A1
  8
COTATION1
 10
-113.479702
 20
52.15522
 30
0.0
 40
2.5
  1
7,5
1001
ACAD
1000
R13OBJECT
1002
{
1005
10446
1002
}
  0
POLYLINE
  5
10602
  8
ALPHA
 66
     1
 10
0.0
 20
0.0
 30
0.0
 70
   128
210
0.0
220
0.0
230
-1.0
  0
VERTEX
  5
12649
  8
ALPHA
 10
142.356379
 20
111.949789
 30
0.0
  0
VERTEX
  5
1264A
  8
ALPHA
 10
142.945887
 20
109.586374
 30
0.0
  0
VERTEX
  5
1264B
  8
ALPHA
 10
143.720196
 20
107.017873
 30
0.0
  0
VERTEX
  5
1264C
  8
ALPHA
 10
144.674715
 20
104.955335
 30
0.0
  0
VERTEX
  5
1264D
  8
ALPHA
 10
145.218117
 20
104.336006
 30
0.0
  0
VERTEX
  5
1264E
  8
ALPHA
 10
145.80485
 20
104.109812
 30
0.0
  0
VERTEX
  5
1264F
  8
ALPHA
 10
146.391581
 20
104.336006
 30
0.0
  0
VERTEX
  5
12650
  8
ALPHA
 10
146.934976
 20
104.955335
 30
0.0
  0
VERTEX
  5
12651
  8
ALPHA
 10
147.88943
 20
107.017873
 30
0.0
  0
VERTEX
  5
12652
  8
ALPHA
 10
148.663567
 20
109.586374
 30
0.0
  0
VERTEX
  5
12653
  8
ALPHA
 10
149.252737
 20
111.949789
 30
0.0
  0
SEQEND
  5
12654
  8
ALPHA
  0
LINE
  5
10603
  8
ALPHA
 10
-136.444467
 20
114.116382
 30
0.0
 11
-155.164065
 21
114.116382
 31
0.0
  0
LINE
  5
10604
  8
ALPHA
 10
-155.164065
 20
111.94979
 30
0.0
 11
-146.29649
 21
111.94979
 31
0.0
  0
LINE
  5
10605
  8
ALPHA
 10
-155.164065
 20
114.116382
 30
0.0
 11
-155.164065
 21
111.94979
 31
0.0
  0
LINE
  5
10606
  8
ALPHA
 10
-145.31146
 20
111.94979
 30
0.0
 11
-136.444467
 21
111.94979
 31
0.0
  0
LINE
  5
10607
  8
ALPHA
 10
-146.29649
 20
111.94979
 30
0.0
 11
-146.29649
 21
112.934817
 31
0.0
  0
LINE
  5
10608
  8
ALPHA
 10
-146.29649
 20
112.934817
 30
0.0
 11
-145.31146
 21
112.934817
 31
0.0
  0
LINE
  5
10609
  8
ALPHA
 10
-145.31146
 20
112.934817
 30
0.0
 11
-145.31146
 21
111.94979
 31
0.0
  0
LINE
  5
1060A
  8
ALPHA
 10
-136.444467
 20
111.94979
 30
0.0
 11
-136.444467
 21
114.116382
 31
0.0
  0
DIMENSION
  5
115D3
  8
COTATION1
  2
*D13
 10
-137.802225
 20
179.832779
 30
0.0
 11
-120.56413
 21
179.832779
 31
0.0
 70
   128
  1
M<>x1
 13
-153.802225
 23
134.22422
 33
0.0
 14
-137.802225
 24
134.22422
 34
0.0
  0
DIMENSION
  5
115F8
  8
COTATION1
  2
*D12
 10
-100.681894
 20
129.299445
 30
0.0
 11
-105.300941
 21
140.814388
 31
0.0
 70
   128
 13
-137.802225
 23
132.766112
 33
0.0
 14
-137.802225
 24
129.299445
 34
0.0
 50
90.0
1001
ACAD
1000
DSTYLE
1002
{
1070
   287
1070
     5
1070
   287
1070
     5
1070
   271
1070
     1
1070
   279
1070
     2
1070
   289
1070
     3
1002
}
  0
DIMENSION
  5
115F9
  8
COTATION1
  2
*D10
 10
-193.495089
 20
116.832779
 30
0.0
 11
-193.495089
 21
136.609875
 31
0.0
 70
   128
 13
-145.802225
 23
154.832779
 33
0.0
 14
-145.802225
 24
116.832779
 34
0.0
 50
90.0
  0
DIMENSION
  5
115FA
  8
COTATION1
  2
*D11
 10
-90.681894
 20
66.832779
 30
0.0
 11
-90.681894
 21
110.832779
 31
0.0
 13
-145.802225
 23
154.832779
 33
0.0
 14
-135.681894
 24
66.832779
 34
0.0
 50
90.0
  0
DIMENSION
  5
115FB
  8
COTATION1
  2
*D9
 10
-180.694324
 20
121.299445
 30
0.0
 11
-180.694324
 21
125.299445
 31
0.0
 70
   128
  1
<> max.
 13
-153.802225
 23
129.299445
 33
0.0
 14
-153.802225
 24
121.299445
 34
0.0
 50
90.0
  0
POLYLINE
  5
12175
  8
ALPHA
 66
     1
 10
0.0
 20
0.0
 30
0.0
 70
   128
  0
VERTEX
  5
12655
  8
ALPHA
 10
-146.909625
 20
154.832779
 30
0.0
  0
VERTEX
  5
12656
  8
ALPHA
 10
-148.244737
 20
154.481779
 30
0.0
  0
VERTEX
  5
12657
  8
ALPHA
 10
-149.19604
 20
153.851553
 30
0.0
  0
SEQEND
  5
12658
  8
ALPHA
  0
LINE
  5
12176
  8
ALPHA
 10
-149.19604
 20
153.851553
 30
0.0
 11
-149.302225
 21
153.663436
 31
0.0
  0
POLYLINE
  5
12177
  8
ALPHA
 66
     1
 10
0.0
 20
0.0
 30
0.0
 70
   128
  0
VERTEX
  5
12659
  8
ALPHA
 10
-145.802225
 20
154.832779
 30
0.0
  0
VERTEX
  5
1265A
  8
ALPHA
 10
-146.563563
 20
154.832779
 30
0.0
  0
VERTEX
  5
1265B
  8
ALPHA
 10
-146.909625
 20
154.832779
 30
0.0
  0
SEQEND
  5
1265C
  8
ALPHA
  0
POLYLINE
  5
12178
  8
ALPHA
 66
     1
 10
0.0
 20
0.0
 30
0.0
 70
   128
  0
VERTEX
  5
1265D
  8
ALPHA
 10
-142.228327
 20
150.846924
 30
0.0
  0
VERTEX
  5
1265E
  8
ALPHA
 10
-142.535431
 20
150.846924
 30
0.0
  0
VERTEX
  5
1265F
  8
ALPHA
 10
-143.345068
 20
150.846924
 30
0.0
  0
VERTEX
  5
12660
  8
ALPHA
 10
-145.801897
 20
150.846924
 30
0.0
  0
VERTEX
  5
12661
  8
ALPHA
 10
-148.258727
 20
150.846924
 30
0.0
  0
VERTEX
  5
12662
  8
ALPHA
 10
-149.068364
 20
150.846924
 30
0.0
  0
VERTEX
  5
12663
  8
ALPHA
 10
-149.375467
 20
150.846924
 30
0.0
  0
SEQEND
  5
12664
  8
ALPHA
  0
LINE
  5
12179
  8
ALPHA
 10
-150.249196
 20
148.527905
 30
0.0
 11
-150.544809
 21
147.947823
 31
0.0
  0
LINE
  5
1217A
  8
ALPHA
 10
-151.685965
 20
136.841046
 30
0.0
 11
-152.279157
 21
136.232779
 31
0.0
  0
POLYLINE
  5
1217B
  8
ALPHA
 66
     1
 10
0.0
 20
0.0
 30
0.0
 70
   128
  0
VERTEX
  5
12665
  8
ALPHA
 10
-151.969124
 20
137.394255
 30
0.0
  0
VERTEX
  5
12666
  8
ALPHA
 10
-152.245728
 20
137.11765
 30
0.0
  0
VERTEX
  5
12667
  8
ALPHA
 10
-151.969124
 20
136.841046
 30
0.0
  0
SEQEND
  5
12668
  8
ALPHA
  0
LINE
  5
1217C
  8
ALPHA
 10
-152.279157
 20
138.003177
 30
0.0
 11
-151.685965
 21
137.394255
 31
0.0
  0
POLYLINE
  5
1217D
  8
ALPHA
 66
     1
 10
0.0
 20
0.0
 30
0.0
 70
   128
  0
VERTEX
  5
12669
  8
ALPHA
 10
-150.544809
 20
147.947823
 30
0.0
  0
VERTEX
  5
1266A
  8
ALPHA
 10
-150.642567
 20
147.847107
 30
0.0
  0
VERTEX
  5
1266B
  8
ALPHA
 10
-150.900293
 20
147.581584
 30
0.0
  0
VERTEX
  5
1266C
  8
ALPHA
 10
-151.68236
 20
146.775859
 30
0.0
  0
VERTEX
  5
1266D
  8
ALPHA
 10
-152.464427
 20
145.970135
 30
0.0
  0
VERTEX
  5
1266E
  8
ALPHA
 10
-152.722153
 20
145.704612
 30
0.0
  0
VERTEX
  5
1266F
  8
ALPHA
 10
-152.819912
 20
145.603896
 30
0.0
  0
SEQEND
  5
12670
  8
ALPHA
  0
LINE
  5
1217E
  8
ALPHA
 10
-152.279157
 20
139.317375
 30
0.0
 11
-152.279157
 21
138.003177
 31
0.0
  0
POLYLINE
  5
1217F
  8
ALPHA
 66
     1
 10
0.0
 20
0.0
 30
0.0
 70
   128
  0
VERTEX
  5
12671
  8
ALPHA
 10
-153.256448
 20
144.116657
 30
0.0
  0
VERTEX
  5
12672
  8
ALPHA
 10
-153.214455
 20
143.910437
 30
0.0
  0
VERTEX
  5
12673
  8
ALPHA
 10
-153.103747
 20
143.366769
 30
0.0
  0
VERTEX
  5
12674
  8
ALPHA
 10
-152.767803
 20
141.717016
 30
0.0
  0
VERTEX
  5
12675
  8
ALPHA
 10
-152.431859
 20
140.067263
 30
0.0
  0
VERTEX
  5
12676
  8
ALPHA
 10
-152.32115
 20
139.523595
 30
0.0
  0
VERTEX
  5
12677
  8
ALPHA
 10
-152.279157
 20
139.317375
 30
0.0
  0
SEQEND
  5
12678
  8
ALPHA
  0
POLYLINE
  5
12180
  8
ALPHA
 66
     1
 10
0.0
 20
0.0
 30
0.0
 70
   128
  0
VERTEX
  5
12679
  8
ALPHA
 10
-152.819912
 20
145.603896
 30
0.0
  0
VERTEX
  5
1267A
  8
ALPHA
 10
-153.228427
 20
144.916072
 30
0.0
  0
VERTEX
  5
1267B
  8
ALPHA
 10
-153.256448
 20
144.116657
 30
0.0
  0
SEQEND
  5
1267C
  8
ALPHA
  0
LINE
  5
12181
  8
ALPHA
 10
-151.969124
 20
136.841046
 30
0.0
 11
-151.685965
 21
136.841046
 31
0.0
  0
LINE
  5
12182
  8
ALPHA
 10
-151.685965
 20
137.394255
 30
0.0
 11
-151.969124
 21
137.394255
 31
0.0
  0
POLYLINE
  5
12183
  8
ALPHA
 66
     1
 10
0.0
 20
0.0
 30
0.0
 70
   128
  0
VERTEX
  5
1267D
  8
ALPHA
 10
-149.921466
 20
150.389413
 30
0.0
  0
VERTEX
  5
1267E
  8
ALPHA
 10
-149.972674
 20
150.098552
 30
0.0
  0
VERTEX
  5
1267F
  8
ALPHA
 10
-150.085331
 20
149.458659
 30
0.0
  0
VERTEX
  5
12680
  8
ALPHA
 10
-150.197988
 20
148.818766
 30
0.0
  0
VERTEX
  5
12681
  8
ALPHA
 10
-150.249196
 20
148.527905
 30
0.0
  0
SEQEND
  5
12682
  8
ALPHA
  0
POLYLINE
  5
12184
  8
ALPHA
 66
     1
 10
0.0
 20
0.0
 30
0.0
 70
   128
  0
VERTEX
  5
12683
  8
ALPHA
 10
-149.375467
 20
150.846924
 30
0.0
  0
VERTEX
  5
12684
  8
ALPHA
 10
-149.732775
 20
150.718454
 30
0.0
  0
VERTEX
  5
12685
  8
ALPHA
 10
-149.921466
 20
150.389413
 30
0.0
  0
SEQEND
  5
12686
  8
ALPHA
  0
LINE
  5
12185
  8
ALPHA
 10
-141.059641
 20
147.947823
 30
0.0
 11
-141.354598
 21
148.527905
 31
0.0
  0
POLYLINE
  5
12186
  8
ALPHA
 66
     1
 10
0.0
 20
0.0
 30
0.0
 70
   128
  0
VERTEX
  5
12687
  8
ALPHA
 10
-139.635326
 20
136.841046
 30
0.0
  0
VERTEX
  5
12688
  8
ALPHA
 10
-139.358721
 20
137.11765
 30
0.0
  0
VERTEX
  5
12689
  8
ALPHA
 10
-139.635326
 20
137.394255
 30
0.0
  0
SEQEND
  5
1268A
  8
ALPHA
  0
LINE
  5
12187
  8
ALPHA
 10
-139.325293
 20
136.232779
 30
0.0
 11
-139.917174
 21
136.841046
 31
0.0
  0
POLYLINE
  5
12188
  8
ALPHA
 66
     1
 10
0.0
 20
0.0
 30
0.0
 70
   128
  0
VERTEX
  5
1268B
  8
ALPHA
 10
-138.783883
 20
145.603896
 30
0.0
  0
VERTEX
  5
1268C
  8
ALPHA
 10
-138.881669
 20
145.704612
 30
0.0
  0
VERTEX
  5
1268D
  8
ALPHA
 10
-139.13947
 20
145.970135
 30
0.0
  0
VERTEX
  5
1268E
  8
ALPHA
 10
-139.921762
 20
146.775859
 30
0.0
  0
VERTEX
  5
1268F
  8
ALPHA
 10
-140.704054
 20
147.581584
 30
0.0
  0
VERTEX
  5
12690
  8
ALPHA
 10
-140.961855
 20
147.847107
 30
0.0
  0
VERTEX
  5
12691
  8
ALPHA
 10
-141.059641
 20
147.947823
 30
0.0
  0
SEQEND
  5
12692
  8
ALPHA
  0
LINE
  5
12189
  8
ALPHA
 10
-139.917174
 20
137.394255
 30
0.0
 11
-139.325293
 21
138.003177
 31
0.0
  0
LINE
  5
1218A
  8
ALPHA
 10
-139.917174
 20
136.841046
 30
0.0
 11
-139.635326
 21
136.841046
 31
0.0
  0
LINE
  5
1218B
  8
ALPHA
 10
-139.635326
 20
137.394255
 30
0.0
 11
-139.917174
 21
137.394255
 31
0.0
  0
POLYLINE
  5
1218C
  8
ALPHA
 66
     1
 10
0.0
 20
0.0
 30
0.0
 70
   128
  0
VERTEX
  5
12693
  8
ALPHA
 10
-138.348001
 20
144.116657
 30
0.0
  0
VERTEX
  5
12694
  8
ALPHA
 10
-138.375695
 20
144.916072
 30
0.0
  0
VERTEX
  5
12695
  8
ALPHA
 10
-138.783883
 20
145.603896
 30
0.0
  0
SEQEND
  5
12696
  8
ALPHA
  0
POLYLINE
  5
1218D
  8
ALPHA
 66
     1
 10
0.0
 20
0.0
 30
0.0
 70
   128
  0
VERTEX
  5
12697
  8
ALPHA
 10
-139.325293
 20
139.317375
 30
0.0
  0
VERTEX
  5
12698
  8
ALPHA
 10
-139.2833
 20
139.523595
 30
0.0
  0
VERTEX
  5
12699
  8
ALPHA
 10
-139.172591
 20
140.067263
 30
0.0
  0
VERTEX
  5
1269A
  8
ALPHA
 10
-138.836647
 20
141.717016
 30
0.0
  0
VERTEX
  5
1269B
  8
ALPHA
 10
-138.500703
 20
143.366769
 30
0.0
  0
VERTEX
  5
1269C
  8
ALPHA
 10
-138.389994
 20
143.910437
 30
0.0
  0
VERTEX
  5
1269D
  8
ALPHA
 10
-138.348001
 20
144.116657
 30
0.0
  0
SEQEND
  5
1269E
  8
ALPHA
  0
LINE
  5
1218E
  8
ALPHA
 10
-139.325293
 20
138.003177
 30
0.0
 11
-139.325293
 21
139.317375
 31
0.0
  0
POLYLINE
  5
1218F
  8
ALPHA
 66
     1
 10
0.0
 20
0.0
 30
0.0
 70
   128
  0
VERTEX
  5
1269F
  8
ALPHA
 10
-141.683639
 20
150.389413
 30
0.0
  0
VERTEX
  5
126A0
  8
ALPHA
 10
-141.871675
 20
150.718454
 30
0.0
  0
VERTEX
  5
126A1
  8
ALPHA
 10
-142.228327
 20
150.846924
 30
0.0
  0
SEQEND
  5
126A2
  8
ALPHA
  0
POLYLINE
  5
12190
  8
ALPHA
 66
     1
 10
0.0
 20
0.0
 30
0.0
 70
   128
  0
VERTEX
  5
126A3
  8
ALPHA
 10
-141.354598
 20
148.527905
 30
0.0
  0
VERTEX
  5
126A4
  8
ALPHA
 10
-141.406011
 20
148.818766
 30
0.0
  0
VERTEX
  5
126A5
  8
ALPHA
 10
-141.519119
 20
149.458659
 30
0.0
  0
VERTEX
  5
126A6
  8
ALPHA
 10
-141.632227
 20
150.098552
 30
0.0
  0
VERTEX
  5
126A7
  8
ALPHA
 10
-141.683639
 20
150.389413
 30
0.0
  0
SEQEND
  5
126A8
  8
ALPHA
  0
LINE
  5
12191
  8
ALPHA
 10
-153.802225
 20
129.299445
 30
0.0
 11
-153.802225
 21
121.299445
 31
0.0
  0
LINE
  5
12192
  8
ALPHA
 10
-137.802225
 20
129.299445
 30
0.0
 11
-137.802225
 21
121.299445
 31
0.0
  0
LINE
  5
12193
  8
ALPHA_FIN
 10
-139.162359
 20
121.299445
 30
0.0
 11
-139.162359
 21
129.299445
 31
0.0
  0
LINE
  5
12194
  8
ALPHA_FIN
 10
-152.442091
 20
121.299445
 30
0.0
 11
-152.442091
 21
129.299445
 31
0.0
  0
LINE
  5
1219F
  8
ALPHA
 10
-153.802225
 20
117.832779
 30
0.0
 11
-153.802225
 21
116.832779
 31
0.0
  0
LINE
  5
121A0
  8
ALPHA_FIN
 10
-152.442091
 20
116.832779
 30
0.0
 11
-152.442091
 21
117.832779
 31
0.0
  0
LINE
  5
121A2
  8
ALPHA_FIN
 10
-139.162359
 20
116.832779
 30
0.0
 11
-139.162359
 21
117.832779
 31
0.0
  0
LINE
  5
121A4
  8
ALPHA
 10
-137.802225
 20
117.832779
 30
0.0
 11
-137.802225
 21
116.832779
 31
0.0
  0
LINE
  5
121A8
  8
ALPHA
 10
-145.802225
 20
134.22422
 30
0.0
 11
-137.802225
 21
134.22422
 31
0.0
  0
LINE
  5
121A9
  8
ALPHA
 10
-137.802225
 20
134.22422
 30
0.0
 11
-139.802225
 21
135.378921
 31
0.0
  0
LINE
  5
121AE
  8
ALPHA_FIN
 10
-139.162359
 20
132.766112
 30
0.0
 11
-139.162359
 21
135.009494
 31
0.0
  0
LINE
  5
121AF
  8
ALPHA_FIN
 10
-152.442091
 20
132.766112
 30
0.0
 11
-152.442091
 21
135.009494
 31
0.0
  0
LINE
  5
121B0
  8
ALPHA
 10
-153.802225
 20
134.22422
 30
0.0
 11
-153.802225
 21
132.766112
 31
0.0
  0
LINE
  5
121B5
  8
ALPHA
 10
-152.242091
 20
136.232779
 30
0.0
 11
-145.802225
 21
136.232779
 31
0.0
  0
LINE
  5
121B6
  8
ALPHA
 10
-151.967814
 20
137.394256
 30
0.0
 11
-145.973628
 21
137.394256
 31
0.0
  0
LINE
  5
121B7
  8
ALPHA
 10
-151.967814
 20
136.841047
 30
0.0
 11
-145.973628
 21
136.841047
 31
0.0
  0
LINE
  5
121B8
  8
ALPHA
 10
-152.279158
 20
139.317375
 30
0.0
 11
-139.325294
 21
139.317375
 31
0.0
  0
LINE
  5
121B9
  8
ALPHA
 10
-152.279158
 20
138.003176
 30
0.0
 11
-139.325294
 21
138.003176
 31
0.0
  0
LINE
  5
121BA
  8
ALPHA
 10
-145.802225
 20
134.22422
 30
0.0
 11
-153.802225
 21
134.22422
 31
0.0
  0
LINE
  5
121BB
  8
ALPHA
 10
-151.802225
 20
135.378921
 30
0.0
 11
-145.802225
 21
135.378921
 31
0.0
  0
LINE
  5
121BC
  8
ALPHA
 10
-152.442091
 20
135.009494
 30
0.0
 11
-152.442091
 21
136.032779
 31
0.0
  0
ARC
  5
121BD
  8
ALPHA
 10
-152.242091
 20
136.032779
 30
0.0
 40
0.2
 50
90.0
 51
180.0
  0
LINE
  5
121BE
  8
ALPHA
 10
-153.802225
 20
134.22422
 30
0.0
 11
-151.802225
 21
135.378921
 31
0.0
  0
LINE
  5
121BF
  8
ALPHA
 10
-139.362359
 20
136.232779
 30
0.0
 11
-145.802225
 21
136.232779
 31
0.0
  0
ARC
  5
121C0
  8
ALPHA
 10
-139.362359
 20
136.032779
 30
0.0
 40
0.2
 50
0.0
 51
90.0
  0
LINE
  5
121C1
  8
ALPHA
 10
-139.162359
 20
135.009494
 30
0.0
 11
-139.162359
 21
136.032779
 31
0.0
  0
LINE
  5
121C2
  8
ALPHA
 10
-145.967072
 20
137.272996
 30
0.0
 11
-145.635409
 21
137.272996
 31
0.0
  0
LINE
  5
121C3
  8
ALPHA
 10
-145.967072
 20
136.962962
 30
0.0
 11
-145.635409
 21
136.962962
 31
0.0
  0
LINE
  5
121C4
  8
ALPHA
 10
-145.974937
 20
136.843669
 30
0.0
 11
-145.973628
 21
136.841047
 31
0.0
  0
LINE
  5
121C5
  8
ALPHA
 10
-145.978217
 20
136.866611
 30
0.0
 11
-145.974937
 21
136.843669
 31
0.0
  0
LINE
  5
121C6
  8
ALPHA
 10
-145.979526
 20
136.909213
 30
0.0
 11
-145.978217
 21
136.866611
 31
0.0
  0
LINE
  5
121C7
  8
ALPHA
 10
-145.980839
 20
136.968205
 30
0.0
 11
-145.979526
 21
136.909213
 31
0.0
  0
LINE
  5
121C8
  8
ALPHA
 10
-145.982148
 20
137.039651
 30
0.0
 11
-145.980839
 21
136.968205
 31
0.0
  0
LINE
  5
121C9
  8
ALPHA
 10
-145.982148
 20
137.11765
 30
0.0
 11
-145.982148
 21
137.039651
 31
0.0
  0
LINE
  5
121CA
  8
ALPHA
 10
-145.972315
 20
137.392943
 30
0.0
 11
-145.973628
 21
137.394256
 31
0.0
  0
LINE
  5
121CB
  8
ALPHA
 10
-145.971007
 20
137.370002
 30
0.0
 11
-145.972315
 21
137.392943
 31
0.0
  0
LINE
  5
121CC
  8
ALPHA
 10
-145.968385
 20
137.326741
 30
0.0
 11
-145.971007
 21
137.370002
 31
0.0
  0
LINE
  5
121CD
  8
ALPHA
 10
-145.967072
 20
137.267749
 30
0.0
 11
-145.968385
 21
137.326741
 31
0.0
  0
LINE
  5
121CE
  8
ALPHA
 10
-145.965763
 20
137.196307
 30
0.0
 11
-145.967072
 21
137.267749
 31
0.0
  0
LINE
  5
121CF
  8
ALPHA
 10
-145.965763
 20
137.11765
 30
0.0
 11
-145.965763
 21
137.196307
 31
0.0
  0
LINE
  5
121D0
  8
ALPHA
 10
-145.982148
 20
137.196307
 30
0.0
 11
-145.982148
 21
137.11765
 31
0.0
  0
LINE
  5
121D1
  8
ALPHA
 10
-145.980839
 20
137.267749
 30
0.0
 11
-145.982148
 21
137.196307
 31
0.0
  0
LINE
  5
121D2
  8
ALPHA
 10
-145.979526
 20
137.326741
 30
0.0
 11
-145.980839
 21
137.267749
 31
0.0
  0
LINE
  5
121D3
  8
ALPHA
 10
-145.978217
 20
137.370002
 30
0.0
 11
-145.979526
 21
137.326741
 31
0.0
  0
LINE
  5
121D4
  8
ALPHA
 10
-145.974937
 20
137.392943
 30
0.0
 11
-145.978217
 21
137.370002
 31
0.0
  0
LINE
  5
121D5
  8
ALPHA
 10
-145.973628
 20
137.394256
 30
0.0
 11
-145.974937
 21
137.392943
 31
0.0
  0
LINE
  5
121D6
  8
ALPHA
 10
-145.965763
 20
137.039651
 30
0.0
 11
-145.965763
 21
137.11765
 31
0.0
  0
LINE
  5
121D7
  8
ALPHA
 10
-145.967072
 20
136.968205
 30
0.0
 11
-145.965763
 21
137.039651
 31
0.0
  0
LINE
  5
121D8
  8
ALPHA
 10
-145.968385
 20
136.909213
 30
0.0
 11
-145.967072
 21
136.968205
 31
0.0
  0
LINE
  5
121D9
  8
ALPHA
 10
-145.971007
 20
136.866611
 30
0.0
 11
-145.968385
 21
136.909213
 31
0.0
  0
LINE
  5
121DA
  8
ALPHA
 10
-145.972315
 20
136.843669
 30
0.0
 11
-145.971007
 21
136.866611
 31
0.0
  0
LINE
  5
121DB
  8
ALPHA
 10
-145.973628
 20
136.841047
 30
0.0
 11
-145.972315
 21
136.843669
 31
0.0
  0
LINE
  5
121DC
  8
ALPHA
 10
-145.636721
 20
137.039651
 30
0.0
 11
-145.636721
 21
137.11765
 31
0.0
  0
LINE
  5
121DD
  8
ALPHA
 10
-145.635409
 20
136.968205
 30
0.0
 11
-145.636721
 21
137.039651
 31
0.0
  0
LINE
  5
121DE
  8
ALPHA
 10
-145.6341
 20
136.909213
 30
0.0
 11
-145.635409
 21
136.968205
 31
0.0
  0
LINE
  5
121DF
  8
ALPHA
 10
-145.632787
 20
136.866611
 30
0.0
 11
-145.6341
 21
136.909213
 31
0.0
  0
LINE
  5
121E0
  8
ALPHA
 10
-145.630165
 20
136.843669
 30
0.0
 11
-145.632787
 21
136.866611
 31
0.0
  0
LINE
  5
121E1
  8
ALPHA
 10
-145.628856
 20
136.841047
 30
0.0
 11
-145.630165
 21
136.843669
 31
0.0
  0
LINE
  5
121E2
  8
ALPHA
 10
-145.6223
 20
137.196307
 30
0.0
 11
-145.6223
 21
137.11765
 31
0.0
  0
LINE
  5
121E3
  8
ALPHA
 10
-145.623613
 20
137.267749
 30
0.0
 11
-145.6223
 21
137.196307
 31
0.0
  0
LINE
  5
121E4
  8
ALPHA
 10
-145.624922
 20
137.326741
 30
0.0
 11
-145.623613
 21
137.267749
 31
0.0
  0
LINE
  5
121E5
  8
ALPHA
 10
-145.626234
 20
137.370002
 30
0.0
 11
-145.624922
 21
137.326741
 31
0.0
  0
LINE
  5
121E6
  8
ALPHA
 10
-145.628856
 20
137.392943
 30
0.0
 11
-145.626234
 21
137.370002
 31
0.0
  0
LINE
  5
121E7
  8
ALPHA
 10
-145.628856
 20
137.394256
 30
0.0
 11
-145.628856
 21
137.392943
 31
0.0
  0
LINE
  5
121E8
  8
ALPHA
 10
-145.630165
 20
137.392943
 30
0.0
 11
-145.628856
 21
137.394256
 31
0.0
  0
LINE
  5
121E9
  8
ALPHA
 10
-145.632787
 20
137.370002
 30
0.0
 11
-145.630165
 21
137.392943
 31
0.0
  0
LINE
  5
121EA
  8
ALPHA
 10
-145.6341
 20
137.326741
 30
0.0
 11
-145.632787
 21
137.370002
 31
0.0
  0
LINE
  5
121EB
  8
ALPHA
 10
-145.635409
 20
137.267749
 30
0.0
 11
-145.6341
 21
137.326741
 31
0.0
  0
LINE
  5
121EC
  8
ALPHA
 10
-145.636721
 20
137.196307
 30
0.0
 11
-145.635409
 21
137.267749
 31
0.0
  0
LINE
  5
121ED
  8
ALPHA
 10
-145.636721
 20
137.11765
 30
0.0
 11
-145.636721
 21
137.196307
 31
0.0
  0
LINE
  5
121EE
  8
ALPHA
 10
-145.628856
 20
136.843669
 30
0.0
 11
-145.628856
 21
136.841047
 31
0.0
  0
LINE
  5
121EF
  8
ALPHA
 10
-145.626234
 20
136.866611
 30
0.0
 11
-145.628856
 21
136.843669
 31
0.0
  0
LINE
  5
121F0
  8
ALPHA
 10
-145.624922
 20
136.909213
 30
0.0
 11
-145.626234
 21
136.866611
 31
0.0
  0
LINE
  5
121F1
  8
ALPHA
 10
-145.623613
 20
136.968205
 30
0.0
 11
-145.624922
 21
136.909213
 31
0.0
  0
LINE
  5
121F2
  8
ALPHA
 10
-145.6223
 20
137.039651
 30
0.0
 11
-145.623613
 21
136.968205
 31
0.0
  0
LINE
  5
121F3
  8
ALPHA
 10
-145.6223
 20
137.11765
 30
0.0
 11
-145.6223
 21
137.039651
 31
0.0
  0
LINE
  5
121F4
  8
ALPHA
 10
-145.628856
 20
137.394256
 30
0.0
 11
-139.636638
 21
137.394256
 31
0.0
  0
LINE
  5
121F5
  8
ALPHA
 10
-145.628856
 20
136.841047
 30
0.0
 11
-139.636638
 21
136.841047
 31
0.0
  0
LINE
  5
121F6
  8
ALPHA
 10
-139.802225
 20
135.378921
 30
0.0
 11
-145.802225
 21
135.378921
 31
0.0
  0
LINE
  5
121F7
  8
ALPHA
 10
-137.802225
 20
134.22422
 30
0.0
 11
-137.802225
 21
132.766112
 31
0.0
  0
LINE
  5
121F9
  8
ALPHA
 10
-149.302225
 20
153.663436
 30
0.0
 11
-145.802225
 21
153.663436
 31
0.0
  0
LINE
  5
121FA
  8
ALPHA
 10
-149.302225
 20
153.663436
 30
0.0
 11
-149.302225
 21
150.846924
 31
0.0
  0
DIMENSION
  5
121FD
  8
COTATION1
  2
*D14
 10
-142.302225
 20
169.832779
 30
0.0
 11
-145.802225
 21
169.832779
 31
0.0
 70
   128
  1
%%c<>
 13
-149.302225
 23
153.663436
 33
0.0
 14
-142.302225
 24
153.663436
 34
0.0
  0
POLYLINE
  5
1240C
  8
ALPHA
 66
     1
 10
0.0
 20
0.0
 30
0.0
 70
   128
210
0.0
220
0.0
230
-1.0
  0
VERTEX
  5
126A9
  8
ALPHA
 10
144.694824
 20
154.832779
 30
0.0
  0
VERTEX
  5
126AA
  8
ALPHA
 10
143.359712
 20
154.481779
 30
0.0
  0
VERTEX
  5
126AB
  8
ALPHA
 10
142.408409
 20
153.851553
 30
0.0
  0
SEQEND
  5
126AC
  8
ALPHA
  0
LINE
  5
1240D
  8
ALPHA
 10
-142.408409
 20
153.851553
 30
0.0
 11
-142.302225
 21
153.663436
 31
0.0
  0
LINE
  5
1240E
  8
ALPHA
 10
-142.302225
 20
153.663436
 30
0.0
 11
-145.802225
 21
153.663436
 31
0.0
  0
LINE
  5
1240F
  8
ALPHA
 10
-142.302225
 20
153.663436
 30
0.0
 11
-142.302225
 21
150.846924
 31
0.0
  0
POLYLINE
  5
12410
  8
ALPHA
 66
     1
 10
0.0
 20
0.0
 30
0.0
 70
   128
  0
VERTEX
  5
126AD
  8
ALPHA
 10
-145.802225
 20
154.832779
 30
0.0
  0
VERTEX
  5
126AE
  8
ALPHA
 10
-145.040887
 20
154.832779
 30
0.0
  0
VERTEX
  5
126AF
  8
ALPHA
 10
-144.694824
 20
154.832779
 30
0.0
  0
SEQEND
  5
126B0
  8
ALPHA
  0
LINE
  5
12525
  8
ALPHA
 10
-153.802225
 20
116.832779
 30
0.0
 11
-137.802225
 21
116.832779
 31
0.0
  0
LINE
  5
12526
  8
ALPHA
 10
-153.802225
 20
116.832779
 30
0.0
 11
-154.48263
 21
116.152374
 31
0.0
  0
LINE
  5
12527
  8
ALPHA
 10
-137.802225
 20
116.832779
 30
0.0
 11
-137.12182
 21
116.152374
 31
0.0
  0
LINE
  5
12528
  8
ALPHA
 10
-153.752216
 20
129.299445
 30
0.0
 11
-137.852234
 21
129.299445
 31
0.0
  0
LINE
  5
12529
  8
ALPHA
 10
-137.852234
 20
132.766112
 30
0.0
 11
-153.752216
 21
132.766112
 31
0.0
  0
ARC
  5
1252A
  8
ALPHA
 10
-145.802225
 20
145.199289
 30
0.0
 40
15.899842
 50
250.528552
 51
289.471449
  0
ARC
  5
1252B
  8
ALPHA
 10
-145.802225
 20
116.866268
 30
0.0
 40
15.899842
 50
70.52854
 51
109.471458
  0
LINE
  5
1252C
  8
ALPHA
 10
-153.802225
 20
117.832779
 30
0.0
 11
-137.802225
 21
117.832779
 31
0.0
  0
LINE
  5
1252D
  8
ALPHA
 10
-137.852234
 20
121.299445
 30
0.0
 11
-153.752216
 21
121.299445
 31
0.0
  0
ARC
  5
1252E
  8
ALPHA
 10
-145.802225
 20
105.399602
 30
0.0
 40
15.899842
 50
70.52854
 51
109.471458
  0
ARC
  5
1252F
  8
ALPHA
 10
-145.802225
 20
133.732622
 30
0.0
 40
15.899842
 50
250.528552
 51
289.471449
  0
ARC
  5
12530
  8
ALPHA
 10
-153.727235
 20
122.076223
 30
0.0
 40
4.243444
 50
231.785911
 51
308.21409
  0
ARC
  5
12531
  8
ALPHA
 10
-153.727235
 20
117.056001
 30
0.0
 40
4.243444
 50
51.785923
 51
128.214072
  0
LINE
  5
12532
  8
ALPHA
 10
-156.352236
 20
118.742128
 30
0.0
 11
-156.352236
 21
120.390096
 31
0.0
  0
LINE
  5
12533
  8
ALPHA
 10
-151.102234
 20
118.742128
 30
0.0
 11
-151.102234
 21
120.390096
 31
0.0
  0
ARC
  5
12534
  8
ALPHA
 10
-153.727235
 20
128.522667
 30
0.0
 40
4.243444
 50
51.785923
 51
128.214072
  0
ARC
  5
12535
  8
ALPHA
 10
-153.727235
 20
133.54289
 30
0.0
 40
4.243444
 50
231.785911
 51
308.21409
  0
LINE
  5
12536
  8
ALPHA
 10
-156.352236
 20
130.208795
 30
0.0
 11
-156.352236
 21
131.856763
 31
0.0
  0
LINE
  5
12537
  8
ALPHA
 10
-151.102234
 20
130.208795
 30
0.0
 11
-151.102234
 21
131.856763
 31
0.0
  0
ARC
  5
12538
  8
ALPHA
 10
-137.877215
 20
122.076223
 30
0.0
 40
4.243444
 50
231.785911
 51
308.21409
  0
ARC
  5
12539
  8
ALPHA
 10
-137.877215
 20
117.056001
 30
0.0
 40
4.243444
 50
51.785923
 51
128.214072
  0
LINE
  5
1253A
  8
ALPHA
 10
-140.502216
 20
118.742128
 30
0.0
 11
-140.502216
 21
120.390096
 31
0.0
  0
LINE
  5
1253B
  8
ALPHA
 10
-135.252214
 20
118.742128
 30
0.0
 11
-135.252214
 21
120.390096
 31
0.0
  0
ARC
  5
1253C
  8
ALPHA
 10
-137.877215
 20
128.522667
 30
0.0
 40
4.243444
 50
51.785923
 51
128.214072
  0
ARC
  5
1253D
  8
ALPHA
 10
-137.877215
 20
133.54289
 30
0.0
 40
4.243444
 50
231.785911
 51
308.21409
  0
LINE
  5
1253E
  8
ALPHA
 10
-140.502216
 20
130.208795
 30
0.0
 11
-140.502216
 21
131.856763
 31
0.0
  0
LINE
  5
1253F
  8
ALPHA
 10
-135.252214
 20
130.208795
 30
0.0
 11
-135.252214
 21
131.856763
 31
0.0
  0
VIEWPORT
  5
494D
 67
     1
  8
0
 10
4.995325
 20
6.556512
 30
0.0
 40
22.70986
 41
13.988421
 68
    -1
 69
     1
1001
ACAD
1000
MVIEW
1002
{
1070
    16
1010
0.0
1020
0.0
1030
0.0
1010
0.0
1020
0.0
1030
1.0
1040
0.0
1040
13.988421
1040
4.995325
1040
6.556512
1040
50.0
1040
0.0
1040
0.0
1070
     0
1070
   100
1070
     1
1070
     1
1070
     0
1070
     0
1070
     0
1070
     0
1040
0.0
1040
0.0
1040
0.0
1040
10.0
1040
10.0
1040
10.0
1040
10.0
1070
     0
1002
{
1002
}
1002
}
  0
ENDSEC
  0
EOF
