  0
SECTION
  2
HEADER
  9
$ACADVER
  1
AC1009
  9
$INSBASE
 10
402.590624
 20
-1.041018
 30
0.0
  9
$EXTMIN
 10
123.448583
 20
17.332779
 30
0.0
  9
$EXTMAX
 10
213.829535
 20
213.832779
 30
0.0
  9
$LIMMIN
 10
-407.970438
 20
-367.832444
  9
$LIMMAX
 10
429.804077
 20
234.370848
  9
$ORTHOMODE
 70
     1
  9
$REGENMODE
 70
     1
  9
$FILLMODE
 70
     1
  9
$QTEXTMODE
 70
     0
  9
$MIRRTEXT
 70
     1
  9
$DRAGMODE
 70
     2
  9
$LTSCALE
 40
10.0
  9
$OSMODE
 70
    37
  9
$ATTMODE
 70
     1
  9
$TEXTSIZE
 40
6.0
  9
$TRACEWID
 40
1.0
  9
$TEXTSTYLE
  7
ROMANS
  9
$CLAYER
  8
ALPHA
  9
$CELTYPE
  6
BYLAYER
  9
$CECOLOR
 62
   256
  9
$DIMSCALE
 40
1.0
  9
$DIMASZ
 40
5.0
  9
$DIMEXO
 40
2.0
  9
$DIMDLI
 40
0.38
  9
$DIMRND
 40
0.0
  9
$DIMDLE
 40
0.0
  9
$DIMEXE
 40
2.5
  9
$DIMTP
 40
0.0
  9
$DIMTM
 40
0.0
  9
$DIMTXT
 40
2.5
  9
$DIMCEN
 40
0.0
  9
$DIMTSZ
 40
0.0
  9
$DIMTOL
 70
     0
  9
$DIMLIM
 70
     0
  9
$DIMTIH
 70
     1
  9
$DIMTOH
 70
     1
  9
$DIMSE1
 70
     0
  9
$DIMSE2
 70
     0
  9
$DIMTAD
 70
     1
  9
$DIMZIN
 70
    12
  9
$DIMBLK
  1
OPEN30
  9
$DIMASO
 70
     1
  9
$DIMSHO
 70
     1
  9
$DIMPOST
  1

  9
$DIMAPOST
  1

  9
$DIMALT
 70
     0
  9
$DIMALTD
 70
     2
  9
$DIMALTF
 40
25.4
  9
$DIMLFAC
 40
1.0
  9
$DIMTOFL
 70
     0
  9
$DIMTVP
 40
0.0
  9
$DIMTIX
 70
     0
  9
$DIMSOXD
 70
     0
  9
$DIMSAH
 70
     0
  9
$DIMBLK1
  1

  9
$DIMBLK2
  1

  9
$DIMSTYLE
  2
SC_DEFAUT
  9
$DIMCLRD
 70
     0
  9
$DIMCLRE
 70
     0
  9
$DIMCLRT
 70
     0
  9
$DIMTFAC
 40
1.0
  9
$DIMGAP
 40
2.0
  9
$LUNITS
 70
     2
  9
$LUPREC
 70
     1
  9
$SKETCHINC
 40
0.1
  9
$FILLETRAD
 40
5.0
  9
$AUNITS
 70
     0
  9
$AUPREC
 70
     0
  9
$MENU
  1
acad
  9
$ELEVATION
 40
0.0
  9
$PELEVATION
 40
0.0
  9
$THICKNESS
 40
0.0
  9
$LIMCHECK
 70
     0
  9
$BLIPMODE
 70
     0
  9
$CHAMFERA
 40
0.0
  9
$CHAMFERB
 40
0.0
  9
$SKPOLY
 70
     0
  9
$TDCREATE
 40
2450373.687919
  9
$TDUPDATE
 40
2452850.646365
  9
$TDINDWG
 40
1.585411
  9
$TDUSRTIMER
 40
1.585411
  9
$USRTIMER
 70
     1
  9
$ANGBASE
 50
0.0
  9
$ANGDIR
 70
     0
  9
$PDMODE
 70
    32
  9
$PDSIZE
 40
0.0
  9
$PLINEWID
 40
0.0
  9
$COORDS
 70
     1
  9
$SPLFRAME
 70
     0
  9
$SPLINETYPE
 70
     6
  9
$SPLINESEGS
 70
     8
  9
$ATTDIA
 70
     0
  9
$ATTREQ
 70
     1
  9
$HANDLING
 70
     1
  9
$HANDSEED
  5
11D58
  9
$SURFTAB1
 70
     6
  9
$SURFTAB2
 70
     6
  9
$SURFTYPE
 70
     6
  9
$SURFU
 70
     6
  9
$SURFV
 70
     6
  9
$UCSNAME
  2

  9
$UCSORG
 10
0.0
 20
0.0
 30
0.0
  9
$UCSXDIR
 10
1.0
 20
0.0
 30
0.0
  9
$UCSYDIR
 10
0.0
 20
1.0
 30
0.0
  9
$PUCSNAME
  2

  9
$PUCSORG
 10
0.0
 20
0.0
 30
0.0
  9
$PUCSXDIR
 10
1.0
 20
0.0
 30
0.0
  9
$PUCSYDIR
 10
0.0
 20
1.0
 30
0.0
  9
$USERI1
 70
     0
  9
$USERI2
 70
     0
  9
$USERI3
 70
     0
  9
$USERI4
 70
     0
  9
$USERI5
 70
     0
  9
$USERR1
 40
0.0
  9
$USERR2
 40
0.0
  9
$USERR3
 40
0.0
  9
$USERR4
 40
0.0
  9
$USERR5
 40
0.0
  9
$WORLDVIEW
 70
     1
  9
$SHADEDGE
 70
     3
  9
$SHADEDIF
 70
    70
  9
$TILEMODE
 70
     1
  9
$MAXACTVP
 70
    16
  9
$PLIMCHECK
 70
     0
  9
$PEXTMIN
 10
-1.452248
 20
-0.437698
 30
0.0
  9
$PEXTMAX
 10
12.749749
 20
8.310198
 30
0.0
  9
$PLIMMIN
 10
0.0
 20
0.0
  9
$PLIMMAX
 10
12.0
 20
9.0
  9
$UNITMODE
 70
     0
  9
$VISRETAIN
 70
     0
  9
$PLINEGEN
 70
     0
  9
$PSLTSCALE
 70
     0
  0
ENDSEC
  0
SECTION
  2
TABLES
  0
TABLE
  2
VPORT
 70
     2
  0
VPORT
  2
*ACTIVE
 70
     0
 10
0.0
 20
0.0
 11
1.0
 21
1.0
 12
168.632323
 22
115.576841
 13
0.0
 23
0.0
 14
1.0
 24
1.0
 15
10.0
 25
10.0
 16
0.0
 26
0.0
 36
1.0
 17
0.0
 27
0.0
 37
0.0
 40
198.232735
 41
1.56
 42
50.0
 43
0.0
 44
0.0
 50
0.0
 51
0.0
 71
     0
 72
   100
 73
     1
 74
     0
 75
     0
 76
     0
 77
     0
 78
     0
  0
ENDTAB
  0
TABLE
  2
LTYPE
 70
     3
  0
LTYPE
  2
CONTINUOUS
 70
     0
  3
Solid line
 72
    65
 73
     0
 40
0.0
  0
LTYPE
  2
AXES2
 70
     0
  3
___ _ ___ _ ___ _ ___ _ ___ _ ___ _ ___ _ ___ _
 72
    65
 73
     4
 40
1.125
 49
0.75
 49
-0.125
 49
0.125
 49
-0.125
  0
LTYPE
  2
CACHE2
 70
     0
  3
Caché (x.5) _ _ _ _ _ _ _ _ _ _ _ _ _ _ _ _ _
 72
    65
 73
     2
 40
0.1875
 49
0.125
 49
-0.0625
  0
ENDTAB
  0
TABLE
  2
LAYER
 70
     7
  0
LAYER
  2
0
 70
     0
 62
   255
  6
CONTINUOUS
  0
LAYER
  2
COTATION1
 70
     0
 62
     2
  6
CONTINUOUS
  0
LAYER
  2
AXE
 70
     0
 62
    80
  6
AXES2
  0
LAYER
  2
DEFPOINTS
 70
     0
 62
     7
  6
CONTINUOUS
  0
LAYER
  2
ALPHA
 70
     0
 62
   254
  6
CONTINUOUS
  0
LAYER
  2
ALPHA_FIN
 70
     0
 62
   255
  6
CONTINUOUS
  0
LAYER
  2
POINTILLE_COURT
 70
     0
 62
    41
  6
CACHE2
  0
ENDTAB
  0
TABLE
  2
STYLE
 70
     2
  0
STYLE
  2
ROMANS
 70
     0
 40
0.0
 41
1.0
 50
0.0
 71
     0
 42
6.0
  3
romans
  4

  0
STYLE
  2
STANDARD
 70
     0
 40
0.2
 41
1.0
 50
0.0
 71
     0
 42
0.2
  3
txt
  4

  0
ENDTAB
  0
TABLE
  2
VIEW
 70
     0
  0
ENDTAB
  0
TABLE
  2
UCS
 70
     0
  0
ENDTAB
  0
TABLE
  2
APPID
 70
     1
  0
APPID
  2
ACAD
 70
     0
  0
ENDTAB
  0
TABLE
  2
DIMSTYLE
 70
     1
  0
DIMSTYLE
  2
SC_DEFAUT
 70
     0
  3

  4

  5
OPEN30
  6

  7

 40
1.0
 41
5.0
 42
2.0
 43
0.38
 44
2.5
 45
0.0
 46
0.0
 47
0.0
 48
0.0
140
2.5
141
0.0
142
0.0
143
25.4
144
1.0
145
0.0
146
1.0
147
2.0
 71
     0
 72
     0
 73
     1
 74
     1
 75
     0
 76
     0
 77
     1
 78
    12
170
     0
171
     2
172
     0
173
     0
174
     0
175
     0
176
     0
177
     0
178
     0
  0
ENDTAB
  0
ENDSEC
  0
SECTION
  2
BLOCKS
  0
BLOCK
  8
0
  2
$MODEL_SPACE
 70
     0
 10
0.0
 20
0.0
 30
0.0
  3
$MODEL_SPACE
  1

  0
ENDBLK
  5
11D15
  8
0
  0
BLOCK
 67
     1
  8
0
  2
$PAPER_SPACE
 70
     0
 10
0.0
 20
0.0
 30
0.0
  3
$PAPER_SPACE
  1

  0
ENDBLK
  5
11D13
 67
     1
  8
0
  0
BLOCK
  8
0
  2
COTE
 70
     0
 10
0.0
 20
0.0
 30
0.0
  3
COTE
  1

  0
ENDBLK
  5
F
  8
0
  0
BLOCK
  8
0
  2
FOND
 70
     0
 10
0.0
 20
0.0
 30
0.0
  3
FOND
  1

  0
ENDBLK
  5
75
  8
0
  0
BLOCK
  8
0
  2
_OPEN30
 70
     0
 10
0.0
 20
0.0
 30
0.0
  3
_OPEN30
  1

  0
LINE
  5
4B05
  8
COTATION1
 62
     0
 10
-1.0
 20
0.267949
 30
0.0
 11
0.0
 21
0.0
 31
0.0
1001
ACAD
1000
RTLwPs
1070
   158
  0
LINE
  5
4B06
  8
COTATION1
 62
     0
 10
0.0
 20
0.0
 30
0.0
 11
-1.0
 21
-0.267949
 31
0.0
1001
ACAD
1000
RTLwPs
1070
   158
  0
LINE
  5
4B07
  8
COTATION1
 62
     0
 10
0.0
 20
0.0
 30
0.0
 11
-1.0
 21
0.0
 31
0.0
1001
ACAD
1000
RTLwPs
1070
   158
  0
ENDBLK
  5
4B09
  8
0
  0
BLOCK
  8
0
  2
*D3
 70
     1
 10
0.0
 20
0.0
 30
0.0
  3
*D3
  1

  0
LINE
  5
113A7
  8
COTATION1
 62
     0
 10
162.436678
 20
64.832779
 30
0.0
 11
162.436678
 21
17.332779
 31
0.0
1001
ACAD
1000
RTLwPs
1070
   158
  0
LINE
  5
113A8
  8
COTATION1
 62
     0
 10
178.436678
 20
64.832779
 30
0.0
 11
178.436678
 21
17.332779
 31
0.0
1001
ACAD
1000
RTLwPs
1070
   158
  0
LINE
  5
113A9
  8
COTATION1
 62
     0
 10
167.436678
 20
19.832779
 30
0.0
 11
173.436678
 21
19.832779
 31
0.0
1001
ACAD
1000
RTLwPs
1070
   158
  0
INSERT
  5
113AA
  8
COTATION1
 62
     0
  2
_OPEN30
 10
162.436678
 20
19.832779
 30
0.0
 41
5.0
 42
5.0
 43
5.0
 50
180.0
1001
ACAD
1000
RTLwPs
1070
   158
  0
INSERT
  5
113AB
  8
COTATION1
 62
     0
  2
_OPEN30
 10
178.436678
 20
19.832779
 30
0.0
 41
5.0
 42
5.0
 43
5.0
1001
ACAD
1000
RTLwPs
1070
   158
  0
TEXT
  5
113AC
  8
COTATION1
 62
     0
 10
167.877154
 20
21.832779
 30
0.0
 40
2.5
  1
16
1001
ACAD
1000
MTEXTBEGIN
1070
    73
1070
     1
1070
    44
1040
1.0
1070
    74
1070
     0
1000
MTEXTEND
1000
MTEXTBEGIN
1070
    73
1070
     1
1070
    44
1040
1.0
1070
    74
1070
     0
1000
MTEXTEND
1000
MTEXTBEGIN
1070
    73
1070
     1
1070
    44
1040
1.0
1070
    74
1070
     0
1000
MTEXTEND
  0
POINT
  5
113AD
  8
DEFPOINTS
 62
     0
 10
162.436678
 20
66.832779
 30
0.0
  0
POINT
  5
113AE
  8
DEFPOINTS
 62
     0
 10
178.436678
 20
66.832779
 30
0.0
  0
POINT
  5
113AF
  8
DEFPOINTS
 62
     0
 10
178.436678
 20
19.832779
 30
0.0
  0
ENDBLK
  5
112CF
  8
0
  0
BLOCK
  8
0
  2
*D4
 70
     1
 10
0.0
 20
0.0
 30
0.0
  3
*D4
  1

  0
LINE
  5
11A67
  8
COTATION1
 62
     0
 10
150.186678
 20
184.332779
 30
0.0
 11
207.936678
 21
184.332779
 31
0.0
1001
ACAD
1000
RTLwPs
1070
   158
  0
LINE
  5
11A68
  8
COTATION1
 62
     0
 10
176.704627
 20
44.832779
 30
0.0
 11
207.936678
 21
44.832779
 31
0.0
1001
ACAD
1000
RTLwPs
1070
   158
  0
LINE
  5
11A69
  8
COTATION1
 62
     0
 10
205.436678
 20
179.332779
 30
0.0
 11
205.436678
 21
117.832779
 31
0.0
1001
ACAD
1000
RTLwPs
1070
   158
  0
LINE
  5
11A6A
  8
COTATION1
 62
     0
 10
205.436678
 20
49.832779
 30
0.0
 11
205.436678
 21
111.332779
 31
0.0
1001
ACAD
1000
RTLwPs
1070
   158
  0
INSERT
  5
11A6B
  8
COTATION1
 62
     0
  2
_OPEN30
 10
205.436678
 20
184.332779
 30
0.0
 41
5.0
 42
5.0
 43
5.0
 50
90.0
1001
ACAD
1000
RTLwPs
1070
   158
  0
INSERT
  5
11A6C
  8
COTATION1
 62
     0
  2
_OPEN30
 10
205.436678
 20
44.832779
 30
0.0
 41
5.0
 42
5.0
 43
5.0
 50
270.0
1001
ACAD
1000
RTLwPs
1070
   158
  0
TEXT
  5
11A6D
  8
COTATION1
 62
     0
 10
196.329535
 20
113.332779
 30
0.0
 40
2.5
  1
115...165
1001
ACAD
1000
MTEXTBEGIN
1070
    73
1070
     1
1070
    44
1040
1.0
1070
    74
1070
     0
1000
MTEXTEND
1000
MTEXTBEGIN
1070
    73
1070
     1
1070
    44
1040
1.0
1070
    74
1070
     0
1000
MTEXTEND
  0
POINT
  5
11A6E
  8
DEFPOINTS
 62
     0
 10
148.186678
 20
184.332779
 30
0.0
  0
POINT
  5
11A6F
  8
DEFPOINTS
 62
     0
 10
174.704627
 20
44.832779
 30
0.0
  0
POINT
  5
11A70
  8
DEFPOINTS
 62
     0
 10
205.436678
 20
44.832779
 30
0.0
  0
ENDBLK
  5
11A26
  8
0
  0
BLOCK
  8
0
  2
*D5
 70
     1
 10
0.0
 20
0.0
 30
0.0
  3
*D5
  1

  0
LINE
  5
11A4A
  8
COTATION1
 62
     0
 10
142.686678
 20
186.332779
 30
0.0
 11
142.686678
 21
201.832779
 31
0.0
1001
ACAD
1000
RTLwPs
1070
   158
  0
LINE
  5
11A4B
  8
COTATION1
 62
     0
 10
148.186678
 20
186.332779
 30
0.0
 11
148.186678
 21
201.832779
 31
0.0
1001
ACAD
1000
RTLwPs
1070
   158
  0
LINE
  5
11A4C
  8
COTATION1
 62
     0
 10
153.186678
 20
199.332779
 30
0.0
 11
158.186678
 21
199.332779
 31
0.0
1001
ACAD
1000
RTLwPs
1070
   158
  0
LINE
  5
11A4D
  8
COTATION1
 62
     0
 10
137.686678
 20
199.332779
 30
0.0
 11
123.448583
 21
199.332779
 31
0.0
1001
ACAD
1000
RTLwPs
1070
   158
  0
INSERT
  5
11A4E
  8
COTATION1
 62
     0
  2
_OPEN30
 10
148.186678
 20
199.332779
 30
0.0
 41
5.0
 42
5.0
 43
5.0
 50
180.0
1001
ACAD
1000
RTLwPs
1070
   158
  0
INSERT
  5
11A4F
  8
COTATION1
 62
     0
  2
_OPEN30
 10
142.686678
 20
199.332779
 30
0.0
 41
5.0
 42
5.0
 43
5.0
1001
ACAD
1000
RTLwPs
1070
   158
  0
TEXT
  5
11A50
  8
COTATION1
 62
     0
 10
125.09144
 20
201.332779
 30
0.0
 40
2.5
  1
5.5
1001
ACAD
1000
MTEXTBEGIN
1070
    73
1070
     1
1070
    44
1040
1.0
1070
    74
1070
     0
1000
MTEXTEND
1000
MTEXTBEGIN
1070
    73
1070
     1
1070
    44
1040
1.0
1070
    74
1070
     0
1000
MTEXTEND
  0
POINT
  5
11A51
  8
DEFPOINTS
 62
     0
 10
142.686678
 20
184.332779
 30
0.0
  0
POINT
  5
11A52
  8
DEFPOINTS
 62
     0
 10
148.186678
 20
184.332779
 30
0.0
  0
POINT
  5
11A53
  8
DEFPOINTS
 62
     0
 10
148.186678
 20
199.332779
 30
0.0
  0
ENDBLK
  5
11A33
  8
0
  0
BLOCK
  8
0
  2
*D6
 70
     1
 10
0.0
 20
0.0
 30
0.0
  3
*D6
  1

  0
LINE
  5
11A54
  8
COTATION1
 62
     0
 10
145.436678
 20
189.332779
 30
0.0
 11
145.436678
 21
211.832779
 31
0.0
1001
ACAD
1000
RTLwPs
1070
   158
  0
LINE
  5
11A55
  8
COTATION1
 62
     0
 10
178.436678
 20
134.495072
 30
0.0
 11
178.436678
 21
211.832779
 31
0.0
1001
ACAD
1000
RTLwPs
1070
   158
  0
LINE
  5
11A56
  8
COTATION1
 62
     0
 10
150.436678
 20
209.332779
 30
0.0
 11
173.436678
 21
209.332779
 31
0.0
1001
ACAD
1000
RTLwPs
1070
   158
  0
INSERT
  5
11A57
  8
COTATION1
 62
     0
  2
_OPEN30
 10
145.436678
 20
209.332779
 30
0.0
 41
5.0
 42
5.0
 43
5.0
 50
180.0
1001
ACAD
1000
RTLwPs
1070
   158
  0
INSERT
  5
11A58
  8
COTATION1
 62
     0
  2
_OPEN30
 10
178.436678
 20
209.332779
 30
0.0
 41
5.0
 42
5.0
 43
5.0
1001
ACAD
1000
RTLwPs
1070
   158
  0
TEXT
  5
11A59
  8
COTATION1
 62
     0
 10
159.555725
 20
211.332779
 30
0.0
 40
2.5
  1
33
1001
ACAD
1000
MTEXTBEGIN
1070
    73
1070
     1
1070
    44
1040
1.0
1070
    74
1070
     0
1000
MTEXTEND
1000
MTEXTBEGIN
1070
    73
1070
     1
1070
    44
1040
1.0
1070
    74
1070
     0
1000
MTEXTEND
  0
POINT
  5
11A5A
  8
DEFPOINTS
 62
     0
 10
145.436678
 20
187.332779
 30
0.0
  0
POINT
  5
11A5B
  8
DEFPOINTS
 62
     0
 10
178.436678
 20
132.495072
 30
0.0
  0
POINT
  5
11A5C
  8
DEFPOINTS
 62
     0
 10
178.436678
 20
209.332779
 30
0.0
  0
ENDBLK
  5
11A3F
  8
0
  0
ENDSEC
  0
SECTION
  2
ENTITIES
  0
INSERT
  5
A
  8
0
  2
COTE
 10
0.0
 20
0.0
 30
0.0
  0
INSERT
  5
17
  8
0
  2
COTE
 10
284.010391
 20
6.373258
 30
0.0
  0
INSERT
  5
72
  8
0
  2
FOND
 10
0.0
 20
0.0
 30
0.0
  0
LINE
  5
111B8
  8
AXE
 10
170.436678
 20
139.832779
 30
0.0
 11
170.436678
 21
29.832779
 31
0.0
  0
DIMENSION
  5
11208
  8
COTATION1
  2
*D3
 10
178.436678
 20
19.832779
 30
0.0
 11
170.436678
 21
23.082779
 31
0.0
 13
162.436678
 23
66.832779
 33
0.0
 14
178.436678
 24
66.832779
 34
0.0
  0
LINE
  5
11209
  8
AXE
 10
157.436678
 20
91.832779
 30
0.0
 11
190.936678
 21
91.832779
 31
0.0
  0
LINE
  5
11210
  8
ALPHA
 10
178.436678
 20
66.832779
 30
0.0
 11
178.436678
 21
132.495072
 31
0.0
  0
LINE
  5
11211
  8
ALPHA
 10
162.436678
 20
66.832779
 30
0.0
 11
162.436678
 21
116.832779
 31
0.0
  0
LINE
  5
11212
  8
ALPHA_FIN
 10
175.363169
 20
56.832779
 30
0.0
 11
175.363169
 21
45.212988
 31
0.0
  0
LINE
  5
11213
  8
ALPHA
 10
176.436678
 20
45.832779
 30
0.0
 11
176.436678
 21
56.832779
 31
0.0
  0
LINE
  5
11214
  8
ALPHA_FIN
 10
165.510187
 20
56.832779
 30
0.0
 11
165.510187
 21
45.212988
 31
0.0
  0
LINE
  5
11215
  8
ALPHA
 10
164.436678
 20
45.832779
 30
0.0
 11
164.436678
 21
56.832779
 31
0.0
  0
TEXT
  5
11216
  8
AXE
 10
162.960487
 20
29.948358
 30
0.0
 40
8.0
  1
Y
 72
     2
 11
169.436678
 21
29.948358
 31
0.0
  0
LINE
  5
11217
  8
ALPHA
 10
170.436678
 20
44.832779
 30
0.0
 11
166.168729
 21
44.832779
 31
0.0
  0
LINE
  5
11218
  8
ALPHA
 10
170.436678
 20
45.832779
 30
0.0
 11
164.436678
 21
45.832779
 31
0.0
  0
LINE
  5
11219
  8
ALPHA
 10
164.436678
 20
45.832779
 30
0.0
 11
166.168729
 21
44.832779
 31
0.0
  0
LINE
  5
1121A
  8
ALPHA
 10
176.436678
 20
45.832779
 30
0.0
 11
174.704627
 21
44.832779
 31
0.0
  0
LINE
  5
1121B
  8
ALPHA
 10
170.436678
 20
44.832779
 30
0.0
 11
174.704627
 21
44.832779
 31
0.0
  0
LINE
  5
1121C
  8
ALPHA
 10
170.436678
 20
45.832779
 30
0.0
 11
176.436678
 21
45.832779
 31
0.0
  0
LINE
  5
1121D
  8
ALPHA
 10
162.436678
 20
68.832779
 30
0.0
 11
178.436678
 21
68.832779
 31
0.0
  0
LINE
  5
1121E
  8
ALPHA
 10
162.436678
 20
66.832779
 30
0.0
 11
178.436678
 21
66.832779
 31
0.0
  0
LINE
  5
1121F
  8
ALPHA
 10
177.436678
 20
66.832779
 30
0.0
 11
177.436678
 21
57.832779
 31
0.0
  0
LINE
  5
11220
  8
ALPHA
 10
163.436678
 20
66.832779
 30
0.0
 11
163.436678
 21
57.832779
 31
0.0
  0
LINE
  5
11221
  8
ALPHA
 10
163.436678
 20
57.832779
 30
0.0
 11
170.436678
 21
57.832779
 31
0.0
  0
LINE
  5
11222
  8
ALPHA
 10
164.436678
 20
56.832779
 30
0.0
 11
170.436678
 21
56.832779
 31
0.0
  0
LINE
  5
11223
  8
ALPHA
 10
164.436678
 20
56.832779
 30
0.0
 11
163.436678
 21
57.832779
 31
0.0
  0
LINE
  5
11224
  8
ALPHA
 10
176.436678
 20
56.832779
 30
0.0
 11
177.436678
 21
57.832779
 31
0.0
  0
LINE
  5
11225
  8
ALPHA
 10
177.436678
 20
57.832779
 30
0.0
 11
170.436678
 21
57.832779
 31
0.0
  0
LINE
  5
11226
  8
ALPHA
 10
176.436678
 20
56.832779
 30
0.0
 11
170.436678
 21
56.832779
 31
0.0
  0
TEXT
  5
11227
  8
AXE
 10
184.460487
 20
92.832779
 30
0.0
 40
8.0
  1
Z
 72
     2
 11
190.936678
 21
92.832779
 31
0.0
  0
LINE
  5
11228
  8
ALPHA
 10
162.436678
 20
80.832779
 30
0.0
 11
178.436678
 21
80.832779
 31
0.0
  0
POLYLINE
  5
119E4
  8
ALPHA
 66
     1
 10
0.0
 20
0.0
 30
0.0
 70
   128
210
0.0
220
0.0
230
-1.0
  0
VERTEX
  5
11D1B
  8
ALPHA
 10
-176.436055
 20
134.49445
 30
0.0
  0
VERTEX
  5
11D1C
  8
ALPHA
 10
-177.214686
 20
134.337304
 30
0.0
  0
VERTEX
  5
11D1D
  8
ALPHA
 10
-177.850619
 20
133.90878
 30
0.0
  0
VERTEX
  5
11D1E
  8
ALPHA
 10
-178.279425
 20
133.273246
 30
0.0
  0
VERTEX
  5
11D1F
  8
ALPHA
 10
-178.436678
 20
132.495072
 30
0.0
  0
SEQEND
  5
11D20
  8
ALPHA
  0
LINE
  5
119E5
  8
ALPHA
 10
148.186678
 20
131.337414
 30
0.0
 11
148.186678
 21
121.283291
 31
0.0
  0
LINE
  5
119E6
  8
ALPHA
 10
152.440372
 20
121.283291
 30
0.0
 11
152.440372
 21
131.337414
 31
0.0
  0
POLYLINE
  5
119E7
  8
ALPHA
 66
     1
 10
0.0
 20
0.0
 30
0.0
 70
   128
  0
VERTEX
  5
11D21
  8
ALPHA
 10
170.436015
 20
122.837802
 30
0.0
  0
VERTEX
  5
11D22
  8
ALPHA
 10
169.088962
 20
122.595628
 30
0.0
  0
VERTEX
  5
11D23
  8
ALPHA
 10
167.821754
 20
121.957167
 30
0.0
  0
VERTEX
  5
11D24
  8
ALPHA
 10
165.562455
 20
120.01977
 30
0.0
  0
VERTEX
  5
11D25
  8
ALPHA
 10
163.729279
 20
118.082373
 30
0.0
  0
VERTEX
  5
11D26
  8
ALPHA
 10
162.994724
 20
117.443912
 30
0.0
  0
VERTEX
  5
11D27
  8
ALPHA
 10
162.436676
 20
117.201737
 30
0.0
  0
SEQEND
  5
11D28
  8
ALPHA
  0
POLYLINE
  5
119E8
  8
ALPHA
 66
     1
 10
0.0
 20
0.0
 30
0.0
 70
   128
  0
VERTEX
  5
11D29
  8
ALPHA
 10
152.439262
 20
117.201737
 30
0.0
  0
VERTEX
  5
11D2A
  8
ALPHA
 10
152.439275
 20
117.395943
 30
0.0
  0
VERTEX
  5
11D2B
  8
ALPHA
 10
152.43931
 20
117.944784
 30
0.0
  0
VERTEX
  5
11D2C
  8
ALPHA
 10
152.439436
 20
119.903724
 30
0.0
  0
VERTEX
  5
11D2D
  8
ALPHA
 10
152.439614
 20
122.67326
 30
0.0
  0
VERTEX
  5
11D2E
  8
ALPHA
 10
152.439818
 20
125.848094
 30
0.0
  0
VERTEX
  5
11D2F
  8
ALPHA
 10
152.440022
 20
129.022927
 30
0.0
  0
VERTEX
  5
11D30
  8
ALPHA
 10
152.4402
 20
131.792463
 30
0.0
  0
VERTEX
  5
11D31
  8
ALPHA
 10
152.440326
 20
133.751403
 30
0.0
  0
VERTEX
  5
11D32
  8
ALPHA
 10
152.440361
 20
134.300244
 30
0.0
  0
VERTEX
  5
11D33
  8
ALPHA
 10
152.440373
 20
134.49445
 30
0.0
  0
SEQEND
  5
11D34
  8
ALPHA
  0
LINE
  5
119E9
  8
ALPHA
 10
151.186678
 20
136.332779
 30
0.0
 11
151.186678
 21
116.332779
 31
0.0
  0
LINE
  5
119EA
  8
ALPHA
 10
147.683249
 20
132.832779
 30
0.0
 11
147.683249
 21
119.832779
 31
0.0
  0
LINE
  5
119EB
  8
ALPHA
 10
148.186678
 20
119.775227
 30
0.0
 11
148.186678
 21
132.845475
 31
0.0
  0
LINE
  5
119EC
  8
ALPHA
 10
162.436678
 20
114.832779
 30
0.0
 11
178.436678
 21
114.832779
 31
0.0
  0
LINE
  5
119ED
  8
ALPHA
 10
162.436678
 20
116.832779
 30
0.0
 11
178.436678
 21
116.832779
 31
0.0
  0
LINE
  5
119EE
  8
ALPHA
 10
162.436678
 20
114.832779
 30
0.0
 11
178.436678
 21
114.832779
 31
0.0
  0
LINE
  5
119EF
  8
ALPHA
 10
162.436678
 20
114.832779
 30
0.0
 11
178.436678
 21
114.832779
 31
0.0
  0
POLYLINE
  5
119F0
  8
ALPHA
 66
     1
 10
0.0
 20
0.0
 30
0.0
 70
   128
  0
VERTEX
  5
11D35
  8
ALPHA
 10
162.436676
 20
117.201737
 30
0.0
  0
VERTEX
  5
11D36
  8
ALPHA
 10
161.965668
 20
117.201737
 30
0.0
  0
VERTEX
  5
11D37
  8
ALPHA
 10
160.838053
 20
117.201737
 30
0.0
  0
VERTEX
  5
11D38
  8
ALPHA
 10
157.416323
 20
117.201737
 30
0.0
  0
VERTEX
  5
11D39
  8
ALPHA
 10
153.994594
 20
117.201737
 30
0.0
  0
VERTEX
  5
11D3A
  8
ALPHA
 10
152.866978
 20
117.201737
 30
0.0
  0
VERTEX
  5
11D3B
  8
ALPHA
 10
152.439262
 20
117.201737
 30
0.0
  0
SEQEND
  5
11D3C
  8
ALPHA
  0
LINE
  5
119F1
  8
ALPHA
 10
151.186678
 20
121.283291
 30
0.0
 11
152.440372
 21
121.283291
 31
0.0
  0
LINE
  5
119F2
  8
ALPHA
 10
148.186678
 20
119.832779
 30
0.0
 11
147.683249
 21
119.832779
 31
0.0
  0
LINE
  5
119F3
  8
ALPHA
 10
151.186678
 20
116.332779
 30
0.0
 11
150.186678
 21
116.332779
 31
0.0
  0
LINE
  5
119F4
  8
ALPHA
 10
152.440235
 20
120.332779
 30
0.0
 11
151.186678
 21
120.332779
 31
0.0
  0
LINE
  5
119F5
  8
ALPHA
 10
162.436676
 20
116.832779
 30
0.0
 11
162.436676
 21
117.201737
 31
0.0
  0
DIMENSION
  5
119F6
  8
COTATION1
  2
*D6
 10
178.436678
 20
209.332779
 30
0.0
 11
161.936678
 21
212.582779
 31
0.0
 13
145.436678
 23
187.332779
 33
0.0
 14
178.436678
 24
132.495072
 34
0.0
  0
POLYLINE
  5
119F7
  8
ALPHA
 66
     1
 10
0.0
 20
0.0
 30
0.0
 70
   128
  0
VERTEX
  5
11D3D
  8
ALPHA
 10
152.440373
 20
134.49445
 30
0.0
  0
VERTEX
  5
11D3E
  8
ALPHA
 10
152.710218
 20
134.49445
 30
0.0
  0
VERTEX
  5
11D3F
  8
ALPHA
 10
153.472822
 20
134.49445
 30
0.0
  0
VERTEX
  5
11D40
  8
ALPHA
 10
154.657791
 20
134.49445
 30
0.0
  0
VERTEX
  5
11D41
  8
ALPHA
 10
156.194732
 20
134.49445
 30
0.0
  0
VERTEX
  5
11D42
  8
ALPHA
 10
160.042949
 20
134.49445
 30
0.0
  0
VERTEX
  5
11D43
  8
ALPHA
 10
164.45432
 20
134.49445
 30
0.0
  0
VERTEX
  5
11D44
  8
ALPHA
 10
168.865691
 20
134.49445
 30
0.0
  0
VERTEX
  5
11D45
  8
ALPHA
 10
172.713908
 20
134.49445
 30
0.0
  0
VERTEX
  5
11D46
  8
ALPHA
 10
174.250849
 20
134.49445
 30
0.0
  0
VERTEX
  5
11D47
  8
ALPHA
 10
175.435818
 20
134.49445
 30
0.0
  0
VERTEX
  5
11D48
  8
ALPHA
 10
176.198422
 20
134.49445
 30
0.0
  0
VERTEX
  5
11D49
  8
ALPHA
 10
176.468266
 20
134.49445
 30
0.0
  0
SEQEND
  5
11D4A
  8
ALPHA
  0
LINE
  5
119F8
  8
ALPHA
 10
170.436014
 20
122.837803
 30
0.0
 11
152.569285
 21
122.837803
 31
0.0
  0
LINE
  5
119F9
  8
ALPHA
 10
142.686678
 20
184.332779
 30
0.0
 11
142.686678
 21
168.332779
 31
0.0
  0
LINE
  5
119FA
  8
AXE
 10
145.436678
 20
187.332779
 30
0.0
 11
145.436678
 21
165.332779
 31
0.0
  0
LINE
  5
119FB
  8
ALPHA
 10
147.683248
 20
122.289036
 30
0.0
 11
145.874017
 21
122.405169
 31
0.0
  0
LINE
  5
119FC
  8
ALPHA
 10
145.874017
 20
130.215534
 30
0.0
 11
147.683248
 21
130.332779
 31
0.0
  0
POLYLINE
  5
119FD
  8
ALPHA
 66
     1
 10
0.0
 20
0.0
 30
0.0
 70
   128
210
0.0
220
0.0
230
-1.0
  0
VERTEX
  5
11D4B
  8
ALPHA
 10
-144.881607
 20
126.81378
 30
0.0
  0
VERTEX
  5
11D4C
  8
ALPHA
 10
-145.086603
 20
128.295875
 30
0.0
  0
VERTEX
  5
11D4D
  8
ALPHA
 10
-145.422196
 20
129.359609
 30
0.0
  0
VERTEX
  5
11D4E
  8
ALPHA
 10
-145.735597
 20
130.000867
 30
0.0
  0
VERTEX
  5
11D4F
  8
ALPHA
 10
-145.874017
 20
130.215534
 30
0.0
  0
SEQEND
  5
11D50
  8
ALPHA
  0
LINE
  5
119FE
  8
ALPHA
 10
145.792335
 20
125.808035
 30
0.0
 11
145.792335
 21
126.81378
 31
0.0
  0
POLYLINE
  5
119FF
  8
ALPHA
 66
     1
 10
0.0
 20
0.0
 30
0.0
 70
   128
210
0.0
220
0.0
230
-1.0
  0
VERTEX
  5
11D51
  8
ALPHA
 10
-145.874017
 20
122.405169
 30
0.0
  0
VERTEX
  5
11D52
  8
ALPHA
 10
-145.735597
 20
122.62001
 30
0.0
  0
VERTEX
  5
11D53
  8
ALPHA
 10
-145.422196
 20
123.261651
 30
0.0
  0
VERTEX
  5
11D54
  8
ALPHA
 10
-145.086603
 20
124.325767
 30
0.0
  0
VERTEX
  5
11D55
  8
ALPHA
 10
-144.881607
 20
125.808035
 30
0.0
  0
SEQEND
  5
11D56
  8
ALPHA
  0
LINE
  5
11A00
  8
ALPHA
 10
144.881607
 20
125.808035
 30
0.0
 11
145.792335
 21
125.808035
 31
0.0
  0
LINE
  5
11A01
  8
ALPHA
 10
145.792335
 20
126.81378
 30
0.0
 11
144.881607
 21
126.81378
 31
0.0
  0
LINE
  5
11A02
  8
ALPHA
 10
148.186678
 20
132.832779
 30
0.0
 11
147.683249
 21
132.832779
 31
0.0
  0
LINE
  5
11A03
  8
ALPHA
 10
152.440235
 20
132.332779
 30
0.0
 11
151.186678
 21
132.332779
 31
0.0
  0
LINE
  5
11A04
  8
ALPHA
 10
151.186678
 20
129.571524
 30
0.0
 11
152.440372
 21
129.571524
 31
0.0
  0
LINE
  5
11A05
  8
ALPHA
 10
151.186678
 20
126.867678
 30
0.0
 11
152.440372
 21
126.867678
 31
0.0
  0
LINE
  5
11A06
  8
ALPHA
 10
151.186678
 20
127.768962
 30
0.0
 11
152.440372
 21
127.768962
 31
0.0
  0
LINE
  5
11A07
  8
ALPHA
 10
151.186678
 20
128.670243
 30
0.0
 11
152.440372
 21
128.670243
 31
0.0
  0
LINE
  5
11A08
  8
ALPHA
 10
151.186678
 20
125.754136
 30
0.0
 11
152.440372
 21
125.754136
 31
0.0
  0
LINE
  5
11A09
  8
ALPHA
 10
151.186678
 20
124.852856
 30
0.0
 11
152.440372
 21
124.852856
 31
0.0
  0
LINE
  5
11A0A
  8
ALPHA
 10
151.186678
 20
123.950462
 30
0.0
 11
152.440372
 21
123.950462
 31
0.0
  0
LINE
  5
11A0B
  8
ALPHA
 10
151.186678
 20
123.049182
 30
0.0
 11
152.440372
 21
123.049182
 31
0.0
  0
LINE
  5
11A0C
  8
ALPHA
 10
151.186678
 20
122.384611
 30
0.0
 11
152.440372
 21
122.384611
 31
0.0
  0
LINE
  5
11A0D
  8
ALPHA
 10
151.186678
 20
121.741711
 30
0.0
 11
152.440372
 21
121.741711
 31
0.0
  0
LINE
  5
11A0E
  8
ALPHA
 10
151.186678
 20
130.236094
 30
0.0
 11
152.440372
 21
130.236094
 31
0.0
  0
LINE
  5
11A0F
  8
ALPHA
 10
151.186678
 20
130.878994
 30
0.0
 11
152.440372
 21
130.878994
 31
0.0
  0
LINE
  5
11A10
  8
ALPHA
 10
152.440372
 20
131.337414
 30
0.0
 11
151.186678
 21
131.337414
 31
0.0
  0
LINE
  5
11A11
  8
ALPHA
 10
151.186678
 20
136.332779
 30
0.0
 11
150.186678
 21
136.332779
 31
0.0
  0
LINE
  5
11A12
  8
ALPHA
 10
142.686678
 20
168.332779
 30
0.0
 11
148.186678
 21
168.332779
 31
0.0
  0
DIMENSION
  5
11A13
  8
COTATION1
  2
*D5
 10
148.186678
 20
199.332779
 30
0.0
 11
128.06763
 21
199.332779
 31
0.0
 70
   128
 13
142.686678
 23
184.332779
 33
0.0
 14
148.186678
 24
184.332779
 34
0.0
  0
LINE
  5
11A14
  8
ALPHA
 10
142.686678
 20
184.332779
 30
0.0
 11
148.186678
 21
184.332779
 31
0.0
  0
LINE
  5
11A15
  8
ALPHA
 10
148.186678
 20
182.832779
 30
0.0
 11
150.186678
 21
182.832779
 31
0.0
  0
LINE
  5
11A16
  8
ALPHA
 10
148.186678
 20
184.332779
 30
0.0
 11
148.186678
 21
80.332779
 31
0.0
  0
LINE
  5
11A17
  8
ALPHA
 10
150.186678
 20
182.832779
 30
0.0
 11
150.186678
 21
80.332779
 31
0.0
  0
LINE
  5
11A18
  8
ALPHA
 10
150.186678
 20
80.332779
 30
0.0
 11
148.186678
 21
80.332779
 31
0.0
  0
DIMENSION
  5
11A19
  8
COTATION1
  2
*D4
 10
205.436678
 20
44.832779
 30
0.0
 11
205.436678
 21
114.582779
 31
0.0
  1
115...165
 13
148.186678
 23
184.332779
 33
0.0
 14
174.704627
 24
44.832779
 34
0.0
 50
90.0
  0
VIEWPORT
  5
494D
 67
     1
  8
0
 10
4.995325
 20
6.556512
 30
0.0
 40
22.70986
 41
13.988421
 68
    -1
 69
     1
1001
ACAD
1000
MVIEW
1002
{
1070
    16
1010
0.0
1020
0.0
1030
0.0
1010
0.0
1020
0.0
1030
1.0
1040
0.0
1040
13.988421
1040
4.995325
1040
6.556512
1040
50.0
1040
0.0
1040
0.0
1070
     0
1070
   100
1070
     1
1070
     1
1070
     0
1070
     0
1070
     0
1070
     0
1040
0.0
1040
0.0
1040
0.0
1040
10.0
1040
10.0
1040
10.0
1040
10.0
1070
     0
1002
{
1002
}
1002
}
  0
ENDSEC
  0
EOF
