  0
SECTION
  2
HEADER
  9
$ACADVER
  1
AC1014
  9
$ACADMAINTVER
 70
     0
  9
$DWGCODEPAGE
  3
ANSI_1252
  9
$INSBASE
 10
0.0
 20
0.0
 30
0.0
  9
$EXTMIN
 10
63.847522
 20
124.5
 30
0.0
  9
$EXTMAX
 10
130.5
 20
183.417708
 30
0.0
  9
$LIMMIN
 10
0.0
 20
0.0
  9
$LIMMAX
 10
210.0
 20
297.0
  9
$ORTHOMODE
 70
     0
  9
$REGENMODE
 70
     1
  9
$FILLMODE
 70
     1
  9
$QTEXTMODE
 70
     0
  9
$MIRRTEXT
 70
     1
  9
$DRAGMODE
 70
     2
  9
$LTSCALE
 40
10.0
  9
$OSMODE
 70
     0
  9
$ATTMODE
 70
     1
  9
$TEXTSIZE
 40
2.9
  9
$TRACEWID
 40
0.05
  9
$TEXTSTYLE
  7
ROMANS
  9
$CLAYER
  8
COTATION1
  9
$CELTYPE
  6
BYLAYER
  9
$CECOLOR
 62
   256
  9
$CELTSCALE
 40
1.0
  9
$DELOBJ
 70
     1
  9
$DISPSILH
 70
     0
  9
$DIMSCALE
 40
1.0
  9
$DIMASZ
 40
3.0
  9
$DIMEXO
 40
0.0625
  9
$DIMDLI
 40
0.38
  9
$DIMRND
 40
0.01
  9
$DIMDLE
 40
0.0
  9
$DIMEXE
 40
0.18
  9
$DIMTP
 40
0.0
  9
$DIMTM
 40
0.0
  9
$DIMTXT
 40
2.5
  9
$DIMCEN
 40
0.09
  9
$DIMTSZ
 40
0.0
  9
$DIMTOL
 70
     0
  9
$DIMLIM
 70
     0
  9
$DIMTIH
 70
     0
  9
$DIMTOH
 70
     0
  9
$DIMSE1
 70
     0
  9
$DIMSE2
 70
     0
  9
$DIMTAD
 70
     1
  9
$DIMZIN
 70
    12
  9
$DIMBLK
  1

  9
$DIMASO
 70
     1
  9
$DIMSHO
 70
     1
  9
$DIMPOST
  1

  9
$DIMAPOST
  1

  9
$DIMALT
 70
     0
  9
$DIMALTD
 70
     2
  9
$DIMALTF
 40
25.4
  9
$DIMLFAC
 40
1.0
  9
$DIMTOFL
 70
     1
  9
$DIMTVP
 40
0.0
  9
$DIMTIX
 70
     0
  9
$DIMSOXD
 70
     0
  9
$DIMSAH
 70
     0
  9
$DIMBLK1
  1

  9
$DIMBLK2
  1

  9
$DIMSTYLE
  2
SC_STAND
  9
$DIMCLRD
 70
     0
  9
$DIMCLRE
 70
     0
  9
$DIMCLRT
 70
     0
  9
$DIMTFAC
 40
1.0
  9
$DIMGAP
 40
1.0
  9
$DIMJUST
 70
     0
  9
$DIMSD1
 70
     0
  9
$DIMSD2
 70
     0
  9
$DIMTOLJ
 70
     1
  9
$DIMTZIN
 70
    12
  9
$DIMALTZ
 70
    12
  9
$DIMALTTZ
 70
    12
  9
$DIMFIT
 70
     5
  9
$DIMUPT
 70
     0
  9
$DIMUNIT
 70
     2
  9
$DIMDEC
 70
     4
  9
$DIMTDEC
 70
     4
  9
$DIMALTU
 70
     2
  9
$DIMALTTD
 70
     2
  9
$DIMTXSTY
  7
ROMANS
  9
$DIMAUNIT
 70
     0
  9
$LUNITS
 70
     2
  9
$LUPREC
 70
     4
  9
$SKETCHINC
 40
0.1
  9
$FILLETRAD
 40
0.0
  9
$AUNITS
 70
     0
  9
$AUPREC
 70
     0
  9
$MENU
  1
.
  9
$ELEVATION
 40
0.0
  9
$PELEVATION
 40
0.0
  9
$THICKNESS
 40
0.0
  9
$LIMCHECK
 70
     0
  9
$BLIPMODE
 70
     1
  9
$CHAMFERA
 40
0.0
  9
$CHAMFERB
 40
0.0
  9
$CHAMFERC
 40
0.0
  9
$CHAMFERD
 40
0.0
  9
$SKPOLY
 70
     0
  9
$TDCREATE
 40
2450989.759440856
  9
$TDUPDATE
 40
2451387.898176759
  9
$TDINDWG
 40
0.0017691088
  9
$TDUSRTIMER
 40
0.0017691088
  9
$USRTIMER
 70
     1
  9
$ANGBASE
 50
0.0
  9
$ANGDIR
 70
     0
  9
$PDMODE
 70
     0
  9
$PDSIZE
 40
0.0
  9
$PLINEWID
 40
0.0
  9
$COORDS
 70
     1
  9
$SPLFRAME
 70
     0
  9
$SPLINETYPE
 70
     6
  9
$SPLINESEGS
 70
     8
  9
$ATTDIA
 70
     1
  9
$ATTREQ
 70
     1
  9
$HANDLING
 70
     1
  9
$HANDSEED
  5
3BB
  9
$SURFTAB1
 70
     6
  9
$SURFTAB2
 70
     6
  9
$SURFTYPE
 70
     6
  9
$SURFU
 70
     6
  9
$SURFV
 70
     6
  9
$UCSNAME
  2

  9
$UCSORG
 10
0.0
 20
0.0
 30
0.0
  9
$UCSXDIR
 10
1.0
 20
0.0
 30
0.0
  9
$UCSYDIR
 10
0.0
 20
1.0
 30
0.0
  9
$PUCSNAME
  2

  9
$PUCSORG
 10
0.0
 20
0.0
 30
0.0
  9
$PUCSXDIR
 10
1.0
 20
0.0
 30
0.0
  9
$PUCSYDIR
 10
0.0
 20
1.0
 30
0.0
  9
$USERI1
 70
     0
  9
$USERI2
 70
     0
  9
$USERI3
 70
     0
  9
$USERI4
 70
     0
  9
$USERI5
 70
     0
  9
$USERR1
 40
0.0
  9
$USERR2
 40
0.0
  9
$USERR3
 40
0.0
  9
$USERR4
 40
0.0
  9
$USERR5
 40
0.0
  9
$WORLDVIEW
 70
     1
  9
$SHADEDGE
 70
     3
  9
$SHADEDIF
 70
    70
  9
$TILEMODE
 70
     1
  9
$MAXACTVP
 70
    16
  9
$PINSBASE
 10
0.0
 20
0.0
 30
0.0
  9
$PLIMCHECK
 70
     0
  9
$PEXTMIN
 10
0.0
 20
0.0
 30
0.0
  9
$PEXTMAX
 10
420.0
 20
297.0
 30
0.0
  9
$PLIMMIN
 10
0.0
 20
0.0
  9
$PLIMMAX
 10
420.0
 20
297.0
  9
$UNITMODE
 70
     0
  9
$VISRETAIN
 70
     0
  9
$PLINEGEN
 70
     0
  9
$PSLTSCALE
 70
     1
  9
$TREEDEPTH
 70
  3020
  9
$PICKSTYLE
 70
     1
  9
$CMLSTYLE
  2
STANDARD
  9
$CMLJUST
 70
     0
  9
$CMLSCALE
 40
1.0
  9
$PROXYGRAPHICS
 70
     1
  9
$MEASUREMENT
 70
     0
  0
ENDSEC
  0
SECTION
  2
CLASSES
  0
CLASS
  1
DICTIONARYVAR
  2
AcDbDictionaryVar
  3
"AutoCAD"
 90
        0
280
     0
281
     0
  0
CLASS
  1
LWPOLYLINE
  2
AcDbPolyline
  3
"AutoCAD"
 90
        0
280
     0
281
     1
  0
ENDSEC
  0
SECTION
  2
TABLES
  0
TABLE
  2
VPORT
  5
35C
100
AcDbSymbolTable
 70
     1
  0
VPORT
  5
3B6
100
AcDbSymbolTableRecord
100
AcDbViewportTableRecord
  2
*ACTIVE
 70
     0
 10
0.0
 20
0.0
 11
1.0
 21
1.0
 12
257.127367
 22
153.871495
 13
0.0
 23
0.0
 14
2.5
 24
2.5
 15
10.0
 25
10.0
 16
0.0
 26
0.0
 36
1.0
 17
0.0
 27
0.0
 37
0.0
 40
307.74299
 41
1.671053
 42
50.0
 43
0.0
 44
0.0
 50
0.0
 51
0.0
 71
     0
 72
   100
 73
     1
 74
     1
 75
     1
 76
     1
 77
     0
 78
     0
  0
ENDTAB
  0
TABLE
  2
LTYPE
  5
359
100
AcDbSymbolTable
 70
    23
  0
LTYPE
  5
365
100
AcDbSymbolTableRecord
100
AcDbLinetypeTableRecord
  2
BYBLOCK
 70
     0
  3

 72
    65
 73
     0
 40
0.0
  0
LTYPE
  5
366
100
AcDbSymbolTableRecord
100
AcDbLinetypeTableRecord
  2
BYLAYER
 70
     0
  3

 72
    65
 73
     0
 40
0.0
  0
LTYPE
  5
367
100
AcDbSymbolTableRecord
100
AcDbLinetypeTableRecord
  2
CONTINUOUS
 70
     0
  3
Solid line
 72
    65
 73
     0
 40
0.0
  0
LTYPE
  5
37C
100
AcDbSymbolTableRecord
100
AcDbLinetypeTableRecord
  2
AXES
 70
     0
  3
____ _ ____ _ ____ _ ____ _ ____ _ ____ _ ____ 
 72
    65
 73
     4
 40
2.0
 49
1.25
 74
     0
 49
-0.25
 74
     0
 49
0.25
 74
     0
 49
-0.25
 74
     0
  0
LTYPE
  5
37D
100
AcDbSymbolTableRecord
100
AcDbLinetypeTableRecord
  2
AXES2
 70
     0
  3
___ _ ___ _ ___ _ ___ _ ___ _ ___ _ ___ _ ___ _
 72
    65
 73
     4
 40
1.125
 49
0.75
 74
     0
 49
-0.125
 74
     0
 49
0.125
 74
     0
 49
-0.125
 74
     0
  0
LTYPE
  5
37E
100
AcDbSymbolTableRecord
100
AcDbLinetypeTableRecord
  2
AXESX2
 70
     0
  3
________  __  ________  __  ________  __  _____
 72
    65
 73
     4
 40
4.0
 49
2.5
 74
     0
 49
-0.5
 74
     0
 49
0.5
 74
     0
 49
-0.5
 74
     0
  0
LTYPE
  5
37F
100
AcDbSymbolTableRecord
100
AcDbLinetypeTableRecord
  2
TIRETPT
 70
     0
  3
__ . __ . __ . __ . __ . __ . __ . __ . __ . __
 72
    65
 73
     4
 40
1.0
 49
0.5
 74
     0
 49
-0.25
 74
     0
 49
0.0
 74
     0
 49
-0.25
 74
     0
  0
LTYPE
  5
380
100
AcDbSymbolTableRecord
100
AcDbLinetypeTableRecord
  2
TIRETPT2
 70
     0
  3
_._._._._._._._._._._._._._._._._._._._._._._._
 72
    65
 73
     4
 40
0.5
 49
0.25
 74
     0
 49
-0.125
 74
     0
 49
0.0
 74
     0
 49
-0.125
 74
     0
  0
LTYPE
  5
381
100
AcDbSymbolTableRecord
100
AcDbLinetypeTableRecord
  2
TIRETPTX2
 70
     0
  3
____  .  ____  .  ____  .  ____  .  ____  .  __
 72
    65
 73
     4
 40
2.0
 49
1.0
 74
     0
 49
-0.5
 74
     0
 49
0.0
 74
     0
 49
-0.5
 74
     0
  0
LTYPE
  5
382
100
AcDbSymbolTableRecord
100
AcDbLinetypeTableRecord
  2
DISCONTINU
 70
     0
  3
__ __ __ __ __ __ __ __ __ __ __ __ __ __ __ __
 72
    65
 73
     2
 40
0.75
 49
0.5
 74
     0
 49
-0.25
 74
     0
  0
LTYPE
  5
383
100
AcDbSymbolTableRecord
100
AcDbLinetypeTableRecord
  2
DISCONTINU2
 70
     0
  3
_ _ _ _ _ _ _ _ _ _ _ _ _ _ _ _ _ _ _ _ _ _ _ _
 72
    65
 73
     2
 40
0.375
 49
0.25
 74
     0
 49
-0.125
 74
     0
  0
LTYPE
  5
384
100
AcDbSymbolTableRecord
100
AcDbLinetypeTableRecord
  2
DISCONTINUX2
 70
     0
  3
____  ____  ____  ____  ____  ____  ____  ____ 
 72
    65
 73
     2
 40
1.5
 49
1.0
 74
     0
 49
-0.5
 74
     0
  0
LTYPE
  5
385
100
AcDbSymbolTableRecord
100
AcDbLinetypeTableRecord
  2
DIVISE
 70
     0
  3
____ . . ____ . . ____ . . ____ . . ____ . . __
 72
    65
 73
     6
 40
1.25
 49
0.5
 74
     0
 49
-0.25
 74
     0
 49
0.0
 74
     0
 49
-0.25
 74
     0
 49
0.0
 74
     0
 49
-0.25
 74
     0
  0
LTYPE
  5
386
100
AcDbSymbolTableRecord
100
AcDbLinetypeTableRecord
  2
DIVISE2
 70
     0
  3
__..__..__..__..__..__..__..__..__..__..__..__.
 72
    65
 73
     6
 40
0.625
 49
0.25
 74
     0
 49
-0.125
 74
     0
 49
0.0
 74
     0
 49
-0.125
 74
     0
 49
0.0
 74
     0
 49
-0.125
 74
     0
  0
LTYPE
  5
387
100
AcDbSymbolTableRecord
100
AcDbLinetypeTableRecord
  2
DIVISEX2
 70
     0
  3
________  .  .  ________  .  .  ________  .  . 
 72
    65
 73
     6
 40
2.5
 49
1.0
 74
     0
 49
-0.5
 74
     0
 49
0.0
 74
     0
 49
-0.5
 74
     0
 49
0.0
 74
     0
 49
-0.5
 74
     0
  0
LTYPE
  5
388
100
AcDbSymbolTableRecord
100
AcDbLinetypeTableRecord
  2
POINTILLE
 70
     0
  3
. . . . . . . . . . . . . . . . . . . . . . . .
 72
    65
 73
     2
 40
0.25
 49
0.0
 74
     0
 49
-0.25
 74
     0
  0
LTYPE
  5
389
100
AcDbSymbolTableRecord
100
AcDbLinetypeTableRecord
  2
POINTILLE2
 70
     0
  3
...............................................
 72
    65
 73
     2
 40
0.125
 49
0.0
 74
     0
 49
-0.125
 74
     0
  0
LTYPE
  5
38A
100
AcDbSymbolTableRecord
100
AcDbLinetypeTableRecord
  2
POINTILLEX2
 70
     0
  3
.  .  .  .  .  .  .  .  .  .  .  .  .  .  .  . 
 72
    65
 73
     2
 40
0.5
 49
0.0
 74
     0
 49
-0.5
 74
     0
  0
LTYPE
  5
38B
100
AcDbSymbolTableRecord
100
AcDbLinetypeTableRecord
  2
CACHE
 70
     0
  3
__ __ __ __ __ __ __ __ __ __ __ __ __ __ __ __
 72
    65
 73
     2
 40
0.375
 49
0.25
 74
     0
 49
-0.125
 74
     0
  0
LTYPE
  5
38C
100
AcDbSymbolTableRecord
100
AcDbLinetypeTableRecord
  2
CACHE2
 70
     0
  3
_ _ _ _ _ _ _ _ _ _ _ _ _ _ _ _ _ _ _ _ _ _ _ _
 72
    65
 73
     2
 40
0.1875
 49
0.125
 74
     0
 49
-0.0625
 74
     0
  0
LTYPE
  5
38D
100
AcDbSymbolTableRecord
100
AcDbLinetypeTableRecord
  2
CACHEX2
 70
     0
  3
____ ____ ____ ____ ____ ____ ____ ____ ____ __
 72
    65
 73
     2
 40
0.75
 49
0.5
 74
     0
 49
-0.25
 74
     0
  0
LTYPE
  5
38E
100
AcDbSymbolTableRecord
100
AcDbLinetypeTableRecord
  2
FANTOME
 70
     0
  3
______  __  __  ______  __  __  ______  __  __ 
 72
    65
 73
     6
 40
2.5
 49
1.25
 74
     0
 49
-0.25
 74
     0
 49
0.25
 74
     0
 49
-0.25
 74
     0
 49
0.25
 74
     0
 49
-0.25
 74
     0
  0
LTYPE
  5
38F
100
AcDbSymbolTableRecord
100
AcDbLinetypeTableRecord
  2
FANTOME2
 70
     0
  3
___ _ _ ___ _ _ ___ _ _ ___ _ _ ___ _ _ ___ _ _
 72
    65
 73
     6
 40
1.25
 49
0.625
 74
     0
 49
-0.125
 74
     0
 49
0.125
 74
     0
 49
-0.125
 74
     0
 49
0.125
 74
     0
 49
-0.125
 74
     0
  0
LTYPE
  5
390
100
AcDbSymbolTableRecord
100
AcDbLinetypeTableRecord
  2
FANTOMEX2
 70
     0
  3
____________    ____    ____    ____________   
 72
    65
 73
     6
 40
5.0
 49
2.5
 74
     0
 49
-0.5
 74
     0
 49
0.5
 74
     0
 49
-0.5
 74
     0
 49
0.5
 74
     0
 49
-0.5
 74
     0
  0
LTYPE
  5
391
100
AcDbSymbolTableRecord
100
AcDbLinetypeTableRecord
  2
0
 70
     0
  3
MEDUSA PEN 0
 72
    65
 73
     0
 40
0.0
  0
ENDTAB
  0
TABLE
  2
LAYER
  5
356
100
AcDbSymbolTable
 70
    21
  0
LAYER
  5
362
100
AcDbSymbolTableRecord
100
AcDbLayerTableRecord
  2
0
 70
     0
 62
   255
  6
CONTINUOUS
  0
LAYER
  5
399
100
AcDbSymbolTableRecord
100
AcDbLayerTableRecord
  2
COTATION1
 70
     0
 62
     2
  6
CONTINUOUS
  0
LAYER
  5
39A
100
AcDbSymbolTableRecord
100
AcDbLayerTableRecord
  2
ASHADE
 70
     0
 62
     7
  6
CONTINUOUS
  0
LAYER
  5
39B
100
AcDbSymbolTableRecord
100
AcDbLayerTableRecord
  2
ALPHA
 70
     0
 62
   255
  6
CONTINUOUS
  0
LAYER
  5
39C
100
AcDbSymbolTableRecord
100
AcDbLayerTableRecord
  2
DEFPOINTS
 70
     0
 62
     7
  6
CONTINUOUS
  0
LAYER
  5
39D
100
AcDbSymbolTableRecord
100
AcDbLayerTableRecord
  2
AXE
 70
     0
 62
    80
  6
AXES2
  0
LAYER
  5
39E
100
AcDbSymbolTableRecord
100
AcDbLayerTableRecord
  2
CONSTRUCTION
 70
     0
 62
     6
  6
CONTINUOUS
  0
LAYER
  5
39F
100
AcDbSymbolTableRecord
100
AcDbLayerTableRecord
  2
HACHURES
 70
     0
 62
     9
  6
CONTINUOUS
  0
LAYER
  5
3A0
100
AcDbSymbolTableRecord
100
AcDbLayerTableRecord
  2
FMULT
 70
     0
 62
     6
  6
CONTINUOUS
  0
LAYER
  5
3A1
100
AcDbSymbolTableRecord
100
AcDbLayerTableRecord
  2
TEXTE
 70
     0
 62
   131
  6
CONTINUOUS
  0
LAYER
  5
3A2
100
AcDbSymbolTableRecord
100
AcDbLayerTableRecord
  2
FDP_CARTOUCHE
 70
     0
 62
     4
  6
CONTINUOUS
  0
LAYER
  5
3A3
100
AcDbSymbolTableRecord
100
AcDbLayerTableRecord
  2
FDP_TEXTES
 70
     0
 62
     5
  6
CONTINUOUS
  0
LAYER
  5
3A4
100
AcDbSymbolTableRecord
100
AcDbLayerTableRecord
  2
FDP_LOGO_MG
 70
     0
 62
    30
  6
CONTINUOUS
  0
LAYER
  5
3A5
100
AcDbSymbolTableRecord
100
AcDbLayerTableRecord
  2
FDP_LOGO_SCH
 70
     0
 62
     3
  6
CONTINUOUS
  0
LAYER
  5
3A6
100
AcDbSymbolTableRecord
100
AcDbLayerTableRecord
  2
FDP_FDP
 70
     0
 62
     5
  6
CONTINUOUS
  0
LAYER
  5
3A7
100
AcDbSymbolTableRecord
100
AcDbLayerTableRecord
  2
COTATION2
 70
     0
 62
     2
  6
CONTINUOUS
  0
LAYER
  5
3A8
100
AcDbSymbolTableRecord
100
AcDbLayerTableRecord
  2
COTATION3
 70
     0
 62
     2
  6
CONTINUOUS
  0
LAYER
  5
3A9
100
AcDbSymbolTableRecord
100
AcDbLayerTableRecord
  2
COTATION4
 70
     0
 62
     2
  6
CONTINUOUS
  0
LAYER
  5
3AA
100
AcDbSymbolTableRecord
100
AcDbLayerTableRecord
  2
POINTILLE_COURT
 70
     0
 62
    40
  6
CACHE2
  0
LAYER
  5
3AB
100
AcDbSymbolTableRecord
100
AcDbLayerTableRecord
  2
POINTILLE_MOYEN
 70
     0
 62
   140
  6
CACHE
  0
LAYER
  5
3AC
100
AcDbSymbolTableRecord
100
AcDbLayerTableRecord
  2
POINTILLE_LONG
 70
     0
 62
   240
  6
CACHEX2
  0
ENDTAB
  0
TABLE
  2
STYLE
  5
357
100
AcDbSymbolTable
 70
     4
  0
STYLE
  5
363
100
AcDbSymbolTableRecord
100
AcDbTextStyleTableRecord
  2
STANDARD
 70
     0
 40
0.0
 41
1.0
 50
0.0
 71
     0
 42
0.2
  3
txt
  4

  0
STYLE
  5
379
100
AcDbSymbolTableRecord
100
AcDbTextStyleTableRecord
  2
ROMANS
 70
     0
 40
0.0
 41
1.0
 50
0.0
 71
     0
 42
2.9
  3
romans.shx
  4

  0
STYLE
  5
37A
100
AcDbSymbolTableRecord
100
AcDbTextStyleTableRecord
  2
INFOCAR
 70
     0
 40
0.0
 41
1.34
 50
0.0
 71
     0
 42
2.0
  3
ROMANS.SHX
  4

  0
STYLE
  5
37B
100
AcDbSymbolTableRecord
100
AcDbTextStyleTableRecord
  2
CARTOUCHE
 70
     0
 40
0.0
 41
1.0
 50
0.0
 71
     0
 42
0.2
  3
ROMANS.SHX
  4

  0
ENDTAB
  0
TABLE
  2
VIEW
  5
35A
100
AcDbSymbolTable
 70
     0
  0
ENDTAB
  0
TABLE
  2
UCS
  5
35B
100
AcDbSymbolTable
 70
     0
  0
ENDTAB
  0
TABLE
  2
APPID
  5
35D
100
AcDbSymbolTable
 70
     3
  0
APPID
  5
364
100
AcDbSymbolTableRecord
100
AcDbRegAppTableRecord
  2
ACAD
 70
     0
  0
APPID
  5
393
100
AcDbSymbolTableRecord
100
AcDbRegAppTableRecord
  2
AVE_RENDER
 70
     0
  0
APPID
  5
394
100
AcDbSymbolTableRecord
100
AcDbRegAppTableRecord
  2
AVE_MATERIAL
 70
     0
  0
ENDTAB
  0
TABLE
  2
DIMSTYLE
  5
35E
100
AcDbSymbolTable
 70
     2
  0
DIMSTYLE
105
395
102
{ACAD_REACTORS
330
1B0
330
1C2
330
1D1
330
1E0
330
1ED
330
1FA
102
}
100
AcDbSymbolTableRecord
100
AcDbDimStyleTableRecord
  2
SC_STAND
 70
     0
  3

  4

  5

  6

  7

 40
1.0
 41
3.0
 42
0.0625
 43
0.38
 44
0.18
 45
0.01
 46
0.0
 47
0.0
 48
0.0
140
2.5
141
0.09
142
0.0
143
25.4
144
1.0
145
0.0
146
1.0
147
1.0
 71
     0
 72
     0
 73
     0
 74
     0
 75
     0
 76
     0
 77
     1
 78
    12
170
     0
171
     2
172
     1
173
     0
174
     0
175
     0
176
     0
177
     0
178
     0
270
     2
271
     4
272
     4
273
     2
274
     2
340
379
275
     0
280
     0
281
     0
282
     0
283
     1
284
    12
285
    12
286
    12
287
     5
288
     0
  0
DIMSTYLE
105
396
100
AcDbSymbolTableRecord
100
AcDbDimStyleTableRecord
  2
STANDARD
 70
     0
  3

  4

  5

  6

  7

 40
1.0
 41
0.18
 42
0.0625
 43
0.38
 44
0.18
 45
0.0
 46
0.0
 47
0.0
 48
0.0
140
0.18
141
0.09
142
0.0
143
25.4
144
1.0
145
0.0
146
1.0
147
0.09
 71
     0
 72
     0
 73
     1
 74
     1
 75
     0
 76
     0
 77
     0
 78
     0
170
     0
171
     2
172
     0
173
     0
174
     0
175
     0
176
     0
177
     0
178
     0
270
     2
271
     4
272
     4
273
     2
274
     2
340
379
275
     0
280
     0
281
     0
282
     0
283
     1
284
    12
285
    12
286
    12
287
     5
288
     0
  0
ENDTAB
  0
TABLE
  2
BLOCK_RECORD
  5
355
100
AcDbSymbolTable
 70
     9
  0
BLOCK_RECORD
  5
36B
100
AcDbSymbolTableRecord
100
AcDbBlockTableRecord
  2
*MODEL_SPACE
  0
BLOCK_RECORD
  5
368
100
AcDbSymbolTableRecord
100
AcDbBlockTableRecord
  2
*PAPER_SPACE
  0
BLOCK_RECORD
  5
370
100
AcDbSymbolTableRecord
100
AcDbBlockTableRecord
  2
AVE_RENDER
  0
BLOCK_RECORD
  5
371
100
AcDbSymbolTableRecord
100
AcDbBlockTableRecord
  2
AVE_GLOBAL
  0
BLOCK_RECORD
  5
372
100
AcDbSymbolTableRecord
100
AcDbBlockTableRecord
  2
*D2
  0
BLOCK_RECORD
  5
373
100
AcDbSymbolTableRecord
100
AcDbBlockTableRecord
  2
*D3
  0
BLOCK_RECORD
  5
374
100
AcDbSymbolTableRecord
100
AcDbBlockTableRecord
  2
*D4
  0
BLOCK_RECORD
  5
375
100
AcDbSymbolTableRecord
100
AcDbBlockTableRecord
  2
*D5
  0
BLOCK_RECORD
  5
376
100
AcDbSymbolTableRecord
100
AcDbBlockTableRecord
  2
*D6
  0
BLOCK_RECORD
  5
377
100
AcDbSymbolTableRecord
100
AcDbBlockTableRecord
  2
*D7
  0
BLOCK_RECORD
  5
378
100
AcDbSymbolTableRecord
100
AcDbBlockTableRecord
  2
SCH_ISO
  0
ENDTAB
  0
ENDSEC
  0
SECTION
  2
BLOCKS
  0
BLOCK
  5
3AF
100
AcDbEntity
  8
0
100
AcDbBlockBegin
  2
*MODEL_SPACE
 70
     0
 10
0.0
 20
0.0
 30
0.0
  3
*MODEL_SPACE
  1

  0
ENDBLK
  5
3B0
100
AcDbEntity
  8
0
100
AcDbBlockEnd
  0
BLOCK
  5
3AD
100
AcDbEntity
 67
     1
  8
0
100
AcDbBlockBegin
  2
*PAPER_SPACE
 70
     0
 10
0.0
 20
0.0
 30
0.0
  3
*PAPER_SPACE
  1

  0
ENDBLK
  5
3AE
100
AcDbEntity
 67
     1
  8
0
100
AcDbBlockEnd
  0
BLOCK
  5
8
100
AcDbEntity
  8
0
100
AcDbBlockBegin
  2
AVE_RENDER
 70
     0
 10
0.0
 20
0.0
 30
0.0
  3
AVE_RENDER
  1
AVE_RENDER
  0
ENDBLK
  5
A
100
AcDbEntity
  8
0
100
AcDbBlockEnd
  0
BLOCK
  5
16
100
AcDbEntity
  8
0
100
AcDbBlockBegin
  2
AVE_GLOBAL
 70
     0
 10
0.0
 20
0.0
 30
0.0
  3
AVE_GLOBAL
  1
AVE_GLOBAL
  0
ENDBLK
  5
17
100
AcDbEntity
  8
0
100
AcDbBlockEnd
  0
BLOCK
  5
1C0
100
AcDbEntity
  8
0
100
AcDbBlockBegin
  2
*D2
 70
     1
 10
0.0
 20
0.0
 30
0.0
  3
*D2
  1
AVE_RENDER
  0
LINE
  5
1B5
100
AcDbEntity
  8
0
  6
BYBLOCK
 62
     0
100
AcDbLine
 10
69.847522
 20
155.755208
 30
0.0
 11
69.847522
 21
124.82
 31
0.0
  0
LINE
  5
1B7
100
AcDbEntity
  8
0
  6
BYBLOCK
 62
     0
100
AcDbLine
 10
103.647522
 20
159.915302
 30
0.0
 11
103.647522
 21
124.82
 31
0.0
  0
LINE
  5
1B8
100
AcDbEntity
  8
0
  6
BYBLOCK
 62
     0
100
AcDbLine
 10
72.847522
 20
125.0
 30
0.0
 11
100.647522
 21
125.0
 31
0.0
  0
SOLID
  5
1B9
100
AcDbEntity
  8
0
  6
BYBLOCK
 62
     0
100
AcDbTrace
 10
72.847522
 20
125.5
 30
0.0
 11
72.847522
 21
124.5
 31
0.0
 12
69.847522
 22
125.0
 32
0.0
 13
69.847522
 23
125.0
 33
0.0
  0
SOLID
  5
1BA
100
AcDbEntity
  8
0
  6
BYBLOCK
 62
     0
100
AcDbTrace
 10
100.647522
 20
125.5
 30
0.0
 11
100.647522
 21
124.5
 31
0.0
 12
103.647522
 22
125.0
 32
0.0
 13
103.647522
 23
125.0
 33
0.0
  0
TEXT
  5
1BB
100
AcDbEntity
  8
0
  6
BYBLOCK
 62
     0
100
AcDbText
 10
82.580855
 20
126.0
 30
0.0
 40
2.5
  1
33.8
  7
ROMANS
100
AcDbText
  0
POINT
  5
1BC
100
AcDbEntity
  8
DEFPOINTS
  6
BYBLOCK
 62
     0
100
AcDbPoint
 10
69.847522
 20
155.817708
 30
0.0
  0
POINT
  5
1BE
100
AcDbEntity
  8
DEFPOINTS
  6
BYBLOCK
 62
     0
100
AcDbPoint
 10
103.647522
 20
159.977802
 30
0.0
  0
POINT
  5
1BF
100
AcDbEntity
  8
DEFPOINTS
  6
BYBLOCK
 62
     0
100
AcDbPoint
 10
103.647522
 20
125.0
 30
0.0
  0
ENDBLK
  5
1C1
100
AcDbEntity
  8
0
100
AcDbBlockEnd
  0
BLOCK
  5
1CF
100
AcDbEntity
  8
0
100
AcDbBlockBegin
  2
*D3
 70
     1
 10
0.0
 20
0.0
 30
0.0
  3
*D3
  1
AVE_RENDER
  0
LINE
  5
1C4
100
AcDbEntity
  8
0
  6
BYBLOCK
 62
     0
100
AcDbLine
 10
69.847522
 20
155.692708
 30
0.0
 11
69.847522
 21
132.32
 31
0.0
  0
LINE
  5
1C5
100
AcDbEntity
  8
0
  6
BYBLOCK
 62
     0
100
AcDbLine
 10
84.747522
 20
153.555208
 30
0.0
 11
84.747522
 21
132.32
 31
0.0
  0
LINE
  5
1C6
100
AcDbEntity
  8
0
  6
BYBLOCK
 62
     0
100
AcDbLine
 10
66.847522
 20
132.5
 30
0.0
 11
63.847522
 21
132.5
 31
0.0
  0
LINE
  5
1C7
100
AcDbEntity
  8
0
  6
BYBLOCK
 62
     0
100
AcDbLine
 10
87.747522
 20
132.5
 30
0.0
 11
90.747522
 21
132.5
 31
0.0
  0
LINE
  5
1C8
100
AcDbEntity
  8
0
  6
BYBLOCK
 62
     0
100
AcDbLine
 10
69.847522
 20
132.5
 30
0.0
 11
84.747522
 21
132.5
 31
0.0
  0
SOLID
  5
1C9
100
AcDbEntity
  8
0
  6
BYBLOCK
 62
     0
100
AcDbTrace
 10
66.847522
 20
133.0
 30
0.0
 11
66.847522
 21
132.0
 31
0.0
 12
69.847522
 22
132.5
 32
0.0
 13
69.847522
 23
132.5
 33
0.0
  0
SOLID
  5
1CA
100
AcDbEntity
  8
0
  6
BYBLOCK
 62
     0
100
AcDbTrace
 10
87.747522
 20
133.0
 30
0.0
 11
87.747522
 21
132.0
 31
0.0
 12
84.747522
 22
132.5
 32
0.0
 13
84.747522
 23
132.5
 33
0.0
  0
TEXT
  5
1CB
100
AcDbEntity
  8
0
  6
BYBLOCK
 62
     0
100
AcDbText
 10
73.011808
 20
133.5
 30
0.0
 40
2.5
  1
14.9
  7
ROMANS
100
AcDbText
  0
POINT
  5
1CC
100
AcDbEntity
  8
DEFPOINTS
  6
BYBLOCK
 62
     0
100
AcDbPoint
 10
69.847522
 20
155.755208
 30
0.0
  0
POINT
  5
1CD
100
AcDbEntity
  8
DEFPOINTS
  6
BYBLOCK
 62
     0
100
AcDbPoint
 10
84.747522
 20
153.617708
 30
0.0
  0
POINT
  5
1CE
100
AcDbEntity
  8
DEFPOINTS
  6
BYBLOCK
 62
     0
100
AcDbPoint
 10
84.747522
 20
132.5
 30
0.0
  0
ENDBLK
  5
1D0
100
AcDbEntity
  8
0
100
AcDbBlockEnd
  0
BLOCK
  5
1DE
100
AcDbEntity
  8
0
100
AcDbBlockBegin
  2
*D4
 70
     1
 10
0.0
 20
0.0
 30
0.0
  3
*D4
  1
AVE_RENDER
  0
LINE
  5
1D3
100
AcDbEntity
  8
0
  6
BYBLOCK
 62
     0
100
AcDbLine
 10
84.747522
 20
153.492708
 30
0.0
 11
84.747522
 21
139.82
 31
0.0
  0
LINE
  5
1D4
100
AcDbEntity
  8
0
  6
BYBLOCK
 62
     0
100
AcDbLine
 10
76.247522
 20
155.755208
 30
0.0
 11
76.247522
 21
139.82
 31
0.0
  0
LINE
  5
1D5
100
AcDbEntity
  8
0
  6
BYBLOCK
 62
     0
100
AcDbLine
 10
87.747522
 20
140.0
 30
0.0
 11
90.747522
 21
140.0
 31
0.0
  0
LINE
  5
1D6
100
AcDbEntity
  8
0
  6
BYBLOCK
 62
     0
100
AcDbLine
 10
73.247522
 20
140.0
 30
0.0
 11
70.247522
 21
140.0
 31
0.0
  0
LINE
  5
1D7
100
AcDbEntity
  8
0
  6
BYBLOCK
 62
     0
100
AcDbLine
 10
84.747522
 20
140.0
 30
0.0
 11
76.247522
 21
140.0
 31
0.0
  0
SOLID
  5
1D8
100
AcDbEntity
  8
0
  6
BYBLOCK
 62
     0
100
AcDbTrace
 10
87.747522
 20
140.5
 30
0.0
 11
87.747522
 21
139.5
 31
0.0
 12
84.747522
 22
140.0
 32
0.0
 13
84.747522
 23
140.0
 33
0.0
  0
SOLID
  5
1D9
100
AcDbEntity
  8
0
  6
BYBLOCK
 62
     0
100
AcDbTrace
 10
73.247522
 20
140.5
 30
0.0
 11
73.247522
 21
139.5
 31
0.0
 12
76.247522
 22
140.0
 32
0.0
 13
76.247522
 23
140.0
 33
0.0
  0
TEXT
  5
1DA
100
AcDbEntity
  8
0
  6
BYBLOCK
 62
     0
100
AcDbText
 10
77.521331
 20
141.0
 30
0.0
 40
2.5
  1
8.5
  7
ROMANS
100
AcDbText
  0
POINT
  5
1DB
100
AcDbEntity
  8
DEFPOINTS
  6
BYBLOCK
 62
     0
100
AcDbPoint
 10
84.747522
 20
153.555208
 30
0.0
  0
POINT
  5
1DC
100
AcDbEntity
  8
DEFPOINTS
  6
BYBLOCK
 62
     0
100
AcDbPoint
 10
76.247522
 20
155.817708
 30
0.0
  0
POINT
  5
1DD
100
AcDbEntity
  8
DEFPOINTS
  6
BYBLOCK
 62
     0
100
AcDbPoint
 10
76.247522
 20
140.0
 30
0.0
  0
ENDBLK
  5
1DF
100
AcDbEntity
  8
0
100
AcDbBlockEnd
  0
BLOCK
  5
1EB
100
AcDbEntity
  8
0
100
AcDbBlockBegin
  2
*D5
 70
     1
 10
0.0
 20
0.0
 30
0.0
  3
*D5
  1
AVE_RENDER
  0
LINE
  5
1E2
100
AcDbEntity
  8
0
  6
BYBLOCK
 62
     0
100
AcDbLine
 10
84.810022
 20
153.617708
 30
0.0
 11
130.18
 21
153.617708
 31
0.0
  0
LINE
  5
1E3
100
AcDbEntity
  8
0
  6
BYBLOCK
 62
     0
100
AcDbLine
 10
84.810022
 20
183.417708
 30
0.0
 11
130.18
 21
183.417708
 31
0.0
  0
LINE
  5
1E4
100
AcDbEntity
  8
0
  6
BYBLOCK
 62
     0
100
AcDbLine
 10
130.0
 20
156.617708
 30
0.0
 11
130.0
 21
180.417708
 31
0.0
  0
SOLID
  5
1E5
100
AcDbEntity
  8
0
  6
BYBLOCK
 62
     0
100
AcDbTrace
 10
129.5
 20
156.617708
 30
0.0
 11
130.5
 21
156.617708
 31
0.0
 12
130.0
 22
153.617708
 32
0.0
 13
130.0
 23
153.617708
 33
0.0
  0
SOLID
  5
1E6
100
AcDbEntity
  8
0
  6
BYBLOCK
 62
     0
100
AcDbTrace
 10
129.5
 20
180.417708
 30
0.0
 11
130.5
 21
180.417708
 31
0.0
 12
130.0
 22
183.417708
 32
0.0
 13
130.0
 23
183.417708
 33
0.0
  0
TEXT
  5
1E7
100
AcDbEntity
  8
0
  6
BYBLOCK
 62
     0
100
AcDbText
 10
129.0
 20
164.351041
 30
0.0
 40
2.5
  1
29.8
 50
90.0
  7
ROMANS
100
AcDbText
  0
POINT
  5
1E8
100
AcDbEntity
  8
DEFPOINTS
  6
BYBLOCK
 62
     0
100
AcDbPoint
 10
84.747522
 20
153.617708
 30
0.0
  0
POINT
  5
1E9
100
AcDbEntity
  8
DEFPOINTS
  6
BYBLOCK
 62
     0
100
AcDbPoint
 10
84.747522
 20
183.417708
 30
0.0
  0
POINT
  5
1EA
100
AcDbEntity
  8
DEFPOINTS
  6
BYBLOCK
 62
     0
100
AcDbPoint
 10
130.0
 20
183.417708
 30
0.0
  0
ENDBLK
  5
1EC
100
AcDbEntity
  8
0
100
AcDbBlockEnd
  0
BLOCK
  5
1F8
100
AcDbEntity
  8
0
100
AcDbBlockBegin
  2
*D6
 70
     1
 10
0.0
 20
0.0
 30
0.0
  3
*D6
  1
AVE_RENDER
  0
LINE
  5
1EF
100
AcDbEntity
  8
0
  6
BYBLOCK
 62
     0
100
AcDbLine
 10
86.010022
 20
182.017689
 30
0.0
 11
122.68
 21
182.017689
 31
0.0
  0
LINE
  5
1F0
100
AcDbEntity
  8
0
  6
BYBLOCK
 62
     0
100
AcDbLine
 10
86.010022
 20
155.017708
 30
0.0
 11
122.68
 21
155.017708
 31
0.0
  0
LINE
  5
1F1
100
AcDbEntity
  8
0
  6
BYBLOCK
 62
     0
100
AcDbLine
 10
122.5
 20
179.017689
 30
0.0
 11
122.5
 21
158.017708
 31
0.0
  0
SOLID
  5
1F2
100
AcDbEntity
  8
0
  6
BYBLOCK
 62
     0
100
AcDbTrace
 10
122.0
 20
179.017689
 30
0.0
 11
123.0
 21
179.017689
 31
0.0
 12
122.5
 22
182.017689
 32
0.0
 13
122.5
 23
182.017689
 33
0.0
  0
SOLID
  5
1F3
100
AcDbEntity
  8
0
  6
BYBLOCK
 62
     0
100
AcDbTrace
 10
122.0
 20
158.017708
 30
0.0
 11
123.0
 21
158.017708
 31
0.0
 12
122.5
 22
155.017708
 32
0.0
 13
122.5
 23
155.017708
 33
0.0
  0
TEXT
  5
1F4
100
AcDbEntity
  8
0
  6
BYBLOCK
 62
     0
100
AcDbText
 10
121.5
 20
166.136746
 30
0.0
 40
2.5
  1
27
 50
90.0
  7
ROMANS
100
AcDbText
  0
POINT
  5
1F5
100
AcDbEntity
  8
DEFPOINTS
  6
BYBLOCK
 62
     0
100
AcDbPoint
 10
85.947522
 20
182.017689
 30
0.0
  0
POINT
  5
1F6
100
AcDbEntity
  8
DEFPOINTS
  6
BYBLOCK
 62
     0
100
AcDbPoint
 10
85.947522
 20
155.017708
 30
0.0
  0
POINT
  5
1F7
100
AcDbEntity
  8
DEFPOINTS
  6
BYBLOCK
 62
     0
100
AcDbPoint
 10
122.5
 20
155.017708
 30
0.0
  0
ENDBLK
  5
1F9
100
AcDbEntity
  8
0
100
AcDbBlockEnd
  0
BLOCK
  5
205
100
AcDbEntity
  8
0
100
AcDbBlockBegin
  2
*D7
 70
     1
 10
0.0
 20
0.0
 30
0.0
  3
*D7
  1
AVE_RENDER
  0
LINE
  5
1FC
100
AcDbEntity
  8
0
  6
BYBLOCK
 62
     0
100
AcDbLine
 10
88.810022
 20
179.517708
 30
0.0
 11
115.18
 21
179.517708
 31
0.0
  0
LINE
  5
1FD
100
AcDbEntity
  8
0
  6
BYBLOCK
 62
     0
100
AcDbLine
 10
88.810022
 20
157.517708
 30
0.0
 11
115.18
 21
157.517708
 31
0.0
  0
LINE
  5
1FE
100
AcDbEntity
  8
0
  6
BYBLOCK
 62
     0
100
AcDbLine
 10
115.0
 20
176.517708
 30
0.0
 11
115.0
 21
160.517708
 31
0.0
  0
SOLID
  5
1FF
100
AcDbEntity
  8
0
  6
BYBLOCK
 62
     0
100
AcDbTrace
 10
114.5
 20
176.517708
 30
0.0
 11
115.5
 21
176.517708
 31
0.0
 12
115.0
 22
179.517708
 32
0.0
 13
115.0
 23
179.517708
 33
0.0
  0
SOLID
  5
200
100
AcDbEntity
  8
0
  6
BYBLOCK
 62
     0
100
AcDbTrace
 10
114.5
 20
160.517708
 30
0.0
 11
115.5
 21
160.517708
 31
0.0
 12
115.0
 22
157.517708
 32
0.0
 13
115.0
 23
157.517708
 33
0.0
  0
TEXT
  5
201
100
AcDbEntity
  8
0
  6
BYBLOCK
 62
     0
100
AcDbText
 10
114.0
 20
166.136755
 30
0.0
 40
2.5
  1
22
 50
90.0
  7
ROMANS
100
AcDbText
  0
POINT
  5
202
100
AcDbEntity
  8
DEFPOINTS
  6
BYBLOCK
 62
     0
100
AcDbPoint
 10
88.747522
 20
179.517708
 30
0.0
  0
POINT
  5
203
100
AcDbEntity
  8
DEFPOINTS
  6
BYBLOCK
 62
     0
100
AcDbPoint
 10
88.747522
 20
157.517708
 30
0.0
  0
POINT
  5
204
100
AcDbEntity
  8
DEFPOINTS
  6
BYBLOCK
 62
     0
100
AcDbPoint
 10
115.0
 20
157.517708
 30
0.0
  0
ENDBLK
  5
206
100
AcDbEntity
  8
0
100
AcDbBlockEnd
  0
BLOCK
  5
255
100
AcDbEntity
  8
0
100
AcDbBlockBegin
  2
SCH_ISO
 70
     0
 10
0.0
 20
0.0
 30
0.0
  3
SCH_ISO
  1

  0
INSERT
  5
24C
100
AcDbEntity
  8
ASHADE
 62
     1
100
AcDbBlockReference
  2
AVE_RENDER
 10
0.0
 20
0.0
 30
0.0
1001
AVE_RENDER
1002
{
1070
     6
1000
Pref
1070
    50
1070
    20
1070
     1
1070
     0
1000

1070
    10
1070
     1
1070
    30
1040
25.4
1070
     1
1040
0.3
1040
0.7
1040
0.0
1040
10.0
1010
-1.0
1020
-1.0
1030
-1.0
1040
0.3
1070
    49
1070
     0
1070
     0
1010
1.0
1020
1.0
1030
1.0
1040
45.0
1070
     1
1070
     0
1000
WCS
1040
0.0
1002
}
  0
INSERT
  5
24D
100
AcDbEntity
  8
ASHADE
 62
     3
100
AcDbBlockReference
  2
AVE_RENDER
 10
0.0
 20
0.0
 30
0.0
1001
AVE_RENDER
1002
{
1070
     0
1000
Full Opt
1070
     0
1070
     1
1070
     1
1070
     1
1070
     0
1070
     0
1070
     0
1070
     1
1070
     1
1040
0.0001
1040
0.0001
1002
}
  0
INSERT
  5
24E
100
AcDbEntity
  8
ASHADE
 62
     4
100
AcDbBlockReference
  2
AVE_RENDER
 10
0.0
 20
0.0
 30
0.0
1001
AVE_RENDER
1002
{
1070
     0
1000
Quick Opt
1070
     0
1070
     1
1070
     1
1070
     1
1070
     0
1070
     0
1070
     1
1002
}
  0
INSERT
  5
24F
100
AcDbEntity
  8
ASHADE
 62
     5
100
AcDbBlockReference
  2
AVE_RENDER
 10
0.0
 20
0.0
 30
0.0
1001
AVE_RENDER
1002
{
1070
     1
1000
Scanl Opt
1070
     2
1070
     0
1070
     2
1040
2.0
1040
4.0
1070
     0
1070
     1
1070
     0
1040
0.03
1002
}
  0
INSERT
  5
250
100
AcDbEntity
  8
ASHADE
 62
     6
100
AcDbBlockReference
  2
AVE_RENDER
 10
0.0
 20
0.0
 30
0.0
1001
AVE_RENDER
1002
{
1070
     2
1000
Raytr Opt
1070
     2
1070
     0
1070
     2
1040
2.0
1040
4.0
1070
     0
1070
     1
1070
     1
1040
0.03
1070
     3
1040
0.03
1002
}
  0
INSERT
  5
251
100
AcDbEntity
  8
ASHADE
 62
     7
100
AcDbBlockReference
  2
AVE_RENDER
 10
0.0
 20
0.0
 30
0.0
1001
AVE_RENDER
1002
{
1070
     0
1000
RFile Opt
1070
     5
1070
   640
1070
   480
1070
 10000
1070
     3
1070
    32
1070
    24
1070
     0
1070
     0
1070
     0
1070
     1
1070
     0
1070
     0
1070
     0
1002
}
  0
INSERT
  5
252
100
AcDbEntity
  8
ASHADE
 62
     8
100
AcDbBlockReference
  2
AVE_RENDER
 10
0.0
 20
0.0
 30
0.0
1001
AVE_RENDER
1002
{
1070
     0
1000
Fog Opt
1070
     0
1070
     0
1040
0.0
1040
1.0
1040
0.0
1040
1.0
1010
0.5
1020
0.5
1030
0.5
1002
}
  0
INSERT
  5
253
100
AcDbEntity
  8
ASHADE
 62
     9
100
AcDbBlockReference
  2
AVE_RENDER
 10
0.0
 20
0.0
 30
0.0
1001
AVE_RENDER
1002
{
1070
     0
1000
BG Opt
1070
     0
1070
     1
1010
0.0
1020
0.0
1030
0.0
1010
1.0
1020
0.0
1030
0.0
1010
0.0
1020
1.0
1030
0.0
1010
0.0
1020
0.0
1030
1.0
1040
0.5
1040
0.33
1040
0.0
1000

1070
     1
1000

1070
     1
1070
     1
1040
1.0
1040
1.0
1040
0.0
1040
0.0
1070
     0
1002
}
  0
INSERT
  5
254
100
AcDbEntity
  8
ASHADE
 62
     1
100
AcDbBlockReference
  2
AVE_GLOBAL
 10
0.0
 20
0.0
 30
0.0
1001
AVE_MATERIAL
1002
{
1000
*GLOBAL*
1000
1
1000
Finition globale.
1002
{
1002
}
1002
{
1070
    63
1002
{
1002
{
1010
-1.0
1020
-1.0
1030
-1.0
1002
}
1040
0.1
1000

1040
0.0
1002
{
1002
}
1040
0.0
1002
{
1002
}
1040
0.0
1002
}
1002
{
1002
{
1010
-1.0
1020
-1.0
1030
-1.0
1002
}
1040
0.7
1000

1040
0.0
1002
{
1002
}
1040
0.0
1002
{
1002
}
1040
0.0
1002
}
1002
{
1002
{
1010
-1.0
1020
-1.0
1030
-1.0
1002
}
1040
0.2
1000

1040
0.0
1002
{
1002
}
1040
0.0
1002
{
1002
}
1040
0.0
1002
}
1002
{
1070
     0
1002
{
1070
     1
1002
{
1040
1.0
1040
1.0
1000

1040
0.0
1002
{
1002
}
1040
0.0
1002
{
1002
}
1040
0.0
1002
}
1002
}
1040
1.0
1040
0.0
1040
0.0
1002
}
1002
{
1040
1.0
1040
1.0
1000

1040
0.0
1002
{
1002
}
1040
0.0
1002
{
1002
}
1040
0.0
1002
}
1002
{
1040
0.5
1040
1.0
1000

1040
0.0
1002
{
1002
}
1040
0.0
1002
{
1002
}
1040
0.0
1002
}
1002
{
1070
     0
1040
0.0
1002
{
1002
}
1040
1.0
1002
{
1002
}
1040
0.0
1002
}
1002
{
1040
0.0
1002
{
1002
{
1010
0.0
1020
0.0
1030
0.0
1002
}
1040
1.0
1000

1040
0.0
1002
{
1002
}
1040
0.0
1002
{
1002
}
1040
0.0
1002
}
1002
}
1002
{
1002
{
1070
     1
1002
{
1040
0.0
1040
1.0
1000

1040
0.0
1002
{
1002
}
1040
0.0
1002
{
1002
}
1040
0.0
1002
}
1002
}
1040
0.0
1002
{
1002
}
1010
1.0
1020
0.0
1030
0.0
1010
0.0
1020
1.0
1030
0.0
1010
0.0
1020
0.0
1030
1.0
1070
     0
1002
}
1002
{
1002
{
1040
1.0
1040
1.0
1002
{
1070
     1
1002
{
1040
1.0
1040
1.0
1000

1040
0.0
1002
{
1002
}
1040
0.0
1002
{
1002
}
1040
0.0
1002
}
1002
}
1002
}
1070
     0
1040
0.0
1002
{
1002
}
1002
}
1002
{
1002
}
1002
}
1002
{
1071
        3
1070
     3
1070
     0
1002
{
1070
     2
1070
     0
1070
     0
1040
0.0
1002
}
1070
     0
1070
     2
1002
{
1002
}
1002
}
1002
{
1040
8030.0
1040
190.300003
1040
0.305
1040
228.0
1040
545.0
1040
14.0
1040
17.4
1040
0.456
1002
}
1002
}
  0
ENDBLK
  5
256
100
AcDbEntity
  8
0
100
AcDbBlockEnd
  0
ENDSEC
  0
SECTION
  2
ENTITIES
  0
INSERT
  5
3
100
AcDbEntity
  8
ALPHA
100
AcDbBlockReference
  2
AVE_RENDER
 10
0.0
 20
0.0
 30
0.0
1001
AVE_RENDER
1002
{
1070
     6
1000
Pref
1070
    50
1070
    20
1070
     1
1070
     0
1000

1070
    10
1070
     1
1070
    30
1040
25.4
1070
     1
1040
0.3
1040
0.7
1040
0.0
1040
10.0
1010
-1.0
1020
-1.0
1030
-1.0
1040
0.3
1070
    49
1070
     0
1070
     0
1010
1.0
1020
1.0
1030
1.0
1040
45.0
1070
     1
1070
     0
1000
WCS
1040
0.0
1002
}
  0
INSERT
  5
D
100
AcDbEntity
  8
ALPHA
100
AcDbBlockReference
  2
AVE_RENDER
 10
0.0
 20
0.0
 30
0.0
1001
AVE_RENDER
1002
{
1070
     0
1000
Full Opt
1070
     0
1070
     1
1070
     1
1070
     1
1070
     0
1070
     0
1070
     0
1070
     1
1070
     1
1040
0.0001
1040
0.0001
1002
}
  0
INSERT
  5
E
100
AcDbEntity
  8
ALPHA
100
AcDbBlockReference
  2
AVE_RENDER
 10
0.0
 20
0.0
 30
0.0
1001
AVE_RENDER
1002
{
1070
     0
1000
Quick Opt
1070
     0
1070
     1
1070
     1
1070
     1
1070
     0
1070
     0
1070
     1
1002
}
  0
INSERT
  5
F
100
AcDbEntity
  8
ALPHA
100
AcDbBlockReference
  2
AVE_RENDER
 10
0.0
 20
0.0
 30
0.0
1001
AVE_RENDER
1002
{
1070
     1
1000
Scanl Opt
1070
     2
1070
     0
1070
     2
1040
2.0
1040
4.0
1070
     0
1070
     1
1070
     0
1040
0.03
1002
}
  0
INSERT
  5
10
100
AcDbEntity
  8
ALPHA
100
AcDbBlockReference
  2
AVE_RENDER
 10
0.0
 20
0.0
 30
0.0
1001
AVE_RENDER
1002
{
1070
     2
1000
Raytr Opt
1070
     2
1070
     0
1070
     2
1040
2.0
1040
4.0
1070
     0
1070
     1
1070
     1
1040
0.03
1070
     3
1040
0.03
1002
}
  0
INSERT
  5
11
100
AcDbEntity
  8
ALPHA
100
AcDbBlockReference
  2
AVE_RENDER
 10
0.0
 20
0.0
 30
0.0
1001
AVE_RENDER
1002
{
1070
     0
1000
RFile Opt
1070
     5
1070
   640
1070
   480
1070
 10000
1070
     3
1070
    32
1070
    24
1070
     0
1070
     0
1070
     0
1070
     1
1070
     0
1070
     0
1070
     0
1002
}
  0
INSERT
  5
12
100
AcDbEntity
  8
ALPHA
100
AcDbBlockReference
  2
AVE_RENDER
 10
0.0
 20
0.0
 30
0.0
1001
AVE_RENDER
1002
{
1070
     0
1000
Fog Opt
1070
     0
1070
     0
1040
0.0
1040
1.0
1040
0.0
1040
1.0
1010
0.5
1020
0.5
1030
0.5
1002
}
  0
INSERT
  5
13
100
AcDbEntity
  8
ALPHA
100
AcDbBlockReference
  2
AVE_RENDER
 10
0.0
 20
0.0
 30
0.0
1001
AVE_RENDER
1002
{
1070
     0
1000
BG Opt
1070
     0
1070
     1
1010
0.0
1020
0.0
1030
0.0
1010
1.0
1020
0.0
1030
0.0
1010
0.0
1020
1.0
1030
0.0
1010
0.0
1020
0.0
1030
1.0
1040
0.5
1040
0.33
1040
0.0
1000

1070
     1
1000

1070
     1
1070
     1
1040
1.0
1040
1.0
1040
0.0
1040
0.0
1070
     0
1002
}
  0
INSERT
  5
14
100
AcDbEntity
  8
ALPHA
100
AcDbBlockReference
  2
AVE_GLOBAL
 10
0.0
 20
0.0
 30
0.0
1001
AVE_MATERIAL
1002
{
1000
*GLOBAL*
1000
1
1000
Finition globale.
1002
{
1002
}
1002
{
1070
    63
1002
{
1002
{
1010
-1.0
1020
-1.0
1030
-1.0
1002
}
1040
0.1
1000

1040
0.0
1002
{
1002
}
1040
0.0
1002
{
1002
}
1040
0.0
1002
}
1002
{
1002
{
1010
-1.0
1020
-1.0
1030
-1.0
1002
}
1040
0.7
1000

1040
0.0
1002
{
1002
}
1040
0.0
1002
{
1002
}
1040
0.0
1002
}
1002
{
1002
{
1010
-1.0
1020
-1.0
1030
-1.0
1002
}
1040
0.2
1000

1040
0.0
1002
{
1002
}
1040
0.0
1002
{
1002
}
1040
0.0
1002
}
1002
{
1070
     0
1002
{
1070
     1
1002
{
1040
1.0
1040
1.0
1000

1040
0.0
1002
{
1002
}
1040
0.0
1002
{
1002
}
1040
0.0
1002
}
1002
}
1040
1.0
1040
0.0
1040
0.0
1002
}
1002
{
1040
1.0
1040
1.0
1000

1040
0.0
1002
{
1002
}
1040
0.0
1002
{
1002
}
1040
0.0
1002
}
1002
{
1040
0.5
1040
1.0
1000

1040
0.0
1002
{
1002
}
1040
0.0
1002
{
1002
}
1040
0.0
1002
}
1002
{
1070
     0
1040
0.0
1002
{
1002
}
1040
1.0
1002
{
1002
}
1040
0.0
1002
}
1002
{
1040
0.0
1002
{
1002
{
1010
0.0
1020
0.0
1030
0.0
1002
}
1040
1.0
1000

1040
0.0
1002
{
1002
}
1040
0.0
1002
{
1002
}
1040
0.0
1002
}
1002
}
1002
{
1002
{
1070
     1
1002
{
1040
0.0
1040
1.0
1000

1040
0.0
1002
{
1002
}
1040
0.0
1002
{
1002
}
1040
0.0
1002
}
1002
}
1040
0.0
1002
{
1002
}
1010
1.0
1020
0.0
1030
0.0
1010
0.0
1020
1.0
1030
0.0
1010
0.0
1020
0.0
1030
1.0
1070
     0
1002
}
1002
{
1002
{
1040
1.0
1040
1.0
1002
{
1070
     1
1002
{
1040
1.0
1040
1.0
1000

1040
0.0
1002
{
1002
}
1040
0.0
1002
{
1002
}
1040
0.0
1002
}
1002
}
1002
}
1070
     0
1040
0.0
1002
{
1002
}
1002
}
1002
{
1002
}
1002
}
1002
{
1071
        3
1070
     3
1070
     0
1002
{
1070
     2
1070
     0
1070
     0
1040
0.0
1002
}
1070
     0
1070
     2
1002
{
1002
}
1002
}
1002
{
1040
8030.0
1040
190.300003
1040
0.305
1040
228.0
1040
545.0
1040
14.0
1040
17.4
1040
0.456
1002
}
1002
}
  0
LWPOLYLINE
  5
19
100
AcDbEntity
  8
ALPHA
100
AcDbPolyline
 90
       20
 70
     0
 43
0.0
 10
100.047522
 20
164.816911
 10
100.038362
 20
164.528948
 10
100.010801
 20
164.267728
 10
99.965031
 20
164.034106
 10
99.90199
 20
163.829808
 10
99.822112
 20
163.653822
 10
99.72454
 20
163.504859
 10
99.605656
 20
163.382621
 10
99.46916
 20
163.296762
 10
99.32066
 20
163.253961
 10
99.169775
 20
163.257777
 10
99.025362
 20
163.306588
 10
98.894447
 20
163.395228
 10
98.78229
 20
163.515407
 10
98.688214
 20
163.662565
 10
98.610126
 20
163.83765
 10
98.548146
 20
164.041659
 10
98.503321
 20
164.27399
 10
98.47647
 20
164.532134
 10
98.467522
 20
164.816911
  0
LWPOLYLINE
  5
2F
100
AcDbEntity
  8
ALPHA
100
AcDbPolyline
 90
       19
 70
     0
 43
0.0
 10
98.467522
 20
172.218505
 10
98.478449
 20
172.531632
 10
98.511373
 20
172.813152
 10
98.566625
 20
173.063808
 10
98.643743
 20
173.281071
 10
98.743223
 20
173.465238
 10
98.868002
 20
173.616087
 10
99.017303
 20
173.72469
 10
99.17899
 20
173.779216
 10
99.337424
 20
173.778992
 10
99.483653
 20
173.73182
 10
99.616981
 20
173.643304
 10
99.730534
 20
173.52289
 10
99.82471
 20
173.3768
 10
99.90307
 20
173.202729
 10
99.965477
 20
172.999515
 10
100.010985
 20
172.766441
 10
100.038414
 20
172.505689
 10
100.047522
 20
172.218505
  0
LWPOLYLINE
  5
44
100
AcDbEntity
  8
ALPHA
100
AcDbPolyline
 90
        7
 70
     0
 43
0.0
 10
76.688973
 20
183.347382
 10
76.706801
 20
183.320414
 10
76.717865
 20
183.239425
 10
76.721483
 20
183.113327
 10
76.717859
 20
182.949313
 10
76.706779
 20
182.753811
 10
76.688973
 20
182.547412
  0
LINE
  5
4D
100
AcDbEntity
  8
ALPHA
100
AcDbLine
 10
76.247522
 20
180.717708
 30
0.0
 11
76.587619
 21
180.717708
 31
0.0
  0
LINE
  5
4E
100
AcDbEntity
  8
ALPHA
100
AcDbLine
 10
84.747522
 20
182.617738
 30
0.0
 11
76.688973
 21
182.547412
 31
0.0
  0
LINE
  5
4F
100
AcDbEntity
  8
ALPHA
100
AcDbLine
 10
76.247522
 20
156.317708
 30
0.0
 11
76.587619
 21
156.317708
 31
0.0
  0
LINE
  5
50
100
AcDbEntity
  8
ALPHA
100
AcDbLine
 10
76.587619
 20
180.717708
 30
0.0
 11
76.587619
 21
156.317708
 31
0.0
  0
LWPOLYLINE
  5
51
100
AcDbEntity
  8
ALPHA
100
AcDbPolyline
 90
        5
 70
     0
 43
0.0
 10
76.587619
 20
156.317708
 10
76.594721
 20
155.856151
 10
76.615009
 20
155.401436
 10
76.646677
 20
154.950087
 10
76.688973
 20
154.488003
  0
LWPOLYLINE
  5
58
100
AcDbEntity
  8
ALPHA
100
AcDbPolyline
 90
        5
 70
     0
 43
0.0
 10
76.688973
 20
182.547412
 10
76.646027
 20
182.077333
 10
76.614484
 20
181.624903
 10
76.594545
 20
181.173485
 10
76.587619
 20
180.717708
  0
LWPOLYLINE
  5
5F
100
AcDbEntity
  8
ALPHA
100
AcDbPolyline
 90
        7
 70
     0
 43
0.0
 10
76.688973
 20
154.488003
 10
76.706801
 20
154.281299
 10
76.717865
 20
154.085973
 10
76.721483
 20
153.922015
 10
76.717859
 20
153.795916
 10
76.706779
 20
153.71492
 10
76.688973
 20
153.688034
  0
LINE
  5
68
100
AcDbEntity
  8
ALPHA
100
AcDbLine
 10
86.747522
 20
180.317708
 30
0.0
 11
85.947522
 21
180.317708
 31
0.0
  0
LINE
  5
69
100
AcDbEntity
  8
ALPHA
100
AcDbLine
 10
84.747522
 20
154.417677
 30
0.0
 11
76.688973
 21
154.488003
 31
0.0
  0
LWPOLYLINE
  5
6A
100
AcDbEntity
  8
ALPHA
100
AcDbPolyline
 90
        4
 70
     0
 43
0.0
 10
103.347522
 20
163.331796
 10
103.347522
 20
161.818264
 10
103.347522
 20
160.543159
 10
103.347522
 20
159.55186
  0
LWPOLYLINE
  5
70
100
AcDbEntity
  8
ALPHA
100
AcDbPolyline
 90
        4
 70
     0
 43
0.0
 10
103.647522
 20
163.666935
 10
103.546428
 20
163.552861
 10
103.44661
 20
163.441262
 10
103.347522
 20
163.33265
  0
LWPOLYLINE
  5
76
100
AcDbEntity
  8
ALPHA
100
AcDbPolyline
 90
        4
 70
     0
 43
0.0
 10
103.647522
 20
173.368481
 10
103.546456
 20
173.482522
 10
103.446627
 20
173.594134
 10
103.347522
 20
173.702837
  0
LWPOLYLINE
  5
7C
100
AcDbEntity
  8
ALPHA
100
AcDbPolyline
 90
        5
 70
     0
 43
0.0
 10
103.347522
 20
177.638563
 10
103.347522
 20
176.919199
 10
103.347522
 20
176.009181
 10
103.347522
 20
174.92916
 10
103.347522
 20
173.703646
  0
LWPOLYLINE
  5
83
100
AcDbEntity
  8
ALPHA
100
AcDbPolyline
 90
       13
 70
     0
 43
0.0
 10
103.347522
 20
173.702837
 10
102.391614
 20
172.818411
 10
101.640192
 20
171.919338
 10
101.086873
 20
171.025958
 10
100.719268
 20
170.160572
 10
100.513486
 20
169.329222
 10
100.447522
 20
168.517738
 10
100.513477
 20
167.706253
 10
100.719255
 20
166.874883
 10
101.086872
 20
166.00946
 10
101.640199
 20
165.116068
 10
102.391605
 20
164.217015
 10
103.347522
 20
163.33265
  0
LWPOLYLINE
  5
92
100
AcDbEntity
  8
ALPHA
100
AcDbPolyline
 90
        8
 70
     0
 43
0.0
 10
97.94388
 20
170.267708
 10
97.94388
 20
171.78734
 10
97.94388
 20
173.242371
 10
97.94388
 20
174.604054
 10
97.94388
 20
175.845483
 10
97.94388
 20
176.942132
 10
97.94388
 20
177.872334
 10
97.94388
 20
178.617708
  0
LWPOLYLINE
  5
9C
100
AcDbEntity
  8
ALPHA
100
AcDbPolyline
 90
        8
 70
     0
 43
0.0
 10
97.94388
 20
158.417708
 10
97.94388
 20
159.163082
 10
97.94388
 20
160.093283
 10
97.94388
 20
161.189932
 10
97.94388
 20
162.431362
 10
97.94388
 20
163.793045
 10
97.94388
 20
165.248076
 10
97.94388
 20
166.767708
  0
LINE
  5
A6
100
AcDbEntity
  8
ALPHA
100
AcDbLine
 10
98.147522
 20
170.267708
 30
0.0
 11
98.147522
 21
166.767708
 31
0.0
  0
LINE
  5
A7
100
AcDbEntity
  8
ALPHA
100
AcDbLine
 10
98.147522
 20
158.861622
 30
0.0
 11
100.147522
 21
158.861622
 31
0.0
  0
LWPOLYLINE
  5
A8
100
AcDbEntity
  8
ALPHA
100
AcDbPolyline
 90
        4
 70
     0
 43
0.0
 10
103.347522
 20
159.551691
 10
102.317488
 20
159.284369
 10
101.248756
 20
159.053471
 10
100.147522
 20
158.861622
  0
LINE
  5
AE
100
AcDbEntity
  8
ALPHA
100
AcDbLine
 10
98.147522
 20
170.267708
 30
0.0
 11
98.147522
 21
178.617708
 31
0.0
  0
LINE
  5
AF
100
AcDbEntity
  8
ALPHA
100
AcDbLine
 10
98.147522
 20
158.861622
 30
0.0
 11
98.147522
 21
166.767708
 31
0.0
  0
LINE
  5
B0
100
AcDbEntity
  8
ALPHA
100
AcDbLine
 10
98.147522
 20
158.855127
 30
0.0
 11
98.147522
 21
158.861622
 31
0.0
  0
LINE
  5
B1
100
AcDbEntity
  8
ALPHA
100
AcDbLine
 10
98.147522
 20
158.417708
 30
0.0
 11
98.147522
 21
158.855127
 31
0.0
  0
LINE
  5
B2
100
AcDbEntity
  8
ALPHA
100
AcDbLine
 10
100.047522
 20
164.816911
 30
0.0
 11
100.047522
 21
172.218505
 31
0.0
  0
LINE
  5
B3
100
AcDbEntity
  8
ALPHA
100
AcDbLine
 10
98.467522
 20
172.218505
 30
0.0
 11
98.467522
 21
164.816911
 31
0.0
  0
LINE
  5
B4
100
AcDbEntity
  8
ALPHA
100
AcDbLine
 10
103.647522
 20
173.368481
 30
0.0
 11
103.647522
 21
163.666935
 31
0.0
  0
LINE
  5
B5
100
AcDbEntity
  8
ALPHA
100
AcDbLine
 10
88.747522
 20
170.267708
 30
0.0
 11
88.347522
 21
170.267708
 31
0.0
  0
LINE
  5
B6
100
AcDbEntity
  8
ALPHA
100
AcDbLine
 10
97.94388
 20
170.267708
 30
0.0
 11
98.147522
 21
170.267708
 31
0.0
  0
LINE
  5
B7
100
AcDbEntity
  8
ALPHA
100
AcDbLine
 10
88.747522
 20
166.767708
 30
0.0
 11
88.347522
 21
166.767708
 31
0.0
  0
LINE
  5
B8
100
AcDbEntity
  8
ALPHA
100
AcDbLine
 10
98.147522
 20
166.767708
 30
0.0
 11
97.94388
 21
166.767708
 31
0.0
  0
LINE
  5
B9
100
AcDbEntity
  8
ALPHA
100
AcDbLine
 10
89.347522
 20
178.617708
 30
0.0
 11
89.347522
 21
179.017708
 31
0.0
  0
LINE
  5
BA
100
AcDbEntity
  8
ALPHA
100
AcDbLine
 10
97.94388
 20
158.417708
 30
0.0
 11
89.347522
 21
158.417708
 31
0.0
  0
LINE
  5
BB
100
AcDbEntity
  8
ALPHA
100
AcDbLine
 10
98.147522
 20
158.417708
 30
0.0
 11
97.94388
 21
158.417708
 31
0.0
  0
LINE
  5
BC
100
AcDbEntity
  8
ALPHA
100
AcDbLine
 10
97.94388
 20
178.617708
 30
0.0
 11
89.347522
 21
178.617708
 31
0.0
  0
LINE
  5
BD
100
AcDbEntity
  8
ALPHA
100
AcDbLine
 10
97.94388
 20
178.617708
 30
0.0
 11
98.147522
 21
178.617708
 31
0.0
  0
LINE
  5
BE
100
AcDbEntity
  8
ALPHA
100
AcDbLine
 10
103.647522
 20
163.666935
 30
0.0
 11
103.647522
 21
159.977802
 31
0.0
  0
LWPOLYLINE
  5
BF
100
AcDbEntity
  8
ALPHA
100
AcDbPolyline
 90
        4
 70
     0
 43
0.0
 10
103.647522
 20
159.977802
 10
103.54948
 20
159.837046
 10
103.449474
 20
159.695026
 10
103.347522
 20
159.551691
  0
LINE
  5
C5
100
AcDbEntity
  8
ALPHA
100
AcDbLine
 10
103.647522
 20
177.308612
 30
0.0
 11
103.647522
 21
173.368481
 31
0.0
  0
LWPOLYLINE
  5
C6
100
AcDbEntity
  8
ALPHA
100
AcDbPolyline
 90
        4
 70
     0
 43
0.0
 10
103.347522
 20
177.638563
 10
103.448398
 20
177.52785
 10
103.548398
 20
177.417867
 10
103.647522
 20
177.308612
  0
LINE
  5
CC
100
AcDbEntity
  8
ALPHA
100
AcDbLine
 10
76.247522
 20
180.717708
 30
0.0
 11
76.247522
 21
156.317708
 31
0.0
  0
LINE
  5
CD
100
AcDbEntity
  8
ALPHA
100
AcDbLine
 10
86.747522
 20
179.417708
 30
0.0
 11
86.747522
 21
180.317708
 31
0.0
  0
LINE
  5
CE
100
AcDbEntity
  8
ALPHA
100
AcDbLine
 10
86.635362
 20
179.305548
 30
0.0
 11
86.747522
 21
179.417708
 31
0.0
  0
LINE
  5
CF
100
AcDbEntity
  8
ALPHA
100
AcDbLine
 10
86.547522
 20
180.517708
 30
0.0
 11
85.947522
 21
180.517708
 31
0.0
  0
ARC
  5
D0
100
AcDbEntity
  8
ALPHA
100
AcDbCircle
 10
86.547522
 20
180.317708
 30
0.0
 40
0.2
100
AcDbArc
 50
0.0
 51
90.0
  0
LINE
  5
D1
100
AcDbEntity
  8
ALPHA
100
AcDbLine
 10
84.747522
 20
183.417708
 30
0.0
 11
76.688973
 21
183.347382
 31
0.0
  0
LINE
  5
D2
100
AcDbEntity
  8
ALPHA
100
AcDbLine
 10
84.747522
 20
183.417708
 30
0.0
 11
84.747522
 21
182.617738
 31
0.0
  0
LINE
  5
D3
100
AcDbEntity
  8
ALPHA
100
AcDbLine
 10
84.747522
 20
167.362721
 30
0.0
 11
83.547522
 21
167.467708
 31
0.0
  0
LINE
  5
D4
100
AcDbEntity
  8
ALPHA
100
AcDbLine
 10
83.547522
 20
169.567708
 30
0.0
 11
83.547522
 21
167.467708
 31
0.0
  0
LINE
  5
D5
100
AcDbEntity
  8
ALPHA
100
AcDbLine
 10
84.747522
 20
169.672694
 30
0.0
 11
83.547522
 21
169.567708
 31
0.0
  0
LINE
  5
D6
100
AcDbEntity
  8
ALPHA
100
AcDbLine
 10
76.688973
 20
153.688034
 30
0.0
 11
76.587619
 21
153.688918
 31
0.0
  0
LINE
  5
D7
100
AcDbEntity
  8
ALPHA
100
AcDbLine
 10
84.747522
 20
154.417677
 30
0.0
 11
84.747522
 21
153.617708
 31
0.0
  0
LINE
  5
D8
100
AcDbEntity
  8
ALPHA
100
AcDbLine
 10
84.747522
 20
153.617708
 30
0.0
 11
76.688973
 21
153.688034
 31
0.0
  0
LWPOLYLINE
  5
D9
100
AcDbEntity
  8
ALPHA
100
AcDbPolyline
 90
        7
 70
     0
 43
0.0
 10
76.247522
 20
180.717708
 10
76.247522
 20
180.898881
 10
76.247522
 20
181.067708
 10
76.247522
 20
181.212683
 10
76.247522
 20
181.323926
 10
76.247522
 20
181.393856
 10
76.247522
 20
181.417708
  0
LINE
  5
E2
100
AcDbEntity
  8
ALPHA
100
AcDbLine
 10
76.247522
 20
181.417708
 30
0.0
 11
76.587619
 21
183.346497
 31
0.0
  0
LINE
  5
E3
100
AcDbEntity
  8
ALPHA
100
AcDbLine
 10
76.247522
 20
155.617708
 30
0.0
 11
76.587619
 21
153.688918
 31
0.0
  0
LINE
  5
E4
100
AcDbEntity
  8
ALPHA
100
AcDbLine
 10
88.747522
 20
166.767708
 30
0.0
 11
97.94388
 21
166.767708
 31
0.0
  0
LINE
  5
E5
100
AcDbEntity
  8
ALPHA
100
AcDbLine
 10
88.747522
 20
166.767708
 30
0.0
 11
88.747522
 21
166.017708
 31
0.0
  0
LINE
  5
E6
100
AcDbEntity
  8
ALPHA
100
AcDbLine
 10
88.747522
 20
166.017708
 30
0.0
 11
89.347522
 21
165.517708
 31
0.0
  0
LINE
  5
E7
100
AcDbEntity
  8
ALPHA
100
AcDbLine
 10
89.347522
 20
158.417708
 30
0.0
 11
89.347522
 21
165.517708
 31
0.0
  0
LINE
  5
E8
100
AcDbEntity
  8
ALPHA
100
AcDbLine
 10
88.747522
 20
171.017708
 30
0.0
 11
88.747522
 21
170.267708
 31
0.0
  0
LINE
  5
E9
100
AcDbEntity
  8
ALPHA
100
AcDbLine
 10
97.94388
 20
170.267708
 30
0.0
 11
88.747522
 21
170.267708
 31
0.0
  0
LINE
  5
EA
100
AcDbEntity
  8
ALPHA
100
AcDbLine
 10
89.347522
 20
178.617708
 30
0.0
 11
89.347522
 21
171.517708
 31
0.0
  0
LINE
  5
EB
100
AcDbEntity
  8
ALPHA
100
AcDbLine
 10
89.347522
 20
171.517708
 30
0.0
 11
88.747522
 21
171.017708
 31
0.0
  0
LINE
  5
EC
100
AcDbEntity
  8
ALPHA
100
AcDbLine
 10
89.347522
 20
158.017708
 30
0.0
 11
88.747522
 21
158.017708
 31
0.0
  0
LINE
  5
ED
100
AcDbEntity
  8
ALPHA
100
AcDbLine
 10
89.347522
 20
158.017708
 30
0.0
 11
89.347522
 21
158.417708
 31
0.0
  0
LINE
  5
EE
100
AcDbEntity
  8
ALPHA
100
AcDbLine
 10
89.347522
 20
179.017708
 30
0.0
 11
88.747522
 21
179.017708
 31
0.0
  0
LINE
  5
EF
100
AcDbEntity
  8
ALPHA
100
AcDbLine
 10
98.147522
 20
178.517708
 30
0.0
 11
103.347522
 21
178.517708
 31
0.0
  0
LINE
  5
F0
100
AcDbEntity
  8
ALPHA
100
AcDbLine
 10
103.347522
 20
178.517708
 30
0.0
 11
103.347522
 21
177.638563
 31
0.0
  0
LINE
  5
F1
100
AcDbEntity
  8
ALPHA
100
AcDbLine
 10
84.747522
 20
154.417677
 30
0.0
 11
84.747522
 21
167.362721
 31
0.0
  0
LINE
  5
F2
100
AcDbEntity
  8
ALPHA
100
AcDbLine
 10
84.747522
 20
169.672694
 30
0.0
 11
84.747522
 21
182.617738
 31
0.0
  0
LINE
  5
F3
100
AcDbEntity
  8
ALPHA
100
AcDbLine
 10
84.747522
 20
169.672694
 30
0.0
 11
84.747522
 21
167.362721
 31
0.0
  0
LINE
  5
F4
100
AcDbEntity
  8
ALPHA
100
AcDbLine
 10
86.547522
 20
180.517708
 30
0.0
 11
85.947522
 21
180.517708
 31
0.0
  0
LWPOLYLINE
  5
F5
100
AcDbEntity
  8
ALPHA
100
AcDbPolyline
 90
        7
 70
     0
 43
0.0
 10
76.247522
 20
155.617708
 10
76.247522
 20
155.64156
 10
76.247522
 20
155.71149
 10
76.247522
 20
155.822733
 10
76.247522
 20
155.967708
 10
76.247522
 20
156.136535
 10
76.247522
 20
156.317708
  0
LINE
  5
FE
100
AcDbEntity
  8
ALPHA
100
AcDbLine
 10
76.247522
 20
181.417708
 30
0.0
 11
76.587619
 21
183.346497
 31
0.0
  0
LINE
  5
FF
100
AcDbEntity
  8
ALPHA
100
AcDbLine
 10
76.247522
 20
181.417708
 30
0.0
 11
76.587619
 21
183.346497
 31
0.0
  0
LINE
  5
100
100
AcDbEntity
  8
ALPHA
100
AcDbLine
 10
76.587619
 20
183.346497
 30
0.0
 11
76.688973
 21
183.347382
 31
0.0
  0
LINE
  5
101
100
AcDbEntity
  8
ALPHA
100
AcDbLine
 10
76.247522
 20
155.617708
 30
0.0
 11
76.587619
 21
153.688918
 31
0.0
  0
LWPOLYLINE
  5
102
100
AcDbEntity
  8
ALPHA
100
AcDbPolyline
 90
       12
 70
     0
 43
0.0
 10
69.835599
 20
156.317708
 10
69.835599
 20
156.628074
 10
69.835599
 20
157.145624
 10
69.835599
 20
157.857753
 10
69.835599
 20
158.752278
 10
69.835599
 20
159.813891
 10
69.835599
 20
161.02443
 10
69.835599
 20
162.36318
 10
69.835599
 20
163.807236
 10
69.835599
 20
165.33189
 10
69.835599
 20
166.911054
 10
69.835599
 20
168.517708
  0
LINE
  5
110
100
AcDbEntity
  8
ALPHA
100
AcDbLine
 10
69.835599
 20
156.313958
 30
0.0
 11
69.835599
 21
156.317708
 31
0.0
  0
LINE
  5
111
100
AcDbEntity
  8
ALPHA
100
AcDbLine
 10
69.835599
 20
156.208653
 30
0.0
 11
69.835599
 21
156.313958
 31
0.0
  0
LINE
  5
112
100
AcDbEntity
  8
ALPHA
100
AcDbLine
 10
69.847522
 20
156.317708
 30
0.0
 11
76.247522
 21
156.317708
 31
0.0
  0
LINE
  5
113
100
AcDbEntity
  8
ALPHA
100
AcDbLine
 10
76.247522
 20
180.717708
 30
0.0
 11
69.847522
 21
180.717708
 31
0.0
  0
LINE
  5
114
100
AcDbEntity
  8
ALPHA
100
AcDbLine
 10
69.835599
 20
180.721457
 30
0.0
 11
69.835599
 21
180.826763
 31
0.0
  0
LINE
  5
115
100
AcDbEntity
  8
ALPHA
100
AcDbLine
 10
69.835599
 20
180.717708
 30
0.0
 11
69.835599
 21
180.721457
 31
0.0
  0
LWPOLYLINE
  5
116
100
AcDbEntity
  8
ALPHA
100
AcDbPolyline
 90
       12
 70
     0
 43
0.0
 10
69.835599
 20
168.517708
 10
69.835599
 20
170.124362
 10
69.835599
 20
171.703526
 10
69.835599
 20
173.228179
 10
69.835599
 20
174.672235
 10
69.835599
 20
176.010986
 10
69.835599
 20
177.221524
 10
69.835599
 20
178.283138
 10
69.835599
 20
179.177662
 10
69.835599
 20
179.889792
 10
69.835599
 20
180.407342
 10
69.835599
 20
180.717708
  0
LWPOLYLINE
  5
124
100
AcDbEntity
  8
ALPHA
100
AcDbPolyline
 90
       16
 70
     0
 43
0.0
 10
69.718261
 20
156.619761
 10
69.718261
 20
156.63721
 10
69.718261
 20
156.776498
 10
69.718261
 20
157.053441
 10
69.718261
 20
157.464792
 10
69.718261
 20
158.005728
 10
69.718261
 20
158.669908
 10
69.718261
 20
159.449544
 10
69.718261
 20
160.335496
 10
69.718261
 20
161.317377
 10
69.718261
 20
162.383675
 10
69.718261
 20
163.52189
 10
69.718261
 20
164.718675
 10
69.718261
 20
165.960001
 10
69.718261
 20
167.231314
 10
69.718261
 20
168.517708
  0
LWPOLYLINE
  5
136
100
AcDbEntity
  8
ALPHA
100
AcDbPolyline
 90
       16
 70
     0
 43
0.0
 10
69.718261
 20
180.415655
 10
69.718261
 20
180.398206
 10
69.718261
 20
180.258918
 10
69.718261
 20
179.981975
 10
69.718261
 20
179.570624
 10
69.718261
 20
179.029688
 10
69.718261
 20
178.365508
 10
69.718261
 20
177.585872
 10
69.718261
 20
176.69992
 10
69.718261
 20
175.718039
 10
69.718261
 20
174.65174
 10
69.718261
 20
173.513526
 10
69.718261
 20
172.316741
 10
69.718261
 20
171.075415
 10
69.718261
 20
169.804102
 10
69.718261
 20
168.517708
  0
LINE
  5
148
100
AcDbEntity
  8
ALPHA
100
AcDbLine
 10
69.847522
 20
155.817708
 30
0.0
 11
76.247522
 21
155.817708
 31
0.0
  0
LINE
  5
149
100
AcDbEntity
  8
ALPHA
100
AcDbLine
 10
76.247522
 20
181.217708
 30
0.0
 11
69.847522
 21
181.217708
 31
0.0
  0
LINE
  5
14A
100
AcDbEntity
  8
ALPHA
100
AcDbLine
 10
69.347439
 20
168.517708
 30
0.0
 11
69.347439
 21
159.317708
 31
0.0
  0
ARC
  5
14B
100
AcDbEntity
  8
ALPHA
100
AcDbCircle
 10
79.347439
 20
159.317708
 30
0.0
 40
10.0
100
AcDbArc
 50
180.0
 51
195.652052
  0
ARC
  5
14C
100
AcDbEntity
  8
ALPHA
100
AcDbCircle
 10
112.182938
 20
168.517708
 30
0.0
 40
44.1
100
AcDbArc
 50
195.652052
 51
196.07551
  0
ARC
  5
14D
100
AcDbEntity
  8
ALPHA
100
AcDbCircle
 10
112.182938
 20
168.517708
 30
0.0
 40
44.1
100
AcDbArc
 50
196.07551
 51
196.207505
  0
LINE
  5
14E
100
AcDbEntity
  8
ALPHA
100
AcDbLine
 10
69.347439
 20
177.717708
 30
0.0
 11
69.347439
 21
168.517708
 31
0.0
  0
ARC
  5
14F
100
AcDbEntity
  8
ALPHA
100
AcDbCircle
 10
79.347439
 20
177.717708
 30
0.0
 40
10.0
100
AcDbArc
 50
164.347948
 51
180.0
  0
ARC
  5
150
100
AcDbEntity
  8
ALPHA
100
AcDbCircle
 10
112.182938
 20
168.517708
 30
0.0
 40
44.1
100
AcDbArc
 50
163.92449
 51
164.347948
  0
ARC
  5
151
100
AcDbEntity
  8
ALPHA
100
AcDbCircle
 10
112.182938
 20
168.517708
 30
0.0
 40
44.1
100
AcDbArc
 50
163.792495
 51
163.92449
  0
LINE
  5
152
100
AcDbEntity
  8
ALPHA
100
AcDbLine
 10
69.847522
 20
180.717708
 30
0.0
 11
69.847522
 21
156.317708
 31
0.0
  0
LINE
  5
153
100
AcDbEntity
  8
ALPHA
100
AcDbLine
 10
76.247522
 20
155.817708
 30
0.0
 11
69.847522
 21
155.817708
 31
0.0
  0
LINE
  5
154
100
AcDbEntity
  8
ALPHA
100
AcDbLine
 10
69.847522
 20
156.208653
 30
0.0
 11
69.847522
 21
156.317708
 31
0.0
  0
LINE
  5
155
100
AcDbEntity
  8
ALPHA
100
AcDbLine
 10
69.847522
 20
155.817708
 30
0.0
 11
69.847522
 21
156.208653
 31
0.0
  0
LINE
  5
156
100
AcDbEntity
  8
ALPHA
100
AcDbLine
 10
69.847522
 20
181.217708
 30
0.0
 11
76.247522
 21
181.217708
 31
0.0
  0
LINE
  5
157
100
AcDbEntity
  8
ALPHA
100
AcDbLine
 10
69.847522
 20
180.826763
 30
0.0
 11
69.847522
 21
180.717708
 31
0.0
  0
LINE
  5
158
100
AcDbEntity
  8
ALPHA
100
AcDbLine
 10
69.847522
 20
181.217708
 30
0.0
 11
69.847522
 21
180.826763
 31
0.0
  0
LINE
  5
159
100
AcDbEntity
  8
ALPHA
100
AcDbLine
 10
85.947522
 20
173.616727
 30
0.0
 11
84.747522
 21
173.616727
 31
0.0
  0
LINE
  5
15A
100
AcDbEntity
  8
ALPHA
100
AcDbLine
 10
85.947522
 20
163.418688
 30
0.0
 11
84.747522
 21
163.418688
 31
0.0
  0
LWPOLYLINE
  5
15B
100
AcDbEntity
  8
ALPHA
100
AcDbPolyline
 90
        5
 70
     0
 43
0.0
 10
88.747522
 20
163.829217
 10
88.168922
 20
163.968564
 10
87.543136
 20
164.131211
 10
86.869475
 20
164.312537
 10
86.147522
 20
164.512263
  0
LINE
  5
162
100
AcDbEntity
  8
ALPHA
100
AcDbLine
 10
86.147522
 20
166.174746
 30
0.0
 11
85.947522
 21
166.174746
 31
0.0
  0
LINE
  5
163
100
AcDbEntity
  8
ALPHA
100
AcDbLine
 10
86.147522
 20
158.556309
 30
0.0
 11
85.947522
 21
158.556309
 31
0.0
  0
LWPOLYLINE
  5
164
100
AcDbEntity
  8
ALPHA
100
AcDbPolyline
 90
        6
 70
     0
 43
0.0
 10
88.135379
 20
171.017708
 10
87.950066
 20
170.016192
 10
87.858855
 20
169.016907
 10
87.858855
 20
168.018509
 10
87.950066
 20
167.019224
 10
88.135379
 20
166.017708
  0
LWPOLYLINE
  5
16C
100
AcDbEntity
  8
ALPHA
100
AcDbPolyline
 90
        5
 70
     0
 43
0.0
 10
86.147522
 20
161.648153
 10
86.863157
 20
161.816121
 10
87.533729
 20
161.972697
 10
88.160922
 20
162.117005
 10
88.747522
 20
162.244323
  0
LINE
  5
173
100
AcDbEntity
  8
ALPHA
100
AcDbLine
 10
86.147522
 20
178.954648
 30
0.0
 11
85.947522
 21
178.954648
 31
0.0
  0
LWPOLYLINE
  5
174
100
AcDbEntity
  8
ALPHA
100
AcDbPolyline
 90
        3
 70
     0
 43
0.0
 10
88.747522
 20
178.46849
 10
88.16892
 20
178.532961
 10
87.757168
 20
178.580501
  0
LWPOLYLINE
  5
179
100
AcDbEntity
  8
ALPHA
100
AcDbPolyline
 90
        5
 70
     0
 43
0.0
 10
86.147522
 20
177.108937
 10
86.869464
 20
177.241728
 10
87.543121
 20
177.360298
 10
88.168905
 20
177.465006
 10
88.747522
 20
177.553451
  0
LINE
  5
180
100
AcDbEntity
  8
ALPHA
100
AcDbLine
 10
86.147522
 20
178.811936
 30
0.0
 11
86.147522
 21
178.954648
 31
0.0
  0
LINE
  5
181
100
AcDbEntity
  8
ALPHA
100
AcDbLine
 10
86.147522
 20
174.896201
 30
0.0
 11
86.147522
 21
177.108902
 31
0.0
  0
LINE
  5
182
100
AcDbEntity
  8
ALPHA
100
AcDbLine
 10
86.147522
 20
158.556309
 30
0.0
 11
86.147522
 21
161.648111
 31
0.0
  0
LINE
  5
183
100
AcDbEntity
  8
ALPHA
100
AcDbLine
 10
86.147522
 20
164.512302
 30
0.0
 11
86.147522
 21
161.648122
 31
0.0
  0
LINE
  5
184
100
AcDbEntity
  8
ALPHA
100
AcDbLine
 10
86.147522
 20
164.512303
 30
0.0
 11
86.147522
 21
166.174746
 31
0.0
  0
LINE
  5
185
100
AcDbEntity
  8
ALPHA
100
AcDbLine
 10
86.147522
 20
174.896201
 30
0.0
 11
85.947522
 21
174.896201
 31
0.0
  0
LINE
  5
186
100
AcDbEntity
  8
ALPHA
100
AcDbLine
 10
88.747522
 20
162.244323
 30
0.0
 11
88.747522
 21
163.829217
 31
0.0
  0
LINE
  5
187
100
AcDbEntity
  8
ALPHA
100
AcDbLine
 10
88.747522
 20
177.67778
 30
0.0
 11
88.747522
 21
177.553451
 31
0.0
  0
LINE
  5
188
100
AcDbEntity
  8
ALPHA
100
AcDbLine
 10
88.747522
 20
178.46849
 30
0.0
 11
88.747522
 21
177.667708
 31
0.0
  0
LINE
  5
189
100
AcDbEntity
  8
ALPHA
100
AcDbLine
 10
87.247522
 20
179.305548
 30
0.0
 11
87.247522
 21
179.517708
 31
0.0
  0
LINE
  5
18A
100
AcDbEntity
  8
ALPHA
100
AcDbLine
 10
87.247522
 20
179.305548
 30
0.0
 11
85.947522
 21
179.305548
 31
0.0
  0
ARC
  5
18B
100
AcDbEntity
  8
ALPHA
100
AcDbCircle
 10
91.347522
 20
171.017708
 30
0.0
 40
3.0
100
AcDbArc
 50
150.073565
 51
180.0
  0
LINE
  5
18C
100
AcDbEntity
  8
ALPHA
100
AcDbLine
 10
88.747522
 20
177.553451
 30
0.0
 11
88.747522
 21
172.514371
 31
0.0
  0
LINE
  5
18D
100
AcDbEntity
  8
ALPHA
100
AcDbLine
 10
88.747522
 20
164.521045
 30
0.0
 11
88.747522
 21
163.829217
 31
0.0
  0
ARC
  5
18E
100
AcDbEntity
  8
ALPHA
100
AcDbCircle
 10
91.347522
 20
166.017708
 30
0.0
 40
3.0
100
AcDbArc
 50
180.0
 51
209.926435
  0
LINE
  5
18F
100
AcDbEntity
  8
ALPHA
100
AcDbLine
 10
88.347522
 20
166.017708
 30
0.0
 11
88.347522
 21
171.017708
 31
0.0
  0
LINE
  5
190
100
AcDbEntity
  8
ALPHA
100
AcDbLine
 10
88.135379
 20
171.017708
 30
0.0
 11
88.347522
 21
171.017708
 31
0.0
  0
LINE
  5
191
100
AcDbEntity
  8
ALPHA
100
AcDbLine
 10
88.135379
 20
166.017708
 30
0.0
 11
88.347522
 21
166.017708
 31
0.0
  0
LINE
  5
192
100
AcDbEntity
  8
ALPHA
100
AcDbLine
 10
88.747522
 20
162.244323
 30
0.0
 11
88.747522
 21
157.517708
 31
0.0
  0
LINE
  5
193
100
AcDbEntity
  8
ALPHA
100
AcDbLine
 10
85.947522
 20
182.017708
 30
0.0
 11
84.747522
 21
182.017708
 31
0.0
  0
LINE
  5
194
100
AcDbEntity
  8
ALPHA
100
AcDbLine
 10
88.747522
 20
157.517708
 30
0.0
 11
85.947522
 21
157.517708
 31
0.0
  0
LINE
  5
195
100
AcDbEntity
  8
ALPHA
100
AcDbLine
 10
88.747522
 20
179.517708
 30
0.0
 11
87.247522
 21
179.517708
 31
0.0
  0
LINE
  5
196
100
AcDbEntity
  8
ALPHA
100
AcDbLine
 10
88.747522
 20
179.517644
 30
0.0
 11
88.747522
 21
178.46849
 31
0.0
  0
LINE
  5
197
100
AcDbEntity
  8
ALPHA
100
AcDbLine
 10
85.947522
 20
180.617646
 30
0.0
 11
85.947522
 21
182.017689
 31
0.0
  0
LINE
  5
198
100
AcDbEntity
  8
ALPHA
100
AcDbLine
 10
85.947522
 20
180.478618
 30
0.0
 11
85.947522
 21
180.617646
 31
0.0
  0
LINE
  5
199
100
AcDbEntity
  8
ALPHA
100
AcDbLine
 10
85.947522
 20
180.468074
 30
0.0
 11
85.947522
 21
180.478618
 31
0.0
  0
LINE
  5
19A
100
AcDbEntity
  8
ALPHA
100
AcDbLine
 10
85.947522
 20
179.305548
 30
0.0
 11
85.947522
 21
180.468074
 31
0.0
  0
LINE
  5
19B
100
AcDbEntity
  8
ALPHA
100
AcDbLine
 10
85.947522
 20
179.117708
 30
0.0
 11
85.947522
 21
179.305548
 31
0.0
  0
LINE
  5
19C
100
AcDbEntity
  8
ALPHA
100
AcDbLine
 10
85.947522
 20
178.954648
 30
0.0
 11
85.947522
 21
179.117708
 31
0.0
  0
LINE
  5
19D
100
AcDbEntity
  8
ALPHA
100
AcDbLine
 10
85.947522
 20
174.896201
 30
0.0
 11
85.947522
 21
178.954648
 31
0.0
  0
LINE
  5
19E
100
AcDbEntity
  8
ALPHA
100
AcDbLine
 10
85.947522
 20
173.616727
 30
0.0
 11
85.947522
 21
174.896201
 31
0.0
  0
LINE
  5
19F
100
AcDbEntity
  8
ALPHA
100
AcDbLine
 10
85.947522
 20
173.616727
 30
0.0
 11
85.947522
 21
163.418688
 31
0.0
  0
LINE
  5
1A0
100
AcDbEntity
  8
ALPHA
100
AcDbLine
 10
85.947522
 20
157.517708
 30
0.0
 11
85.947522
 21
155.017727
 31
0.0
  0
LINE
  5
1A1
100
AcDbEntity
  8
ALPHA
100
AcDbLine
 10
85.947522
 20
158.417708
 30
0.0
 11
85.947522
 21
157.517708
 31
0.0
  0
LINE
  5
1A2
100
AcDbEntity
  8
ALPHA
100
AcDbLine
 10
85.947522
 20
158.556309
 30
0.0
 11
85.947522
 21
158.417708
 31
0.0
  0
LINE
  5
1A3
100
AcDbEntity
  8
ALPHA
100
AcDbLine
 10
85.947522
 20
163.418688
 30
0.0
 11
85.947522
 21
158.556309
 31
0.0
  0
LINE
  5
1A4
100
AcDbEntity
  8
ALPHA
100
AcDbLine
 10
85.947522
 20
155.017708
 30
0.0
 11
84.747522
 21
155.017708
 31
0.0
  0
LWPOLYLINE
  5
1A5
100
AcDbEntity
  8
ALPHA
100
AcDbPolyline
 90
        5
 70
     0
 43
0.0
 10
87.757197
 20
178.580542
 10
87.518167
 20
178.60994
 10
87.071703
 20
178.671319
 10
86.591686
 20
178.742823
 10
86.147522
 20
178.811936
  0
LINE
  5
1AC
100
AcDbEntity
  8
ALPHA
100
AcDbLine
 10
86.147522
 20
178.084642
 30
0.0
 11
86.147522
 21
177.108902
 31
0.0
  0
LINE
  5
1AD
100
AcDbEntity
  8
ALPHA
100
AcDbLine
 10
86.147522
 20
178.11624
 30
0.0
 11
86.147522
 21
178.087885
 31
0.0
  0
LINE
  5
1AE
100
AcDbEntity
  8
ALPHA
100
AcDbLine
 10
86.147522
 20
178.222697
 30
0.0
 11
86.147522
 21
178.11624
 31
0.0
  0
LINE
  5
1AF
100
AcDbEntity
  8
ALPHA
100
AcDbLine
 10
86.147522
 20
178.811905
 30
0.0
 11
86.147522
 21
178.211998
 31
0.0
  0
DIMENSION
  5
1B0
100
AcDbEntity
  8
COTATION1
100
AcDbDimension
  2
*D2
 10
103.647522
 20
125.0
 30
0.0
 11
86.747522
 21
127.25
 31
0.0
  3
SC_STAND
100
AcDbAlignedDimension
 13
69.847522
 23
155.817708
 33
0.0
 14
103.647522
 24
159.977802
 34
0.0
100
AcDbRotatedDimension
  0
DIMENSION
  5
1C2
100
AcDbEntity
  8
COTATION1
100
AcDbDimension
  2
*D3
 10
84.747522
 20
132.5
 30
0.0
 11
77.297522
 21
134.75
 31
0.0
  3
SC_STAND
100
AcDbAlignedDimension
 13
69.847522
 23
155.755208
 33
0.0
 14
84.747522
 24
153.617708
 34
0.0
100
AcDbRotatedDimension
  0
DIMENSION
  5
1D1
100
AcDbEntity
  8
COTATION1
100
AcDbDimension
  2
*D4
 10
76.247522
 20
140.0
 30
0.0
 11
80.497522
 21
142.25
 31
0.0
  3
SC_STAND
100
AcDbAlignedDimension
 13
84.747522
 23
153.555208
 33
0.0
 14
76.247522
 24
155.817708
 34
0.0
100
AcDbRotatedDimension
  0
DIMENSION
  5
1E0
100
AcDbEntity
  8
COTATION1
100
AcDbDimension
  2
*D5
 10
130.0
 20
183.417708
 30
0.0
 11
127.75
 21
168.517708
 31
0.0
  3
SC_STAND
100
AcDbAlignedDimension
 13
84.747522
 23
153.617708
 33
0.0
 14
84.747522
 24
183.417708
 34
0.0
 50
90.0
100
AcDbRotatedDimension
  0
DIMENSION
  5
1ED
100
AcDbEntity
  8
COTATION1
100
AcDbDimension
  2
*D6
 10
122.5
 20
155.017708
 30
0.0
 11
120.25
 21
168.517699
 31
0.0
  3
SC_STAND
100
AcDbAlignedDimension
 13
85.947522
 23
182.017689
 33
0.0
 14
85.947522
 24
155.017708
 34
0.0
 50
90.0
100
AcDbRotatedDimension
  0
DIMENSION
  5
1FA
100
AcDbEntity
  8
COTATION1
100
AcDbDimension
  2
*D7
 10
115.0
 20
157.517708
 30
0.0
 11
112.75
 21
168.517708
 31
0.0
  3
SC_STAND
100
AcDbAlignedDimension
 13
88.747522
 23
179.517708
 33
0.0
 14
88.747522
 24
157.517708
 34
0.0
 50
90.0
100
AcDbRotatedDimension
  0
INSERT
  5
257
100
AcDbEntity
  8
COTATION1
100
AcDbBlockReference
  2
SCH_ISO
 10
0.0
 20
0.0
 30
0.0
  0
VIEWPORT
  5
20A
100
AcDbEntity
 67
     1
  8
0
100
AcDbViewport
 10
251.108558
 20
148.5
 30
0.0
 40
8035.473851
 41
4752.0
 68
    -1
 69
     1
1001
ACAD
1000
MVIEW
1002
{
1070
    16
1010
0.0
1020
0.0
1030
0.0
1010
0.0
1020
0.0
1030
1.0
1040
0.0
1040
4752.0
1040
251.108558
1040
148.5
1040
50.0
1040
0.0
1040
0.0
1070
     0
1070
   100
1070
     1
1070
     1
1070
     0
1070
     0
1070
     0
1070
     0
1040
0.0
1040
0.0
1040
0.0
1040
1.0
1040
1.0
1040
0.0
1040
0.0
1070
     0
1002
{
1002
}
1002
}
  0
ENDSEC
  0
SECTION
  2
OBJECTS
  0
DICTIONARY
  5
360
100
AcDbDictionary
  3
ACAD_GROUP
350
361
  3
ACAD_MLINESTYLE
350
36E
  3
ACDBVARIABLEDICTIONARY
350
3B1
  0
DICTIONARY
  5
361
102
{ACAD_REACTORS
330
360
102
}
100
AcDbDictionary
  0
DICTIONARY
  5
36E
102
{ACAD_REACTORS
330
360
102
}
100
AcDbDictionary
  3
STANDARD
350
36F
  0
DICTIONARY
  5
3B1
102
{ACAD_REACTORS
330
360
102
}
100
AcDbDictionary
  3
DIMADEC
350
3B2
  0
MLINESTYLE
  5
36F
102
{ACAD_REACTORS
330
36E
102
}
100
AcDbMlineStyle
  2
STANDARD
 70
     0
  3

 62
   256
 51
90.0
 52
90.0
 71
     2
 49
0.5
 62
   256
  6
BYLAYER
 49
-0.5
 62
   256
  6
BYLAYER
  0
DICTIONARYVAR
  5
3B2
102
{ACAD_REACTORS
330
3B1
102
}
100
DictionaryVariables
280
     0
  1
0
  0
ENDSEC
  0
EOF
