  0
SECTION
  2
HEADER
  9
$ACADVER
  1
AC1009
  9
$INSBASE
 10
402.590624
 20
-1.041018
 30
0.0
  9
$EXTMIN
 10
-95.972224
 20
1.228457
 30
0.0
  9
$EXTMAX
 10
-10.067462
 20
216.228457
 30
0.0
  9
$LIMMIN
 10
-407.970438
 20
-367.832444
  9
$LIMMAX
 10
429.804077
 20
234.370848
  9
$ORTHOMODE
 70
     1
  9
$REGENMODE
 70
     1
  9
$FILLMODE
 70
     1
  9
$QTEXTMODE
 70
     0
  9
$MIRRTEXT
 70
     1
  9
$DRAGMODE
 70
     2
  9
$LTSCALE
 40
10.0
  9
$OSMODE
 70
    33
  9
$ATTMODE
 70
     1
  9
$TEXTSIZE
 40
6.0
  9
$TRACEWID
 40
1.0
  9
$TEXTSTYLE
  7
ROMANS
  9
$CLAYER
  8
ALPHA
  9
$CELTYPE
  6
BYLAYER
  9
$CECOLOR
 62
   256
  9
$DIMSCALE
 40
1.0
  9
$DIMASZ
 40
5.0
  9
$DIMEXO
 40
2.0
  9
$DIMDLI
 40
0.38
  9
$DIMRND
 40
0.0
  9
$DIMDLE
 40
0.0
  9
$DIMEXE
 40
2.5
  9
$DIMTP
 40
0.0
  9
$DIMTM
 40
0.0
  9
$DIMTXT
 40
2.5
  9
$DIMCEN
 40
0.0
  9
$DIMTSZ
 40
0.0
  9
$DIMTOL
 70
     0
  9
$DIMLIM
 70
     0
  9
$DIMTIH
 70
     1
  9
$DIMTOH
 70
     1
  9
$DIMSE1
 70
     0
  9
$DIMSE2
 70
     0
  9
$DIMTAD
 70
     1
  9
$DIMZIN
 70
    12
  9
$DIMBLK
  1
OPEN30
  9
$DIMASO
 70
     1
  9
$DIMSHO
 70
     1
  9
$DIMPOST
  1

  9
$DIMAPOST
  1

  9
$DIMALT
 70
     0
  9
$DIMALTD
 70
     2
  9
$DIMALTF
 40
25.4
  9
$DIMLFAC
 40
1.0
  9
$DIMTOFL
 70
     0
  9
$DIMTVP
 40
0.0
  9
$DIMTIX
 70
     0
  9
$DIMSOXD
 70
     0
  9
$DIMSAH
 70
     0
  9
$DIMBLK1
  1

  9
$DIMBLK2
  1

  9
$DIMSTYLE
  2
SC_DEFAUT
  9
$DIMCLRD
 70
     0
  9
$DIMCLRE
 70
     0
  9
$DIMCLRT
 70
     0
  9
$DIMTFAC
 40
1.0
  9
$DIMGAP
 40
2.0
  9
$LUNITS
 70
     2
  9
$LUPREC
 70
     1
  9
$SKETCHINC
 40
0.1
  9
$FILLETRAD
 40
0.0
  9
$AUNITS
 70
     0
  9
$AUPREC
 70
     0
  9
$MENU
  1
acad
  9
$ELEVATION
 40
0.0
  9
$PELEVATION
 40
0.0
  9
$THICKNESS
 40
0.0
  9
$LIMCHECK
 70
     0
  9
$BLIPMODE
 70
     0
  9
$CHAMFERA
 40
0.0
  9
$CHAMFERB
 40
0.0
  9
$SKPOLY
 70
     0
  9
$TDCREATE
 40
2450373.687919
  9
$TDUPDATE
 40
2452824.596949
  9
$TDINDWG
 40
1.304516
  9
$TDUSRTIMER
 40
1.304516
  9
$USRTIMER
 70
     1
  9
$ANGBASE
 50
0.0
  9
$ANGDIR
 70
     0
  9
$PDMODE
 70
    32
  9
$PDSIZE
 40
0.0
  9
$PLINEWID
 40
0.0
  9
$COORDS
 70
     1
  9
$SPLFRAME
 70
     0
  9
$SPLINETYPE
 70
     6
  9
$SPLINESEGS
 70
     8
  9
$ATTDIA
 70
     0
  9
$ATTREQ
 70
     1
  9
$HANDLING
 70
     1
  9
$HANDSEED
  5
DBC3
  9
$SURFTAB1
 70
     6
  9
$SURFTAB2
 70
     6
  9
$SURFTYPE
 70
     6
  9
$SURFU
 70
     6
  9
$SURFV
 70
     6
  9
$UCSNAME
  2

  9
$UCSORG
 10
0.0
 20
0.0
 30
0.0
  9
$UCSXDIR
 10
1.0
 20
0.0
 30
0.0
  9
$UCSYDIR
 10
0.0
 20
1.0
 30
0.0
  9
$PUCSNAME
  2

  9
$PUCSORG
 10
0.0
 20
0.0
 30
0.0
  9
$PUCSXDIR
 10
1.0
 20
0.0
 30
0.0
  9
$PUCSYDIR
 10
0.0
 20
1.0
 30
0.0
  9
$USERI1
 70
     0
  9
$USERI2
 70
     0
  9
$USERI3
 70
     0
  9
$USERI4
 70
     0
  9
$USERI5
 70
     0
  9
$USERR1
 40
0.0
  9
$USERR2
 40
0.0
  9
$USERR3
 40
0.0
  9
$USERR4
 40
0.0
  9
$USERR5
 40
0.0
  9
$WORLDVIEW
 70
     1
  9
$SHADEDGE
 70
     3
  9
$SHADEDIF
 70
    70
  9
$TILEMODE
 70
     1
  9
$MAXACTVP
 70
    16
  9
$PLIMCHECK
 70
     0
  9
$PEXTMIN
 10
-1.452248
 20
-0.437698
 30
0.0
  9
$PEXTMAX
 10
12.749749
 20
8.310198
 30
0.0
  9
$PLIMMIN
 10
0.0
 20
0.0
  9
$PLIMMAX
 10
12.0
 20
9.0
  9
$UNITMODE
 70
     0
  9
$VISRETAIN
 70
     0
  9
$PLINEGEN
 70
     0
  9
$PSLTSCALE
 70
     0
  0
ENDSEC
  0
SECTION
  2
TABLES
  0
TABLE
  2
VPORT
 70
     2
  0
VPORT
  2
*ACTIVE
 70
     0
 10
0.0
 20
0.0
 11
1.0
 21
1.0
 12
-53.03226
 22
108.731116
 13
0.0
 23
0.0
 14
1.0
 24
1.0
 15
10.0
 25
10.0
 16
0.0
 26
0.0
 36
1.0
 17
0.0
 27
0.0
 37
0.0
 40
216.860496
 41
1.56
 42
50.0
 43
0.0
 44
0.0
 50
0.0
 51
0.0
 71
     0
 72
   100
 73
     1
 74
     0
 75
     0
 76
     0
 77
     0
 78
     0
  0
ENDTAB
  0
TABLE
  2
LTYPE
 70
     3
  0
LTYPE
  2
CONTINUOUS
 70
     0
  3
Solid line
 72
    65
 73
     0
 40
0.0
  0
LTYPE
  2
AXES2
 70
     0
  3
___ _ ___ _ ___ _ ___ _ ___ _ ___ _ ___ _ ___ _
 72
    65
 73
     4
 40
1.125
 49
0.75
 49
-0.125
 49
0.125
 49
-0.125
  0
LTYPE
  2
CACHE2
 70
     0
  3
Caché (x.5) _ _ _ _ _ _ _ _ _ _ _ _ _ _ _ _ _
 72
    65
 73
     2
 40
0.1875
 49
0.125
 49
-0.0625
  0
ENDTAB
  0
TABLE
  2
LAYER
 70
     7
  0
LAYER
  2
0
 70
     0
 62
   255
  6
CONTINUOUS
  0
LAYER
  2
COTATION1
 70
     0
 62
     2
  6
CONTINUOUS
  0
LAYER
  2
AXE
 70
     0
 62
    80
  6
AXES2
  0
LAYER
  2
DEFPOINTS
 70
     0
 62
     7
  6
CONTINUOUS
  0
LAYER
  2
ALPHA
 70
     0
 62
   254
  6
CONTINUOUS
  0
LAYER
  2
POINTILLE_COURT
 70
     0
 62
    41
  6
CACHE2
  0
LAYER
  2
POINTILLE_COURT
 70
     0
 62
    41
  6
CACHE2
  0
ENDTAB
  0
TABLE
  2
STYLE
 70
     2
  0
STYLE
  2
ROMANS
 70
     0
 40
0.0
 41
1.0
 50
0.0
 71
     0
 42
6.0
  3
romans
  4

  0
STYLE
  2
STANDARD
 70
     0
 40
0.2
 41
1.0
 50
0.0
 71
     0
 42
0.2
  3
txt
  4

  0
ENDTAB
  0
TABLE
  2
VIEW
 70
     0
  0
ENDTAB
  0
TABLE
  2
UCS
 70
     0
  0
ENDTAB
  0
TABLE
  2
APPID
 70
     1
  0
APPID
  2
ACAD
 70
     0
  0
ENDTAB
  0
TABLE
  2
DIMSTYLE
 70
     1
  0
DIMSTYLE
  2
SC_DEFAUT
 70
     0
  3

  4

  5
OPEN30
  6

  7

 40
1.0
 41
5.0
 42
2.0
 43
0.38
 44
2.5
 45
0.0
 46
0.0
 47
0.0
 48
0.0
140
2.5
141
0.0
142
0.0
143
25.4
144
1.0
145
0.0
146
1.0
147
2.0
 71
     0
 72
     0
 73
     1
 74
     1
 75
     0
 76
     0
 77
     1
 78
    12
170
     0
171
     2
172
     0
173
     0
174
     0
175
     0
176
     0
177
     0
178
     0
  0
ENDTAB
  0
ENDSEC
  0
SECTION
  2
BLOCKS
  0
BLOCK
  8
0
  2
$MODEL_SPACE
 70
     0
 10
0.0
 20
0.0
 30
0.0
  3
$MODEL_SPACE
  1

  0
ENDBLK
  5
DB42
  8
0
  0
BLOCK
 67
     1
  8
0
  2
$PAPER_SPACE
 70
     0
 10
0.0
 20
0.0
 30
0.0
  3
$PAPER_SPACE
  1

  0
ENDBLK
  5
DB40
 67
     1
  8
0
  0
BLOCK
  8
0
  2
COTE
 70
     0
 10
0.0
 20
0.0
 30
0.0
  3
COTE
  1

  0
ENDBLK
  5
F
  8
0
  0
BLOCK
  8
0
  2
FOND
 70
     0
 10
0.0
 20
0.0
 30
0.0
  3
FOND
  1

  0
ENDBLK
  5
75
  8
0
  0
BLOCK
  8
0
  2
_OPEN30
 70
     0
 10
0.0
 20
0.0
 30
0.0
  3
_OPEN30
  1

  0
LINE
  5
4B05
  8
COTATION1
 62
     0
 10
-1.0
 20
0.267949
 30
0.0
 11
0.0
 21
0.0
 31
0.0
1001
ACAD
1000
RTLwPs
1070
   158
  0
LINE
  5
4B06
  8
COTATION1
 62
     0
 10
0.0
 20
0.0
 30
0.0
 11
-1.0
 21
-0.267949
 31
0.0
1001
ACAD
1000
RTLwPs
1070
   158
  0
LINE
  5
4B07
  8
COTATION1
 62
     0
 10
0.0
 20
0.0
 30
0.0
 11
-1.0
 21
0.0
 31
0.0
1001
ACAD
1000
RTLwPs
1070
   158
  0
ENDBLK
  5
4B09
  8
0
  0
BLOCK
  8
0
  2
*D3
 70
     1
 10
0.0
 20
0.0
 30
0.0
  3
*D3
  1

  0
LINE
  5
D80E
  8
COTATION1
 62
     0
 10
-70.603176
 20
56.780776
 30
0.0
 11
-70.603176
 21
11.228457
 31
0.0
1001
ACAD
1000
RTLwPs
1070
   158
  0
LINE
  5
D80F
  8
COTATION1
 62
     0
 10
-40.603176
 20
51.728457
 30
0.0
 11
-40.603176
 21
11.228457
 31
0.0
1001
ACAD
1000
RTLwPs
1070
   158
  0
LINE
  5
D810
  8
COTATION1
 62
     0
 10
-65.603176
 20
13.728457
 30
0.0
 11
-45.603176
 21
13.728457
 31
0.0
1001
ACAD
1000
RTLwPs
1070
   158
  0
INSERT
  5
D811
  8
COTATION1
 62
     0
  2
_OPEN30
 10
-70.603176
 20
13.728457
 30
0.0
 41
5.0
 42
5.0
 43
5.0
 50
180.0
1001
ACAD
1000
RTLwPs
1070
   158
  0
INSERT
  5
D812
  8
COTATION1
 62
     0
  2
_OPEN30
 10
-40.603176
 20
13.728457
 30
0.0
 41
5.0
 42
5.0
 43
5.0
1001
ACAD
1000
RTLwPs
1070
   158
  0
TEXT
  5
D813
  8
COTATION1
 62
     0
 10
-57.984129
 20
15.728457
 30
0.0
 40
2.5
  1
30
1001
ACAD
1000
MTEXTBEGIN
1070
    73
1070
     1
1070
    44
1040
1.0
1070
    74
1070
     0
1000
MTEXTEND
1000
MTEXTBEGIN
1070
    73
1070
     1
1070
    44
1040
1.0
1070
    74
1070
     0
1000
MTEXTEND
1000
MTEXTBEGIN
1070
    73
1070
     1
1070
    44
1040
1.0
1070
    74
1070
     0
1000
MTEXTEND
1000
MTEXTBEGIN
1070
    73
1070
     1
1070
    44
1040
1.0
1070
    74
1070
     0
1000
MTEXTEND
1000
MTEXTBEGIN
1070
    73
1070
     1
1070
    44
1040
1.0
1070
    74
1070
     0
1000
MTEXTEND
  0
POINT
  5
D814
  8
DEFPOINTS
 62
     0
 10
-70.603176
 20
58.780776
 30
0.0
  0
POINT
  5
D815
  8
DEFPOINTS
 62
     0
 10
-40.603176
 20
53.728457
 30
0.0
  0
POINT
  5
D816
  8
DEFPOINTS
 62
     0
 10
-40.603176
 20
13.728457
 30
0.0
  0
ENDBLK
  5
C7B0
  8
0
  0
BLOCK
  8
0
  2
*D4
 70
     1
 10
0.0
 20
0.0
 30
0.0
  3
*D4
  1

  0
LINE
  5
D762
  8
COTATION1
 62
     0
 10
-59.853176
 20
176.728457
 30
0.0
 11
-10.603176
 21
176.728457
 31
0.0
1001
ACAD
1000
RTLwPs
1070
   158
  0
LINE
  5
D763
  8
COTATION1
 62
     0
 10
-38.603176
 20
39.728457
 30
0.0
 11
-10.603176
 21
39.728457
 31
0.0
1001
ACAD
1000
RTLwPs
1070
   158
  0
LINE
  5
D764
  8
COTATION1
 62
     0
 10
-13.103176
 20
171.728457
 30
0.0
 11
-13.103176
 21
111.478457
 31
0.0
1001
ACAD
1000
RTLwPs
1070
   158
  0
LINE
  5
D765
  8
COTATION1
 62
     0
 10
-13.103176
 20
44.728457
 30
0.0
 11
-13.103176
 21
104.978457
 31
0.0
1001
ACAD
1000
RTLwPs
1070
   158
  0
INSERT
  5
D766
  8
COTATION1
 62
     0
  2
_OPEN30
 10
-13.103176
 20
176.728457
 30
0.0
 41
5.0
 42
5.0
 43
5.0
 50
90.0
1001
ACAD
1000
RTLwPs
1070
   158
  0
INSERT
  5
D767
  8
COTATION1
 62
     0
  2
_OPEN30
 10
-13.103176
 20
39.728457
 30
0.0
 41
5.0
 42
5.0
 43
5.0
 50
270.0
1001
ACAD
1000
RTLwPs
1070
   158
  0
TEXT
  5
D768
  8
COTATION1
 62
     0
 10
-16.853176
 20
106.978457
 30
0.0
 40
2.5
  1
137
1001
ACAD
1000
MTEXTBEGIN
1070
    73
1070
     1
1070
    44
1040
1.0
1070
    74
1070
     0
1000
MTEXTEND
1000
MTEXTBEGIN
1070
    73
1070
     1
1070
    44
1040
1.0
1070
    74
1070
     0
1000
MTEXTEND
1000
MTEXTBEGIN
1070
    73
1070
     1
1070
    44
1040
1.0
1070
    74
1070
     0
1000
MTEXTEND
1000
MTEXTBEGIN
1070
    73
1070
     1
1070
    44
1040
1.0
1070
    74
1070
     0
1000
MTEXTEND
1000
MTEXTBEGIN
1070
    73
1070
     1
1070
    44
1040
1.0
1070
    74
1070
     0
1000
MTEXTEND
  0
POINT
  5
D769
  8
DEFPOINTS
 62
     0
 10
-61.853176
 20
176.728457
 30
0.0
  0
POINT
  5
D76A
  8
DEFPOINTS
 62
     0
 10
-40.603176
 20
39.728457
 30
0.0
  0
POINT
  5
D76B
  8
DEFPOINTS
 62
     0
 10
-13.103176
 20
39.728457
 30
0.0
  0
ENDBLK
  5
C7BD
  8
0
  0
BLOCK
  8
0
  2
*D5
 70
     1
 10
0.0
 20
0.0
 30
0.0
  3
*D5
  1

  0
LINE
  5
D805
  8
COTATION1
 62
     0
 10
-80.103176
 20
119.428421
 30
0.0
 11
-80.103176
 21
1.228457
 31
0.0
1001
ACAD
1000
RTLwPs
1070
   158
  0
LINE
  5
D806
  8
COTATION1
 62
     0
 10
-40.603176
 20
52.728457
 30
0.0
 11
-40.603176
 21
1.228457
 31
0.0
1001
ACAD
1000
RTLwPs
1070
   158
  0
LINE
  5
D807
  8
COTATION1
 62
     0
 10
-75.103176
 20
3.728457
 30
0.0
 11
-45.603176
 21
3.728457
 31
0.0
1001
ACAD
1000
RTLwPs
1070
   158
  0
INSERT
  5
D808
  8
COTATION1
 62
     0
  2
_OPEN30
 10
-80.103176
 20
3.728457
 30
0.0
 41
5.0
 42
5.0
 43
5.0
 50
180.0
1001
ACAD
1000
RTLwPs
1070
   158
  0
INSERT
  5
D809
  8
COTATION1
 62
     0
  2
_OPEN30
 10
-40.603176
 20
3.728457
 30
0.0
 41
5.0
 42
5.0
 43
5.0
1001
ACAD
1000
RTLwPs
1070
   158
  0
TEXT
  5
D80A
  8
COTATION1
 62
     0
 10
-64.519843
 20
5.728457
 30
0.0
 40
2.5
  1
39.5
1001
ACAD
1000
MTEXTBEGIN
1070
    73
1070
     1
1070
    44
1040
1.0
1070
    74
1070
     0
1000
MTEXTEND
1000
MTEXTBEGIN
1070
    73
1070
     1
1070
    44
1040
1.0
1070
    74
1070
     0
1000
MTEXTEND
1000
MTEXTBEGIN
1070
    73
1070
     1
1070
    44
1040
1.0
1070
    74
1070
     0
1000
MTEXTEND
1000
MTEXTBEGIN
1070
    73
1070
     1
1070
    44
1040
1.0
1070
    74
1070
     0
1000
MTEXTEND
1000
MTEXTBEGIN
1070
    73
1070
     1
1070
    44
1040
1.0
1070
    74
1070
     0
1000
MTEXTEND
  0
POINT
  5
D80B
  8
DEFPOINTS
 62
     0
 10
-80.103176
 20
121.428421
 30
0.0
  0
POINT
  5
D80C
  8
DEFPOINTS
 62
     0
 10
-40.603176
 20
54.728457
 30
0.0
  0
POINT
  5
D80D
  8
DEFPOINTS
 62
     0
 10
-40.603176
 20
3.728457
 30
0.0
  0
ENDBLK
  5
C8DB
  8
0
  0
BLOCK
  8
0
  2
*D6
 70
     1
 10
0.0
 20
0.0
 30
0.0
  3
*D6
  1

  0
LINE
  5
D984
  8
COTATION1
 62
     0
 10
-53.103176
 20
160.890128
 30
0.0
 11
-53.103176
 21
194.228457
 31
0.0
1001
ACAD
1000
RTLwPs
1070
   158
  0
LINE
  5
D985
  8
COTATION1
 62
     0
 10
-40.603176
 20
135.67456
 30
0.0
 11
-40.603176
 21
194.228457
 31
0.0
1001
ACAD
1000
RTLwPs
1070
   158
  0
LINE
  5
D986
  8
COTATION1
 62
     0
 10
-58.103176
 20
191.728457
 30
0.0
 11
-63.103176
 21
191.728457
 31
0.0
1001
ACAD
1000
RTLwPs
1070
   158
  0
LINE
  5
D987
  8
COTATION1
 62
     0
 10
-35.603176
 20
191.728457
 30
0.0
 11
-30.603176
 21
191.728457
 31
0.0
1001
ACAD
1000
RTLwPs
1070
   158
  0
INSERT
  5
D988
  8
COTATION1
 62
     0
  2
_OPEN30
 10
-53.103176
 20
191.728457
 30
0.0
 41
5.0
 42
5.0
 43
5.0
1001
ACAD
1000
RTLwPs
1070
   158
  0
INSERT
  5
D989
  8
COTATION1
 62
     0
  2
_OPEN30
 10
-40.603176
 20
191.728457
 30
0.0
 41
5.0
 42
5.0
 43
5.0
 50
180.0
1001
ACAD
1000
RTLwPs
1070
   158
  0
TEXT
  5
D98A
  8
COTATION1
 62
     0
 10
-51.198414
 20
193.728457
 30
0.0
 40
2.5
  1
12.5
1001
ACAD
1000
MTEXTBEGIN
1070
    73
1070
     1
1070
    44
1040
1.0
1070
    74
1070
     0
1000
MTEXTEND
1000
MTEXTBEGIN
1070
    73
1070
     1
1070
    44
1040
1.0
1070
    74
1070
     0
1000
MTEXTEND
1000
MTEXTBEGIN
1070
    73
1070
     1
1070
    44
1040
1.0
1070
    74
1070
     0
1000
MTEXTEND
  0
POINT
  5
D98B
  8
DEFPOINTS
 62
     0
 10
-53.103176
 20
158.890128
 30
0.0
  0
POINT
  5
D98C
  8
DEFPOINTS
 62
     0
 10
-40.603176
 20
133.67456
 30
0.0
  0
POINT
  5
D98D
  8
DEFPOINTS
 62
     0
 10
-40.603176
 20
191.728457
 30
0.0
  0
ENDBLK
  5
D4FD
  8
0
  0
BLOCK
  8
0
  2
*D7
 70
     1
 10
0.0
 20
0.0
 30
0.0
  3
*D7
  1

  0
LINE
  5
D97B
  8
COTATION1
 62
     0
 10
-64.603176
 20
183.728457
 30
0.0
 11
-64.603176
 21
204.228457
 31
0.0
1001
ACAD
1000
RTLwPs
1070
   158
  0
LINE
  5
D97C
  8
COTATION1
 62
     0
 10
-40.603176
 20
135.67456
 30
0.0
 11
-40.603176
 21
204.228457
 31
0.0
1001
ACAD
1000
RTLwPs
1070
   158
  0
LINE
  5
D97D
  8
COTATION1
 62
     0
 10
-59.603176
 20
201.728457
 30
0.0
 11
-45.603176
 21
201.728457
 31
0.0
1001
ACAD
1000
RTLwPs
1070
   158
  0
INSERT
  5
D97E
  8
COTATION1
 62
     0
  2
_OPEN30
 10
-64.603176
 20
201.728457
 30
0.0
 41
5.0
 42
5.0
 43
5.0
 50
180.0
1001
ACAD
1000
RTLwPs
1070
   158
  0
INSERT
  5
D97F
  8
COTATION1
 62
     0
  2
_OPEN30
 10
-40.603176
 20
201.728457
 30
0.0
 41
5.0
 42
5.0
 43
5.0
1001
ACAD
1000
RTLwPs
1070
   158
  0
TEXT
  5
D980
  8
COTATION1
 62
     0
 10
-55.043652
 20
203.728457
 30
0.0
 40
2.5
  1
24
1001
ACAD
1000
MTEXTBEGIN
1070
    73
1070
     1
1070
    44
1040
1.0
1070
    74
1070
     0
1000
MTEXTEND
1000
MTEXTBEGIN
1070
    73
1070
     1
1070
    44
1040
1.0
1070
    74
1070
     0
1000
MTEXTEND
1000
MTEXTBEGIN
1070
    73
1070
     1
1070
    44
1040
1.0
1070
    74
1070
     0
1000
MTEXTEND
  0
POINT
  5
D981
  8
DEFPOINTS
 62
     0
 10
-64.603176
 20
181.728457
 30
0.0
  0
POINT
  5
D982
  8
DEFPOINTS
 62
     0
 10
-40.603176
 20
133.67456
 30
0.0
  0
POINT
  5
D983
  8
DEFPOINTS
 62
     0
 10
-40.603176
 20
201.728457
 30
0.0
  0
ENDBLK
  5
D509
  8
0
  0
BLOCK
  8
0
  2
*D8
 70
     1
 10
0.0
 20
0.0
 30
0.0
  3
*D8
  1

  0
LINE
  5
D6F6
  8
COTATION1
 62
     0
 10
-83.353176
 20
178.728457
 30
0.0
 11
-83.353176
 21
204.228457
 31
0.0
1001
ACAD
1000
RTLwPs
1070
   158
  0
LINE
  5
D6F7
  8
COTATION1
 62
     0
 10
-77.853176
 20
178.728457
 30
0.0
 11
-77.853176
 21
204.228457
 31
0.0
1001
ACAD
1000
RTLwPs
1070
   158
  0
LINE
  5
D6F8
  8
COTATION1
 62
     0
 10
-88.353176
 20
201.728457
 30
0.0
 11
-93.353176
 21
201.728457
 31
0.0
1001
ACAD
1000
RTLwPs
1070
   158
  0
LINE
  5
D6F9
  8
COTATION1
 62
     0
 10
-72.853176
 20
201.728457
 30
0.0
 11
-67.853176
 21
201.728457
 31
0.0
1001
ACAD
1000
RTLwPs
1070
   158
  0
TEXT
  5
D6FA
  8
COTATION1
 62
     0
 10
-96.329367
 20
203.728457
 30
0.0
 40
2.5
  1
5.5
1001
ACAD
1000
MTEXTBEGIN
1070
    73
1070
     1
1070
    44
1040
1.0
1070
    74
1070
     0
1000
MTEXTEND
1000
MTEXTBEGIN
1070
    73
1070
     1
1070
    44
1040
1.0
1070
    74
1070
     0
1000
MTEXTEND
1000
MTEXTBEGIN
1070
    73
1070
     1
1070
    44
1040
1.0
1070
    74
1070
     0
1000
MTEXTEND
1000
MTEXTBEGIN
1070
    73
1070
     1
1070
    44
1040
1.0
1070
    74
1070
     0
1000
MTEXTEND
1000
MTEXTBEGIN
1070
    73
1070
     1
1070
    44
1040
1.0
1070
    74
1070
     0
1000
MTEXTEND
  0
INSERT
  5
D6FB
  8
COTATION1
 62
     0
  2
_OPEN30
 10
-83.353176
 20
201.728457
 30
0.0
 41
5.0
 42
5.0
 43
5.0
1001
ACAD
1000
RTLwPs
1070
   158
  0
INSERT
  5
D6FC
  8
COTATION1
 62
     0
  2
_OPEN30
 10
-77.853176
 20
201.728457
 30
0.0
 41
5.0
 42
5.0
 43
5.0
 50
180.0
1001
ACAD
1000
RTLwPs
1070
   158
  0
POINT
  5
D6FD
  8
DEFPOINTS
 62
     0
 10
-83.353176
 20
176.728457
 30
0.0
  0
POINT
  5
D6FE
  8
DEFPOINTS
 62
     0
 10
-77.853176
 20
176.728457
 30
0.0
  0
POINT
  5
D6FF
  8
DEFPOINTS
 62
     0
 10
-77.853176
 20
201.728457
 30
0.0
  0
ENDBLK
  5
D516
  8
0
  0
BLOCK
  8
0
  2
*D9
 70
     1
 10
0.0
 20
0.0
 30
0.0
  3
*D9
  1

  0
LINE
  5
D98E
  8
COTATION1
 62
     0
 10
-80.603176
 20
183.728457
 30
0.0
 11
-80.603176
 21
214.228457
 31
0.0
1001
ACAD
1000
RTLwPs
1070
   158
  0
LINE
  5
D98F
  8
COTATION1
 62
     0
 10
-40.603176
 20
135.67456
 30
0.0
 11
-40.603176
 21
214.228457
 31
0.0
1001
ACAD
1000
RTLwPs
1070
   158
  0
LINE
  5
D990
  8
COTATION1
 62
     0
 10
-75.603176
 20
211.728457
 30
0.0
 11
-45.603176
 21
211.728457
 31
0.0
1001
ACAD
1000
RTLwPs
1070
   158
  0
INSERT
  5
D991
  8
COTATION1
 62
     0
  2
_OPEN30
 10
-80.603176
 20
211.728457
 30
0.0
 41
5.0
 42
5.0
 43
5.0
 50
180.0
1001
ACAD
1000
RTLwPs
1070
   158
  0
INSERT
  5
D992
  8
COTATION1
 62
     0
  2
_OPEN30
 10
-40.603176
 20
211.728457
 30
0.0
 41
5.0
 42
5.0
 43
5.0
1001
ACAD
1000
RTLwPs
1070
   158
  0
TEXT
  5
D993
  8
COTATION1
 62
     0
 10
-62.984129
 20
213.728457
 30
0.0
 40
2.5
  1
40
1001
ACAD
1000
MTEXTBEGIN
1070
    73
1070
     1
1070
    44
1040
1.0
1070
    74
1070
     0
1000
MTEXTEND
1000
MTEXTBEGIN
1070
    73
1070
     1
1070
    44
1040
1.0
1070
    74
1070
     0
1000
MTEXTEND
1000
MTEXTBEGIN
1070
    73
1070
     1
1070
    44
1040
1.0
1070
    74
1070
     0
1000
MTEXTEND
  0
POINT
  5
D994
  8
DEFPOINTS
 62
     0
 10
-80.603176
 20
181.728457
 30
0.0
  0
POINT
  5
D995
  8
DEFPOINTS
 62
     0
 10
-40.603176
 20
133.67456
 30
0.0
  0
POINT
  5
D996
  8
DEFPOINTS
 62
     0
 10
-40.603176
 20
211.728457
 30
0.0
  0
ENDBLK
  5
D522
  8
0
  0
BLOCK
  8
0
  2
*D10
 70
     1
 10
0.0
 20
0.0
 30
0.0
  3
*D10
  1

  0
LINE
  5
DA4B
  8
COTATION1
 62
     0
 10
-44.603176
 20
59.728457
 30
0.0
 11
-44.603176
 21
72.981314
 31
0.0
1001
ACAD
1000
RTLwPs
1070
   158
  0
LINE
  5
DA4C
  8
COTATION1
 62
     0
 10
-40.603176
 20
61.728457
 30
0.0
 11
-40.603176
 21
72.981314
 31
0.0
1001
ACAD
1000
RTLwPs
1070
   158
  0
LINE
  5
DA4D
  8
COTATION1
 62
     0
 10
-49.603176
 20
70.481314
 30
0.0
 11
-54.603176
 21
70.481314
 31
0.0
1001
ACAD
1000
RTLwPs
1070
   158
  0
LINE
  5
DA4E
  8
COTATION1
 62
     0
 10
-35.603176
 20
70.481314
 30
0.0
 11
-30.603176
 21
70.481314
 31
0.0
1001
ACAD
1000
RTLwPs
1070
   158
  0
TEXT
  5
DA4F
  8
COTATION1
 62
     0
 10
-31.853176
 20
72.481314
 30
0.0
 40
2.5
  1
4
1001
ACAD
1000
MTEXTBEGIN
1070
    73
1070
     1
1070
    44
1040
1.0
1070
    74
1070
     0
1000
MTEXTEND
  0
INSERT
  5
DA50
  8
COTATION1
 62
     0
  2
_OPEN30
 10
-44.603176
 20
70.481314
 30
0.0
 41
5.0
 42
5.0
 43
5.0
1001
ACAD
1000
RTLwPs
1070
   158
  0
INSERT
  5
DA51
  8
COTATION1
 62
     0
  2
_OPEN30
 10
-40.603176
 20
70.481314
 30
0.0
 41
5.0
 42
5.0
 43
5.0
 50
180.0
1001
ACAD
1000
RTLwPs
1070
   158
  0
POINT
  5
DA52
  8
DEFPOINTS
 62
     0
 10
-44.603176
 20
57.728457
 30
0.0
  0
POINT
  5
DA53
  8
DEFPOINTS
 62
     0
 10
-40.603176
 20
59.728457
 30
0.0
  0
POINT
  5
DA54
  8
DEFPOINTS
 62
     0
 10
-40.603176
 20
70.481314
 30
0.0
  0
ENDBLK
  5
DA40
  8
0
  0
ENDSEC
  0
SECTION
  2
ENTITIES
  0
INSERT
  5
A
  8
0
  2
COTE
 10
0.0
 20
0.0
 30
0.0
  0
INSERT
  5
17
  8
0
  2
COTE
 10
284.010391
 20
6.373258
 30
0.0
  0
INSERT
  5
72
  8
0
  2
FOND
 10
0.0
 20
0.0
 30
0.0
  0
POLYLINE
  5
C76E
  8
ALPHA
 66
     1
 10
0.0
 20
0.0
 30
0.0
 70
   128
210
0.0
220
0.0
230
-1.0
  0
VERTEX
  5
DB48
  8
ALPHA
 10
50.363484
 20
56.440208
 30
0.0
  0
VERTEX
  5
DB49
  8
ALPHA
 10
50.133805
 20
55.94747
 30
0.0
  0
VERTEX
  5
DB4A
  8
ALPHA
 10
50.055742
 20
55.37562
 30
0.0
  0
VERTEX
  5
DB4B
  8
ALPHA
 10
50.37293
 20
54.728457
 30
0.0
  0
SEQEND
  5
DB4C
  8
ALPHA
  0
POLYLINE
  5
C76F
  8
ALPHA
 66
     1
 10
0.0
 20
0.0
 30
0.0
 70
   128
210
0.0
220
0.0
230
-1.0
  0
VERTEX
  5
DB4D
  8
ALPHA
 10
53.213934
 20
57.976207
 30
0.0
  0
VERTEX
  5
DB4E
  8
ALPHA
 10
52.95136
 20
58.342615
 30
0.0
  0
VERTEX
  5
DB4F
  8
ALPHA
 10
52.556433
 20
58.413808
 30
0.0
  0
SEQEND
  5
DB50
  8
ALPHA
  0
POLYLINE
  5
C770
  8
ALPHA
 66
     1
 10
0.0
 20
0.0
 30
0.0
 70
   128
  0
VERTEX
  5
DB51
  8
ALPHA
 10
-56.119025
 20
56.728457
 30
0.0
  0
VERTEX
  5
DB52
  8
ALPHA
 10
-56.924792
 20
69.214045
 30
0.0
  0
VERTEX
  5
DB53
  8
ALPHA
 10
-58.554122
 20
81.073691
 30
0.0
  0
VERTEX
  5
DB54
  8
ALPHA
 10
-60.763553
 20
92.082127
 30
0.0
  0
VERTEX
  5
DB55
  8
ALPHA
 10
-63.309622
 20
102.014089
 30
0.0
  0
SEQEND
  5
DB56
  8
ALPHA
  0
LINE
  5
C771
  8
ALPHA
 10
-70.281023
 20
58.22333
 30
0.0
 11
-70.603176
 21
58.780776
 31
0.0
  0
POLYLINE
  5
C772
  8
ALPHA
 66
     1
 10
0.0
 20
0.0
 30
0.0
 70
   128
210
0.0
220
0.0
230
-1.0
  0
VERTEX
  5
DB57
  8
ALPHA
 10
57.780274
 20
54.728457
 30
0.0
  0
VERTEX
  5
DB58
  8
ALPHA
 10
59.467334
 20
54.883982
 30
0.0
  0
VERTEX
  5
DB59
  8
ALPHA
 10
61.38096
 20
55.250769
 30
0.0
  0
VERTEX
  5
DB5A
  8
ALPHA
 10
65.363653
 20
56.356367
 30
0.0
  0
VERTEX
  5
DB5B
  8
ALPHA
 10
68.679844
 20
57.521728
 30
0.0
  0
VERTEX
  5
DB5C
  8
ALPHA
 10
69.760342
 20
57.963219
 30
0.0
  0
VERTEX
  5
DB5D
  8
ALPHA
 10
70.281023
 20
58.22333
 30
0.0
  0
SEQEND
  5
DB5E
  8
ALPHA
  0
POLYLINE
  5
C773
  8
ALPHA
 66
     1
 10
0.0
 20
0.0
 30
0.0
 70
   128
210
0.0
220
0.0
230
-1.0
  0
VERTEX
  5
DB5F
  8
ALPHA
 10
52.556433
 20
58.413808
 30
0.0
  0
VERTEX
  5
DB60
  8
ALPHA
 10
51.816591
 20
58.413808
 30
0.0
  0
VERTEX
  5
DB61
  8
ALPHA
 10
51.366639
 20
58.282761
 30
0.0
  0
VERTEX
  5
DB62
  8
ALPHA
 10
50.974143
 20
57.699099
 30
0.0
  0
VERTEX
  5
DB63
  8
ALPHA
 10
50.578507
 20
56.893738
 30
0.0
  0
VERTEX
  5
DB64
  8
ALPHA
 10
50.363484
 20
56.440208
 30
0.0
  0
SEQEND
  5
DB65
  8
ALPHA
  0
LINE
  5
C774
  8
ALPHA
 10
-40.603176
 20
133.67456
 30
0.0
 11
-40.603176
 21
53.728457
 31
0.0
  0
DIMENSION
  5
C775
  8
COTATION1
  2
*D4
 10
-13.103176
 20
39.728457
 30
0.0
 11
-13.103176
 21
108.228457
 31
0.0
 13
-61.853176
 23
176.728457
 33
0.0
 14
-40.603176
 24
39.728457
 34
0.0
 50
90.0
  0
LINE
  5
C776
  8
ALPHA
 10
-65.603176
 20
133.67456
 30
0.0
 11
-65.603176
 21
102.014089
 31
0.0
  0
ARC
  5
C777
  8
ALPHA
 10
-36.93359
 20
106.515651
 30
0.0
 40
33.671021
 50
166.958519
 51
180.528913
  0
DIMENSION
  5
C778
  8
COTATION1
  2
*D3
 10
-40.603176
 20
13.728457
 30
0.0
 11
-55.603176
 21
16.978457
 31
0.0
 13
-70.603176
 23
58.780776
 33
0.0
 14
-40.603176
 24
53.728457
 34
0.0
  0
LINE
  5
C779
  8
AXE
 10
-53.103176
 20
158.890128
 30
0.0
 11
-53.103176
 21
23.728457
 31
0.0
  0
LINE
  5
C77A
  8
ALPHA
 10
-70.603176
 20
103.014089
 30
0.0
 11
-65.91907
 21
103.014089
 31
0.0
  0
LINE
  5
C77C
  8
AXE
 10
-75.603176
 20
86.228457
 30
0.0
 11
-25.603176
 21
86.228457
 31
0.0
  0
LINE
  5
C77D
  8
ALPHA
 10
-70.603176
 20
102.228457
 30
0.0
 11
-70.603176
 21
58.780776
 31
0.0
  0
LINE
  5
C77E
  8
ALPHA
 10
-70.603176
 20
102.228457
 30
0.0
 11
-70.603176
 21
106.204829
 31
0.0
  0
ARC
  5
C780
  8
ALPHA
 10
-214.945408
 20
55.387689
 30
0.0
 40
156.451664
 50
0.857269
 51
18.449068
  0
TEXT
  5
C781
  8
AXE
 10
-60.579367
 20
23.728457
 30
0.0
 40
8.0
  1
Y
 72
     2
 11
-54.103176
 21
23.728457
 31
0.0
  0
LINE
  5
C782
  8
ALPHA
 10
-57.780274
 20
54.728457
 30
0.0
 11
-40.603176
 21
54.728457
 31
0.0
  0
LINE
  5
C783
  8
ALPHA
 10
-52.629421
 20
59.728457
 30
0.0
 11
-40.603176
 21
59.728457
 31
0.0
  0
LINE
  5
C784
  8
ALPHA
 10
-64.603176
 20
53.728457
 30
0.0
 11
-40.603176
 21
53.728457
 31
0.0
  0
LINE
  5
C785
  8
ALPHA
 10
-52.629421
 20
59.728457
 30
0.0
 11
-53.630156
 21
56.728457
 31
0.0
  0
LINE
  5
C786
  8
ALPHA
 10
-58.511255
 20
57.728457
 30
0.0
 11
-56.146928
 21
57.728457
 31
0.0
  0
LINE
  5
C787
  8
ALPHA
 10
-56.119025
 20
56.728457
 30
0.0
 11
-53.630156
 21
56.728457
 31
0.0
  0
LINE
  5
C788
  8
ALPHA
 10
-65.253652
 20
56.331078
 30
0.0
 11
-64.603176
 21
53.728457
 31
0.0
  0
TEXT
  5
C78A
  8
AXE
 10
-32.079367
 20
87.228457
 30
0.0
 40
8.0
  1
Z
 72
     2
 11
-25.603176
 21
87.228457
 31
0.0
  0
LINE
  5
C78C
  8
ALPHA
 10
-65.603176
 20
102.014089
 30
0.0
 11
-63.309622
 21
102.014089
 31
0.0
  0
LINE
  5
C78D
  8
ALPHA
 10
-65.603176
 20
104.898623
 30
0.0
 11
-66.534523
 21
104.898623
 31
0.0
  0
LINE
  5
C78E
  8
ALPHA
 10
-68.266349
 20
115.314173
 30
0.0
 11
-65.603176
 21
115.314173
 31
0.0
  0
ARC
  5
C78F
  8
ALPHA
 10
-68.266349
 20
113.814173
 30
0.0
 40
1.5
 50
90.0
 51
168.480193
  0
LINE
  5
C794
  8
ALPHA
 10
-65.603176
 20
116.028457
 30
0.0
 11
-40.603176
 21
116.028457
 31
0.0
  0
LINE
  5
C79F
  8
ALPHA
 10
-65.603176
 20
118.728457
 30
0.0
 11
-40.603176
 21
118.728457
 31
0.0
  0
LINE
  5
C7D2
  8
ALPHA
 10
-46.103176
 20
47.728457
 30
0.0
 11
-40.603176
 21
47.728457
 31
0.0
  0
LINE
  5
C7D3
  8
ALPHA
 10
-52.603176
 20
49.228457
 30
0.0
 11
-40.903176
 21
49.228457
 31
0.0
  0
LINE
  5
C7D4
  8
ALPHA
 10
-52.603176
 20
39.728457
 30
0.0
 11
-40.603176
 21
39.728457
 31
0.0
  0
LINE
  5
C7D5
  8
ALPHA
 10
-46.103176
 20
47.728457
 30
0.0
 11
-46.103176
 21
39.728457
 31
0.0
  0
LINE
  5
C7D6
  8
ALPHA
 10
-59.103176
 20
47.728457
 30
0.0
 11
-59.103176
 21
39.728457
 31
0.0
  0
LINE
  5
C7D7
  8
ALPHA
 10
-64.603176
 20
47.728457
 30
0.0
 11
-64.603176
 21
39.728457
 31
0.0
  0
LINE
  5
C7D8
  8
ALPHA
 10
-52.603176
 20
39.728457
 30
0.0
 11
-64.603176
 21
39.728457
 31
0.0
  0
LINE
  5
C7D9
  8
ALPHA
 10
-52.603176
 20
49.228457
 30
0.0
 11
-64.303176
 21
49.228457
 31
0.0
  0
LINE
  5
C7DA
  8
ALPHA
 10
-59.103176
 20
47.728457
 30
0.0
 11
-64.603176
 21
47.728457
 31
0.0
  0
ARC
  5
C7DB
  8
ALPHA
 10
-68.742558
 20
51.192498
 30
0.0
 40
4.854438
 50
336.134766
 51
31.493383
  0
LINE
  5
C7DC
  8
ALPHA
 10
-64.303176
 20
49.228457
 30
0.0
 11
-64.603176
 21
47.728457
 31
0.0
  0
ARC
  5
C7DD
  8
ALPHA
 10
-52.603176
 20
34.395124
 30
0.0
 40
14.833333
 50
64.010766
 51
115.989234
  0
LINE
  5
C7DE
  8
ALPHA
 10
-40.603176
 20
47.728457
 30
0.0
 11
-40.603176
 21
39.728457
 31
0.0
  0
LINE
  5
C7DF
  8
ALPHA
 10
-40.903176
 20
49.228457
 30
0.0
 11
-40.603176
 21
47.728457
 31
0.0
  0
ARC
  5
C7E0
  8
ALPHA
 10
-36.463795
 20
51.192498
 30
0.0
 40
4.854438
 50
148.506617
 51
203.865234
  0
LINE
  5
C895
  8
ALPHA
 10
-40.603176
 20
133.67456
 30
0.0
 11
-65.603176
 21
133.67456
 31
0.0
  0
LINE
  5
C896
  8
ALPHA
 10
-40.603176
 20
131.541916
 30
0.0
 11
-65.603176
 21
131.541916
 31
0.0
  0
LINE
  5
C898
  8
ALPHA
 10
-80.103176
 20
120.930987
 30
0.0
 11
-65.603176
 21
120.930987
 31
0.0
  0
LINE
  5
C899
  8
ALPHA
 10
-65.603176
 20
125.986992
 30
0.0
 11
-40.603176
 21
125.986992
 31
0.0
  0
LINE
  5
C89B
  8
ALPHA
 10
-80.103176
 20
121.428421
 30
0.0
 11
-65.603176
 21
121.428421
 31
0.0
  0
LINE
  5
C89C
  8
ALPHA
 10
-80.103176
 20
121.428421
 30
0.0
 11
-80.103176
 21
120.930987
 31
0.0
  0
LINE
  5
C89F
  8
ALPHA
 10
-70.153176
 20
125.428421
 30
0.0
 11
-65.603176
 21
125.428421
 31
0.0
  0
ARC
  5
C8A0
  8
ALPHA
 10
-70.153176
 20
121.428421
 30
0.0
 40
4.0
 50
90.0
 51
180.0
  0
DIMENSION
  5
C8CF
  8
COTATION1
  2
*D5
 10
-40.603176
 20
3.728457
 30
0.0
 11
-60.353176
 21
6.978457
 31
0.0
 13
-80.103176
 23
121.428421
 33
0.0
 14
-40.603176
 24
54.728457
 34
0.0
  0
POLYLINE
  5
D442
  8
ALPHA
 66
     1
 10
0.0
 20
0.0
 30
0.0
 70
   128
210
0.0
220
0.0
230
-1.0
  0
VERTEX
  5
DB66
  8
ALPHA
 10
76.41493
 20
144.209459
 30
0.0
  0
VERTEX
  5
DB67
  8
ALPHA
 10
76.209934
 20
145.691553
 30
0.0
  0
VERTEX
  5
DB68
  8
ALPHA
 10
75.874341
 20
146.755287
 30
0.0
  0
VERTEX
  5
DB69
  8
ALPHA
 10
75.56094
 20
147.396545
 30
0.0
  0
VERTEX
  5
DB6A
  8
ALPHA
 10
75.42252
 20
147.611213
 30
0.0
  0
SEQEND
  5
DB6B
  8
ALPHA
  0
LINE
  5
D443
  8
ALPHA
 10
-75.504202
 20
144.209459
 30
0.0
 11
-76.41493
 21
144.209459
 31
0.0
  0
POLYLINE
  5
D444
  8
ALPHA
 66
     1
 10
0.0
 20
0.0
 30
0.0
 70
   128
  0
VERTEX
  5
DB6C
  8
ALPHA
 10
-73.109861
 20
135.102511
 30
0.0
  0
VERTEX
  5
DB6D
  8
ALPHA
 10
-73.109861
 20
135.572548
 30
0.0
  0
VERTEX
  5
DB6E
  8
ALPHA
 10
-73.109861
 20
136.861104
 30
0.0
  0
VERTEX
  5
DB6F
  8
ALPHA
 10
-73.109861
 20
138.785852
 30
0.0
  0
VERTEX
  5
DB70
  8
ALPHA
 10
-73.109861
 20
141.164461
 30
0.0
  0
VERTEX
  5
DB71
  8
ALPHA
 10
-73.109861
 20
146.553947
 30
0.0
  0
VERTEX
  5
DB72
  8
ALPHA
 10
-73.109861
 20
151.570928
 30
0.0
  0
SEQEND
  5
DB73
  8
ALPHA
  0
POLYLINE
  5
D445
  8
ALPHA
 66
     1
 10
0.0
 20
0.0
 30
0.0
 70
   128
  0
VERTEX
  5
DB74
  8
ALPHA
 10
-71.100559
 20
135.102498
 30
0.0
  0
VERTEX
  5
DB75
  8
ALPHA
 10
-71.414513
 20
135.1025
 30
0.0
  0
VERTEX
  5
DB76
  8
ALPHA
 10
-72.10521
 20
135.102505
 30
0.0
  0
VERTEX
  5
DB77
  8
ALPHA
 10
-72.795907
 20
135.102509
 30
0.0
  0
VERTEX
  5
DB78
  8
ALPHA
 10
-73.109861
 20
135.102511
 30
0.0
  0
SEQEND
  5
DB79
  8
ALPHA
  0
POLYLINE
  5
D446
  8
ALPHA
 66
     1
 10
0.0
 20
0.0
 30
0.0
 70
   128
  0
VERTEX
  5
DB7A
  8
ALPHA
 10
-73.613289
 20
147.728457
 30
0.0
  0
VERTEX
  5
DB7B
  8
ALPHA
 10
-73.613289
 20
147.382828
 30
0.0
  0
VERTEX
  5
DB7C
  8
ALPHA
 10
-73.613289
 20
146.471622
 30
0.0
  0
VERTEX
  5
DB7D
  8
ALPHA
 10
-73.613289
 20
143.706586
 30
0.0
  0
VERTEX
  5
DB7E
  8
ALPHA
 10
-73.613289
 20
140.94155
 30
0.0
  0
VERTEX
  5
DB7F
  8
ALPHA
 10
-73.613289
 20
140.030344
 30
0.0
  0
VERTEX
  5
DB80
  8
ALPHA
 10
-73.613289
 20
139.684715
 30
0.0
  0
SEQEND
  5
DB81
  8
ALPHA
  0
LINE
  5
D447
  8
ALPHA
 10
-73.613289
 20
139.684715
 30
0.0
 11
-75.42252
 21
139.800848
 31
0.0
  0
LINE
  5
D448
  8
ALPHA
 10
-75.504202
 20
143.203713
 30
0.0
 11
-75.504202
 21
144.209459
 31
0.0
  0
LINE
  5
D449
  8
ALPHA
 10
-76.41493
 20
143.203713
 30
0.0
 11
-75.504202
 21
143.203713
 31
0.0
  0
POLYLINE
  5
D44A
  8
ALPHA
 66
     1
 10
0.0
 20
0.0
 30
0.0
 70
   128
210
0.0
220
0.0
230
-1.0
  0
VERTEX
  5
DB82
  8
ALPHA
 10
75.42252
 20
139.800848
 30
0.0
  0
VERTEX
  5
DB83
  8
ALPHA
 10
75.56094
 20
140.015689
 30
0.0
  0
VERTEX
  5
DB84
  8
ALPHA
 10
75.874341
 20
140.657329
 30
0.0
  0
VERTEX
  5
DB85
  8
ALPHA
 10
76.209934
 20
141.721445
 30
0.0
  0
VERTEX
  5
DB86
  8
ALPHA
 10
76.41493
 20
143.203713
 30
0.0
  0
SEQEND
  5
DB87
  8
ALPHA
  0
LINE
  5
D44B
  8
ALPHA
 10
-75.42252
 20
147.611213
 30
0.0
 11
-73.613289
 21
147.728457
 31
0.0
  0
POLYLINE
  5
D44C
  8
ALPHA
 66
     1
 10
0.0
 20
0.0
 30
0.0
 70
   128
  0
VERTEX
  5
DB88
  8
ALPHA
 10
-71.100592
 20
134.597416
 30
0.0
  0
VERTEX
  5
DB89
  8
ALPHA
 10
-71.100579
 20
134.791621
 30
0.0
  0
VERTEX
  5
DB8A
  8
ALPHA
 10
-71.100544
 20
135.340462
 30
0.0
  0
VERTEX
  5
DB8B
  8
ALPHA
 10
-71.100418
 20
137.299402
 30
0.0
  0
VERTEX
  5
DB8C
  8
ALPHA
 10
-71.10024
 20
140.068938
 30
0.0
  0
VERTEX
  5
DB8D
  8
ALPHA
 10
-71.100036
 20
143.243772
 30
0.0
  0
VERTEX
  5
DB8E
  8
ALPHA
 10
-71.099832
 20
146.418606
 30
0.0
  0
VERTEX
  5
DB8F
  8
ALPHA
 10
-71.099654
 20
149.188142
 30
0.0
  0
VERTEX
  5
DB90
  8
ALPHA
 10
-71.099528
 20
151.147082
 30
0.0
  0
VERTEX
  5
DB91
  8
ALPHA
 10
-71.099493
 20
151.695923
 30
0.0
  0
VERTEX
  5
DB92
  8
ALPHA
 10
-71.099481
 20
151.890128
 30
0.0
  0
SEQEND
  5
DB93
  8
ALPHA
  0
POLYLINE
  5
D44D
  8
ALPHA
 66
     1
 10
0.0
 20
0.0
 30
0.0
 70
   128
  0
VERTEX
  5
DB94
  8
ALPHA
 10
-45.060652
 20
149.878081
 30
0.0
  0
VERTEX
  5
DB95
  8
ALPHA
 10
-45.060652
 20
149.696108
 30
0.0
  0
VERTEX
  5
DB96
  8
ALPHA
 10
-45.060652
 20
149.181836
 30
0.0
  0
VERTEX
  5
DB97
  8
ALPHA
 10
-45.060652
 20
147.346281
 30
0.0
  0
VERTEX
  5
DB98
  8
ALPHA
 10
-45.060652
 20
144.751186
 30
0.0
  0
VERTEX
  5
DB99
  8
ALPHA
 10
-45.060652
 20
141.776321
 30
0.0
  0
VERTEX
  5
DB9A
  8
ALPHA
 10
-45.060652
 20
138.801456
 30
0.0
  0
VERTEX
  5
DB9B
  8
ALPHA
 10
-45.060652
 20
136.206361
 30
0.0
  0
VERTEX
  5
DB9C
  8
ALPHA
 10
-45.060652
 20
134.370806
 30
0.0
  0
VERTEX
  5
DB9D
  8
ALPHA
 10
-45.060652
 20
133.856534
 30
0.0
  0
VERTEX
  5
DB9E
  8
ALPHA
 10
-45.060652
 20
133.67456
 30
0.0
  0
SEQEND
  5
DB9F
  8
ALPHA
  0
POLYLINE
  5
D44F
  8
ALPHA
 66
     1
 10
0.0
 20
0.0
 30
0.0
 70
   128
  0
VERTEX
  5
DBA0
  8
ALPHA
 10
-61.14647
 20
134.597416
 30
0.0
  0
VERTEX
  5
DBA1
  8
ALPHA
 10
-61.574186
 20
134.597416
 30
0.0
  0
VERTEX
  5
DBA2
  8
ALPHA
 10
-62.701801
 20
134.597416
 30
0.0
  0
VERTEX
  5
DBA3
  8
ALPHA
 10
-66.123531
 20
134.597416
 30
0.0
  0
VERTEX
  5
DBA4
  8
ALPHA
 10
-69.54526
 20
134.597416
 30
0.0
  0
VERTEX
  5
DBA5
  8
ALPHA
 10
-70.672876
 20
134.597416
 30
0.0
  0
VERTEX
  5
DBA6
  8
ALPHA
 10
-71.100592
 20
134.597416
 30
0.0
  0
SEQEND
  5
DBA7
  8
ALPHA
  0
POLYLINE
  5
D450
  8
ALPHA
 66
     1
 10
0.0
 20
0.0
 30
0.0
 70
   128
  0
VERTEX
  5
DBA8
  8
ALPHA
 10
-53.103839
 20
140.233481
 30
0.0
  0
VERTEX
  5
DBA9
  8
ALPHA
 10
-54.450892
 20
139.991306
 30
0.0
  0
VERTEX
  5
DBAA
  8
ALPHA
 10
-55.7181
 20
139.352846
 30
0.0
  0
VERTEX
  5
DBAB
  8
ALPHA
 10
-57.977399
 20
137.415448
 30
0.0
  0
VERTEX
  5
DBAC
  8
ALPHA
 10
-59.810575
 20
135.478051
 30
0.0
  0
VERTEX
  5
DBAD
  8
ALPHA
 10
-60.54513
 20
134.83959
 30
0.0
  0
VERTEX
  5
DBAE
  8
ALPHA
 10
-61.14647
 20
134.597416
 30
0.0
  0
SEQEND
  5
DBAF
  8
ALPHA
  0
LINE
  5
D451
  8
ALPHA
 10
-61.14647
 20
133.67456
 30
0.0
 11
-61.14647
 21
134.597416
 31
0.0
  0
POLYLINE
  5
D452
  8
ALPHA
 66
     1
 10
0.0
 20
0.0
 30
0.0
 70
   128
  0
VERTEX
  5
DBB0
  8
ALPHA
 10
-71.099481
 20
151.890128
 30
0.0
  0
VERTEX
  5
DBB1
  8
ALPHA
 10
-70.829636
 20
151.890128
 30
0.0
  0
VERTEX
  5
DBB2
  8
ALPHA
 10
-70.067032
 20
151.890128
 30
0.0
  0
VERTEX
  5
DBB3
  8
ALPHA
 10
-68.882063
 20
151.890128
 30
0.0
  0
VERTEX
  5
DBB4
  8
ALPHA
 10
-67.345122
 20
151.890128
 30
0.0
  0
VERTEX
  5
DBB5
  8
ALPHA
 10
-63.496905
 20
151.890128
 30
0.0
  0
VERTEX
  5
DBB6
  8
ALPHA
 10
-59.085534
 20
151.890128
 30
0.0
  0
VERTEX
  5
DBB7
  8
ALPHA
 10
-54.674163
 20
151.890128
 30
0.0
  0
VERTEX
  5
DBB8
  8
ALPHA
 10
-50.825946
 20
151.890128
 30
0.0
  0
VERTEX
  5
DBB9
  8
ALPHA
 10
-49.289006
 20
151.890128
 30
0.0
  0
VERTEX
  5
DBBA
  8
ALPHA
 10
-48.104036
 20
151.890128
 30
0.0
  0
VERTEX
  5
DBBB
  8
ALPHA
 10
-47.341432
 20
151.890128
 30
0.0
  0
VERTEX
  5
DBBC
  8
ALPHA
 10
-47.071588
 20
151.890128
 30
0.0
  0
SEQEND
  5
DBBD
  8
ALPHA
  0
POLYLINE
  5
D453
  8
ALPHA
 66
     1
 10
0.0
 20
0.0
 30
0.0
 70
   128
210
0.0
220
0.0
230
-1.0
  0
VERTEX
  5
DBBE
  8
ALPHA
 10
47.071588
 20
151.890128
 30
0.0
  0
VERTEX
  5
DBBF
  8
ALPHA
 10
45.649166
 20
151.301058
 30
0.0
  0
VERTEX
  5
DBC0
  8
ALPHA
 10
45.060652
 20
149.878081
 30
0.0
  0
SEQEND
  5
DBC1
  8
ALPHA
  0
DIMENSION
  5
D466
  8
COTATION1
  2
*D9
 10
-40.603176
 20
211.728457
 30
0.0
 11
-60.603176
 21
214.978457
 31
0.0
 13
-80.603176
 23
181.728457
 33
0.0
 14
-40.603176
 24
133.67456
 34
0.0
  0
DIMENSION
  5
D467
  8
COTATION1
  2
*D8
 10
-77.853176
 20
201.728457
 30
0.0
 11
-93.353176
 21
201.728457
 31
0.0
 70
   128
 13
-83.353176
 23
176.728457
 33
0.0
 14
-77.853176
 24
176.728457
 34
0.0
  0
DIMENSION
  5
D468
  8
COTATION1
  2
*D7
 10
-40.603176
 20
201.728457
 30
0.0
 11
-52.603176
 21
204.978457
 31
0.0
 13
-64.603176
 23
181.728457
 33
0.0
 14
-40.603176
 24
133.67456
 34
0.0
  0
DIMENSION
  5
D469
  8
COTATION1
  2
*D6
 10
-40.603176
 20
191.728457
 30
0.0
 11
-46.853176
 21
194.978457
 31
0.0
 13
-53.103176
 23
158.890128
 33
0.0
 14
-40.603176
 24
133.67456
 34
0.0
  0
LINE
  5
D46B
  8
ALPHA
 10
-83.353176
 20
176.728457
 30
0.0
 11
-77.853176
 21
176.728457
 31
0.0
  0
LINE
  5
D46C
  8
ALPHA
 10
-83.353176
 20
157.728457
 30
0.0
 11
-77.853176
 21
157.728457
 31
0.0
  0
LINE
  5
D46D
  8
ALPHA
 10
-83.353176
 20
176.728457
 30
0.0
 11
-83.353176
 21
157.728457
 31
0.0
  0
LINE
  5
D46E
  8
AXE
 10
-80.603176
 20
181.728457
 30
0.0
 11
-80.603176
 21
154.728457
 31
0.0
  0
LINE
  5
D481
  8
POINTILLE_COURT
 10
-67.353176
 20
176.728457
 30
0.0
 11
-67.353176
 21
157.142671
 31
0.0
  0
LINE
  5
D482
  8
POINTILLE_COURT
 10
-69.353176
 20
175.228457
 30
0.0
 11
-69.353176
 21
157.971098
 31
0.0
  0
LINE
  5
D483
  8
ALPHA
 10
-75.853176
 20
175.228457
 30
0.0
 11
-75.853176
 21
157.971098
 31
0.0
  0
LINE
  5
D484
  8
ALPHA
 10
-77.853176
 20
176.728457
 30
0.0
 11
-77.853176
 21
157.142671
 31
0.0
  0
LINE
  5
D485
  8
POINTILLE_COURT
 10
-61.853176
 20
176.728457
 30
0.0
 11
-61.853176
 21
157.728457
 31
0.0
  0
LINE
  5
D486
  8
AXE
 10
-64.603176
 20
181.728457
 30
0.0
 11
-64.603176
 21
154.728457
 31
0.0
  0
LINE
  5
D487
  8
ALPHA
 10
-53.10384
 20
140.233481
 30
0.0
 11
-70.970569
 21
140.233481
 31
0.0
  0
LINE
  5
D488
  8
POINTILLE_COURT
 10
-67.353176
 20
157.728457
 30
0.0
 11
-61.853176
 21
157.728457
 31
0.0
  0
ARC
  5
D489
  8
POINTILLE_COURT
 10
-68.353176
 20
157.142671
 30
0.0
 40
1.0
 50
315.0
 51
360.0
  0
LINE
  5
D48A
  8
POINTILLE_COURT
 10
-69.853083
 20
154.22855
 30
0.0
 11
-67.646069
 21
156.435564
 31
0.0
  0
ARC
  5
D48B
  8
POINTILLE_COURT
 10
-70.353176
 20
157.971098
 30
0.0
 40
1.0
 50
315.0
 51
360.0
  0
LINE
  5
D48C
  8
POINTILLE_COURT
 10
-71.267297
 20
155.642764
 30
0.0
 11
-69.646069
 21
157.263991
 31
0.0
  0
ARC
  5
D48D
  8
ALPHA
 10
-74.16878
 20
151.531559
 30
0.0
 40
3.069531
 50
0.73486
 51
44.741953
  0
ARC
  5
D48E
  8
ALPHA
 10
-74.853176
 20
157.971098
 30
0.0
 40
1.0
 50
180.0
 51
225.0
  0
LINE
  5
D48F
  8
ALPHA
 10
-71.98854
 20
153.692248
 30
0.0
 11
-75.560283
 21
157.263991
 31
0.0
  0
ARC
  5
D490
  8
ALPHA
 10
-74.109861
 20
151.570928
 30
0.0
 40
1.0
 50
360.0
 51
45.0
  0
ARC
  5
D491
  8
ALPHA
 10
-76.853176
 20
157.142671
 30
0.0
 40
1.0
 50
180.0
 51
225.0
  0
LINE
  5
D492
  8
ALPHA
 10
-73.402754
 20
152.278035
 30
0.0
 11
-77.560283
 21
156.435564
 31
0.0
  0
LINE
  5
D493
  8
ALPHA
 10
-71.099482
 20
148.733092
 30
0.0
 11
-73.109859
 21
148.733092
 31
0.0
  0
LINE
  5
D494
  8
ALPHA
 10
-73.109859
 20
146.967202
 30
0.0
 11
-71.099482
 21
146.967202
 31
0.0
  0
LINE
  5
D495
  8
ALPHA
 10
-73.109859
 20
147.631773
 30
0.0
 11
-71.099482
 21
147.631773
 31
0.0
  0
LINE
  5
D496
  8
ALPHA
 10
-73.109859
 20
148.274673
 30
0.0
 11
-71.099482
 21
148.274673
 31
0.0
  0
LINE
  5
D497
  8
ALPHA
 10
-73.109859
 20
150.241154
 30
0.0
 11
-73.613288
 21
150.241154
 31
0.0
  0
LINE
  5
D498
  8
ALPHA
 10
-73.109859
 20
138.67897
 30
0.0
 11
-71.099482
 21
138.67897
 31
0.0
  0
LINE
  5
D499
  8
ALPHA
 10
-73.109859
 20
144.263357
 30
0.0
 11
-71.099482
 21
144.263357
 31
0.0
  0
LINE
  5
D49A
  8
ALPHA
 10
-73.109859
 20
145.164641
 30
0.0
 11
-71.099482
 21
145.164641
 31
0.0
  0
LINE
  5
D49B
  8
ALPHA
 10
-73.109859
 20
146.065921
 30
0.0
 11
-71.099482
 21
146.065921
 31
0.0
  0
LINE
  5
D49C
  8
ALPHA
 10
-73.109859
 20
143.149815
 30
0.0
 11
-71.099482
 21
143.149815
 31
0.0
  0
LINE
  5
D49D
  8
ALPHA
 10
-73.109859
 20
142.248534
 30
0.0
 11
-71.099482
 21
142.248534
 31
0.0
  0
LINE
  5
D49E
  8
ALPHA
 10
-73.109859
 20
141.346141
 30
0.0
 11
-71.099482
 21
141.346141
 31
0.0
  0
LINE
  5
D49F
  8
ALPHA
 10
-73.109859
 20
140.44486
 30
0.0
 11
-71.099482
 21
140.44486
 31
0.0
  0
LINE
  5
D4A0
  8
ALPHA
 10
-73.109859
 20
139.780289
 30
0.0
 11
-71.099482
 21
139.780289
 31
0.0
  0
LINE
  5
D4A1
  8
ALPHA
 10
-73.109859
 20
139.137389
 30
0.0
 11
-71.099482
 21
139.137389
 31
0.0
  0
LINE
  5
D4A2
  8
ALPHA
 10
-73.613288
 20
137.170905
 30
0.0
 11
-73.109859
 21
137.170905
 31
0.0
  0
LINE
  5
D4A3
  8
ALPHA
 10
-73.613288
 20
150.241154
 30
0.0
 11
-73.613288
 21
137.170905
 31
0.0
  0
LINE
  5
D4A4
  8
ALPHA
 10
-73.109859
 20
137.170905
 30
0.0
 11
-73.109859
 21
150.241154
 31
0.0
  0
LINE
  5
D4A5
  8
ALPHA
 10
-73.109859
 20
148.733092
 30
0.0
 11
-73.109859
 21
138.67897
 31
0.0
  0
LINE
  5
D4A6
  8
ALPHA
 10
-71.099482
 20
138.67897
 30
0.0
 11
-71.099482
 21
148.733092
 31
0.0
  0
LINE
  5
D4A7
  8
POINTILLE_COURT
 10
-67.353176
 20
176.728457
 30
0.0
 11
-61.853176
 21
176.728457
 31
0.0
  0
LINE
  5
D4A8
  8
POINTILLE_COURT
 10
-67.353176
 20
175.228457
 30
0.0
 11
-69.353176
 21
175.228457
 31
0.0
  0
LINE
  5
D4A9
  8
ALPHA
 10
-77.853176
 20
175.228457
 30
0.0
 11
-75.853176
 21
175.228457
 31
0.0
  0
LINE
  5
D9D7
  8
ALPHA
 10
-74.153176
 20
121.428421
 30
0.0
 11
-74.153176
 21
120.930987
 31
0.0
  0
DIMENSION
  5
DA2F
  8
COTATION1
  2
*D10
 10
-40.603176
 20
70.481314
 30
0.0
 11
-30.603176
 21
70.481314
 31
0.0
 70
   128
 13
-44.603176
 23
57.728457
 33
0.0
 14
-40.603176
 24
59.728457
 34
0.0
  0
LINE
  5
DA30
  8
POINTILLE_COURT
 10
-43.103176
 20
56.228457
 30
0.0
 11
-40.603176
 21
56.228457
 31
0.0
  0
LINE
  5
DA31
  8
POINTILLE_COURT
 10
-43.103176
 20
59.228457
 30
0.0
 11
-40.603176
 21
59.228457
 31
0.0
  0
ARC
  5
DA32
  8
POINTILLE_COURT
 10
-43.103176
 20
57.728457
 30
0.0
 40
1.5
 50
90.0
 51
270.0
  0
VIEWPORT
  5
494D
 67
     1
  8
0
 10
4.995325
 20
6.556512
 30
0.0
 40
22.70986
 41
13.988421
 68
    -1
 69
     1
1001
ACAD
1000
MVIEW
1002
{
1070
    16
1010
0.0
1020
0.0
1030
0.0
1010
0.0
1020
0.0
1030
1.0
1040
0.0
1040
13.988421
1040
4.995325
1040
6.556512
1040
50.0
1040
0.0
1040
0.0
1070
     0
1070
   100
1070
     1
1070
     1
1070
     0
1070
     0
1070
     0
1070
     0
1040
0.0
1040
0.0
1040
0.0
1040
10.0
1040
10.0
1040
10.0
1040
10.0
1070
     0
1002
{
1002
}
1002
}
  0
ENDSEC
  0
EOF
