  0
SECTION
  2
HEADER
  9
$ACADVER
  1
AC1014
  9
$ACADMAINTVER
 70
     9
  9
$DWGCODEPAGE
  3
ANSI_1252
  9
$INSBASE
 10
0.0
 20
0.0
 30
0.0
  9
$EXTMIN
 10
-0.0000014740623202
 20
0.1900200015532691
 30
0.0
  9
$EXTMAX
 10
32.80000126296883
 20
20.69005577827587
 30
0.0
  9
$LIMMIN
 10
0.0
 20
0.0
  9
$LIMMAX
 10
16.40000099999999
 20
10.25
  9
$ORTHOMODE
 70
     0
  9
$REGENMODE
 70
     1
  9
$FILLMODE
 70
     1
  9
$QTEXTMODE
 70
     0
  9
$MIRRTEXT
 70
     1
  9
$DRAGMODE
 70
     2
  9
$LTSCALE
 40
1.0
  9
$OSMODE
 70
   255
  9
$ATTMODE
 70
     1
  9
$TEXTSIZE
 40
0.2
  9
$TRACEWID
 40
0.05
  9
$TEXTSTYLE
  7
ROMANS
  9
$CLAYER
  8
0
  9
$CELTYPE
  6
BYLAYER
  9
$CECOLOR
 62
   256
  9
$CELTSCALE
 40
1.0
  9
$DELOBJ
 70
     1
  9
$DISPSILH
 70
     0
  9
$DIMSCALE
 40
2.0
  9
$DIMASZ
 40
0.07
  9
$DIMEXO
 40
0.0625
  9
$DIMDLI
 40
0.38
  9
$DIMRND
 40
0.001
  9
$DIMDLE
 40
0.0
  9
$DIMEXE
 40
0.0625
  9
$DIMTP
 40
0.0
  9
$DIMTM
 40
0.0
  9
$DIMTXT
 40
0.1
  9
$DIMCEN
 40
0.09
  9
$DIMTSZ
 40
0.0
  9
$DIMTOL
 70
     0
  9
$DIMLIM
 70
     0
  9
$DIMTIH
 70
     1
  9
$DIMTOH
 70
     1
  9
$DIMSE1
 70
     0
  9
$DIMSE2
 70
     0
  9
$DIMTAD
 70
     0
  9
$DIMZIN
 70
     4
  9
$DIMBLK
  1
SEARROW
  9
$DIMASO
 70
     1
  9
$DIMSHO
 70
     1
  9
$DIMPOST
  1
\X
  9
$DIMAPOST
  1

  9
$DIMALT
 70
     1
  9
$DIMALTD
 70
     0
  9
$DIMALTF
 40
25.4
  9
$DIMLFAC
 40
1.0
  9
$DIMTOFL
 70
     0
  9
$DIMTVP
 40
0.0
  9
$DIMTIX
 70
     0
  9
$DIMSOXD
 70
     0
  9
$DIMSAH
 70
     0
  9
$DIMBLK1
  1

  9
$DIMBLK2
  1

  9
$DIMSTYLE
  2
SCHNEIDERELECTRIC_DUAL_BEL
  9
$DIMCLRD
 70
   256
  9
$DIMCLRE
 70
   256
  9
$DIMCLRT
 70
   256
  9
$DIMTFAC
 40
1.0
  9
$DIMGAP
 40
0.04
  9
$DIMJUST
 70
     0
  9
$DIMSD1
 70
     0
  9
$DIMSD2
 70
     0
  9
$DIMTOLJ
 70
     1
  9
$DIMTZIN
 70
     0
  9
$DIMALTZ
 70
     4
  9
$DIMALTTZ
 70
     0
  9
$DIMFIT
 70
     3
  9
$DIMUPT
 70
     0
  9
$DIMUNIT
 70
     2
  9
$DIMDEC
 70
     2
  9
$DIMTDEC
 70
     2
  9
$DIMALTU
 70
     2
  9
$DIMALTTD
 70
     0
  9
$DIMTXSTY
  7
ROMANS
  9
$DIMAUNIT
 70
     0
  9
$LUNITS
 70
     2
  9
$LUPREC
 70
     4
  9
$SKETCHINC
 40
0.1
  9
$FILLETRAD
 40
0.03905
  9
$AUNITS
 70
     0
  9
$AUPREC
 70
     0
  9
$MENU
  1
.
  9
$ELEVATION
 40
0.0
  9
$PELEVATION
 40
0.0
  9
$THICKNESS
 40
0.0
  9
$LIMCHECK
 70
     0
  9
$BLIPMODE
 70
     0
  9
$CHAMFERA
 40
0.015625
  9
$CHAMFERB
 40
0.015625
  9
$CHAMFERC
 40
1.0
  9
$CHAMFERD
 40
0.0
  9
$SKPOLY
 70
     0
  9
$TDCREATE
 40
2451764.535041909
  9
$TDUPDATE
 40
2452062.397337731
  9
$TDINDWG
 40
1.8580820255
  9
$TDUSRTIMER
 40
1.8580817940
  9
$USRTIMER
 70
     1
  9
$ANGBASE
 50
0.0
  9
$ANGDIR
 70
     0
  9
$PDMODE
 70
     0
  9
$PDSIZE
 40
0.0
  9
$PLINEWID
 40
0.0
  9
$COORDS
 70
     2
  9
$SPLFRAME
 70
     0
  9
$SPLINETYPE
 70
     6
  9
$SPLINESEGS
 70
     8
  9
$ATTDIA
 70
     0
  9
$ATTREQ
 70
     1
  9
$HANDLING
 70
 12289
  9
$HANDSEED
  5
1B269
  9
$SURFTAB1
 70
     6
  9
$SURFTAB2
 70
     6
  9
$SURFTYPE
 70
     6
  9
$SURFU
 70
     6
  9
$SURFV
 70
     6
  9
$UCSNAME
  2

  9
$UCSORG
 10
0.0
 20
0.0
 30
0.0
  9
$UCSXDIR
 10
1.0
 20
0.0
 30
0.0
  9
$UCSYDIR
 10
0.0
 20
1.0
 30
0.0
  9
$PUCSNAME
  2

  9
$PUCSORG
 10
0.0
 20
0.0
 30
0.0
  9
$PUCSXDIR
 10
1.0
 20
0.0
 30
0.0
  9
$PUCSYDIR
 10
0.0
 20
1.0
 30
0.0
  9
$USERI1
 70
     0
  9
$USERI2
 70
     0
  9
$USERI3
 70
     0
  9
$USERI4
 70
     0
  9
$USERI5
 70
     0
  9
$USERR1
 40
0.0
  9
$USERR2
 40
0.0
  9
$USERR3
 40
0.0
  9
$USERR4
 40
0.0
  9
$USERR5
 40
0.0
  9
$WORLDVIEW
 70
     1
  9
$SHADEDGE
 70
     3
  9
$SHADEDIF
 70
    70
  9
$TILEMODE
 70
     0
  9
$MAXACTVP
 70
    48
  9
$PINSBASE
 10
0.0
 20
0.0
 30
0.0
  9
$PLIMCHECK
 70
     0
  9
$PEXTMIN
 10
0.0
 20
-0.1507193079929352
 30
0.0
  9
$PEXTMAX
 10
16.40000099999999
 20
10.25
 30
0.0
  9
$PLIMMIN
 10
-0.3022988315385811
 20
-0.4421500682141223
  9
$PLIMMAX
 10
16.69770068786963
 20
10.55784969148998
  9
$UNITMODE
 70
     0
  9
$VISRETAIN
 70
     1
  9
$PLINEGEN
 70
     0
  9
$PSLTSCALE
 70
     1
  9
$TREEDEPTH
 70
  3020
  9
$PICKSTYLE
 70
     1
  9
$CMLSTYLE
  2
STANDARD
  9
$CMLJUST
 70
     0
  9
$CMLSCALE
 40
1.0
  9
$PROXYGRAPHICS
 70
     1
  9
$MEASUREMENT
 70
     0
  0
ENDSEC
  0
SECTION
  2
CLASSES
  0
CLASS
  1
ACDBDICTIONARYWDFLT
  2
AcDbDictionaryWithDefault
  3
AutoCAD 2000
 90
        0
280
     0
281
     0
  0
CLASS
  1
ACDBPLACEHOLDER
  2
AcDbPlaceHolder
  3
AutoCAD 2000
 90
        0
280
     0
281
     0
  0
CLASS
  1
LAYOUT
  2
AcDbLayout
  3
AutoCAD 2000
 90
        0
280
     0
281
     0
  0
CLASS
  1
LONG_TRANSACTION
  2
AcDbLongTransaction
  3
AutoCAD 2000
 90
        0
280
     0
281
     0
  0
CLASS
  1
LWPOLYLINE
  2
AcDbPolyline
  3
AutoCAD 2000
 90
        0
280
     0
281
     1
  0
CLASS
  1
HATCH
  2
AcDbHatch
  3
AutoCAD 2000
 90
        0
280
     0
281
     1
  0
CLASS
  1
XRECORD
  2
AcDbXrecord
  3
AutoCAD 2000
 90
        0
280
     0
281
     0
  0
CLASS
  1
LONG_TRANSACTION
  2
AcDbLongTransaction
  3
AutoCAD 2000
 90
        0
280
     0
281
     0
  0
CLASS
  1
LWPOLYLINE
  2
AcDbPolyline
  3
AutoCAD 2000
 90
        0
280
     0
281
     1
  0
CLASS
  1
HATCH
  2
AcDbHatch
  3
AutoCAD 2000
 90
        0
280
     0
281
     1
  0
CLASS
  1
XRECORD
  2
AcDbXrecord
  3
AutoCAD 2000
 90
        0
280
     0
281
     0
  0
CLASS
  1
LONG_TRANSACTION
  2
AcDbLongTransaction
  3
AutoCAD 2000
 90
        0
280
     0
281
     0
  0
CLASS
  1
LWPOLYLINE
  2
AcDbPolyline
  3
AutoCAD 2000
 90
        0
280
     0
281
     1
  0
CLASS
  1
HATCH
  2
AcDbHatch
  3
AutoCAD 2000
 90
        0
280
     0
281
     1
  0
CLASS
  1
XRECORD
  2
AcDbXrecord
  3
AutoCAD 2000
 90
        0
280
     0
281
     0
  0
CLASS
  1
PLOTSETTINGS
  2
AcDbPlotSettings
  3
AutoCAD 2000
 90
        0
280
     0
281
     0
  0
CLASS
  1
ACME_DOCUMENT
  2
AcMeDbDoc
  3
AcMeServices
 90
        0
280
     0
281
     0
  0
CLASS
  1
AMGSETTINGSOBJ
  2
AmgSettingsObj
  3
"AcadM|Product Description: AutoCAD Mechanical 2000|Company: Autodesk"
 90
        0
280
     0
281
     0
  0
CLASS
  1
ACMESCOPE
  2
AcMeScope
  3
AcMeServices
 90
        0
280
     0
281
     0
  0
CLASS
  1
ACMECOMMANDHISTORY
  2
AcMeCommandHistory
  3
AcMeServices
 90
        0
280
     0
281
     0
  0
CLASS
  1
DICTIONARYVAR
  2
AcDbDictionaryVar
  3
AutoCAD 2000
 90
        0
280
     0
281
     0
  0
CLASS
  1
ACIMSYSVARMAN
  2
AcImSysVarManager
  3
AcMeServices
 90
        0
280
     0
281
     0
  0
CLASS
  1
ACIMREALSYSVAR
  2
AcImRealSysVar
  3
AcMeServices
 90
        0
280
     0
281
     0
  0
CLASS
  1
ACIMINTSYSVAR
  2
AcImIntSysVar
  3
AcMeServices
 90
        0
280
     0
281
     0
  0
CLASS
  1
ACMEDRAWINGMAN
  2
AcMeDrawingMan
  3
AcMeServices
 90
        0
280
     0
281
     0
  0
CLASS
  1
ACMEVIEW
  2
AcMeView
  3
AcMeServices
 90
        0
280
     0
281
     0
  0
CLASS
  1
ACDBENTITYCACHE
  2
AcMeEntityCache
  3
AcMeServices
 90
        0
280
     0
281
     0
  0
CLASS
  1
GSMANAGER
  2
AcMeGSManager
  3
AcMeServices
 90
        0
280
     0
281
     0
  0
CLASS
  1
AmdtInternalReactor
  2
AmdtInternalReactor
  3
AcMeServices
 90
        0
280
     0
281
     0
  0
CLASS
  1
ACMESTATEMGR
  2
AcMeStateMgr
  3
AcMeServices
 90
        0
280
     0
281
     0
  0
CLASS
  1
ACME_DATABASE
  2
AcMeDbDatabase
  3
AcMeServices
 90
        0
280
     0
281
     0
  0
CLASS
  1
ACRFINSADJUSTERMGR
  2
AcRfInsAdjusterMgr
  3
AcMeServices
 90
        0
280
     0
281
     0
  0
CLASS
  1
ACMDATADICTIONARY
  2
AcmDataDictionary
  3
"AcmSymBB|Product Description: AutoCAD Mechanical 2000|Company: Autodesk"
 90
        0
280
     0
281
     0
  0
CLASS
  1
ACMDATAENTRYBLOCK
  2
AcmDataEntryBlock
  3
"AcmSymBB|Product Description: AutoCAD Mechanical 2000|Company: Autodesk"
 90
        0
280
     0
281
     0
  0
CLASS
  1
AMGOBJPROPCFG
  2
AmgObjPropCfg
  3
"AmgLay|Product Description: AutoCAD Mechanical 2000|Company: Autodesk"
 90
        1
280
     0
281
     0
  0
CLASS
  1
ACAMGFILTERDAT
  2
AcAmgFilterDat
  3
"AcadM|Product Description: AutoCAD Mechanical 2000|Company: Autodesk"
 90
        0
280
     0
281
     0
  0
CLASS
  1
LAYER_INDEX
  2
AcDbLayerIndex
  3
AutoCAD 2000
 90
        0
280
     0
281
     0
  0
CLASS
  1
IDBUFFER
  2
AcDbIdBuffer
  3
AutoCAD 2000
 90
        0
280
     0
281
     0
  0
CLASS
  1
LONG_TRANSACTION
  2
AcDbLongTransaction
  3
AutoCAD 2000
 90
        0
280
     0
281
     0
  0
CLASS
  1
LWPOLYLINE
  2
AcDbPolyline
  3
AutoCAD 2000
 90
        0
280
     0
281
     1
  0
CLASS
  1
HATCH
  2
AcDbHatch
  3
AutoCAD 2000
 90
        0
280
     0
281
     1
  0
CLASS
  1
XRECORD
  2
AcDbXrecord
  3
AutoCAD 2000
 90
        0
280
     0
281
     0
  0
CLASS
  1
LONG_TRANSACTION
  2
AcDbLongTransaction
  3
AutoCAD 2000
 90
        0
280
     0
281
     0
  0
CLASS
  1
LWPOLYLINE
  2
AcDbPolyline
  3
AutoCAD 2000
 90
        0
280
     0
281
     1
  0
CLASS
  1
HATCH
  2
AcDbHatch
  3
AutoCAD 2000
 90
        0
280
     0
281
     1
  0
CLASS
  1
XRECORD
  2
AcDbXrecord
  3
AutoCAD 2000
 90
        0
280
     0
281
     0
  0
CLASS
  1
LONG_TRANSACTION
  2
AcDbLongTransaction
  3
AutoCAD 2000
 90
        0
280
     0
281
     0
  0
CLASS
  1
LWPOLYLINE
  2
AcDbPolyline
  3
AutoCAD 2000
 90
        0
280
     0
281
     1
  0
CLASS
  1
HATCH
  2
AcDbHatch
  3
AutoCAD 2000
 90
        0
280
     0
281
     1
  0
CLASS
  1
XRECORD
  2
AcDbXrecord
  3
AutoCAD 2000
 90
        0
280
     0
281
     0
  0
CLASS
  1
LONG_TRANSACTION
  2
AcDbLongTransaction
  3
AutoCAD 2000
 90
        0
280
     0
281
     0
  0
CLASS
  1
LWPOLYLINE
  2
AcDbPolyline
  3
AutoCAD 2000
 90
        0
280
     0
281
     1
  0
CLASS
  1
HATCH
  2
AcDbHatch
  3
AutoCAD 2000
 90
        0
280
     0
281
     1
  0
CLASS
  1
XRECORD
  2
AcDbXrecord
  3
AutoCAD 2000
 90
        0
280
     0
281
     0
  0
CLASS
  1
LONG_TRANSACTION
  2
AcDbLongTransaction
  3
AutoCAD 2000
 90
        0
280
     0
281
     0
  0
CLASS
  1
LWPOLYLINE
  2
AcDbPolyline
  3
AutoCAD 2000
 90
        0
280
     0
281
     1
  0
CLASS
  1
HATCH
  2
AcDbHatch
  3
AutoCAD 2000
 90
        0
280
     0
281
     1
  0
CLASS
  1
XRECORD
  2
AcDbXrecord
  3
AutoCAD 2000
 90
        0
280
     0
281
     0
  0
CLASS
  1
LONG_TRANSACTION
  2
AcDbLongTransaction
  3
AutoCAD 2000
 90
        0
280
     0
281
     0
  0
CLASS
  1
LWPOLYLINE
  2
AcDbPolyline
  3
AutoCAD 2000
 90
        0
280
     0
281
     1
  0
CLASS
  1
HATCH
  2
AcDbHatch
  3
AutoCAD 2000
 90
        0
280
     0
281
     1
  0
CLASS
  1
XRECORD
  2
AcDbXrecord
  3
AutoCAD 2000
 90
        0
280
     0
281
     0
  0
CLASS
  1
LONG_TRANSACTION
  2
AcDbLongTransaction
  3
AutoCAD 2000
 90
        0
280
     0
281
     0
  0
CLASS
  1
LWPOLYLINE
  2
AcDbPolyline
  3
AutoCAD 2000
 90
        0
280
     0
281
     1
  0
CLASS
  1
HATCH
  2
AcDbHatch
  3
AutoCAD 2000
 90
        0
280
     0
281
     1
  0
CLASS
  1
XRECORD
  2
AcDbXrecord
  3
AutoCAD 2000
 90
        0
280
     0
281
     0
  0
CLASS
  1
LONG_TRANSACTION
  2
AcDbLongTransaction
  3
AutoCAD 2000
 90
        0
280
     0
281
     0
  0
CLASS
  1
LWPOLYLINE
  2
AcDbPolyline
  3
AutoCAD 2000
 90
        0
280
     0
281
     1
  0
CLASS
  1
HATCH
  2
AcDbHatch
  3
AutoCAD 2000
 90
        0
280
     0
281
     1
  0
CLASS
  1
XRECORD
  2
AcDbXrecord
  3
AutoCAD 2000
 90
        0
280
     0
281
     0
  0
CLASS
  1
LONG_TRANSACTION
  2
AcDbLongTransaction
  3
AutoCAD 2000
 90
        0
280
     0
281
     0
  0
CLASS
  1
LWPOLYLINE
  2
AcDbPolyline
  3
AutoCAD 2000
 90
        0
280
     0
281
     1
  0
CLASS
  1
HATCH
  2
AcDbHatch
  3
AutoCAD 2000
 90
        0
280
     0
281
     1
  0
CLASS
  1
XRECORD
  2
AcDbXrecord
  3
AutoCAD 2000
 90
        0
280
     0
281
     0
  0
CLASS
  1
LONG_TRANSACTION
  2
AcDbLongTransaction
  3
AutoCAD 2000
 90
        0
280
     0
281
     0
  0
CLASS
  1
LWPOLYLINE
  2
AcDbPolyline
  3
AutoCAD 2000
 90
        0
280
     0
281
     1
  0
CLASS
  1
HATCH
  2
AcDbHatch
  3
AutoCAD 2000
 90
        0
280
     0
281
     1
  0
CLASS
  1
XRECORD
  2
AcDbXrecord
  3
AutoCAD 2000
 90
        0
280
     0
281
     0
  0
CLASS
  1
LONG_TRANSACTION
  2
AcDbLongTransaction
  3
AutoCAD 2000
 90
        0
280
     0
281
     0
  0
CLASS
  1
LWPOLYLINE
  2
AcDbPolyline
  3
AutoCAD 2000
 90
        0
280
     0
281
     1
  0
CLASS
  1
HATCH
  2
AcDbHatch
  3
AutoCAD 2000
 90
        0
280
     0
281
     1
  0
CLASS
  1
XRECORD
  2
AcDbXrecord
  3
AutoCAD 2000
 90
        0
280
     0
281
     0
  0
CLASS
  1
LONG_TRANSACTION
  2
AcDbLongTransaction
  3
AutoCAD 2000
 90
        0
280
     0
281
     0
  0
CLASS
  1
LWPOLYLINE
  2
AcDbPolyline
  3
AutoCAD 2000
 90
        0
280
     0
281
     1
  0
CLASS
  1
HATCH
  2
AcDbHatch
  3
AutoCAD 2000
 90
        0
280
     0
281
     1
  0
CLASS
  1
XRECORD
  2
AcDbXrecord
  3
AutoCAD 2000
 90
        0
280
     0
281
     0
  0
CLASS
  1
LONG_TRANSACTION
  2
AcDbLongTransaction
  3
AutoCAD 2000
 90
        0
280
     0
281
     0
  0
CLASS
  1
LWPOLYLINE
  2
AcDbPolyline
  3
AutoCAD 2000
 90
        0
280
     0
281
     1
  0
CLASS
  1
HATCH
  2
AcDbHatch
  3
AutoCAD 2000
 90
        0
280
     0
281
     1
  0
CLASS
  1
XRECORD
  2
AcDbXrecord
  3
AutoCAD 2000
 90
        0
280
     0
281
     0
  0
CLASS
  1
LONG_TRANSACTION
  2
AcDbLongTransaction
  3
AutoCAD 2000
 90
        0
280
     0
281
     0
  0
CLASS
  1
LWPOLYLINE
  2
AcDbPolyline
  3
AutoCAD 2000
 90
        0
280
     0
281
     1
  0
CLASS
  1
HATCH
  2
AcDbHatch
  3
AutoCAD 2000
 90
        0
280
     0
281
     1
  0
CLASS
  1
XRECORD
  2
AcDbXrecord
  3
AutoCAD 2000
 90
        0
280
     0
281
     0
  0
CLASS
  1
LONG_TRANSACTION
  2
AcDbLongTransaction
  3
AutoCAD 2000
 90
        0
280
     0
281
     0
  0
CLASS
  1
LWPOLYLINE
  2
AcDbPolyline
  3
AutoCAD 2000
 90
        0
280
     0
281
     1
  0
CLASS
  1
HATCH
  2
AcDbHatch
  3
AutoCAD 2000
 90
        0
280
     0
281
     1
  0
CLASS
  1
XRECORD
  2
AcDbXrecord
  3
AutoCAD 2000
 90
        0
280
     0
281
     0
  0
CLASS
  1
LONG_TRANSACTION
  2
AcDbLongTransaction
  3
AutoCAD 2000
 90
        0
280
     0
281
     0
  0
CLASS
  1
LWPOLYLINE
  2
AcDbPolyline
  3
AutoCAD 2000
 90
        0
280
     0
281
     1
  0
CLASS
  1
HATCH
  2
AcDbHatch
  3
AutoCAD 2000
 90
        0
280
     0
281
     1
  0
CLASS
  1
XRECORD
  2
AcDbXrecord
  3
AutoCAD 2000
 90
        0
280
     0
281
     0
  0
CLASS
  1
LONG_TRANSACTION
  2
AcDbLongTransaction
  3
AutoCAD 2000
 90
        0
280
     0
281
     0
  0
CLASS
  1
LWPOLYLINE
  2
AcDbPolyline
  3
AutoCAD 2000
 90
        0
280
     0
281
     1
  0
CLASS
  1
HATCH
  2
AcDbHatch
  3
AutoCAD 2000
 90
        0
280
     0
281
     1
  0
CLASS
  1
XRECORD
  2
AcDbXrecord
  3
AutoCAD 2000
 90
        0
280
     0
281
     0
  0
CLASS
  1
LONG_TRANSACTION
  2
AcDbLongTransaction
  3
AutoCAD 2000
 90
        0
280
     0
281
     0
  0
CLASS
  1
LWPOLYLINE
  2
AcDbPolyline
  3
AutoCAD 2000
 90
        0
280
     0
281
     1
  0
CLASS
  1
HATCH
  2
AcDbHatch
  3
AutoCAD 2000
 90
        0
280
     0
281
     1
  0
CLASS
  1
XRECORD
  2
AcDbXrecord
  3
AutoCAD 2000
 90
        0
280
     0
281
     0
  0
CLASS
  1
LONG_TRANSACTION
  2
AcDbLongTransaction
  3
AutoCAD 2000
 90
        0
280
     0
281
     0
  0
CLASS
  1
LWPOLYLINE
  2
AcDbPolyline
  3
AutoCAD 2000
 90
        0
280
     0
281
     1
  0
CLASS
  1
HATCH
  2
AcDbHatch
  3
AutoCAD 2000
 90
        0
280
     0
281
     1
  0
CLASS
  1
XRECORD
  2
AcDbXrecord
  3
AutoCAD 2000
 90
        0
280
     0
281
     0
  0
CLASS
  1
LONG_TRANSACTION
  2
AcDbLongTransaction
  3
AutoCAD 2000
 90
        0
280
     0
281
     0
  0
CLASS
  1
LWPOLYLINE
  2
AcDbPolyline
  3
AutoCAD 2000
 90
        0
280
     0
281
     1
  0
CLASS
  1
HATCH
  2
AcDbHatch
  3
AutoCAD 2000
 90
        0
280
     0
281
     1
  0
CLASS
  1
XRECORD
  2
AcDbXrecord
  3
AutoCAD 2000
 90
        0
280
     0
281
     0
  0
CLASS
  1
LONG_TRANSACTION
  2
AcDbLongTransaction
  3
AutoCAD 2000
 90
        0
280
     0
281
     0
  0
CLASS
  1
LWPOLYLINE
  2
AcDbPolyline
  3
AutoCAD 2000
 90
        0
280
     0
281
     1
  0
CLASS
  1
HATCH
  2
AcDbHatch
  3
AutoCAD 2000
 90
        0
280
     0
281
     1
  0
CLASS
  1
XRECORD
  2
AcDbXrecord
  3
AutoCAD 2000
 90
        0
280
     0
281
     0
  0
CLASS
  1
LONG_TRANSACTION
  2
AcDbLongTransaction
  3
AutoCAD 2000
 90
        0
280
     0
281
     0
  0
CLASS
  1
LWPOLYLINE
  2
AcDbPolyline
  3
AutoCAD 2000
 90
        0
280
     0
281
     1
  0
CLASS
  1
HATCH
  2
AcDbHatch
  3
AutoCAD 2000
 90
        0
280
     0
281
     1
  0
CLASS
  1
XRECORD
  2
AcDbXrecord
  3
AutoCAD 2000
 90
        0
280
     0
281
     0
  0
CLASS
  1
LONG_TRANSACTION
  2
AcDbLongTransaction
  3
AutoCAD 2000
 90
        0
280
     0
281
     0
  0
CLASS
  1
LWPOLYLINE
  2
AcDbPolyline
  3
AutoCAD 2000
 90
        0
280
     0
281
     1
  0
CLASS
  1
HATCH
  2
AcDbHatch
  3
AutoCAD 2000
 90
        0
280
     0
281
     1
  0
CLASS
  1
XRECORD
  2
AcDbXrecord
  3
AutoCAD 2000
 90
        0
280
     0
281
     0
  0
CLASS
  1
LONG_TRANSACTION
  2
AcDbLongTransaction
  3
AutoCAD 2000
 90
        0
280
     0
281
     0
  0
CLASS
  1
LWPOLYLINE
  2
AcDbPolyline
  3
AutoCAD 2000
 90
        0
280
     0
281
     1
  0
CLASS
  1
HATCH
  2
AcDbHatch
  3
AutoCAD 2000
 90
        0
280
     0
281
     1
  0
CLASS
  1
XRECORD
  2
AcDbXrecord
  3
AutoCAD 2000
 90
        0
280
     0
281
     0
  0
CLASS
  1
LONG_TRANSACTION
  2
AcDbLongTransaction
  3
AutoCAD 2000
 90
        0
280
     0
281
     0
  0
CLASS
  1
LWPOLYLINE
  2
AcDbPolyline
  3
AutoCAD 2000
 90
        0
280
     0
281
     1
  0
CLASS
  1
HATCH
  2
AcDbHatch
  3
AutoCAD 2000
 90
        0
280
     0
281
     1
  0
CLASS
  1
XRECORD
  2
AcDbXrecord
  3
AutoCAD 2000
 90
        0
280
     0
281
     0
  0
CLASS
  1
LONG_TRANSACTION
  2
AcDbLongTransaction
  3
AutoCAD 2000
 90
        0
280
     0
281
     0
  0
CLASS
  1
LWPOLYLINE
  2
AcDbPolyline
  3
AutoCAD 2000
 90
        0
280
     0
281
     1
  0
CLASS
  1
HATCH
  2
AcDbHatch
  3
AutoCAD 2000
 90
        0
280
     0
281
     1
  0
CLASS
  1
XRECORD
  2
AcDbXrecord
  3
AutoCAD 2000
 90
        0
280
     0
281
     0
  0
CLASS
  1
LONG_TRANSACTION
  2
AcDbLongTransaction
  3
AutoCAD 2000
 90
        0
280
     0
281
     0
  0
CLASS
  1
LWPOLYLINE
  2
AcDbPolyline
  3
AutoCAD 2000
 90
        0
280
     0
281
     1
  0
CLASS
  1
HATCH
  2
AcDbHatch
  3
AutoCAD 2000
 90
        0
280
     0
281
     1
  0
CLASS
  1
XRECORD
  2
AcDbXrecord
  3
AutoCAD 2000
 90
        0
280
     0
281
     0
  0
CLASS
  1
LONG_TRANSACTION
  2
AcDbLongTransaction
  3
AutoCAD 2000
 90
        0
280
     0
281
     0
  0
CLASS
  1
LWPOLYLINE
  2
AcDbPolyline
  3
AutoCAD 2000
 90
        0
280
     0
281
     1
  0
CLASS
  1
HATCH
  2
AcDbHatch
  3
AutoCAD 2000
 90
        0
280
     0
281
     1
  0
CLASS
  1
XRECORD
  2
AcDbXrecord
  3
AutoCAD 2000
 90
        0
280
     0
281
     0
  0
CLASS
  1
LONG_TRANSACTION
  2
AcDbLongTransaction
  3
AutoCAD 2000
 90
        0
280
     0
281
     0
  0
CLASS
  1
LWPOLYLINE
  2
AcDbPolyline
  3
AutoCAD 2000
 90
        0
280
     0
281
     1
  0
CLASS
  1
HATCH
  2
AcDbHatch
  3
AutoCAD 2000
 90
        0
280
     0
281
     1
  0
CLASS
  1
XRECORD
  2
AcDbXrecord
  3
AutoCAD 2000
 90
        0
280
     0
281
     0
  0
CLASS
  1
LONG_TRANSACTION
  2
AcDbLongTransaction
  3
AutoCAD 2000
 90
        0
280
     0
281
     0
  0
CLASS
  1
LWPOLYLINE
  2
AcDbPolyline
  3
AutoCAD 2000
 90
        0
280
     0
281
     1
  0
CLASS
  1
HATCH
  2
AcDbHatch
  3
AutoCAD 2000
 90
        0
280
     0
281
     1
  0
CLASS
  1
XRECORD
  2
AcDbXrecord
  3
AutoCAD 2000
 90
        0
280
     0
281
     0
  0
CLASS
  1
LONG_TRANSACTION
  2
AcDbLongTransaction
  3
AutoCAD 2000
 90
        0
280
     0
281
     0
  0
CLASS
  1
LWPOLYLINE
  2
AcDbPolyline
  3
AutoCAD 2000
 90
        0
280
     0
281
     1
  0
CLASS
  1
HATCH
  2
AcDbHatch
  3
AutoCAD 2000
 90
        0
280
     0
281
     1
  0
CLASS
  1
XRECORD
  2
AcDbXrecord
  3
AutoCAD 2000
 90
        0
280
     0
281
     0
  0
CLASS
  1
LONG_TRANSACTION
  2
AcDbLongTransaction
  3
AutoCAD 2000
 90
        0
280
     0
281
     0
  0
CLASS
  1
LWPOLYLINE
  2
AcDbPolyline
  3
AutoCAD 2000
 90
        0
280
     0
281
     1
  0
CLASS
  1
HATCH
  2
AcDbHatch
  3
AutoCAD 2000
 90
        0
280
     0
281
     1
  0
CLASS
  1
XRECORD
  2
AcDbXrecord
  3
AutoCAD 2000
 90
        0
280
     0
281
     0
  0
CLASS
  1
LONG_TRANSACTION
  2
AcDbLongTransaction
  3
AutoCAD 2000
 90
        0
280
     0
281
     0
  0
CLASS
  1
LWPOLYLINE
  2
AcDbPolyline
  3
AutoCAD 2000
 90
        0
280
     0
281
     1
  0
CLASS
  1
HATCH
  2
AcDbHatch
  3
AutoCAD 2000
 90
        0
280
     0
281
     1
  0
CLASS
  1
XRECORD
  2
AcDbXrecord
  3
AutoCAD 2000
 90
        0
280
     0
281
     0
  0
CLASS
  1
LONG_TRANSACTION
  2
AcDbLongTransaction
  3
AutoCAD 2000
 90
        0
280
     0
281
     0
  0
CLASS
  1
LWPOLYLINE
  2
AcDbPolyline
  3
AutoCAD 2000
 90
        0
280
     0
281
     1
  0
CLASS
  1
HATCH
  2
AcDbHatch
  3
AutoCAD 2000
 90
        0
280
     0
281
     1
  0
CLASS
  1
XRECORD
  2
AcDbXrecord
  3
AutoCAD 2000
 90
        0
280
     0
281
     0
  0
CLASS
  1
LONG_TRANSACTION
  2
AcDbLongTransaction
  3
AutoCAD 2000
 90
        0
280
     0
281
     0
  0
CLASS
  1
LWPOLYLINE
  2
AcDbPolyline
  3
AutoCAD 2000
 90
        0
280
     0
281
     1
  0
CLASS
  1
HATCH
  2
AcDbHatch
  3
AutoCAD 2000
 90
        0
280
     0
281
     1
  0
CLASS
  1
XRECORD
  2
AcDbXrecord
  3
AutoCAD 2000
 90
        0
280
     0
281
     0
  0
CLASS
  1
LONG_TRANSACTION
  2
AcDbLongTransaction
  3
AutoCAD 2000
 90
        0
280
     0
281
     0
  0
CLASS
  1
LWPOLYLINE
  2
AcDbPolyline
  3
AutoCAD 2000
 90
        0
280
     0
281
     1
  0
CLASS
  1
HATCH
  2
AcDbHatch
  3
AutoCAD 2000
 90
        0
280
     0
281
     1
  0
CLASS
  1
XRECORD
  2
AcDbXrecord
  3
AutoCAD 2000
 90
        0
280
     0
281
     0
  0
CLASS
  1
LONG_TRANSACTION
  2
AcDbLongTransaction
  3
AutoCAD 2000
 90
        0
280
     0
281
     0
  0
CLASS
  1
LWPOLYLINE
  2
AcDbPolyline
  3
AutoCAD 2000
 90
        0
280
     0
281
     1
  0
CLASS
  1
HATCH
  2
AcDbHatch
  3
AutoCAD 2000
 90
        0
280
     0
281
     1
  0
CLASS
  1
XRECORD
  2
AcDbXrecord
  3
AutoCAD 2000
 90
        0
280
     0
281
     0
  0
CLASS
  1
LONG_TRANSACTION
  2
AcDbLongTransaction
  3
AutoCAD 2000
 90
        0
280
     0
281
     0
  0
CLASS
  1
LWPOLYLINE
  2
AcDbPolyline
  3
AutoCAD 2000
 90
        0
280
     0
281
     1
  0
CLASS
  1
HATCH
  2
AcDbHatch
  3
AutoCAD 2000
 90
        0
280
     0
281
     1
  0
CLASS
  1
XRECORD
  2
AcDbXrecord
  3
AutoCAD 2000
 90
        0
280
     0
281
     0
  0
CLASS
  1
LONG_TRANSACTION
  2
AcDbLongTransaction
  3
AutoCAD 2000
 90
        0
280
     0
281
     0
  0
CLASS
  1
LWPOLYLINE
  2
AcDbPolyline
  3
AutoCAD 2000
 90
        0
280
     0
281
     1
  0
CLASS
  1
HATCH
  2
AcDbHatch
  3
AutoCAD 2000
 90
        0
280
     0
281
     1
  0
CLASS
  1
XRECORD
  2
AcDbXrecord
  3
AutoCAD 2000
 90
        0
280
     0
281
     0
  0
CLASS
  1
LONG_TRANSACTION
  2
AcDbLongTransaction
  3
AutoCAD 2000
 90
        0
280
     0
281
     0
  0
CLASS
  1
LWPOLYLINE
  2
AcDbPolyline
  3
AutoCAD 2000
 90
        0
280
     0
281
     1
  0
CLASS
  1
HATCH
  2
AcDbHatch
  3
AutoCAD 2000
 90
        0
280
     0
281
     1
  0
CLASS
  1
XRECORD
  2
AcDbXrecord
  3
AutoCAD 2000
 90
        0
280
     0
281
     0
  0
CLASS
  1
LONG_TRANSACTION
  2
AcDbLongTransaction
  3
AutoCAD 2000
 90
        0
280
     0
281
     0
  0
CLASS
  1
LWPOLYLINE
  2
AcDbPolyline
  3
AutoCAD 2000
 90
        0
280
     0
281
     1
  0
CLASS
  1
HATCH
  2
AcDbHatch
  3
AutoCAD 2000
 90
        0
280
     0
281
     1
  0
CLASS
  1
XRECORD
  2
AcDbXrecord
  3
AutoCAD 2000
 90
        0
280
     0
281
     0
  0
CLASS
  1
LONG_TRANSACTION
  2
AcDbLongTransaction
  3
AutoCAD 2000
 90
        0
280
     0
281
     0
  0
CLASS
  1
LWPOLYLINE
  2
AcDbPolyline
  3
AutoCAD 2000
 90
        0
280
     0
281
     1
  0
CLASS
  1
HATCH
  2
AcDbHatch
  3
AutoCAD 2000
 90
        0
280
     0
281
     1
  0
CLASS
  1
XRECORD
  2
AcDbXrecord
  3
AutoCAD 2000
 90
        0
280
     0
281
     0
  0
CLASS
  1
LONG_TRANSACTION
  2
AcDbLongTransaction
  3
AutoCAD 2000
 90
        0
280
     0
281
     0
  0
CLASS
  1
LWPOLYLINE
  2
AcDbPolyline
  3
AutoCAD 2000
 90
        0
280
     0
281
     1
  0
CLASS
  1
HATCH
  2
AcDbHatch
  3
AutoCAD 2000
 90
        0
280
     0
281
     1
  0
CLASS
  1
XRECORD
  2
AcDbXrecord
  3
AutoCAD 2000
 90
        0
280
     0
281
     0
  0
CLASS
  1
LONG_TRANSACTION
  2
AcDbLongTransaction
  3
AutoCAD 2000
 90
        0
280
     0
281
     0
  0
CLASS
  1
LWPOLYLINE
  2
AcDbPolyline
  3
AutoCAD 2000
 90
        0
280
     0
281
     1
  0
CLASS
  1
HATCH
  2
AcDbHatch
  3
AutoCAD 2000
 90
        0
280
     0
281
     1
  0
CLASS
  1
XRECORD
  2
AcDbXrecord
  3
AutoCAD 2000
 90
        0
280
     0
281
     0
  0
CLASS
  1
LONG_TRANSACTION
  2
AcDbLongTransaction
  3
AutoCAD 2000
 90
        0
280
     0
281
     0
  0
CLASS
  1
LWPOLYLINE
  2
AcDbPolyline
  3
AutoCAD 2000
 90
        0
280
     0
281
     1
  0
CLASS
  1
HATCH
  2
AcDbHatch
  3
AutoCAD 2000
 90
        0
280
     0
281
     1
  0
CLASS
  1
XRECORD
  2
AcDbXrecord
  3
AutoCAD 2000
 90
        0
280
     0
281
     0
  0
CLASS
  1
LONG_TRANSACTION
  2
AcDbLongTransaction
  3
AutoCAD 2000
 90
        0
280
     0
281
     0
  0
CLASS
  1
LWPOLYLINE
  2
AcDbPolyline
  3
AutoCAD 2000
 90
        0
280
     0
281
     1
  0
CLASS
  1
HATCH
  2
AcDbHatch
  3
AutoCAD 2000
 90
        0
280
     0
281
     1
  0
CLASS
  1
XRECORD
  2
AcDbXrecord
  3
AutoCAD 2000
 90
        0
280
     0
281
     0
  0
CLASS
  1
LONG_TRANSACTION
  2
AcDbLongTransaction
  3
AutoCAD 2000
 90
        0
280
     0
281
     0
  0
CLASS
  1
LWPOLYLINE
  2
AcDbPolyline
  3
AutoCAD 2000
 90
        0
280
     0
281
     1
  0
CLASS
  1
HATCH
  2
AcDbHatch
  3
AutoCAD 2000
 90
        0
280
     0
281
     1
  0
CLASS
  1
XRECORD
  2
AcDbXrecord
  3
AutoCAD 2000
 90
        0
280
     0
281
     0
  0
CLASS
  1
LONG_TRANSACTION
  2
AcDbLongTransaction
  3
AutoCAD 2000
 90
        0
280
     0
281
     0
  0
CLASS
  1
LWPOLYLINE
  2
AcDbPolyline
  3
AutoCAD 2000
 90
        0
280
     0
281
     1
  0
CLASS
  1
HATCH
  2
AcDbHatch
  3
AutoCAD 2000
 90
        0
280
     0
281
     1
  0
CLASS
  1
XRECORD
  2
AcDbXrecord
  3
AutoCAD 2000
 90
        0
280
     0
281
     0
  0
ENDSEC
  0
SECTION
  2
TABLES
  0
TABLE
  2
VPORT
  5
8
330
0
100
AcDbSymbolTable
 70
     1
  0
VPORT
  5
15C87
330
8
100
AcDbSymbolTableRecord
100
AcDbViewportTableRecord
  2
*ACTIVE
 70
     0
 10
0.0
 20
0.0
 11
1.0
 21
1.0
 12
16.39999997082171
 22
10.43973949646461
 13
0.0
 23
0.0
 14
0.5
 24
0.5
 15
0.5
 25
0.5
 16
0.0
 26
0.0
 36
1.0
 17
0.0
 27
0.0
 37
0.0
 40
21.51963764104891
 41
1.53188775510204
 42
50.0
 43
0.0
 44
0.0
 50
0.0
 51
0.0
 71
     0
 72
   100
 73
     1
 74
     2
 75
     0
 76
     0
 77
     0
 78
     0
  0
ENDTAB
  0
TABLE
  2
LTYPE
  5
5
330
0
100
AcDbSymbolTable
 70
     6
  0
LTYPE
  5
14
330
5
100
AcDbSymbolTableRecord
100
AcDbLinetypeTableRecord
  2
BYBLOCK
 70
     0
  3

 72
    65
 73
     0
 40
0.0
  0
LTYPE
  5
15
330
5
100
AcDbSymbolTableRecord
100
AcDbLinetypeTableRecord
  2
BYLAYER
 70
     0
  3

 72
    65
 73
     0
 40
0.0
  0
LTYPE
  5
16
330
5
100
AcDbSymbolTableRecord
100
AcDbLinetypeTableRecord
  2
CONTINUOUS
 70
     0
  3
Solid line
 72
    65
 73
     0
 40
0.0
  0
LTYPE
  5
3D
330
5
100
AcDbSymbolTableRecord
100
AcDbLinetypeTableRecord
  2
CENTER2
 70
     0
  3
Center (.5x) ___ _ ___ _ ___ _ ___ _ ___ _ ___
 72
    65
 73
     4
 40
1.125
 49
0.75
 74
     0
 49
-0.125
 74
     0
 49
0.125
 74
     0
 49
-0.125
 74
     0
  0
LTYPE
  5
3E
330
5
100
AcDbSymbolTableRecord
100
AcDbLinetypeTableRecord
  2
DASHDOT2
 70
     0
  3
Dash dot (.5x) _._._._._._._._._._._._._._._.
 72
    65
 73
     4
 40
0.5
 49
0.25
 74
     0
 49
-0.125
 74
     0
 49
0.0
 74
     0
 49
-0.125
 74
     0
  0
LTYPE
  5
3F
330
5
100
AcDbSymbolTableRecord
100
AcDbLinetypeTableRecord
  2
DASHED2
 70
     0
  3
Dashed (.5x) _ _ _ _ _ _ _ _ _ _ _ _ _ _ _ _ _
 72
    65
 73
     2
 40
0.375
 49
0.25
 74
     0
 49
-0.125
 74
     0
  0
LTYPE
  5
40
330
5
100
AcDbSymbolTableRecord
100
AcDbLinetypeTableRecord
  2
HIDDEN2
 70
     0
  3
Hidden (.5x) _ _ _ _ _ _ _ _ _ _ _ _ _ _ _ _ _
 72
    65
 73
     2
 40
0.1875
 49
0.125
 74
     0
 49
-0.0625
 74
     0
  0
LTYPE
  5
41
330
5
100
AcDbSymbolTableRecord
100
AcDbLinetypeTableRecord
  2
PHANTOM2
 70
     0
  3
Phantom (.5x) ___ _ _ ___ _ _ ___ _ _ ___ _ _
 72
    65
 73
     6
 40
1.25
 49
0.625
 74
     0
 49
-0.125
 74
     0
 49
0.125
 74
     0
 49
-0.125
 74
     0
 49
0.125
 74
     0
 49
-0.125
 74
     0
  0
ENDTAB
  0
TABLE
  2
LAYER
  5
2
330
0
100
AcDbSymbolTable
 70
    25
  0
LAYER
  5
10
330
2
100
AcDbSymbolTableRecord
100
AcDbLayerTableRecord
  2
0
 70
     0
 62
     7
  6
CONTINUOUS
  0
LAYER
  5
42
330
2
100
AcDbSymbolTableRecord
100
AcDbLayerTableRecord
  2
BLOCKS
 70
     0
 62
     7
  6
CONTINUOUS
  0
LAYER
  5
43
330
2
100
AcDbSymbolTableRecord
100
AcDbLayerTableRecord
  2
CENTER1
 70
     0
 62
     2
  6
CENTER2
  0
LAYER
  5
44
330
2
100
AcDbSymbolTableRecord
100
AcDbLayerTableRecord
  2
CENTER2
 70
     0
 62
    50
  6
CENTER2
  0
LAYER
  5
45
330
2
100
AcDbSymbolTableRecord
100
AcDbLayerTableRecord
  2
CENTER3
 70
     0
 62
    51
  6
CENTER2
  0
LAYER
  5
46
330
2
100
AcDbSymbolTableRecord
100
AcDbLayerTableRecord
  2
CONSTRUCTION
 70
     0
 62
   241
  6
DASHED2
  0
LAYER
  5
47
330
2
100
AcDbSymbolTableRecord
100
AcDbLayerTableRecord
  2
CONTINUOUS1
 70
     0
 62
     7
  6
CONTINUOUS
  0
LAYER
  5
48
330
2
100
AcDbSymbolTableRecord
100
AcDbLayerTableRecord
  2
CONTINUOUS2
 70
     0
 62
   254
  6
CONTINUOUS
  0
LAYER
  5
49
330
2
100
AcDbSymbolTableRecord
100
AcDbLayerTableRecord
  2
CONTINUOUS3
 70
     0
 62
   253
  6
CONTINUOUS
  0
LAYER
  5
4A
330
2
100
AcDbSymbolTableRecord
100
AcDbLayerTableRecord
  2
DASHDOT1
 70
     0
 62
     1
  6
DASHDOT2
  0
LAYER
  5
4B
330
2
100
AcDbSymbolTableRecord
100
AcDbLayerTableRecord
  2
DASHDOT2
 70
     0
 62
    10
  6
DASHDOT2
  0
LAYER
  5
4C
330
2
100
AcDbSymbolTableRecord
100
AcDbLayerTableRecord
  2
DASHDOT3
 70
     0
 62
    12
  6
DASHDOT2
  0
LAYER
  5
4D
330
2
100
AcDbSymbolTableRecord
100
AcDbLayerTableRecord
  2
DIM
 70
     0
 62
     2
  6
CONTINUOUS
  0
LAYER
  5
4E
330
2
100
AcDbSymbolTableRecord
100
AcDbLayerTableRecord
  2
HIDDEN1
 70
     0
 62
     5
  6
HIDDEN2
  0
LAYER
  5
4F
330
2
100
AcDbSymbolTableRecord
100
AcDbLayerTableRecord
  2
HIDDEN2
 70
     0
 62
   160
  6
HIDDEN2
  0
LAYER
  5
50
330
2
100
AcDbSymbolTableRecord
100
AcDbLayerTableRecord
  2
HIDDEN3
 70
     0
 62
   162
  6
HIDDEN2
  0
LAYER
  5
52
330
2
100
AcDbSymbolTableRecord
100
AcDbLayerTableRecord
  2
PHANTOM1
 70
     0
 62
     6
  6
PHANTOM2
  0
LAYER
  5
53
330
2
100
AcDbSymbolTableRecord
100
AcDbLayerTableRecord
  2
PHANTOM2
 70
     0
 62
   210
  6
PHANTOM2
  0
LAYER
  5
54
330
2
100
AcDbSymbolTableRecord
100
AcDbLayerTableRecord
  2
PHANTOM3
 70
     0
 62
   212
  6
PHANTOM2
  0
LAYER
  5
55
330
2
100
AcDbSymbolTableRecord
100
AcDbLayerTableRecord
  2
TEXT1
 70
     0
 62
     3
  6
CONTINUOUS
  0
LAYER
  5
56
330
2
100
AcDbSymbolTableRecord
100
AcDbLayerTableRecord
  2
TEXT2
 70
     0
 62
    80
  6
CONTINUOUS
  0
LAYER
  5
57
330
2
100
AcDbSymbolTableRecord
100
AcDbLayerTableRecord
  2
TEXT3
 70
     0
 62
    82
  6
CONTINUOUS
  0
LAYER
  5
58
330
2
100
AcDbSymbolTableRecord
100
AcDbLayerTableRecord
  2
TITLEBLOCK
 70
     0
 62
     9
  6
CONTINUOUS
  0
LAYER
  5
59
330
2
100
AcDbSymbolTableRecord
100
AcDbLayerTableRecord
  2
VIEWPORT
 70
     0
 62
     9
  6
CONTINUOUS
  0
LAYER
  5
13B90
330
2
100
AcDbSymbolTableRecord
100
AcDbLayerTableRecord
  2
DEFPOINTS
 70
     0
 62
     7
  6
CONTINUOUS
  0
ENDTAB
  0
TABLE
  2
STYLE
  5
3
330
0
100
AcDbSymbolTable
 70
     4
  0
STYLE
  5
11
330
3
100
AcDbSymbolTableRecord
100
AcDbTextStyleTableRecord
  2
STANDARD
 70
     0
 40
0.0
 41
1.0
 50
0.0
 71
     0
 42
0.2
  3
txt
  4

  0
STYLE
  5
36
330
3
100
AcDbSymbolTableRecord
100
AcDbTextStyleTableRecord
  2
ROMANS
 70
     0
 40
0.0
 41
1.0
 50
0.0
 71
     0
 42
0.2
  3
romans.shx
  4

  0
STYLE
  5
6CC
330
3
100
AcDbSymbolTableRecord
100
AcDbTextStyleTableRecord
  2
M_STANDARD
 70
     0
 40
0.0
 41
0.8
 50
0.0
 71
     0
 42
0.0
  3
MEDUSA.SHX
  4

  0
STYLE
  5
D51
330
3
100
AcDbSymbolTableRecord
100
AcDbTextStyleTableRecord
  2
SIMPLEX
 70
     0
 40
0.0
 41
1.0
 50
0.0
 71
     0
 42
0.25
  3
SIMPLEX.shx
  4

  0
ENDTAB
  0
TABLE
  2
VIEW
  5
6
330
0
100
AcDbSymbolTable
 70
     0
  0
ENDTAB
  0
TABLE
  2
UCS
  5
7
330
0
100
AcDbSymbolTable
 70
     0
  0
ENDTAB
  0
TABLE
  2
APPID
  5
9
330
0
100
AcDbSymbolTable
 70
    11
  0
APPID
  5
12
330
9
100
AcDbSymbolTableRecord
100
AcDbRegAppTableRecord
  2
ACAD
 70
     0
  0
APPID
  5
6B
330
9
100
AcDbSymbolTableRecord
100
AcDbRegAppTableRecord
  2
DCO15
 70
     0
  0
APPID
  5
370
330
9
100
AcDbSymbolTableRecord
100
AcDbRegAppTableRecord
  2
MCAD_NO_VIS
 70
     0
  0
APPID
  5
371
330
9
100
AcDbSymbolTableRecord
100
AcDbRegAppTableRecord
  2
ACAD_TEMP_GRAPHIC
 70
     0
  0
APPID
  5
387
330
9
100
AcDbSymbolTableRecord
100
AcDbRegAppTableRecord
  2
GENIUS_GENSCREG_15
 70
     0
  0
APPID
  5
389
330
9
100
AcDbSymbolTableRecord
100
AcDbRegAppTableRecord
  2
GENIUS_GENODEF_13
 70
     0
  0
APPID
  5
38A
330
9
100
AcDbSymbolTableRecord
100
AcDbRegAppTableRecord
  2
GENIUS_GENOBJ-N-SDF_13
 70
     0
  0
APPID
  5
38B
330
9
100
AcDbSymbolTableRecord
100
AcDbRegAppTableRecord
  2
GENIUS_GENOENT_13
 70
     0
  0
APPID
  5
38C
330
9
100
AcDbSymbolTableRecord
100
AcDbRegAppTableRecord
  2
GENIUS_GENOREF_13
 70
     0
  0
APPID
  5
38D
330
9
100
AcDbSymbolTableRecord
100
AcDbRegAppTableRecord
  2
GENIUS_GENOLIS_13
 70
     0
  0
APPID
  5
6CE
330
9
100
AcDbSymbolTableRecord
100
AcDbRegAppTableRecord
  2
MED_PRIMTYPE
 70
     0
  0
ENDTAB
  0
TABLE
  2
DIMSTYLE
  5
A
330
0
100
AcDbSymbolTable
 70
     1
  0
DIMSTYLE
105
13A5D
102
{ACAD_REACTORS
330
13C82
330
13BB7
330
13BA9
330
13B8F
330
13EA7
330
13EC0
330
13EF6
330
13F98
330
13FA6
330
13FD9
330
140B3
330
140C1
330
14153
330
14176
330
1443B
330
147D3
330
14BB4
102
}
330
A
100
AcDbSymbolTableRecord
100
AcDbDimStyleTableRecord
  2
SCHNEIDERELECTRIC_DUAL_BEL
 70
     0
  3
\X
  4

  5
SEARROW
  6

  7

 40
0.0
 41
0.07
 42
0.0625
 43
0.38
 44
0.0625
 45
0.001
 46
0.0
 47
0.0
 48
0.0
140
0.1
141
0.09
142
0.0
143
25.4
144
1.0
145
0.0
146
1.0
147
0.04
 71
     0
 72
     0
 73
     1
 74
     1
 75
     0
 76
     0
 77
     0
 78
     4
170
     1
171
     0
172
     0
173
     0
174
     0
175
     0
176
   256
177
   256
178
   256
270
     2
271
     2
272
     2
273
     2
274
     0
340
36
275
     0
280
     0
281
     0
282
     0
283
     1
284
     0
285
     4
286
     0
287
     3
288
     0
  0
ENDTAB
  0
TABLE
  2
BLOCK_RECORD
  5
1
330
0
100
AcDbSymbolTable
 70
    22
  0
BLOCK_RECORD
  5
1F
102
{ACAD_XDICTIONARY
360
73
102
}
330
1
100
AcDbSymbolTableRecord
100
AcDbBlockTableRecord
  2
*MODEL_SPACE
  0
BLOCK_RECORD
  5
1B
102
{ACAD_XDICTIONARY
360
75
102
}
330
1
100
AcDbSymbolTableRecord
100
AcDbBlockTableRecord
  2
*PAPER_SPACE
  0
BLOCK_RECORD
  5
783
330
1
100
AcDbSymbolTableRecord
100
AcDbBlockTableRecord
  2
NEWLAYERS
1001
ACAD
1000
DesignCenter Data
1002
{
1070
     1
1070
     1
1002
}
  0
BLOCK_RECORD
  5
841
330
1
100
AcDbSymbolTableRecord
100
AcDbBlockTableRecord
  2
LOGO-PAD
1001
ACAD
1000
DesignCenter Data
1002
{
1070
     1
1070
     1
1002
}
  0
BLOCK_RECORD
  5
AE5
330
1
100
AcDbSymbolTableRecord
100
AcDbBlockTableRecord
  2
TITLE-PAD
1001
ACAD
1000
DesignCenter Data
1002
{
1070
     1
1070
     1
1002
}
  0
BLOCK_RECORD
  5
D52
330
1
100
AcDbSymbolTableRecord
100
AcDbBlockTableRecord
  2
OEM-NOTES
1001
ACAD
1000
DesignCenter Data
1002
{
1070
     1
1070
     1
1002
}
  0
BLOCK_RECORD
  5
AA81
330
1
100
AcDbSymbolTableRecord
100
AcDbBlockTableRecord
  2
SEARROW
1001
ACAD
1000
DesignCenter Data
1002
{
1070
     1
1070
     1
1002
}
  0
BLOCK_RECORD
  5
13B91
330
1
100
AcDbSymbolTableRecord
100
AcDbBlockTableRecord
  2
*D5
  0
BLOCK_RECORD
  5
13BAA
330
1
100
AcDbSymbolTableRecord
100
AcDbBlockTableRecord
  2
*D6
  0
BLOCK_RECORD
  5
13BB8
330
1
100
AcDbSymbolTableRecord
100
AcDbBlockTableRecord
  2
*D7
  0
BLOCK_RECORD
  5
13C83
330
1
100
AcDbSymbolTableRecord
100
AcDbBlockTableRecord
  2
*D8
  0
BLOCK_RECORD
  5
13EA8
330
1
100
AcDbSymbolTableRecord
100
AcDbBlockTableRecord
  2
*D9
  0
BLOCK_RECORD
  5
13EC1
330
1
100
AcDbSymbolTableRecord
100
AcDbBlockTableRecord
  2
*D10
  0
BLOCK_RECORD
  5
13EF7
330
1
100
AcDbSymbolTableRecord
100
AcDbBlockTableRecord
  2
*D11
  0
BLOCK_RECORD
  5
13F99
330
1
100
AcDbSymbolTableRecord
100
AcDbBlockTableRecord
  2
*D12
  0
BLOCK_RECORD
  5
13FA7
330
1
100
AcDbSymbolTableRecord
100
AcDbBlockTableRecord
  2
*D13
  0
BLOCK_RECORD
  5
13FDA
330
1
100
AcDbSymbolTableRecord
100
AcDbBlockTableRecord
  2
*D14
  0
BLOCK_RECORD
  5
140B4
330
1
100
AcDbSymbolTableRecord
100
AcDbBlockTableRecord
  2
*D15
  0
BLOCK_RECORD
  5
140C2
330
1
100
AcDbSymbolTableRecord
100
AcDbBlockTableRecord
  2
*D16
  0
BLOCK_RECORD
  5
14154
330
1
100
AcDbSymbolTableRecord
100
AcDbBlockTableRecord
  2
*D17
  0
BLOCK_RECORD
  5
14177
330
1
100
AcDbSymbolTableRecord
100
AcDbBlockTableRecord
  2
*D18
  0
BLOCK_RECORD
  5
1443C
330
1
100
AcDbSymbolTableRecord
100
AcDbBlockTableRecord
  2
*D19
  0
BLOCK_RECORD
  5
147D4
330
1
100
AcDbSymbolTableRecord
100
AcDbBlockTableRecord
  2
*D20
  0
BLOCK_RECORD
  5
14BB5
330
1
100
AcDbSymbolTableRecord
100
AcDbBlockTableRecord
  2
*D21
  0
ENDTAB
  0
ENDSEC
  0
SECTION
  2
BLOCKS
  0
BLOCK
  5
20
330
1F
100
AcDbEntity
  8
0
100
AcDbBlockBegin
  2
*MODEL_SPACE
 70
     0
 10
0.0
 20
0.0
 30
0.0
  3
*MODEL_SPACE
  1

  0
ENDBLK
  5
21
330
1F
100
AcDbEntity
  8
0
100
AcDbBlockEnd
  0
BLOCK
  5
1C
330
1B
100
AcDbEntity
 67
     1
  8
0
100
AcDbBlockBegin
  2
*PAPER_SPACE
 70
     0
 10
0.0
 20
0.0
 30
0.0
  3
*PAPER_SPACE
  1

  0
ENDBLK
  5
1D
330
1B
100
AcDbEntity
 67
     1
  8
0
100
AcDbBlockEnd
  0
BLOCK
  5
79C
330
783
100
AcDbEntity
  8
0
100
AcDbBlockBegin
  2
NEWLAYERS
 70
     0
 10
0.0
 20
0.0
 30
0.0
  3
NEWLAYERS
  1

  0
LINE
  5
784
330
783
100
AcDbEntity
  8
PHANTOM1
100
AcDbLine
 10
0.264152010466205
 20
0.3394492053544127
 30
0.0
 11
0.264152010466205
 21
0.1923545555598593
 31
0.0
  0
LINE
  5
785
330
783
100
AcDbEntity
  8
PHANTOM2
100
AcDbLine
 10
0.3018880119612959
 20
0.3394492053544127
 30
0.0
 11
0.3018880119612959
 21
0.1923545555598593
 31
0.0
  0
LINE
  5
786
330
783
100
AcDbEntity
  8
PHANTOM3
100
AcDbLine
 10
0.3396240134565005
 20
0.3394492053544127
 30
0.0
 11
0.3396240134565005
 21
0.1923545555598593
 31
0.0
  0
LINE
  5
787
330
783
100
AcDbEntity
  8
DASHDOT2
100
AcDbLine
 10
0.0
 20
0.3394492053544127
 30
0.0
 11
0.0
 21
0.1923545555598593
 31
0.0
  0
LINE
  5
788
330
783
100
AcDbEntity
  8
DASHDOT3
100
AcDbLine
 10
0.0377360014952046
 20
0.3394492053544127
 30
0.0
 11
0.0377360014952046
 21
0.1923545555598593
 31
0.0
  0
LINE
  5
789
330
783
100
AcDbEntity
  8
DIM
100
AcDbLine
 10
0.0754720029902956
 20
0.3394492053544127
 30
0.0
 11
0.0754720029902956
 21
0.1923545555598593
 31
0.0
  0
LINE
  5
78A
330
783
100
AcDbEntity
  8
HIDDEN1
100
AcDbLine
 10
0.1132080044855002
 20
0.3394492053544127
 30
0.0
 11
0.1132080044855002
 21
0.1923545555598593
 31
0.0
  0
LINE
  5
78B
330
783
100
AcDbEntity
  8
HIDDEN2
100
AcDbLine
 10
0.1509440059807048
 20
0.3394492053544127
 30
0.0
 11
0.1509440059807048
 21
0.1923545555598593
 31
0.0
  0
LINE
  5
78C
330
783
100
AcDbEntity
  8
HIDDEN3
100
AcDbLine
 10
0.1886800074757957
 20
0.3394492053544127
 30
0.0
 11
0.1886800074757957
 21
0.1923545555598593
 31
0.0
  0
LINE
  5
78D
330
783
100
AcDbEntity
  8
TEXT1
100
AcDbLine
 10
0.0
 20
0.1470946497945533
 30
0.0
 11
0.0
 21
0.0
 31
0.0
  0
LINE
  5
78E
330
783
100
AcDbEntity
  8
TEXT2
100
AcDbLine
 10
0.0377360014952046
 20
0.1470946497945533
 30
0.0
 11
0.0377360014952046
 21
0.0
 31
0.0
  0
LINE
  5
78F
330
783
100
AcDbEntity
  8
TEXT3
100
AcDbLine
 10
0.0754720029902956
 20
0.1470946497945533
 30
0.0
 11
0.0754720029902956
 21
0.0
 31
0.0
  0
LINE
  5
790
330
783
100
AcDbEntity
  8
TITLEBLOCK
100
AcDbLine
 10
0.1132080044855002
 20
0.1470946497945533
 30
0.0
 11
0.1132080044855002
 21
0.0
 31
0.0
  0
LINE
  5
791
330
783
100
AcDbEntity
  8
VIEWPORT
100
AcDbLine
 10
0.1509440059807048
 20
0.1470946497945533
 30
0.0
 11
0.1509440059807048
 21
0.0
 31
0.0
  0
LINE
  5
792
330
783
100
AcDbEntity
  8
BLOCKS
100
AcDbLine
 10
0.0377360014952046
 20
0.5318037609142721
 30
0.0
 11
0.0377360014952046
 21
0.3847091111197187
 31
0.0
  0
LINE
  5
793
330
783
100
AcDbEntity
  8
0
100
AcDbLine
 10
0.0
 20
0.5318037609142721
 30
0.0
 11
0.0
 21
0.3847091111197187
 31
0.0
  0
LINE
  5
794
330
783
100
AcDbEntity
  8
CENTER1
100
AcDbLine
 10
0.0754720029902956
 20
0.5318037609142721
 30
0.0
 11
0.0754720029902956
 21
0.3847091111197187
 31
0.0
  0
LINE
  5
795
330
783
100
AcDbEntity
  8
CENTER2
100
AcDbLine
 10
0.1132080044855002
 20
0.5318037609142721
 30
0.0
 11
0.1132080044855002
 21
0.3847091111197187
 31
0.0
  0
LINE
  5
796
330
783
100
AcDbEntity
  8
CENTER3
100
AcDbLine
 10
0.1509440059807048
 20
0.5318037609142721
 30
0.0
 11
0.1509440059807048
 21
0.3847091111197187
 31
0.0
  0
LINE
  5
797
330
783
100
AcDbEntity
  8
CONSTRUCTION
100
AcDbLine
 10
0.1886800074757957
 20
0.5318037609142721
 30
0.0
 11
0.1886800074757957
 21
0.3847091111197187
 31
0.0
  0
LINE
  5
798
330
783
100
AcDbEntity
  8
CONTINUOUS1
100
AcDbLine
 10
0.2264160089710003
 20
0.5318037609142721
 30
0.0
 11
0.2264160089710003
 21
0.3847091111197187
 31
0.0
  0
LINE
  5
799
330
783
100
AcDbEntity
  8
CONTINUOUS2
100
AcDbLine
 10
0.264152010466205
 20
0.5318037609142721
 30
0.0
 11
0.264152010466205
 21
0.3847091111197187
 31
0.0
  0
LINE
  5
79A
330
783
100
AcDbEntity
  8
CONTINUOUS3
100
AcDbLine
 10
0.3018880119612959
 20
0.5318037609142721
 30
0.0
 11
0.3018880119612959
 21
0.3847091111197187
 31
0.0
  0
LINE
  5
79B
330
783
100
AcDbEntity
  8
DASHDOT1
100
AcDbLine
 10
0.3396240134565005
 20
0.5318037609142721
 30
0.0
 11
0.3396240134565005
 21
0.3847091111197187
 31
0.0
  0
ENDBLK
  5
79D
330
783
100
AcDbEntity
  8
0
100
AcDbBlockEnd
  0
BLOCK
  5
852
330
841
100
AcDbEntity
  8
0
100
AcDbBlockBegin
  2
LOGO-PAD
 70
     0
 10
0.0
 20
0.0
 30
0.0
  3
LOGO-PAD
  1

  0
HATCH
  5
842
330
841
100
AcDbEntity
  8
TITLEBLOCK
 62
     0
100
AcDbHatch
 10
0.0
 20
0.0
 30
0.0
210
0.0
220
0.0
230
1.0
  2
SOLID
 70
     1
 71
     0
 91
        2
 92
        1
 93
       11
 72
     2
 10
1.203771209334867
 20
0.3650136751459491
 40
0.021562648149145
 50
90.00000747299615
 51
179.9997683268519
 73
     1
 72
     1
 10
1.182208561185898
 20
0.3650137623336376
 11
1.182208392435807
 21
0.2795138227272444
 72
     2
 10
1.203771079023129
 20
0.2795136821032751
 40
0.0215626865877801
 50
179.9996263378447
 51
269.9998903896797
 73
     1
 72
     1
 10
1.203771037772394
 20
0.2579509955155343
 11
1.330521045577125
 21
0.2579511736405264
 72
     2
 10
1.330521265257171
 20
0.2795136382789064
 40
0.021562464639499
 50
269.9994162661957
 51
311.7040125634689
 73
     1
 72
     1
 10
1.344866398698837
 20
0.2634152834601535
 11
1.352083334663557
 21
0.2579511736405264
 72
     1
 10
1.352083334663557
 20
0.2579511736405264
 11
1.365099386916806
 21
0.2751416404960081
 72
     1
 10
1.365099386916806
 20
0.2751416404960081
 11
1.352083522163621
 21
0.284997066934386
 72
     1
 10
1.352083522163621
 20
0.284997066934386
 11
1.352083690913712
 21
0.3650136723335662
 72
     2
 10
1.330521042764654
 20
0.3650136751460369
 40
0.0215626481490576
 50
359.9999925267666
 51
449.9999925267678
 73
     1
 72
     1
 10
1.330521045577125
 20
0.3865763232950938
 11
1.203771206522485
 21
0.3865763232950938
 97
        0
 92
       16
 93
       10
 72
     2
 10
1.21455271481628
 20
0.3542325202904111
 40
0.0107811520434708
 50
90.00043844291294
 51
179.9999701074038
 73
     1
 72
     1
 10
1.203771562772811
 20
0.3542325259151993
 11
1.203771562772811
 21
0.2902950591455122
 72
     2
 10
1.214552849813946
 20
0.2902948416431456
 40
0.0107812870433294
 50
179.9988441113203
 51
269.9988441346395
 73
     1
 72
     1
 10
1.214552632315967
 20
0.2795135546020104
 11
1.323606134809704
 21
0.2795135546020104
 72
     1
 10
1.323606134809704
 20
0.2795135546020104
 11
1.280867956889135
 21
0.311873265117333
 72
     1
 10
1.280867956889135
 20
0.311873265117333
 11
1.293884009142384
 21
0.3290635557226322
 72
     1
 10
1.293884009142384
 20
0.3290635557226322
 11
1.330521045577125
 21
0.3013240413506308
 72
     1
 10
1.330521045577125
 20
0.3013240413506308
 11
1.330521045577125
 21
0.3542324377902786
 72
     2
 10
1.319739809158772
 20
0.3542324359152127
 40
0.0107812364183532
 50
0.0000099648460607
 51
90.00000996484372
 73
     1
 72
     1
 10
1.319739807283706
 20
0.3650136723335662
 11
1.214552632315967
 21
0.3650136723335662
 97
        0
 75
     0
 76
     1
 98
        1
 10
-7.279586802153931
 20
-0.4081141432880261
  0
HATCH
  5
843
330
841
100
AcDbEntity
  8
TITLEBLOCK
 62
     0
100
AcDbHatch
 10
0.0
 20
0.0
 30
0.0
210
0.0
220
0.0
230
1.0
  2
SOLID
 70
     1
 71
     0
 91
        1
 92
        1
 93
        4
 72
     1
 10
3.703333445713536
 20
0.1990762889281312
 11
1.018147379006204
 21
0.1990762889281312
 72
     1
 10
1.018147379006204
 20
0.1990762889281312
 11
1.018147379006204
 21
0.220706173683743
 72
     1
 10
1.018147379006204
 20
0.220706173683743
 11
3.703333445713536
 21
0.220706173683743
 72
     1
 10
3.703333445713536
 20
0.220706173683743
 11
3.703333445713536
 21
0.1990762889281312
 97
        0
 75
     0
 76
     1
 98
        1
 10
-7.279586802153931
 20
-0.4081141432880261
  0
HATCH
  5
844
330
841
100
AcDbEntity
  8
TITLEBLOCK
 62
     0
100
AcDbHatch
 10
0.0
 20
0.0
 30
0.0
210
0.0
220
0.0
230
1.0
  2
SOLID
 70
     1
 71
     0
 91
        4
 92
        1
 93
        4
 72
     1
 10
0.8306472632318495
 20
0.4814782717956759
 11
0.4556470182475714
 21
0.4814782717956759
 72
     1
 10
0.4556470182475714
 20
0.4814782717956759
 11
0.4556470182475714
 21
0.1064783844396073
 72
     1
 10
0.4556470182475714
 20
0.1064783844396073
 11
0.8306472632318495
 21
0.1064783844396073
 72
     1
 10
0.8306472632318495
 20
0.1064783844396073
 11
0.8306472632318495
 21
0.4814782717956759
 97
        0
 92
        0
 93
       10
 72
     1
 10
0.7368972019857374
 20
0.4177282462416896
 11
0.5193971779121789
 21
0.4177282462416896
 72
     1
 10
0.5193971779121789
 20
0.4177282462416896
 11
0.5193971779121789
 21
0.37460312508514
 72
     1
 10
0.5193971779121789
 20
0.37460312508514
 11
0.5531473465883146
 21
0.37460312508514
 72
     1
 10
0.5531473465883146
 20
0.37460312508514
 11
0.5531473465883146
 21
0.2133535311501431
 72
     1
 10
0.5531473465883146
 20
0.2133535311501431
 11
0.5193971779121789
 21
0.2133535311501431
 72
     1
 10
0.5193971779121789
 20
0.2133535311501431
 11
0.5193971779121789
 21
0.1702282758831428
 72
     1
 10
0.5193971779121789
 20
0.1702282758831428
 11
0.7368972019857374
 21
0.1702282758831428
 72
     1
 10
0.7368972019857374
 20
0.1702282758831428
 11
0.7668970141602749
 21
0.2002283115750982
 72
     1
 10
0.7668970141602749
 20
0.2002283115750982
 11
0.7668970141602749
 21
0.3877281658462506
 72
     1
 10
0.7668970141602749
 20
0.3877281658462506
 11
0.7368972019857374
 21
0.4177282462416896
 97
        0
 92
       16
 93
        4
 72
     1
 10
0.7987720492890098
 20
0.4496031025563197
 11
0.4875220533764768
 21
0.4496031025563197
 72
     1
 10
0.4875220533764768
 20
0.4496031025563197
 11
0.4875220533764768
 21
0.1383533301613751
 72
     1
 10
0.4875220533764768
 20
0.1383533301613751
 11
0.7987720492890098
 21
0.1383533301613751
 72
     1
 10
0.7987720492890098
 20
0.1383533301613751
 11
0.7987720492890098
 21
0.4496031025563197
 97
        0
 92
        0
 93
        4
 72
     1
 10
0.5962724677448641
 20
0.37460312508514
 11
0.5962724677448641
 21
0.2133535311501431
 72
     1
 10
0.5962724677448641
 20
0.2133535311501431
 11
0.7237719824106926
 21
0.2133535311501431
 72
     1
 10
0.7237719824106926
 20
0.2133535311501431
 11
0.7237719824106926
 21
0.37460312508514
 72
     1
 10
0.7237719824106926
 20
0.37460312508514
 11
0.5962724677448641
 21
0.37460312508514
 97
        0
 75
     0
 76
     1
 98
        1
 10
-7.279586802153931
 20
-0.313212194787444
  0
HATCH
  5
845
330
841
100
AcDbEntity
  8
TITLEBLOCK
 62
     0
100
AcDbHatch
 10
0.0
 20
0.0
 30
0.0
210
0.0
220
0.0
230
1.0
  2
SOLID
 70
     1
 71
     0
 91
        1
 92
        1
 93
       26
 72
     1
 10
1.050490193885575
 20
0.3650136723335662
 11
1.138990457951802
 21
0.3650136723335662
 72
     2
 10
1.138990281703138
 20
0.3542326140418093
 40
0.0107810582931976
 50
270.0009366709926
 51
360.0009366862294
 73
     0
 72
     1
 10
1.149771339994895
 20
0.3542324377902786
 11
1.171333797831589
 21
0.3542324377902786
 72
     1
 10
1.171333797831589
 20
0.3542324377902786
 11
1.171333797831589
 21
0.3650136723335662
 72
     2
 10
1.149771243432702
 20
0.365013768896207
 40
0.0215625543991033
 50
359.9997434148255
 51
449.9997434160159
 73
     1
 72
     1
 10
1.149771339994895
 20
0.3865763232950938
 11
1.039708786842066
 21
0.3865763232950938
 72
     2
 10
1.039709408398413
 20
0.3650142939052909
 40
0.0215620293987615
 50
90.00165163282177
 51
180.0014125206716
 73
     1
 72
     1
 10
1.018147379006204
 20
0.3650137623336376
 11
1.018147379006204
 21
0.3334199129435318
 72
     2
 10
1.039709363397143
 20
0.3334193363730153
 40
0.0215619843986475
 50
179.9984679027414
 51
269.9984679437668
 73
     1
 72
     1
 10
1.039708786842066
 20
0.3118573519820755
 11
1.138990457951802
 21
0.311857620107139
 72
     2
 10
1.138990280765661
 20
0.3010765608779043
 40
0.0107810592306907
 50
270.0009416531222
 51
360.0009416684906
 73
     0
 72
     1
 10
1.149771339994895
 20
0.3010763836888712
 11
1.149771508744986
 21
0.2902949691454408
 72
     2
 10
1.138990231076649
 20
0.2902948322713164
 40
0.0107812776692067
 50
359.9992725992319
 51
449.9997907459082
 73
     0
 72
     1
 10
1.138990270451738
 20
0.279513554602181
 11
1.050490193885575
 21
0.2795135546020104
 72
     2
 10
1.05049014888543
 20
0.2902951041454384
 40
0.0107815495435218
 50
89.99976085826782
 51
179.9997608594354
 73
     0
 72
     1
 10
1.039708599342002
 20
0.2902950591455122
 11
1.018147379006204
 21
0.2902950591455122
 72
     1
 10
1.018147379006204
 20
0.2902950591455122
 11
1.018147379006204
 21
0.2795138227272444
 72
     2
 10
1.039709273392517
 20
0.2795130680345569
 40
0.0215618943995203
 50
179.9979945776083
 51
269.9987071039827
 73
     1
 72
     1
 10
1.039708786842066
 20
0.2579511736405264
 11
1.149771339994895
 21
0.2579511736405264
 72
     2
 10
1.149771378432784
 20
0.2795135930396681
 40
0.0215624193991759
 50
269.9998978626289
 51
359.9996636967671
 73
     1
 72
     1
 10
1.171333797831589
 20
0.2795134664769192
 11
1.171333797831589
 21
0.3114825579869829
 72
     2
 10
1.149771333432362
 20
0.3114825645494808
 40
0.0215624643992288
 50
359.9999825621309
 51
449.9999825620359
 73
     1
 72
     1
 10
1.149771339994895
 20
0.3330450289487088
 11
1.050490193885575
 21
0.3330447608234748
 72
     2
 10
1.050490103885701
 20
0.3438262653667981
 40
0.0107815045436989
 50
89.99952171675776
 51
179.9999900368059
 73
     0
 72
     1
 10
1.039708599342002
 20
0.3438262634919964
 11
1.039708786842066
 21
0.3542325259151993
 72
     2
 10
1.050490107634269
 20
0.3542323515402983
 40
0.0107813207936133
 50
180.0009266903443
 51
270.0004583701697
 73
     0
 97
        0
 75
     0
 76
     1
 98
        1
 10
-7.279586802153931
 20
-0.4081141432880261
  0
HATCH
  5
846
330
841
100
AcDbEntity
  8
TITLEBLOCK
 62
     0
100
AcDbHatch
 10
0.0
 20
0.0
 30
0.0
210
0.0
220
0.0
230
1.0
  2
SOLID
 70
     1
 71
     0
 91
        1
 92
        1
 93
       18
 72
     2
 10
2.471082802883087
 20
0.3650137595211706
 40
0.021562563774099
 50
180.0000074732525
 51
269.9997683261728
 73
     0
 72
     1
 10
2.471082715695484
 20
0.3865763232950938
 11
2.586957622645552
 21
0.3865763232950938
 72
     2
 10
2.586957713583391
 20
0.3650135813961111
 40
0.0215627418991744
 50
269.9997583630888
 51
359.999758364108
 73
     0
 72
     1
 10
2.608520455482373
 20
0.3650136723335662
 11
2.608520455482373
 21
0.3542324377902786
 72
     1
 10
2.608520455482373
 20
0.3542324377902786
 11
2.586957622645552
 21
0.3542324377902786
 72
     2
 10
2.576176208103625
 20
0.3542322577916381
 40
0.0107814145434302
 50
0.0009565685814303
 51
90.00095658455173
 73
     1
 72
     1
 10
2.576176028101979
 20
0.3650136723335662
 11
2.481864141488966
 21
0.3650136723335662
 72
     2
 10
2.481864045863444
 20
0.3542323421656055
 40
0.0107813301683848
 50
89.99949181235312
 51
179.9994918168631
 73
     1
 72
     1
 10
2.471082715695484
 20
0.3542324377902786
 11
2.471082715695484
 21
0.2902950591455122
 72
     2
 10
2.481864090863785
 20
0.2902951097704553
 40
0.0107813751684203
 50
180.0002690376259
 51
270.0002690388874
 73
     1
 72
     1
 10
2.481864141488966
 20
0.2795137346021532
 11
2.576176028101979
 21
0.2795135546020104
 72
     2
 10
2.576176073102679
 20
0.2902951041456356
 40
0.010781549543719
 50
269.9997608553225
 51
359.9992825760937
 73
     1
 72
     1
 10
2.586957622645552
 20
0.2902949691454408
 11
2.608520455482373
 21
0.2902950591455122
 72
     1
 10
2.608520455482373
 20
0.2902950591455122
 11
2.608520099232048
 21
0.2795134664769192
 72
     2
 10
2.586957670458414
 20
0.2795136024145366
 40
0.0215624287740632
 50
0.0003612140281018
 51
90.00012704854281
 73
     0
 72
     1
 10
2.586957622645552
 20
0.2579511736405264
 11
2.471082715695484
 21
0.2579511736405264
 72
     2
 10
2.471082667882924
 20
0.2795136024144634
 40
0.02156242877399
 50
89.99987295225965
 51
179.9998729525419
 73
     0
 72
     1
 10
2.449520239108988
 20
0.2795135546020104
 11
2.449520239108988
 21
0.3650137623336376
 97
        0
 75
     0
 76
     1
 98
        1
 10
-7.279586802153931
 20
-0.4081141432880261
  0
HATCH
  5
847
330
841
100
AcDbEntity
  8
TITLEBLOCK
 62
     0
100
AcDbHatch
 10
0.0
 20
0.0
 30
0.0
210
0.0
220
0.0
230
1.0
  2
SOLID
 70
     1
 71
     0
 91
        1
 92
        1
 93
       12
 72
     1
 10
2.026708344139745
 20
0.3865765014202565
 11
1.890208311215626
 21
0.3865765014202565
 72
     1
 10
1.890208311215626
 20
0.3865765014202565
 11
1.890208311215626
 21
0.2579511736405264
 72
     1
 10
1.890208311215626
 20
0.2579511736405264
 11
2.026708344139745
 21
0.2579511736405264
 72
     1
 10
2.026708344139745
 20
0.2579511736405264
 11
2.026708344139745
 21
0.2795135546020104
 72
     1
 10
2.026708344139745
 20
0.2795135546020104
 11
1.911770600302059
 21
0.2795135546020104
 72
     1
 10
1.911770600302059
 20
0.2795135546020104
 11
1.911770600302059
 21
0.3114825579869829
 72
     1
 10
1.911770600302059
 20
0.3114825579869829
 11
2.026708344139745
 21
0.3114825579869829
 72
     1
 10
2.026708344139745
 20
0.3114825579869829
 11
2.026708344139745
 21
0.333044848948566
 72
     1
 10
2.026708344139745
 20
0.333044848948566
 11
1.911770600302059
 21
0.333044848948566
 72
     1
 10
1.911770600302059
 20
0.333044848948566
 11
1.911770600302059
 21
0.3650136723335662
 72
     1
 10
1.911770600302059
 20
0.3650136723335662
 11
2.026708344139745
 21
0.3650136723335662
 72
     1
 10
2.026708344139745
 20
0.3650136723335662
 11
2.026708344139745
 21
0.3865765014202565
 97
        0
 75
     0
 76
     1
 98
        1
 10
-7.279586802153931
 20
-0.4081141432880261
  0
HATCH
  5
848
330
841
100
AcDbEntity
  8
TITLEBLOCK
 62
     0
100
AcDbHatch
 10
0.0
 20
0.0
 30
0.0
210
0.0
220
0.0
230
1.0
  2
SOLID
 70
     1
 71
     0
 91
        2
 92
        1
 93
        8
 72
     1
 10
1.614830743814064
 20
0.3865765014202565
 11
1.531145595393223
 21
0.2579509955155343
 72
     1
 10
1.531145595393223
 20
0.2579509955155343
 11
1.556870855949323
 21
0.2579511736405264
 72
     1
 10
1.556870855949323
 20
0.2579511736405264
 11
1.570898996363819
 21
0.2795135546020104
 72
     1
 10
1.570898996363819
 20
0.2795135546020104
 11
1.673830432358027
 21
0.2795135546020104
 72
     1
 10
1.673830432358027
 20
0.2795135546020104
 11
1.687858760272586
 21
0.2579514417655899
 72
     1
 10
1.687858760272586
 20
0.2579514417655899
 11
1.713583120827973
 21
0.2579514417655899
 72
     1
 10
1.713583120827973
 20
0.2579514417655899
 11
1.629898141157394
 21
0.3865765014202565
 72
     1
 10
1.629898141157394
 20
0.3865765014202565
 11
1.614830743814064
 21
0.3865765014202565
 97
        0
 92
       16
 93
        3
 72
     1
 10
1.622364536235675
 20
0.3586169575295115
 11
1.659801223192726
 21
0.3010763836888712
 72
     1
 10
1.659801223192726
 20
0.3010763836888712
 11
1.584928205528949
 21
0.3010762055637086
 72
     1
 10
1.584928205528949
 20
0.3010762055637086
 11
1.622364348735612
 21
0.3586165994043766
 97
        0
 75
     0
 76
     1
 98
        1
 10
-7.279586802153931
 20
-0.4081141432880261
  0
HATCH
  5
849
330
841
100
AcDbEntity
  8
TITLEBLOCK
 62
     0
100
AcDbHatch
 10
0.0
 20
0.0
 30
0.0
210
0.0
220
0.0
230
1.0
  2
SOLID
 70
     1
 71
     0
 91
        1
 92
        1
 93
       12
 72
     1
 10
1.392021104504447
 20
0.3865765014202565
 11
1.370458815418015
 21
0.3865765014202565
 72
     1
 10
1.370458815418015
 20
0.3865765014202565
 11
1.370458627917951
 21
0.2795138227272444
 72
     2
 10
1.39202114575308
 20
0.2795135133528436
 40
0.0215625178373483
 50
179.999177932392
 51
269.9998903944058
 73
     1
 72
     1
 10
1.392021104504447
 20
0.2579509955155343
 11
1.509583287556818
 21
0.2579511736405264
 72
     2
 10
1.509583335369764
 20
0.2795136024146219
 40
0.0215624287741484
 50
269.9998729512306
 51
359.9996387857453
 73
     1
 72
     1
 10
1.531145764143484
 20
0.2795134664769192
 11
1.531146120393639
 21
0.3865765014202565
 72
     1
 10
1.531146120393639
 20
0.3865765014202565
 11
1.509583287556818
 21
0.3865765014202565
 72
     1
 10
1.509583287556818
 20
0.3865765014202565
 11
1.509583287556818
 21
0.2902950591455122
 72
     2
 10
1.498801916139266
 20
0.290294926019563
 40
0.0107813714183743
 50
359.9992925246018
 51
449.9992925333428
 73
     0
 72
     1
 10
1.49880204926357
 20
0.2795135546020104
 11
1.402802342797695
 21
0.2795135546020104
 72
     2
 10
1.402802382172719
 20
0.2902950197703451
 40
0.0107814651684066
 50
90.00020925010334
 51
180.0002092508632
 73
     0
 72
     1
 10
1.392020917004384
 20
0.2902950591455122
 11
1.392021104504447
 21
0.3865765014202565
 97
        0
 75
     0
 76
     1
 98
        1
 10
-7.279586802153931
 20
-0.4081141432880261
  0
HATCH
  5
84A
330
841
100
AcDbEntity
  8
TITLEBLOCK
 62
     0
100
AcDbHatch
 10
0.0
 20
0.0
 30
0.0
210
0.0
220
0.0
230
1.0
  2
SOLID
 70
     1
 71
     0
 91
        2
 92
        1
 93
       13
 72
     2
 10
1.851958289039648
 20
0.2899198104641797
 40
0.0215625675244637
 50
0.0002565813902296
 51
90.00070498518821
 73
     1
 72
     2
 10
1.851958289040149
 20
0.3330449455099156
 40
0.0215625675245372
 50
269.9992950134807
 51
359.9995092535441
 73
     1
 72
     1
 10
1.873520856563896
 20
0.3330447608234748
 11
1.873520856563896
 21
0.3650136657708798
 72
     2
 10
1.851957894958188
 20
0.3650135398162329
 40
0.0215629616060761
 50
0.0003346789653151
 51
89.99920945081219
 73
     1
 72
     1
 10
1.851958192477166
 20
0.3865765014202565
 11
1.720333350237904
 21
0.3865765014202565
 72
     1
 10
1.720333350237904
 20
0.3865765014202565
 11
1.720333350237904
 21
0.2579511736405264
 72
     1
 10
1.720333350237904
 20
0.2579511736405264
 11
1.741896183074725
 21
0.2579511736405264
 72
     1
 10
1.741896183074725
 20
0.2579511736405264
 11
1.741896183074725
 21
0.3007013215688856
 72
     1
 10
1.741896183074725
 20
0.3007013215688856
 11
1.841176785433827
 21
0.3007013215688856
 72
     2
 10
1.841176693559081
 20
0.2899201789011263
 40
0.0107811426681508
 50
270.0004882631974
 51
360.0004882673548
 73
     0
 72
     1
 10
1.851957836226841
 20
0.289920087025598
 11
1.851958192477166
 21
0.2579511736405264
 72
     1
 10
1.851958192477166
 20
0.2579511736405264
 11
1.873520856563896
 21
0.2579511736405264
 72
     1
 10
1.873520856563896
 20
0.2579511736405264
 11
1.873520856563896
 21
0.2899199070254552
 97
        0
 92
       16
 93
        6
 72
     2
 10
1.841176693559081
 20
0.3542325296658069
 40
0.0107811426681508
 50
270.0004882631974
 51
360.0004882673548
 73
     0
 72
     1
 10
1.851957836226841
 20
0.3542324377902786
 11
1.851958192477166
 21
0.333044848948566
 72
     2
 10
1.841176871684197
 20
0.333044935198247
 40
0.0107813207933138
 50
0.0004583615308307
 51
90.00045836519477
 73
     0
 72
     1
 10
1.841176785433827
 20
0.3222636144052784
 11
1.741896183074725
 21
0.3222638825303419
 72
     1
 10
1.741896183074725
 20
0.3222638825303419
 11
1.741896183074725
 21
0.3650136723335662
 72
     1
 10
1.741896183074725
 20
0.3650136723335662
 11
1.841176785433827
 21
0.3650136723335662
 97
        0
 75
     0
 76
     1
 98
        1
 10
-7.279586802153931
 20
-0.4081141432880261
  0
HATCH
  5
84B
330
841
100
AcDbEntity
  8
TITLEBLOCK
 62
     0
100
AcDbHatch
 10
0.0
 20
0.0
 30
0.0
210
0.0
220
0.0
230
1.0
  2
SOLID
 70
     1
 71
     0
 91
        2
 92
        1
 93
       10
 72
     1
 10
2.168832611988261
 20
0.3650136723335662
 11
2.168832611988261
 21
0.2795135546021492
 72
     1
 10
2.168832611988261
 20
0.2795135546021492
 11
2.148020079641632
 21
0.2795135546021492
 72
     1
 10
2.148020079641632
 20
0.2795135546021492
 11
2.148020079641632
 21
0.2579511736406499
 72
     1
 10
2.148020079641632
 20
0.2579511736406499
 11
2.314895263659607
 21
0.2579511736406499
 72
     2
 10
2.314895311472477
 20
0.2795136024147182
 40
0.0215624287741214
 50
269.9998729514336
 51
359.9996387859474
 73
     1
 72
     1
 10
2.336457740246171
 20
0.2795134664770916
 11
2.336457740246171
 21
0.3650136723335662
 72
     2
 10
2.314895087410214
 20
0.3650138485844006
 40
0.0215626528366775
 50
359.9995316703829
 51
449.999531674211
 73
     1
 72
     1
 10
2.314895263659607
 20
0.386576501420358
 11
2.148020079641632
 21
0.386576501420358
 72
     1
 10
2.148020079641632
 20
0.386576501420358
 11
2.148020079641632
 21
0.3650136723335662
 72
     1
 10
2.148020079641632
 20
0.3650136723335662
 11
2.168832611988261
 21
0.3650136723335662
 97
        0
 92
       16
 93
        6
 72
     1
 10
2.190395257324933
 20
0.3650136723335662
 11
2.304113856616218
 21
0.3650136723335662
 72
     2
 10
2.304113942866619
 20
0.3542323515405775
 40
0.0107813207933337
 50
269.9995416346447
 51
359.9995416383139
 73
     0
 72
     1
 10
2.314895263659607
 20
0.3542324377902877
 11
2.314895263659607
 21
0.2902949691455452
 72
     2
 10
2.304113807866077
 20
0.2902950103956483
 40
0.0107814557936096
 50
0.0002192149982456
 51
89.99974092762393
 73
     0
 72
     1
 10
2.304113856616218
 20
0.2795135546021492
 11
2.190395257324933
 21
0.2795135546021492
 72
     1
 10
2.190395257324933
 20
0.2795135546021492
 11
2.190395257324933
 21
0.3650136723335662
 97
        0
 75
     0
 76
     1
 98
        1
 10
-7.279586802153931
 20
-0.4081141432880261
  0
HATCH
  5
84C
330
841
100
AcDbEntity
  8
TITLEBLOCK
 62
     0
100
AcDbHatch
 10
0.0
 20
0.0
 30
0.0
210
0.0
220
0.0
230
1.0
  2
SOLID
 70
     1
 71
     0
 91
        2
 92
        1
 93
        8
 72
     1
 10
3.241392303571654
 20
0.3865765014202565
 11
3.157707226761072
 21
0.2579509955155343
 72
     1
 10
3.157707226761072
 20
0.2579509955155343
 11
3.183432299816939
 21
0.2579511736405264
 72
     1
 10
3.183432299816939
 20
0.2579511736405264
 11
3.197460983981823
 21
0.2795133764768478
 72
     1
 10
3.197460983981823
 20
0.2795133764768478
 11
3.30039082622498
 21
0.2795135546020104
 72
     1
 10
3.30039082622498
 20
0.2795135546020104
 11
3.314419679139785
 21
0.2579514417655899
 72
     1
 10
3.314419679139785
 20
0.2579514417655899
 11
3.340144583445731
 21
0.2579511736405264
 72
     1
 10
3.340144583445731
 20
0.2579511736405264
 11
3.256459603774981
 21
0.3865765014202565
 72
     1
 10
3.256459603774981
 20
0.3865765014202565
 11
3.241392303571654
 21
0.3865765014202565
 97
        0
 92
       16
 93
        3
 72
     1
 10
3.248925740352245
 20
0.358616778466603
 11
3.211489480646473
 21
0.3010762055637086
 72
     1
 10
3.211489480646473
 20
0.3010762055637086
 11
3.28636178580994
 21
0.3010763836888712
 72
     1
 10
3.28636178580994
 20
0.3010763836888712
 11
3.248925740352245
 21
0.358616778466603
 97
        0
 75
     0
 76
     1
 98
        1
 10
-7.279586802153931
 20
-0.4081141432880261
  0
HATCH
  5
84D
330
841
100
AcDbEntity
  8
TITLEBLOCK
 62
     0
100
AcDbHatch
 10
0.0
 20
0.0
 30
0.0
210
0.0
220
0.0
230
1.0
  2
SOLID
 70
     1
 71
     0
 91
        1
 92
        1
 93
       13
 72
     1
 10
2.838488736968525
 20
0.3865765014202565
 11
2.806145209588674
 21
0.3865765014202565
 72
     1
 10
2.806145209588674
 20
0.3865765014202565
 11
2.806145209588674
 21
0.2579511736405264
 72
     1
 10
2.806145209588674
 20
0.2579511736405264
 11
2.827707667425368
 21
0.2579511736405264
 72
     1
 10
2.827707667425368
 20
0.2579511736405264
 11
2.827707667425368
 21
0.3640633654626753
 72
     1
 10
2.827707667425368
 20
0.3640633654626753
 11
2.899718420719221
 21
0.2579514417655899
 72
     1
 10
2.899718420719221
 20
0.2579514417655899
 11
2.922570860648686
 21
0.2579511736405264
 72
     1
 10
2.922570860648686
 20
0.2579511736405264
 11
2.994582138942956
 21
0.3640642598382782
 72
     1
 10
2.994582138942956
 20
0.3640642598382782
 11
2.994582138942956
 21
0.2579511736405264
 72
     1
 10
2.994582138942956
 20
0.2579511736405264
 11
3.016144596779479
 21
0.2579511736405264
 72
     1
 10
3.016144596779479
 20
0.2579511736405264
 11
3.016144596779479
 21
0.3865765014202565
 72
     1
 10
3.016144596779479
 20
0.3865765014202565
 11
2.983801425649954
 21
0.3865765014202565
 72
     1
 10
2.983801425649954
 20
0.3865765014202565
 11
2.911144640683954
 21
0.2795135546020104
 72
     1
 10
2.911144640683954
 20
0.2795135546020104
 11
2.838488380718199
 21
0.3865765014202565
 97
        0
 75
     0
 76
     1
 98
        1
 10
-7.279586802153931
 20
-0.4081141432880261
  0
HATCH
  5
84E
330
841
100
AcDbEntity
  8
TITLEBLOCK
 62
     0
100
AcDbHatch
 10
0.0
 20
0.0
 30
0.0
210
0.0
220
0.0
230
1.0
  2
SOLID
 70
     1
 71
     0
 91
        2
 92
        1
 93
        8
 72
     1
 10
2.79358243888161
 20
0.2795134664769192
 11
2.793582795131936
 21
0.3650136723335662
 72
     2
 10
2.772020240733041
 20
0.3650137688961994
 40
0.0215625543991104
 50
359.9997434148459
 51
449.999743415997
 73
     1
 72
     1
 10
2.772020337295241
 20
0.3865763232950938
 11
2.640957676673206
 21
0.3865763232950938
 72
     2
 10
2.640957763860811
 20
0.3650137595211699
 40
0.0215625637741002
 50
90.00023167383188
 51
179.9999925267453
 73
     1
 72
     1
 10
2.61939520008671
 20
0.3650137623336376
 11
2.61939520008671
 21
0.2795135546020104
 72
     2
 10
2.640957628860649
 20
0.2795136024144641
 40
0.0215624287739915
 50
180.0001270474597
 51
270.0001270477355
 73
     1
 72
     1
 10
2.640957676673206
 20
0.2579511736405264
 11
2.772020337295241
 21
0.2579511736405264
 72
     2
 10
2.772020197607671
 20
0.2795134149140743
 40
0.0215622412740004
 50
270.000371181646
 51
360.000137014207
 73
     1
 97
        0
 92
       16
 93
        8
 72
     2
 10
2.651738913091431
 20
0.3542324359149649
 40
0.0107812364186015
 50
89.9999900344766
 51
179.999521702949
 73
     1
 72
     1
 10
2.640957676673206
 20
0.3542325259151993
 11
2.640957676673206
 21
0.2902950591455122
 72
     2
 10
2.651738958091508
 20
0.2902950160204556
 40
0.010781281418388
 50
179.9997708172488
 51
269.9997708181704
 73
     1
 72
     1
 10
2.651738914966625
 20
0.2795137346021532
 11
2.761238742751839
 21
0.2795135546020104
 72
     2
 10
2.761238956501978
 20
0.2902951041442614
 40
0.0107815495443698
 50
269.9988640797126
 51
359.9992825833961
 73
     1
 72
     1
 10
2.772020506045503
 20
0.2902949691454408
 11
2.772020337295241
 21
0.3542324377902786
 72
     2
 10
2.761239007127366
 20
0.3542323421656908
 40
0.0107813301682991
 50
0.0005081826837109
 51
90.00050818719378
 73
     1
 72
     1
 10
2.76123891150193
 20
0.3650136723335662
 11
2.651738914966625
 21
0.3650136723335662
 97
        0
 75
     0
 76
     1
 98
        1
 10
-7.279586802153931
 20
-0.4081141432880261
  0
HATCH
  5
84F
330
841
100
AcDbEntity
  8
TITLEBLOCK
 62
     0
100
AcDbHatch
 10
0.0
 20
0.0
 30
0.0
210
0.0
220
0.0
230
1.0
  2
SOLID
 70
     1
 71
     0
 91
        2
 92
        1
 93
        8
 72
     2
 10
3.162769048174736
 20
0.3650134554401196
 40
0.0215630459811904
 50
270.0005663490367
 51
359.9994236862867
 73
     0
 72
     1
 10
3.184332094154836
 20
0.3650136723335662
 11
3.184332094154836
 21
0.3222638825303419
 72
     2
 10
3.162769397256125
 20
0.3222640184675962
 40
0.0215626968991391
 50
0.0003612085718475
 51
90.00036121084693
 73
     0
 72
     1
 10
3.162769261318015
 20
0.3007013215688856
 11
3.052707420665665
 21
0.3007013215688856
 72
     1
 10
3.052707420665665
 20
0.3007013215688856
 11
3.052707420665665
 21
0.2579511736405264
 72
     1
 10
3.052707420665665
 20
0.2579511736405264
 11
3.031144250328662
 21
0.2579511736405264
 72
     1
 10
3.031144250328662
 20
0.2579511736405264
 11
3.031144250328662
 21
0.3865765014202565
 72
     1
 10
3.031144250328662
 20
0.3865765014202565
 11
3.162769261318015
 21
0.3865765014202565
 97
        0
 92
       16
 93
        6
 72
     2
 10
3.151988118650169
 20
0.3542325296657216
 40
0.0107811426682361
 50
270.0004882627443
 51
360.0004882669015
 73
     0
 72
     1
 10
3.162769261318015
 20
0.3542324377902786
 11
3.162769261318015
 21
0.333044848948566
 72
     2
 10
3.151988118650169
 20
0.333044757073123
 40
0.0107811426682367
 50
359.9995117330984
 51
449.9995117372556
 73
     0
 72
     1
 10
3.15198821052483
 20
0.3222636144052784
 11
3.052707420665665
 21
0.3222638825303419
 72
     1
 10
3.052707420665665
 20
0.3222638825303419
 11
3.052707420665665
 21
0.3650136723335662
 72
     1
 10
3.052707420665665
 20
0.3650136723335662
 11
3.15198821052483
 21
0.3650136723335662
 97
        0
 75
     0
 76
     1
 98
        1
 10
-7.279586802153931
 20
-0.4081141432880261
  0
HATCH
  5
850
330
841
100
AcDbEntity
  8
TITLEBLOCK
 62
     0
100
AcDbHatch
 10
0.0
 20
0.0
 30
0.0
210
0.0
220
0.0
230
1.0
  2
SOLID
 70
     1
 71
     0
 91
        1
 92
        1
 93
        9
 72
     1
 10
3.556847887515953
 20
0.3865763232950938
 11
3.525206566844968
 21
0.3865765014202565
 72
     1
 10
3.525206566844968
 20
0.3865765014202565
 11
3.60348814923547
 21
0.3136817019238036
 72
     1
 10
3.60348814923547
 20
0.3136817019238036
 11
3.603486349234383
 21
0.2579511736405264
 72
     1
 10
3.603486349234383
 20
0.2579511736405264
 11
3.625050607072164
 21
0.2579511736405264
 72
     1
 10
3.625050607072164
 20
0.2579511736405264
 11
3.625050607072164
 21
0.3136813437984982
 72
     1
 10
3.625050607072164
 20
0.3136813437984982
 11
3.703331833212512
 21
0.3865766795454191
 72
     1
 10
3.703331833212512
 20
0.3865766795454191
 11
3.671691225042007
 21
0.3865765014202565
 72
     1
 10
3.671691225042007
 20
0.3865765014202565
 11
3.61426955627898
 21
0.3331056458632473
 72
     1
 10
3.61426955627898
 20
0.3331056458632473
 11
3.556847887515953
 21
0.3865763232950938
 97
        0
 75
     0
 76
     1
 98
        1
 10
-7.279586802153931
 20
-0.4081141432880261
  0
HATCH
  5
851
330
841
100
AcDbEntity
  8
TITLEBLOCK
 62
     0
100
AcDbHatch
 10
0.0
 20
0.0
 30
0.0
210
0.0
220
0.0
230
1.0
  2
SOLID
 70
     1
 71
     0
 91
        1
 92
        1
 93
       10
 72
     1
 10
3.376247484495632
 20
0.3865765014202565
 11
3.345207161752892
 21
0.3865765014202565
 72
     1
 10
3.345207161752892
 20
0.3865765014202565
 11
3.345207161752892
 21
0.2579511736405264
 72
     1
 10
3.345207161752892
 20
0.2579511736405264
 11
3.366769638339558
 21
0.2579511736405264
 72
     1
 10
3.366769638339558
 20
0.2579511736405264
 11
3.366769638339558
 21
0.3659393041881229
 72
     1
 10
3.366769638339558
 20
0.3659393041881229
 11
3.48273627034943
 21
0.2579509955155343
 72
     1
 10
3.48273627034943
 20
0.2579509955155343
 11
3.515082122730785
 21
0.2579511736405264
 72
     1
 10
3.515082122730785
 20
0.2579511736405264
 11
3.515082122730785
 21
0.3865765014202565
 72
     1
 10
3.515082122730785
 20
0.3865765014202565
 11
3.49351767739277
 21
0.3865765014202565
 72
     1
 10
3.49351767739277
 20
0.3865765014202565
 11
3.49351767739277
 21
0.277374671329744
 72
     1
 10
3.49351767739277
 20
0.277374671329744
 11
3.376247484495632
 21
0.3865765014202565
 97
        0
 75
     0
 76
     1
 98
        1
 10
-7.279586802153931
 20
-0.4081141432880261
  0
ENDBLK
  5
853
330
841
100
AcDbEntity
  8
0
100
AcDbBlockEnd
  0
BLOCK
  5
AF5
330
AE5
100
AcDbEntity
  8
0
100
AcDbBlockBegin
  2
TITLE-PAD
 70
     2
 10
0.0
 20
0.0
 30
0.0
  3
TITLE-PAD
  1

  0
LWPOLYLINE
  5
B1D
330
AE5
100
AcDbEntity
  8
CONTINUOUS2
 62
     0
100
AcDbPolyline
 90
        7
 70
     1
 43
0.0
 10
16.40000099999999
 20
0.0
 10
16.40000099999999
 20
0.0
 10
16.40000099999999
 20
0.0
 10
8.002461
 20
0.0
 10
8.002461
 20
0.9120019999999993
 10
16.40000099999999
 20
0.9120019999999993
 10
16.40000099999999
 20
0.0
  0
INSERT
  5
B1E
330
AE5
100
AcDbEntity
  8
TITLEBLOCK
 62
     0
100
AcDbBlockReference
  2
LOGO-PAD
 10
12.245701
 20
0.3040000000000003
 30
0.0
  0
LINE
  5
B1F
330
AE5
100
AcDbEntity
  8
CONTINUOUS2
 62
     0
100
AcDbLine
 10
16.40000099999999
 20
0.3040000000000003
 30
0.0
 11
12.245701
 21
0.3040000000000003
 31
0.0
  0
LINE
  5
B20
330
AE5
100
AcDbEntity
  8
CONTINUOUS2
 62
     0
100
AcDbLine
 10
12.245701
 20
0.9120019999999993
 30
0.0
 11
12.245701
 21
0.0
 31
0.0
  0
TEXT
  5
B21
330
AE5
100
AcDbEntity
  8
TEXT1
  6
CONTINUOUS
 62
     0
100
AcDbText
 10
12.36897712113656
 20
0.0611566731182909
 30
0.0
 40
0.0699999951940822
  1
NO.
  7
ROMANS
 11
12.36897712113656
 21
0.096156670715332
 31
0.0
100
AcDbText
 73
     2
  0
TEXT
  5
B22
330
AE5
100
AcDbEntity
  8
TEXT1
  6
CONTINUOUS
 62
     0
100
AcDbText
 10
12.36897712113656
 20
0.1661566731182908
 30
0.0
 40
0.0699999951940822
  1
DWG#
  7
ROMANS
 11
12.36897712113656
 21
0.2011566707153319
 31
0.0
100
AcDbText
 73
     2
  0
ATTDEF
  5
B23
330
AE5
100
AcDbEntity
  8
TEXT1
 62
     0
100
AcDbText
 10
10.10183834893798
 20
0.7474460884590166
 30
0.0
 40
0.1
  1

  7
ROMANS
 72
     4
 11
10.10183834893798
 21
0.7474460884590166
 31
0.0
100
AcDbAttributeDefinition
  3
DESCRIPTION 1
  2
DESCRIPTION 1
 70
     0
  0
ATTDEF
  5
B24
330
AE5
100
AcDbEntity
  8
TEXT1
 62
     0
100
AcDbText
 10
10.10183834893798
 20
0.6017231711406717
 30
0.0
 40
0.1
  1

  7
ROMANS
 72
     4
 11
10.10183834893798
 21
0.6017231711406717
 31
0.0
100
AcDbAttributeDefinition
  3
DESCRIPTION 2
  2
DESCRIPTION 2
 70
     0
  0
ATTDEF
  5
B25
330
AE5
100
AcDbEntity
  8
TEXT1
 62
     0
100
AcDbText
 10
10.10183834893798
 20
0.4560002538223267
 30
0.0
 40
0.08
  1

  7
ROMANS
 72
     4
 11
10.10183834893798
 21
0.4560002538223267
 31
0.0
100
AcDbAttributeDefinition
  3
DESCRIPTION 3
  2
DESCRIPTION 3
 70
     0
  0
ATTDEF
  5
B26
330
AE5
100
AcDbEntity
  8
TEXT1
 62
     0
100
AcDbText
 10
10.10183834893798
 20
0.3202773365039833
 30
0.0
 40
0.08
  1

  7
ROMANS
 72
     4
 11
10.10183834893798
 21
0.3202773365039833
 31
0.0
100
AcDbAttributeDefinition
  3
DESCRIPTION 4
  2
DESCRIPTION 4
 70
     0
  0
ATTDEF
  5
B27
330
AE5
100
AcDbEntity
  8
TEXT1
 62
     0
100
AcDbText
 10
10.10183834893798
 20
0.1845544191856399
 30
0.0
 40
0.08
  1

  7
ROMANS
 72
     4
 11
10.10183834893798
 21
0.1845544191856399
 31
0.0
100
AcDbAttributeDefinition
  3
DESCRIPTION 5
  2
DESCRIPTION 5
 70
     0
  0
ATTDEF
  5
B28
330
AE5
100
AcDbEntity
  8
TEXT1
 62
     0
100
AcDbText
 10
12.74772367103195
 20
0.096540546036505
 30
0.0
 40
0.12
  1

 41
0.9512024731840066
  7
M_STANDARD
 11
12.74772367103195
 21
0.156540546036505
 31
0.0
100
AcDbAttributeDefinition
  3
DRAWING NUMBER
  2
DWGNO
 70
     0
 74
     2
  0
ATTDEF
  5
B29
330
AE5
100
AcDbEntity
  8
TEXT1
 62
     0
100
AcDbText
 10
16.35506454949325
 20
-0.1507193079929352
 30
0.0
 40
0.08
  1

  7
ROMANS
 72
     2
 11
16.35506454949325
 21
-0.1107193079929352
 31
0.0
100
AcDbAttributeDefinition
  3
REF DWG #
  2
REF
 70
     0
 74
     2
  0
ATTDEF
  5
B2A
330
AE5
100
AcDbEntity
  8
TEXT1
 62
     0
100
AcDbText
 10
0.0266402374038712
 20
-0.1507193079929352
 30
0.0
 40
0.08
  1

  7
ROMANS
 11
0.0266402374038712
 21
-0.1107193079929352
 31
0.0
100
AcDbAttributeDefinition
  3
DATE MODIFIED
  2
DATE
 70
     0
 74
     2
  0
LWPOLYLINE
  5
B2B
330
AE5
100
AcDbEntity
  8
CONTINUOUS3
 62
     0
100
AcDbPolyline
 90
        4
 70
   129
 43
0.0
 10
0.0
 20
0.0
 10
16.40000099999999
 20
0.0
 10
16.40000099999999
 20
10.25
 10
0.0
 20
10.25
  0
ENDBLK
  5
AF6
330
AE5
100
AcDbEntity
  8
0
100
AcDbBlockEnd
  0
BLOCK
  5
D84
330
D52
100
AcDbEntity
  8
0
100
AcDbBlockBegin
  2
OEM-NOTES
 70
     0
 10
0.0
 20
0.0
 30
0.0
  3
OEM-NOTES
  1

  0
LWPOLYLINE
  5
D53
330
D52
100
AcDbEntity
  8
TITLEBLOCK
100
AcDbPolyline
 90
        2
 70
     0
 43
0.0128
 10
8.625
 20
1.599999999999996
 10
0.0
 20
1.6
  0
TEXT
  5
D57
330
D52
100
AcDbEntity
  8
TITLEBLOCK
100
AcDbText
 10
0.3131249999999959
 20
0.7406249999999998
 30
0.0
 40
0.13125
  1
BE USED ONLY IN CONFORMANCE WITH INSTRUCTIONS ISSUED BY SQUARE D COMPANY.
 41
0.9
  7
SIMPLEX
 72
     4
 11
4.3125
 21
0.7999999999999999
 31
0.0
100
AcDbText
  0
TEXT
  5
D58
330
D52
100
AcDbEntity
  8
TITLEBLOCK
100
AcDbText
 10
0.2540625000000007
 20
1.045625000000001
 30
0.0
 40
0.13125
  1
HEREON. THIS INFORMATION REMAINS THE PROPERTY OF SQUARE D COMPANY AND MAY
 41
0.9
  7
SIMPLEX
 72
     4
 11
4.3125
 21
1.105000000000001
 31
0.0
100
AcDbText
  0
TEXT
  5
D59
330
D52
100
AcDbEntity
  8
TITLEBLOCK
100
AcDbText
 10
0.3046875
 20
1.338124999999997
 30
0.0
 40
0.13125
  1
"THE SQUARE D COMPANY HAS PROPRIETARY RIGHTS TO THE INFORMATION CONTAINED
 41
0.9
  7
SIMPLEX
 72
     4
 11
4.3125
 21
1.409999999999997
 31
0.0
100
AcDbText
  0
TEXT
  5
D5A
330
D52
100
AcDbEntity
  8
TITLEBLOCK
100
AcDbText
 10
0.6309374999999977
 20
0.4387499999999984
 30
0.0
 40
0.13125
  1
USER SHOULD VERIFY DRAWINGS ARE TO THE LATEST/CURRENT REVISION PRIOR
 41
0.9
  7
SIMPLEX
 72
     4
 11
4.3125
 21
0.4949999999999984
 31
0.0
100
AcDbText
  0
TEXT
  5
D5B
330
D52
100
AcDbEntity
  8
TITLEBLOCK
100
AcDbText
 10
2.5490625
 20
0.1368749999999972
 30
0.0
 40
0.13125
  1
TO INCORPORATING IN A DESIGN FILE."
 41
0.9
  7
SIMPLEX
 72
     4
 11
4.3125
 21
0.2149999999999972
 31
0.0
100
AcDbText
  0
TEXT
  5
D5C
330
D52
100
AcDbEntity
  8
TITLEBLOCK
100
AcDbText
 10
9.046378855339687
 20
0.2629426489623099
 30
0.0
 40
0.112
  1
UNLESS OTHERWISE SPECIFIED DIMENSIONS ARE IN INCHES
 41
0.8
  7
SIMPLEX
 72
     4
 11
11.06451218867302
 21
0.3189426489623099
 31
0.0
100
AcDbText
  0
LWPOLYLINE
  5
D5D
330
D52
100
AcDbEntity
  8
TITLEBLOCK
100
AcDbPolyline
 90
        2
 70
     0
 43
0.0128
 10
8.625
 20
0.9599999999999964
 10
16.00492200000007
 20
0.9599999999999964
  0
TEXT
  5
D61
330
D52
100
AcDbEntity
  8
TITLEBLOCK
100
AcDbText
 10
8.7837120071254
 20
0.5472199999999967
 30
0.0
 40
0.2433162500000002
  1
%%uDO NOT SCALE DRAWING
  7
SIMPLEX
 72
     1
 11
11.06451218867302
 21
0.5472199999999967
 31
0.0
100
AcDbText
  0
LWPOLYLINE
  5
D62
330
D52
100
AcDbEntity
  8
TITLEBLOCK
100
AcDbPolyline
 90
        2
 70
     0
 43
0.0128
 10
8.625
 20
0.9599999999999964
 10
8.625
 20
0.0000000000000009
  0
LWPOLYLINE
  5
D66
330
D52
100
AcDbEntity
  8
TITLEBLOCK
100
AcDbPolyline
 90
        2
 70
     0
 43
0.0128
 10
8.625
 20
0.0000000000000009
 10
8.625
 20
1.6
  0
LWPOLYLINE
  5
D6A
330
D52
100
AcDbEntity
  8
TITLEBLOCK
100
AcDbPolyline
 90
        2
 70
     0
 43
0.0128
 10
13.49242200000007
 20
1.599999999999995
 10
13.49242200000007
 20
0.0000000000000009
  0
TEXT
  5
D6E
330
D52
100
AcDbEntity
  8
TITLEBLOCK
100
AcDbText
 10
13.77242200000007
 20
0.2099999999999964
 30
0.0
 40
0.1
  1
2 PLACE DECIMALS
  7
SIMPLEX
100
AcDbText
  0
TEXT
  5
D6F
330
D52
100
AcDbEntity
  8
TITLEBLOCK
100
AcDbText
 10
13.62242200000007
 20
0.4474999999999972
 30
0.0
 40
0.1
  1
UNLESS OTHERWISE SPECIFIED
  7
SIMPLEX
100
AcDbText
  0
TEXT
  5
D70
330
D52
100
AcDbEntity
  8
TITLEBLOCK
100
AcDbText
 10
15.57242200000007
 20
0.2099999999999964
 30
0.0
 40
0.1
  1
.01
  7
SIMPLEX
100
AcDbText
  0
LINE
  5
D71
330
D52
100
AcDbEntity
  8
TITLEBLOCK
100
AcDbLine
 10
15.35492200000008
 20
0.2187499999999973
 30
0.0
 11
15.45492200000008
 21
0.2187499999999973
 31
0.0
  0
TEXT
  5
D72
330
D52
100
AcDbEntity
  8
TITLEBLOCK
100
AcDbText
 10
15.35992200000007
 20
0.2474999999999961
 30
0.0
 40
0.1
  1
+
  7
SIMPLEX
100
AcDbText
  0
LWPOLYLINE
  5
D73
330
D52
100
AcDbEntity
  8
TITLEBLOCK
100
AcDbPolyline
 90
        2
 70
     0
 43
0.0128
 10
16.00492200000007
 20
1.599999999999995
 10
13.49242200000007
 20
1.599999999999995
  0
TEXT
  5
D77
330
D52
100
AcDbEntity
  8
TITLEBLOCK
100
AcDbText
 10
13.62242200000007
 20
1.147499999999996
 30
0.0
 40
0.1
  1
PROJECTION
  7
SIMPLEX
100
AcDbText
  0
TEXT
  5
D78
330
D52
100
AcDbEntity
  8
TITLEBLOCK
100
AcDbText
 10
13.55992200000007
 20
1.347499999999997
 30
0.0
 40
0.1
  1
THIRD ANGLE
  7
SIMPLEX
100
AcDbText
  0
LINE
  5
D79
330
D52
100
AcDbEntity
  8
TITLEBLOCK
100
AcDbLine
 10
14.69692486880008
 20
1.300351715199997
 30
0.0
 11
15.91292523520008
 21
1.300351715199997
 31
0.0
  0
TEXT
  5
D7A
330
D52
100
AcDbEntity
  8
TITLEBLOCK
100
AcDbText
 10
14.04742200000008
 20
0.6974999999999972
 30
0.0
 40
0.15
  1
%%uTOLERANCES
  7
SIMPLEX
100
AcDbText
  0
LINE
  5
D7B
330
D52
100
AcDbEntity
  8
TITLEBLOCK
100
AcDbLine
 10
14.95292615040008
 20
1.396354294399999
 30
0.0
 11
14.95292615040008
 21
1.524354553599997
 31
0.0
  0
CIRCLE
  5
D7C
330
D52
100
AcDbEntity
  8
TITLEBLOCK
100
AcDbCircle
 10
14.95292615040008
 20
1.300352668799996
 30
0.0
 40
0.1279999615999998
  0
CIRCLE
  5
D7D
330
D52
100
AcDbEntity
  8
TITLEBLOCK
100
AcDbCircle
 10
14.95292615040008
 20
1.300352668799996
 30
0.0
 40
0.064000004799999
  0
LINE
  5
D7E
330
D52
100
AcDbEntity
  8
TITLEBLOCK
100
AcDbLine
 10
14.95292615040008
 20
1.332351302399996
 30
0.0
 11
14.95292615040008
 21
1.268351172799996
 31
0.0
  0
LINE
  5
D7F
330
D52
100
AcDbEntity
  8
TITLEBLOCK
100
AcDbLine
 10
14.95292615040008
 20
1.204351996799997
 30
0.0
 11
14.95292615040008
 21
1.076351737599998
 31
0.0
  0
LINE
  5
D80
330
D52
100
AcDbEntity
  8
TITLEBLOCK
100
AcDbLine
 10
15.78492230560007
 20
1.172351455999998
 30
0.0
 11
15.33692425760007
 21
1.236351585599996
 31
0.0
  0
LINE
  5
D81
330
D52
100
AcDbEntity
  8
TITLEBLOCK
100
AcDbLine
 10
15.33692425760007
 20
1.364351844799998
 30
0.0
 11
15.78492230560007
 21
1.428351020799996
 31
0.0
  0
LINE
  5
D82
330
D52
100
AcDbEntity
  8
TITLEBLOCK
100
AcDbLine
 10
15.33692425760007
 20
1.236351585599996
 30
0.0
 11
15.33692425760007
 21
1.364351844799998
 31
0.0
  0
LINE
  5
D83
330
D52
100
AcDbEntity
  8
TITLEBLOCK
100
AcDbLine
 10
15.78492230560007
 20
1.428351020799996
 30
0.0
 11
15.78492230560007
 21
1.172351455999998
 31
0.0
  0
ENDBLK
  5
D85
330
D52
100
AcDbEntity
  8
0
100
AcDbBlockEnd
  0
BLOCK
  5
AA83
330
AA81
100
AcDbEntity
  8
0
100
AcDbBlockBegin
  2
SEARROW
 70
     0
 10
0.0
 20
0.0
 30
0.0
  3
SEARROW
  1

  0
LWPOLYLINE
  5
AA82
330
AA81
100
AcDbEntity
  8
0
  6
BYBLOCK
100
AcDbPolyline
 90
        2
 70
     0
 10
0.0
 20
0.0
 40
0.0
 41
0.5000000001500001
 10
-1.000000000300019
 20
0.0
 40
0.5000000001500001
 41
0.5000000001500001
  0
ENDBLK
  5
AA84
330
AA81
100
AcDbEntity
  8
0
100
AcDbBlockEnd
  0
BLOCK
  5
13B9D
330
13B91
100
AcDbEntity
  8
0
100
AcDbBlockBegin
  2
*D5
 70
     1
 10
0.0
 20
0.0
 30
0.0
  3
*D5
  1

  0
LINE
  5
1B128
330
13B91
100
AcDbEntity
  8
DIM
100
AcDbLine
 10
20.00859728279464
 20
12.98082797597932
 30
0.0
 11
20.00859728279464
 21
14.73082797597932
 31
0.0
  0
LINE
  5
1B129
330
13B91
100
AcDbEntity
  8
DIM
100
AcDbLine
 10
19.72859728279464
 20
12.87926547597932
 30
0.0
 11
19.72859728279464
 21
14.73082797597932
 31
0.0
  0
LINE
  5
1B12A
330
13B91
100
AcDbEntity
  8
DIM
100
AcDbLine
 10
19.58859728279464
 20
14.60582797597932
 30
0.0
 11
19.44859728279464
 21
14.60582797597932
 31
0.0
  0
LINE
  5
1B12B
330
13B91
100
AcDbEntity
  8
DIM
100
AcDbLine
 10
20.14859728279464
 20
14.60582797597932
 30
0.0
 11
20.28859728279464
 21
14.60582797597932
 31
0.0
  0
INSERT
  5
1B12C
330
13B91
100
AcDbEntity
  8
DIM
100
AcDbBlockReference
  2
SEARROW
 10
19.72859728279464
 20
14.60582797597932
 30
0.0
 41
0.14
 42
0.14
 43
0.14
  0
INSERT
  5
1B12D
330
13B91
100
AcDbEntity
  8
DIM
100
AcDbBlockReference
  2
SEARROW
 10
20.00859728279464
 20
14.60582797597932
 30
0.0
 41
0.14
 42
0.14
 43
0.14
 50
180.0
  0
MTEXT
  5
1B12E
330
13B91
100
AcDbEntity
  8
DIM
100
AcDbMText
 10
20.65431156850892
 20
14.60582797597932
 30
0.0
 40
0.2
 41
0.0
 71
     5
 72
     1
  1
\A1;.28\P [7]
  7
ROMANS
1001
ACAD
1000
MTEXTBEGIN
1070
    73
1070
     1
1070
    44
1040
1.0
1070
    74
1070
     0
1000
MTEXTEND
1000
MTEXTBEGIN
1070
    73
1070
     1
1070
    44
1040
1.0
1070
    74
1070
     0
1000
MTEXTEND
  0
POINT
  5
1B12F
330
13B91
100
AcDbEntity
  8
DEFPOINTS
 62
     0
100
AcDbPoint
 10
20.00859728279464
 20
12.85582797597932
 30
0.0
  0
POINT
  5
1B130
330
13B91
100
AcDbEntity
  8
DEFPOINTS
 62
     0
100
AcDbPoint
 10
19.72859728279464
 20
12.75426547597931
 30
0.0
  0
POINT
  5
1B131
330
13B91
100
AcDbEntity
  8
DEFPOINTS
 62
     0
100
AcDbPoint
 10
19.72859728279464
 20
14.60582797597932
 30
0.0
  0
ENDBLK
  5
13B9E
330
13B91
100
AcDbEntity
  8
0
100
AcDbBlockEnd
  0
BLOCK
  5
13BB5
330
13BAA
100
AcDbEntity
  8
0
100
AcDbBlockBegin
  2
*D6
 70
     1
 10
0.0
 20
0.0
 30
0.0
  3
*D6
  1

  0
LINE
  5
1B132
330
13BAA
100
AcDbEntity
  8
DIM
100
AcDbLine
 10
18.70859728279464
 20
12.98082797597932
 30
0.0
 11
18.70859728279464
 21
13.73082797597932
 31
0.0
  0
LINE
  5
1B133
330
13BAA
100
AcDbEntity
  8
DIM
100
AcDbLine
 10
20.00859728279464
 20
12.98082797597932
 30
0.0
 11
20.00859728279464
 21
13.73082797597932
 31
0.0
  0
LINE
  5
1B134
330
13BAA
100
AcDbEntity
  8
DIM
100
AcDbLine
 10
19.86859728279464
 20
13.60582797597932
 30
0.0
 11
18.84859728279464
 21
13.60582797597932
 31
0.0
  0
LINE
  5
1B135
330
13BAA
100
AcDbEntity
  8
DIM
100
AcDbLine
 10
18.70859728279464
 20
13.60582797597932
 30
0.0
 11
18.56859728279464
 21
13.60582797597932
 31
0.0
  0
INSERT
  5
1B136
330
13BAA
100
AcDbEntity
  8
DIM
100
AcDbBlockReference
  2
SEARROW
 10
20.00859728279464
 20
13.60582797597932
 30
0.0
 41
0.14
 42
0.14
 43
0.14
  0
INSERT
  5
1B137
330
13BAA
100
AcDbEntity
  8
DIM
100
AcDbBlockReference
  2
SEARROW
 10
18.70859728279464
 20
13.60582797597932
 30
0.0
 41
0.14
 42
0.14
 43
0.14
 50
180.0
  0
MTEXT
  5
1B138
330
13BAA
100
AcDbEntity
  8
DIM
100
AcDbMText
 10
18.10764490184226
 20
13.60582797597932
 30
0.0
 40
0.2
 41
0.0
 71
     5
 72
     1
  1
\A1;1.30\P [33]
  7
ROMANS
1001
ACAD
1000
MTEXTBEGIN
1070
    73
1070
     1
1070
    44
1040
1.0
1070
    74
1070
     0
1000
MTEXTEND
1000
MTEXTBEGIN
1070
    73
1070
     1
1070
    44
1040
1.0
1070
    74
1070
     0
1000
MTEXTEND
  0
POINT
  5
1B139
330
13BAA
100
AcDbEntity
  8
DEFPOINTS
 62
     0
100
AcDbPoint
 10
18.70859728279464
 20
12.85582797597932
 30
0.0
  0
POINT
  5
1B13A
330
13BAA
100
AcDbEntity
  8
DEFPOINTS
 62
     0
100
AcDbPoint
 10
20.00859728279464
 20
12.85582797597932
 30
0.0
  0
POINT
  5
1B13B
330
13BAA
100
AcDbEntity
  8
DEFPOINTS
 62
     0
100
AcDbPoint
 10
20.00859728279464
 20
13.60582797597932
 30
0.0
  0
ENDBLK
  5
13BB6
330
13BAA
100
AcDbEntity
  8
0
100
AcDbBlockEnd
  0
BLOCK
  5
13BC3
330
13BB8
100
AcDbEntity
  8
0
100
AcDbBlockBegin
  2
*D7
 70
     1
 10
0.0
 20
0.0
 30
0.0
  3
*D7
  1

  0
LINE
  5
1B13C
330
13BB8
100
AcDbEntity
  8
DIM
100
AcDbLine
 10
25.50954415741835
 20
12.98082797597932
 30
0.0
 11
25.50954415741835
 21
13.73082797597932
 31
0.0
  0
LINE
  5
1B13D
330
13BB8
100
AcDbEntity
  8
DIM
100
AcDbLine
 10
26.80954415741835
 20
12.98082797597932
 30
0.0
 11
26.80954415741835
 21
13.73082797597932
 31
0.0
  0
LINE
  5
1B13E
330
13BB8
100
AcDbEntity
  8
DIM
100
AcDbLine
 10
25.64954415741835
 20
13.60582797597932
 30
0.0
 11
25.69859177646597
 21
13.60582797597932
 31
0.0
  0
LINE
  5
1B13F
330
13BB8
100
AcDbEntity
  8
DIM
100
AcDbLine
 10
26.66954415741835
 20
13.60582797597932
 30
0.0
 11
26.62049653837073
 21
13.60582797597932
 31
0.0
  0
INSERT
  5
1B140
330
13BB8
100
AcDbEntity
  8
DIM
100
AcDbBlockReference
  2
SEARROW
 10
25.50954415741835
 20
13.60582797597932
 30
0.0
 41
0.14
 42
0.14
 43
0.14
 50
180.0
  0
INSERT
  5
1B141
330
13BB8
100
AcDbEntity
  8
DIM
100
AcDbBlockReference
  2
SEARROW
 10
26.80954415741835
 20
13.60582797597932
 30
0.0
 41
0.14
 42
0.14
 43
0.14
  0
MTEXT
  5
1B142
330
13BB8
100
AcDbEntity
  8
DIM
100
AcDbMText
 10
26.15954415741835
 20
13.60582797597932
 30
0.0
 40
0.2
 41
0.0
 71
     5
 72
     1
  1
\A1;1.30\P [33]
  7
ROMANS
1001
ACAD
1000
MTEXTBEGIN
1070
    73
1070
     1
1070
    44
1040
1.0
1070
    74
1070
     0
1000
MTEXTEND
1000
MTEXTBEGIN
1070
    73
1070
     1
1070
    44
1040
1.0
1070
    74
1070
     0
1000
MTEXTEND
  0
POINT
  5
1B143
330
13BB8
100
AcDbEntity
  8
DEFPOINTS
 62
     0
100
AcDbPoint
 10
25.50954415741835
 20
12.85582797597932
 30
0.0
  0
POINT
  5
1B144
330
13BB8
100
AcDbEntity
  8
DEFPOINTS
 62
     0
100
AcDbPoint
 10
26.80954415741835
 20
12.85582797597932
 30
0.0
  0
POINT
  5
1B145
330
13BB8
100
AcDbEntity
  8
DEFPOINTS
 62
     0
100
AcDbPoint
 10
26.80954415741835
 20
13.60582797597932
 30
0.0
  0
ENDBLK
  5
13BC4
330
13BB8
100
AcDbEntity
  8
0
100
AcDbBlockEnd
  0
BLOCK
  5
13C8C
330
13C83
100
AcDbEntity
  8
0
100
AcDbBlockBegin
  2
*D8
 70
     1
 10
0.0
 20
0.0
 30
0.0
  3
*D8
  1

  0
LINE
  5
1B146
330
13C83
100
AcDbEntity
  8
DIM
100
AcDbLine
 10
27.92739816371655
 20
13.20667204522162
 30
0.0
 11
27.78739816371643
 21
13.20667204522162
 31
0.0
  0
LINE
  5
1B147
330
13C83
100
AcDbEntity
  8
DIM
100
AcDbLine
 10
27.78739816371643
 20
13.20667204522162
 30
0.0
 11
26.85974232836226
 21
11.36464608108174
 31
0.0
  0
MTEXT
  5
1B148
330
13C83
100
AcDbEntity
  8
DIM
100
AcDbMText
 10
28.66930292562131
 20
13.20667204522162
 30
0.0
 40
0.2
 41
0.0
 71
     5
 72
     1
  1
\A1;\P2 X \U+2205.21\P [\U+22055]
  7
ROMANS
1001
ACAD
1000
MTEXTBEGIN
1070
    73
1070
     1
1070
    44
1040
1.0
1070
    74
1070
     0
1000
MTEXTEND
1000
MTEXTBEGIN
1070
    73
1070
     1
1070
    44
1040
1.0
1070
    74
1070
     0
1000
MTEXTEND
  0
INSERT
  5
1B149
330
13C83
100
AcDbEntity
  8
DIM
100
AcDbBlockReference
  2
SEARROW
 10
26.79677194496575
 20
11.23960716388035
 30
0.0
 41
0.14
 42
0.14
 43
0.14
 50
243.2698878851141
  0
POINT
  5
1B14A
330
13C83
100
AcDbEntity
  8
DEFPOINTS
 62
     0
100
AcDbPoint
 10
26.79677194496575
 20
11.23960716388035
 30
0.0
  0
POINT
  5
1B14B
330
13C83
100
AcDbEntity
  8
DEFPOINTS
 62
     0
100
AcDbPoint
 10
26.70231636987097
 20
11.05204878807828
 30
0.0
  0
ENDBLK
  5
13C8D
330
13C83
100
AcDbEntity
  8
0
100
AcDbBlockEnd
  0
BLOCK
  5
13EB4
330
13EA8
100
AcDbEntity
  8
0
100
AcDbBlockBegin
  2
*D9
 70
     1
 10
0.0
 20
0.0
 30
0.0
  3
*D9
  1

  0
LINE
  5
1B14C
330
13EA8
100
AcDbEntity
  8
DIM
100
AcDbLine
 10
20.00859728279464
 20
8.260827975979321
 30
0.0
 11
20.00859728279464
 21
7.510827975979321
 31
0.0
  0
LINE
  5
1B14D
330
13EA8
100
AcDbEntity
  8
DIM
100
AcDbLine
 10
19.37859728279464
 20
8.229577975979321
 30
0.0
 11
19.37859728279464
 21
7.510827975979321
 31
0.0
  0
LINE
  5
1B14E
330
13EA8
100
AcDbEntity
  8
DIM
100
AcDbLine
 10
19.51859728279464
 20
7.635827975979321
 30
0.0
 11
19.86859728279464
 21
7.635827975979321
 31
0.0
  0
LINE
  5
1B14F
330
13EA8
100
AcDbEntity
  8
DIM
100
AcDbLine
 10
20.00859728279464
 20
7.635827975979321
 30
0.0
 11
20.14859728279464
 21
7.635827975979321
 31
0.0
  0
INSERT
  5
1B150
330
13EA8
100
AcDbEntity
  8
DIM
100
AcDbBlockReference
  2
SEARROW
 10
19.37859728279464
 20
7.635827975979321
 30
0.0
 41
0.14
 42
0.14
 43
0.14
 50
180.0
  0
INSERT
  5
1B151
330
13EA8
100
AcDbEntity
  8
DIM
100
AcDbBlockReference
  2
SEARROW
 10
20.00859728279464
 20
7.635827975979321
 30
0.0
 41
0.14
 42
0.14
 43
0.14
  0
MTEXT
  5
1B152
330
13EA8
100
AcDbEntity
  8
DIM
100
AcDbMText
 10
20.60954966374703
 20
7.635827975979321
 30
0.0
 40
0.2
 41
0.0
 71
     5
 72
     1
  1
\A1;.63\P [16]
  7
ROMANS
1001
ACAD
1000
MTEXTBEGIN
1070
    73
1070
     1
1070
    44
1040
1.0
1070
    74
1070
     0
1000
MTEXTEND
1000
MTEXTBEGIN
1070
    73
1070
     1
1070
    44
1040
1.0
1070
    74
1070
     0
1000
MTEXTEND
  0
POINT
  5
1B153
330
13EA8
100
AcDbEntity
  8
DEFPOINTS
 62
     0
100
AcDbPoint
 10
20.00859728279464
 20
8.385827975979321
 30
0.0
  0
POINT
  5
1B154
330
13EA8
100
AcDbEntity
  8
DEFPOINTS
 62
     0
100
AcDbPoint
 10
19.37859728279464
 20
8.354577975979321
 30
0.0
  0
POINT
  5
1B155
330
13EA8
100
AcDbEntity
  8
DEFPOINTS
 62
     0
100
AcDbPoint
 10
19.37859728279464
 20
7.635827975979321
 30
0.0
  0
ENDBLK
  5
13EB5
330
13EA8
100
AcDbEntity
  8
0
100
AcDbBlockEnd
  0
BLOCK
  5
13ECC
330
13EC1
100
AcDbEntity
  8
0
100
AcDbBlockBegin
  2
*D10
 70
     1
 10
0.0
 20
0.0
 30
0.0
  3
*D10
  1

  0
LINE
  5
1B156
330
13EC1
100
AcDbEntity
  8
DIM
100
AcDbLine
 10
20.00859728279464
 20
8.260827975979321
 30
0.0
 11
20.00859728279464
 21
6.510827975979321
 31
0.0
  0
LINE
  5
1B157
330
13EC1
100
AcDbEntity
  8
DIM
100
AcDbLine
 10
18.27859728279464
 20
8.385827975979317
 30
0.0
 11
18.27859728279464
 21
6.510827975979321
 31
0.0
  0
LINE
  5
1B158
330
13EC1
100
AcDbEntity
  8
DIM
100
AcDbLine
 10
19.86859728279464
 20
6.635827975979321
 30
0.0
 11
19.60454966374702
 21
6.635827975979321
 31
0.0
  0
LINE
  5
1B159
330
13EC1
100
AcDbEntity
  8
DIM
100
AcDbLine
 10
18.41859728279464
 20
6.635827975979321
 30
0.0
 11
18.68264490184226
 21
6.635827975979321
 31
0.0
  0
INSERT
  5
1B15A
330
13EC1
100
AcDbEntity
  8
DIM
100
AcDbBlockReference
  2
SEARROW
 10
20.00859728279464
 20
6.635827975979321
 30
0.0
 41
0.14
 42
0.14
 43
0.14
  0
INSERT
  5
1B15B
330
13EC1
100
AcDbEntity
  8
DIM
100
AcDbBlockReference
  2
SEARROW
 10
18.27859728279464
 20
6.635827975979321
 30
0.0
 41
0.14
 42
0.14
 43
0.14
 50
180.0
  0
MTEXT
  5
1B15C
330
13EC1
100
AcDbEntity
  8
DIM
100
AcDbMText
 10
19.14359728279464
 20
6.635827975979321
 30
0.0
 40
0.2
 41
0.0
 71
     5
 72
     1
  1
\A1;1.73\P [44]
  7
ROMANS
1001
ACAD
1000
MTEXTBEGIN
1070
    73
1070
     1
1070
    44
1040
1.0
1070
    74
1070
     0
1000
MTEXTEND
1000
MTEXTBEGIN
1070
    73
1070
     1
1070
    44
1040
1.0
1070
    74
1070
     0
1000
MTEXTEND
  0
POINT
  5
1B15D
330
13EC1
100
AcDbEntity
  8
DEFPOINTS
 62
     0
100
AcDbPoint
 10
20.00859728279464
 20
8.385827975979321
 30
0.0
  0
POINT
  5
1B15E
330
13EC1
100
AcDbEntity
  8
DEFPOINTS
 62
     0
100
AcDbPoint
 10
18.27859728279464
 20
8.510827975979317
 30
0.0
  0
POINT
  5
1B15F
330
13EC1
100
AcDbEntity
  8
DEFPOINTS
 62
     0
100
AcDbPoint
 10
18.27859728279464
 20
6.635827975979321
 30
0.0
  0
ENDBLK
  5
13ECD
330
13EC1
100
AcDbEntity
  8
0
100
AcDbBlockEnd
  0
BLOCK
  5
13F02
330
13EF7
100
AcDbEntity
  8
0
100
AcDbBlockBegin
  2
*D11
 70
     1
 10
0.0
 20
0.0
 30
0.0
  3
*D11
  1

  0
LINE
  5
1B160
330
13EF7
100
AcDbEntity
  8
DIM
100
AcDbLine
 10
18.68515978279464
 20
12.65270297597932
 30
0.0
 11
17.40359728279464
 21
12.65270297597932
 31
0.0
  0
LINE
  5
1B161
330
13EF7
100
AcDbEntity
  8
DIM
100
AcDbLine
 10
18.12546049437123
 20
11.15270297597932
 30
0.0
 11
17.40359728279464
 21
11.15270297597932
 31
0.0
  0
LINE
  5
1B162
330
13EF7
100
AcDbEntity
  8
DIM
100
AcDbLine
 10
17.52859728279464
 20
12.51270297597932
 30
0.0
 11
17.52859728279464
 21
12.30175059502694
 31
0.0
  0
LINE
  5
1B163
330
13EF7
100
AcDbEntity
  8
DIM
100
AcDbLine
 10
17.52859728279464
 20
11.29270297597932
 30
0.0
 11
17.52859728279464
 21
11.5036553569317
 31
0.0
  0
INSERT
  5
1B164
330
13EF7
100
AcDbEntity
  8
DIM
100
AcDbBlockReference
  2
SEARROW
 10
17.52859728279464
 20
12.65270297597932
 30
0.0
 41
0.14
 42
0.14
 43
0.14
 50
90.0
  0
INSERT
  5
1B165
330
13EF7
100
AcDbEntity
  8
DIM
100
AcDbBlockReference
  2
SEARROW
 10
17.52859728279464
 20
11.15270297597932
 30
0.0
 41
0.14
 42
0.14
 43
0.14
 50
270.0
  0
MTEXT
  5
1B166
330
13EF7
100
AcDbEntity
  8
DIM
100
AcDbMText
 10
17.52859728279464
 20
11.90270297597932
 30
0.0
 40
0.2
 41
0.0
 71
     5
 72
     1
  1
\A1;1.50\P [38]
  7
ROMANS
1001
ACAD
1000
MTEXTBEGIN
1070
    73
1070
     1
1070
    44
1040
1.0
1070
    74
1070
     0
1000
MTEXTEND
1000
MTEXTBEGIN
1070
    73
1070
     1
1070
    44
1040
1.0
1070
    74
1070
     0
1000
MTEXTEND
  0
POINT
  5
1B167
330
13EF7
100
AcDbEntity
  8
DEFPOINTS
 62
     0
100
AcDbPoint
 10
18.81015978279465
 20
12.65270297597932
 30
0.0
  0
POINT
  5
1B168
330
13EF7
100
AcDbEntity
  8
DEFPOINTS
 62
     0
100
AcDbPoint
 10
18.25046049437124
 20
11.15270297597932
 30
0.0
  0
POINT
  5
1B169
330
13EF7
100
AcDbEntity
  8
DEFPOINTS
 62
     0
100
AcDbPoint
 10
17.52859728279464
 20
11.15270297597932
 30
0.0
  0
ENDBLK
  5
13F03
330
13EF7
100
AcDbEntity
  8
0
100
AcDbBlockEnd
  0
BLOCK
  5
13FA4
330
13F99
100
AcDbEntity
  8
0
100
AcDbBlockBegin
  2
*D12
 70
     1
 10
0.0
 20
0.0
 30
0.0
  3
*D12
  1

  0
LINE
  5
1B16A
330
13F99
100
AcDbEntity
  8
DIM
100
AcDbLine
 10
25.38454415741835
 20
12.85582797597932
 30
0.0
 11
23.03079415741835
 21
12.85582797597932
 31
0.0
  0
LINE
  5
1B16B
330
13F99
100
AcDbEntity
  8
DIM
100
AcDbLine
 10
23.74954415741835
 20
11.14582797597932
 30
0.0
 11
23.03079415741835
 21
11.14582797597932
 31
0.0
  0
LINE
  5
1B16C
330
13F99
100
AcDbEntity
  8
DIM
100
AcDbLine
 10
23.15579415741835
 20
12.71582797597932
 30
0.0
 11
23.15579415741835
 21
12.39987559502694
 31
0.0
  0
LINE
  5
1B16D
330
13F99
100
AcDbEntity
  8
DIM
100
AcDbLine
 10
23.15579415741835
 20
11.28582797597932
 30
0.0
 11
23.15579415741835
 21
11.6017803569317
 31
0.0
  0
INSERT
  5
1B16E
330
13F99
100
AcDbEntity
  8
DIM
100
AcDbBlockReference
  2
SEARROW
 10
23.15579415741835
 20
12.85582797597932
 30
0.0
 41
0.14
 42
0.14
 43
0.14
 50
90.0
  0
INSERT
  5
1B16F
330
13F99
100
AcDbEntity
  8
DIM
100
AcDbBlockReference
  2
SEARROW
 10
23.15579415741835
 20
11.14582797597932
 30
0.0
 41
0.14
 42
0.14
 43
0.14
 50
270.0
  0
MTEXT
  5
1B170
330
13F99
100
AcDbEntity
  8
DIM
100
AcDbMText
 10
23.15579415741835
 20
12.00082797597932
 30
0.0
 40
0.2
 41
0.0
 71
     5
 72
     1
  1
\A1;1.71\P [43]
  7
ROMANS
1001
ACAD
1000
MTEXTBEGIN
1070
    73
1070
     1
1070
    44
1040
1.0
1070
    74
1070
     0
1000
MTEXTEND
1000
MTEXTBEGIN
1070
    73
1070
     1
1070
    44
1040
1.0
1070
    74
1070
     0
1000
MTEXTEND
  0
POINT
  5
1B171
330
13F99
100
AcDbEntity
  8
DEFPOINTS
 62
     0
100
AcDbPoint
 10
25.50954415741835
 20
12.85582797597932
 30
0.0
  0
POINT
  5
1B172
330
13F99
100
AcDbEntity
  8
DEFPOINTS
 62
     0
100
AcDbPoint
 10
23.87454415741835
 20
11.14582797597932
 30
0.0
  0
POINT
  5
1B173
330
13F99
100
AcDbEntity
  8
DEFPOINTS
 62
     0
100
AcDbPoint
 10
23.15579415741835
 20
11.14582797597932
 30
0.0
  0
ENDBLK
  5
13FA5
330
13F99
100
AcDbEntity
  8
0
100
AcDbBlockEnd
  0
BLOCK
  5
13FB2
330
13FA7
100
AcDbEntity
  8
0
100
AcDbBlockBegin
  2
*D13
 70
     1
 10
0.0
 20
0.0
 30
0.0
  3
*D13
  1

  0
LINE
  5
1B174
330
13FA7
100
AcDbEntity
  8
DIM
100
AcDbLine
 10
25.24954415741835
 20
11.14582797597932
 30
0.0
 11
23.03079415741835
 21
11.14582797597932
 31
0.0
  0
LINE
  5
1B175
330
13FA7
100
AcDbEntity
  8
DIM
100
AcDbLine
 10
25.24954415741835
 20
8.785827975979321
 30
0.0
 11
23.03079415741835
 21
8.785827975979321
 31
0.0
  0
LINE
  5
1B176
330
13FA7
100
AcDbEntity
  8
DIM
100
AcDbLine
 10
23.15579415741835
 20
11.00582797597932
 30
0.0
 11
23.15579415741835
 21
10.36487559502694
 31
0.0
  0
LINE
  5
1B177
330
13FA7
100
AcDbEntity
  8
DIM
100
AcDbLine
 10
23.15579415741835
 20
8.925827975979322
 30
0.0
 11
23.15579415741835
 21
9.566780356931701
 31
0.0
  0
INSERT
  5
1B178
330
13FA7
100
AcDbEntity
  8
DIM
100
AcDbBlockReference
  2
SEARROW
 10
23.15579415741835
 20
11.14582797597932
 30
0.0
 41
0.14
 42
0.14
 43
0.14
 50
90.0
  0
INSERT
  5
1B179
330
13FA7
100
AcDbEntity
  8
DIM
100
AcDbBlockReference
  2
SEARROW
 10
23.15579415741835
 20
8.785827975979321
 30
0.0
 41
0.14
 42
0.14
 43
0.14
 50
270.0
  0
MTEXT
  5
1B17A
330
13FA7
100
AcDbEntity
  8
DIM
100
AcDbMText
 10
23.15579415741835
 20
9.965827975979324
 30
0.0
 40
0.2
 41
0.0
 71
     5
 72
     1
  1
\A1;2.36\P [60]
  7
ROMANS
1001
ACAD
1000
MTEXTBEGIN
1070
    73
1070
     1
1070
    44
1040
1.0
1070
    74
1070
     0
1000
MTEXTEND
1000
MTEXTBEGIN
1070
    73
1070
     1
1070
    44
1040
1.0
1070
    74
1070
     0
1000
MTEXTEND
  0
POINT
  5
1B17B
330
13FA7
100
AcDbEntity
  8
DEFPOINTS
 62
     0
100
AcDbPoint
 10
25.37454415741835
 20
11.14582797597932
 30
0.0
  0
POINT
  5
1B17C
330
13FA7
100
AcDbEntity
  8
DEFPOINTS
 62
     0
100
AcDbPoint
 10
25.37454415741835
 20
8.785827975979321
 30
0.0
  0
POINT
  5
1B17D
330
13FA7
100
AcDbEntity
  8
DEFPOINTS
 62
     0
100
AcDbPoint
 10
23.15579415741835
 20
8.785827975979321
 30
0.0
  0
ENDBLK
  5
13FB3
330
13FA7
100
AcDbEntity
  8
0
100
AcDbBlockEnd
  0
BLOCK
  5
13FE5
330
13FDA
100
AcDbEntity
  8
0
100
AcDbBlockBegin
  2
*D14
 70
     1
 10
0.0
 20
0.0
 30
0.0
  3
*D14
  1

  0
LINE
  5
1B17E
330
13FDA
100
AcDbEntity
  8
DIM
100
AcDbLine
 10
25.38454415741835
 20
12.85582797597932
 30
0.0
 11
22.03079415741835
 21
12.85582797597932
 31
0.0
  0
LINE
  5
1B17F
330
13FDA
100
AcDbEntity
  8
DIM
100
AcDbLine
 10
25.28079415741835
 20
8.385827975979319
 30
0.0
 11
22.03079415741835
 21
8.385827975979319
 31
0.0
  0
LINE
  5
1B180
330
13FDA
100
AcDbEntity
  8
DIM
100
AcDbLine
 10
22.15579415741835
 20
12.71582797597932
 30
0.0
 11
22.15579415741835
 21
11.01987559502694
 31
0.0
  0
LINE
  5
1B181
330
13FDA
100
AcDbEntity
  8
DIM
100
AcDbLine
 10
22.15579415741835
 20
8.52582797597932
 30
0.0
 11
22.15579415741835
 21
10.2217803569317
 31
0.0
  0
INSERT
  5
1B182
330
13FDA
100
AcDbEntity
  8
DIM
100
AcDbBlockReference
  2
SEARROW
 10
22.15579415741835
 20
12.85582797597932
 30
0.0
 41
0.14
 42
0.14
 43
0.14
 50
90.0
  0
INSERT
  5
1B183
330
13FDA
100
AcDbEntity
  8
DIM
100
AcDbBlockReference
  2
SEARROW
 10
22.15579415741835
 20
8.385827975979319
 30
0.0
 41
0.14
 42
0.14
 43
0.14
 50
270.0
  0
MTEXT
  5
1B184
330
13FDA
100
AcDbEntity
  8
DIM
100
AcDbMText
 10
22.15579415741835
 20
10.62082797597932
 30
0.0
 40
0.2
 41
0.0
 71
     5
 72
     1
  1
\A1;4.47\P [114]
  7
ROMANS
1001
ACAD
1000
MTEXTBEGIN
1070
    73
1070
     1
1070
    44
1040
1.0
1070
    74
1070
     0
1000
MTEXTEND
1000
MTEXTBEGIN
1070
    73
1070
     1
1070
    44
1040
1.0
1070
    74
1070
     0
1000
MTEXTEND
  0
POINT
  5
1B185
330
13FDA
100
AcDbEntity
  8
DEFPOINTS
 62
     0
100
AcDbPoint
 10
25.50954415741835
 20
12.85582797597932
 30
0.0
  0
POINT
  5
1B186
330
13FDA
100
AcDbEntity
  8
DEFPOINTS
 62
     0
100
AcDbPoint
 10
25.40579415741835
 20
8.385827975979319
 30
0.0
  0
POINT
  5
1B187
330
13FDA
100
AcDbEntity
  8
DEFPOINTS
 62
     0
100
AcDbPoint
 10
22.15579415741835
 20
8.385827975979319
 30
0.0
  0
ENDBLK
  5
13FE6
330
13FDA
100
AcDbEntity
  8
0
100
AcDbBlockEnd
  0
BLOCK
  5
140BF
330
140B4
100
AcDbEntity
  8
0
100
AcDbBlockBegin
  2
*D15
 70
     1
 10
0.0
 20
0.0
 30
0.0
  3
*D15
  1

  0
LINE
  5
1B188
330
140B4
100
AcDbEntity
  8
DIM
100
AcDbLine
 10
25.56954415741835
 20
8.260827975979319
 30
0.0
 11
25.56954415741835
 21
6.510827975979321
 31
0.0
  0
LINE
  5
1B189
330
140B4
100
AcDbEntity
  8
DIM
100
AcDbLine
 10
26.74954415741835
 20
8.260827975979321
 30
0.0
 11
26.74954415741835
 21
6.510827975979321
 31
0.0
  0
LINE
  5
1B18A
330
140B4
100
AcDbEntity
  8
DIM
100
AcDbLine
 10
25.42954415741835
 20
6.635827975979321
 30
0.0
 11
25.28954415741835
 21
6.635827975979321
 31
0.0
  0
LINE
  5
1B18B
330
140B4
100
AcDbEntity
  8
DIM
100
AcDbLine
 10
26.88954415741835
 20
6.635827975979321
 30
0.0
 11
27.02954415741835
 21
6.635827975979321
 31
0.0
  0
INSERT
  5
1B18C
330
140B4
100
AcDbEntity
  8
DIM
100
AcDbBlockReference
  2
SEARROW
 10
25.56954415741835
 20
6.635827975979321
 30
0.0
 41
0.14
 42
0.14
 43
0.14
  0
INSERT
  5
1B18D
330
140B4
100
AcDbEntity
  8
DIM
100
AcDbBlockReference
  2
SEARROW
 10
26.74954415741835
 20
6.635827975979321
 30
0.0
 41
0.14
 42
0.14
 43
0.14
 50
180.0
  0
MTEXT
  5
1B18E
330
140B4
100
AcDbEntity
  8
DIM
100
AcDbMText
 10
26.15954415741835
 20
6.635827975979321
 30
0.0
 40
0.2
 41
0.0
 71
     5
 72
     1
  1
\A1;1.18\P [30]
  7
ROMANS
1001
ACAD
1000
MTEXTBEGIN
1070
    73
1070
     1
1070
    44
1040
1.0
1070
    74
1070
     0
1000
MTEXTEND
1000
MTEXTBEGIN
1070
    73
1070
     1
1070
    44
1040
1.0
1070
    74
1070
     0
1000
MTEXTEND
  0
POINT
  5
1B18F
330
140B4
100
AcDbEntity
  8
DEFPOINTS
 62
     0
100
AcDbPoint
 10
25.56954415741835
 20
8.385827975979319
 30
0.0
  0
POINT
  5
1B190
330
140B4
100
AcDbEntity
  8
DEFPOINTS
 62
     0
100
AcDbPoint
 10
26.74954415741835
 20
8.385827975979321
 30
0.0
  0
POINT
  5
1B191
330
140B4
100
AcDbEntity
  8
DEFPOINTS
 62
     0
100
AcDbPoint
 10
26.74954415741835
 20
6.635827975979321
 30
0.0
  0
ENDBLK
  5
140C0
330
140B4
100
AcDbEntity
  8
0
100
AcDbBlockEnd
  0
BLOCK
  5
140CE
330
140C2
100
AcDbEntity
  8
0
100
AcDbBlockBegin
  2
*D16
 70
     1
 10
0.0
 20
0.0
 30
0.0
  3
*D16
  1

  0
LINE
  5
1B192
330
140C2
100
AcDbEntity
  8
DIM
100
AcDbLine
 10
25.37454415741835
 20
8.292077975979319
 30
0.0
 11
25.37454415741835
 21
7.510827975979321
 31
0.0
  0
LINE
  5
1B193
330
140C2
100
AcDbEntity
  8
DIM
100
AcDbLine
 10
25.56954415741835
 20
8.260827975979319
 30
0.0
 11
25.56954415741835
 21
7.510827975979321
 31
0.0
  0
LINE
  5
1B194
330
140C2
100
AcDbEntity
  8
DIM
100
AcDbLine
 10
25.70954415741836
 20
7.635827975979321
 30
0.0
 11
25.84954415741835
 21
7.635827975979321
 31
0.0
  0
LINE
  5
1B195
330
140C2
100
AcDbEntity
  8
DIM
100
AcDbLine
 10
25.23454415741835
 20
7.635827975979321
 30
0.0
 11
24.76311558598979
 21
7.635827975979321
 31
0.0
  0
INSERT
  5
1B196
330
140C2
100
AcDbEntity
  8
DIM
100
AcDbBlockReference
  2
SEARROW
 10
25.56954415741835
 20
7.635827975979321
 30
0.0
 41
0.14
 42
0.14
 43
0.14
 50
180.0
  0
INSERT
  5
1B197
330
140C2
100
AcDbEntity
  8
DIM
100
AcDbBlockReference
  2
SEARROW
 10
25.37454415741835
 20
7.635827975979321
 30
0.0
 41
0.14
 42
0.14
 43
0.14
  0
MTEXT
  5
1B198
330
140C2
100
AcDbEntity
  8
DIM
100
AcDbMText
 10
24.92882987170407
 20
7.81582797597932
 30
0.0
 40
0.2
 41
0.0
 71
     5
 72
     1
  1
\A1;=
  7
ROMANS
1001
ACAD
1000
MTEXTBEGIN
1070
    73
1070
     1
1070
    44
1040
1.0
1070
    74
1070
     0
1000
MTEXTEND
1000
MTEXTBEGIN
1070
    73
1070
     1
1070
    44
1040
1.0
1070
    74
1070
     0
1000
MTEXTEND
  0
POINT
  5
1B199
330
140C2
100
AcDbEntity
  8
DEFPOINTS
 62
     0
100
AcDbPoint
 10
25.37454415741835
 20
8.417077975979319
 30
0.0
  0
POINT
  5
1B19A
330
140C2
100
AcDbEntity
  8
DEFPOINTS
 62
     0
100
AcDbPoint
 10
25.56954415741835
 20
8.385827975979319
 30
0.0
  0
POINT
  5
1B19B
330
140C2
100
AcDbEntity
  8
DEFPOINTS
 62
     0
100
AcDbPoint
 10
25.56954415741835
 20
7.635827975979321
 30
0.0
  0
ENDBLK
  5
140CF
330
140C2
100
AcDbEntity
  8
0
100
AcDbBlockEnd
  0
BLOCK
  5
14160
330
14154
100
AcDbEntity
  8
0
100
AcDbBlockBegin
  2
*D17
 70
     1
 10
0.0
 20
0.0
 30
0.0
  3
*D17
  1

  0
LINE
  5
1B19C
330
14154
100
AcDbEntity
  8
DIM
100
AcDbLine
 10
26.74954415741835
 20
8.260827975979323
 30
0.0
 11
26.74954415741835
 21
7.510827975979321
 31
0.0
  0
LINE
  5
1B19D
330
14154
100
AcDbEntity
  8
DIM
100
AcDbLine
 10
26.94454415741835
 20
8.292077975979323
 30
0.0
 11
26.94454415741835
 21
7.510827975979321
 31
0.0
  0
LINE
  5
1B19E
330
14154
100
AcDbEntity
  8
DIM
100
AcDbLine
 10
26.60954415741835
 20
7.635827975979321
 30
0.0
 11
26.46954415741835
 21
7.635827975979321
 31
0.0
  0
LINE
  5
1B19F
330
14154
100
AcDbEntity
  8
DIM
100
AcDbLine
 10
27.08454415741835
 20
7.635827975979321
 30
0.0
 11
27.55597272884692
 21
7.635827975979321
 31
0.0
  0
INSERT
  5
1B1A0
330
14154
100
AcDbEntity
  8
DIM
100
AcDbBlockReference
  2
SEARROW
 10
26.74954415741835
 20
7.635827975979321
 30
0.0
 41
0.14
 42
0.14
 43
0.14
  0
INSERT
  5
1B1A1
330
14154
100
AcDbEntity
  8
DIM
100
AcDbBlockReference
  2
SEARROW
 10
26.94454415741835
 20
7.635827975979321
 30
0.0
 41
0.14
 42
0.14
 43
0.14
 50
180.0
  0
MTEXT
  5
1B1A2
330
14154
100
AcDbEntity
  8
DIM
100
AcDbMText
 10
27.39025844313264
 20
7.81582797597932
 30
0.0
 40
0.2
 41
0.0
 71
     5
 72
     1
  1
\A1;=
  7
ROMANS
1001
ACAD
1000
MTEXTBEGIN
1070
    73
1070
     1
1070
    44
1040
1.0
1070
    74
1070
     0
1000
MTEXTEND
1000
MTEXTBEGIN
1070
    73
1070
     1
1070
    44
1040
1.0
1070
    74
1070
     0
1000
MTEXTEND
  0
POINT
  5
1B1A3
330
14154
100
AcDbEntity
  8
DEFPOINTS
 62
     0
100
AcDbPoint
 10
26.74954415741835
 20
8.385827975979323
 30
0.0
  0
POINT
  5
1B1A4
330
14154
100
AcDbEntity
  8
DEFPOINTS
 62
     0
100
AcDbPoint
 10
26.94454415741835
 20
8.417077975979323
 30
0.0
  0
POINT
  5
1B1A5
330
14154
100
AcDbEntity
  8
DEFPOINTS
 62
     0
100
AcDbPoint
 10
26.94454415741835
 20
7.635827975979321
 30
0.0
  0
ENDBLK
  5
14161
330
14154
100
AcDbEntity
  8
0
100
AcDbBlockEnd
  0
BLOCK
  5
14182
330
14177
100
AcDbEntity
  8
0
100
AcDbBlockBegin
  2
*D18
 70
     1
 10
0.0
 20
0.0
 30
0.0
  3
*D18
  1

  0
LINE
  5
1B1A6
330
14177
100
AcDbEntity
  8
DIM
100
AcDbLine
 10
25.37454415741835
 20
8.292077975979319
 30
0.0
 11
25.37454415741835
 21
5.510827975979321
 31
0.0
  0
LINE
  5
1B1A7
330
14177
100
AcDbEntity
  8
DIM
100
AcDbLine
 10
26.94454415741835
 20
8.292077975979323
 30
0.0
 11
26.94454415741835
 21
5.510827975979321
 31
0.0
  0
LINE
  5
1B1A8
330
14177
100
AcDbEntity
  8
DIM
100
AcDbLine
 10
25.51454415741835
 20
5.635827975979321
 30
0.0
 11
25.69859177646597
 21
5.635827975979321
 31
0.0
  0
LINE
  5
1B1A9
330
14177
100
AcDbEntity
  8
DIM
100
AcDbLine
 10
26.80454415741835
 20
5.635827975979321
 30
0.0
 11
26.62049653837073
 21
5.635827975979321
 31
0.0
  0
INSERT
  5
1B1AA
330
14177
100
AcDbEntity
  8
DIM
100
AcDbBlockReference
  2
SEARROW
 10
25.37454415741835
 20
5.635827975979321
 30
0.0
 41
0.14
 42
0.14
 43
0.14
 50
180.0
  0
INSERT
  5
1B1AB
330
14177
100
AcDbEntity
  8
DIM
100
AcDbBlockReference
  2
SEARROW
 10
26.94454415741835
 20
5.635827975979321
 30
0.0
 41
0.14
 42
0.14
 43
0.14
  0
MTEXT
  5
1B1AC
330
14177
100
AcDbEntity
  8
DIM
100
AcDbMText
 10
26.15954415741835
 20
5.635827975979321
 30
0.0
 40
0.2
 41
0.0
 71
     5
 72
     1
  1
\A1;1.57\P [40]
  7
ROMANS
1001
ACAD
1000
MTEXTBEGIN
1070
    73
1070
     1
1070
    44
1040
1.0
1070
    74
1070
     0
1000
MTEXTEND
1000
MTEXTBEGIN
1070
    73
1070
     1
1070
    44
1040
1.0
1070
    74
1070
     0
1000
MTEXTEND
  0
POINT
  5
1B1AD
330
14177
100
AcDbEntity
  8
DEFPOINTS
 62
     0
100
AcDbPoint
 10
25.37454415741835
 20
8.417077975979319
 30
0.0
  0
POINT
  5
1B1AE
330
14177
100
AcDbEntity
  8
DEFPOINTS
 62
     0
100
AcDbPoint
 10
26.94454415741835
 20
8.417077975979323
 30
0.0
  0
POINT
  5
1B1AF
330
14177
100
AcDbEntity
  8
DEFPOINTS
 62
     0
100
AcDbPoint
 10
26.94454415741835
 20
5.635827975979321
 30
0.0
  0
ENDBLK
  5
14183
330
14177
100
AcDbEntity
  8
0
100
AcDbBlockEnd
  0
BLOCK
  5
14445
330
1443C
100
AcDbEntity
  8
0
100
AcDbBlockBegin
  2
*D19
 70
     1
 10
0.0
 20
0.0
 30
0.0
  3
*D19
  1

  0
LINE
  5
1B1B0
330
1443C
100
AcDbEntity
  8
DIM
100
AcDbLine
 10
28.31344963324424
 20
8.117372987146419
 30
0.0
 11
28.17344963324418
 21
8.117372987146419
 31
0.0
  0
LINE
  5
1B1B1
330
1443C
100
AcDbEntity
  8
DIM
100
AcDbLine
 10
28.17344963324418
 20
8.117372987146419
 30
0.0
 11
26.97368382069528
 21
8.646901683487872
 31
0.0
  0
MTEXT
  5
1B1B2
330
1443C
100
AcDbEntity
  8
DIM
100
AcDbMText
 10
30.03154487133948
 20
8.117372987146417
 30
0.0
 40
0.2
 41
0.0
 71
     5
 72
     1
  1
\A1;\P\P.29 X .21\P[7]   [5]\P(2 ELONGATED HOLES
  7
ROMANS
1001
ACAD
1000
MTEXTBEGIN
1070
    73
1070
     1
1070
    44
1040
1.0
1070
    74
1070
     0
1000
MTEXTEND
1000
MTEXTBEGIN
1070
    73
1070
     1
1070
    44
1040
1.0
1070
    74
1070
     0
1000
MTEXTEND
  0
INSERT
  5
1B1B3
330
1443C
100
AcDbEntity
  8
DIM
100
AcDbBlockReference
  2
SEARROW
 10
26.84560401310847
 20
8.703430993482983
 30
0.0
 41
0.14
 42
0.14
 43
0.14
 50
156.185252562402
  0
POINT
  5
1B1B4
330
1443C
100
AcDbEntity
  8
DEFPOINTS
 62
     0
100
AcDbPoint
 10
26.84560401310847
 20
8.703430993482983
 30
0.0
  0
POINT
  5
1B1B5
330
1443C
100
AcDbEntity
  8
DEFPOINTS
 62
     0
100
AcDbPoint
 10
26.65348430172824
 20
8.78822495847565
 30
0.0
  0
ENDBLK
  5
14446
330
1443C
100
AcDbEntity
  8
0
100
AcDbBlockEnd
  0
BLOCK
  5
147DF
330
147D4
100
AcDbEntity
  8
0
100
AcDbBlockBegin
  2
*D20
 70
     1
 10
0.0
 20
0.0
 30
0.0
  3
*D20
  1

  0
LINE
  5
1B1B6
330
147D4
100
AcDbEntity
  8
DIM
100
AcDbLine
 10
24.63454415741835
 20
12.26582797597932
 30
0.0
 11
23.88454415741836
 21
12.26582797597932
 31
0.0
  0
LINE
  5
1B1B7
330
147D4
100
AcDbEntity
  8
DIM
100
AcDbLine
 10
25.24954415741835
 20
11.14582797597932
 30
0.0
 11
23.88454415741836
 21
11.14582797597932
 31
0.0
  0
LINE
  5
1B1B8
330
147D4
100
AcDbEntity
  8
DIM
100
AcDbLine
 10
24.00954415741836
 20
12.40582797597932
 30
0.0
 11
24.00954415741836
 21
12.54582797597932
 31
0.0
  0
LINE
  5
1B1B9
330
147D4
100
AcDbEntity
  8
DIM
100
AcDbLine
 10
24.00954415741836
 20
11.00582797597932
 30
0.0
 11
24.00954415741836
 21
10.86582797597932
 31
0.0
  0
INSERT
  5
1B1BA
330
147D4
100
AcDbEntity
  8
DIM
100
AcDbBlockReference
  2
SEARROW
 10
24.00954415741836
 20
12.26582797597932
 30
0.0
 41
0.14
 42
0.14
 43
0.14
 50
270.0
  0
INSERT
  5
1B1BB
330
147D4
100
AcDbEntity
  8
DIM
100
AcDbBlockReference
  2
SEARROW
 10
24.00954415741836
 20
11.14582797597932
 30
0.0
 41
0.14
 42
0.14
 43
0.14
 50
90.0
  0
MTEXT
  5
1B1BC
330
147D4
100
AcDbEntity
  8
DIM
100
AcDbMText
 10
24.00954415741836
 20
11.70582797597932
 30
0.0
 40
0.2
 41
0.0
 71
     5
 72
     1
  1
\A1;1.12\P [28]
  7
ROMANS
1001
ACAD
1000
MTEXTBEGIN
1070
    73
1070
     1
1070
    44
1040
1.0
1070
    74
1070
     0
1000
MTEXTEND
1000
MTEXTBEGIN
1070
    73
1070
     1
1070
    44
1040
1.0
1070
    74
1070
     0
1000
MTEXTEND
  0
POINT
  5
1B1BD
330
147D4
100
AcDbEntity
  8
DEFPOINTS
 62
     0
100
AcDbPoint
 10
24.75954415741835
 20
12.26582797597932
 30
0.0
  0
POINT
  5
1B1BE
330
147D4
100
AcDbEntity
  8
DEFPOINTS
 62
     0
100
AcDbPoint
 10
25.37454415741835
 20
11.14582797597932
 30
0.0
  0
POINT
  5
1B1BF
330
147D4
100
AcDbEntity
  8
DEFPOINTS
 62
     0
100
AcDbPoint
 10
24.00954415741836
 20
11.14582797597932
 30
0.0
  0
ENDBLK
  5
147E0
330
147D4
100
AcDbEntity
  8
0
100
AcDbBlockEnd
  0
BLOCK
  5
14BC0
330
14BB5
100
AcDbEntity
  8
0
100
AcDbBlockBegin
  2
*D21
 70
     1
 10
0.0
 20
0.0
 30
0.0
  3
*D21
  1

  0
LINE
  5
1B1C0
330
14BB5
100
AcDbEntity
  8
DIM
100
AcDbLine
 10
24.75954415741835
 20
12.60957797597932
 30
0.0
 11
24.75954415741835
 21
14.73082797597932
 31
0.0
  0
LINE
  5
1B1C1
330
14BB5
100
AcDbEntity
  8
DIM
100
AcDbLine
 10
26.80954415741835
 20
12.98082797597932
 30
0.0
 11
26.80954415741835
 21
14.73082797597932
 31
0.0
  0
LINE
  5
1B1C2
330
14BB5
100
AcDbEntity
  8
DIM
100
AcDbLine
 10
24.89954415741835
 20
14.60582797597932
 30
0.0
 11
25.32359177646597
 21
14.60582797597932
 31
0.0
  0
LINE
  5
1B1C3
330
14BB5
100
AcDbEntity
  8
DIM
100
AcDbLine
 10
26.66954415741835
 20
14.60582797597932
 30
0.0
 11
26.24549653837073
 21
14.60582797597932
 31
0.0
  0
INSERT
  5
1B1C4
330
14BB5
100
AcDbEntity
  8
DIM
100
AcDbBlockReference
  2
SEARROW
 10
24.75954415741835
 20
14.60582797597932
 30
0.0
 41
0.14
 42
0.14
 43
0.14
 50
180.0
  0
INSERT
  5
1B1C5
330
14BB5
100
AcDbEntity
  8
DIM
100
AcDbBlockReference
  2
SEARROW
 10
26.80954415741835
 20
14.60582797597932
 30
0.0
 41
0.14
 42
0.14
 43
0.14
  0
MTEXT
  5
1B1C6
330
14BB5
100
AcDbEntity
  8
DIM
100
AcDbMText
 10
25.78454415741835
 20
14.60582797597932
 30
0.0
 40
0.2
 41
0.0
 71
     5
 72
     1
  1
\A1;2.05\P [52]
  7
ROMANS
1001
ACAD
1000
MTEXTBEGIN
1070
    73
1070
     1
1070
    44
1040
1.0
1070
    74
1070
     0
1000
MTEXTEND
1000
MTEXTBEGIN
1070
    73
1070
     1
1070
    44
1040
1.0
1070
    74
1070
     0
1000
MTEXTEND
  0
POINT
  5
1B1C7
330
14BB5
100
AcDbEntity
  8
DEFPOINTS
 62
     0
100
AcDbPoint
 10
24.75954415741835
 20
12.48457797597932
 30
0.0
  0
POINT
  5
1B1C8
330
14BB5
100
AcDbEntity
  8
DEFPOINTS
 62
     0
100
AcDbPoint
 10
26.80954415741835
 20
12.85582797597932
 30
0.0
  0
POINT
  5
1B1C9
330
14BB5
100
AcDbEntity
  8
DEFPOINTS
 62
     0
100
AcDbPoint
 10
26.80954415741835
 20
14.60582797597932
 30
0.0
  0
ENDBLK
  5
14BC1
330
14BB5
100
AcDbEntity
  8
0
100
AcDbBlockEnd
  0
ENDSEC
  0
SECTION
  2
ENTITIES
  0
INSERT
  5
79E
330
1F
100
AcDbEntity
  8
0
100
AcDbBlockReference
  2
NEWLAYERS
 10
-0.0000014740623202
 20
0.1900200015532691
 30
0.0
 41
0.0000000090422425
 42
0.0000000090422425
 43
0.0000000090422425
  0
LWPOLYLINE
  5
BF7
330
1F
100
AcDbEntity
  8
VIEWPORT
100
AcDbPolyline
 90
        6
 70
     1
 43
0.0
 10
32.80000126296883
 20
20.69005577827587
 10
32.80000126296883
 20
2.014059778275868
 10
16.00492126296884
 20
2.014059778275868
 10
16.00492126296884
 20
0.19005577827587
 10
-0.0000007370311605
 20
0.19005577827587
 10
-0.0000007370311605
 20
20.69005577827587
1001
GENIUS_GENOREF_13
1005
0
1005
0
1005
0
1005
0
1005
0
1005
0
1005
0
  0
VIEWPORT
  5
BF8
330
1F
100
AcDbEntity
  8
VIEWPORT
100
AcDbViewport
 10
16.40000026296883
 20
10.44005577827587
 30
0.0
 40
32.80000199999999
 41
20.5
 69
     0
1001
ACAD
1000
MVIEW
1002
{
1070
    16
1010
0.0
1020
0.0
1030
0.0
1010
0.0
1020
0.0
1030
1.0
1040
0.0
1040
41.0
1040
32.79338763516308
1040
20.71142202491305
1040
50.0
1040
0.0
1040
0.0
1070
     0
1070
   100
1070
     1
1070
     2
1070
     0
1070
     0
1070
     0
1070
     0
1040
0.0
1040
0.0
1040
0.0
1040
0.5
1040
0.5
1040
0.5
1040
0.5
1070
     0
1002
{
1002
}
1002
}
1001
GENIUS_GENOREF_13
1005
0
1005
0
1005
0
1005
0
1005
0
1005
0
1005
0
1001
GENIUS_GENSCREG_15
1000
PF
1040
0.0
1000
DF
1040
0.0
1000
MIN
1011
-0.0000007370311605
1021
0.19005577827587
1031
0.0
1000
MAX
1011
32.80000126296885
1021
20.69005577827586
1031
0.0
1000
FLAGS
1070
     2
  0
LINE
  5
13A52
330
1F
100
AcDbEntity
  8
CONTINUOUS1
100
AcDbLine
 10
18.42734728279465
 20
8.385827975979321
 30
0.0
 11
20.00859728279464
 21
8.385827975979321
 31
0.0
  0
LINE
  5
13A53
330
1F
100
AcDbEntity
  8
CONTINUOUS1
100
AcDbLine
 10
20.00859728279464
 20
8.385827975979321
 30
0.0
 11
20.00859728279464
 21
11.59020297597932
 31
0.0
  0
LINE
  5
13A54
330
1F
100
AcDbEntity
  8
CONTINUOUS1
100
AcDbLine
 10
20.00859728279464
 20
12.85582797597932
 30
0.0
 11
18.70859728279464
 21
12.85582797597932
 31
0.0
  0
LINE
  5
13A55
330
1F
100
AcDbEntity
  8
CONTINUOUS1
100
AcDbLine
 10
18.27859728279464
 20
11.22926547597932
 30
0.0
 11
18.27859728279464
 21
10.79207797597932
 31
0.0
  0
LINE
  5
13A58
330
1F
100
AcDbEntity
  8
CONTINUOUS1
100
AcDbLine
 10
25.40579415741835
 20
8.385827975979319
 30
0.0
 11
25.78142306611315
 21
8.385827975979319
 31
0.0
  0
LINE
  5
13A59
330
1F
100
AcDbEntity
  8
CONTINUOUS1
100
AcDbLine
 10
26.80954415741835
 20
12.85582797597932
 30
0.0
 11
25.50954415741835
 21
12.85582797597932
 31
0.0
  0
LINE
  5
13A62
330
1F
100
AcDbEntity
  8
CONTINUOUS1
100
AcDbLine
 10
18.70859728279464
 20
8.385827975979321
 30
0.0
 11
18.70859728279464
 21
9.010827975979323
 31
0.0
  0
LINE
  5
13A63
330
1F
100
AcDbEntity
  8
CONTINUOUS1
100
AcDbLine
 10
20.00859728279464
 20
11.60582797597932
 30
0.0
 11
18.70859728279464
 21
11.60582797597932
 31
0.0
  0
LINE
  5
13A64
330
1F
100
AcDbEntity
  8
CONTINUOUS1
100
AcDbLine
 10
20.00859728279464
 20
11.59020297597932
 30
0.0
 11
18.70859728279464
 21
11.59020297597932
 31
0.0
  0
LINE
  5
13A65
330
1F
100
AcDbEntity
  8
CONTINUOUS1
100
AcDbLine
 10
18.70859728279464
 20
11.60582797597932
 30
0.0
 11
18.70859728279464
 21
12.09801547597932
 31
0.0
  0
LINE
  5
13A66
330
1F
100
AcDbEntity
  8
CONTINUOUS1
100
AcDbLine
 10
20.00859728279464
 20
11.60582797597932
 30
0.0
 11
20.00859728279464
 21
12.75426547597931
 31
0.0
  0
LINE
  5
13A67
330
1F
100
AcDbEntity
  8
CONTINUOUS1
100
AcDbLine
 10
18.42734728279465
 20
9.010827975979323
 30
0.0
 11
18.50547228279464
 21
9.010827975979323
 31
0.0
  0
LINE
  5
13A68
330
1F
100
AcDbEntity
  8
CONTINUOUS1
100
AcDbLine
 10
18.42734728279465
 20
10.88582797597932
 30
0.0
 11
18.50547228279464
 21
10.88582797597932
 31
0.0
  0
LINE
  5
13A69
330
1F
100
AcDbEntity
  8
CONTINUOUS1
100
AcDbLine
 10
18.58359728279465
 20
8.479577975979319
 30
0.0
 11
18.58359728279464
 21
10.88582797597932
 31
0.0
  0
LINE
  5
13A6A
330
1F
100
AcDbEntity
  8
CONTINUOUS1
100
AcDbLine
 10
18.70859728279464
 20
10.88582797597932
 30
0.0
 11
18.70859728279464
 21
11.59020297597932
 31
0.0
  0
LINE
  5
13A6E
330
1F
100
AcDbEntity
  8
CENTER1
100
AcDbLine
 10
27.02454415741835
 20
8.785827975979321
 30
0.0
 11
25.37454415741835
 21
8.785827975979321
 31
0.0
  0
LINE
  5
13A6F
330
1F
100
AcDbEntity
  8
CENTER1
100
AcDbLine
 10
25.56954415741835
 20
9.008009822866146
 30
0.0
 11
25.56954415741835
 21
8.385827975979321
 31
0.0
  0
LINE
  5
13A70
330
1F
100
AcDbEntity
  8
CENTER1
100
AcDbLine
 10
26.74954415741835
 20
9.008009822866107
 30
0.0
 11
26.74954415741835
 21
8.385827975979321
 31
0.0
  0
LINE
  5
13A71
330
1F
100
AcDbEntity
  8
CONTINUOUS1
100
AcDbLine
 10
26.91329415741835
 20
11.59020297597932
 30
0.0
 11
25.40579415741835
 21
11.59020297597932
 31
0.0
  0
LINE
  5
13A72
330
1F
100
AcDbEntity
  8
CONTINUOUS1
100
AcDbLine
 10
25.50954415741835
 20
11.60582797597932
 30
0.0
 11
26.80954415741835
 21
11.60582797597932
 31
0.0
  0
LINE
  5
13A73
330
1F
100
AcDbEntity
  8
CONTINUOUS1
100
AcDbLine
 10
26.80954415741835
 20
11.60582797597932
 30
0.0
 11
26.80954415741835
 21
12.38707797597933
 31
0.0
  0
LINE
  5
13A74
330
1F
100
AcDbEntity
  8
CONTINUOUS1
100
AcDbLine
 10
25.50954415741835
 20
11.60582797597932
 30
0.0
 11
25.50954415741835
 21
12.38707797597931
 31
0.0
  0
LINE
  5
13A77
330
1F
100
AcDbEntity
  8
CONTINUOUS1
100
AcDbLine
 10
26.94454415741835
 20
11.55895297597932
 30
0.0
 11
26.94454415741835
 21
8.417077975979323
 31
0.0
  0
LINE
  5
13A78
330
1F
100
AcDbEntity
  8
CONTINUOUS1
100
AcDbLine
 10
25.37454415741835
 20
11.55895297597932
 30
0.0
 11
25.37454415741835
 21
8.417077975979319
 31
0.0
  0
CIRCLE
  5
13A79
330
1F
100
AcDbEntity
  8
CONTINUOUS1
100
AcDbCircle
 10
26.74954415741835
 20
11.14582797597932
 30
0.0
 40
0.105
  0
CIRCLE
  5
13A7A
330
1F
100
AcDbEntity
  8
CONTINUOUS1
100
AcDbCircle
 10
25.56954415741835
 20
8.785827975979321
 30
0.0
 40
0.105
  0
LINE
  5
13A7D
330
1F
100
AcDbEntity
  8
CONTINUOUS1
100
AcDbLine
 10
26.85454415741835
 20
8.825827975979322
 30
0.0
 11
26.85454415741835
 21
8.74582797597932
 31
0.0
  0
LINE
  5
13A7E
330
1F
100
AcDbEntity
  8
CONTINUOUS1
100
AcDbLine
 10
26.64454415741835
 20
8.82582797597932
 30
0.0
 11
26.64454415741835
 21
8.745827975979322
 31
0.0
  0
LINE
  5
13A81
330
1F
100
AcDbEntity
  8
CONTINUOUS1
100
AcDbLine
 10
25.67454415741835
 20
11.18582797597931
 30
0.0
 11
25.67454415741835
 21
11.10582797597932
 31
0.0
  0
LINE
  5
13A82
330
1F
100
AcDbEntity
  8
CONTINUOUS1
100
AcDbLine
 10
25.46454415741835
 20
11.18582797597932
 30
0.0
 11
25.46454415741835
 21
11.10582797597932
 31
0.0
  0
ARC
  5
13A83
330
1F
100
AcDbEntity
  8
CONTINUOUS1
100
AcDbCircle
 10
25.56954415741835
 20
11.18582797597932
 30
0.0
 40
0.105
100
AcDbArc
 50
90.00000000000095
 51
180.0
  0
ARC
  5
13A84
330
1F
100
AcDbEntity
  8
CONTINUOUS1
100
AcDbCircle
 10
25.56954415741835
 20
11.18582797597932
 30
0.0
 40
0.105
100
AcDbArc
 50
359.999999999998
 51
90.00000000000193
  0
ARC
  5
13A85
330
1F
100
AcDbEntity
  8
CONTINUOUS1
100
AcDbCircle
 10
25.56954415741835
 20
11.10582797597932
 30
0.0
 40
0.105
100
AcDbArc
 50
269.999999999999
 51
359.999999999999
  0
ARC
  5
13A86
330
1F
100
AcDbEntity
  8
CONTINUOUS1
100
AcDbCircle
 10
25.56954415741835
 20
11.10582797597932
 30
0.0
 40
0.105
100
AcDbArc
 50
179.999999999999
 51
270.0000000000009
  0
ARC
  5
13A87
330
1F
100
AcDbEntity
  8
CONTINUOUS1
100
AcDbCircle
 10
26.74954415741835
 20
8.825827975979322
 30
0.0
 40
0.105
100
AcDbArc
 50
89.99999999999904
 51
180.0000000000009
  0
ARC
  5
13A88
330
1F
100
AcDbEntity
  8
CONTINUOUS1
100
AcDbCircle
 10
26.74954415741835
 20
8.825827975979322
 30
0.0
 40
0.105
100
AcDbArc
 50
89.99999999999904
 51
180.0000000000009
  0
ARC
  5
13A89
330
1F
100
AcDbEntity
  8
CONTINUOUS1
100
AcDbCircle
 10
26.74954415741835
 20
8.74582797597932
 30
0.0
 40
0.105
100
AcDbArc
 50
179.999999999999
 51
270.0
  0
ARC
  5
13A8A
330
1F
100
AcDbEntity
  8
CONTINUOUS1
100
AcDbCircle
 10
26.74954415741835
 20
8.74582797597932
 30
0.0
 40
0.105
100
AcDbArc
 50
270.0
 51
0.0000000000009739
  0
ARC
  5
13A8B
330
1F
100
AcDbEntity
  8
CONTINUOUS1
100
AcDbCircle
 10
26.74954415741835
 20
8.825827975979322
 30
0.0
 40
0.105
100
AcDbArc
 50
359.999999999999
 51
90.00000000000095
  0
LINE
  5
13A8E
330
1F
100
AcDbEntity
  8
CONTINUOUS1
100
AcDbLine
 10
20.00859728279464
 20
12.76207797597932
 30
0.0
 11
18.80234728279464
 21
12.76207797597932
 31
0.0
  0
LINE
  5
13A90
330
1F
100
AcDbEntity
  8
CONTINUOUS1
100
AcDbLine
 10
18.8578217131321
 20
12.35582797597932
 30
0.0
 11
18.70859728279464
 21
12.35582797597932
 31
0.0
  0
LINE
  5
13A91
330
1F
100
AcDbEntity
  8
CONTINUOUS1
100
AcDbLine
 10
18.95078478279464
 20
12.54332797597932
 30
0.0
 11
18.80234728279464
 21
12.54332797597932
 31
0.0
  0
LINE
  5
13A92
330
1F
100
AcDbEntity
  8
CONTINUOUS1
100
AcDbLine
 10
18.95859728279464
 20
12.34801547597932
 30
0.0
 11
18.95859728279464
 21
12.55114047597932
 31
0.0
  0
LINE
  5
13A93
330
1F
100
AcDbEntity
  8
CONTINUOUS1
100
AcDbLine
 10
18.80234728279464
 20
12.54332797597932
 30
0.0
 11
18.80234728279464
 21
12.76207797597932
 31
0.0
  0
LINE
  5
13A94
330
1F
100
AcDbEntity
  8
CONTINUOUS1
100
AcDbLine
 10
20.00859728279464
 20
12.75426547597932
 30
0.0
 11
18.81015978279465
 21
12.75426547597931
 31
0.0
  0
LINE
  5
13A95
330
1F
100
AcDbEntity
  8
CONTINUOUS1
100
AcDbLine
 10
18.81015978279465
 20
12.55114047597932
 30
0.0
 11
18.81015978279465
 21
12.75426547597932
 31
0.0
  0
LINE
  5
13A96
330
1F
100
AcDbEntity
  8
CONTINUOUS1
100
AcDbLine
 10
18.95859728279464
 20
12.55114047597932
 30
0.0
 11
18.81015978279465
 21
12.55114047597932
 31
0.0
  0
LINE
  5
13A97
330
1F
100
AcDbEntity
  8
CONTINUOUS1
100
AcDbLine
 10
18.95078478279464
 20
12.35582797597932
 30
0.0
 11
18.95078478279464
 21
12.54332797597932
 31
0.0
  0
LINE
  5
13A98
330
1F
100
AcDbEntity
  8
CONTINUOUS1
100
AcDbLine
 10
18.95859728279464
 20
12.34801547597932
 30
0.0
 11
18.94297228279464
 21
12.34801547597932
 31
0.0
  0
LINE
  5
13A99
330
1F
100
AcDbEntity
  8
CONTINUOUS1
100
AcDbLine
 10
20.00859728279464
 20
12.76207797597932
 30
0.0
 11
20.00859728279464
 21
12.85582797597932
 31
0.0
  0
LINE
  5
13A9A
330
1F
100
AcDbEntity
  8
CONTINUOUS1
100
AcDbLine
 10
18.70859728279464
 20
12.35582797597931
 30
0.0
 11
18.70859728279464
 21
12.85582797597932
 31
0.0
  0
CIRCLE
  5
13A9F
330
1F
100
AcDbEntity
  8
CONTINUOUS1
100
AcDbCircle
 10
19.63359728279464
 20
11.79332797597931
 30
0.0
 40
0.0390625
  0
CIRCLE
  5
13AA0
330
1F
100
AcDbEntity
  8
CONTINUOUS1
100
AcDbCircle
 10
18.89609728279465
 20
11.79332797597931
 30
0.0
 40
0.0390625
  0
LINE
  5
13AA2
330
1F
100
AcDbEntity
  8
CONTINUOUS1
100
AcDbLine
 10
18.83359728279464
 20
11.59020297597932
 30
0.0
 11
18.83359728279464
 21
11.60582797597932
 31
0.0
  0
LINE
  5
13AA3
330
1F
100
AcDbEntity
  8
CONTINUOUS1
100
AcDbLine
 10
19.88359728279464
 20
11.59020297597932
 30
0.0
 11
19.88359728279464
 21
11.60582797597932
 31
0.0
  0
ARC
  5
13AA5
330
1F
100
AcDbEntity
  8
CONTINUOUS1
100
AcDbCircle
 10
25.40579415741835
 20
11.55895297597932
 30
0.0
 40
0.03125
100
AcDbArc
 50
90.0
 51
180.0
  0
ARC
  5
13AA6
330
1F
100
AcDbEntity
  8
CONTINUOUS1
100
AcDbCircle
 10
26.91329415741835
 20
11.55895297597932
 30
0.0
 40
0.03125
100
AcDbArc
 50
0.0
 51
89.99999999999992
  0
ARC
  5
13AA7
330
1F
100
AcDbEntity
  8
CONTINUOUS1
100
AcDbCircle
 10
26.91329415741835
 20
8.417077975979323
 30
0.0
 40
0.03125
100
AcDbArc
 50
270.0
 51
0.0
  0
ARC
  5
13AA8
330
1F
100
AcDbEntity
  8
CONTINUOUS1
100
AcDbCircle
 10
25.40579415741835
 20
8.417077975979319
 30
0.0
 40
0.03125
100
AcDbArc
 50
180.0
 51
270.0
  0
LINE
  5
13AAB
330
1F
100
AcDbEntity
  8
CONTINUOUS1
100
AcDbLine
 10
18.42734728279465
 20
8.385827975979323
 30
0.0
 11
18.42734728279465
 21
8.448327975979319
 31
0.0
  0
LINE
  5
13AAC
330
1F
100
AcDbEntity
  8
CONTINUOUS1
100
AcDbLine
 10
18.50547228279464
 20
8.503015475979319
 30
0.0
 11
18.50547228279465
 21
11.14582797597932
 31
0.0
  0
LINE
  5
13AAE
330
1F
100
AcDbEntity
  8
CONTINUOUS1
100
AcDbLine
 10
18.46640978279464
 20
11.14582797597931
 30
0.0
 11
18.46640978279464
 21
11.38582797597932
 31
0.0
  0
LINE
  5
13AAF
330
1F
100
AcDbEntity
  8
CONTINUOUS1
100
AcDbLine
 10
18.43515978279464
 20
11.38582797597932
 30
0.0
 11
18.70859728279464
 21
11.38582797597932
 31
0.0
  0
LINE
  5
13AB1
330
1F
100
AcDbEntity
  8
CONTINUOUS1
100
AcDbLine
 10
18.70859728279464
 20
11.14582797597932
 30
0.0
 11
18.42734728279465
 21
11.14582797597931
 31
0.0
  0
LINE
  5
13AB2
330
1F
100
AcDbEntity
  8
CONTINUOUS1
100
AcDbLine
 10
18.58359728279464
 20
10.88582797597932
 30
0.0
 11
18.70859728279463
 21
10.88582797597932
 31
0.0
  0
LINE
  5
13AB3
330
1F
100
AcDbEntity
  8
CONTINUOUS1
100
AcDbLine
 10
18.45859728279465
 20
8.479577975979319
 30
0.0
 11
18.58359728279465
 21
8.479577975979321
 31
0.0
  0
LINE
  5
13AB4
330
1F
100
AcDbEntity
  8
CONTINUOUS1
100
AcDbLine
 10
18.58359728279465
 20
9.010827975979323
 30
0.0
 11
18.70859728279464
 21
9.010827975979323
 31
0.0
  0
LINE
  5
13ABE
330
1F
100
AcDbEntity
  8
CONTINUOUS1
100
AcDbLine
 10
18.42734728279465
 20
10.82332797597932
 30
0.0
 11
18.30984728279464
 21
10.82332797597932
 31
0.0
  0
LINE
  5
13ABF
330
1F
100
AcDbEntity
  8
CONTINUOUS1
100
AcDbLine
 10
18.42734728279465
 20
9.073327975979321
 30
0.0
 11
18.30984728279464
 21
9.073327975979321
 31
0.0
  0
LINE
  5
13AC0
330
1F
100
AcDbEntity
  8
CONTINUOUS1
100
AcDbLine
 10
18.27859728279464
 20
10.79207797597932
 30
0.0
 11
18.27859728279464
 21
9.104577975979321
 31
0.0
  0
ARC
  5
13AC1
330
1F
100
AcDbEntity
  8
CONTINUOUS1
100
AcDbCircle
 10
18.30984728279464
 20
10.79207797597932
 30
0.0
 40
0.03125
100
AcDbArc
 50
90.0
 51
180.0
  0
LINE
  5
13AC2
330
1F
100
AcDbEntity
  8
CONTINUOUS1
100
AcDbLine
 10
18.27859728279464
 20
9.104577975979321
 30
0.0
 11
18.27859728279464
 21
8.510827975979317
 31
0.0
  0
ARC
  5
13AC3
330
1F
100
AcDbEntity
  8
CONTINUOUS1
100
AcDbCircle
 10
18.30984728279464
 20
9.104577975979321
 30
0.0
 40
0.03125
100
AcDbArc
 50
180.0
 51
270.0
  0
LINE
  5
13AC4
330
1F
100
AcDbEntity
  8
CONTINUOUS1
100
AcDbLine
 10
18.27859728279464
 20
8.510827975979317
 30
0.0
 11
18.50547228279464
 21
8.510827975979321
 31
0.0
  0
LINE
  5
13AC5
330
1F
100
AcDbEntity
  8
CONTINUOUS1
100
AcDbLine
 10
18.50547228279464
 20
8.503015475979319
 30
0.0
 11
18.58359728279465
 21
8.503015475979321
 31
0.0
  0
LINE
  5
13AC6
330
1F
100
AcDbEntity
  8
CONTINUOUS1
100
AcDbLine
 10
18.42734728279465
 20
8.510827975979319
 30
0.0
 11
18.42734728279465
 21
11.14582797597932
 31
0.0
  0
ARC
  5
13AC7
330
1F
100
AcDbEntity
  8
CONTINUOUS1
100
AcDbCircle
 10
18.45859728279465
 20
8.448327975979319
 30
0.0
 40
0.03125
100
AcDbArc
 50
90.00000000000063
 51
180.0
  0
LINE
  5
13AC8
330
1F
100
AcDbEntity
  8
CONTINUOUS1
100
AcDbLine
 10
18.42734728279465
 20
8.385827975979321
 30
0.0
 11
18.27859728279464
 21
8.510827975979317
 31
0.0
  0
LINE
  5
13ACA
330
1F
100
AcDbEntity
  8
CONTINUOUS1
100
AcDbLine
 10
18.27859728279464
 20
11.22926547597932
 30
0.0
 11
18.43515978279464
 21
11.38582797597932
 31
0.0
  0
LINE
  5
13ACE
330
1F
100
AcDbEntity
  8
HIDDEN1
100
AcDbLine
 10
18.94109728279465
 20
8.823327975979321
 30
0.0
 11
19.81609728279464
 21
8.885827975979321
 31
0.0
  0
LINE
  5
13ACF
330
1F
100
AcDbEntity
  8
HIDDEN1
100
AcDbLine
 10
18.94109728279464
 20
8.385827975979321
 30
0.0
 11
18.94109728279464
 21
8.885827975979321
 31
0.0
  0
LINE
  5
13AD0
330
1F
100
AcDbEntity
  8
HIDDEN1
100
AcDbLine
 10
19.81609728279464
 20
8.385827975979321
 30
0.0
 11
19.81609728279464
 21
8.885827975979321
 31
0.0
  0
LINE
  5
13AD1
330
1F
100
AcDbEntity
  8
CENTER1
100
AcDbLine
 10
19.37859728279464
 20
8.354577975979321
 30
0.0
 11
19.37859728279464
 21
9.167077975979319
 31
0.0
  0
LINE
  5
13AD6
330
1F
100
AcDbEntity
  8
CONTINUOUS1
100
AcDbLine
 10
26.80954415741835
 20
12.38707797597933
 30
0.0
 11
25.50954415741835
 21
12.38707797597931
 31
0.0
  0
LINE
  5
13AD7
330
1F
100
AcDbEntity
  8
CONTINUOUS1
100
AcDbLine
 10
26.80954415741835
 20
12.34801547597935
 30
0.0
 11
25.18141915741835
 21
12.34801547597934
 31
0.0
  0
LINE
  5
13AD8
330
1F
100
AcDbEntity
  8
CONTINUOUS1
100
AcDbLine
 10
25.50954415741835
 20
12.38707797597931
 30
0.0
 11
25.50954415741835
 21
12.85582797597932
 31
0.0
  0
LINE
  5
13ADA
330
1F
100
AcDbEntity
  8
CONTINUOUS1
100
AcDbLine
 10
26.80954415741835
 20
12.38707797597933
 30
0.0
 11
26.80954415741835
 21
12.85582797597932
 31
0.0
  0
LINE
  5
13ADB
330
1F
100
AcDbEntity
  8
CONTINUOUS1
100
AcDbLine
 10
26.65954415741835
 20
12.58332797597932
 30
0.0
 11
25.65954415741835
 21
12.58332797597932
 31
0.0
  0
LINE
  5
13ADC
330
1F
100
AcDbEntity
  8
CONTINUOUS1
100
AcDbLine
 10
26.65954415741835
 20
12.70832797597932
 30
0.0
 11
25.65954415741835
 21
12.70832797597932
 31
0.0
  0
LINE
  5
13ADE
330
1F
100
AcDbEntity
  8
CONTINUOUS1
100
AcDbLine
 10
26.65954415741835
 20
12.58332797597932
 30
0.0
 11
26.65954415741835
 21
12.70832797597932
 31
0.0
  0
LINE
  5
13ADF
330
1F
100
AcDbEntity
  8
CONTINUOUS1
100
AcDbLine
 10
25.65954415741835
 20
12.58332797597932
 30
0.0
 11
25.65954415741835
 21
12.70832797597932
 31
0.0
  0
LINE
  5
13AE0
330
1F
100
AcDbEntity
  8
CONTINUOUS1
100
AcDbLine
 10
25.65954415741835
 20
12.70832797597932
 30
0.0
 11
25.50954415741835
 21
12.85582797597932
 31
0.0
  0
LINE
  5
13AE1
330
1F
100
AcDbEntity
  8
CONTINUOUS1
100
AcDbLine
 10
25.65954415741835
 20
12.58332797597932
 30
0.0
 11
25.5301485530227
 21
12.38707797597931
 31
0.0
  0
LINE
  5
13AE2
330
1F
100
AcDbEntity
  8
CONTINUOUS1
100
AcDbLine
 10
26.65954415741835
 20
12.58332797597932
 30
0.0
 11
26.78893976181399
 21
12.38707797597932
 31
0.0
  0
LINE
  5
13AE3
330
1F
100
AcDbEntity
  8
CONTINUOUS1
100
AcDbLine
 10
26.65954415741835
 20
12.70832797597932
 30
0.0
 11
26.80954415741835
 21
12.85582797597932
 31
0.0
  0
LINE
  5
13AE4
330
1F
100
AcDbEntity
  8
CONTINUOUS1
100
AcDbLine
 10
26.53454415741835
 20
11.38582797597932
 30
0.0
 11
25.78454415741835
 21
11.38582797597932
 31
0.0
  0
LINE
  5
13AE5
330
1F
100
AcDbEntity
  8
CONTINUOUS1
100
AcDbLine
 10
25.94079415741835
 20
11.22926547597932
 30
0.0
 11
25.87829415741835
 21
11.22926547597932
 31
0.0
  0
LINE
  5
13AE6
330
1F
100
AcDbEntity
  8
CONTINUOUS1
100
AcDbLine
 10
26.94454415741835
 20
10.88582797597947
 30
0.0
 11
26.78454415741835
 21
10.88582797597946
 31
0.0
  0
LINE
  5
13AE8
330
1F
100
AcDbEntity
  8
CONTINUOUS1
100
AcDbLine
 10
26.87829415741835
 20
10.82332797597932
 30
0.0
 11
25.44079415741835
 21
10.82332797597932
 31
0.0
  0
LINE
  5
13AE9
330
1F
100
AcDbEntity
  8
CONTINUOUS1
100
AcDbLine
 10
25.44079415741835
 20
9.073327975979321
 30
0.0
 11
26.87829415741835
 21
9.073327975979321
 31
0.0
  0
LINE
  5
13AEA
330
1F
100
AcDbEntity
  8
CONTINUOUS1
100
AcDbLine
 10
26.87829415741835
 20
10.82332797597932
 30
0.0
 11
26.87829415741835
 21
9.073327975979321
 31
0.0
  0
LINE
  5
13AEB
330
1F
100
AcDbEntity
  8
CONTINUOUS1
100
AcDbLine
 10
25.44079415741835
 20
10.82332797597932
 30
0.0
 11
25.44079415741835
 21
9.073327975979321
 31
0.0
  0
LINE
  5
13AEC
330
1F
100
AcDbEntity
  8
CONTINUOUS1
100
AcDbLine
 10
25.75329415741835
 20
11.35457797597932
 30
0.0
 11
25.75329415741835
 21
11.10457797597943
 31
0.0
  0
LINE
  5
13AED
330
1F
100
AcDbEntity
  8
CONTINUOUS1
100
AcDbLine
 10
26.56579415741835
 20
11.35457797597932
 30
0.0
 11
26.56579415741835
 21
11.10457797597946
 31
0.0
  0
ARC
  5
13AEE
330
1F
100
AcDbEntity
  8
CONTINUOUS1
100
AcDbCircle
 10
25.78454415741835
 20
11.35457797597932
 30
0.0
 40
0.03125
100
AcDbArc
 50
89.99999999999349
 51
180.0
  0
ARC
  5
13AEF
330
1F
100
AcDbEntity
  8
CONTINUOUS1
100
AcDbCircle
 10
26.53454415741835
 20
11.35457797597932
 30
0.0
 40
0.03125
100
AcDbArc
 50
359.9999999999967
 51
90.00000000000325
  0
LINE
  5
13AF0
330
1F
100
AcDbEntity
  8
CONTINUOUS1
100
AcDbLine
 10
26.44079415741835
 20
11.38582797597932
 30
0.0
 11
26.44079415741835
 21
10.82332797597932
 31
0.0
  0
LINE
  5
13AF1
330
1F
100
AcDbEntity
  8
CONTINUOUS1
100
AcDbLine
 10
25.87829415741835
 20
11.38582797597932
 30
0.0
 11
25.87829415741835
 21
10.82332797597932
 31
0.0
  0
LINE
  5
13AF2
330
1F
100
AcDbEntity
  8
CONTINUOUS1
100
AcDbLine
 10
26.37829415741835
 20
11.38582797597932
 30
0.0
 11
26.37829415741835
 21
11.17707797597931
 31
0.0
  0
LINE
  5
13AF3
330
1F
100
AcDbEntity
  8
CONTINUOUS1
100
AcDbLine
 10
25.94079415741835
 20
11.38582797597932
 30
0.0
 11
25.94079415741835
 21
11.17707797597932
 31
0.0
  0
LINE
  5
13AF4
330
1F
100
AcDbEntity
  8
CONTINUOUS1
100
AcDbLine
 10
26.37829415741835
 20
11.22926547597932
 30
0.0
 11
26.44079415741835
 21
11.22926547597932
 31
0.0
  0
ARC
  5
13AF6
330
1F
100
AcDbEntity
  8
CONTINUOUS1
100
AcDbCircle
 10
26.15954415741834
 20
11.17707797597932
 30
0.0
 40
0.21875
100
AcDbArc
 50
180.0
 51
270.0000000000016
  0
ARC
  5
13AF7
330
1F
100
AcDbEntity
  8
CONTINUOUS1
100
AcDbCircle
 10
26.15954415741835
 20
11.17707797597931
 30
0.0
 40
0.21875
100
AcDbArc
 50
270.0000000000015
 51
0.0
  0
LINE
  5
13AF8
330
1F
100
AcDbEntity
  8
CONTINUOUS1
100
AcDbLine
 10
25.53454415741835
 20
10.88582797597943
 30
0.0
 11
25.37454415741835
 21
10.88582797597942
 31
0.0
  0
ARC
  5
13AF9
330
1F
100
AcDbEntity
  8
CONTINUOUS1
100
AcDbCircle
 10
25.53454415741835
 20
11.10457797597942
 30
0.0
 40
0.21875
100
AcDbArc
 50
270.0000000000013
 51
0.0000000000009305
  0
ARC
  5
13AFA
330
1F
100
AcDbEntity
  8
CONTINUOUS1
100
AcDbCircle
 10
26.78454415741835
 20
11.10457797597946
 30
0.0
 40
0.21875
100
AcDbArc
 50
179.9999999999995
 51
270.0000000000023
  0
CIRCLE
  5
13AFE
330
1F
100
AcDbEntity
  8
CONTINUOUS1
100
AcDbCircle
 10
26.15954415741835
 20
11.14582797597932
 30
0.0
 40
0.140625
  0
LINE
  5
13AFF
330
1F
100
AcDbEntity
  8
CONTINUOUS1
100
AcDbLine
 10
26.18298165741835
 20
11.28448609589572
 30
0.0
 11
26.18298165741835
 21
11.16926547597932
 31
0.0
  0
LINE
  5
13B00
330
1F
100
AcDbEntity
  8
CONTINUOUS1
100
AcDbLine
 10
26.13610665741835
 20
11.28448609589571
 30
0.0
 11
26.13610665741835
 21
11.16926547597932
 31
0.0
  0
LINE
  5
13B01
330
1F
100
AcDbEntity
  8
CONTINUOUS1
100
AcDbLine
 10
26.29820227733475
 20
11.12239047597932
 30
0.0
 11
26.18298165741835
 21
11.12239047597932
 31
0.0
  0
LINE
  5
13B02
330
1F
100
AcDbEntity
  8
CONTINUOUS1
100
AcDbLine
 10
26.29820227733475
 20
11.16926547597932
 30
0.0
 11
26.18298165741835
 21
11.16926547597932
 31
0.0
  0
LINE
  5
13B03
330
1F
100
AcDbEntity
  8
CONTINUOUS1
100
AcDbLine
 10
26.18298165741835
 20
11.12239047597932
 30
0.0
 11
26.18298165741835
 21
11.00716985606292
 31
0.0
  0
LINE
  5
13B04
330
1F
100
AcDbEntity
  8
CONTINUOUS1
100
AcDbLine
 10
26.13610665741835
 20
11.16926547597932
 30
0.0
 11
26.02088603750196
 21
11.16926547597932
 31
0.0
  0
LINE
  5
13B05
330
1F
100
AcDbEntity
  8
CONTINUOUS1
100
AcDbLine
 10
26.13610665741835
 20
11.12239047597932
 30
0.0
 11
26.13610665741835
 21
11.00716985606292
 31
0.0
  0
LINE
  5
13B06
330
1F
100
AcDbEntity
  8
CONTINUOUS1
100
AcDbLine
 10
26.13610665741835
 20
11.12239047597932
 30
0.0
 11
26.02088603750195
 21
11.12239047597932
 31
0.0
  0
LINE
  5
13B08
330
1F
100
AcDbEntity
  8
HIDDEN1
100
AcDbLine
 10
26.56579415741835
 20
8.885827975979323
 30
0.0
 11
26.56579415741835
 21
8.385827975979323
 31
0.0
  0
LINE
  5
13B09
330
1F
100
AcDbEntity
  8
HIDDEN1
100
AcDbLine
 10
25.75329415741835
 20
8.885827975979319
 30
0.0
 11
25.75329415741835
 21
8.385827975979319
 31
0.0
  0
LINE
  5
13B0B
330
1F
100
AcDbEntity
  8
HIDDEN1
100
AcDbLine
 10
25.75329415741835
 20
8.823327975979321
 30
0.0
 11
26.56579415741835
 21
8.885827975979323
 31
0.0
  0
LINE
  5
13B0C
330
1F
100
AcDbEntity
  8
HIDDEN1
100
AcDbLine
 10
18.94109728279465
 20
8.760827975979321
 30
0.0
 11
19.81609728279464
 21
8.823327975979321
 31
0.0
  0
LINE
  5
13B0D
330
1F
100
AcDbEntity
  8
HIDDEN1
100
AcDbLine
 10
18.94109728279464
 20
8.698327975979321
 30
0.0
 11
19.81609728279464
 21
8.760827975979321
 31
0.0
  0
LINE
  5
13B0E
330
1F
100
AcDbEntity
  8
HIDDEN1
100
AcDbLine
 10
18.94109728279464
 20
8.635827975979321
 30
0.0
 11
19.81609728279464
 21
8.698327975979321
 31
0.0
  0
LINE
  5
13B0F
330
1F
100
AcDbEntity
  8
HIDDEN1
100
AcDbLine
 10
18.94109728279465
 20
8.573327975979321
 30
0.0
 11
19.81609728279464
 21
8.635827975979321
 31
0.0
  0
LINE
  5
13B10
330
1F
100
AcDbEntity
  8
HIDDEN1
100
AcDbLine
 10
18.94109728279464
 20
8.510827975979321
 30
0.0
 11
19.81609728279464
 21
8.573327975979321
 31
0.0
  0
LINE
  5
13B11
330
1F
100
AcDbEntity
  8
HIDDEN1
100
AcDbLine
 10
18.94109728279464
 20
8.448327975979321
 30
0.0
 11
19.81609728279464
 21
8.510827975979321
 31
0.0
  0
LINE
  5
13B12
330
1F
100
AcDbEntity
  8
HIDDEN1
100
AcDbLine
 10
18.94109728279464
 20
8.385827975979321
 30
0.0
 11
19.81609728279464
 21
8.448327975979321
 31
0.0
  0
LINE
  5
13B13
330
1F
100
AcDbEntity
  8
HIDDEN1
100
AcDbLine
 10
18.94109728279464
 20
8.885827975979321
 30
0.0
 11
19.75359728279464
 21
8.885827975979323
 31
0.0
  0
LINE
  5
13B14
330
1F
100
AcDbEntity
  8
HIDDEN1
100
AcDbLine
 10
25.75329415741835
 20
8.760827975979321
 30
0.0
 11
26.56579415741835
 21
8.823327975979323
 31
0.0
  0
LINE
  5
13B15
330
1F
100
AcDbEntity
  8
HIDDEN1
100
AcDbLine
 10
25.75329415741835
 20
8.698327975979321
 30
0.0
 11
26.56579415741835
 21
8.760827975979323
 31
0.0
  0
LINE
  5
13B16
330
1F
100
AcDbEntity
  8
HIDDEN1
100
AcDbLine
 10
25.75329415741835
 20
8.635827975979321
 30
0.0
 11
26.56579415741835
 21
8.698327975979323
 31
0.0
  0
LINE
  5
13B17
330
1F
100
AcDbEntity
  8
HIDDEN1
100
AcDbLine
 10
25.75329415741835
 20
8.573327975979321
 30
0.0
 11
26.56579415741835
 21
8.635827975979323
 31
0.0
  0
LINE
  5
13B18
330
1F
100
AcDbEntity
  8
HIDDEN1
100
AcDbLine
 10
25.75329415741835
 20
8.510827975979321
 30
0.0
 11
26.56579415741835
 21
8.573327975979323
 31
0.0
  0
LINE
  5
13B19
330
1F
100
AcDbEntity
  8
HIDDEN1
100
AcDbLine
 10
25.75329415741835
 20
8.448327975979321
 30
0.0
 11
26.56579415741835
 21
8.510827975979323
 31
0.0
  0
LINE
  5
13B1A
330
1F
100
AcDbEntity
  8
HIDDEN1
100
AcDbLine
 10
25.75329415741835
 20
8.385827975979319
 30
0.0
 11
26.56579415741835
 21
8.448327975979323
 31
0.0
  0
LINE
  5
13B1B
330
1F
100
AcDbEntity
  8
HIDDEN1
100
AcDbLine
 10
25.75329415741835
 20
8.885827975979321
 30
0.0
 11
26.56579415741835
 21
8.885827975979323
 31
0.0
  0
ARC
  5
13B21
330
1F
100
AcDbEntity
  8
CONTINUOUS1
100
AcDbCircle
 10
26.15954415741835
 20
8.754577975979321
 30
0.0
 40
0.21875
100
AcDbArc
 50
89.99999999999838
 51
180.0
  0
ARC
  5
13B22
330
1F
100
AcDbEntity
  8
CONTINUOUS1
100
AcDbCircle
 10
26.15954415741835
 20
8.754577975979323
 30
0.0
 40
0.21875
100
AcDbArc
 50
0.0
 51
89.99999999999849
  0
LINE
  5
13B23
330
1F
100
AcDbEntity
  8
CONTINUOUS1
100
AcDbLine
 10
26.44079415741835
 20
8.385671725979353
 30
0.0
 11
26.44079415741835
 21
9.073327975979321
 31
0.0
  0
LINE
  5
13B24
330
1F
100
AcDbEntity
  8
CONTINUOUS1
100
AcDbLine
 10
25.87829415741835
 20
8.385671725979353
 30
0.0
 11
25.87829415741835
 21
9.073327975979321
 31
0.0
  0
LINE
  5
13B25
330
1F
100
AcDbEntity
  8
CONTINUOUS1
100
AcDbLine
 10
26.53454415741835
 20
8.385671725979353
 30
0.0
 11
25.78454415741835
 21
8.385671725979353
 31
0.0
  0
LINE
  5
13B28
330
1F
100
AcDbEntity
  8
CONTINUOUS1
100
AcDbLine
 10
25.94079415741835
 20
8.385671725979353
 30
0.0
 11
25.94079415741834
 21
8.754577975979318
 31
0.0
  0
LINE
  5
13B29
330
1F
100
AcDbEntity
  8
CONTINUOUS1
100
AcDbLine
 10
25.75329415741835
 20
8.416921725979353
 30
0.0
 11
25.75329415741835
 21
8.792077975979216
 31
0.0
  0
LINE
  5
13B2A
330
1F
100
AcDbEntity
  8
CONTINUOUS1
100
AcDbLine
 10
25.94079415741835
 20
8.510827975979388
 30
0.0
 11
25.87829415741835
 21
8.510827975979388
 31
0.0
  0
ARC
  5
13B2B
330
1F
100
AcDbEntity
  8
CONTINUOUS1
100
AcDbCircle
 10
25.78454415741835
 20
8.416921725979353
 30
0.0
 40
0.03125
100
AcDbArc
 50
180.0
 51
270.0000000000065
  0
LINE
  5
13B30
330
1F
100
AcDbEntity
  8
CONTINUOUS1
100
AcDbLine
 10
26.37829415741835
 20
8.385671725979353
 30
0.0
 11
26.37829415741835
 21
8.754577975979323
 31
0.0
  0
LINE
  5
13B31
330
1F
100
AcDbEntity
  8
CONTINUOUS1
100
AcDbLine
 10
26.56579415741835
 20
8.416921725979353
 30
0.0
 11
26.56579415741835
 21
8.792077975979177
 31
0.0
  0
LINE
  5
13B32
330
1F
100
AcDbEntity
  8
CONTINUOUS1
100
AcDbLine
 10
26.37829415741835
 20
8.510827975979388
 30
0.0
 11
26.44079415741835
 21
8.510827975979388
 31
0.0
  0
ARC
  5
13B33
330
1F
100
AcDbEntity
  8
CONTINUOUS1
100
AcDbCircle
 10
26.53454415741835
 20
8.416921725979351
 30
0.0
 40
0.03125
100
AcDbArc
 50
269.9999999999967
 51
0.0000000000032709
  0
ARC
  5
13B34
330
1F
100
AcDbEntity
  8
CONTINUOUS1
100
AcDbCircle
 10
26.78454415741835
 20
8.792077975979177
 30
0.0
 40
0.21875
100
AcDbArc
 50
89.99999999999767
 51
180.0000000000004
  0
ARC
  5
13B35
330
1F
100
AcDbEntity
  8
CONTINUOUS1
100
AcDbCircle
 10
25.53454415741835
 20
8.792077975979216
 30
0.0
 40
0.21875
100
AcDbArc
 50
359.999999999999
 51
89.99999999999863
  0
LINE
  5
13B36
330
1F
100
AcDbEntity
  8
CONTINUOUS1
100
AcDbLine
 10
25.53454415741835
 20
9.010827975979211
 30
0.0
 11
25.37454415741835
 21
9.010827975979216
 31
0.0
  0
LINE
  5
13B37
330
1F
100
AcDbEntity
  8
CONTINUOUS1
100
AcDbLine
 10
26.94454415741835
 20
9.010827975979172
 30
0.0
 11
26.78454415741835
 21
9.010827975979177
 31
0.0
  0
LINE
  5
13B39
330
1F
100
AcDbEntity
  8
CONTINUOUS1
100
AcDbLine
 10
26.53766524872361
 20
8.385827975979323
 30
0.0
 11
26.91329415741835
 21
8.385827975979323
 31
0.0
  0
ARC
  5
13B64
330
1F
100
AcDbEntity
  8
CONTINUOUS1
100
AcDbCircle
 10
26.15954415741835
 20
8.785827975979321
 30
0.0
 40
0.140625
100
AcDbArc
 50
310.5516029323676
 51
89.44839706763067
  0
LINE
  5
13B65
330
1F
100
AcDbEntity
  8
CONTINUOUS1
100
AcDbLine
 10
26.17581932005383
 20
8.832481221645505
 30
0.0
 11
26.15327646624807
 21
8.916612297396202
 31
0.0
  0
LINE
  5
13B66
330
1F
100
AcDbEntity
  8
CONTINUOUS1
100
AcDbLine
 10
26.11708853125471
 20
8.81110496268765
 30
0.0
 11
26.08027894606251
 21
8.890043372873408
 31
0.0
  0
ARC
  5
13B67
330
1F
100
AcDbEntity
  8
CONTINUOUS1
100
AcDbCircle
 10
26.15954415741835
 20
8.785827975979321
 30
0.0
 40
0.140625
100
AcDbArc
 50
130.5516029323692
 51
269.4483970676316
  0
LINE
  5
13B68
330
1F
100
AcDbEntity
  8
CONTINUOUS1
100
AcDbLine
 10
26.16581184858864
 20
8.655043654562446
 30
0.0
 11
26.14326899478288
 21
8.739174730313143
 31
0.0
  0
ARC
  5
13B69
330
1F
100
AcDbEntity
  8
CONTINUOUS1
100
AcDbCircle
 10
26.10974718265481
 20
8.808432930317916
 30
0.0
 40
0.0078125
100
AcDbArc
 50
335.5846914028112
 51
20.00000000001303
  0
LINE
  5
13B6A
330
1F
100
AcDbEntity
  8
CONTINUOUS1
100
AcDbLine
 10
26.13064846319421
 20
8.748918566876698
 30
0.0
 11
26.10175276897007
 21
8.712009157774073
 31
0.0
  0
LINE
  5
13B6B
330
1F
100
AcDbEntity
  8
CONTINUOUS1
100
AcDbLine
 10
26.1126711536546
 20
8.785395375513603
 30
0.0
 11
26.09733425094674
 21
8.779813199442108
 31
0.0
  0
ARC
  5
13B6C
330
1F
100
AcDbEntity
  8
CONTINUOUS1
100
AcDbCircle
 10
26.15954415741835
 20
8.785827975979321
 30
0.0
 40
0.0625
100
AcDbArc
 50
185.5224878140717
 51
214.4775121859314
  0
ARC
  5
13B6D
330
1F
100
AcDbEntity
  8
CONTINUOUS1
100
AcDbCircle
 10
26.15954415741835
 20
8.785827975979321
 30
0.0
 40
0.046875
100
AcDbArc
 50
219.4712206344932
 51
244.4153085971933
  0
ARC
  5
13B6E
330
1F
100
AcDbEntity
  8
CONTINUOUS1
100
AcDbCircle
 10
26.13592764618299
 20
8.736502697943414
 30
0.0
 40
0.0078125
100
AcDbArc
 50
20.00000000000002
 51
64.4153085971888
  0
LINE
  5
13B6F
330
1F
100
AcDbEntity
  8
CONTINUOUS1
100
AcDbLine
 10
26.12335928313353
 20
8.756029981114044
 30
0.0
 11
26.10802238042566
 21
8.750447805042549
 31
0.0
  0
ARC
  5
13B70
330
1F
100
AcDbEntity
  8
CONTINUOUS1
100
AcDbCircle
 10
26.15954415741835
 20
8.785827975979321
 30
0.0
 40
0.046875
100
AcDbArc
 50
155.5846914028066
 51
180.5287793655114
  0
LINE
  5
13B71
330
1F
100
AcDbEntity
  8
CONTINUOUS1
100
AcDbLine
 10
26.06782356373338
 20
8.805228883021921
 30
0.0
 11
26.11368386057587
 21
8.79552842950062
 31
0.0
  0
LINE
  5
13B72
330
1F
100
AcDbEntity
  8
CONTINUOUS1
100
AcDbLine
 10
26.21106593441105
 20
8.821208146916099
 30
0.0
 11
26.19572903170319
 21
8.815625970844598
 31
0.0
  0
ARC
  5
13B73
330
1F
100
AcDbEntity
  8
CONTINUOUS1
100
AcDbCircle
 10
26.15954415741835
 20
8.785827975979321
 30
0.0
 40
0.046875
100
AcDbArc
 50
39.47122063448574
 51
64.41530859719353
  0
ARC
  5
13B74
330
1F
100
AcDbEntity
  8
CONTINUOUS1
100
AcDbCircle
 10
26.18316066865372
 20
8.835153254015235
 30
0.0
 40
0.0078125
100
AcDbArc
 50
199.999999999987
 51
244.4153085971888
  0
LINE
  5
13B75
330
1F
100
AcDbEntity
  8
CONTINUOUS1
100
AcDbLine
 10
26.1884398516425
 20
8.822737385081943
 30
0.0
 11
26.21733554586664
 21
8.859646794184566
 31
0.0
  0
LINE
  5
13B76
330
1F
100
AcDbEntity
  8
CONTINUOUS1
100
AcDbLine
 10
26.22175406388997
 20
8.79184275251654
 30
0.0
 11
26.20641716118211
 21
8.786260576445037
 31
0.0
  0
ARC
  5
13B77
330
1F
100
AcDbEntity
  8
CONTINUOUS1
100
AcDbCircle
 10
26.20934113218188
 20
8.763223021640731
 30
0.0
 40
0.0078125
100
AcDbArc
 50
155.5846914028111
 51
200.0
  0
ARC
  5
13B78
330
1F
100
AcDbEntity
  8
CONTINUOUS1
100
AcDbCircle
 10
26.15826555307076
 20
8.653021630772583
 30
0.0
 40
0.0078125
100
AcDbArc
 50
269.4483970676318
 51
15.00000000001353
  0
LINE
  5
13B79
330
1F
100
AcDbEntity
  8
CONTINUOUS1
100
AcDbLine
 10
26.2388093687742
 20
8.681612579085236
 30
0.0
 11
26.201999783582
 21
8.760550989270999
 31
0.0
  0
ARC
  5
13B7A
330
1F
100
AcDbEntity
  8
CONTINUOUS1
100
AcDbCircle
 10
26.15954415741835
 20
8.785827975979321
 30
0.0
 40
0.046875
100
AcDbArc
 50
335.5846914028067
 51
0.5287793655046608
  0
LINE
  5
13B7B
330
1F
100
AcDbEntity
  8
CONTINUOUS1
100
AcDbLine
 10
26.20540445426084
 20
8.77612752245802
 30
0.0
 11
26.25126475110333
 21
8.766427068936719
 31
0.0
  0
ARC
  5
13B7C
330
1F
100
AcDbEntity
  8
CONTINUOUS1
100
AcDbCircle
 10
26.24588989836043
 20
8.684914284255086
 30
0.0
 40
0.0078125
100
AcDbArc
 50
204.9999999999995
 51
310.5516029323682
  0
ARC
  5
13B7D
330
1F
100
AcDbEntity
  8
CONTINUOUS1
100
AcDbCircle
 10
26.15954415741835
 20
8.785827975979321
 30
0.0
 40
0.140625
100
AcDbArc
 50
269.4483970676312
 51
310.5516029323676
  0
ARC
  5
13B7E
330
1F
100
AcDbEntity
  8
CONTINUOUS1
100
AcDbCircle
 10
26.15954415741835
 20
8.785827975979321
 30
0.0
 40
0.0625
100
AcDbArc
 50
5.522487814066544
 51
34.47751218592678
  0
ARC
  5
13B7F
330
1F
100
AcDbEntity
  8
CONTINUOUS1
100
AcDbCircle
 10
26.15954415741835
 20
8.785827975979321
 30
0.0
 40
0.140625
100
AcDbArc
 50
89.44839706763067
 51
130.5516029323692
  0
ARC
  5
13B80
330
1F
100
AcDbEntity
  8
CONTINUOUS1
100
AcDbCircle
 10
26.07319841647628
 20
8.88674166770356
 30
0.0
 40
0.0078125
100
AcDbArc
 50
24.99999999999824
 51
130.5516029323726
  0
ARC
  5
13B81
330
1F
100
AcDbEntity
  8
CONTINUOUS1
100
AcDbCircle
 10
26.16082276176595
 20
8.918634321186065
 30
0.0
 40
0.0078125
100
AcDbArc
 50
89.44839706762719
 51
195.0000000000016
  0
LINE
  5
13B87
330
1F
100
AcDbEntity
  8
CONTINUOUS1
100
AcDbLine
 10
19.77547228279465
 20
17.33971697940204
 30
0.0
 11
19.77547228279465
 21
15.53971697940204
 31
0.0
  0
LINE
  5
13B88
330
1F
100
AcDbEntity
  8
CONTINUOUS1
100
AcDbLine
 10
19.68172228279464
 20
17.31041003647989
 30
0.0
 11
19.68172228279464
 21
15.53971697940204
 31
0.0
  0
LINE
  5
13B89
330
1F
100
AcDbEntity
  8
CONTINUOUS1
100
AcDbLine
 10
19.77547228279465
 20
15.53971697940204
 30
0.0
 11
19.68172228279464
 21
15.53971697940204
 31
0.0
  0
LINE
  5
13B8C
330
1F
100
AcDbEntity
  8
CONTINUOUS1
100
AcDbLine
 10
19.91609728279464
 20
17.37321062845593
 30
0.0
 11
19.54109728279465
 21
17.27272968129426
 31
0.0
  0
DIMENSION
  5
13B8F
330
1F
100
AcDbEntity
  8
DIM
100
AcDbDimension
  2
*D5
 10
19.72859728279464
 20
14.60582797597932
 30
0.0
 11
20.65431156850892
 21
14.60582797597932
 31
0.0
 70
   160
  3
SCHNEIDERELECTRIC_DUAL_BEL
100
AcDbAlignedDimension
 13
20.00859728279464
 23
12.85582797597932
 33
0.0
 14
19.72859728279464
 24
12.75426547597931
 34
0.0
100
AcDbRotatedDimension
1001
ACAD
1000
DSTYLE
1002
{
1070
    40
1040
2.0
1002
}
  0
DIMENSION
  5
13BA9
330
1F
100
AcDbEntity
  8
DIM
100
AcDbDimension
  2
*D6
 10
20.00859728279464
 20
13.60582797597932
 30
0.0
 11
18.10764490184226
 21
13.60582797597932
 31
0.0
 70
   160
  3
SCHNEIDERELECTRIC_DUAL_BEL
100
AcDbAlignedDimension
 13
18.70859728279464
 23
12.85582797597932
 33
0.0
 14
20.00859728279464
 24
12.85582797597932
 34
0.0
100
AcDbRotatedDimension
1001
ACAD
1000
DSTYLE
1002
{
1070
    40
1040
2.0
1002
}
  0
DIMENSION
  5
13BB7
330
1F
100
AcDbEntity
  8
DIM
100
AcDbDimension
  2
*D7
 10
26.80954415741835
 20
13.60582797597932
 30
0.0
 11
26.15954415741835
 21
13.60582797597932
 31
0.0
 70
   160
  3
SCHNEIDERELECTRIC_DUAL_BEL
100
AcDbAlignedDimension
 13
25.50954415741835
 23
12.85582797597932
 33
0.0
 14
26.80954415741835
 24
12.85582797597932
 34
0.0
100
AcDbRotatedDimension
1001
ACAD
1000
DSTYLE
1002
{
1070
    40
1040
2.0
1002
}
  0
LINE
  5
13BC5
330
1F
100
AcDbEntity
  8
CENTER1
100
AcDbLine
 10
19.72859728279464
 20
15.66471697940205
 30
0.0
 11
19.72859728279464
 21
14.20879097712022
 31
0.0
  0
DIMENSION
  5
13C82
330
1F
100
AcDbEntity
  8
DIM
100
AcDbDimension
  2
*D8
 10
26.70231636987097
 20
11.05204878807828
 30
0.0
 11
28.66930292562131
 21
13.20667204522162
 31
0.0
 70
   163
  1
\P2 X <>
  3
SCHNEIDERELECTRIC_DUAL_BEL
100
AcDbDiametricDimension
 15
26.79677194496575
 25
11.23960716388035
 35
0.0
 40
0.0
1001
ACAD
1000
DSTYLE
1002
{
1070
   141
1040
0.0
1070
    40
1040
2.0
1002
}
  0
LINE
  5
13D76
330
1F
100
AcDbEntity
  8
CONTINUOUS1
100
AcDbLine
 10
26.68454415741835
 20
11.59020297597932
 30
0.0
 11
26.68454415741835
 21
11.60582797597932
 31
0.0
  0
LINE
  5
13D77
330
1F
100
AcDbEntity
  8
CONTINUOUS1
100
AcDbLine
 10
25.63454415741835
 20
11.59020297597932
 30
0.0
 11
25.63454415741835
 21
11.60582797597932
 31
0.0
  0
LINE
  5
13D7A
330
1F
100
AcDbEntity
  8
CONTINUOUS1
100
AcDbLine
 10
25.58454415741834
 20
16.83971697940187
 30
0.0
 11
25.58454415741834
 21
15.61471697940187
 31
0.0
  0
LINE
  5
13D7B
330
1F
100
AcDbEntity
  8
CONTINUOUS1
100
AcDbLine
 10
26.58454415741835
 20
16.83971697940187
 30
0.0
 11
26.58454415741835
 21
15.61471697940187
 31
0.0
  0
LINE
  5
13D7C
330
1F
100
AcDbEntity
  8
CONTINUOUS1
100
AcDbLine
 10
25.65954415741835
 20
15.53971697940187
 30
0.0
 11
25.65954415741835
 21
15.53971697940187
 31
0.0
  0
LINE
  5
13D7E
330
1F
100
AcDbEntity
  8
CONTINUOUS1
100
AcDbLine
 10
26.43454415741835
 20
16.63971697940187
 30
0.0
 11
26.43454415741835
 21
15.83971697940187
 31
0.0
  0
LINE
  5
13D7F
330
1F
100
AcDbEntity
  8
CONTINUOUS1
100
AcDbLine
 10
25.73454415741835
 20
16.63971697940187
 30
0.0
 11
25.73454415741835
 21
15.83971697940187
 31
0.0
  0
LINE
  5
13D80
330
1F
100
AcDbEntity
  8
CONTINUOUS1
100
AcDbLine
 10
25.83454415741835
 20
15.63971697940187
 30
0.0
 11
25.73454415741835
 21
15.63971697940187
 31
0.0
  0
LINE
  5
13D81
330
1F
100
AcDbEntity
  8
CONTINUOUS1
100
AcDbLine
 10
26.33454415741835
 20
15.73971697940187
 30
0.0
 11
25.83454415741835
 21
15.73971697940187
 31
0.0
  0
LINE
  5
13D82
330
1F
100
AcDbEntity
  8
CONTINUOUS1
100
AcDbLine
 10
26.43454415741835
 20
15.83971697940187
 30
0.0
 11
25.73454415741835
 21
15.83971697940187
 31
0.0
  0
LINE
  5
13D83
330
1F
100
AcDbEntity
  8
CONTINUOUS1
100
AcDbLine
 10
26.43454415741835
 20
16.63971697940187
 30
0.0
 11
25.73454415741835
 21
16.63971697940187
 31
0.0
  0
LINE
  5
13D84
330
1F
100
AcDbEntity
  8
CONTINUOUS1
100
AcDbLine
 10
25.58454415741834
 20
16.83971697940187
 30
0.0
 11
25.83454415741835
 21
16.83971697940187
 31
0.0
  0
LINE
  5
13D86
330
1F
100
AcDbEntity
  8
CONTINUOUS1
100
AcDbLine
 10
25.83454415741835
 20
17.23971697940187
 30
0.0
 11
25.83454415741835
 21
16.83971697940187
 31
0.0
  0
LINE
  5
13D87
330
1F
100
AcDbEntity
  8
CONTINUOUS1
100
AcDbLine
 10
26.33454415741835
 20
17.33971697940187
 30
0.0
 11
26.33454415741835
 21
16.83971697940187
 31
0.0
  0
LINE
  5
13D88
330
1F
100
AcDbEntity
  8
CONTINUOUS1
100
AcDbLine
 10
26.33454415741835
 20
16.83971697940187
 30
0.0
 11
26.58454415741835
 21
16.83971697940187
 31
0.0
  0
LINE
  5
13D89
330
1F
100
AcDbEntity
  8
CONTINUOUS1
100
AcDbLine
 10
25.83454415741835
 20
15.73971697940187
 30
0.0
 11
25.83454415741835
 21
15.63971697940187
 31
0.0
  0
LINE
  5
13D8A
330
1F
100
AcDbEntity
  8
CONTINUOUS1
100
AcDbLine
 10
26.33454415741835
 20
15.73971697940187
 30
0.0
 11
26.33454415741835
 21
15.63971697940187
 31
0.0
  0
LINE
  5
13D8B
330
1F
100
AcDbEntity
  8
CONTINUOUS1
100
AcDbLine
 10
26.33454415741835
 20
15.63971697940187
 30
0.0
 11
26.43454415741835
 21
15.63971697940187
 31
0.0
  0
LINE
  5
13D8D
330
1F
100
AcDbEntity
  8
CONTINUOUS1
100
AcDbLine
 10
25.73454415741835
 20
15.63971697940187
 30
0.0
 11
25.73454415741835
 21
15.61471697940187
 31
0.0
  0
LINE
  5
13D8E
330
1F
100
AcDbEntity
  8
CONTINUOUS1
100
AcDbLine
 10
26.43454415741835
 20
15.63971697940187
 30
0.0
 11
26.43454415741835
 21
15.61471697940187
 31
0.0
  0
LINE
  5
13D8F
330
1F
100
AcDbEntity
  8
CONTINUOUS1
100
AcDbLine
 10
26.50954415741835
 20
15.53971697940187
 30
0.0
 11
26.50954415741835
 21
15.53971697940187
 31
0.0
  0
ARC
  5
13D90
330
1F
100
AcDbEntity
  8
CONTINUOUS1
100
AcDbCircle
 10
25.65954415741835
 20
15.61471697940187
 30
0.0
 40
0.075
100
AcDbArc
 50
180.0
 51
269.9999999999996
  0
ARC
  5
13D91
330
1F
100
AcDbEntity
  8
CONTINUOUS1
100
AcDbCircle
 10
25.65954415741835
 20
15.61471697940187
 30
0.0
 40
0.075
100
AcDbArc
 50
270.0
 51
0.0
  0
ARC
  5
13D92
330
1F
100
AcDbEntity
  8
CONTINUOUS1
100
AcDbCircle
 10
26.50954415741835
 20
15.61471697940187
 30
0.0
 40
0.075
100
AcDbArc
 50
180.0
 51
270.0000000000003
  0
ARC
  5
13D93
330
1F
100
AcDbEntity
  8
CONTINUOUS1
100
AcDbCircle
 10
26.50954415741835
 20
15.61471697940187
 30
0.0
 40
0.075
100
AcDbArc
 50
270.0000000000007
 51
0.0
  0
LINE
  5
13D95
330
1F
100
AcDbEntity
  8
CONTINUOUS1
100
AcDbLine
 10
26.58454415741835
 20
17.38971697940187
 30
0.0
 11
25.58454415741834
 21
17.18971697940187
 31
0.0
  0
LINE
  5
13E16
330
1F
100
AcDbEntity
  8
HIDDEN1
100
AcDbLine
 10
19.77547228279465
 20
16.63971697940204
 30
0.0
 11
19.68172228279464
 21
16.63971697940204
 31
0.0
  0
LINE
  5
13E17
330
1F
100
AcDbEntity
  8
HIDDEN1
100
AcDbLine
 10
19.68172228279464
 20
15.83971697940204
 30
0.0
 11
19.77547228279465
 21
15.83971697940204
 31
0.0
  0
LINE
  5
13E18
330
1F
100
AcDbEntity
  8
CONTINUOUS1
100
AcDbLine
 10
19.77547228279465
 20
16.83971697940204
 30
0.0
 11
19.68172228279464
 21
16.83971697940204
 31
0.0
  0
LINE
  5
13E19
330
1F
100
AcDbEntity
  8
CONTINUOUS1
100
AcDbLine
 10
14.87680443615248
 20
12.60582797597932
 30
0.0
 11
16.64749749323033
 21
12.60582797597932
 31
0.0
  0
LINE
  5
13E1A
330
1F
100
AcDbEntity
  8
CONTINUOUS1
100
AcDbLine
 10
14.84749749323033
 20
12.69957797597932
 30
0.0
 11
16.64749749323033
 21
12.69957797597932
 31
0.0
  0
LINE
  5
13E1B
330
1F
100
AcDbEntity
  8
CONTINUOUS1
100
AcDbLine
 10
15.34749749323033
 20
12.69957797597932
 30
0.0
 11
15.34749749323033
 21
12.60582797597932
 31
0.0
  0
LINE
  5
13E1C
330
1F
100
AcDbEntity
  8
CONTINUOUS1
100
AcDbLine
 10
14.81400384417644
 20
12.84020297597932
 30
0.0
 11
14.91448479133811
 21
12.46520297597932
 31
0.0
  0
LINE
  5
13E1D
330
1F
100
AcDbEntity
  8
HIDDEN1
100
AcDbLine
 10
16.34749749323033
 20
12.60582797597932
 30
0.0
 11
16.34749749323033
 21
12.69957797597932
 31
0.0
  0
LINE
  5
13E1E
330
1F
100
AcDbEntity
  8
HIDDEN1
100
AcDbLine
 10
15.54749749323033
 20
12.69957797597932
 30
0.0
 11
15.54749749323033
 21
12.60582797597932
 31
0.0
  0
LINE
  5
13E1F
330
1F
100
AcDbEntity
  8
CONTINUOUS1
100
AcDbLine
 10
16.64749749323033
 20
12.69957797597932
 30
0.0
 11
16.64749749323033
 21
12.60582797597932
 31
0.0
  0
LINE
  5
13E20
330
1F
100
AcDbEntity
  8
CENTER1
100
AcDbLine
 10
16.52249749323033
 20
12.65270297597932
 30
0.0
 11
17.97842349551214
 21
12.65270297597932
 31
0.0
  0
LINE
  5
13E21
330
1F
100
AcDbEntity
  8
CENTER1
100
AcDbLine
 10
17.52249749323032
 20
11.15270297597932
 30
0.0
 11
18.97842349551215
 21
11.15270297597932
 31
0.0
  0
DIMENSION
  5
13EA7
330
1F
100
AcDbEntity
  8
DIM
100
AcDbDimension
  2
*D9
 10
19.37859728279464
 20
7.635827975979321
 30
0.0
 11
20.60954966374703
 21
7.635827975979321
 31
0.0
 70
   160
  3
SCHNEIDERELECTRIC_DUAL_BEL
100
AcDbAlignedDimension
 13
20.00859728279464
 23
8.385827975979321
 33
0.0
 14
19.37859728279464
 24
8.354577975979321
 34
0.0
100
AcDbRotatedDimension
1001
ACAD
1000
DSTYLE
1002
{
1070
    40
1040
2.0
1002
}
  0
DIMENSION
  5
13EC0
330
1F
100
AcDbEntity
  8
DIM
100
AcDbDimension
  2
*D10
 10
18.27859728279464
 20
6.635827975979321
 30
0.0
 11
19.14359728279464
 21
6.635827975979321
 31
0.0
 70
   160
  3
SCHNEIDERELECTRIC_DUAL_BEL
100
AcDbAlignedDimension
 13
20.00859728279464
 23
8.385827975979321
 33
0.0
 14
18.27859728279464
 24
8.510827975979317
 34
0.0
100
AcDbRotatedDimension
1001
ACAD
1000
DSTYLE
1002
{
1070
    40
1040
2.0
1002
}
  0
DIMENSION
  5
13EF6
330
1F
100
AcDbEntity
  8
DIM
100
AcDbDimension
  2
*D11
 10
17.52859728279464
 20
11.15270297597932
 30
0.0
 11
17.52859728279464
 21
11.90270297597932
 31
0.0
 70
    32
  3
SCHNEIDERELECTRIC_DUAL_BEL
100
AcDbAlignedDimension
 13
18.81015978279465
 23
12.65270297597932
 33
0.0
 14
18.25046049437124
 24
11.15270297597932
 34
0.0
 50
90.0
100
AcDbRotatedDimension
1001
ACAD
1000
DSTYLE
1002
{
1070
     3
1000
\P
1070
    40
1040
2.0
1002
}
  0
DIMENSION
  5
13F98
330
1F
100
AcDbEntity
  8
DIM
100
AcDbDimension
  2
*D12
 10
23.15579415741835
 20
11.14582797597932
 30
0.0
 11
23.15579415741835
 21
12.00082797597932
 31
0.0
 70
    32
  3
SCHNEIDERELECTRIC_DUAL_BEL
100
AcDbAlignedDimension
 13
25.50954415741835
 23
12.85582797597932
 33
0.0
 14
23.87454415741835
 24
11.14582797597932
 34
0.0
 50
90.0
100
AcDbRotatedDimension
1001
ACAD
1000
DSTYLE
1002
{
1070
     3
1000
\P
1070
    40
1040
2.0
1002
}
  0
DIMENSION
  5
13FA6
330
1F
100
AcDbEntity
  8
DIM
100
AcDbDimension
  2
*D13
 10
23.15579415741835
 20
8.785827975979321
 30
0.0
 11
23.15579415741835
 21
9.965827975979324
 31
0.0
 70
    32
  3
SCHNEIDERELECTRIC_DUAL_BEL
100
AcDbAlignedDimension
 13
25.37454415741835
 23
11.14582797597932
 33
0.0
 14
25.37454415741835
 24
8.785827975979321
 34
0.0
 50
90.0
100
AcDbRotatedDimension
1001
ACAD
1000
DSTYLE
1002
{
1070
     3
1000
\P
1070
    40
1040
2.0
1002
}
  0
LINE
  5
13FCE
330
1F
100
AcDbEntity
  8
CENTER1
100
AcDbLine
 10
26.98954415741835
 20
11.14582797597932
 30
0.0
 11
25.37454415741835
 21
11.14582797597932
 31
0.0
  0
DIMENSION
  5
13FD9
330
1F
100
AcDbEntity
  8
DIM
100
AcDbDimension
  2
*D14
 10
22.15579415741835
 20
8.385827975979319
 30
0.0
 11
22.15579415741835
 21
10.62082797597932
 31
0.0
 70
    32
  3
SCHNEIDERELECTRIC_DUAL_BEL
100
AcDbAlignedDimension
 13
25.50954415741835
 23
12.85582797597932
 33
0.0
 14
25.40579415741835
 24
8.385827975979319
 34
0.0
 50
90.0
100
AcDbRotatedDimension
1001
ACAD
1000
DSTYLE
1002
{
1070
     3
1000
\P
1070
    40
1040
2.0
1002
}
  0
DIMENSION
  5
140B3
330
1F
100
AcDbEntity
  8
DIM
100
AcDbDimension
  2
*D15
 10
26.74954415741835
 20
6.635827975979321
 30
0.0
 11
26.15954415741835
 21
6.635827975979321
 31
0.0
 70
   160
  3
SCHNEIDERELECTRIC_DUAL_BEL
100
AcDbAlignedDimension
 13
25.56954415741835
 23
8.385827975979319
 33
0.0
 14
26.74954415741835
 24
8.385827975979321
 34
0.0
100
AcDbRotatedDimension
1001
ACAD
1000
DSTYLE
1002
{
1070
    40
1040
2.0
1002
}
  0
DIMENSION
  5
140C1
330
1F
100
AcDbEntity
  8
DIM
100
AcDbDimension
  2
*D16
 10
25.56954415741835
 20
7.635827975979321
 30
0.0
 11
24.92882987170407
 21
7.635827975979321
 31
0.0
 70
   160
  1
=
  3
SCHNEIDERELECTRIC_DUAL_BEL
100
AcDbAlignedDimension
 13
25.37454415741835
 23
8.417077975979319
 33
0.0
 14
25.56954415741835
 24
8.385827975979319
 34
0.0
100
AcDbRotatedDimension
1001
ACAD
1000
DSTYLE
1002
{
1070
    40
1040
2.0
1070
    77
1070
     3
1002
}
  0
DIMENSION
  5
14153
330
1F
100
AcDbEntity
  8
DIM
100
AcDbDimension
  2
*D17
 10
26.94454415741835
 20
7.635827975979321
 30
0.0
 11
27.39025844313264
 21
7.81582797597932
 31
0.0
 70
    32
  1
=
  3
SCHNEIDERELECTRIC_DUAL_BEL
100
AcDbAlignedDimension
 13
26.74954415741835
 23
8.385827975979323
 33
0.0
 14
26.94454415741835
 24
8.417077975979323
 34
0.0
100
AcDbRotatedDimension
1001
ACAD
1000
DSTYLE
1002
{
1070
    40
1040
2.0
1070
    77
1070
     3
1002
}
  0
DIMENSION
  5
14176
330
1F
100
AcDbEntity
  8
DIM
100
AcDbDimension
  2
*D18
 10
26.94454415741835
 20
5.635827975979321
 30
0.0
 11
26.15954415741835
 21
5.635827975979321
 31
0.0
 70
   160
  3
SCHNEIDERELECTRIC_DUAL_BEL
100
AcDbAlignedDimension
 13
25.37454415741835
 23
8.417077975979319
 33
0.0
 14
26.94454415741835
 24
8.417077975979323
 34
0.0
100
AcDbRotatedDimension
1001
ACAD
1000
DSTYLE
1002
{
1070
    40
1040
2.0
1002
}
  0
DIMENSION
  5
1443B
330
1F
100
AcDbEntity
  8
DIM
100
AcDbDimension
  2
*D19
 10
26.65348430172824
 20
8.78822495847565
 30
0.0
 11
30.03154487133948
 21
8.117372987146417
 31
0.0
 70
   163
  1
\P\P.29 X .21\P[7]   [5]\P(2 ELONGATED HOLES
  3
SCHNEIDERELECTRIC_DUAL_BEL
100
AcDbDiametricDimension
 15
26.84560401310847
 25
8.703430993482983
 35
0.0
 40
0.0
1001
ACAD
1000
DSTYLE
1002
{
1070
   141
1040
0.0
1070
    40
1040
2.0
1070
   288
1070
     1
1002
}
  0
TEXT
  5
14583
330
1F
100
AcDbEntity
  8
TEXT1
100
AcDbText
 10
13.03256620674706
 20
7.217776399235861
 30
0.0
 40
0.2
  1
1/2" NPT CONDUIT ENTRY
  7
ROMANS
 72
     2
 11
17.0801852543661
 21
7.31777639923586
 31
0.0
100
AcDbText
 73
     2
  0
LEADER
  5
14584
330
1F
100
AcDbEntity
  8
TEXT1
100
AcDbLeader
  3
SCHNEIDERELECTRIC_DUAL_BEL
 76
     3
 10
19.37859728279464
 20
8.354577975979321
 30
0.0
 10
17.74839188767983
 20
7.31777639923586
 30
0.0
 10
17.34746789045024
 20
7.31777639923586
 30
0.0
1001
ACAD
1000
DSTYLE
1002
{
1070
     5
1000
SEARROW
1070
    40
1040
2.0
1070
    77
1070
     0
1070
   147
1040
0.04
1070
   342
1005
AA81
1002
}
  0
LINE
  5
14758
330
1F
100
AcDbEntity
  8
CONTINUOUS1
100
AcDbLine
 10
24.75954415741835
 20
12.04707797597932
 30
0.0
 11
24.75954415741835
 21
12.48457797597932
 31
0.0
  0
LINE
  5
1477A
330
1F
100
AcDbEntity
  8
CONTINUOUS1
100
AcDbLine
 10
25.50954415741836
 20
12.67207797597932
 30
0.0
 11
25.18141915741835
 21
12.67207797597932
 31
0.0
  0
LINE
  5
1477B
330
1F
100
AcDbEntity
  8
CONTINUOUS1
100
AcDbLine
 10
25.50954415741836
 20
11.82459047597932
 30
0.0
 11
24.94704415741836
 21
11.82459047597932
 31
0.0
  0
LINE
  5
1477C
330
1F
100
AcDbEntity
  8
CONTINUOUS1
100
AcDbLine
 10
24.91579415741835
 20
11.95332797597931
 30
0.0
 11
24.91579415741835
 21
12.57832797597931
 31
0.0
  0
LINE
  5
1477D
330
1F
100
AcDbEntity
  8
CONTINUOUS1
100
AcDbLine
 10
24.94704415741836
 20
11.85957797597932
 30
0.0
 11
24.94704415741835
 21
12.59395297597932
 31
0.0
  0
LINE
  5
1477E
330
1F
100
AcDbEntity
  8
CONTINUOUS1
100
AcDbLine
 10
24.94704415741835
 20
12.57832797597932
 30
0.0
 11
24.91579415741835
 21
12.57832797597932
 31
0.0
  0
LINE
  5
1477F
330
1F
100
AcDbEntity
  8
CONTINUOUS1
100
AcDbLine
 10
24.94704415741835
 20
11.95332797597931
 30
0.0
 11
24.91579415741835
 21
11.95332797597931
 31
0.0
  0
LINE
  5
14780
330
1F
100
AcDbEntity
  8
CONTINUOUS1
100
AcDbLine
 10
24.75954415741835
 20
12.48457797597932
 30
0.0
 11
24.91579415741835
 21
12.57832797597931
 31
0.0
  0
LINE
  5
14781
330
1F
100
AcDbEntity
  8
CONTINUOUS1
100
AcDbLine
 10
24.75954415741835
 20
12.04707797597932
 30
0.0
 11
24.91579415741835
 21
11.95332797597931
 31
0.0
  0
LINE
  5
14787
330
1F
100
AcDbEntity
  8
CONTINUOUS1
100
AcDbLine
 10
24.94704415741835
 20
12.59395297597932
 30
0.0
 11
25.18141915741835
 21
12.67207797597932
 31
0.0
  0
LINE
  5
14788
330
1F
100
AcDbEntity
  8
CONTINUOUS1
100
AcDbLine
 10
25.18141915741835
 20
12.38301547597931
 30
0.0
 11
25.17829415741835
 21
12.38301547597931
 31
0.0
  0
LINE
  5
14789
330
1F
100
AcDbEntity
  8
CONTINUOUS1
100
AcDbLine
 10
25.18141915741836
 20
12.11364047597931
 30
0.0
 11
24.94704415741835
 21
12.11364047597931
 31
0.0
  0
LINE
  5
1478C
330
1F
100
AcDbEntity
  8
CONTINUOUS1
100
AcDbLine
 10
25.10329415741835
 20
12.45801547597932
 30
0.0
 11
25.10329415741835
 21
12.57832797597932
 31
0.0
  0
LINE
  5
1478D
330
1F
100
AcDbEntity
  8
CONTINUOUS1
100
AcDbLine
 10
25.50954415741836
 20
12.43770297597932
 30
0.0
 11
25.24391915741835
 21
12.43770297597932
 31
0.0
  0
LINE
  5
1478E
330
1F
100
AcDbEntity
  8
CONTINUOUS1
100
AcDbLine
 10
25.50954415741836
 20
12.05896547597932
 30
0.0
 11
25.24391915741836
 21
12.05896547597932
 31
0.0
  0
LINE
  5
1478F
330
1F
100
AcDbEntity
  8
CONTINUOUS1
100
AcDbLine
 10
25.50954415741836
 20
12.57832797597932
 30
0.0
 11
25.10329415741835
 21
12.57832797597932
 31
0.0
  0
LINE
  5
14790
330
1F
100
AcDbEntity
  8
CONTINUOUS1
100
AcDbLine
 10
25.50954415741836
 20
11.91834047597932
 30
0.0
 11
25.10329415741836
 21
11.91834047597931
 31
0.0
  0
LINE
  5
14792
330
1F
100
AcDbEntity
  8
CONTINUOUS1
100
AcDbLine
 10
26.80954415741835
 20
12.11364047597931
 30
0.0
 11
25.50954415741835
 21
12.11364047597931
 31
0.0
  0
LINE
  5
14795
330
1F
100
AcDbEntity
  8
CONTINUOUS1
100
AcDbLine
 10
25.18141915741835
 20
12.38301547597931
 30
0.0
 11
24.94704415741835
 21
12.38301547597931
 31
0.0
  0
ARC
  5
14797
330
1F
100
AcDbEntity
  8
CONTINUOUS1
100
AcDbCircle
 10
25.17829415741835
 20
12.45801547597931
 30
0.0
 40
0.075
100
AcDbArc
 50
179.9999999999988
 51
270.0
  0
ARC
  5
14798
330
1F
100
AcDbEntity
  8
CONTINUOUS1
100
AcDbCircle
 10
25.17829415741836
 20
12.03865297597932
 30
0.0
 40
0.075
100
AcDbArc
 50
90.00000000000129
 51
179.9999999999991
  0
LINE
  5
14799
330
1F
100
AcDbEntity
  8
CONTINUOUS1
100
AcDbLine
 10
25.10329415741836
 20
11.91834047597931
 30
0.0
 11
25.10329415741836
 21
12.03865297597932
 31
0.0
  0
LINE
  5
1479B
330
1F
100
AcDbEntity
  8
CONTINUOUS1
100
AcDbLine
 10
25.18141915741841
 20
11.91834047597931
 30
0.0
 11
25.18141915741832
 21
12.57832797597932
 31
0.0
  0
ARC
  5
1479D
330
1F
100
AcDbEntity
  8
CONTINUOUS1
100
AcDbCircle
 10
25.24391915741835
 20
12.37520297597932
 30
0.0
 40
0.0625
100
AcDbArc
 50
90.0000000000003
 51
180.0000000000006
  0
ARC
  5
1479E
330
1F
100
AcDbEntity
  8
CONTINUOUS1
100
AcDbCircle
 10
25.24391915741836
 20
12.12146547597932
 30
0.0
 40
0.0625
100
AcDbArc
 50
180.0
 51
270.0
  0
DIMENSION
  5
147D3
330
1F
100
AcDbEntity
  8
DIM
100
AcDbDimension
  2
*D20
 10
24.00954415741836
 20
11.14582797597932
 30
0.0
 11
24.00954415741836
 21
11.70582797597932
 31
0.0
 70
    32
  3
SCHNEIDERELECTRIC_DUAL_BEL
100
AcDbAlignedDimension
 13
24.75954415741835
 23
12.26582797597932
 33
0.0
 14
25.37454415741835
 24
11.14582797597932
 34
0.0
 50
90.0
100
AcDbRotatedDimension
1001
ACAD
1000
DSTYLE
1002
{
1070
     3
1000
\P
1070
    40
1040
2.0
1002
}
  0
LINE
  5
14920
330
1F
100
AcDbEntity
  8
CONTINUOUS1
100
AcDbLine
 10
18.55234728279464
 20
12.11364047597932
 30
0.0
 11
18.55234728279464
 21
12.34801547597932
 31
0.0
  0
LINE
  5
14926
330
1F
100
AcDbEntity
  8
CONTINUOUS1
100
AcDbLine
 10
18.70078478279464
 20
12.07457797597932
 30
0.0
 11
18.70078478279464
 21
12.10582797597932
 31
0.0
  0
LINE
  5
14927
330
1F
100
AcDbEntity
  8
CONTINUOUS1
100
AcDbLine
 10
18.70078478279464
 20
12.38707797597932
 30
0.0
 11
18.55234728279464
 21
12.34801547597931
 31
0.0
  0
LINE
  5
14928
330
1F
100
AcDbEntity
  8
CONTINUOUS1
100
AcDbLine
 10
18.55234728279464
 20
12.11364047597932
 30
0.0
 11
18.70078478279464
 21
12.07457797597932
 31
0.0
  0
LINE
  5
14929
330
1F
100
AcDbEntity
  8
CONTINUOUS1
100
AcDbLine
 10
18.70078478279464
 20
12.35582797597932
 30
0.0
 11
18.70078478279464
 21
12.38707797597932
 31
0.0
  0
LINE
  5
1492B
330
1F
100
AcDbEntity
  8
CONTINUOUS1
100
AcDbLine
 10
18.93515978279464
 20
12.11362797597932
 30
0.0
 11
18.93515978279464
 21
12.34802797597932
 31
0.0
  0
LINE
  5
1492C
330
1F
100
AcDbEntity
  8
CONTINUOUS1
100
AcDbLine
 10
18.89610978279464
 20
12.38707797597932
 30
0.0
 11
18.89608478279464
 21
12.38707797597932
 31
0.0
  0
LINE
  5
1492D
330
1F
100
AcDbEntity
  8
CONTINUOUS1
100
AcDbLine
 10
18.89610978279464
 20
12.07457797597932
 30
0.0
 11
18.89608478279464
 21
12.07457797597932
 31
0.0
  0
LINE
  5
1492E
330
1F
100
AcDbEntity
  8
CONTINUOUS1
100
AcDbLine
 10
18.85703478279464
 20
12.35582797597932
 30
0.0
 11
18.70078478279465
 21
12.35582797597932
 31
0.0
  0
LINE
  5
1492F
330
1F
100
AcDbEntity
  8
CONTINUOUS1
100
AcDbLine
 10
18.8578217131321
 20
12.10582797597932
 30
0.0
 11
18.70078478279465
 21
12.10582797597932
 31
0.0
  0
LINE
  5
14930
330
1F
100
AcDbEntity
  8
CONTINUOUS1
100
AcDbLine
 10
18.95078478279464
 20
12.35582797597932
 30
0.0
 11
18.93515978279464
 21
12.35582797597932
 31
0.0
  0
ARC
  5
14931
330
1F
100
AcDbEntity
  8
CONTINUOUS1
100
AcDbCircle
 10
18.89610978279464
 20
12.34802797597931
 30
0.0
 40
0.03905
100
AcDbArc
 50
0.0000000000026063
 51
90.0
  0
ARC
  5
14932
330
1F
100
AcDbEntity
  8
CONTINUOUS1
100
AcDbCircle
 10
18.89608478279464
 20
12.34802797597932
 30
0.0
 40
0.03905
100
AcDbArc
 50
89.99999999999479
 51
168.4780155384905
  0
ARC
  5
14933
330
1F
100
AcDbEntity
  8
CONTINUOUS1
100
AcDbCircle
 10
18.89608478279464
 20
12.11362797597931
 30
0.0
 40
0.03905
100
AcDbArc
 50
191.5219844615094
 51
270.0000000000051
  0
ARC
  5
14934
330
1F
100
AcDbEntity
  8
CONTINUOUS1
100
AcDbCircle
 10
18.89610978279464
 20
12.11362797597932
 30
0.0
 40
0.03905
100
AcDbArc
 50
270.0
 51
0.0000000000003689
  0
LINE
  5
14935
330
1F
100
AcDbEntity
  8
CONTINUOUS1
100
AcDbLine
 10
18.8578217131321
 20
12.09801547597932
 30
0.0
 11
18.70859728279464
 21
12.09801547597932
 31
0.0
  0
ARC
  5
14936
330
1F
100
AcDbEntity
  8
CONTINUOUS1
100
AcDbCircle
 10
18.89608478279464
 20
12.11362797597931
 30
0.0
 40
0.0468625
100
AcDbArc
 50
191.5219844615094
 51
270.0000000000051
  0
ARC
  5
14937
330
1F
100
AcDbEntity
  8
CONTINUOUS1
100
AcDbCircle
 10
18.89610978279464
 20
12.11362797597932
 30
0.0
 40
0.0468625
100
AcDbArc
 50
270.0
 51
0.0000000000003689
  0
LINE
  5
14938
330
1F
100
AcDbEntity
  8
CONTINUOUS1
100
AcDbLine
 10
18.94297228279464
 20
12.11362797597932
 30
0.0
 11
18.94297228279464
 21
12.34802797597932
 31
0.0
  0
CIRCLE
  5
14943
330
1F
100
AcDbEntity
  8
CONTINUOUS1
100
AcDbCircle
 10
18.77890978279465
 20
12.48082797597932
 30
0.0
 40
0.03125
  0
CIRCLE
  5
14944
330
1F
100
AcDbEntity
  8
CONTINUOUS1
100
AcDbCircle
 10
18.77890978279465
 20
11.98082797597932
 30
0.0
 40
0.03125
  0
LINE
  5
14945
330
1F
100
AcDbEntity
  8
CONTINUOUS1
100
AcDbLine
 10
26.80954415741835
 20
12.07457797597932
 30
0.0
 11
25.50954415741835
 21
12.07457797597932
 31
0.0
  0
DIMENSION
  5
14BB4
330
1F
100
AcDbEntity
  8
DIM
100
AcDbDimension
  2
*D21
 10
26.80954415741835
 20
14.60582797597932
 30
0.0
 11
25.78454415741835
 21
14.60582797597932
 31
0.0
 70
   160
  3
SCHNEIDERELECTRIC_DUAL_BEL
100
AcDbAlignedDimension
 13
24.75954415741835
 23
12.48457797597932
 33
0.0
 14
26.80954415741835
 24
12.85582797597932
 34
0.0
100
AcDbRotatedDimension
1001
ACAD
1000
DSTYLE
1002
{
1070
    40
1040
2.0
1002
}
  0
HATCH
  5
153CB
330
1F
100
AcDbEntity
  8
TEXT1
100
AcDbHatch
 10
0.0
 20
0.0
 30
0.0
210
0.0
220
0.0
230
1.0
  2
SOLID
 70
     1
 71
     1
 91
        1
 92
        7
 72
     0
 73
     1
 93
       10
 10
0.7105812082569802
 20
13.98659020756571
 10
0.7810310373585413
 20
13.91614037846415
 10
0.7458061228077609
 20
14.0218151221165
 10
0.7810310373585442
 20
14.05704003666728
 10
0.7340644846241662
 20
14.05704003666728
 10
0.710581208256979
 20
14.12748986576884
 10
0.687097931889792
 20
14.05704003666728
 10
0.640131379155416
 20
14.05704003666728
 10
0.6753562937061983
 20
14.0218151221165
 10
0.640131379155417
 20
13.91614037846415
 97
       10
330
15402
330
15403
330
15404
330
153FF
330
15400
330
15401
330
153FD
330
153FE
330
153FC
330
153FB
 75
     0
 76
     1
 47
0.000278067764807
 98
        1
 10
0.7198734281222914
 20
14.00845729408694
  0
HATCH
  5
153CC
330
1F
100
AcDbEntity
  8
TEXT1
100
AcDbHatch
 10
0.0
 20
0.0
 30
0.0
210
0.0
220
0.0
230
1.0
  2
SOLID
 70
     1
 71
     1
 91
        1
 92
        1
 93
        4
 72
     1
 10
0.6386632395069789
 20
14.96519027752833
 11
0.6386632395069789
 21
14.82135434002833
 72
     1
 10
0.6386632395069789
 20
14.82135434002833
 11
0.7824991770069794
 21
14.82135434002833
 72
     1
 10
0.7824991770069794
 20
14.82135434002833
 11
0.7824991770069794
 21
14.96519027752833
 72
     1
 10
0.7824991770069794
 20
14.96519027752833
 11
0.6386632395069789
 21
14.96519027752833
 97
        4
330
15414
330
15413
330
15415
330
15412
 75
     0
 76
     1
 98
        1
 10
0.1654488622995465
 20
2.718356802350819
  0
HATCH
  5
153CD
330
1F
100
AcDbEntity
  8
TEXT1
100
AcDbHatch
 10
0.0
 20
0.0
 30
0.0
210
0.0
220
0.0
230
1.0
  2
SOLID
 70
     1
 71
     0
 91
        1
 92
        7
 72
     0
 73
     1
 93
       12
 10
0.7262423647807499
 20
14.63693077827587
 10
0.7262423647807501
 20
14.68380577827587
 10
0.6949923647807501
 20
14.68380577827587
 10
0.6949923647807501
 20
14.63693077827587
 10
0.6449923647807501
 20
14.63693077827587
 10
0.6449923647807501
 20
14.60568077827587
 10
0.6949923647807501
 20
14.60568077827587
 10
0.6949923647807501
 20
14.49630577827587
 10
0.7262423647807501
 20
14.49630577827587
 10
0.7262423647807501
 20
14.60568077827587
 10
0.7762423647807501
 20
14.60568077827587
 10
0.7762423647807503
 20
14.63693077827587
 97
        0
 75
     0
 76
     1
 47
0.0010530823070092
 98
        1
 10
0.7276106594645789
 20
14.62652419823498
  0
LINE
  5
153CE
330
1F
100
AcDbEntity
  8
CONTINUOUS1
100
AcDbLine
 10
0.4999992629688386
 20
10.79005577827587
 30
0.0
 11
0.4999992629688386
 21
8.040055778275872
 31
0.0
  0
LINE
  5
153CF
330
1F
100
AcDbEntity
  8
CONTINUOUS1
100
AcDbLine
 10
5.77563369302497
 20
10.79005577827587
 30
0.0
 11
5.775633693024971
 21
8.040055778275872
 31
0.0
  0
LINE
  5
153D0
330
1F
100
AcDbEntity
  8
CONTINUOUS1
100
AcDbLine
 10
13.43749926296883
 20
10.79005577827587
 30
0.0
 11
13.43749926296883
 21
8.040055778275872
 31
0.0
  0
LINE
  5
153D1
330
1F
100
AcDbEntity
  8
CONTINUOUS1
100
AcDbLine
 10
0.4999992629688386
 20
10.29005577827587
 30
0.0
 11
13.43749926296884
 21
10.29005577827587
 31
0.0
  0
LINE
  5
153D2
330
1F
100
AcDbEntity
  8
CONTINUOUS1
100
AcDbLine
 10
0.4999992629688386
 20
9.040055778275872
 30
0.0
 11
13.43749926296883
 21
9.040055778275872
 31
0.0
  0
LINE
  5
153D3
330
1F
100
AcDbEntity
  8
CONTINUOUS1
100
AcDbLine
 10
0.4999992629688386
 20
8.540055778275872
 30
0.0
 11
13.43749926296883
 21
8.540055778275872
 31
0.0
  0
LINE
  5
153D4
330
1F
100
AcDbEntity
  8
CONTINUOUS1
100
AcDbLine
 10
0.4999992629688386
 20
8.040055778275872
 30
0.0
 11
13.43749926296883
 21
8.040055778275872
 31
0.0
  0
TEXT
  5
153D5
330
1F
100
AcDbEntity
  8
TEXT1
100
AcDbText
 10
0.6249992629688386
 20
8.710055778275872
 30
0.0
 40
0.16
  1
MINIMUM FORCE FOR POSITIVE OPENING
  7
ROMANS
 11
0.6249992629688386
 21
8.790055778275872
 31
0.0
100
AcDbText
 73
     2
  0
TEXT
  5
153D6
330
1F
100
AcDbEntity
  8
TEXT1
100
AcDbText
 10
0.6249992629688386
 20
9.210055778275872
 30
0.0
 40
0.16
  1
MAXIMUM OPERATING RATE
  7
ROMANS
 11
0.6249992629688386
 21
9.290055778275872
 31
0.0
100
AcDbText
 73
     2
  0
TEXT
  5
153D7
330
1F
100
AcDbEntity
  8
TEXT1
100
AcDbText
 10
0.6249992629688386
 20
8.210055778275872
 30
0.0
 40
0.16
  1
CONDUIT ENTRY
  7
ROMANS
 11
0.6249992629688386
 21
8.290055778275872
 31
0.0
100
AcDbText
 73
     2
  0
TEXT
  5
153D8
330
1F
100
AcDbEntity
  8
TEXT1
100
AcDbText
 10
6.132320986480116
 20
9.210055778275872
 30
0.0
 40
0.16
  1
FOR MAXIMUM LIFE: 600 OPERATING CYCLES PER HOUR
  7
ROMANS
 11
6.132320986480116
 21
9.290055778275872
 31
0.0
100
AcDbText
 73
     2
  0
TEXT
  5
153D9
330
1F
100
AcDbEntity
  8
TEXT1
100
AcDbText
 10
6.132320986480116
 20
8.210055778275872
 30
0.0
 40
0.16
  1
XCSB: 1 ENTRY, CONDUIT ENTRY TAPPED 1/2" NPT
  7
ROMANS
 11
6.132320986480116
 21
8.290055778275872
 31
0.0
100
AcDbText
 73
     2
  0
TEXT
  5
153DA
330
1F
100
AcDbEntity
  8
TEXT1
100
AcDbText
 10
6.132320986480116
 20
8.710055778275872
 30
0.0
 40
0.16
  1
4.5lbs (20 N)
  7
ROMANS
 11
6.132320986480116
 21
8.790055778275872
 31
0.0
100
AcDbText
 73
     2
  0
TEXT
  5
153DB
330
1F
100
AcDbEntity
  8
TEXT1
100
AcDbText
 10
0.8449772817283474
 20
19.36005577827587
 30
0.0
 40
0.16
  1
CONTACTS PER IEC 947-5-1, EN 60947-5-1, AND NEMA ICS-5, PART 6 (DIRECT OPENING ACTION)
  7
ROMANS
 11
0.8449772817283474
 21
19.44005577827587
 31
0.0
100
AcDbText
 73
     2
  0
TEXT
  5
153DC
330
1F
100
AcDbEntity
  8
TEXT1
100
AcDbText
 10
0.8449772817283474
 20
19.66005577827587
 30
0.0
 40
0.16
  1
DIRECT OPENING N.C. CONTACTS MEET THE IEC AND EN REQUIREMENTS FOR POSITIVE OPENING
  7
ROMANS
 11
0.8449772817283474
 21
19.74005577827587
 31
0.0
100
AcDbText
 73
     2
  0
LINE
  5
153DD
330
1F
100
AcDbEntity
  8
CONTINUOUS1
100
AcDbLine
 10
0.4999992629688386
 20
19.19005577827587
 30
0.0
 11
13.43749926296884
 21
19.19005577827586
 31
0.0
  0
LINE
  5
153DE
330
1F
100
AcDbEntity
  8
CONTINUOUS1
100
AcDbLine
 10
0.4999992629688386
 20
18.69005577827587
 30
0.0
 11
13.43749926296884
 21
18.69005577827587
 31
0.0
  0
LINE
  5
153DF
330
1F
100
AcDbEntity
  8
CONTINUOUS1
100
AcDbLine
 10
0.4999992629688386
 20
18.69005577827587
 30
0.0
 11
13.43749926296884
 21
18.69005577827587
 31
0.0
  0
LINE
  5
153E0
330
1F
100
AcDbEntity
  8
CONTINUOUS1
100
AcDbLine
 10
0.4999992629688386
 20
17.94005577827587
 30
0.0
 11
13.43749926296884
 21
17.94005577827587
 31
0.0
  0
LINE
  5
153E1
330
1F
100
AcDbEntity
  8
CONTINUOUS1
100
AcDbLine
 10
0.4999992629688386
 20
17.19005577827587
 30
0.0
 11
13.43749926296884
 21
17.19005577827587
 31
0.0
  0
LINE
  5
153E2
330
1F
100
AcDbEntity
  8
CONTINUOUS1
100
AcDbLine
 10
0.4999992629688386
 20
16.44005577827587
 30
0.0
 11
13.43749926296884
 21
16.44005577827587
 31
0.0
  0
LINE
  5
153E3
330
1F
100
AcDbEntity
  8
CONTINUOUS1
100
AcDbLine
 10
0.4999992629688386
 20
15.69005577827587
 30
0.0
 11
13.43749926296884
 21
15.69005577827587
 31
0.0
  0
LINE
  5
153E4
330
1F
100
AcDbEntity
  8
CONTINUOUS1
100
AcDbLine
 10
0.4999992629688386
 20
15.19005577827587
 30
0.0
 11
13.43749926296884
 21
15.19005577827587
 31
0.0
  0
TEXT
  5
153E5
330
1F
100
AcDbEntity
  8
TEXT1
100
AcDbText
 10
0.6249992629688386
 20
18.23505577827587
 30
0.0
 40
0.16
  1
LED INDICATION ON OPENING OF N.C. CONTACTS
  7
ROMANS
 11
0.6249992629688386
 21
18.31505577827587
 31
0.0
100
AcDbText
 73
     2
  0
TEXT
  5
153E6
330
1F
100
AcDbEntity
  8
TEXT1
100
AcDbText
 10
0.8566865564239858
 20
14.51005577827586
 30
0.0
 40
0.16
  1
SCHEMATIC DIAGRAMS SHOWN REPRESENT THE CONTACT STATE WHILE THE ACTUATING KEY IS FULLY INSERTED
  7
ROMANS
 11
0.8566865564239858
 21
14.59005577827586
 31
0.0
100
AcDbText
 73
     2
  0
TEXT
  5
153E7
330
1F
100
AcDbEntity
  8
TEXT1
100
AcDbText
 10
0.8566865564239858
 20
14.21005577827586
 30
0.0
 40
0.16
  1
AND ENGAGED IN THE HEAD OF THE SWITCH
  7
ROMANS
 11
0.8566865564239858
 21
14.29005577827586
 31
0.0
100
AcDbText
 73
     2
  0
TEXT
  5
153E8
330
1F
100
AcDbEntity
  8
TEXT1
100
AcDbText
 10
0.8566865564239858
 20
13.91005577827586
 30
0.0
 40
0.16
  1
THE N.O. CONTACTS WILL CLOSE AFTER THE N.C. CONTACTS ARE OPEN. THEY DO NOT CHANGE STATE
  7
ROMANS
 11
0.8566865564239858
 21
13.99005577827586
 31
0.0
100
AcDbText
 73
     2
  0
LINE
  5
153E9
330
1F
100
AcDbEntity
  8
CONTINUOUS1
100
AcDbLine
 10
0.4999992629688386
 20
13.39005577827587
 30
0.0
 11
13.43749926296884
 21
13.39005577827587
 31
0.0
  0
TEXT
  5
153EA
330
1F
100
AcDbEntity
  8
TEXT1
100
AcDbText
 10
0.8566865564239858
 20
13.06005577827587
 30
0.0
 40
0.16
  1
ONLY THE N.C. CONTACTS SHOULD BE USED IN THE SAFETY CONTROL CIRCUIT. THE N.O. CONTACTS
  7
ROMANS
 11
0.8566865564239858
 21
13.14005577827587
 31
0.0
100
AcDbText
 73
     2
  0
TEXT
  5
153EB
330
1F
100
AcDbEntity
  8
TEXT1
100
AcDbText
 10
0.8566865564239858
 20
12.76005577827587
 30
0.0
 40
0.16
  1
ARE PROVIDED SOLELY FOR SIGNALING - NOT FOR SAFETY FUNCTIONS. 
  7
ROMANS
 11
0.8566865564239858
 21
12.84005577827587
 31
0.0
100
AcDbText
 73
     2
  0
TEXT
  5
153EC
330
1F
100
AcDbEntity
  8
TEXT1
100
AcDbText
 10
0.8566865564239858
 20
12.16005577827587
 30
0.0
 40
0.16
  1
THE ONLY REPLACEMENT PARTS OR COMPONENTS AVAILABLE ARE COVERS AND LED INDICATOR
  7
ROMANS
 11
0.8566865564239858
 21
12.24005577827587
 31
0.0
100
AcDbText
 73
     2
  0
TEXT
  5
153ED
330
1F
100
AcDbEntity
  8
TEXT1
100
AcDbText
 10
0.8566865564239858
 20
11.86005577827587
 30
0.0
 40
0.16
  1
MODULES. THESE DEVICES ARE NOT TO BE REPAIRED OR ADJUSTED.
  7
ROMANS
 11
0.8566865564239858
 21
11.94005577827587
 31
0.0
100
AcDbText
 73
     2
  0
TEXT
  5
153EE
330
1F
100
AcDbEntity
  8
TEXT1
100
AcDbText
 10
0.8566865564239858
 20
11.56005577827587
 30
0.0
 40
0.16
  1
THE COMPLETE SWITCH SHOULD BE REPLACED.
  7
ROMANS
 11
0.8566865564239858
 21
11.64005577827587
 31
0.0
100
AcDbText
 73
     2
  0
LINE
  5
153EF
330
1F
100
AcDbEntity
  8
CONTINUOUS1
100
AcDbLine
 10
0.4999992629688386
 20
11.29005577827587
 30
0.0
 11
13.43749926296884
 21
11.29005577827587
 31
0.0
  0
TEXT
  5
153F0
330
1F
100
AcDbEntity
  8
TEXT1
100
AcDbText
 10
0.856686556423984
 20
10.96005577827587
 30
0.0
 40
0.16
  1
COMPLIMENTARY CHARACTERISTICS (NOT SHOWN UNDER GENERAL CHARACTERISTICS)
  7
ROMANS
 11
0.856686556423984
 21
11.04005577827587
 31
0.0
100
AcDbText
 73
     2
  0
LINE
  5
153F1
330
1F
100
AcDbEntity
  8
CONTINUOUS1
100
AcDbLine
 10
0.4999992629688386
 20
10.79005577827587
 30
0.0
 11
13.43749926296884
 21
10.79005577827587
 31
0.0
  0
LINE
  5
153F2
330
1F
100
AcDbEntity
  8
CONTINUOUS1
100
AcDbLine
 10
3.249999262968838
 20
17.94005577827587
 30
0.0
 11
3.249999262968838
 21
15.69005577827587
 31
0.0
  0
LINE
  5
153F3
330
1F
100
AcDbEntity
  8
CONTINUOUS1
100
AcDbLine
 10
0.4999992629688386
 20
19.19005577827587
 30
0.0
 11
0.4999992629688386
 21
15.19005577827587
 31
0.0
  0
TEXT
  5
153F4
330
1F
100
AcDbEntity
  8
TEXT1
100
AcDbText
 10
0.6249992629688386
 20
15.83505577827587
 30
0.0
 40
0.16
  1
SLOW BREAK
  7
ROMANS
 11
0.6249992629688386
 21
15.91505577827587
 31
0.0
100
AcDbText
 73
     2
  0
TEXT
  5
153F5
330
1F
100
AcDbEntity
  8
TEXT1
100
AcDbText
 10
0.6249992629688386
 20
16.13505577827587
 30
0.0
 40
0.16
  1
N.C. + N.C. + N.C.
  7
ROMANS
 11
0.6249992629688386
 21
16.21505577827587
 31
0.0
100
AcDbText
 73
     2
  0
TEXT
  5
153F6
330
1F
100
AcDbEntity
  8
TEXT1
100
AcDbText
 10
0.6249992629688386
 20
16.58505577827587
 30
0.0
 40
0.16
  1
SLOW BREAK
  7
ROMANS
 11
0.6249992629688386
 21
16.66505577827587
 31
0.0
100
AcDbText
 73
     2
  0
TEXT
  5
153F7
330
1F
100
AcDbEntity
  8
TEXT1
100
AcDbText
 10
0.6249992629688386
 20
15.36005577827587
 30
0.0
 40
0.16
  1
WEIGHT (oz.)
  7
ROMANS
 11
0.6249992629688386
 21
15.44005577827587
 31
0.0
100
AcDbText
 73
     2
  0
TEXT
  5
153F8
330
1F
100
AcDbEntity
  8
TEXT1
100
AcDbText
 10
0.8566865564239858
 20
14.81005577827587
 30
0.0
 40
0.16
  1
90%%d INCREMENTS THROUGHOUT 360%%D
  7
ROMANS
 11
0.8566865564239858
 21
14.89005577827587
 31
0.0
100
AcDbText
 73
     2
  0
TEXT
  5
153F9
330
1F
100
AcDbEntity
  8
TEXT1
100
AcDbText
 10
0.8566865564239858
 20
13.61005577827586
 30
0.0
 40
0.16
  1
SIMULTANEOUSLY
  7
ROMANS
 11
0.8566865564239858
 21
13.69005577827586
 31
0.0
100
AcDbText
 73
     2
  0
TEXT
  5
153FA
330
1F
100
AcDbEntity
  8
TEXT1
100
AcDbText
 10
0.6249992629688386
 20
10.46005577827587
 30
0.0
 40
0.16
  1
ACTUATION SPEED
  7
ROMANS
 11
0.6249992629688386
 21
10.54005577827587
 31
0.0
100
AcDbText
 73
     2
  0
LINE
  5
153FB
102
{ACAD_REACTORS
330
153CB
102
}
330
1F
100
AcDbEntity
  8
TEXT1
100
AcDbLine
 10
0.7458061228077604
 20
14.02181512211649
 30
0.0
 11
0.7810310373585417
 21
13.91614037846415
 31
0.0
  0
LINE
  5
153FC
102
{ACAD_REACTORS
330
153CB
102
}
330
1F
100
AcDbEntity
  8
TEXT1
100
AcDbLine
 10
0.7810310373585417
 20
13.91614037846415
 30
0.0
 11
0.7105812082569792
 21
13.98659020756571
 31
0.0
  0
LINE
  5
153FD
102
{ACAD_REACTORS
330
153CB
102
}
330
1F
100
AcDbEntity
  8
TEXT1
100
AcDbLine
 10
0.6753562937061979
 20
14.02181512211649
 30
0.0
 11
0.6401313791554167
 21
13.91614037846415
 31
0.0
  0
LINE
  5
153FE
102
{ACAD_REACTORS
330
153CB
102
}
330
1F
100
AcDbEntity
  8
TEXT1
100
AcDbLine
 10
0.7105812082569792
 20
13.98659020756571
 30
0.0
 11
0.6401313791554167
 21
13.91614037846415
 31
0.0
  0
LINE
  5
153FF
102
{ACAD_REACTORS
330
153CB
102
}
330
1F
100
AcDbEntity
  8
TEXT1
100
AcDbLine
 10
0.7105812082569792
 20
14.12748986576884
 30
0.0
 11
0.6870979318897917
 21
14.05704003666728
 31
0.0
  0
LINE
  5
15400
102
{ACAD_REACTORS
330
153CB
102
}
330
1F
100
AcDbEntity
  8
TEXT1
100
AcDbLine
 10
0.6401313791554167
 20
14.05704003666728
 30
0.0
 11
0.6870979318897917
 21
14.05704003666728
 31
0.0
  0
LINE
  5
15401
102
{ACAD_REACTORS
330
153CB
102
}
330
1F
100
AcDbEntity
  8
TEXT1
100
AcDbLine
 10
0.6753562937061979
 20
14.02181512211649
 30
0.0
 11
0.6401313791554167
 21
14.05704003666728
 31
0.0
  0
LINE
  5
15402
102
{ACAD_REACTORS
330
153CB
102
}
330
1F
100
AcDbEntity
  8
TEXT1
100
AcDbLine
 10
0.7810310373585417
 20
14.05704003666728
 30
0.0
 11
0.7458061228077604
 21
14.02181512211649
 31
0.0
  0
LINE
  5
15403
102
{ACAD_REACTORS
330
153CB
102
}
330
1F
100
AcDbEntity
  8
TEXT1
100
AcDbLine
 10
0.7340644846241667
 20
14.05704003666728
 30
0.0
 11
0.7810310373585417
 21
14.05704003666728
 31
0.0
  0
LINE
  5
15404
102
{ACAD_REACTORS
330
153CB
102
}
330
1F
100
AcDbEntity
  8
TEXT1
100
AcDbLine
 10
0.7105812082569792
 20
14.12748986576884
 30
0.0
 11
0.7340644846241667
 21
14.05704003666728
 31
0.0
  0
LINE
  5
15405
330
1F
100
AcDbEntity
  8
TEXT1
100
AcDbLine
 10
0.6949923647807506
 20
14.68380577827587
 30
0.0
 11
0.7262423647807506
 21
14.68380577827587
 31
0.0
  0
LINE
  5
15406
330
1F
100
AcDbEntity
  8
TEXT1
100
AcDbLine
 10
0.6949923647807506
 20
14.49630577827587
 30
0.0
 11
0.7262423647807506
 21
14.49630577827587
 31
0.0
  0
LINE
  5
15407
330
1F
100
AcDbEntity
  8
TEXT1
100
AcDbLine
 10
0.6949923647807506
 20
14.68380577827587
 30
0.0
 11
0.6949923647807506
 21
14.63693077827587
 31
0.0
  0
LINE
  5
15408
330
1F
100
AcDbEntity
  8
TEXT1
100
AcDbLine
 10
0.6949923647807506
 20
14.68380577827587
 30
0.0
 11
0.6949923647807506
 21
14.63693077827587
 31
0.0
  0
LINE
  5
15409
330
1F
100
AcDbEntity
  8
TEXT1
100
AcDbLine
 10
0.6449923647807499
 20
14.60568077827587
 30
0.0
 11
0.6449923647807499
 21
14.63693077827587
 31
0.0
  0
LINE
  5
1540A
330
1F
100
AcDbEntity
  8
TEXT1
100
AcDbLine
 10
0.6949923647807506
 20
14.63693077827587
 30
0.0
 11
0.6449923647807499
 21
14.63693077827587
 31
0.0
  0
LINE
  5
1540B
330
1F
100
AcDbEntity
  8
TEXT1
100
AcDbLine
 10
0.6949923647807506
 20
14.60568077827587
 30
0.0
 11
0.6449923647807499
 21
14.60568077827587
 31
0.0
  0
LINE
  5
1540C
330
1F
100
AcDbEntity
  8
TEXT1
100
AcDbLine
 10
0.6949923647807506
 20
14.60568077827587
 30
0.0
 11
0.6949923647807506
 21
14.49630577827587
 31
0.0
  0
LINE
  5
1540D
330
1F
100
AcDbEntity
  8
TEXT1
100
AcDbLine
 10
0.7262423647807506
 20
14.68380577827587
 30
0.0
 11
0.7262423647807506
 21
14.63693077827587
 31
0.0
  0
LINE
  5
1540E
330
1F
100
AcDbEntity
  8
TEXT1
100
AcDbLine
 10
0.7762423647807495
 20
14.63693077827587
 30
0.0
 11
0.7262423647807506
 21
14.63693077827587
 31
0.0
  0
LINE
  5
1540F
330
1F
100
AcDbEntity
  8
TEXT1
100
AcDbLine
 10
0.7762423647807495
 20
14.60568077827587
 30
0.0
 11
0.7262423647807506
 21
14.60568077827587
 31
0.0
  0
LINE
  5
15410
330
1F
100
AcDbEntity
  8
TEXT1
100
AcDbLine
 10
0.7762423647807495
 20
14.63693077827587
 30
0.0
 11
0.7762423647807495
 21
14.60568077827587
 31
0.0
  0
LINE
  5
15411
330
1F
100
AcDbEntity
  8
TEXT1
100
AcDbLine
 10
0.7262423647807506
 20
14.60568077827587
 30
0.0
 11
0.7262423647807506
 21
14.49630577827587
 31
0.0
  0
LINE
  5
15412
102
{ACAD_REACTORS
330
153CC
102
}
330
1F
100
AcDbEntity
  8
TEXT1
100
AcDbLine
 10
0.6386632395069789
 20
14.96519027752833
 30
0.0
 11
0.7824991770069794
 21
14.96519027752833
 31
0.0
  0
LINE
  5
15413
102
{ACAD_REACTORS
330
153CC
102
}
330
1F
100
AcDbEntity
  8
TEXT1
100
AcDbLine
 10
0.7824991770069794
 20
14.82135434002833
 30
0.0
 11
0.6386632395069789
 21
14.82135434002833
 31
0.0
  0
LINE
  5
15414
102
{ACAD_REACTORS
330
153CC
102
}
330
1F
100
AcDbEntity
  8
TEXT1
100
AcDbLine
 10
0.6386632395069789
 20
14.96519027752833
 30
0.0
 11
0.6386632395069789
 21
14.82135434002833
 31
0.0
  0
LINE
  5
15415
102
{ACAD_REACTORS
330
153CC
102
}
330
1F
100
AcDbEntity
  8
TEXT1
100
AcDbLine
 10
0.7824991770069794
 20
14.96519027752833
 30
0.0
 11
0.7824991770069794
 21
14.82135434002833
 31
0.0
  0
TEXT
  5
15416
330
1F
100
AcDbEntity
  8
TEXT1
100
AcDbText
 10
0.6249992629688386
 20
18.86005577827587
 30
0.0
 40
0.16
  1
TYPE OF SWITCH
  7
ROMANS
 11
0.6249992629688386
 21
18.94005577827587
 31
0.0
100
AcDbText
 73
     2
  0
TEXT
  5
15417
330
1F
100
AcDbEntity
  8
TEXT1
100
AcDbText
 10
0.6249992629688386
 20
16.88505577827587
 30
0.0
 40
0.16
  1
N.C. + N.C. + N.O.
  7
ROMANS
 11
0.6249992629688386
 21
16.96505577827587
 31
0.0
100
AcDbText
 73
     2
  0
TEXT
  5
15418
330
1F
100
AcDbEntity
  8
TEXT1
100
AcDbText
 10
0.6249992629688386
 20
17.33505577827587
 30
0.0
 40
0.16
  1
SLOW BREAK
  7
ROMANS
 11
0.6249992629688386
 21
17.41505577827587
 31
0.0
100
AcDbText
 73
     2
  0
TEXT
  5
15419
330
1F
100
AcDbEntity
  8
TEXT1
100
AcDbText
 10
0.6249992629688386
 20
17.63505577827587
 30
0.0
 40
0.16
  1
N.C. + N.O. + N.O.
  7
ROMANS
 11
0.6249992629688386
 21
17.71505577827587
 31
0.0
100
AcDbText
 73
     2
  0
TEXT
  5
1541A
330
1F
100
AcDbEntity
  8
TEXT1
100
AcDbText
 10
11.43749926296883
 20
16.73505577827587
 30
0.0
 40
0.16
  1
XCSB723
  7
ROMANS
 11
11.43749926296883
 21
16.81505577827587
 31
0.0
100
AcDbText
 73
     2
  0
TEXT
  5
1541B
330
1F
100
AcDbEntity
  8
TEXT1
100
AcDbText
 10
6.874999262968838
 20
16.73505577827587
 30
0.0
 40
0.16
  1
XCSB703
  7
ROMANS
 11
6.874999262968838
 21
16.81505577827587
 31
0.0
100
AcDbText
 73
     2
  0
TEXT
  5
1541C
330
1F
100
AcDbEntity
  8
TEXT1
100
AcDbText
 10
8.68749926296884
 20
16.73505577827587
 30
0.0
 40
0.16
  1
XCSB713
  7
ROMANS
 11
8.68749926296884
 21
16.81505577827587
 31
0.0
100
AcDbText
 73
     2
  0
LINE
  5
1541D
330
1F
100
AcDbEntity
  8
CONTINUOUS1
100
AcDbLine
 10
8.56249926296884
 20
18.69005577827587
 30
0.0
 11
8.562499262968838
 21
15.69005577827587
 31
0.0
  0
LINE
  5
1541E
330
1F
100
AcDbEntity
  8
CONTINUOUS1
100
AcDbLine
 10
11.31249926296884
 20
18.69005577827587
 30
0.0
 11
11.31249926296884
 21
15.69005577827587
 31
0.0
  0
LINE
  5
1541F
330
1F
100
AcDbEntity
  8
CONTINUOUS1
100
AcDbLine
 10
13.43749926296884
 20
19.19005577827586
 30
0.0
 11
13.43749926296884
 21
15.19005577827587
 31
0.0
  0
LINE
  5
15420
330
1F
100
AcDbEntity
  8
CONTINUOUS1
100
AcDbLine
 10
6.749999262968838
 20
19.19005577827587
 30
0.0
 11
6.749999262968837
 21
15.19005577827587
 31
0.0
  0
TEXT
  5
15421
330
1F
100
AcDbEntity
  8
TEXT1
100
AcDbText
 10
6.132320986480116
 20
10.46005577827587
 30
0.0
 40
0.16
  1
MAXIMUM: 19.7in/s (.5m/s), MINIMUM: .39in/s (.01m/s)
  7
ROMANS
 11
6.132320986480116
 21
10.54005577827587
 31
0.0
100
AcDbText
 73
     2
  0
TEXT
  5
15422
330
1F
100
AcDbEntity
  8
TEXT1
100
AcDbText
 10
6.874999262968837
 20
15.36005577827587
 30
0.0
 40
0.16
  1
17 (.480 kg)
  7
ROMANS
 11
6.874999262968837
 21
15.44005577827587
 31
0.0
100
AcDbText
 73
     2
  0
TEXT
  5
15423
330
1F
100
AcDbEntity
  8
TEXT1
100
AcDbText
 10
6.874999262968838
 20
15.98505577827587
 30
0.0
 40
0.16
  1
XCSB803
  7
ROMANS
 11
6.874999262968838
 21
16.06505577827587
 31
0.0
100
AcDbText
 73
     2
  0
TEXT
  5
15424
330
1F
100
AcDbEntity
  8
TEXT1
100
AcDbText
 10
8.68749926296884
 20
15.98505577827587
 30
0.0
 40
0.16
  1
-
  7
ROMANS
 11
8.68749926296884
 21
16.06505577827587
 31
0.0
100
AcDbText
 73
     2
  0
TEXT
  5
15425
330
1F
100
AcDbEntity
  8
TEXT1
100
AcDbText
 10
11.43749926296883
 20
15.98505577827587
 30
0.0
 40
0.16
  1
-
  7
ROMANS
 11
11.43749926296883
 21
16.06505577827587
 31
0.0
100
AcDbText
 73
     2
  0
TEXT
  5
15426
330
1F
100
AcDbEntity
  8
TEXT1
100
AcDbText
 10
6.874999262968838
 20
18.86005577827587
 30
0.0
 40
0.16
  1
WITH LOCKING, PUSH BUTTON UNLOCKING
  7
ROMANS
 11
6.874999262968838
 21
18.94005577827587
 31
0.0
100
AcDbText
 73
     2
  0
TEXT
  5
15427
330
1F
100
AcDbEntity
  8
TEXT1
100
AcDbText
 10
8.68749926296884
 20
17.48505577827587
 30
0.0
 40
0.16
  1
XCSB513
  7
ROMANS
 11
8.68749926296884
 21
17.56505577827587
 31
0.0
100
AcDbText
 73
     2
  0
TEXT
  5
15428
330
1F
100
AcDbEntity
  8
TEXT1
100
AcDbText
 10
8.68749926296884
 20
18.08505577827587
 30
0.0
 40
0.16
  1
24/48 VAC OR VDC
  7
ROMANS
 11
8.68749926296884
 21
18.16505577827587
 31
0.0
100
AcDbText
 73
     2
  0
TEXT
  5
15429
330
1F
100
AcDbEntity
  8
TEXT1
100
AcDbText
 10
6.874999262968838
 20
17.48505577827587
 30
0.0
 40
0.16
  1
XCSB503
  7
ROMANS
 11
6.874999262968838
 21
17.56505577827587
 31
0.0
100
AcDbText
 73
     2
  0
TEXT
  5
1542A
330
1F
100
AcDbEntity
  8
TEXT1
100
AcDbText
 10
6.874999262968838
 20
18.23505577827587
 30
0.0
 40
0.16
  1
WITHOUT LED
  7
ROMANS
 11
6.874999262968838
 21
18.31505577827587
 31
0.0
100
AcDbText
 73
     2
  0
TEXT
  5
1542B
330
1F
100
AcDbEntity
  8
TEXT1
100
AcDbText
 10
8.68749926296884
 20
18.38505577827587
 30
0.0
 40
0.16
  1
1 ORANGE LED
  7
ROMANS
 11
8.68749926296884
 21
18.46505577827587
 31
0.0
100
AcDbText
 73
     2
  0
TEXT
  5
1542C
330
1F
100
AcDbEntity
  8
TEXT1
100
AcDbText
 10
11.43749926296883
 20
18.38505577827587
 30
0.0
 40
0.16
  1
1 ORANGE LED
  7
ROMANS
 11
11.43749926296883
 21
18.46505577827587
 31
0.0
100
AcDbText
 73
     2
  0
TEXT
  5
1542D
330
1F
100
AcDbEntity
  8
TEXT1
100
AcDbText
 10
11.43749926296883
 20
18.08505577827587
 30
0.0
 40
0.16
  1
110/240 VAC
  7
ROMANS
 11
11.43749926296883
 21
18.16505577827587
 31
0.0
100
AcDbText
 73
     2
  0
TEXT
  5
1542E
330
1F
100
AcDbEntity
  8
TEXT1
100
AcDbText
 10
11.43749926296883
 20
17.48505577827587
 30
0.0
 40
0.16
  1
XCSB523
  7
ROMANS
 11
11.43749926296883
 21
17.56505577827587
 31
0.0
100
AcDbText
 73
     2
  0
LINE
  5
1558B
330
1F
100
AcDbEntity
  8
CONTINUOUS1
100
AcDbLine
 10
0.4999992629688386
 20
9.540055778275872
 30
0.0
 11
13.43749926296884
 21
9.540055778275872
 31
0.0
  0
TEXT
  5
1558D
330
1F
100
AcDbEntity
  8
TEXT1
100
AcDbText
 10
0.6249992629688386
 20
9.985055778275873
 30
0.0
 40
0.16
  1
RESISTANCE TO FORCIBLE ACTUATING
  7
ROMANS
 11
0.6249992629688386
 21
10.06505577827587
 31
0.0
100
AcDbText
 73
     2
  0
TEXT
  5
1558E
330
1F
100
AcDbEntity
  8
TEXT1
100
AcDbText
 10
6.132320986480116
 20
9.835055778275872
 30
0.0
 40
0.16
  1
XCSB > 337lbs (1500 N)
  7
ROMANS
 11
6.132320986480116
 21
9.915055778275872
 31
0.0
100
AcDbText
 73
     2
  0
TEXT
  5
1558F
330
1F
100
AcDbEntity
  8
TEXT1
100
AcDbText
 10
0.6249992629688386
 20
9.685055778275872
 30
0.0
 40
0.16
  1
KEY WITHDRAWL
  7
ROMANS
 11
0.6249992629688386
 21
9.765055778275872
 31
0.0
100
AcDbText
 73
     2
  0
LINE
  5
15790
330
1F
100
AcDbEntity
  8
0
100
AcDbLine
 10
4.999999262968838
 20
16.75255577827587
 30
0.0
 11
5.124999262968838
 21
16.90880577827587
 31
0.0
  0
LINE
  5
15791
330
1F
100
AcDbEntity
  8
0
100
AcDbLine
 10
5.749999262968837
 20
16.75255577827587
 30
0.0
 11
5.649999262968838
 21
16.87755577827586
 31
0.0
  0
LINE
  5
15792
330
1F
100
AcDbEntity
  8
0
100
AcDbLine
 10
4.249999262968838
 20
16.75255577827587
 30
0.0
 11
4.374999262968838
 21
16.90880577827587
 31
0.0
  0
TEXT
  5
15793
330
1F
100
AcDbEntity
  8
TEXT1
100
AcDbText
 10
4.934276324388403
 20
16.16407363541873
 30
0.0
 40
0.12
  1
21
 50
90.0
 41
0.75
  7
ROMANS
 72
     1
 11
4.874276324388404
 21
16.23693077827587
 31
0.0
100
AcDbText
 73
     2
  0
TEXT
  5
15794
330
1F
100
AcDbEntity
  8
TEXT1
100
AcDbText
 10
4.934276324388403
 20
15.80746649256158
 30
0.0
 40
0.12
  1
22
 50
90.0
 41
0.75
  7
ROMANS
 72
     1
 11
4.874276324388404
 21
15.89318077827587
 31
0.0
100
AcDbText
 73
     2
  0
TEXT
  5
15795
330
1F
100
AcDbEntity
  8
TEXT1
100
AcDbText
 10
4.934276324388403
 20
16.55746649256158
 30
0.0
 40
0.12
  1
32
 50
90.0
 41
0.75
  7
ROMANS
 72
     1
 11
4.874276324388404
 21
16.64318077827587
 31
0.0
100
AcDbText
 73
     2
  0
LINE
  5
15796
330
1F
100
AcDbEntity
  8
HIDDEN1
100
AcDbLine
 10
5.699999262968837
 20
16.06505577827587
 30
0.0
 11
4.299999262968838
 21
16.06505577827587
 31
0.0
  0
LINE
  5
15797
330
1F
100
AcDbEntity
  8
0
100
AcDbLine
 10
4.249999262968838
 20
15.78380577827587
 30
0.0
 11
4.249999262968838
 21
16.00255577827587
 31
0.0
  0
TEXT
  5
15798
330
1F
100
AcDbEntity
  8
TEXT1
100
AcDbText
 10
4.184276324388403
 20
15.80103792113301
 30
0.0
 40
0.12
  1
12
 50
90.0
 41
0.75
  7
ROMANS
 72
     1
 11
4.124276324388404
 21
15.89318077827587
 31
0.0
100
AcDbText
 73
     2
  0
TEXT
  5
15799
330
1F
100
AcDbEntity
  8
TEXT1
100
AcDbText
 10
4.184276324388403
 20
16.15764506399016
 30
0.0
 40
0.12
  1
11
 50
90.0
 41
0.75
  7
ROMANS
 72
     1
 11
4.124276324388404
 21
16.23693077827587
 31
0.0
100
AcDbText
 73
     2
  0
TEXT
  5
1579A
330
1F
100
AcDbEntity
  8
TEXT1
100
AcDbText
 10
4.184276324388403
 20
16.55746649256158
 30
0.0
 40
0.12
  1
22
 50
90.0
 41
0.75
  7
ROMANS
 72
     1
 11
4.124276324388404
 21
16.64318077827587
 31
0.0
100
AcDbText
 73
     2
  0
LINE
  5
1579B
330
1F
100
AcDbEntity
  8
0
100
AcDbLine
 10
4.249999262968838
 20
16.12755577827587
 30
0.0
 11
4.249999262968838
 21
16.34630577827587
 31
0.0
  0
LINE
  5
1579C
330
1F
100
AcDbEntity
  8
0
100
AcDbLine
 10
4.374999262968838
 20
16.12755577827587
 30
0.0
 11
4.249999262968838
 21
16.12755577827587
 31
0.0
  0
LINE
  5
1579D
330
1F
100
AcDbEntity
  8
0
100
AcDbLine
 10
4.249999262968838
 20
16.00255577827587
 30
0.0
 11
4.374999262968838
 21
16.15880577827587
 31
0.0
  0
LINE
  5
1579E
330
1F
100
AcDbEntity
  8
0
100
AcDbLine
 10
4.249999262968838
 20
16.53380577827587
 30
0.0
 11
4.249999262968838
 21
16.75255577827587
 31
0.0
  0
LINE
  5
1579F
330
1F
100
AcDbEntity
  8
0
100
AcDbLine
 10
5.749999262968839
 20
15.78380577827587
 30
0.0
 11
5.749999262968838
 21
16.00255577827587
 31
0.0
  0
LINE
  5
157A0
330
1F
100
AcDbEntity
  8
0
100
AcDbLine
 10
4.999999262968838
 20
15.78380577827587
 30
0.0
 11
4.999999262968838
 21
16.00255577827587
 31
0.0
  0
TEXT
  5
157A1
330
1F
100
AcDbEntity
  8
TEXT1
100
AcDbText
 10
5.684276324388403
 20
15.80746649256158
 30
0.0
 40
0.12
  1
32
 50
90.0
 41
0.75
  7
ROMANS
 72
     1
 11
5.624276324388404
 21
15.89318077827587
 31
0.0
100
AcDbText
 73
     2
  0
LINE
  5
157A2
330
1F
100
AcDbEntity
  8
0
100
AcDbLine
 10
4.999999262968838
 20
16.00255577827587
 30
0.0
 11
5.124999262968838
 21
16.15880577827587
 31
0.0
  0
LINE
  5
157A3
330
1F
100
AcDbEntity
  8
0
100
AcDbLine
 10
5.124999262968838
 20
16.12755577827587
 30
0.0
 11
4.999999262968838
 21
16.12755577827587
 31
0.0
  0
LINE
  5
157A4
330
1F
100
AcDbEntity
  8
0
100
AcDbLine
 10
4.999999262968838
 20
16.12755577827587
 30
0.0
 11
4.999999262968838
 21
16.34630577827587
 31
0.0
  0
LINE
  5
157A5
330
1F
100
AcDbEntity
  8
0
100
AcDbLine
 10
4.999999262968838
 20
16.53380577827587
 30
0.0
 11
4.999999262968838
 21
16.75255577827587
 31
0.0
  0
LINE
  5
157A6
330
1F
100
AcDbEntity
  8
0
100
AcDbLine
 10
5.874999262968838
 20
16.12755577827587
 30
0.0
 11
5.749999262968838
 21
16.12755577827587
 31
0.0
  0
LINE
  5
157A7
330
1F
100
AcDbEntity
  8
0
100
AcDbLine
 10
5.749999262968838
 20
16.00255577827587
 30
0.0
 11
5.874999262968838
 21
16.15880577827587
 31
0.0
  0
TEXT
  5
157A8
330
1F
100
AcDbEntity
  8
TEXT1
100
AcDbText
 10
5.684276324388403
 20
16.16407363541873
 30
0.0
 40
0.12
  1
31
 50
90.0
 41
0.75
  7
ROMANS
 72
     1
 11
5.624276324388404
 21
16.23693077827587
 31
0.0
100
AcDbText
 73
     2
  0
LINE
  5
157A9
330
1F
100
AcDbEntity
  8
0
100
AcDbLine
 10
5.749999262968838
 20
16.12755577827587
 30
0.0
 11
5.749999262968839
 21
16.34630577827587
 31
0.0
  0
TEXT
  5
157AA
330
1F
100
AcDbEntity
  8
TEXT1
100
AcDbText
 10
5.684276324388403
 20
16.54889506399015
 30
0.0
 40
0.12
  1
14
 50
90.0
 41
0.75
  7
ROMANS
 72
     1
 11
5.624276324388404
 21
16.64318077827587
 31
0.0
100
AcDbText
 73
     2
  0
LINE
  5
157AB
330
1F
100
AcDbEntity
  8
0
100
AcDbLine
 10
5.749999262968839
 20
16.53380577827587
 30
0.0
 11
5.749999262968838
 21
16.75255577827587
 31
0.0
  0
TEXT
  5
157AC
330
1F
100
AcDbEntity
  8
TEXT1
100
AcDbText
 10
4.934276324388403
 20
16.91407363541873
 30
0.0
 40
0.12
  1
31
 50
90.0
 41
0.75
  7
ROMANS
 72
     1
 11
4.874276324388404
 21
16.98693077827587
 31
0.0
100
AcDbText
 73
     2
  0
TEXT
  5
157AD
330
1F
100
AcDbEntity
  8
TEXT1
100
AcDbText
 10
4.934276324388403
 20
17.29889506399016
 30
0.0
 40
0.12
  1
14
 50
90.0
 41
0.75
  7
ROMANS
 72
     1
 11
4.874276324388404
 21
17.39318077827587
 31
0.0
100
AcDbText
 73
     2
  0
TEXT
  5
157AE
330
1F
100
AcDbEntity
  8
TEXT1
100
AcDbText
 10
4.934276324388403
 20
17.64478792113301
 30
0.0
 40
0.12
  1
13
 50
90.0
 41
0.75
  7
ROMANS
 72
     1
 11
4.874276324388404
 21
17.73693077827587
 31
0.0
100
AcDbText
 73
     2
  0
LINE
  5
157AF
330
1F
100
AcDbEntity
  8
HIDDEN1
100
AcDbLine
 10
5.699999262968837
 20
16.81505577827587
 30
0.0
 11
4.299999262968838
 21
16.81505577827587
 31
0.0
  0
LINE
  5
157B0
330
1F
100
AcDbEntity
  8
HIDDEN1
100
AcDbLine
 10
5.699999262968837
 20
17.56505577827587
 30
0.0
 11
4.299999262968838
 21
17.56505577827587
 31
0.0
  0
LINE
  5
157B1
330
1F
100
AcDbEntity
  8
0
100
AcDbLine
 10
4.249999262968838
 20
17.50255577827587
 30
0.0
 11
4.374999262968838
 21
17.65880577827587
 31
0.0
  0
TEXT
  5
157B2
330
1F
100
AcDbEntity
  8
TEXT1
100
AcDbText
 10
4.184276324388403
 20
16.91407363541873
 30
0.0
 40
0.12
  1
21
 50
90.0
 41
0.75
  7
ROMANS
 72
     1
 11
4.124276324388404
 21
16.98693077827587
 31
0.0
100
AcDbText
 73
     2
  0
TEXT
  5
157B3
330
1F
100
AcDbEntity
  8
TEXT1
100
AcDbText
 10
4.184276324388403
 20
17.30746649256158
 30
0.0
 40
0.12
  1
22
 50
90.0
 41
0.75
  7
ROMANS
 72
     1
 11
4.124276324388404
 21
17.39318077827587
 31
0.0
100
AcDbText
 73
     2
  0
LINE
  5
157B4
330
1F
100
AcDbEntity
  8
0
100
AcDbLine
 10
4.374999262968838
 20
16.87755577827587
 30
0.0
 11
4.249999262968838
 21
16.87755577827587
 31
0.0
  0
LINE
  5
157B5
330
1F
100
AcDbEntity
  8
0
100
AcDbLine
 10
4.249999262968838
 20
16.87755577827587
 30
0.0
 11
4.249999262968838
 21
17.09630577827587
 31
0.0
  0
LINE
  5
157B6
330
1F
100
AcDbEntity
  8
0
100
AcDbLine
 10
4.249999262968838
 20
17.28380577827587
 30
0.0
 11
4.249999262968838
 21
17.50255577827587
 31
0.0
  0
TEXT
  5
157B7
330
1F
100
AcDbEntity
  8
TEXT1
100
AcDbText
 10
4.184276324388403
 20
17.66407363541873
 30
0.0
 40
0.12
  1
21
 50
90.0
 41
0.75
  7
ROMANS
 72
     1
 11
4.124276324388404
 21
17.73693077827587
 31
0.0
100
AcDbText
 73
     2
  0
LINE
  5
157B8
330
1F
100
AcDbEntity
  8
0
100
AcDbLine
 10
4.249999262968838
 20
17.62755577827587
 30
0.0
 11
4.249999262968838
 21
17.84630577827587
 31
0.0
  0
LINE
  5
157B9
330
1F
100
AcDbEntity
  8
0
100
AcDbLine
 10
4.374999262968838
 20
17.62755577827587
 30
0.0
 11
4.249999262968838
 21
17.62755577827587
 31
0.0
  0
LINE
  5
157BA
330
1F
100
AcDbEntity
  8
0
100
AcDbLine
 10
5.749999262968837
 20
17.50255577827587
 30
0.0
 11
5.649999262968838
 21
17.62755577827586
 31
0.0
  0
LINE
  5
157BB
330
1F
100
AcDbEntity
  8
0
100
AcDbLine
 10
4.999999262968838
 20
17.50255577827587
 30
0.0
 11
4.899999262968838
 21
17.62755577827586
 31
0.0
  0
LINE
  5
157BC
330
1F
100
AcDbEntity
  8
0
100
AcDbLine
 10
5.124999262968838
 20
16.87755577827587
 30
0.0
 11
4.999999262968838
 21
16.87755577827587
 31
0.0
  0
LINE
  5
157BD
330
1F
100
AcDbEntity
  8
0
100
AcDbLine
 10
4.999999262968838
 20
16.87755577827587
 30
0.0
 11
4.999999262968838
 21
17.09630577827587
 31
0.0
  0
LINE
  5
157BE
330
1F
100
AcDbEntity
  8
0
100
AcDbLine
 10
4.999999262968838
 20
17.28380577827587
 30
0.0
 11
4.999999262968838
 21
17.50255577827587
 31
0.0
  0
TEXT
  5
157BF
330
1F
100
AcDbEntity
  8
TEXT1
100
AcDbText
 10
5.684276324388403
 20
16.89478792113301
 30
0.0
 40
0.12
  1
13
 50
90.0
 41
0.75
  7
ROMANS
 72
     1
 11
5.624276324388404
 21
16.98693077827587
 31
0.0
100
AcDbText
 73
     2
  0
LINE
  5
157C0
330
1F
100
AcDbEntity
  8
0
100
AcDbLine
 10
5.649999262968838
 20
16.87755577827587
 30
0.0
 11
5.624999262968837
 21
16.87755577827587
 31
0.0
  0
LINE
  5
157C1
330
1F
100
AcDbEntity
  8
0
100
AcDbLine
 10
5.749999262968838
 20
16.87755577827587
 30
0.0
 11
5.749999262968839
 21
17.09630577827587
 31
0.0
  0
TEXT
  5
157C2
330
1F
100
AcDbEntity
  8
TEXT1
100
AcDbText
 10
5.684276324388403
 20
17.30532363541873
 30
0.0
 40
0.12
  1
34
 50
90.0
 41
0.75
  7
ROMANS
 72
     1
 11
5.624276324388404
 21
17.39318077827587
 31
0.0
100
AcDbText
 73
     2
  0
LINE
  5
157C3
330
1F
100
AcDbEntity
  8
0
100
AcDbLine
 10
5.749999262968839
 20
17.28380577827587
 30
0.0
 11
5.749999262968838
 21
17.50255577827587
 31
0.0
  0
LINE
  5
157C4
330
1F
100
AcDbEntity
  8
0
100
AcDbLine
 10
4.999999262968838
 20
17.62755577827587
 30
0.0
 11
4.999999262968838
 21
17.84630577827587
 31
0.0
  0
LINE
  5
157C5
330
1F
100
AcDbEntity
  8
0
100
AcDbLine
 10
4.899999262968838
 20
17.62755577827587
 30
0.0
 11
4.874999262968838
 21
17.62755577827587
 31
0.0
  0
TEXT
  5
157C6
330
1F
100
AcDbEntity
  8
TEXT1
100
AcDbText
 10
5.684276324388403
 20
17.65121649256158
 30
0.0
 40
0.12
  1
33
 50
90.0
 41
0.75
  7
ROMANS
 72
     1
 11
5.624276324388404
 21
17.73693077827587
 31
0.0
100
AcDbText
 73
     2
  0
LINE
  5
157C7
330
1F
100
AcDbEntity
  8
0
100
AcDbLine
 10
5.749999262968838
 20
17.62755577827587
 30
0.0
 11
5.749999262968839
 21
17.84630577827587
 31
0.0
  0
LINE
  5
157C8
330
1F
100
AcDbEntity
  8
0
100
AcDbLine
 10
5.649999262968838
 20
17.62755577827587
 30
0.0
 11
5.624999262968837
 21
17.62755577827587
 31
0.0
  0
LINE
  5
157E2
330
1F
100
AcDbEntity
  8
TEXT1
100
AcDbLine
 10
2.515843952554865
 20
17.45101352582509
 30
0.0
 11
2.515843952554865
 21
17.41976352582509
 31
0.0
  0
LINE
  5
157E3
330
1F
100
AcDbEntity
  8
TEXT1
100
AcDbLine
 10
2.384593952554865
 20
17.41976352582509
 30
0.0
 11
2.384593952554865
 21
17.45101352582509
 31
0.0
  0
HATCH
  5
157E4
330
1F
100
AcDbEntity
  8
TEXT1
100
AcDbHatch
 10
0.0
 20
0.0
 30
0.0
210
0.0
220
0.0
230
1.0
  2
SOLID
 70
     1
 71
     0
 91
        1
 92
        7
 72
     0
 73
     1
 93
       12
 10
2.465843952554866
 20
17.45101352582509
 10
2.465843952554866
 20
17.49788852582509
 10
2.434593952554866
 20
17.49788852582509
 10
2.434593952554866
 20
17.45101352582509
 10
2.384593952554865
 20
17.45101352582509
 10
2.384593952554865
 20
17.41976352582509
 10
2.434593952554866
 20
17.41976352582509
 10
2.434593952554866
 20
17.31038852582509
 10
2.465843952554866
 20
17.31038852582509
 10
2.465843952554866
 20
17.41976352582509
 10
2.515843952554865
 20
17.41976352582509
 10
2.515843952554865
 20
17.45101352582509
 97
        0
 75
     0
 76
     1
 47
0.0010530823070092
 98
        1
 10
2.467212247238695
 20
17.44060694578421
  0
LINE
  5
157E5
330
1F
100
AcDbEntity
  8
TEXT1
100
AcDbLine
 10
2.515843952554865
 20
17.41976352582509
 30
0.0
 11
2.465843952554866
 21
17.41976352582509
 31
0.0
  0
LINE
  5
157E6
330
1F
100
AcDbEntity
  8
TEXT1
100
AcDbLine
 10
2.465843952554866
 20
17.41976352582509
 30
0.0
 11
2.465843952554866
 21
17.31038852582509
 31
0.0
  0
LINE
  5
157E7
330
1F
100
AcDbEntity
  8
TEXT1
100
AcDbLine
 10
2.434593952554866
 20
17.41976352582509
 30
0.0
 11
2.384593952554865
 21
17.41976352582509
 31
0.0
  0
LINE
  5
157E8
330
1F
100
AcDbEntity
  8
TEXT1
100
AcDbLine
 10
2.434593952554866
 20
17.41976352582509
 30
0.0
 11
2.434593952554866
 21
17.31038852582509
 31
0.0
  0
LINE
  5
157E9
330
1F
100
AcDbEntity
  8
TEXT1
100
AcDbLine
 10
2.434593952554866
 20
17.31038852582509
 30
0.0
 11
2.465843952554866
 21
17.31038852582509
 31
0.0
  0
LINE
  5
157EA
330
1F
100
AcDbEntity
  8
TEXT1
100
AcDbLine
 10
2.465843952554866
 20
17.49788852582509
 30
0.0
 11
2.465843952554866
 21
17.45101352582509
 31
0.0
  0
LINE
  5
157EB
330
1F
100
AcDbEntity
  8
TEXT1
100
AcDbLine
 10
2.515843952554865
 20
17.45101352582509
 30
0.0
 11
2.465843952554866
 21
17.45101352582509
 31
0.0
  0
LINE
  5
157EC
330
1F
100
AcDbEntity
  8
TEXT1
100
AcDbLine
 10
2.434593952554866
 20
17.49788852582509
 30
0.0
 11
2.434593952554866
 21
17.45101352582509
 31
0.0
  0
LINE
  5
157ED
330
1F
100
AcDbEntity
  8
TEXT1
100
AcDbLine
 10
2.434593952554866
 20
17.49788852582509
 30
0.0
 11
2.434593952554866
 21
17.45101352582509
 31
0.0
  0
LINE
  5
157EE
330
1F
100
AcDbEntity
  8
TEXT1
100
AcDbLine
 10
2.434593952554866
 20
17.45101352582509
 30
0.0
 11
2.384593952554865
 21
17.45101352582509
 31
0.0
  0
LINE
  5
157EF
330
1F
100
AcDbEntity
  8
TEXT1
100
AcDbLine
 10
2.434593952554866
 20
17.49788852582509
 30
0.0
 11
2.465843952554866
 21
17.49788852582509
 31
0.0
  0
HATCH
  5
157F0
330
1F
100
AcDbEntity
  8
TEXT1
100
AcDbHatch
 10
0.0
 20
0.0
 30
0.0
210
0.0
220
0.0
230
1.0
  2
SOLID
 70
     1
 71
     1
 91
        1
 92
        7
 72
     0
 73
     1
 93
       10
 10
2.77244936835234
 20
17.38214342497286
 10
2.842899197453904
 20
17.3116935958713
 10
2.807674282903121
 20
17.41736833952364
 10
2.842899197453903
 20
17.45259325407443
 10
2.795932644719528
 20
17.45259325407443
 10
2.77244936835234
 20
17.52304308317599
 10
2.748966091985151
 20
17.45259325407443
 10
2.701999539250781
 20
17.45259325407443
 10
2.737224453801559
 20
17.41736833952365
 10
2.701999539250778
 20
17.3116935958713
 97
       10
330
157F2
330
157FA
330
157F9
330
157F7
330
157F8
330
157F1
330
157F4
330
157F3
330
157F5
330
157F6
 75
     0
 76
     1
 47
0.000278067764807
 98
        1
 10
2.781741588217652
 20
17.40401051149409
  0
LINE
  5
157F1
102
{ACAD_REACTORS
330
157F0
102
}
330
1F
100
AcDbEntity
  8
TEXT1
100
AcDbLine
 10
2.737224453801559
 20
17.41736833952364
 30
0.0
 11
2.701999539250778
 21
17.45259325407443
 31
0.0
  0
LINE
  5
157F2
102
{ACAD_REACTORS
330
157F0
102
}
330
1F
100
AcDbEntity
  8
TEXT1
100
AcDbLine
 10
2.842899197453903
 20
17.45259325407443
 30
0.0
 11
2.807674282903121
 21
17.41736833952364
 31
0.0
  0
LINE
  5
157F3
102
{ACAD_REACTORS
330
157F0
102
}
330
1F
100
AcDbEntity
  8
TEXT1
100
AcDbLine
 10
2.77244936835234
 20
17.38214342497286
 30
0.0
 11
2.701999539250778
 21
17.3116935958713
 31
0.0
  0
LINE
  5
157F4
102
{ACAD_REACTORS
330
157F0
102
}
330
1F
100
AcDbEntity
  8
TEXT1
100
AcDbLine
 10
2.737224453801559
 20
17.41736833952364
 30
0.0
 11
2.701999539250778
 21
17.3116935958713
 31
0.0
  0
LINE
  5
157F5
102
{ACAD_REACTORS
330
157F0
102
}
330
1F
100
AcDbEntity
  8
TEXT1
100
AcDbLine
 10
2.842899197453903
 20
17.3116935958713
 30
0.0
 11
2.77244936835234
 21
17.38214342497286
 31
0.0
  0
LINE
  5
157F6
102
{ACAD_REACTORS
330
157F0
102
}
330
1F
100
AcDbEntity
  8
TEXT1
100
AcDbLine
 10
2.807674282903121
 20
17.41736833952364
 30
0.0
 11
2.842899197453903
 21
17.3116935958713
 31
0.0
  0
LINE
  5
157F7
102
{ACAD_REACTORS
330
157F0
102
}
330
1F
100
AcDbEntity
  8
TEXT1
100
AcDbLine
 10
2.77244936835234
 20
17.52304308317599
 30
0.0
 11
2.748966091985153
 21
17.45259325407443
 31
0.0
  0
LINE
  5
157F8
102
{ACAD_REACTORS
330
157F0
102
}
330
1F
100
AcDbEntity
  8
TEXT1
100
AcDbLine
 10
2.701999539250778
 20
17.45259325407443
 30
0.0
 11
2.748966091985153
 21
17.45259325407443
 31
0.0
  0
LINE
  5
157F9
102
{ACAD_REACTORS
330
157F0
102
}
330
1F
100
AcDbEntity
  8
TEXT1
100
AcDbLine
 10
2.77244936835234
 20
17.52304308317599
 30
0.0
 11
2.795932644719528
 21
17.45259325407443
 31
0.0
  0
LINE
  5
157FA
102
{ACAD_REACTORS
330
157F0
102
}
330
1F
100
AcDbEntity
  8
TEXT1
100
AcDbLine
 10
2.795932644719528
 20
17.45259325407443
 30
0.0
 11
2.842899197453903
 21
17.45259325407443
 31
0.0
  0
LINE
  5
157FB
330
1F
100
AcDbEntity
  8
TEXT1
100
AcDbLine
 10
2.434593952554866
 20
16.74788852582509
 30
0.0
 11
2.465843952554866
 21
16.74788852582509
 31
0.0
  0
LINE
  5
157FC
330
1F
100
AcDbEntity
  8
TEXT1
100
AcDbLine
 10
2.434593952554866
 20
16.70101352582509
 30
0.0
 11
2.384593952554865
 21
16.70101352582509
 31
0.0
  0
LINE
  5
157FD
330
1F
100
AcDbEntity
  8
TEXT1
100
AcDbLine
 10
2.434593952554866
 20
16.74788852582509
 30
0.0
 11
2.434593952554866
 21
16.70101352582509
 31
0.0
  0
LINE
  5
157FE
330
1F
100
AcDbEntity
  8
TEXT1
100
AcDbLine
 10
2.434593952554866
 20
16.74788852582509
 30
0.0
 11
2.434593952554866
 21
16.70101352582509
 31
0.0
  0
LINE
  5
157FF
330
1F
100
AcDbEntity
  8
TEXT1
100
AcDbLine
 10
2.515843952554865
 20
16.70101352582509
 30
0.0
 11
2.465843952554866
 21
16.70101352582509
 31
0.0
  0
LINE
  5
15800
330
1F
100
AcDbEntity
  8
TEXT1
100
AcDbLine
 10
2.465843952554866
 20
16.74788852582509
 30
0.0
 11
2.465843952554866
 21
16.70101352582509
 31
0.0
  0
LINE
  5
15801
330
1F
100
AcDbEntity
  8
TEXT1
100
AcDbLine
 10
2.434593952554866
 20
16.56038852582509
 30
0.0
 11
2.465843952554866
 21
16.56038852582509
 31
0.0
  0
LINE
  5
15802
330
1F
100
AcDbEntity
  8
TEXT1
100
AcDbLine
 10
2.434593952554866
 20
16.66976352582509
 30
0.0
 11
2.434593952554866
 21
16.56038852582509
 31
0.0
  0
LINE
  5
15803
330
1F
100
AcDbEntity
  8
TEXT1
100
AcDbLine
 10
2.434593952554866
 20
16.66976352582509
 30
0.0
 11
2.384593952554865
 21
16.66976352582509
 31
0.0
  0
LINE
  5
15804
330
1F
100
AcDbEntity
  8
TEXT1
100
AcDbLine
 10
2.465843952554866
 20
16.66976352582509
 30
0.0
 11
2.465843952554866
 21
16.56038852582509
 31
0.0
  0
LINE
  5
15805
330
1F
100
AcDbEntity
  8
TEXT1
100
AcDbLine
 10
2.515843952554865
 20
16.66976352582509
 30
0.0
 11
2.465843952554866
 21
16.66976352582509
 31
0.0
  0
HATCH
  5
15806
330
1F
100
AcDbEntity
  8
TEXT1
100
AcDbHatch
 10
0.0
 20
0.0
 30
0.0
210
0.0
220
0.0
230
1.0
  2
SOLID
 70
     1
 71
     0
 91
        1
 92
        7
 72
     0
 73
     1
 93
       12
 10
2.465843952554866
 20
16.70101352582509
 10
2.465843952554866
 20
16.74788852582509
 10
2.434593952554866
 20
16.74788852582509
 10
2.434593952554866
 20
16.70101352582509
 10
2.384593952554865
 20
16.70101352582509
 10
2.384593952554865
 20
16.66976352582509
 10
2.434593952554866
 20
16.66976352582509
 10
2.434593952554866
 20
16.56038852582509
 10
2.465843952554866
 20
16.56038852582509
 10
2.465843952554866
 20
16.66976352582509
 10
2.515843952554865
 20
16.66976352582509
 10
2.515843952554865
 20
16.70101352582509
 97
        0
 75
     0
 76
     1
 47
0.0010530823070092
 98
        1
 10
2.467212247238695
 20
16.69060694578421
  0
LINE
  5
15807
330
1F
100
AcDbEntity
  8
TEXT1
100
AcDbLine
 10
2.384593952554865
 20
16.66976352582509
 30
0.0
 11
2.384593952554865
 21
16.70101352582509
 31
0.0
  0
LINE
  5
15808
330
1F
100
AcDbEntity
  8
TEXT1
100
AcDbLine
 10
2.515843952554865
 20
16.70101352582509
 30
0.0
 11
2.515843952554865
 21
16.66976352582509
 31
0.0
  0
LINE
  5
15809
102
{ACAD_REACTORS
330
15813
102
}
330
1F
100
AcDbEntity
  8
TEXT1
100
AcDbLine
 10
2.795932644719528
 20
16.70259325407442
 30
0.0
 11
2.842899197453903
 21
16.70259325407442
 31
0.0
  0
LINE
  5
1580A
102
{ACAD_REACTORS
330
15813
102
}
330
1F
100
AcDbEntity
  8
TEXT1
100
AcDbLine
 10
2.77244936835234
 20
16.77304308317599
 30
0.0
 11
2.795932644719528
 21
16.70259325407442
 31
0.0
  0
LINE
  5
1580B
102
{ACAD_REACTORS
330
15813
102
}
330
1F
100
AcDbEntity
  8
TEXT1
100
AcDbLine
 10
2.701999539250778
 20
16.70259325407442
 30
0.0
 11
2.748966091985153
 21
16.70259325407442
 31
0.0
  0
LINE
  5
1580C
102
{ACAD_REACTORS
330
15813
102
}
330
1F
100
AcDbEntity
  8
TEXT1
100
AcDbLine
 10
2.77244936835234
 20
16.77304308317599
 30
0.0
 11
2.748966091985153
 21
16.70259325407442
 31
0.0
  0
LINE
  5
1580D
102
{ACAD_REACTORS
330
15813
102
}
330
1F
100
AcDbEntity
  8
TEXT1
100
AcDbLine
 10
2.807674282903121
 20
16.66736833952364
 30
0.0
 11
2.842899197453903
 21
16.5616935958713
 31
0.0
  0
LINE
  5
1580E
102
{ACAD_REACTORS
330
15813
102
}
330
1F
100
AcDbEntity
  8
TEXT1
100
AcDbLine
 10
2.842899197453903
 20
16.5616935958713
 30
0.0
 11
2.77244936835234
 21
16.63214342497286
 31
0.0
  0
LINE
  5
1580F
102
{ACAD_REACTORS
330
15813
102
}
330
1F
100
AcDbEntity
  8
TEXT1
100
AcDbLine
 10
2.737224453801559
 20
16.66736833952364
 30
0.0
 11
2.701999539250778
 21
16.5616935958713
 31
0.0
  0
LINE
  5
15810
102
{ACAD_REACTORS
330
15813
102
}
330
1F
100
AcDbEntity
  8
TEXT1
100
AcDbLine
 10
2.77244936835234
 20
16.63214342497286
 30
0.0
 11
2.701999539250778
 21
16.5616935958713
 31
0.0
  0
LINE
  5
15811
102
{ACAD_REACTORS
330
15813
102
}
330
1F
100
AcDbEntity
  8
TEXT1
100
AcDbLine
 10
2.842899197453903
 20
16.70259325407442
 30
0.0
 11
2.807674282903121
 21
16.66736833952364
 31
0.0
  0
LINE
  5
15812
102
{ACAD_REACTORS
330
15813
102
}
330
1F
100
AcDbEntity
  8
TEXT1
100
AcDbLine
 10
2.737224453801559
 20
16.66736833952364
 30
0.0
 11
2.701999539250778
 21
16.70259325407442
 31
0.0
  0
HATCH
  5
15813
330
1F
100
AcDbEntity
  8
TEXT1
100
AcDbHatch
 10
0.0
 20
0.0
 30
0.0
210
0.0
220
0.0
230
1.0
  2
SOLID
 70
     1
 71
     1
 91
        1
 92
        7
 72
     0
 73
     1
 93
       10
 10
2.77244936835234
 20
16.63214342497286
 10
2.842899197453904
 20
16.5616935958713
 10
2.807674282903121
 20
16.66736833952364
 10
2.842899197453903
 20
16.70259325407442
 10
2.795932644719528
 20
16.70259325407442
 10
2.77244936835234
 20
16.77304308317599
 10
2.748966091985151
 20
16.70259325407442
 10
2.701999539250781
 20
16.70259325407442
 10
2.737224453801559
 20
16.66736833952365
 10
2.701999539250778
 20
16.5616935958713
 97
       10
330
15811
330
15809
330
1580A
330
1580C
330
1580B
330
15812
330
1580F
330
15810
330
1580E
330
1580D
 75
     0
 76
     1
 47
0.000278067764807
 98
        1
 10
2.781741588217652
 20
16.65401051149409
  0
LINE
  5
15814
330
1F
100
AcDbEntity
  8
TEXT1
100
AcDbLine
 10
2.515843952554865
 20
15.95101352582509
 30
0.0
 11
2.515843952554865
 21
15.91976352582509
 31
0.0
  0
LINE
  5
15815
330
1F
100
AcDbEntity
  8
TEXT1
100
AcDbLine
 10
2.384593952554865
 20
15.91976352582509
 30
0.0
 11
2.384593952554865
 21
15.95101352582509
 31
0.0
  0
HATCH
  5
15816
330
1F
100
AcDbEntity
  8
TEXT1
100
AcDbHatch
 10
0.0
 20
0.0
 30
0.0
210
0.0
220
0.0
230
1.0
  2
SOLID
 70
     1
 71
     0
 91
        1
 92
        7
 72
     0
 73
     1
 93
       12
 10
2.465843952554866
 20
15.95101352582509
 10
2.465843952554866
 20
15.99788852582509
 10
2.434593952554866
 20
15.99788852582509
 10
2.434593952554866
 20
15.95101352582509
 10
2.384593952554865
 20
15.95101352582509
 10
2.384593952554865
 20
15.91976352582509
 10
2.434593952554866
 20
15.91976352582509
 10
2.434593952554866
 20
15.81038852582509
 10
2.465843952554866
 20
15.81038852582509
 10
2.465843952554866
 20
15.91976352582509
 10
2.515843952554865
 20
15.91976352582509
 10
2.515843952554865
 20
15.95101352582509
 97
        0
 75
     0
 76
     1
 47
0.0010530823070092
 98
        1
 10
2.467212247238695
 20
15.94060694578421
  0
LINE
  5
15817
330
1F
100
AcDbEntity
  8
TEXT1
100
AcDbLine
 10
2.515843952554865
 20
15.91976352582509
 30
0.0
 11
2.465843952554866
 21
15.91976352582509
 31
0.0
  0
LINE
  5
15818
330
1F
100
AcDbEntity
  8
TEXT1
100
AcDbLine
 10
2.465843952554866
 20
15.91976352582509
 30
0.0
 11
2.465843952554866
 21
15.81038852582509
 31
0.0
  0
LINE
  5
15819
330
1F
100
AcDbEntity
  8
TEXT1
100
AcDbLine
 10
2.434593952554866
 20
15.91976352582509
 30
0.0
 11
2.384593952554865
 21
15.91976352582509
 31
0.0
  0
LINE
  5
1581A
330
1F
100
AcDbEntity
  8
TEXT1
100
AcDbLine
 10
2.434593952554866
 20
15.91976352582509
 30
0.0
 11
2.434593952554866
 21
15.81038852582509
 31
0.0
  0
LINE
  5
1581B
330
1F
100
AcDbEntity
  8
TEXT1
100
AcDbLine
 10
2.434593952554866
 20
15.81038852582509
 30
0.0
 11
2.465843952554866
 21
15.81038852582509
 31
0.0
  0
LINE
  5
1581C
330
1F
100
AcDbEntity
  8
TEXT1
100
AcDbLine
 10
2.465843952554866
 20
15.99788852582509
 30
0.0
 11
2.465843952554866
 21
15.95101352582509
 31
0.0
  0
LINE
  5
1581D
330
1F
100
AcDbEntity
  8
TEXT1
100
AcDbLine
 10
2.515843952554865
 20
15.95101352582509
 30
0.0
 11
2.465843952554866
 21
15.95101352582509
 31
0.0
  0
LINE
  5
1581E
330
1F
100
AcDbEntity
  8
TEXT1
100
AcDbLine
 10
2.434593952554866
 20
15.99788852582509
 30
0.0
 11
2.434593952554866
 21
15.95101352582509
 31
0.0
  0
LINE
  5
1581F
330
1F
100
AcDbEntity
  8
TEXT1
100
AcDbLine
 10
2.434593952554866
 20
15.99788852582509
 30
0.0
 11
2.434593952554866
 21
15.95101352582509
 31
0.0
  0
LINE
  5
15820
330
1F
100
AcDbEntity
  8
TEXT1
100
AcDbLine
 10
2.434593952554866
 20
15.95101352582509
 30
0.0
 11
2.384593952554865
 21
15.95101352582509
 31
0.0
  0
LINE
  5
15821
330
1F
100
AcDbEntity
  8
TEXT1
100
AcDbLine
 10
2.434593952554866
 20
15.99788852582509
 30
0.0
 11
2.465843952554866
 21
15.99788852582509
 31
0.0
  0
TEXT
  5
15AC8
330
1F
100
AcDbEntity
  8
TEXT1
100
AcDbText
 10
27.42718464573688
 20
2.854952358471705
 30
0.0
 40
0.2000000000000002
  1
DUAL DIMENSIONS:
  7
ROMANS
 11
27.42718464573688
 21
2.954952358471705
 31
0.0
100
AcDbText
 73
     2
  0
TEXT
  5
15AC9
330
1F
100
AcDbEntity
  8
TEXT1
100
AcDbText
 10
30.35519665917225
 20
2.636462830769373
 30
0.0
 40
0.2000000000000002
  1
MILLIMETERS
  7
ROMANS
 11
30.35519665917225
 21
2.736462830769373
 31
0.0
100
AcDbText
 73
     2
  0
TEXT
  5
15ACA
330
1F
100
AcDbEntity
  8
TEXT1
100
AcDbText
 10
30.37184665938682
 20
2.986462830769374
 30
0.0
 40
0.25
  1
INCHES
  7
ROMANS
 11
30.37184665938682
 21
3.111462830769374
 31
0.0
100
AcDbText
 73
     2
  0
LINE
  5
15C82
102
{ACAD_REACTORS
330
15C84
102
}
330
1F
100
AcDbEntity
  8
TEXT1
100
AcDbLine
 10
12.33642392640005
 20
18.8675774180716
 30
0.0
 11
12.19258798890005
 21
18.8675774180716
 31
0.0
  0
LINE
  5
15C83
102
{ACAD_REACTORS
330
15C84
102
}
330
1F
100
AcDbEntity
  8
TEXT1
100
AcDbLine
 10
12.19258798890005
 20
19.0114133555716
 30
0.0
 11
12.33642392640005
 21
19.0114133555716
 31
0.0
  0
HATCH
  5
15C84
330
1F
100
AcDbEntity
  8
TEXT1
100
AcDbHatch
 10
0.0
 20
0.0
 30
0.0
210
0.0
220
0.0
230
1.0
  2
SOLID
 70
     1
 71
     1
 91
        1
 92
        1
 93
        4
 72
     1
 10
12.19258798890005
 20
19.0114133555716
 11
12.19258798890005
 21
18.8675774180716
 72
     1
 10
12.19258798890005
 20
18.8675774180716
 11
12.33642392640005
 21
18.8675774180716
 72
     1
 10
12.33642392640005
 20
18.8675774180716
 11
12.33642392640005
 21
19.0114133555716
 72
     1
 10
12.33642392640005
 20
19.0114133555716
 11
12.19258798890005
 21
19.0114133555716
 97
        4
330
15C85
330
15C82
330
15C86
330
15C83
 75
     0
 76
     1
 98
        1
 10
11.71937361169262
 20
6.764579880394095
  0
LINE
  5
15C85
102
{ACAD_REACTORS
330
15C84
102
}
330
1F
100
AcDbEntity
  8
TEXT1
100
AcDbLine
 10
12.19258798890005
 20
19.0114133555716
 30
0.0
 11
12.19258798890005
 21
18.8675774180716
 31
0.0
  0
LINE
  5
15C86
102
{ACAD_REACTORS
330
15C84
102
}
330
1F
100
AcDbEntity
  8
TEXT1
100
AcDbLine
 10
12.33642392640005
 20
19.0114133555716
 30
0.0
 11
12.33642392640005
 21
18.8675774180716
 31
0.0
  0
VIEWPORT
  5
32
330
1B
100
AcDbEntity
 67
     1
  8
0
100
AcDbViewport
 10
8.392258742843347
 20
5.049457503438491
 30
0.0
 40
16.86758850401512
 41
10.76035818359585
 68
     1
 69
     1
1001
ACAD
1000
MVIEW
1002
{
1070
    16
1010
0.0
1020
0.0
1030
0.0
1010
0.0
1020
0.0
1030
1.0
1040
0.0
1040
10.76035818359585
1040
8.392258742843347
1040
5.049457503438491
1040
50.0
1040
0.0
1040
0.0
1070
     0
1070
   100
1070
     1
1070
     0
1070
     0
1070
     0
1070
     0
1070
     0
1040
0.0
1040
0.0
1040
0.0
1040
0.5
1040
0.5
1040
0.5
1040
0.5
1070
     0
1002
{
1002
}
1002
}
  0
LWPOLYLINE
  5
175
330
1B
100
AcDbEntity
 67
     1
  8
VIEWPORT
100
AcDbPolyline
 90
        6
 70
     1
 43
0.0
 10
16.40000099999999
 20
10.25
 10
16.40000099999999
 20
0.9120019999999993
 10
8.002461
 20
0.9120019999999993
 10
8.002461
 20
0.0
 10
0.0
 20
0.0
 10
0.0
 20
10.25
1001
GENIUS_GENOREF_13
1005
0
1005
0
1005
0
1005
0
1005
0
1005
0
1005
0
  0
VIEWPORT
  5
177
330
1B
100
AcDbEntity
 67
     1
  8
VIEWPORT
100
AcDbViewport
 10
8.200000499999999
 20
5.125
 30
0.0
 40
16.40000099999999
 41
10.25
 68
     2
 69
     2
1001
ACAD
1000
MVIEW
1002
{
1070
    16
1010
0.0
1020
0.0
1030
0.0
1010
0.0
1020
0.0
1030
1.0
1040
0.0
1040
20.5
1040
16.39975087228962
1040
10.43998167022159
1040
50.0
1040
0.0
1040
0.0
1070
     0
1070
   100
1070
     1
1070
     2
1070
     0
1070
     0
1070
     0
1070
     0
1040
0.0
1040
0.0
1040
0.0
1040
0.5
1040
0.5
1040
0.5
1040
0.5
1070
     0
1002
{
1002
}
1002
}
1001
GENIUS_GENOREF_13
1005
0
1005
0
1005
0
1005
0
1005
0
1005
0
1005
0
1001
GENIUS_GENSCREG_15
1000
PF
1040
0.0
1000
DF
1040
0.0
1000
MIN
1011
0.0
1021
0.0
1031
0.0
1000
MAX
1011
16.40000099999999
1021
10.25
1031
0.0
1000
FLAGS
1070
     2
  0
INSERT
  5
B2C
330
1B
100
AcDbEntity
 67
     1
  8
TITLEBLOCK
100
AcDbBlockReference
 66
     1
  2
TITLE-PAD
 10
0.0
 20
0.0
 30
0.0
  0
ATTRIB
  5
B2D
330
B2C
100
AcDbEntity
 67
     1
  8
TEXT1
 62
     0
100
AcDbText
 10
10.10183834893798
 20
0.7474460884590166
 30
0.0
 40
0.1
  1

  7
ROMANS
 72
     4
 11
10.10183834893798
 21
0.7474460884590166
 31
0.0
100
AcDbAttribute
  2
DESCRIPTION 1
 70
     0
  0
ATTRIB
  5
B2E
330
B2C
100
AcDbEntity
 67
     1
  8
TEXT1
 62
     0
100
AcDbText
 10
9.149457396557036
 20
0.5517231711406715
 30
0.0
 40
0.1
  1
XCSB SAFETY INTERLOCK
  7
ROMANS
 72
     4
 11
10.10183834893798
 21
0.6017231711406717
 31
0.0
100
AcDbAttribute
  2
DESCRIPTION 2
 70
     0
  0
ATTRIB
  5
B2F
330
B2C
100
AcDbEntity
 67
     1
  8
TEXT1
 62
     0
100
AcDbText
 10
9.092314539414179
 20
0.4160002538223267
 30
0.0
 40
0.08
  1
METAL TURRET HEAD TYPE XCSB
  7
ROMANS
 72
     4
 11
10.10183834893798
 21
0.4560002538223267
 31
0.0
100
AcDbAttribute
  2
DESCRIPTION 3
 70
     0
  0
ATTRIB
  5
B30
330
B2C
100
AcDbEntity
 67
     1
  8
TEXT1
 62
     0
100
AcDbText
 10
8.71326692036656
 20
0.2859916222182689
 30
0.0
 40
0.08
  1
LOCKING, CONDUIT ENTRY TAPPED 1/2" NPT
  7
ROMANS
 72
     4
 11
10.10183834893798
 21
0.3202773365039833
 31
0.0
100
AcDbAttribute
  2
DESCRIPTION 4
 70
     0
  0
ATTRIB
  5
B31
330
B2C
100
AcDbEntity
 67
     1
  8
TEXT1
 62
     0
100
AcDbText
 10
10.10183834893798
 20
0.1845544191856399
 30
0.0
 40
0.08
  1

  7
ROMANS
 72
     4
 11
10.10183834893798
 21
0.1845544191856399
 31
0.0
100
AcDbAttribute
  2
DESCRIPTION 5
 70
     0
  0
ATTRIB
  5
B32
330
B2C
100
AcDbEntity
 67
     1
  8
TEXT1
 62
     0
100
AcDbText
 10
12.74772367103195
 20
0.096540546036505
 30
0.0
 40
0.12
  1
XCSB_OUTLINE_001
 41
0.9512024731840066
  7
M_STANDARD
 11
12.74772367103195
 21
0.156540546036505
 31
0.0
100
AcDbAttribute
  2
DWGNO
 70
     0
 74
     2
  0
ATTRIB
  5
B33
330
B2C
100
AcDbEntity
 67
     1
  8
TEXT1
 62
     0
100
AcDbText
 10
16.27506454949325
 20
-0.1507193079929352
 30
0.0
 40
0.08
  1
 
  7
ROMANS
 72
     2
 11
16.35506454949325
 21
-0.1107193079929352
 31
0.0
100
AcDbAttribute
  2
REF
 70
     0
 74
     2
  0
ATTRIB
  5
B34
330
B2C
100
AcDbEntity
 67
     1
  8
TEXT1
 62
     0
100
AcDbText
 10
0.0266402374038712
 20
-0.1507193079929352
 30
0.0
 40
0.08
  1
APRIL 2001
  7
ROMANS
 11
0.0266402374038712
 21
-0.1107193079929352
 31
0.0
100
AcDbAttribute
  2
DATE
 70
     0
 74
     2
  0
SEQEND
  5
B35
330
B2C
100
AcDbEntity
 67
     1
  8
0
  0
INSERT
  5
D86
330
1B
100
AcDbEntity
 67
     1
  8
TITLEBLOCK
100
AcDbBlockReference
  2
OEM-NOTES
 10
0.0
 20
0.0
 30
0.0
 41
0.5
 42
0.5
 43
0.5
  0
ENDSEC
  0
SECTION
  2
OBJECTS
  0
DICTIONARY
  5
C
330
0
100
AcDbDictionary
  3
ACAD_GROUP
350
D
  3
ACAD_LAYOUT
350
1A
  3
ACAD_MLINESTYLE
350
17
  3
ACAD_PLOTSETTINGS
350
19
  3
ACAD_PLOTSTYLENAME
350
E
  3
ACADDIM
350
C409
  3
ACDBVARIABLEDICTIONARY
350
374
  3
ACMDICTIONARY
350
383
  3
AMG
350
36B
  3
AMGSNAPSETTINGS
350
399
  3
ASE_INDEX_DICTIONARY
350
6A
  3
DWGPROPS
350
1B1CA
  3
ACDBHEADERROUNDTRIPXREC
350
1B246
  0
DICTIONARY
  5
73
330
1F
100
AcDbDictionary
280
     1
  3
ACAD_INDEX
360
15B71
  3
ACAD_LAYOUTSELFREF
360
1B268
  0
DICTIONARY
  5
75
330
1B
100
AcDbDictionary
280
     1
  3
ACAD_LAYOUTSELFREF
360
1B267
  0
DICTIONARY
  5
D
102
{ACAD_REACTORS
330
C
102
}
330
C
100
AcDbDictionary
  0
DICTIONARY
  5
1A
102
{ACAD_REACTORS
330
C
102
}
330
C
100
AcDbDictionary
  0
DICTIONARY
  5
17
102
{ACAD_REACTORS
330
C
102
}
330
C
100
AcDbDictionary
  3
STANDARD
350
18
  0
DICTIONARY
  5
19
102
{ACAD_REACTORS
330
C
102
}
330
C
100
AcDbDictionary
  3
A_SIZE_PAPER
350
2FF
  3
B_SIZE_PAPER
350
2FD
  3
D_SIZE_PAPER
350
2FE
  0
ACDBDICTIONARYWDFLT
  5
E
102
{ACAD_REACTORS
330
C
102
}
330
C
100
AcDbDictionary
281
     1
  3
Normal
350
F
100
AcDbDictionaryWithDefault
340
F
  0
XRECORD
  5
C409
102
{ACAD_REACTORS
330
C
102
}
330
C
100
AcDbXrecord
 90
   990106
  3

 60
     0
 61
     0
 62
     1
 63
     3
 64
     0
 65
     0
 66
     0
 67
     3
 68
     1
 69
     0
 70
     0
 71
     0
 72
     0
 40
0.0
170
     0
  0
DICTIONARY
  5
374
102
{ACAD_REACTORS
330
C
102
}
330
C
100
AcDbDictionary
  3
INDEXCTL
350
375
  3
SORTENTS
350
A907
  0
DICTIONARY
  5
383
102
{ACAD_REACTORS
330
C
102
}
330
C
100
AcDbDictionary
  0
DICTIONARY
  5
36B
102
{ACAD_REACTORS
330
C
102
}
330
C
100
AcDbDictionary
  3
ACMGSETTINGS
350
36C
  0
DICTIONARY
  5
399
102
{ACAD_REACTORS
330
C
102
}
330
C
100
AcDbDictionary
  0
DICTIONARY
  5
6A
102
{ACAD_REACTORS
330
C
102
}
330
C
100
AcDbDictionary
  3
ASEBLOCKHIERARCHYINDEXRECORD
350
6C
1001
DCO15
1040
1379130883.246999
  0
XRECORD
  5
1B1CA
102
{ACAD_REACTORS
330
C
102
}
330
C
100
AcDbXrecord
  1
DWGPROPS COOKIE
  2

  3

  4

  6

  7

  8
mgp706
  9

300
AmdtFileType=84
301
=
302
=
303
=
304
=
305
=
306
=
307
=
308
=
309
=
 40
1.857875821759259
 41
2451764.535041909
 42
2452053.656400845
  1

 90
        1
  0
DICTIONARY
  5
1B246
102
{ACAD_REACTORS
330
C
102
}
330
C
100
AcDbDictionary
  3
TSTACKALIGN
350
1B247
  3
TSTACKSIZE
350
1B248
  3
HYPERLINKBASE
350
1B249
  3
STYLESHEET
350
1B24A
  3
LAYOUTDICT
350
1B24B
  3
PLOTSETDICT
350
1B24C
  3
PLOTSTYLNAMDICT
350
1B24D
  3
LWETCUNION
350
1B24E
  3
INSUNITS
350
1B24F
  3
CEPSNTYPE
350
1B250
  3
FINGERPRINTGUID
350
1B251
  3
VERSIONGUID
350
1B252
  3
PSVPSCALE
350
1B253
  3
DIMSTYLEDATA
350
1B254
  3
PUCSORTHOREF
350
1B255
  3
PUCSORTHOVIEW
350
1B256
  3
PUCSBASE
350
1B257
  3
PUCSORGTOP
350
1B258
  3
PUCSORGBOTTOM
350
1B259
  3
PUCSORGLEFT
350
1B25A
  3
PUCSORGRIGHT
350
1B25B
  3
PUCSORGFRONT
350
1B25C
  3
PUCSORGBACK
350
1B25D
  3
UCSORTHOREF
350
1B25E
  3
UCSORTHOVIEW
350
1B25F
  3
UCSBASE
350
1B260
  3
UCSORGTOP
350
1B261
  3
UCSORGBOTTOM
350
1B262
  3
UCSORGLEFT
350
1B263
  3
UCSORGRIGHT
350
1B264
  3
UCSORGFRONT
350
1B265
  3
UCSORGBACK
350
1B266
  0
DICTIONARY
  5
15B71
102
{ACAD_REACTORS
330
73
102
}
330
73
100
AcDbDictionary
  3
*A1
350
15B72
  0
XRECORD
  5
1B268
102
{ACAD_REACTORS
330
73
102
}
330
73
100
AcDbXrecord
340
1F
  0
XRECORD
  5
1B267
102
{ACAD_REACTORS
330
75
102
}
330
75
100
AcDbXrecord
340
1B
  0
MLINESTYLE
  5
18
102
{ACAD_REACTORS
330
17
102
}
330
17
100
AcDbMlineStyle
  2
STANDARD
 70
     0
  3

 62
   256
 51
90.0
 52
90.0
 71
     2
 49
0.5
 62
   256
  6
BYLAYER
 49
-0.5
 62
   256
  6
BYLAYER
  0
PLOTSETTINGS
  5
2FF
102
{ACAD_REACTORS
330
19
102
}
330
19
100
AcDbPlotSettings
  1
A Size Paper
  2
none_device
  4
ANSI_A_(8.50_x_11.00_Inches)
  6

 40
6.349999904632568
 41
19.04999923706054
 42
6.350006103515625
 43
19.04998779296875
 44
215.8999938964843
 45
279.3999938964843
 46
19.04999999999999
 47
-9.651999999999999
 48
0.0
 49
0.0
140
0.0
141
0.0
142
1.0
143
1.6
 70
   740
 72
     0
 73
     1
 74
     1
  7
monochrome.ctb
 75
     0
147
0.625
148
0.0034886547032954
149
0.0199946439100934
  0
PLOTSETTINGS
  5
2FD
102
{ACAD_REACTORS
330
19
102
}
330
19
100
AcDbPlotSettings
  1
B Size Paper
  2
none_device
  4
ANSI_B_(11.00_x_17.00_Inches)
  6

 40
6.349999904632568
 41
19.04999923706054
 42
6.350006103515625
 43
19.04998779296875
 44
279.3999938964843
 45
431.7999877929687
 46
1.27
 47
-11.43
 48
0.0
 49
0.0
140
0.0
141
0.0
142
1.0
143
1.0
 70
   756
 72
     0
 73
     1
 74
     1
  7
monochrome.ctb
 75
    16
147
1.0
148
0.0034886547032954
149
0.0199946439100934
  0
PLOTSETTINGS
  5
2FE
102
{ACAD_REACTORS
330
19
102
}
330
19
100
AcDbPlotSettings
  1
D Size Paper
  2
none_device
  4
ANSI_D_(22.00_x_34.00_Inches)
  6

 40
6.349999904632568
 41
19.04999923706054
 42
6.3499755859375
 43
19.04998779296875
 44
558.7999877929687
 45
863.5999755859375
 46
8.889999999999998
 47
-3.809999999999999
 48
0.0
 49
0.0
140
0.0
141
0.0
142
1.0
143
0.5
 70
   740
 72
     0
 73
     1
 74
     1
  7
monochrome.ctb
 75
     0
147
2.0
148
0.0034886547032954
149
0.0199946439100934
  0
ACDBPLACEHOLDER
  5
F
102
{ACAD_REACTORS
330
E
102
}
330
E
100
AcDbPlaceHolder
280
     0
  0
DICTIONARYVAR
  5
375
102
{ACAD_REACTORS
330
374
102
}
330
374
100
DictionaryVariables
280
     0
  1
1
  0
DICTIONARYVAR
  5
A907
102
{ACAD_REACTORS
330
374
102
}
330
374
100
DictionaryVariables
280
     0
  1
96
  0
DICTIONARY
  5
36C
102
{ACAD_REACTORS
330
36B
102
}
330
36B
100
AcDbDictionary
  3
DWGSETTINGS
350
CA0
  0
XRECORD
  5
6C
102
{ACAD_REACTORS
330
6A
102
}
330
6A
100
AcDbXrecord
  0
XRECORD
  5
1B247
102
{ACAD_REACTORS
330
1B246
102
}
330
1B246
100
AcDbXrecord
 90
        1
  0
XRECORD
  5
1B248
102
{ACAD_REACTORS
330
1B246
102
}
330
1B246
100
AcDbXrecord
 90
       70
  0
XRECORD
  5
1B249
102
{ACAD_REACTORS
330
1B246
102
}
330
1B246
100
AcDbXrecord
  1

  0
XRECORD
  5
1B24A
102
{ACAD_REACTORS
330
1B246
102
}
330
1B246
100
AcDbXrecord
  1

  0
XRECORD
  5
1B24B
102
{ACAD_REACTORS
330
1B246
102
}
330
1B246
100
AcDbXrecord
340
1A
  0
XRECORD
  5
1B24C
102
{ACAD_REACTORS
330
1B246
102
}
330
1B246
100
AcDbXrecord
340
19
  0
XRECORD
  5
1B24D
102
{ACAD_REACTORS
330
1B246
102
}
330
1B246
100
AcDbXrecord
340
E
  0
XRECORD
  5
1B24E
102
{ACAD_REACTORS
330
1B246
102
}
330
1B246
100
AcDbXrecord
 90
    10269
  0
XRECORD
  5
1B24F
102
{ACAD_REACTORS
330
1B246
102
}
330
1B246
100
AcDbXrecord
 90
        1
  0
XRECORD
  5
1B250
102
{ACAD_REACTORS
330
1B246
102
}
330
1B246
100
AcDbXrecord
 90
        0
  0
XRECORD
  5
1B251
102
{ACAD_REACTORS
330
1B246
102
}
330
1B246
100
AcDbXrecord
  1
{4E694E3A-6C64-11D4-81E3-0004AC4461C9}
  0
XRECORD
  5
1B252
102
{ACAD_REACTORS
330
1B246
102
}
330
1B246
100
AcDbXrecord
  1
{9E71631A-4F73-11D5-B10B-000629A2B5F4}
  0
XRECORD
  5
1B253
102
{ACAD_REACTORS
330
1B246
102
}
330
1B246
100
AcDbXrecord
 40
1.0
  0
XRECORD
  5
1B254
102
{ACAD_REACTORS
330
1B246
102
}
330
1B246
100
AcDbXrecord
1000
DSTYLE
1002
{
1070
    79
 70
     1
1070
   148
 40
0.1
1070
   341
340
AA81
1070
   342
340
AA81
1070
   371
 70
    -1
1070
   372
 70
    -1
1002
}
  0
XRECORD
  5
1B255
102
{ACAD_REACTORS
330
1B246
102
}
330
1B246
100
AcDbXrecord
340
0
  0
XRECORD
  5
1B256
102
{ACAD_REACTORS
330
1B246
102
}
330
1B246
100
AcDbXrecord
 70
     0
  0
XRECORD
  5
1B257
102
{ACAD_REACTORS
330
1B246
102
}
330
1B246
100
AcDbXrecord
340
0
  0
XRECORD
  5
1B258
102
{ACAD_REACTORS
330
1B246
102
}
330
1B246
100
AcDbXrecord
 10
0.0
 20
0.0
 30
0.0
  0
XRECORD
  5
1B259
102
{ACAD_REACTORS
330
1B246
102
}
330
1B246
100
AcDbXrecord
 10
0.0
 20
0.0
 30
0.0
  0
XRECORD
  5
1B25A
102
{ACAD_REACTORS
330
1B246
102
}
330
1B246
100
AcDbXrecord
 10
0.0
 20
0.0
 30
0.0
  0
XRECORD
  5
1B25B
102
{ACAD_REACTORS
330
1B246
102
}
330
1B246
100
AcDbXrecord
 10
0.0
 20
0.0
 30
0.0
  0
XRECORD
  5
1B25C
102
{ACAD_REACTORS
330
1B246
102
}
330
1B246
100
AcDbXrecord
 10
0.0
 20
0.0
 30
0.0
  0
XRECORD
  5
1B25D
102
{ACAD_REACTORS
330
1B246
102
}
330
1B246
100
AcDbXrecord
 10
0.0
 20
0.0
 30
0.0
  0
XRECORD
  5
1B25E
102
{ACAD_REACTORS
330
1B246
102
}
330
1B246
100
AcDbXrecord
340
0
  0
XRECORD
  5
1B25F
102
{ACAD_REACTORS
330
1B246
102
}
330
1B246
100
AcDbXrecord
 70
     0
  0
XRECORD
  5
1B260
102
{ACAD_REACTORS
330
1B246
102
}
330
1B246
100
AcDbXrecord
340
0
  0
XRECORD
  5
1B261
102
{ACAD_REACTORS
330
1B246
102
}
330
1B246
100
AcDbXrecord
 10
0.0
 20
0.0
 30
0.0
  0
XRECORD
  5
1B262
102
{ACAD_REACTORS
330
1B246
102
}
330
1B246
100
AcDbXrecord
 10
0.0
 20
0.0
 30
0.0
  0
XRECORD
  5
1B263
102
{ACAD_REACTORS
330
1B246
102
}
330
1B246
100
AcDbXrecord
 10
0.0
 20
0.0
 30
0.0
  0
XRECORD
  5
1B264
102
{ACAD_REACTORS
330
1B246
102
}
330
1B246
100
AcDbXrecord
 10
0.0
 20
0.0
 30
0.0
  0
XRECORD
  5
1B265
102
{ACAD_REACTORS
330
1B246
102
}
330
1B246
100
AcDbXrecord
 10
0.0
 20
0.0
 30
0.0
  0
XRECORD
  5
1B266
102
{ACAD_REACTORS
330
1B246
102
}
330
1B246
100
AcDbXrecord
 10
0.0
 20
0.0
 30
0.0
  0
LAYER_INDEX
  5
15B72
102
{ACAD_REACTORS
330
15B71
102
}
330
15B71
100
AcDbIndex
 40
2452062.397337731
100
AcDbLayerIndex
  8
0
360
15B73
 90
       37
  8
BLOCKS
360
15B74
 90
        0
  8
CENTER1
360
15B75
 90
        8
  8
CENTER2
360
15B76
 90
        0
  8
CENTER3
360
15B77
 90
        0
  8
CONSTRUCTION
360
15B78
 90
        0
  8
CONTINUOUS1
360
15B79
 90
      274
  8
CONTINUOUS2
360
15B7A
 90
        0
  8
CONTINUOUS3
360
15B7B
 90
        0
  8
DASHDOT1
360
15B7C
 90
        0
  8
DASHDOT2
360
15B7D
 90
        0
  8
DASHDOT3
360
15B7E
 90
        0
  8
DIM
360
15B7F
 90
       17
  8
HIDDEN1
360
15B80
 90
       29
  8
HIDDEN2
360
15B81
 90
        0
  8
HIDDEN3
360
15B82
 90
        0
  8
PHANTOM1
360
15B83
 90
        0
  8
PHANTOM2
360
15B84
 90
        0
  8
PHANTOM3
360
15B85
 90
        0
  8
TEXT1
360
15B86
 90
      171
  8
TEXT2
360
15B87
 90
        0
  8
TEXT3
360
15B88
 90
        0
  8
TITLEBLOCK
360
15B89
 90
        0
  8
VIEWPORT
360
15B8A
 90
        2
  8
Defpoints
360
15B8B
 90
        0
  0
XRECORD
  5
CA0
102
{ACAD_REACTORS
330
36C
102
}
330
36C
100
AcDbXrecord
  1
VERSION
140
15.0
  1
PRODUCT
  2
AutoCAD Mechanical 2000
  0
IDBUFFER
  5
15B73
330
0
100
AcDbIdBuffer
330
79E
330
15790
330
15791
330
15792
330
15797
330
1579B
330
1579C
330
1579D
330
1579E
330
1579F
330
157A0
330
157A2
330
157A3
330
157A4
330
157A5
330
157A6
330
157A7
330
157A9
330
157AB
330
157B1
330
157B4
330
157B5
330
157B6
330
157B8
330
157B9
330
157BA
330
157BB
330
157BC
330
157BD
330
157BE
330
157C0
330
157C1
330
157C3
330
157C4
330
157C5
330
157C7
330
157C8
  0
IDBUFFER
  5
15B74
330
0
100
AcDbIdBuffer
  0
IDBUFFER
  5
15B75
330
0
100
AcDbIdBuffer
330
13A6E
330
13A6F
330
13A70
330
13AD1
330
13BC5
330
13E20
330
13E21
330
13FCE
  0
IDBUFFER
  5
15B76
330
0
100
AcDbIdBuffer
  0
IDBUFFER
  5
15B77
330
0
100
AcDbIdBuffer
  0
IDBUFFER
  5
15B78
330
0
100
AcDbIdBuffer
  0
IDBUFFER
  5
15B79
330
0
100
AcDbIdBuffer
330
13A52
330
13A53
330
13A54
330
13A55
330
13A58
330
13A59
330
13A62
330
13A63
330
13A64
330
13A65
330
13A66
330
13A67
330
13A68
330
13A69
330
13A6A
330
13A71
330
13A72
330
13A73
330
13A74
330
13A77
330
13A78
330
13A79
330
13A7A
330
13A7D
330
13A7E
330
13A81
330
13A82
330
13A83
330
13A84
330
13A85
330
13A86
330
13A87
330
13A88
330
13A89
330
13A8A
330
13A8B
330
13A8E
330
13A90
330
13A91
330
13A92
330
13A93
330
13A94
330
13A95
330
13A96
330
13A97
330
13A98
330
13A99
330
13A9A
330
13A9F
330
13AA0
330
13AA2
330
13AA3
330
13AA5
330
13AA6
330
13AA7
330
13AA8
330
13AAB
330
13AAC
330
13AAE
330
13AAF
330
13AB1
330
13AB2
330
13AB3
330
13AB4
330
13ABE
330
13ABF
330
13AC0
330
13AC1
330
13AC2
330
13AC3
330
13AC4
330
13AC5
330
13AC6
330
13AC7
330
13AC8
330
13ACA
330
13AD6
330
13AD7
330
13AD8
330
13ADA
330
13ADB
330
13ADC
330
13ADE
330
13ADF
330
13AE0
330
13AE1
330
13AE2
330
13AE3
330
13AE4
330
13AE5
330
13AE6
330
13AE8
330
13AE9
330
13AEA
330
13AEB
330
13AEC
330
13AED
330
13AEE
330
13AEF
330
13AF0
330
13AF1
330
13AF2
330
13AF3
330
13AF4
330
13AF6
330
13AF7
330
13AF8
330
13AF9
330
13AFA
330
13AFE
330
13AFF
330
13B00
330
13B01
330
13B02
330
13B03
330
13B04
330
13B05
330
13B06
330
13B21
330
13B22
330
13B23
330
13B24
330
13B25
330
13B28
330
13B29
330
13B2A
330
13B2B
330
13B30
330
13B31
330
13B32
330
13B33
330
13B34
330
13B35
330
13B36
330
13B37
330
13B39
330
13B64
330
13B65
330
13B66
330
13B67
330
13B68
330
13B69
330
13B6A
330
13B6B
330
13B6C
330
13B6D
330
13B6E
330
13B6F
330
13B70
330
13B71
330
13B72
330
13B73
330
13B74
330
13B75
330
13B76
330
13B77
330
13B78
330
13B79
330
13B7A
330
13B7B
330
13B7C
330
13B7D
330
13B7E
330
13B7F
330
13B80
330
13B81
330
13B87
330
13B88
330
13B89
330
13B8C
330
13D76
330
13D77
330
13D7A
330
13D7B
330
13D7C
330
13D7E
330
13D7F
330
13D80
330
13D81
330
13D82
330
13D83
330
13D84
330
13D86
330
13D87
330
13D88
330
13D89
330
13D8A
330
13D8B
330
13D8D
330
13D8E
330
13D8F
330
13D90
330
13D91
330
13D92
330
13D93
330
13D95
330
13E18
330
13E19
330
13E1A
330
13E1B
330
13E1C
330
13E1F
330
14758
330
1477A
330
1477B
330
1477C
330
1477D
330
1477E
330
1477F
330
14780
330
14781
330
14787
330
14788
330
14789
330
1478C
330
1478D
330
1478E
330
1478F
330
14790
330
14792
330
14795
330
14797
330
14798
330
14799
330
1479B
330
1479D
330
1479E
330
14920
330
14926
330
14927
330
14928
330
14929
330
1492B
330
1492C
330
1492D
330
1492E
330
1492F
330
14930
330
14931
330
14932
330
14933
330
14934
330
14935
330
14936
330
14937
330
14938
330
14943
330
14944
330
14945
330
153CE
330
153CF
330
153D0
330
153D1
330
153D2
330
153D3
330
153D4
330
153DD
330
153DE
330
153DF
330
153E0
330
153E1
330
153E2
330
153E3
330
153E4
330
153E9
330
153EF
330
153F1
330
153F2
330
153F3
330
1541D
330
1541E
330
1541F
330
15420
330
1558B
  0
IDBUFFER
  5
15B7A
330
0
100
AcDbIdBuffer
  0
IDBUFFER
  5
15B7B
330
0
100
AcDbIdBuffer
  0
IDBUFFER
  5
15B7C
330
0
100
AcDbIdBuffer
  0
IDBUFFER
  5
15B7D
330
0
100
AcDbIdBuffer
  0
IDBUFFER
  5
15B7E
330
0
100
AcDbIdBuffer
  0
IDBUFFER
  5
15B7F
330
0
100
AcDbIdBuffer
330
13B8F
330
13BA9
330
13BB7
330
13C82
330
13EA7
330
13EC0
330
13EF6
330
13F98
330
13FA6
330
13FD9
330
140B3
330
140C1
330
14153
330
14176
330
1443B
330
147D3
330
14BB4
  0
IDBUFFER
  5
15B80
330
0
100
AcDbIdBuffer
330
13ACE
330
13ACF
330
13AD0
330
13B08
330
13B09
330
13B0B
330
13B0C
330
13B0D
330
13B0E
330
13B0F
330
13B10
330
13B11
330
13B12
330
13B13
330
13B14
330
13B15
330
13B16
330
13B17
330
13B18
330
13B19
330
13B1A
330
13B1B
330
13E16
330
13E17
330
13E1D
330
13E1E
330
15796
330
157AF
330
157B0
  0
IDBUFFER
  5
15B81
330
0
100
AcDbIdBuffer
  0
IDBUFFER
  5
15B82
330
0
100
AcDbIdBuffer
  0
IDBUFFER
  5
15B83
330
0
100
AcDbIdBuffer
  0
IDBUFFER
  5
15B84
330
0
100
AcDbIdBuffer
  0
IDBUFFER
  5
15B85
330
0
100
AcDbIdBuffer
  0
IDBUFFER
  5
15B86
330
0
100
AcDbIdBuffer
330
14583
330
14584
330
153CB
330
153CC
330
153CD
330
153D5
330
153D6
330
153D7
330
153D8
330
153D9
330
153DA
330
153DB
330
153DC
330
153E5
330
153E6
330
153E7
330
153E8
330
153EA
330
153EB
330
153EC
330
153ED
330
153EE
330
153F0
330
153F4
330
153F5
330
153F6
330
153F7
330
153F8
330
153F9
330
153FA
330
153FB
330
153FC
330
153FD
330
153FE
330
153FF
330
15400
330
15401
330
15402
330
15403
330
15404
330
15405
330
15406
330
15407
330
15408
330
15409
330
1540A
330
1540B
330
1540C
330
1540D
330
1540E
330
1540F
330
15410
330
15411
330
15412
330
15413
330
15414
330
15415
330
15416
330
15417
330
15418
330
15419
330
1541A
330
1541B
330
1541C
330
15421
330
15422
330
15423
330
15424
330
15425
330
15426
330
15427
330
15428
330
15429
330
1542A
330
1542B
330
1542C
330
1542D
330
1542E
330
1558D
330
1558E
330
1558F
330
15793
330
15794
330
15795
330
15798
330
15799
330
1579A
330
157A1
330
157A8
330
157AA
330
157AC
330
157AD
330
157AE
330
157B2
330
157B3
330
157B7
330
157BF
330
157C2
330
157C6
330
157E2
330
157E3
330
157E4
330
157E5
330
157E6
330
157E7
330
157E8
330
157E9
330
157EA
330
157EB
330
157EC
330
157ED
330
157EE
330
157EF
330
157F0
330
157F1
330
157F2
330
157F3
330
157F4
330
157F5
330
157F6
330
157F7
330
157F8
330
157F9
330
157FA
330
157FB
330
157FC
330
157FD
330
157FE
330
157FF
330
15800
330
15801
330
15802
330
15803
330
15804
330
15805
330
15806
330
15807
330
15808
330
15809
330
1580A
330
1580B
330
1580C
330
1580D
330
1580E
330
1580F
330
15810
330
15811
330
15812
330
15813
330
15814
330
15815
330
15816
330
15817
330
15818
330
15819
330
1581A
330
1581B
330
1581C
330
1581D
330
1581E
330
1581F
330
15820
330
15821
330
15AC8
330
15AC9
330
15ACA
330
15C82
330
15C83
330
15C84
330
15C85
330
15C86
  0
IDBUFFER
  5
15B87
330
0
100
AcDbIdBuffer
  0
IDBUFFER
  5
15B88
330
0
100
AcDbIdBuffer
  0
IDBUFFER
  5
15B89
330
0
100
AcDbIdBuffer
  0
IDBUFFER
  5
15B8A
330
0
100
AcDbIdBuffer
330
BF7
330
BF8
  0
IDBUFFER
  5
15B8B
330
0
100
AcDbIdBuffer
  0
ENDSEC
  0
EOF
