  0
SECTION
  2
HEADER
  9
$ACADVER
  1
AC1009
  9
$INSBASE
 10
0.0
 20
0.0
 30
0.0
  9
$EXTMIN
 10
1346.388136
 20
60.256861
 30
0.0
  9
$EXTMAX
 10
1728.973629
 20
477.258036
 30
0.0
  9
$LIMMIN
 10
0.0
 20
0.0
  9
$LIMMAX
 10
210.0
 20
297.0
  9
$ORTHOMODE
 70
     1
  9
$REGENMODE
 70
     1
  9
$FILLMODE
 70
     1
  9
$QTEXTMODE
 70
     0
  9
$MIRRTEXT
 70
     1
  9
$DRAGMODE
 70
     2
  9
$LTSCALE
 40
5.0
  9
$OSMODE
 70
     0
  9
$ATTMODE
 70
     1
  9
$TEXTSIZE
 40
0.2
  9
$TRACEWID
 40
0.05
  9
$TEXTSTYLE
  7
STANDARD
  9
$CLAYER
  8
0
  9
$CELTYPE
  6
BYLAYER
  9
$CECOLOR
 62
   256
  9
$DIMSCALE
 40
1.0
  9
$DIMASZ
 40
6.0
  9
$DIMEXO
 40
0.0625
  9
$DIMDLI
 40
0.38
  9
$DIMRND
 40
0.01
  9
$DIMDLE
 40
0.0
  9
$DIMEXE
 40
0.18
  9
$DIMTP
 40
0.0
  9
$DIMTM
 40
0.0
  9
$DIMTXT
 40
6.0
  9
$DIMCEN
 40
0.09
  9
$DIMTSZ
 40
0.0
  9
$DIMTOL
 70
     0
  9
$DIMLIM
 70
     0
  9
$DIMTIH
 70
     0
  9
$DIMTOH
 70
     0
  9
$DIMSE1
 70
     0
  9
$DIMSE2
 70
     0
  9
$DIMTAD
 70
     1
  9
$DIMZIN
 70
    12
  9
$DIMBLK
  1

  9
$DIMASO
 70
     1
  9
$DIMSHO
 70
     1
  9
$DIMPOST
  1

  9
$DIMAPOST
  1

  9
$DIMALT
 70
     0
  9
$DIMALTD
 70
     2
  9
$DIMALTF
 40
25.4
  9
$DIMLFAC
 40
1.0
  9
$DIMTOFL
 70
     1
  9
$DIMTVP
 40
0.0
  9
$DIMTIX
 70
     0
  9
$DIMSOXD
 70
     0
  9
$DIMSAH
 70
     0
  9
$DIMBLK1
  1

  9
$DIMBLK2
  1

  9
$DIMSTYLE
  2
SC_STAND
  9
$DIMCLRD
 70
     0
  9
$DIMCLRE
 70
     0
  9
$DIMCLRT
 70
     0
  9
$DIMTFAC
 40
1.0
  9
$DIMGAP
 40
1.0
  9
$LUNITS
 70
     2
  9
$LUPREC
 70
     4
  9
$SKETCHINC
 40
0.1
  9
$FILLETRAD
 40
0.0
  9
$AUNITS
 70
     0
  9
$AUPREC
 70
     0
  9
$MENU
  1
.
  9
$ELEVATION
 40
0.0
  9
$PELEVATION
 40
0.0
  9
$THICKNESS
 40
0.0
  9
$LIMCHECK
 70
     0
  9
$BLIPMODE
 70
     0
  9
$CHAMFERA
 40
0.0
  9
$CHAMFERB
 40
0.0
  9
$SKPOLY
 70
     0
  9
$TDCREATE
 40
2452082.615375
  9
$TDUPDATE
 40
2452312.667243
  9
$TDINDWG
 40
0.335031
  9
$TDUSRTIMER
 40
0.335031
  9
$USRTIMER
 70
     1
  9
$ANGBASE
 50
0.0
  9
$ANGDIR
 70
     0
  9
$PDMODE
 70
     0
  9
$PDSIZE
 40
0.0
  9
$PLINEWID
 40
0.0
  9
$COORDS
 70
     1
  9
$SPLFRAME
 70
     0
  9
$SPLINETYPE
 70
     6
  9
$SPLINESEGS
 70
     8
  9
$ATTDIA
 70
     0
  9
$ATTREQ
 70
     1
  9
$HANDLING
 70
     1
  9
$HANDSEED
  5
2A85A
  9
$SURFTAB1
 70
     6
  9
$SURFTAB2
 70
     6
  9
$SURFTYPE
 70
     6
  9
$SURFU
 70
     6
  9
$SURFV
 70
     6
  9
$UCSNAME
  2

  9
$UCSORG
 10
0.0
 20
0.0
 30
0.0
  9
$UCSXDIR
 10
1.0
 20
0.0
 30
0.0
  9
$UCSYDIR
 10
0.0
 20
1.0
 30
0.0
  9
$PUCSNAME
  2

  9
$PUCSORG
 10
0.0
 20
0.0
 30
0.0
  9
$PUCSXDIR
 10
1.0
 20
0.0
 30
0.0
  9
$PUCSYDIR
 10
0.0
 20
1.0
 30
0.0
  9
$USERI1
 70
     0
  9
$USERI2
 70
     0
  9
$USERI3
 70
     0
  9
$USERI4
 70
     0
  9
$USERI5
 70
     0
  9
$USERR1
 40
0.0
  9
$USERR2
 40
0.0
  9
$USERR3
 40
0.0
  9
$USERR4
 40
0.0
  9
$USERR5
 40
0.0
  9
$WORLDVIEW
 70
     1
  9
$SHADEDGE
 70
     3
  9
$SHADEDIF
 70
    70
  9
$TILEMODE
 70
     1
  9
$MAXACTVP
 70
    48
  9
$PLIMCHECK
 70
     0
  9
$PEXTMIN
 10
1.000000E+020
 20
1.000000E+020
 30
1.000000E+020
  9
$PEXTMAX
 10
-1.000000E+020
 20
-1.000000E+020
 30
-1.000000E+020
  9
$PLIMMIN
 10
0.0
 20
0.0
  9
$PLIMMAX
 10
12.0
 20
9.0
  9
$UNITMODE
 70
     0
  9
$VISRETAIN
 70
     1
  9
$PLINEGEN
 70
     0
  9
$PSLTSCALE
 70
     1
  0
ENDSEC
  0
SECTION
  2
TABLES
  0
TABLE
  2
VPORT
 70
     2
  0
VPORT
  2
*ACTIVE
 70
     0
 10
0.0
 20
0.0
 11
1.0
 21
1.0
 12
1537.722078
 22
268.76198
 13
0.0
 23
0.0
 14
1.0
 24
1.0
 15
0.0
 25
0.0
 16
0.0
 26
0.0
 36
1.0
 17
0.0
 27
0.0
 37
0.0
 40
423.331456
 41
1.838384
 42
50.0
 43
0.0
 44
0.0
 50
0.0
 51
0.0
 71
     0
 72
  1000
 73
     1
 74
     1
 75
     0
 76
     0
 77
     0
 78
     0
  0
ENDTAB
  0
TABLE
  2
LTYPE
 70
     1
  0
LTYPE
  2
CONTINUOUS
 70
     0
  3
Solid line
 72
    65
 73
     0
 40
0.0
  0
ENDTAB
  0
TABLE
  2
LAYER
 70
     4
  0
LAYER
  2
0
 70
     0
 62
     7
  6
CONTINUOUS
  0
LAYER
  2
COTATION1
 70
     0
 62
     2
  6
CONTINUOUS
  0
LAYER
  2
ALPHA
 70
     0
 62
   254
  6
CONTINUOUS
  0
LAYER
  2
DEFPOINTS
 70
     0
 62
     7
  6
CONTINUOUS
  0
ENDTAB
  0
TABLE
  2
STYLE
 70
     1
  0
STYLE
  2
STANDARD
 70
     0
 40
0.0
 41
1.0
 50
0.0
 71
     0
 42
0.2
  3
txt
  4

  0
ENDTAB
  0
TABLE
  2
VIEW
 70
     0
  0
ENDTAB
  0
TABLE
  2
UCS
 70
     0
  0
ENDTAB
  0
TABLE
  2
APPID
 70
     3
  0
APPID
  2
ACAD
 70
     0
  0
APPID
  2
AVE_RENDER
 70
     0
  0
APPID
  2
AVE_MATERIAL
 70
     0
  0
ENDTAB
  0
TABLE
  2
DIMSTYLE
 70
     3
  0
DIMSTYLE
  2
STANDARD
 70
     0
  3

  4

  5

  6

  7

 40
1.0
 41
0.18
 42
0.0625
 43
0.38
 44
0.18
 45
0.0
 46
0.0
 47
0.0
 48
0.0
140
0.18
141
0.09
142
0.0
143
25.4
144
1.0
145
0.0
146
1.0
147
0.09
 71
     0
 72
     0
 73
     1
 74
     1
 75
     0
 76
     0
 77
     0
 78
     0
170
     0
171
     2
172
     0
173
     0
174
     0
175
     0
176
     0
177
     0
178
     0
  0
DIMSTYLE
  2
SC_STAND
 70
     0
  3

  4

  5

  6

  7

 40
1.0
 41
6.0
 42
0.0625
 43
0.38
 44
0.18
 45
0.01
 46
0.0
 47
0.0
 48
0.0
140
6.0
141
0.09
142
0.0
143
25.4
144
1.0
145
0.0
146
1.0
147
1.0
 71
     0
 72
     0
 73
     0
 74
     0
 75
     0
 76
     0
 77
     1
 78
    12
170
     0
171
     2
172
     1
173
     0
174
     0
175
     0
176
     0
177
     0
178
     0
  0
DIMSTYLE
  2
SC_STAND$4
 70
     0
  3

  4

  5

  6

  7

 40
1.0
 41
3.0
 42
0.0625
 43
0.38
 44
0.18
 45
0.01
 46
0.0
 47
0.0
 48
0.0
140
5.0
141
0.09
142
0.0
143
25.4
144
1.0
145
0.0
146
1.0
147
1.0
 71
     0
 72
     0
 73
     0
 74
     1
 75
     0
 76
     0
 77
     1
 78
    12
170
     0
171
     2
172
     1
173
     0
174
     0
175
     0
176
     0
177
     0
178
     0
  0
ENDTAB
  0
ENDSEC
  0
SECTION
  2
BLOCKS
  0
BLOCK
  8
0
  2
$MODEL_SPACE
 70
     0
 10
0.0
 20
0.0
 30
0.0
  3
$MODEL_SPACE
  1

  0
ENDBLK
  5
2A04D
  8
0
  0
BLOCK
 67
     1
  8
0
  2
$PAPER_SPACE
 70
     0
 10
0.0
 20
0.0
 30
0.0
  3
$PAPER_SPACE
  1

  0
ENDBLK
  5
2A04B
 67
     1
  8
0
  0
BLOCK
  8
0
  2
SCH_ISO
 70
     0
 10
0.0
 20
0.0
 30
0.0
  3
SCH_ISO
  1

  0
ENDBLK
  5
13A
  8
0
  0
BLOCK
  8
0
  2
*D1
 70
     1
 10
0.0
 20
0.0
 30
0.0
  3
*D1
  1

  0
LINE
  5
29F84
  8
0
  6
BYBLOCK
 62
     0
 10
1408.911129
 20
440.256861
 30
0.0
 11
1353.208136
 21
440.256861
 31
0.0
  0
LINE
  5
29F85
  8
0
  6
BYBLOCK
 62
     0
 10
1410.411129
 20
60.256861
 30
0.0
 11
1353.208136
 21
60.256861
 31
0.0
  0
LINE
  5
29F86
  8
0
  6
BYBLOCK
 62
     0
 10
1353.388136
 20
434.256861
 30
0.0
 11
1353.388136
 21
66.256861
 31
0.0
  0
SOLID
  5
29F87
  8
0
  6
BYBLOCK
 62
     0
 10
1352.388136
 20
434.256861
 30
0.0
 11
1354.388136
 21
434.256861
 31
0.0
 12
1353.388136
 22
440.256861
 32
0.0
 13
1353.388136
 23
440.256861
 33
0.0
  0
SOLID
  5
29F88
  8
0
  6
BYBLOCK
 62
     0
 10
1352.388136
 20
66.256861
 30
0.0
 11
1354.388136
 21
66.256861
 31
0.0
 12
1353.388136
 22
60.256861
 32
0.0
 13
1353.388136
 23
60.256861
 33
0.0
  0
TEXT
  5
29F89
  8
0
  6
BYBLOCK
 62
     0
 10
1352.388136
 20
242.756861
 30
0.0
 40
6.0
  1
380
 50
90.0
  0
POINT
  5
29F8A
  8
DEFPOINTS
  6
BYBLOCK
 62
     0
 10
1408.973629
 20
440.256861
 30
0.0
  0
POINT
  5
29F8B
  8
DEFPOINTS
  6
BYBLOCK
 62
     0
 10
1410.473629
 20
60.256861
 30
0.0
  0
POINT
  5
29F8C
  8
DEFPOINTS
  6
BYBLOCK
 62
     0
 10
1353.388136
 20
60.256861
 30
0.0
  0
ENDBLK
  5
29F8D
  8
0
  0
BLOCK
  8
0
  2
*D2
 70
     1
 10
0.0
 20
0.0
 30
0.0
  3
*D2
  1

  0
LINE
  5
29FFC
  8
0
  6
BYBLOCK
 62
     0
 10
1443.973629
 20
425.319361
 30
0.0
 11
1443.973629
 21
470.438036
 31
0.0
  0
LINE
  5
29FFD
  8
0
  6
BYBLOCK
 62
     0
 10
1693.973629
 20
425.319361
 30
0.0
 11
1693.973629
 21
470.438036
 31
0.0
  0
LINE
  5
29FFE
  8
0
  6
BYBLOCK
 62
     0
 10
1449.973629
 20
470.258036
 30
0.0
 11
1687.973629
 21
470.258036
 31
0.0
  0
SOLID
  5
29FFF
  8
0
  6
BYBLOCK
 62
     0
 10
1449.973629
 20
471.258036
 30
0.0
 11
1449.973629
 21
469.258036
 31
0.0
 12
1443.973629
 22
470.258036
 32
0.0
 13
1443.973629
 23
470.258036
 33
0.0
  0
SOLID
  5
2A000
  8
0
  6
BYBLOCK
 62
     0
 10
1687.973629
 20
471.258036
 30
0.0
 11
1687.973629
 21
469.258036
 31
0.0
 12
1693.973629
 22
470.258036
 32
0.0
 13
1693.973629
 23
470.258036
 33
0.0
  0
TEXT
  5
2A001
  8
0
  6
BYBLOCK
 62
     0
 10
1561.473629
 20
471.258036
 30
0.0
 40
6.0
  1
250
  0
POINT
  5
2A002
  8
DEFPOINTS
  6
BYBLOCK
 62
     0
 10
1443.973629
 20
425.256861
 30
0.0
  0
POINT
  5
2A003
  8
DEFPOINTS
  6
BYBLOCK
 62
     0
 10
1693.973629
 20
425.256861
 30
0.0
  0
POINT
  5
2A004
  8
DEFPOINTS
  6
BYBLOCK
 62
     0
 10
1693.973629
 20
470.258036
 30
0.0
  0
ENDBLK
  5
2A005
  8
0
  0
BLOCK
  8
0
  2
*D3
 70
     1
 10
0.0
 20
0.0
 30
0.0
  3
*D3
  1

  0
LINE
  5
29FA5
  8
0
  6
BYBLOCK
 62
     0
 10
1443.911129
 20
425.256861
 30
0.0
 11
1382.364958
 21
425.256861
 31
0.0
  0
LINE
  5
29FA6
  8
0
  6
BYBLOCK
 62
     0
 10
1443.911129
 20
75.256861
 30
0.0
 11
1382.364958
 21
75.256861
 31
0.0
  0
LINE
  5
29FA7
  8
0
  6
BYBLOCK
 62
     0
 10
1382.544958
 20
419.256861
 30
0.0
 11
1382.544958
 21
81.256861
 31
0.0
  0
SOLID
  5
29FA8
  8
0
  6
BYBLOCK
 62
     0
 10
1381.544958
 20
419.256861
 30
0.0
 11
1383.544958
 21
419.256861
 31
0.0
 12
1382.544958
 22
425.256861
 32
0.0
 13
1382.544958
 23
425.256861
 33
0.0
  0
SOLID
  5
29FA9
  8
0
  6
BYBLOCK
 62
     0
 10
1381.544958
 20
81.256861
 30
0.0
 11
1383.544958
 21
81.256861
 31
0.0
 12
1382.544958
 22
75.256861
 32
0.0
 13
1382.544958
 23
75.256861
 33
0.0
  0
TEXT
  5
29FAA
  8
0
  6
BYBLOCK
 62
     0
 10
1381.544958
 20
242.756861
 30
0.0
 40
6.0
  1
350
 50
90.0
  0
POINT
  5
29FAB
  8
DEFPOINTS
  6
BYBLOCK
 62
     0
 10
1443.973629
 20
425.256861
 30
0.0
  0
POINT
  5
29FAC
  8
DEFPOINTS
  6
BYBLOCK
 62
     0
 10
1443.973629
 20
75.256861
 30
0.0
  0
POINT
  5
29FAD
  8
DEFPOINTS
  6
BYBLOCK
 62
     0
 10
1382.544958
 20
75.256861
 30
0.0
  0
ENDBLK
  5
29FAE
  8
0
  0
BLOCK
  8
0
  2
*D4
 70
     1
 10
0.0
 20
0.0
 30
0.0
  3
*D4
  1

  0
LINE
  5
29FC7
  8
0
  6
BYBLOCK
 62
     0
 10
1408.911129
 20
440.256861
 30
0.0
 11
1382.364958
 21
440.256861
 31
0.0
  0
LINE
  5
29FC8
  8
0
  6
BYBLOCK
 62
     0
 10
1443.911129
 20
425.256861
 30
0.0
 11
1382.364958
 21
425.256861
 31
0.0
  0
LINE
  5
29FC9
  8
0
  6
BYBLOCK
 62
     0
 10
1382.544958
 20
434.256861
 30
0.0
 11
1382.544958
 21
431.256861
 31
0.0
  0
TEXT
  5
29FCA
  8
0
  6
BYBLOCK
 62
     0
 10
1380.391571
 20
448.893921
 30
0.0
 40
6.0
  1
15
 50
90.0
  0
SOLID
  5
29FCB
  8
0
  6
BYBLOCK
 62
     0
 10
1381.544958
 20
434.256861
 30
0.0
 11
1383.544958
 21
434.256861
 31
0.0
 12
1382.544958
 22
440.256861
 32
0.0
 13
1382.544958
 23
440.256861
 33
0.0
  0
SOLID
  5
29FCC
  8
0
  6
BYBLOCK
 62
     0
 10
1381.544958
 20
431.256861
 30
0.0
 11
1383.544958
 21
431.256861
 31
0.0
 12
1382.544958
 22
425.256861
 32
0.0
 13
1382.544958
 23
425.256861
 33
0.0
  0
POINT
  5
29FCD
  8
DEFPOINTS
  6
BYBLOCK
 62
     0
 10
1408.973629
 20
440.256861
 30
0.0
  0
POINT
  5
29FCE
  8
DEFPOINTS
  6
BYBLOCK
 62
     0
 10
1443.973629
 20
425.256861
 30
0.0
  0
POINT
  5
29FCF
  8
DEFPOINTS
  6
BYBLOCK
 62
     0
 10
1382.544958
 20
425.256861
 30
0.0
  0
ENDBLK
  5
29FD0
  8
0
  0
BLOCK
  8
0
  2
*D5
 70
     1
 10
0.0
 20
0.0
 30
0.0
  3
*D5
  1

  0
LINE
  5
29FF1
  8
0
  6
BYBLOCK
 62
     0
 10
1408.911129
 20
440.319361
 30
0.0
 11
1408.911129
 21
470.438036
 31
0.0
  0
LINE
  5
29FF2
  8
0
  6
BYBLOCK
 62
     0
 10
1443.973629
 20
425.319361
 30
0.0
 11
1443.973629
 21
470.438036
 31
0.0
  0
LINE
  5
29FF3
  8
0
  6
BYBLOCK
 62
     0
 10
1414.911129
 20
470.258036
 30
0.0
 11
1437.973629
 21
470.258036
 31
0.0
  0
SOLID
  5
29FF4
  8
0
  6
BYBLOCK
 62
     0
 10
1414.911129
 20
471.258036
 30
0.0
 11
1414.911129
 21
469.258036
 31
0.0
 12
1408.911129
 22
470.258036
 32
0.0
 13
1408.911129
 23
470.258036
 33
0.0
  0
SOLID
  5
29FF5
  8
0
  6
BYBLOCK
 62
     0
 10
1437.973629
 20
471.258036
 30
0.0
 11
1437.973629
 21
469.258036
 31
0.0
 12
1443.973629
 22
470.258036
 32
0.0
 13
1443.973629
 23
470.258036
 33
0.0
  0
TEXT
  5
29FF6
  8
0
  6
BYBLOCK
 62
     0
 10
1424.442379
 20
471.258036
 30
0.0
 40
6.0
  1
=
  0
POINT
  5
29FF7
  8
DEFPOINTS
  6
BYBLOCK
 62
     0
 10
1408.911129
 20
440.256861
 30
0.0
  0
POINT
  5
29FF8
  8
DEFPOINTS
  6
BYBLOCK
 62
     0
 10
1443.973629
 20
425.256861
 30
0.0
  0
POINT
  5
29FF9
  8
DEFPOINTS
  6
BYBLOCK
 62
     0
 10
1443.973629
 20
470.258036
 30
0.0
  0
ENDBLK
  5
29FFA
  8
0
  0
BLOCK
  8
0
  2
*D6
 70
     1
 10
0.0
 20
0.0
 30
0.0
  3
*D6
  1

  0
LINE
  5
2A007
  8
0
  6
BYBLOCK
 62
     0
 10
1693.973629
 20
425.319361
 30
0.0
 11
1693.973629
 21
470.438036
 31
0.0
  0
LINE
  5
2A008
  8
0
  6
BYBLOCK
 62
     0
 10
1728.973629
 20
440.319361
 30
0.0
 11
1728.973629
 21
470.438036
 31
0.0
  0
LINE
  5
2A009
  8
0
  6
BYBLOCK
 62
     0
 10
1699.973629
 20
470.258036
 30
0.0
 11
1722.973629
 21
470.258036
 31
0.0
  0
SOLID
  5
2A00A
  8
0
  6
BYBLOCK
 62
     0
 10
1699.973629
 20
471.258036
 30
0.0
 11
1699.973629
 21
469.258036
 31
0.0
 12
1693.973629
 22
470.258036
 32
0.0
 13
1693.973629
 23
470.258036
 33
0.0
  0
SOLID
  5
2A00B
  8
0
  6
BYBLOCK
 62
     0
 10
1722.973629
 20
471.258036
 30
0.0
 11
1722.973629
 21
469.258036
 31
0.0
 12
1728.973629
 22
470.258036
 32
0.0
 13
1728.973629
 23
470.258036
 33
0.0
  0
TEXT
  5
2A00C
  8
0
  6
BYBLOCK
 62
     0
 10
1709.473629
 20
471.258036
 30
0.0
 40
6.0
  1
=
  0
POINT
  5
2A00D
  8
DEFPOINTS
  6
BYBLOCK
 62
     0
 10
1693.973629
 20
425.256861
 30
0.0
  0
POINT
  5
2A00E
  8
DEFPOINTS
  6
BYBLOCK
 62
     0
 10
1728.973629
 20
440.256861
 30
0.0
  0
POINT
  5
2A00F
  8
DEFPOINTS
  6
BYBLOCK
 62
     0
 10
1728.973629
 20
470.258036
 30
0.0
  0
ENDBLK
  5
2A010
  8
0
  0
BLOCK
  8
0
  2
*D7
 70
     1
 10
0.0
 20
0.0
 30
0.0
  3
*D7
  1

  0
LINE
  5
2A012
  8
0
  6
BYBLOCK
 62
     0
 10
1493.104771
 20
451.148017
 30
0.0
 11
1473.771438
 21
451.148017
 31
0.0
  0
LINE
  5
2A013
  8
0
  6
BYBLOCK
 62
     0
 10
1473.771438
 20
451.148017
 30
0.0
 11
1447.370481
 21
428.208368
 31
0.0
  0
TEXT
  5
2A014
  8
0
  6
BYBLOCK
 62
     0
 10
1474.771438
 20
452.148017
 30
0.0
 40
5.0
  1
4x%%c9
  0
LINE
  5
2A015
  8
0
  6
BYBLOCK
 62
     0
 10
1443.973629
 20
425.256861
 30
0.0
 11
1447.370481
 21
428.208368
 31
0.0
  0
SOLID
  5
2A016
  8
0
  6
BYBLOCK
 62
     0
 10
1449.307104
 20
430.553468
 30
0.0
 11
1449.962995
 21
429.798611
 31
0.0
 12
1447.370481
 22
428.208368
 32
0.0
 13
1447.370481
 23
428.208368
 33
0.0
  0
POINT
  5
2A017
  8
DEFPOINTS
  6
BYBLOCK
 62
     0
 10
1447.370481
 20
428.208368
 30
0.0
  0
POINT
  5
2A018
  8
DEFPOINTS
  6
BYBLOCK
 62
     0
 10
1443.973629
 20
425.256861
 30
0.0
  0
ENDBLK
  5
2A019
  8
0
  0
ENDSEC
  0
SECTION
  2
ENTITIES
  0
INSERT
  5
13C
  8
ALPHA
 62
   255
  2
SCH_ISO
 10
0.0
 20
0.0
 30
0.0
  0
DIMENSION
  5
F8A5
  8
COTATION1
  2
*D1
 10
1353.388136
 20
60.256861
 30
0.0
 11
1349.388136
 21
250.256861
 31
0.0
 13
1408.973629
 23
440.256861
 33
0.0
 14
1410.473629
 24
60.256861
 34
0.0
 50
90.0
1001
ACAD
1000
DSTYLE
1002
{
1002
}
  0
DIMENSION
  5
F922
  8
COTATION1
  2
*D2
 10
1693.973629
 20
470.258036
 30
0.0
 11
1568.973629
 21
474.258036
 31
0.0
 13
1443.973629
 23
425.256861
 33
0.0
 14
1693.973629
 24
425.256861
 34
0.0
1001
ACAD
1000
DSTYLE
1002
{
1002
}
  0
DIMENSION
  5
F9F8
  8
COTATION1
  2
*D3
 10
1382.544958
 20
75.256861
 30
0.0
 11
1378.544958
 21
250.256861
 31
0.0
 13
1443.973629
 23
425.256861
 33
0.0
 14
1443.973629
 24
75.256861
 34
0.0
 50
90.0
1001
ACAD
1000
DSTYLE
1002
{
1002
}
  0
DIMENSION
  5
FAD5
  8
COTATION1
  2
*D4
 10
1382.544958
 20
425.256861
 30
0.0
 11
1377.391571
 21
452.893921
 31
0.0
 70
   128
 13
1408.973629
 23
440.256861
 33
0.0
 14
1443.973629
 24
425.256861
 34
0.0
 50
90.0
1001
ACAD
1000
DSTYLE
1002
{
1002
}
  0
LINE
  5
15593
  8
ALPHA
 10
1408.973629
 20
440.256861
 30
0.0
 11
1598.973629
 21
440.256861
 31
0.0
  0
DIMENSION
  5
1AE70
  8
COTATION1
  2
*D5
 10
1443.973629
 20
470.258036
 30
0.0
 11
1426.442379
 21
474.258036
 31
0.0
  1
=
 13
1408.911129
 23
440.256861
 33
0.0
 14
1443.973629
 24
425.256861
 34
0.0
1001
ACAD
1000
DSTYLE
1002
{
1002
}
  0
DIMENSION
  5
1AE9E
  8
COTATION1
  2
*D6
 10
1728.973629
 20
470.258036
 30
0.0
 11
1711.473629
 21
474.258036
 31
0.0
  1
=
 13
1693.973629
 23
425.256861
 33
0.0
 14
1728.973629
 24
440.256861
 34
0.0
1001
ACAD
1000
DSTYLE
1002
{
1002
}
  0
LINE
  5
1E96C
  8
ALPHA
 10
1408.973629
 20
440.256861
 30
0.0
 11
1608.973629
 21
440.256861
 31
0.0
  0
CIRCLE
  5
2616A
  8
ALPHA
 10
1584.123629
 20
243.706861
 30
0.0
 40
4.0
  0
LINE
  5
2616B
  8
ALPHA
 10
1410.473629
 20
440.256861
 30
0.0
 11
1727.473629
 21
440.256861
 31
0.0
  0
LINE
  5
2616C
  8
ALPHA
 10
1408.973629
 20
396.106861
 30
0.0
 11
1728.973629
 21
396.106861
 31
0.0
  0
LINE
  5
2616D
  8
ALPHA
 10
1408.973629
 20
393.606861
 30
0.0
 11
1728.973629
 21
393.606861
 31
0.0
  0
LINE
  5
2616E
  8
ALPHA
 10
1411.973629
 20
376.106861
 30
0.0
 11
1725.973629
 21
376.106861
 31
0.0
  0
LINE
  5
2616F
  8
ALPHA
 10
1725.973629
 20
375.306861
 30
0.0
 11
1411.973629
 21
375.306861
 31
0.0
  0
LINE
  5
26170
  8
ALPHA
 10
1647.473857
 20
368.206861
 30
0.0
 11
1490.4734
 21
368.206861
 31
0.0
  0
LINE
  5
26171
  8
ALPHA
 10
1524.766497
 20
367.644351
 30
0.0
 11
1610.780761
 21
367.644351
 31
0.0
  0
LINE
  5
26172
  8
ALPHA
 10
1524.973629
 20
366.14458
 30
0.0
 11
1610.573629
 21
366.14458
 31
0.0
  0
LINE
  5
26173
  8
ALPHA
 10
1610.073629
 20
308.656861
 30
0.0
 11
1525.473629
 21
308.656861
 31
0.0
  0
LINE
  5
26174
  8
ALPHA
 10
1525.473629
 20
296.656861
 30
0.0
 11
1610.073629
 21
296.656861
 31
0.0
  0
LINE
  5
26175
  8
ALPHA
 10
1610.073629
 20
295.656861
 30
0.0
 11
1525.473629
 21
295.656861
 31
0.0
  0
LINE
  5
26176
  8
ALPHA
 10
1608.523629
 20
295.156861
 30
0.0
 11
1527.023629
 21
295.156861
 31
0.0
  0
LINE
  5
26177
  8
ALPHA
 10
1527.023629
 20
288.156861
 30
0.0
 11
1608.523629
 21
288.156861
 31
0.0
  0
LINE
  5
26178
  8
ALPHA
 10
1525.473629
 20
287.656861
 30
0.0
 11
1610.073629
 21
287.656861
 31
0.0
  0
LINE
  5
26179
  8
ALPHA
 10
1610.073629
 20
286.656861
 30
0.0
 11
1525.473629
 21
286.656861
 31
0.0
  0
LINE
  5
2617A
  8
ALPHA
 10
1525.723629
 20
286.406861
 30
0.0
 11
1609.823629
 21
286.406861
 31
0.0
  0
LINE
  5
2617B
  8
ALPHA
 10
1544.273629
 20
281.156861
 30
0.0
 11
1588.573629
 21
281.156861
 31
0.0
  0
LINE
  5
2617C
  8
ALPHA
 10
1544.802671
 20
281.097665
 30
0.0
 11
1588.044586
 21
281.097665
 31
0.0
  0
POLYLINE
  5
2617D
  8
ALPHA
 66
     1
 10
0.0
 20
0.0
 30
0.0
  0
VERTEX
  5
2A052
  8
ALPHA
 10
1610.073629
 20
244.164959
 30
0.0
  0
VERTEX
  5
2A053
  8
ALPHA
 10
1595.276885
 20
236.951855
 30
0.0
  0
VERTEX
  5
2A054
  8
ALPHA
 10
1581.497376
 20
231.713568
 30
0.0
  0
VERTEX
  5
2A055
  8
ALPHA
 10
1568.868969
 20
228.279759
 30
0.0
  0
SEQEND
  5
2A056
  8
ALPHA
  0
LINE
  5
26183
  8
ALPHA
 10
1584.708004
 20
241.85686
 30
0.0
 11
1583.796545
 21
244.910052
 31
0.0
  0
LINE
  5
26184
  8
ALPHA
 10
1583.90592
 20
245.35686
 30
0.0
 11
1584.817379
 21
242.378138
 31
0.0
  0
LINE
  5
26185
  8
ALPHA
 10
1583.673629
 20
259.376708
 30
0.0
 11
1588.514433
 21
254.535904
 31
0.0
  0
LINE
  5
26186
  8
ALPHA
 10
1583.203782
 20
258.906861
 30
0.0
 11
1588.044586
 21
254.066057
 31
0.0
  0
LINE
  5
26187
  8
ALPHA
 10
1588.044586
 20
254.066057
 30
0.0
 11
1544.802671
 21
254.066057
 31
0.0
  0
LINE
  5
26188
  8
ALPHA
 10
1588.573629
 20
254.006861
 30
0.0
 11
1544.273629
 21
254.006861
 31
0.0
  0
LINE
  5
26189
  8
ALPHA
 10
1588.514433
 20
280.627819
 30
0.0
 11
1583.673629
 21
275.787015
 31
0.0
  0
LINE
  5
2618A
  8
ALPHA
 10
1588.044586
 20
281.097665
 30
0.0
 11
1583.203782
 21
276.256861
 31
0.0
  0
POLYLINE
  5
2618B
  8
ALPHA
 66
     1
 10
0.0
 20
0.0
 30
0.0
  0
VERTEX
  5
2A057
  8
ALPHA
 10
1566.233276
 20
228.011964
 30
0.0
  0
VERTEX
  5
2A058
  8
ALPHA
 10
1573.365666
 20
229.613054
 30
0.0
  0
VERTEX
  5
2A059
  8
ALPHA
 10
1581.352804
 20
231.955952
 30
0.0
  0
VERTEX
  5
2A05A
  8
ALPHA
 10
1589.916306
 20
235.047646
 30
0.0
  0
VERTEX
  5
2A05B
  8
ALPHA
 10
1599.390132
 20
239.119461
 30
0.0
  0
VERTEX
  5
2A05C
  8
ALPHA
 10
1609.823629
 20
244.374601
 30
0.0
  0
SEQEND
  5
2A05D
  8
ALPHA
  0
POLYLINE
  5
26193
  8
ALPHA
 66
     1
 10
0.0
 20
0.0
 30
0.0
  0
VERTEX
  5
2A05E
  8
ALPHA
 10
1568.973629
 20
227.790836
 30
0.0
  0
VERTEX
  5
2A05F
  8
ALPHA
 10
1582.806368
 20
231.591622
 30
0.0
  0
VERTEX
  5
2A060
  8
ALPHA
 10
1596.783302
 20
236.946081
 30
0.0
  0
VERTEX
  5
2A061
  8
ALPHA
 10
1610.820167
 20
243.721323
 30
0.0
  0
SEQEND
  5
2A062
  8
ALPHA
  0
POLYLINE
  5
26199
  8
ALPHA
 66
     1
 10
0.0
 20
0.0
 30
0.0
  0
VERTEX
  5
2A063
  8
ALPHA
 10
1568.973629
 20
227.790836
 30
0.0
  0
VERTEX
  5
2A064
  8
ALPHA
 10
1582.733186
 20
231.595461
 30
0.0
  0
VERTEX
  5
2A065
  8
ALPHA
 10
1596.628581
 20
236.996673
 30
0.0
  0
VERTEX
  5
2A066
  8
ALPHA
 10
1610.573629
 20
243.86771
 30
0.0
  0
SEQEND
  5
2A067
  8
ALPHA
  0
LINE
  5
2619F
  8
ALPHA
 10
1622.009718
 20
180.122571
 30
0.0
 11
1496.115037
 21
180.122571
 31
0.0
  0
LINE
  5
261A0
  8
ALPHA
 10
1558.083629
 20
176.256861
 30
0.0
 11
1621.043629
 21
176.256861
 31
0.0
  0
LINE
  5
261A1
  8
ALPHA
 10
1558.083629
 20
175.056861
 30
0.0
 11
1621.043629
 21
175.056861
 31
0.0
  0
LINE
  5
261A2
  8
ALPHA
 10
1643.903736
 20
174.256861
 30
0.0
 11
1494.043522
 21
174.256861
 31
0.0
  0
LINE
  5
261A3
  8
ALPHA
 10
1496.009125
 20
172.681412
 30
0.0
 11
1641.938132
 21
172.681412
 31
0.0
  0
LINE
  5
261A4
  8
ALPHA
 10
1496.009125
 20
170.681412
 30
0.0
 11
1641.938132
 21
170.681412
 31
0.0
  0
LINE
  5
261A5
  8
ALPHA
 10
1647.473857
 20
170.506861
 30
0.0
 11
1490.4734
 21
170.506861
 31
0.0
  0
POLYLINE
  5
261A6
  8
ALPHA
 66
     1
 10
0.0
 20
0.0
 30
0.0
  0
VERTEX
  5
2A068
  8
ALPHA
 10
1490.69377
 20
181.65689
 30
0.0
  0
VERTEX
  5
2A069
  8
ALPHA
 10
1521.841285
 20
181.72544
 30
0.0
  0
VERTEX
  5
2A06A
  8
ALPHA
 10
1553.235406
 20
181.759874
 30
0.0
  0
VERTEX
  5
2A06B
  8
ALPHA
 10
1584.711985
 20
181.759874
 30
0.0
  0
VERTEX
  5
2A06C
  8
ALPHA
 10
1616.106054
 20
181.72544
 30
0.0
  0
VERTEX
  5
2A06D
  8
ALPHA
 10
1647.253487
 20
181.65689
 30
0.0
  0
SEQEND
  5
2A06E
  8
ALPHA
  0
POLYLINE
  5
261AE
  8
ALPHA
 66
     1
 10
0.0
 20
0.0
 30
0.0
  0
VERTEX
  5
2A06F
  8
ALPHA
 10
1490.928611
 20
180.157115
 30
0.0
  0
VERTEX
  5
2A070
  8
ALPHA
 10
1521.980814
 20
180.225665
 30
0.0
  0
VERTEX
  5
2A071
  8
ALPHA
 10
1553.28199
 20
180.260102
 30
0.0
  0
VERTEX
  5
2A072
  8
ALPHA
 10
1584.665391
 20
180.260102
 30
0.0
  0
VERTEX
  5
2A073
  8
ALPHA
 10
1615.966499
 20
180.225665
 30
0.0
  0
SEQEND
  5
2A074
  8
ALPHA
  0
LINE
  5
261B5
  8
ALPHA
 10
1411.973629
 20
142.906861
 30
0.0
 11
1725.973629
 21
142.906861
 31
0.0
  0
LINE
  5
261B6
  8
ALPHA
 10
1725.973629
 20
142.106861
 30
0.0
 11
1411.973629
 21
142.106861
 31
0.0
  0
LINE
  5
261B7
  8
ALPHA
 10
1728.973629
 20
125.106861
 30
0.0
 11
1408.973629
 21
125.106861
 31
0.0
  0
LINE
  5
261B8
  8
ALPHA
 10
1728.973629
 20
122.106861
 30
0.0
 11
1408.973629
 21
122.106861
 31
0.0
  0
LINE
  5
261B9
  8
ALPHA
 10
1450.473629
 20
60.256861
 30
0.0
 11
1687.473629
 21
60.256861
 31
0.0
  0
LINE
  5
261BA
  8
ALPHA
 10
1490.69377
 20
366.251881
 30
0.0
 11
1490.69377
 21
181.656885
 31
0.0
  0
LINE
  5
261BB
  8
ALPHA
 10
1489.428838
 20
366.251881
 30
0.0
 11
1489.428838
 21
181.656885
 31
0.0
  0
LINE
  5
261BC
  8
ALPHA
 10
1488.973629
 20
172.006633
 30
0.0
 11
1488.973629
 21
366.70709
 31
0.0
  0
LINE
  5
261BD
  8
ALPHA
 10
1408.973629
 20
60.256861
 30
0.0
 11
1408.973629
 21
440.256861
 31
0.0
  0
ARC
  5
261BF
  8
ALPHA
 10
1504.723629
 20
90.256861
 30
0.0
 40
12.5
 50
90.0
 51
180.0
  0
ARC
  5
261C0
  8
ALPHA
 10
1504.723629
 20
90.256861
 30
0.0
 40
11.5
 50
90.0
 51
180.0
  0
LINE
  5
261C1
  8
ALPHA
 10
1490.473629
 20
110.106861
 30
0.0
 11
1492.251406
 21
122.106861
 31
0.0
  0
LINE
  5
261C2
  8
ALPHA
 10
1494.62407
 20
180.110929
 30
0.0
 11
1490.882426
 21
180.110929
 31
0.0
  0
LINE
  5
261C3
  8
ALPHA
 10
1494.352637
 20
179.932352
 30
0.0
 11
1490.856515
 21
179.932352
 31
0.0
  0
LINE
  5
261C4
  8
ALPHA
 10
1493.950031
 20
171.261372
 30
0.0
 11
1490.722505
 21
171.261372
 31
0.0
  0
LINE
  5
261C5
  8
ALPHA
 10
1493.969177
 20
170.755966
 30
0.0
 11
1490.722505
 21
170.755966
 31
0.0
  0
ARC
  5
261C6
  8
ALPHA
 10
1443.973629
 20
75.256861
 30
0.0
 40
4.5
 50
0.0
 51
180.0
  0
LINE
  5
261C7
  8
ALPHA
 10
1447.473629
 20
121.306861
 30
0.0
 11
1440.473629
 21
121.306861
 31
0.0
  0
LINE
  5
261C8
  8
ALPHA
 10
1447.273629
 20
120.506861
 30
0.0
 11
1440.673629
 21
120.506861
 31
0.0
  0
LINE
  5
261C9
  8
ALPHA
 10
1447.223549
 20
118.300055
 30
0.0
 11
1444.373629
 21
118.300055
 31
0.0
  0
LINE
  5
261CA
  8
ALPHA
 10
1446.923626
 20
118.006861
 30
0.0
 11
1444.373629
 21
118.006861
 31
0.0
  0
LINE
  5
261CB
  8
ALPHA
 10
1411.973629
 20
119.950341
 30
0.0
 11
1411.973629
 21
60.256861
 31
0.0
  0
LINE
  5
261CC
  8
ALPHA
 10
1410.473629
 20
60.256861
 30
0.0
 11
1410.473629
 21
122.106861
 31
0.0
  0
LINE
  5
261CD
  8
ALPHA
 10
1437.473629
 20
60.256861
 30
0.0
 11
1410.473629
 21
60.256861
 31
0.0
  0
LINE
  5
261CE
  8
ALPHA
 10
1410.473629
 20
61.424392
 30
0.0
 11
1408.973629
 21
61.424392
 31
0.0
  0
LINE
  5
261CF
  8
ALPHA
 10
1410.473629
 20
60.256861
 30
0.0
 11
1408.973629
 21
60.256861
 31
0.0
  0
LINE
  5
261D0
  8
ALPHA
 10
1437.473629
 20
60.256861
 30
0.0
 11
1439.473629
 21
62.256861
 31
0.0
  0
LINE
  5
261D1
  8
ALPHA
 10
1439.473629
 20
62.256861
 30
0.0
 11
1439.473629
 21
75.256861
 31
0.0
  0
ARC
  5
261D2
  8
ALPHA
 10
1415.723629
 20
127.006861
 30
0.0
 40
8.0
 50
240.0
 51
262.627033
  0
ARC
  5
261D3
  8
ALPHA
 10
1415.723629
 20
127.006861
 30
0.0
 40
8.0
 50
277.36126
 51
300.0
  0
ARC
  5
261D4
  8
ALPHA
 10
1418.673626
 20
118.306861
 30
0.0
 40
0.3
 50
270.0
 51
358.7
  0
ARC
  5
261D5
  8
ALPHA
 10
1412.773631
 20
118.306861
 30
0.0
 40
0.3
 50
181.3
 51
270.0
  0
POLYLINE
  5
261D6
  8
ALPHA
 66
     1
 10
0.0
 20
0.0
 30
0.0
  0
VERTEX
  5
2A075
  8
ALPHA
 10
1416.986305
 20
119.123795
 30
0.0
  0
VERTEX
  5
2A076
  8
ALPHA
 10
1416.984425
 20
119.12113
 30
0.0
  0
VERTEX
  5
2A077
  8
ALPHA
 10
1416.96271
 20
119.112618
 30
0.0
  0
VERTEX
  5
2A078
  8
ALPHA
 10
1416.917499
 20
119.101986
 30
0.0
  0
VERTEX
  5
2A079
  8
ALPHA
 10
1416.853552
 20
119.090291
 30
0.0
  0
SEQEND
  5
2A07A
  8
ALPHA
  0
POLYLINE
  5
261DD
  8
ALPHA
 66
     1
 10
0.0
 20
0.0
 30
0.0
  0
VERTEX
  5
2A07B
  8
ALPHA
 10
1416.484526
 20
119.090291
 30
0.0
  0
VERTEX
  5
2A07C
  8
ALPHA
 10
1416.577424
 20
119.102047
 30
0.0
  0
VERTEX
  5
2A07D
  8
ALPHA
 10
1416.674138
 20
119.11267
 30
0.0
  0
SEQEND
  5
2A07E
  8
ALPHA
  0
LINE
  5
261E2
  8
ALPHA
 10
1416.748629
 20
119.072797
 30
0.0
 11
1416.853552
 21
119.090291
 31
0.0
  0
POLYLINE
  5
261E3
  8
ALPHA
 66
     1
 10
0.0
 20
0.0
 30
0.0
  0
VERTEX
  5
2A07F
  8
ALPHA
 10
1414.48971
 20
119.122425
 30
0.0
  0
VERTEX
  5
2A080
  8
ALPHA
 10
1414.490081
 20
119.123553
 30
0.0
  0
VERTEX
  5
2A081
  8
ALPHA
 10
1414.5052
 20
119.128293
 30
0.0
  0
SEQEND
  5
2A082
  8
ALPHA
  0
LINE
  5
261E8
  8
ALPHA
 10
1415.223629
 20
120.606861
 30
0.0
 11
1416.223629
 21
120.606861
 31
0.0
  0
LINE
  5
261E9
  8
ALPHA
 10
1416.223629
 20
120.506861
 30
0.0
 11
1415.223629
 21
120.506861
 31
0.0
  0
LINE
  5
261EA
  8
ALPHA
 10
1415.223629
 20
120.078658
 30
0.0
 11
1411.723629
 21
120.078658
 31
0.0
  0
LINE
  5
261EB
  8
ALPHA
 10
1419.723629
 20
120.078658
 30
0.0
 11
1416.223629
 21
120.078658
 31
0.0
  0
POLYLINE
  5
261EC
  8
ALPHA
 66
     1
 10
0.0
 20
0.0
 30
0.0
  0
VERTEX
  5
2A083
  8
ALPHA
 10
1416.223629
 20
119.072857
 30
0.0
  0
VERTEX
  5
2A084
  8
ALPHA
 10
1416.270281
 20
119.073205
 30
0.0
  0
VERTEX
  5
2A085
  8
ALPHA
 10
1416.3216
 20
119.075156
 30
0.0
  0
VERTEX
  5
2A086
  8
ALPHA
 10
1416.376315
 20
119.078761
 30
0.0
  0
VERTEX
  5
2A087
  8
ALPHA
 10
1416.431689
 20
119.083912
 30
0.0
  0
VERTEX
  5
2A088
  8
ALPHA
 10
1416.484526
 20
119.090291
 30
0.0
  0
SEQEND
  5
2A089
  8
ALPHA
  0
POLYLINE
  5
261F4
  8
ALPHA
 66
     1
 10
0.0
 20
0.0
 30
0.0
  0
VERTEX
  5
2A08A
  8
ALPHA
 10
1414.5052
 20
119.128293
 30
0.0
  0
VERTEX
  5
2A08B
  8
ALPHA
 10
1414.541888
 20
119.130268
 30
0.0
  0
VERTEX
  5
2A08C
  8
ALPHA
 10
1414.597396
 20
119.129341
 30
0.0
  0
VERTEX
  5
2A08D
  8
ALPHA
 10
1414.668441
 20
119.12561
 30
0.0
  0
SEQEND
  5
2A08E
  8
ALPHA
  0
POLYLINE
  5
261FA
  8
ALPHA
 66
     1
 10
0.0
 20
0.0
 30
0.0
  0
VERTEX
  5
2A08F
  8
ALPHA
 10
1416.674138
 20
119.11267
 30
0.0
  0
VERTEX
  5
2A090
  8
ALPHA
 10
1416.765338
 20
119.121125
 30
0.0
  0
VERTEX
  5
2A091
  8
ALPHA
 10
1416.843963
 20
119.126871
 30
0.0
  0
VERTEX
  5
2A092
  8
ALPHA
 10
1416.908973
 20
119.129901
 30
0.0
  0
VERTEX
  5
2A093
  8
ALPHA
 10
1416.956791
 20
119.129938
 30
0.0
  0
VERTEX
  5
2A094
  8
ALPHA
 10
1416.982244
 20
119.1269
 30
0.0
  0
VERTEX
  5
2A095
  8
ALPHA
 10
1416.986305
 20
119.123795
 30
0.0
  0
SEQEND
  5
2A096
  8
ALPHA
  0
POLYLINE
  5
26203
  8
ALPHA
 66
     1
 10
0.0
 20
0.0
 30
0.0
  0
VERTEX
  5
2A097
  8
ALPHA
 10
1415.016749
 20
119.081046
 30
0.0
  0
VERTEX
  5
2A098
  8
ALPHA
 10
1414.93417
 20
119.088783
 30
0.0
  0
VERTEX
  5
2A099
  8
ALPHA
 10
1414.848476
 20
119.099346
 30
0.0
  0
SEQEND
  5
2A09A
  8
ALPHA
  0
POLYLINE
  5
26208
  8
ALPHA
 66
     1
 10
0.0
 20
0.0
 30
0.0
  0
VERTEX
  5
2A09B
  8
ALPHA
 10
1414.668441
 20
119.12561
 30
0.0
  0
VERTEX
  5
2A09C
  8
ALPHA
 10
1414.751429
 20
119.119261
 30
0.0
  0
VERTEX
  5
2A09D
  8
ALPHA
 10
1414.844617
 20
119.110323
 30
0.0
  0
VERTEX
  5
2A09E
  8
ALPHA
 10
1414.940026
 20
119.09945
 30
0.0
  0
VERTEX
  5
2A09F
  8
ALPHA
 10
1415.028774
 20
119.087686
 30
0.0
  0
SEQEND
  5
2A0A0
  8
ALPHA
  0
LINE
  5
2620F
  8
ALPHA
 10
1415.093161
 20
119.07602
 30
0.0
 11
1415.016749
 21
119.081046
 31
0.0
  0
POLYLINE
  5
26210
  8
ALPHA
 66
     1
 10
0.0
 20
0.0
 30
0.0
  0
VERTEX
  5
2A0A1
  8
ALPHA
 10
1415.223629
 20
119.072839
 30
0.0
  0
VERTEX
  5
2A0A2
  8
ALPHA
 10
1415.162024
 20
119.073396
 30
0.0
  0
VERTEX
  5
2A0A3
  8
ALPHA
 10
1415.093161
 20
119.07602
 30
0.0
  0
SEQEND
  5
2A0A4
  8
ALPHA
  0
LINE
  5
26215
  8
ALPHA
 10
1416.123629
 20
118.806861
 30
0.0
 11
1415.323629
 21
118.806861
 31
0.0
  0
LINE
  5
26216
  8
ALPHA
 10
1415.323629
 20
118.300055
 30
0.0
 11
1412.473708
 21
118.300055
 31
0.0
  0
LINE
  5
26217
  8
ALPHA
 10
1418.973549
 20
118.300055
 30
0.0
 11
1416.123629
 21
118.300055
 31
0.0
  0
LINE
  5
26218
  8
ALPHA
 10
1415.323629
 20
118.006861
 30
0.0
 11
1412.773631
 21
118.006861
 31
0.0
  0
LINE
  5
26219
  8
ALPHA
 10
1418.673626
 20
118.006861
 30
0.0
 11
1416.123629
 21
118.006861
 31
0.0
  0
POLYLINE
  5
2621A
  8
ALPHA
 66
     1
 10
0.0
 20
0.0
 30
0.0
  0
VERTEX
  5
2A0A5
  8
ALPHA
 10
1414.581526
 20
119.095016
 30
0.0
  0
VERTEX
  5
2A0A6
  8
ALPHA
 10
1414.529254
 20
119.106228
 30
0.0
  0
VERTEX
  5
2A0A7
  8
ALPHA
 10
1414.497757
 20
119.116055
 30
0.0
  0
VERTEX
  5
2A0A8
  8
ALPHA
 10
1414.48971
 20
119.122425
 30
0.0
  0
SEQEND
  5
2A0A9
  8
ALPHA
  0
LINE
  5
26220
  8
ALPHA
 10
1414.581526
 20
119.095016
 30
0.0
 11
1414.698629
 21
119.072799
 31
0.0
  0
POLYLINE
  5
26221
  8
ALPHA
 66
     1
 10
0.0
 20
0.0
 30
0.0
  0
VERTEX
  5
2A0AA
  8
ALPHA
 10
1414.848476
 20
119.099346
 30
0.0
  0
VERTEX
  5
2A0AB
  8
ALPHA
 10
1414.770458
 20
119.109459
 30
0.0
  0
VERTEX
  5
2A0AC
  8
ALPHA
 10
1414.698629
 20
119.11745
 30
0.0
  0
SEQEND
  5
2A0AD
  8
ALPHA
  0
POLYLINE
  5
26226
  8
ALPHA
 66
     1
 10
0.0
 20
0.0
 30
0.0
  0
VERTEX
  5
2A0AE
  8
ALPHA
 10
1415.028774
 20
119.087686
 30
0.0
  0
VERTEX
  5
2A0AF
  8
ALPHA
 10
1415.078596
 20
119.081524
 30
0.0
  0
VERTEX
  5
2A0B0
  8
ALPHA
 10
1415.128879
 20
119.076999
 30
0.0
  0
VERTEX
  5
2A0B1
  8
ALPHA
 10
1415.177841
 20
119.074106
 30
0.0
  0
VERTEX
  5
2A0B2
  8
ALPHA
 10
1415.223629
 20
119.072855
 30
0.0
  0
SEQEND
  5
2A0B3
  8
ALPHA
  0
LINE
  5
2622D
  8
ALPHA
 10
1419.005589
 20
119.711927
 30
0.0
 11
1418.973549
 21
118.300055
 31
0.0
  0
LINE
  5
2622E
  8
ALPHA
 10
1419.723629
 20
120.078658
 30
0.0
 11
1419.723629
 21
122.106861
 31
0.0
  0
LINE
  5
2622F
  8
ALPHA
 10
1416.853552
 20
119.090291
 30
0.0
 11
1416.853552
 21
119.127318
 31
0.0
  0
LINE
  5
26230
  8
ALPHA
 10
1416.748629
 20
119.119576
 30
0.0
 11
1416.748629
 21
119.072797
 31
0.0
  0
LINE
  5
26231
  8
ALPHA
 10
1416.223629
 20
119.072857
 30
0.0
 11
1416.223629
 21
120.606861
 31
0.0
  0
LINE
  5
26232
  8
ALPHA
 10
1416.123629
 20
118.006861
 30
0.0
 11
1416.123629
 21
118.806861
 31
0.0
  0
LINE
  5
26233
  8
ALPHA
 10
1415.323629
 20
118.806861
 30
0.0
 11
1415.323629
 21
118.006861
 31
0.0
  0
LINE
  5
26234
  8
ALPHA
 10
1415.223629
 20
119.072855
 30
0.0
 11
1415.223629
 21
120.606861
 31
0.0
  0
LINE
  5
26235
  8
ALPHA
 10
1414.848476
 20
119.099346
 30
0.0
 11
1414.848476
 21
119.109883
 31
0.0
  0
LINE
  5
26236
  8
ALPHA
 10
1414.698629
 20
119.123301
 30
0.0
 11
1414.698629
 21
119.073006
 31
0.0
  0
LINE
  5
26237
  8
ALPHA
 10
1414.581526
 20
119.095016
 30
0.0
 11
1414.581526
 21
119.129606
 31
0.0
  0
LINE
  5
26238
  8
ALPHA
 10
1411.723629
 20
120.078658
 30
0.0
 11
1411.723629
 21
122.106861
 31
0.0
  0
LINE
  5
26239
  8
ALPHA
 10
1412.441668
 20
119.711927
 30
0.0
 11
1412.473708
 21
118.300055
 31
0.0
  0
ARC
  5
2623A
  8
ALPHA
 10
1441.023631
 20
118.306861
 30
0.0
 40
0.3
 50
181.3
 51
270.0
  0
LINE
  5
2623B
  8
ALPHA
 10
1444.373629
 20
118.006861
 30
0.0
 11
1444.373629
 21
118.806861
 31
0.0
  0
LINE
  5
2623C
  8
ALPHA
 10
1443.573629
 20
118.806861
 30
0.0
 11
1443.573629
 21
118.006861
 31
0.0
  0
LINE
  5
2623D
  8
ALPHA
 10
1440.883726
 20
121.306861
 30
0.0
 11
1440.883726
 21
120.506861
 31
0.0
  0
LINE
  5
2623E
  8
ALPHA
 10
1440.473629
 20
122.106861
 30
0.0
 11
1440.473629
 21
121.306861
 31
0.0
  0
LINE
  5
2623F
  8
ALPHA
 10
1444.373629
 20
118.806861
 30
0.0
 11
1443.573629
 21
118.806861
 31
0.0
  0
LINE
  5
26240
  8
ALPHA
 10
1443.573629
 20
118.300055
 30
0.0
 11
1440.723708
 21
118.300055
 31
0.0
  0
LINE
  5
26241
  8
ALPHA
 10
1443.573629
 20
118.006861
 30
0.0
 11
1441.023631
 21
118.006861
 31
0.0
  0
LINE
  5
26242
  8
ALPHA
 10
1440.673629
 20
120.506861
 30
0.0
 11
1440.723708
 21
118.300055
 31
0.0
  0
CIRCLE
  5
26243
  8
ALPHA
 10
1478.973629
 20
91.106861
 30
0.0
 40
6.0
  0
LINE
  5
26244
  8
ALPHA
 10
1488.973629
 20
110.106861
 30
0.0
 11
1488.973629
 21
79.406861
 31
0.0
  0
LINE
  5
26245
  8
ALPHA
 10
1468.973629
 20
110.106861
 30
0.0
 11
1468.973629
 21
79.406861
 31
0.0
  0
LINE
  5
26246
  8
ALPHA
 10
1448.473629
 20
62.256861
 30
0.0
 11
1448.473629
 21
75.256861
 31
0.0
  0
LINE
  5
26247
  8
ALPHA
 10
1450.473629
 20
60.256861
 30
0.0
 11
1448.473629
 21
62.256861
 31
0.0
  0
CIRCLE
  5
26248
  8
ALPHA
 10
1478.973629
 20
73.406861
 30
0.0
 40
6.0
  0
LINE
  5
26249
  8
ALPHA
 10
1488.973629
 20
60.906861
 30
0.0
 11
1488.973629
 21
79.406861
 31
0.0
  0
LINE
  5
2624A
  8
ALPHA
 10
1468.973629
 20
79.406861
 30
0.0
 11
1468.973629
 21
60.906861
 31
0.0
  0
LINE
  5
2624B
  8
ALPHA
 10
1468.973629
 20
60.906861
 30
0.0
 11
1488.973629
 21
60.906861
 31
0.0
  0
LINE
  5
2624C
  8
ALPHA
 10
1468.973629
 20
79.406861
 30
0.0
 11
1488.973629
 21
79.406861
 31
0.0
  0
LINE
  5
2624D
  8
ALPHA
 10
1467.473629
 20
110.106861
 30
0.0
 11
1490.473629
 21
110.106861
 31
0.0
  0
ARC
  5
2624E
  8
ALPHA
 10
1446.923626
 20
118.306861
 30
0.0
 40
0.3
 50
270.0
 51
358.7
  0
LINE
  5
2624F
  8
ALPHA
 10
1447.273629
 20
120.506861
 30
0.0
 11
1447.223549
 21
118.300055
 31
0.0
  0
LINE
  5
26250
  8
ALPHA
 10
1447.473629
 20
122.106861
 30
0.0
 11
1447.473629
 21
121.306861
 31
0.0
  0
LINE
  5
26251
  8
ALPHA
 10
1447.073629
 20
121.306861
 30
0.0
 11
1447.073629
 21
120.506861
 31
0.0
  0
LINE
  5
26252
  8
ALPHA
 10
1465.695851
 20
122.106861
 30
0.0
 11
1467.473629
 21
110.106861
 31
0.0
  0
LINE
  5
26253
  8
ALPHA
 10
1468.673629
 20
121.306861
 30
0.0
 11
1489.273629
 21
121.306861
 31
0.0
  0
LINE
  5
26254
  8
ALPHA
 10
1468.673629
 20
120.397834
 30
0.0
 11
1489.273629
 21
120.397834
 31
0.0
  0
LINE
  5
26255
  8
ALPHA
 10
1468.673629
 20
111.760768
 30
0.0
 11
1489.273629
 21
111.760768
 31
0.0
  0
LINE
  5
26256
  8
ALPHA
 10
1468.673629
 20
121.306861
 30
0.0
 11
1468.673629
 21
111.760768
 31
0.0
  0
LINE
  5
26257
  8
ALPHA
 10
1489.273629
 20
121.306861
 30
0.0
 11
1489.273629
 21
111.760768
 31
0.0
  0
CIRCLE
  5
26258
  8
ALPHA
 10
1415.723629
 20
155.606861
 30
0.0
 40
4.0
  0
LINE
  5
26259
  8
ALPHA
 10
1416.223629
 20
156.50201
 30
0.0
 11
1416.223629
 21
159.575488
 31
0.0
  0
LINE
  5
2625A
  8
ALPHA
 10
1415.223629
 20
159.575488
 30
0.0
 11
1415.223629
 21
156.502062
 31
0.0
  0
LINE
  5
2625B
  8
ALPHA
 10
1420.973629
 20
142.906861
 30
0.0
 11
1420.973629
 21
142.106861
 31
0.0
  0
LINE
  5
2625C
  8
ALPHA
 10
1411.973629
 20
142.106861
 30
0.0
 11
1411.973629
 21
142.906861
 31
0.0
  0
LINE
  5
2625D
  8
ALPHA
 10
1408.973629
 20
139.106861
 30
0.0
 11
1411.973629
 21
142.106861
 31
0.0
  0
LINE
  5
2625E
  8
ALPHA
 10
1411.973629
 20
142.906861
 30
0.0
 11
1408.973629
 21
145.906861
 31
0.0
  0
ARC
  5
2625F
  8
ALPHA
 10
1416.319722
 20
154.507308
 30
0.0
 40
0.225738
 50
64.055271
 51
172.871056
  0
ARC
  5
26260
  8
ALPHA
 10
1415.723629
 20
154.581861
 30
0.0
 40
0.375
 50
190.240209
 51
352.871056
  0
ARC
  5
26261
  8
ALPHA
 10
1415.062934
 20
154.462505
 30
0.0
 40
0.296389
 50
10.240209
 51
109.759791
  0
ARC
  5
26262
  8
ALPHA
 10
1415.053715
 20
156.846854
 30
0.0
 40
0.384385
 50
253.335852
 51
348.196726
  0
ARC
  5
26263
  8
ALPHA
 10
1415.723629
 20
156.706861
 30
0.0
 40
0.3
 50
15.033707
 51
168.196726
  0
ARC
  5
26264
  8
ALPHA
 10
1416.475266
 20
156.908736
 30
0.0
 40
0.478275
 50
195.033707
 51
284.966293
  0
ARC
  5
26265
  8
ALPHA
 10
1416.676257
 20
156.156861
 30
0.0
 40
0.3
 50
315.033707
 51
104.966293
  0
ARC
  5
26266
  8
ALPHA
 10
1417.226904
 20
155.606861
 30
0.0
 40
0.478275
 50
135.033707
 51
220.960938
  0
ARC
  5
26267
  8
ALPHA
 10
1416.582547
 20
155.047501
 30
0.0
 40
0.375
 50
244.055271
 51
40.960938
  0
ARC
  5
26268
  8
ALPHA
 10
1414.835953
 20
156.119361
 30
0.0
 40
0.375
 50
73.335852
 51
229.759791
  0
ARC
  5
26269
  8
ALPHA
 10
1414.835953
 20
155.094361
 30
0.0
 40
0.375
 50
130.240209
 51
289.759791
  0
ARC
  5
2626A
  8
ALPHA
 10
1414.40224
 20
155.606861
 30
0.0
 40
0.296389
 50
310.240209
 51
49.759791
  0
LINE
  5
2626B
  8
ALPHA
 10
1416.223629
 20
151.638234
 30
0.0
 11
1416.223629
 21
154.711572
 31
0.0
  0
LINE
  5
2626C
  8
ALPHA
 10
1415.223629
 20
154.711551
 30
0.0
 11
1415.223629
 21
151.638234
 31
0.0
  0
LINE
  5
2626D
  8
ALPHA
 10
1429.473629
 20
142.106861
 30
0.0
 11
1429.473629
 21
142.906861
 31
0.0
  0
LINE
  5
2626E
  8
ALPHA
 10
1428.973629
 20
142.906861
 30
0.0
 11
1428.973629
 21
142.106861
 31
0.0
  0
LINE
  5
2626F
  8
ALPHA
 10
1427.473629
 20
142.106861
 30
0.0
 11
1427.473629
 21
142.906861
 31
0.0
  0
LINE
  5
26270
  8
ALPHA
 10
1424.473629
 20
142.106861
 30
0.0
 11
1424.473629
 21
142.906861
 31
0.0
  0
LINE
  5
26271
  8
ALPHA
 10
1424.023629
 20
142.106861
 30
0.0
 11
1424.023629
 21
142.906861
 31
0.0
  0
LINE
  5
26272
  8
ALPHA
 10
1422.723629
 20
142.221538
 30
0.0
 11
1422.723629
 21
142.106861
 31
0.0
  0
LINE
  5
26273
  8
ALPHA
 10
1422.723629
 20
142.221538
 30
0.0
 11
1424.023629
 21
142.221538
 31
0.0
  0
LINE
  5
26274
  8
ALPHA
 10
1454.723629
 20
142.106861
 30
0.0
 11
1454.723629
 21
142.906861
 31
0.0
  0
LINE
  5
26275
  8
ALPHA
 10
1453.723629
 20
142.106861
 30
0.0
 11
1453.723629
 21
142.906861
 31
0.0
  0
LINE
  5
26276
  8
ALPHA
 10
1488.973629
 20
142.906861
 30
0.0
 11
1488.973629
 21
142.106861
 31
0.0
  0
LINE
  5
26277
  8
ALPHA
 10
1468.973629
 20
142.906861
 30
0.0
 11
1468.973629
 21
142.106861
 31
0.0
  0
LINE
  5
26278
  8
ALPHA
 10
1490.856515
 20
179.932352
 30
0.0
 11
1490.722505
 21
171.261372
 31
0.0
  0
LINE
  5
26279
  8
ALPHA
 10
1489.356743
 20
180.926718
 30
0.0
 11
1489.222733
 21
172.255737
 31
0.0
  0
LINE
  5
2627A
  8
ALPHA
 10
1490.722505
 20
170.755966
 30
0.0
 11
1490.4734
 21
170.506861
 31
0.0
  0
LINE
  5
2627B
  8
ALPHA
 10
1489.222733
 20
172.255737
 30
0.0
 11
1488.973629
 21
172.006633
 31
0.0
  0
LINE
  5
2627C
  8
ALPHA
 10
1490.722505
 20
171.261372
 30
0.0
 11
1490.722505
 21
170.755966
 31
0.0
  0
POLYLINE
  5
2627D
  8
ALPHA
 66
     1
 10
0.0
 20
0.0
 30
0.0
  0
VERTEX
  5
2A0B4
  8
ALPHA
 10
1490.722505
 20
170.755966
 30
0.0
  0
VERTEX
  5
2A0B5
  8
ALPHA
 10
1490.148672
 20
170.87026
 30
0.0
  0
VERTEX
  5
2A0B6
  8
ALPHA
 10
1489.662168
 20
171.1954
 30
0.0
  0
VERTEX
  5
2A0B7
  8
ALPHA
 10
1489.337028
 20
171.681905
 30
0.0
  0
VERTEX
  5
2A0B8
  8
ALPHA
 10
1489.222733
 20
172.255737
 30
0.0
  0
SEQEND
  5
2A0B9
  8
ALPHA
  0
POLYLINE
  5
26284
  8
ALPHA
 66
     1
 10
0.0
 20
0.0
 30
0.0
  0
VERTEX
  5
2A0BA
  8
ALPHA
 10
1490.4734
 20
170.506861
 30
0.0
  0
VERTEX
  5
2A0BB
  8
ALPHA
 10
1489.899448
 20
170.621007
 30
0.0
  0
VERTEX
  5
2A0BC
  8
ALPHA
 10
1489.412874
 20
170.946107
 30
0.0
  0
VERTEX
  5
2A0BD
  8
ALPHA
 10
1489.087775
 20
171.432681
 30
0.0
  0
VERTEX
  5
2A0BE
  8
ALPHA
 10
1488.973629
 20
172.006633
 30
0.0
  0
SEQEND
  5
2A0BF
  8
ALPHA
  0
POLYLINE
  5
2628B
  8
ALPHA
 66
     1
 10
0.0
 20
0.0
 30
0.0
  0
VERTEX
  5
2A0C0
  8
ALPHA
 10
1490.722505
 20
171.261372
 30
0.0
  0
VERTEX
  5
2A0C1
  8
ALPHA
 10
1490.152135
 20
171.341015
 30
0.0
  0
VERTEX
  5
2A0C2
  8
ALPHA
 10
1489.667026
 20
171.558387
 30
0.0
  0
VERTEX
  5
2A0C3
  8
ALPHA
 10
1489.340945
 20
171.880577
 30
0.0
  0
VERTEX
  5
2A0C4
  8
ALPHA
 10
1489.222733
 20
172.255737
 30
0.0
  0
SEQEND
  5
2A0C5
  8
ALPHA
  0
LINE
  5
26292
  8
ALPHA
 10
1490.928611
 20
180.157115
 30
0.0
 11
1490.882426
 21
180.110929
 31
0.0
  0
LINE
  5
26293
  8
ALPHA
 10
1489.428838
 20
181.656885
 30
0.0
 11
1489.382654
 21
181.610701
 31
0.0
  0
POLYLINE
  5
26294
  8
ALPHA
 66
     1
 10
0.0
 20
0.0
 30
0.0
  0
VERTEX
  5
2A0C6
  8
ALPHA
 10
1490.882426
 20
180.110929
 30
0.0
  0
VERTEX
  5
2A0C7
  8
ALPHA
 10
1490.872762
 20
180.088301
 30
0.0
  0
VERTEX
  5
2A0C8
  8
ALPHA
 10
1490.863945
 20
180.027389
 30
0.0
  0
SEQEND
  5
2A0C9
  8
ALPHA
  0
LINE
  5
26299
  8
ALPHA
 10
1489.068759
 20
188.061677
 30
0.0
 11
1489.349785
 21
188.061677
 31
0.0
  0
POLYLINE
  5
2629A
  8
ALPHA
 66
     1
 10
0.0
 20
0.0
 30
0.0
  0
VERTEX
  5
2A0CA
  8
ALPHA
 10
1490.856515
 20
179.932352
 30
0.0
  0
VERTEX
  5
2A0CB
  8
ALPHA
 10
1490.287058
 20
180.011739
 30
0.0
  0
VERTEX
  5
2A0CC
  8
ALPHA
 10
1489.802877
 20
180.228145
 30
0.0
  0
VERTEX
  5
2A0CD
  8
ALPHA
 10
1489.47648
 20
180.549162
 30
0.0
  0
VERTEX
  5
2A0CE
  8
ALPHA
 10
1489.356743
 20
180.926718
 30
0.0
  0
SEQEND
  5
2A0CF
  8
ALPHA
  0
LINE
  5
262A1
  8
ALPHA
 10
1489.349785
 20
184.952046
 30
0.0
 11
1489.068759
 21
184.952046
 31
0.0
  0
LINE
  5
262A2
  8
ALPHA
 10
1490.69377
 20
181.656885
 30
0.0
 11
1489.428838
 21
181.656885
 31
0.0
  0
POLYLINE
  5
262A3
  8
ALPHA
 66
     1
 10
0.0
 20
0.0
 30
0.0
  0
VERTEX
  5
2A0D0
  8
ALPHA
 10
1489.382654
 20
181.610701
 30
0.0
  0
VERTEX
  5
2A0D1
  8
ALPHA
 10
1489.373004
 20
181.523833
 30
0.0
  0
VERTEX
  5
2A0D2
  8
ALPHA
 10
1489.364167
 20
181.290531
 30
0.0
  0
VERTEX
  5
2A0D3
  8
ALPHA
 10
1489.356743
 20
180.926718
 30
0.0
  0
SEQEND
  5
2A0D4
  8
ALPHA
  0
LINE
  5
262A9
  8
ALPHA
 10
1490.863945
 20
180.027389
 30
0.0
 11
1490.856515
 21
179.932352
 31
0.0
  0
POLYLINE
  5
262AA
  8
ALPHA
 66
     1
 10
0.0
 20
0.0
 30
0.0
  0
VERTEX
  5
2A0D5
  8
ALPHA
 10
1490.928609
 20
180.157113
 30
0.0
  0
VERTEX
  5
2A0D6
  8
ALPHA
 10
1490.354777
 20
180.271408
 30
0.0
  0
VERTEX
  5
2A0D7
  8
ALPHA
 10
1489.868272
 20
180.596548
 30
0.0
  0
VERTEX
  5
2A0D8
  8
ALPHA
 10
1489.543132
 20
181.083052
 30
0.0
  0
VERTEX
  5
2A0D9
  8
ALPHA
 10
1489.428838
 20
181.656885
 30
0.0
  0
SEQEND
  5
2A0DA
  8
ALPHA
  0
POLYLINE
  5
262B1
  8
ALPHA
 66
     1
 10
0.0
 20
0.0
 30
0.0
  0
VERTEX
  5
2A0DB
  8
ALPHA
 10
1490.882426
 20
180.110929
 30
0.0
  0
VERTEX
  5
2A0DC
  8
ALPHA
 10
1490.308593
 20
180.225224
 30
0.0
  0
VERTEX
  5
2A0DD
  8
ALPHA
 10
1489.822088
 20
180.550364
 30
0.0
  0
VERTEX
  5
2A0DE
  8
ALPHA
 10
1489.496948
 20
181.036869
 30
0.0
  0
VERTEX
  5
2A0DF
  8
ALPHA
 10
1489.382654
 20
181.610701
 30
0.0
  0
SEQEND
  5
2A0E0
  8
ALPHA
  0
POLYLINE
  5
262B8
  8
ALPHA
 66
     1
 10
0.0
 20
0.0
 30
0.0
  0
VERTEX
  5
2A0E1
  8
ALPHA
 10
1490.69377
 20
181.656885
 30
0.0
  0
VERTEX
  5
2A0E2
  8
ALPHA
 10
1490.713245
 20
181.087029
 30
0.0
  0
VERTEX
  5
2A0E3
  8
ALPHA
 10
1490.764874
 20
180.602415
 30
0.0
  0
VERTEX
  5
2A0E4
  8
ALPHA
 10
1490.840916
 20
180.276104
 30
0.0
  0
VERTEX
  5
2A0E5
  8
ALPHA
 10
1490.928609
 20
180.157113
 30
0.0
  0
SEQEND
  5
2A0E6
  8
ALPHA
  0
POLYLINE
  5
262BF
  8
ALPHA
 66
     1
 10
0.0
 20
0.0
 30
0.0
  0
VERTEX
  5
2A0E7
  8
ALPHA
 10
1489.349785
 20
188.061677
 30
0.0
  0
VERTEX
  5
2A0E8
  8
ALPHA
 10
1489.360292
 20
187.940387
 30
0.0
  0
VERTEX
  5
2A0E9
  8
ALPHA
 10
1489.369111
 20
187.598362
 30
0.0
  0
VERTEX
  5
2A0EA
  8
ALPHA
 10
1489.374909
 20
187.094699
 30
0.0
  0
VERTEX
  5
2A0EB
  8
ALPHA
 10
1489.376923
 20
186.506861
 30
0.0
  0
VERTEX
  5
2A0EC
  8
ALPHA
 10
1489.374909
 20
185.919024
 30
0.0
  0
VERTEX
  5
2A0ED
  8
ALPHA
 10
1489.369111
 20
185.41536
 30
0.0
  0
VERTEX
  5
2A0EE
  8
ALPHA
 10
1489.360292
 20
185.073335
 30
0.0
  0
VERTEX
  5
2A0EF
  8
ALPHA
 10
1489.349785
 20
184.952046
 30
0.0
  0
SEQEND
  5
2A0F0
  8
ALPHA
  0
POLYLINE
  5
262CA
  8
ALPHA
 66
     1
 10
0.0
 20
0.0
 30
0.0
  0
VERTEX
  5
2A0F1
  8
ALPHA
 10
1489.068759
 20
184.952046
 30
0.0
  0
VERTEX
  5
2A0F2
  8
ALPHA
 10
1489.058251
 20
185.07328
 30
0.0
  0
VERTEX
  5
2A0F3
  8
ALPHA
 10
1489.049431
 20
185.415291
 30
0.0
  0
VERTEX
  5
2A0F4
  8
ALPHA
 10
1489.043632
 20
185.918979
 30
0.0
  0
VERTEX
  5
2A0F5
  8
ALPHA
 10
1489.041618
 20
186.506861
 30
0.0
  0
VERTEX
  5
2A0F6
  8
ALPHA
 10
1489.043632
 20
187.094744
 30
0.0
  0
VERTEX
  5
2A0F7
  8
ALPHA
 10
1489.049431
 20
187.598432
 30
0.0
  0
VERTEX
  5
2A0F8
  8
ALPHA
 10
1489.058251
 20
187.940443
 30
0.0
  0
VERTEX
  5
2A0F9
  8
ALPHA
 10
1489.068759
 20
188.061677
 30
0.0
  0
SEQEND
  5
2A0FA
  8
ALPHA
  0
CIRCLE
  5
262D5
  8
ALPHA
 10
1534.723629
 20
75.256861
 30
0.0
 40
3.5
  0
ARC
  5
262D6
  8
ALPHA
 10
1514.723629
 20
90.256861
 30
0.0
 40
9.8
 50
0.0
 51
90.0
  0
ARC
  5
262D7
  8
ALPHA
 10
1514.723629
 20
90.256861
 30
0.0
 40
12.5
 50
360.0
 51
90.0
  0
ARC
  5
262D8
  8
ALPHA
 10
1504.723629
 20
90.256861
 30
0.0
 40
9.8
 50
90.0
 51
180.0
  0
ARC
  5
262D9
  8
ALPHA
 10
1514.723629
 20
90.256861
 30
0.0
 40
11.5
 50
0.0
 51
90.0
  0
CIRCLE
  5
262DA
  8
ALPHA
 10
1509.723629
 20
75.256861
 30
0.0
 40
11.0
  0
CIRCLE
  5
262DB
  8
ALPHA
 10
1509.723629
 20
75.256861
 30
0.0
 40
7.75
  0
LINE
  5
262DC
  8
ALPHA
 10
1509.723629
 20
66.019257
 30
0.0
 11
1517.723629
 21
70.638059
 31
0.0
  0
LINE
  5
262DD
  8
ALPHA
 10
1517.723629
 20
79.875664
 30
0.0
 11
1509.723629
 21
84.494466
 31
0.0
  0
CIRCLE
  5
262DE
  8
ALPHA
 10
1509.723629
 20
75.256861
 30
0.0
 40
4.188125
  0
CIRCLE
  5
262DF
  8
ALPHA
 10
1509.723629
 20
75.256861
 30
0.0
 40
5.0
  0
LINE
  5
262E0
  8
ALPHA
 10
1501.723629
 20
79.875664
 30
0.0
 11
1501.723629
 21
70.638059
 31
0.0
  0
LINE
  5
262E1
  8
ALPHA
 10
1494.923629
 20
90.256861
 30
0.0
 11
1494.923629
 21
60.256861
 31
0.0
  0
LINE
  5
262E2
  8
ALPHA
 10
1493.223629
 20
90.256861
 30
0.0
 11
1493.223629
 21
60.256861
 31
0.0
  0
LINE
  5
262E3
  8
ALPHA
 10
1492.223629
 20
90.256861
 30
0.0
 11
1492.223629
 21
60.256861
 31
0.0
  0
LINE
  5
262E4
  8
ALPHA
 10
1501.723629
 20
70.638059
 30
0.0
 11
1509.723629
 21
66.019257
 31
0.0
  0
LINE
  5
262E5
  8
ALPHA
 10
1509.723629
 20
84.494466
 30
0.0
 11
1501.723629
 21
79.875664
 31
0.0
  0
LINE
  5
262E6
  8
ALPHA
 10
1492.223629
 20
90.256861
 30
0.0
 11
1494.923629
 21
90.256861
 31
0.0
  0
CIRCLE
  5
262E7
  8
ALPHA
 10
1534.723629
 20
75.256861
 30
0.0
 40
3.0
  0
LINE
  5
262E8
  8
ALPHA
 10
1534.923629
 20
77.756861
 30
0.0
 11
1534.923629
 21
75.456861
 31
0.0
  0
LINE
  5
262E9
  8
ALPHA
 10
1534.523629
 20
77.756861
 30
0.0
 11
1534.523629
 21
75.456861
 31
0.0
  0
LINE
  5
262EA
  8
ALPHA
 10
1527.223629
 20
60.256861
 30
0.0
 11
1527.223629
 21
90.256861
 31
0.0
  0
LINE
  5
262EB
  8
ALPHA
 10
1526.223629
 20
60.256861
 30
0.0
 11
1526.223629
 21
90.256861
 31
0.0
  0
LINE
  5
262EC
  8
ALPHA
 10
1524.523629
 20
60.256861
 30
0.0
 11
1524.523629
 21
90.256861
 31
0.0
  0
LINE
  5
262ED
  8
ALPHA
 10
1517.723629
 20
70.638059
 30
0.0
 11
1517.723629
 21
79.875664
 31
0.0
  0
LINE
  5
262EE
  8
ALPHA
 10
1536.973629
 20
75.456861
 30
0.0
 11
1536.973629
 21
75.056861
 31
0.0
  0
LINE
  5
262EF
  8
ALPHA
 10
1535.723629
 20
74.456861
 30
0.0
 11
1535.723629
 21
74.056861
 31
0.0
  0
LINE
  5
262F0
  8
ALPHA
 10
1535.123629
 20
73.456861
 30
0.0
 11
1535.123629
 21
73.056861
 31
0.0
  0
LINE
  5
262F1
  8
ALPHA
 10
1534.323629
 20
73.456861
 30
0.0
 11
1534.323629
 21
73.056861
 31
0.0
  0
LINE
  5
262F2
  8
ALPHA
 10
1533.723629
 20
74.456861
 30
0.0
 11
1533.723629
 21
74.056861
 31
0.0
  0
LINE
  5
262F3
  8
ALPHA
 10
1532.473629
 20
75.456861
 30
0.0
 11
1532.473629
 21
75.056861
 31
0.0
  0
LINE
  5
262F4
  8
ALPHA
 10
1534.923629
 20
75.456861
 30
0.0
 11
1536.973629
 21
75.456861
 31
0.0
  0
LINE
  5
262F5
  8
ALPHA
 10
1534.523629
 20
75.456861
 30
0.0
 11
1532.473629
 21
75.456861
 31
0.0
  0
LINE
  5
262F6
  8
ALPHA
 10
1532.473629
 20
75.056861
 30
0.0
 11
1536.973629
 21
75.056861
 31
0.0
  0
LINE
  5
262F7
  8
ALPHA
 10
1533.723629
 20
74.456861
 30
0.0
 11
1535.723629
 21
74.456861
 31
0.0
  0
LINE
  5
262F8
  8
ALPHA
 10
1535.723629
 20
74.056861
 30
0.0
 11
1533.723629
 21
74.056861
 31
0.0
  0
LINE
  5
262F9
  8
ALPHA
 10
1534.323629
 20
73.456861
 30
0.0
 11
1535.123629
 21
73.456861
 31
0.0
  0
LINE
  5
262FA
  8
ALPHA
 10
1535.123629
 20
73.056861
 30
0.0
 11
1534.323629
 21
73.056861
 31
0.0
  0
LINE
  5
262FB
  8
ALPHA
 10
1524.523629
 20
90.256861
 30
0.0
 11
1527.223629
 21
90.256861
 31
0.0
  0
LINE
  5
262FC
  8
ALPHA
 10
1534.523629
 20
77.756861
 30
0.0
 11
1534.923629
 21
77.756861
 31
0.0
  0
LINE
  5
262FD
  8
ALPHA
 10
1514.723629
 20
100.056861
 30
0.0
 11
1514.723629
 21
102.756861
 31
0.0
  0
LINE
  5
262FE
  8
ALPHA
 10
1504.723629
 20
100.056861
 30
0.0
 11
1504.723629
 21
102.756861
 31
0.0
  0
LINE
  5
262FF
  8
ALPHA
 10
1514.723629
 20
102.756861
 30
0.0
 11
1504.723629
 21
102.756861
 31
0.0
  0
LINE
  5
26300
  8
ALPHA
 10
1514.723629
 20
101.756861
 30
0.0
 11
1504.723629
 21
101.756861
 31
0.0
  0
LINE
  5
26301
  8
ALPHA
 10
1514.723629
 20
100.056861
 30
0.0
 11
1504.723629
 21
100.056861
 31
0.0
  0
CIRCLE
  5
26302
  8
ALPHA
 10
1568.973629
 20
91.106861
 30
0.0
 40
6.0
  0
LINE
  5
26303
  8
ALPHA
 10
1578.973629
 20
110.106861
 30
0.0
 11
1578.973629
 21
79.406861
 31
0.0
  0
LINE
  5
26304
  8
ALPHA
 10
1558.973629
 20
110.106861
 30
0.0
 11
1558.973629
 21
79.406861
 31
0.0
  0
LINE
  5
26305
  8
ALPHA
 10
1578.973629
 20
79.406861
 30
0.0
 11
1558.973629
 21
79.406861
 31
0.0
  0
LINE
  5
26306
  8
ALPHA
 10
1558.973629
 20
60.906861
 30
0.0
 11
1578.973629
 21
60.906861
 31
0.0
  0
LINE
  5
26307
  8
ALPHA
 10
1558.973629
 20
79.406861
 30
0.0
 11
1558.973629
 21
60.906861
 31
0.0
  0
CIRCLE
  5
26308
  8
ALPHA
 10
1568.973629
 20
73.406861
 30
0.0
 40
6.0
  0
LINE
  5
26309
  8
ALPHA
 10
1578.973629
 20
60.906861
 30
0.0
 11
1578.973629
 21
79.406861
 31
0.0
  0
LINE
  5
2630A
  8
ALPHA
 10
1558.673629
 20
121.306861
 30
0.0
 11
1579.273629
 21
121.306861
 31
0.0
  0
LINE
  5
2630B
  8
ALPHA
 10
1558.673629
 20
120.397834
 30
0.0
 11
1579.273629
 21
120.397834
 31
0.0
  0
LINE
  5
2630C
  8
ALPHA
 10
1558.673629
 20
111.760768
 30
0.0
 11
1579.273629
 21
111.760768
 31
0.0
  0
LINE
  5
2630D
  8
ALPHA
 10
1557.473629
 20
110.106861
 30
0.0
 11
1580.473629
 21
110.106861
 31
0.0
  0
LINE
  5
2630E
  8
ALPHA
 10
1558.673629
 20
121.306861
 30
0.0
 11
1558.673629
 21
111.760768
 31
0.0
  0
LINE
  5
2630F
  8
ALPHA
 10
1557.473629
 20
110.106861
 30
0.0
 11
1555.695851
 21
122.106861
 31
0.0
  0
LINE
  5
26310
  8
ALPHA
 10
1582.251406
 20
122.106861
 30
0.0
 11
1580.473629
 21
110.106861
 31
0.0
  0
LINE
  5
26311
  8
ALPHA
 10
1579.273629
 20
121.306861
 30
0.0
 11
1579.273629
 21
111.760768
 31
0.0
  0
LINE
  5
26312
  8
ALPHA
 10
1495.123629
 20
176.256861
 30
0.0
 11
1556.083629
 21
176.256861
 31
0.0
  0
LINE
  5
26313
  8
ALPHA
 10
1495.123629
 20
175.056861
 30
0.0
 11
1556.083629
 21
175.056861
 31
0.0
  0
LINE
  5
26314
  8
ALPHA
 10
1504.223629
 20
142.906861
 30
0.0
 11
1504.223629
 21
142.106861
 31
0.0
  0
LINE
  5
26315
  8
ALPHA
 10
1503.223629
 20
142.906861
 30
0.0
 11
1503.223629
 21
142.106861
 31
0.0
  0
LINE
  5
26316
  8
ALPHA
 10
1494.024172
 20
173.004847
 30
0.0
 11
1494.115342
 21
178.90393
 31
0.0
  0
LINE
  5
26317
  8
ALPHA
 10
1495.123629
 20
174.256861
 30
0.0
 11
1495.123629
 21
180.11778
 31
0.0
  0
LINE
  5
26318
  8
ALPHA
 10
1493.969791
 20
172.747677
 30
0.0
 11
1493.973629
 21
172.751514
 31
0.0
  0
LINE
  5
26319
  8
ALPHA
 10
1493.973629
 20
172.751514
 30
0.0
 11
1494.024172
 21
173.004847
 31
0.0
  0
POLYLINE
  5
2631A
  8
ALPHA
 66
     1
 10
0.0
 20
0.0
 30
0.0
  0
VERTEX
  5
2A0FB
  8
ALPHA
 10
1494.115204
 20
172.705104
 30
0.0
  0
VERTEX
  5
2A0FC
  8
ALPHA
 10
1494.40583
 20
172.695453
 30
0.0
  0
VERTEX
  5
2A0FD
  8
ALPHA
 10
1494.84177
 20
172.687976
 30
0.0
  0
VERTEX
  5
2A0FE
  8
ALPHA
 10
1495.399652
 20
172.683072
 30
0.0
  0
VERTEX
  5
2A0FF
  8
ALPHA
 10
1496.009125
 20
172.681412
 30
0.0
  0
SEQEND
  5
2A100
  8
ALPHA
  0
POLYLINE
  5
26321
  8
ALPHA
 66
     1
 10
0.0
 20
0.0
 30
0.0
  0
VERTEX
  5
2A101
  8
ALPHA
 10
1496.009125
 20
170.681412
 30
0.0
  0
VERTEX
  5
2A102
  8
ALPHA
 10
1495.399652
 20
170.683072
 30
0.0
  0
VERTEX
  5
2A103
  8
ALPHA
 10
1494.84177
 20
170.687976
 30
0.0
  0
VERTEX
  5
2A104
  8
ALPHA
 10
1494.40583
 20
170.695453
 30
0.0
  0
VERTEX
  5
2A105
  8
ALPHA
 10
1494.115204
 20
170.705104
 30
0.0
  0
VERTEX
  5
2A106
  8
ALPHA
 10
1494.00943
 20
170.715713
 30
0.0
  0
SEQEND
  5
2A107
  8
ALPHA
  0
LINE
  5
26329
  8
ALPHA
 10
1493.923086
 20
173.004847
 30
0.0
 11
1494.024172
 21
173.004847
 31
0.0
  0
LINE
  5
2632A
  8
ALPHA
 10
1496.009125
 20
170.681412
 30
0.0
 11
1496.009125
 21
172.681412
 31
0.0
  0
LINE
  5
2632B
  8
ALPHA
 10
1494.00943
 20
170.715713
 30
0.0
 11
1494.00943
 21
172.715713
 31
0.0
  0
LINE
  5
2632C
  8
ALPHA
 10
1493.950031
 20
171.261372
 30
0.0
 11
1493.923086
 21
173.004847
 31
0.0
  0
POLYLINE
  5
2632D
  8
ALPHA
 66
     1
 10
0.0
 20
0.0
 30
0.0
  0
VERTEX
  5
2A108
  8
ALPHA
 10
1493.950031
 20
171.261372
 30
0.0
  0
VERTEX
  5
2A109
  8
ALPHA
 10
1493.955507
 20
170.992799
 30
0.0
  0
VERTEX
  5
2A10A
  8
ALPHA
 10
1493.962055
 20
170.819958
 30
0.0
  0
VERTEX
  5
2A10B
  8
ALPHA
 10
1493.969177
 20
170.755966
 30
0.0
  0
SEQEND
  5
2A10C
  8
ALPHA
  0
LINE
  5
26333
  8
ALPHA
 10
1493.926955
 20
172.985451
 30
0.0
 11
1493.923086
 21
173.004847
 31
0.0
  0
LINE
  5
26334
  8
ALPHA
 10
1494.00943
 20
172.715713
 30
0.0
 11
1494.115204
 21
172.705104
 31
0.0
  0
LINE
  5
26335
  8
ALPHA
 10
1493.977466
 20
172.747677
 30
0.0
 11
1494.00943
 21
172.715713
 31
0.0
  0
LINE
  5
26336
  8
ALPHA
 10
1493.969177
 20
170.755966
 30
0.0
 11
1494.00943
 21
170.715713
 31
0.0
  0
POLYLINE
  5
26337
  8
ALPHA
 66
     1
 10
0.0
 20
0.0
 30
0.0
  0
VERTEX
  5
2A10D
  8
ALPHA
 10
1494.62407
 20
180.110929
 30
0.0
  0
VERTEX
  5
2A10E
  8
ALPHA
 10
1494.507194
 20
180.088498
 30
0.0
  0
VERTEX
  5
2A10F
  8
ALPHA
 10
1494.416658
 20
180.027143
 30
0.0
  0
VERTEX
  5
2A110
  8
ALPHA
 10
1494.352637
 20
179.932352
 30
0.0
  0
SEQEND
  5
2A111
  8
ALPHA
  0
POLYLINE
  5
2633D
  8
ALPHA
 66
     1
 10
0.0
 20
0.0
 30
0.0
  0
VERTEX
  5
2A112
  8
ALPHA
 10
1494.62407
 20
180.110929
 30
0.0
  0
VERTEX
  5
2A113
  8
ALPHA
 10
1495.047842
 20
180.117186
 30
0.0
  0
VERTEX
  5
2A114
  8
ALPHA
 10
1495.558458
 20
180.121192
 30
0.0
  0
VERTEX
  5
2A115
  8
ALPHA
 10
1496.115037
 20
180.122571
 30
0.0
  0
SEQEND
  5
2A116
  8
ALPHA
  0
POLYLINE
  5
26343
  8
ALPHA
 66
     1
 10
0.0
 20
0.0
 30
0.0
  0
VERTEX
  5
2A117
  8
ALPHA
 10
1494.115342
 20
178.90393
 30
0.0
  0
VERTEX
  5
2A118
  8
ALPHA
 10
1494.147781
 20
179.271573
 30
0.0
  0
VERTEX
  5
2A119
  8
ALPHA
 10
1494.228696
 20
179.615136
 30
0.0
  0
VERTEX
  5
2A11A
  8
ALPHA
 10
1494.35262
 20
179.932352
 30
0.0
  0
SEQEND
  5
2A11B
  8
ALPHA
  0
LINE
  5
26349
  8
ALPHA
 10
1558.973629
 20
142.906861
 30
0.0
 11
1558.973629
 21
142.106861
 31
0.0
  0
LINE
  5
2634A
  8
ALPHA
 10
1544.723629
 20
142.106861
 30
0.0
 11
1544.723629
 21
142.906861
 31
0.0
  0
LINE
  5
2634B
  8
ALPHA
 10
1543.723629
 20
142.106861
 30
0.0
 11
1543.723629
 21
142.906861
 31
0.0
  0
LINE
  5
2634C
  8
ALPHA
 10
1578.973629
 20
142.906861
 30
0.0
 11
1578.973629
 21
142.106861
 31
0.0
  0
LINE
  5
2634D
  8
ALPHA
 10
1558.083629
 20
174.256861
 30
0.0
 11
1558.083629
 21
180.122571
 31
0.0
  0
LINE
  5
2634E
  8
ALPHA
 10
1556.083629
 20
174.256861
 30
0.0
 11
1556.083629
 21
180.122571
 31
0.0
  0
LINE
  5
2634F
  8
ALPHA
 10
1524.973629
 20
243.132119
 30
0.0
 11
1524.973629
 21
366.14458
 31
0.0
  0
LINE
  5
26350
  8
ALPHA
 10
1524.697575
 20
243.114306
 30
0.0
 11
1524.697575
 21
366.178763
 31
0.0
  0
POLYLINE
  5
26351
  8
ALPHA
 66
     1
 10
0.0
 20
0.0
 30
0.0
  0
VERTEX
  5
2A11C
  8
ALPHA
 10
1489.349785
 20
323.061677
 30
0.0
  0
VERTEX
  5
2A11D
  8
ALPHA
 10
1489.360292
 20
322.940387
 30
0.0
  0
VERTEX
  5
2A11E
  8
ALPHA
 10
1489.369111
 20
322.598362
 30
0.0
  0
VERTEX
  5
2A11F
  8
ALPHA
 10
1489.374909
 20
322.094699
 30
0.0
  0
VERTEX
  5
2A120
  8
ALPHA
 10
1489.376923
 20
321.506861
 30
0.0
  0
VERTEX
  5
2A121
  8
ALPHA
 10
1489.374909
 20
320.919024
 30
0.0
  0
VERTEX
  5
2A122
  8
ALPHA
 10
1489.369111
 20
320.41536
 30
0.0
  0
VERTEX
  5
2A123
  8
ALPHA
 10
1489.360292
 20
320.073335
 30
0.0
  0
VERTEX
  5
2A124
  8
ALPHA
 10
1489.349785
 20
319.952046
 30
0.0
  0
SEQEND
  5
2A125
  8
ALPHA
  0
POLYLINE
  5
2635C
  8
ALPHA
 66
     1
 10
0.0
 20
0.0
 30
0.0
  0
VERTEX
  5
2A126
  8
ALPHA
 10
1489.068759
 20
319.952046
 30
0.0
  0
VERTEX
  5
2A127
  8
ALPHA
 10
1489.058251
 20
320.07328
 30
0.0
  0
VERTEX
  5
2A128
  8
ALPHA
 10
1489.049431
 20
320.415291
 30
0.0
  0
VERTEX
  5
2A129
  8
ALPHA
 10
1489.043632
 20
320.918979
 30
0.0
  0
VERTEX
  5
2A12A
  8
ALPHA
 10
1489.041618
 20
321.506861
 30
0.0
  0
VERTEX
  5
2A12B
  8
ALPHA
 10
1489.043632
 20
322.094744
 30
0.0
  0
VERTEX
  5
2A12C
  8
ALPHA
 10
1489.049431
 20
322.598432
 30
0.0
  0
VERTEX
  5
2A12D
  8
ALPHA
 10
1489.058251
 20
322.940443
 30
0.0
  0
VERTEX
  5
2A12E
  8
ALPHA
 10
1489.068759
 20
323.061677
 30
0.0
  0
SEQEND
  5
2A12F
  8
ALPHA
  0
POLYLINE
  5
26367
  8
ALPHA
 66
     1
 10
0.0
 20
0.0
 30
0.0
  0
VERTEX
  5
2A130
  8
ALPHA
 10
1501.596973
 20
201.506861
 30
0.0
  0
VERTEX
  5
2A131
  8
ALPHA
 10
1501.420092
 20
200.170617
 30
0.0
  0
VERTEX
  5
2A132
  8
ALPHA
 10
1500.900822
 20
198.924876
 30
0.0
  0
VERTEX
  5
2A133
  8
ALPHA
 10
1500.079559
 20
197.861113
 30
0.0
  0
VERTEX
  5
2A134
  8
ALPHA
 10
1499.012006
 20
197.046626
 30
0.0
  0
VERTEX
  5
2A135
  8
ALPHA
 10
1497.768566
 20
196.534825
 30
0.0
  0
VERTEX
  5
2A136
  8
ALPHA
 10
1496.428743
 20
196.361492
 30
0.0
  0
VERTEX
  5
2A137
  8
ALPHA
 10
1495.087513
 20
196.542173
 30
0.0
  0
VERTEX
  5
2A138
  8
ALPHA
 10
1493.839582
 20
197.065047
 30
0.0
  0
VERTEX
  5
2A139
  8
ALPHA
 10
1492.774833
 20
197.890206
 30
0.0
  0
VERTEX
  5
2A13A
  8
ALPHA
 10
1491.964161
 20
198.956799
 30
0.0
  0
VERTEX
  5
2A13B
  8
ALPHA
 10
1491.458128
 20
200.190309
 30
0.0
  0
VERTEX
  5
2A13C
  8
ALPHA
 10
1491.286491
 20
201.506861
 30
0.0
  0
SEQEND
  5
2A13D
  8
ALPHA
  0
POLYLINE
  5
26376
  8
ALPHA
 66
     1
 10
0.0
 20
0.0
 30
0.0
  0
VERTEX
  5
2A13E
  8
ALPHA
 10
1491.286491
 20
201.506861
 30
0.0
  0
VERTEX
  5
2A13F
  8
ALPHA
 10
1491.462551
 20
202.840059
 30
0.0
  0
VERTEX
  5
2A140
  8
ALPHA
 10
1491.980526
 20
204.08522
 30
0.0
  0
VERTEX
  5
2A141
  8
ALPHA
 10
1492.801236
 20
205.14996
 30
0.0
  0
VERTEX
  5
2A142
  8
ALPHA
 10
1493.869288
 20
205.965853
 30
0.0
  0
VERTEX
  5
2A143
  8
ALPHA
 10
1495.11382
 20
206.478612
 30
0.0
  0
VERTEX
  5
2A144
  8
ALPHA
 10
1496.454254
 20
206.652232
 30
0.0
  0
VERTEX
  5
2A145
  8
ALPHA
 10
1497.794988
 20
206.471812
 30
0.0
  0
VERTEX
  5
2A146
  8
ALPHA
 10
1499.041822
 20
205.949878
 30
0.0
  0
VERTEX
  5
2A147
  8
ALPHA
 10
1500.106038
 20
205.126132
 30
0.0
  0
VERTEX
  5
2A148
  8
ALPHA
 10
1500.917475
 20
204.060112
 30
0.0
  0
VERTEX
  5
2A149
  8
ALPHA
 10
1501.424738
 20
202.825644
 30
0.0
  0
VERTEX
  5
2A14A
  8
ALPHA
 10
1501.596973
 20
201.506861
 30
0.0
  0
SEQEND
  5
2A14B
  8
ALPHA
  0
POLYLINE
  5
26385
  8
ALPHA
 66
     1
 10
0.0
 20
0.0
 30
0.0
  0
VERTEX
  5
2A14C
  8
ALPHA
 10
1489.349785
 20
225.561677
 30
0.0
  0
VERTEX
  5
2A14D
  8
ALPHA
 10
1489.360292
 20
225.440387
 30
0.0
  0
VERTEX
  5
2A14E
  8
ALPHA
 10
1489.369111
 20
225.098362
 30
0.0
  0
VERTEX
  5
2A14F
  8
ALPHA
 10
1489.374909
 20
224.594699
 30
0.0
  0
VERTEX
  5
2A150
  8
ALPHA
 10
1489.376923
 20
224.006861
 30
0.0
  0
VERTEX
  5
2A151
  8
ALPHA
 10
1489.374909
 20
223.419024
 30
0.0
  0
VERTEX
  5
2A152
  8
ALPHA
 10
1489.369111
 20
222.91536
 30
0.0
  0
VERTEX
  5
2A153
  8
ALPHA
 10
1489.360292
 20
222.573335
 30
0.0
  0
VERTEX
  5
2A154
  8
ALPHA
 10
1489.349785
 20
222.452046
 30
0.0
  0
SEQEND
  5
2A155
  8
ALPHA
  0
POLYLINE
  5
26390
  8
ALPHA
 66
     1
 10
0.0
 20
0.0
 30
0.0
  0
VERTEX
  5
2A156
  8
ALPHA
 10
1489.068759
 20
222.452046
 30
0.0
  0
VERTEX
  5
2A157
  8
ALPHA
 10
1489.058251
 20
222.57328
 30
0.0
  0
VERTEX
  5
2A158
  8
ALPHA
 10
1489.049431
 20
222.915291
 30
0.0
  0
VERTEX
  5
2A159
  8
ALPHA
 10
1489.043632
 20
223.418979
 30
0.0
  0
VERTEX
  5
2A15A
  8
ALPHA
 10
1489.041618
 20
224.006861
 30
0.0
  0
VERTEX
  5
2A15B
  8
ALPHA
 10
1489.043632
 20
224.594744
 30
0.0
  0
VERTEX
  5
2A15C
  8
ALPHA
 10
1489.049431
 20
225.098432
 30
0.0
  0
VERTEX
  5
2A15D
  8
ALPHA
 10
1489.058251
 20
225.440443
 30
0.0
  0
VERTEX
  5
2A15E
  8
ALPHA
 10
1489.068759
 20
225.561677
 30
0.0
  0
SEQEND
  5
2A15F
  8
ALPHA
  0
POLYLINE
  5
2639B
  8
ALPHA
 66
     1
 10
0.0
 20
0.0
 30
0.0
  0
VERTEX
  5
2A160
  8
ALPHA
 10
1489.349785
 20
207.493978
 30
0.0
  0
VERTEX
  5
2A161
  8
ALPHA
 10
1489.360011
 20
207.612036
 30
0.0
  0
VERTEX
  5
2A162
  8
ALPHA
 10
1489.368597
 20
207.945139
 30
0.0
  0
VERTEX
  5
2A163
  8
ALPHA
 10
1489.374232
 20
208.434988
 30
0.0
  0
VERTEX
  5
2A164
  8
ALPHA
 10
1489.376192
 20
209.006861
 30
0.0
  0
VERTEX
  5
2A165
  8
ALPHA
 10
1489.374232
 20
209.578735
 30
0.0
  0
VERTEX
  5
2A166
  8
ALPHA
 10
1489.368597
 20
210.068584
 30
0.0
  0
VERTEX
  5
2A167
  8
ALPHA
 10
1489.360011
 20
210.401687
 30
0.0
  0
VERTEX
  5
2A168
  8
ALPHA
 10
1489.349785
 20
210.519744
 30
0.0
  0
SEQEND
  5
2A169
  8
ALPHA
  0
POLYLINE
  5
263A6
  8
ALPHA
 66
     1
 10
0.0
 20
0.0
 30
0.0
  0
VERTEX
  5
2A16A
  8
ALPHA
 10
1489.068759
 20
210.519744
 30
0.0
  0
VERTEX
  5
2A16B
  8
ALPHA
 10
1489.058532
 20
210.40172
 30
0.0
  0
VERTEX
  5
2A16C
  8
ALPHA
 10
1489.049946
 20
210.068625
 30
0.0
  0
VERTEX
  5
2A16D
  8
ALPHA
 10
1489.04431
 20
209.578762
 30
0.0
  0
VERTEX
  5
2A16E
  8
ALPHA
 10
1489.04235
 20
209.006861
 30
0.0
  0
VERTEX
  5
2A16F
  8
ALPHA
 10
1489.04431
 20
208.434961
 30
0.0
  0
VERTEX
  5
2A170
  8
ALPHA
 10
1489.049946
 20
207.945097
 30
0.0
  0
VERTEX
  5
2A171
  8
ALPHA
 10
1489.058532
 20
207.612002
 30
0.0
  0
VERTEX
  5
2A172
  8
ALPHA
 10
1489.068759
 20
207.493978
 30
0.0
  0
SEQEND
  5
2A173
  8
ALPHA
  0
LINE
  5
263B1
  8
ALPHA
 10
1489.068759
 20
207.493978
 30
0.0
 11
1489.349785
 21
207.493978
 31
0.0
  0
LINE
  5
263B2
  8
ALPHA
 10
1489.349785
 20
203.019744
 30
0.0
 11
1489.068759
 21
203.019744
 31
0.0
  0
LINE
  5
263B3
  8
ALPHA
 10
1489.068759
 20
199.993978
 30
0.0
 11
1489.349785
 21
199.993978
 31
0.0
  0
LINE
  5
263B4
  8
ALPHA
 10
1489.349785
 20
195.519744
 30
0.0
 11
1489.068759
 21
195.519744
 31
0.0
  0
LINE
  5
263B5
  8
ALPHA
 10
1489.068759
 20
192.493978
 30
0.0
 11
1489.349785
 21
192.493978
 31
0.0
  0
POLYLINE
  5
263B6
  8
ALPHA
 66
     1
 10
0.0
 20
0.0
 30
0.0
  0
VERTEX
  5
2A174
  8
ALPHA
 10
1489.349785
 20
192.493978
 30
0.0
  0
VERTEX
  5
2A175
  8
ALPHA
 10
1489.360011
 20
192.612036
 30
0.0
  0
VERTEX
  5
2A176
  8
ALPHA
 10
1489.368597
 20
192.945139
 30
0.0
  0
VERTEX
  5
2A177
  8
ALPHA
 10
1489.374232
 20
193.434988
 30
0.0
  0
VERTEX
  5
2A178
  8
ALPHA
 10
1489.376192
 20
194.006861
 30
0.0
  0
VERTEX
  5
2A179
  8
ALPHA
 10
1489.374232
 20
194.578735
 30
0.0
  0
VERTEX
  5
2A17A
  8
ALPHA
 10
1489.368597
 20
195.068584
 30
0.0
  0
VERTEX
  5
2A17B
  8
ALPHA
 10
1489.360011
 20
195.401687
 30
0.0
  0
VERTEX
  5
2A17C
  8
ALPHA
 10
1489.349785
 20
195.519744
 30
0.0
  0
SEQEND
  5
2A17D
  8
ALPHA
  0
POLYLINE
  5
263C1
  8
ALPHA
 66
     1
 10
0.0
 20
0.0
 30
0.0
  0
VERTEX
  5
2A17E
  8
ALPHA
 10
1489.068759
 20
195.519744
 30
0.0
  0
VERTEX
  5
2A17F
  8
ALPHA
 10
1489.058532
 20
195.40172
 30
0.0
  0
VERTEX
  5
2A180
  8
ALPHA
 10
1489.049946
 20
195.068625
 30
0.0
  0
VERTEX
  5
2A181
  8
ALPHA
 10
1489.04431
 20
194.578762
 30
0.0
  0
VERTEX
  5
2A182
  8
ALPHA
 10
1489.04235
 20
194.006861
 30
0.0
  0
VERTEX
  5
2A183
  8
ALPHA
 10
1489.04431
 20
193.434961
 30
0.0
  0
VERTEX
  5
2A184
  8
ALPHA
 10
1489.049946
 20
192.945097
 30
0.0
  0
VERTEX
  5
2A185
  8
ALPHA
 10
1489.058532
 20
192.612002
 30
0.0
  0
VERTEX
  5
2A186
  8
ALPHA
 10
1489.068759
 20
192.493978
 30
0.0
  0
SEQEND
  5
2A187
  8
ALPHA
  0
POLYLINE
  5
263CC
  8
ALPHA
 66
     1
 10
0.0
 20
0.0
 30
0.0
  0
VERTEX
  5
2A188
  8
ALPHA
 10
1489.349785
 20
199.993978
 30
0.0
  0
VERTEX
  5
2A189
  8
ALPHA
 10
1489.360011
 20
200.112036
 30
0.0
  0
VERTEX
  5
2A18A
  8
ALPHA
 10
1489.368597
 20
200.445139
 30
0.0
  0
VERTEX
  5
2A18B
  8
ALPHA
 10
1489.374232
 20
200.934988
 30
0.0
  0
VERTEX
  5
2A18C
  8
ALPHA
 10
1489.376192
 20
201.506861
 30
0.0
  0
VERTEX
  5
2A18D
  8
ALPHA
 10
1489.374232
 20
202.078735
 30
0.0
  0
VERTEX
  5
2A18E
  8
ALPHA
 10
1489.368597
 20
202.568584
 30
0.0
  0
VERTEX
  5
2A18F
  8
ALPHA
 10
1489.360011
 20
202.901687
 30
0.0
  0
VERTEX
  5
2A190
  8
ALPHA
 10
1489.349785
 20
203.019744
 30
0.0
  0
SEQEND
  5
2A191
  8
ALPHA
  0
POLYLINE
  5
263D7
  8
ALPHA
 66
     1
 10
0.0
 20
0.0
 30
0.0
  0
VERTEX
  5
2A192
  8
ALPHA
 10
1489.068759
 20
203.019744
 30
0.0
  0
VERTEX
  5
2A193
  8
ALPHA
 10
1489.058532
 20
202.90172
 30
0.0
  0
VERTEX
  5
2A194
  8
ALPHA
 10
1489.049946
 20
202.568625
 30
0.0
  0
VERTEX
  5
2A195
  8
ALPHA
 10
1489.04431
 20
202.078762
 30
0.0
  0
VERTEX
  5
2A196
  8
ALPHA
 10
1489.04235
 20
201.506861
 30
0.0
  0
VERTEX
  5
2A197
  8
ALPHA
 10
1489.04431
 20
200.934961
 30
0.0
  0
VERTEX
  5
2A198
  8
ALPHA
 10
1489.049946
 20
200.445097
 30
0.0
  0
VERTEX
  5
2A199
  8
ALPHA
 10
1489.058532
 20
200.112002
 30
0.0
  0
VERTEX
  5
2A19A
  8
ALPHA
 10
1489.068759
 20
199.993978
 30
0.0
  0
SEQEND
  5
2A19B
  8
ALPHA
  0
LINE
  5
263E2
  8
ALPHA
 10
1489.349785
 20
222.452046
 30
0.0
 11
1489.068759
 21
222.452046
 31
0.0
  0
LINE
  5
263E3
  8
ALPHA
 10
1489.068759
 20
218.061677
 30
0.0
 11
1489.349785
 21
218.061677
 31
0.0
  0
LINE
  5
263E4
  8
ALPHA
 10
1489.349785
 20
214.952046
 30
0.0
 11
1489.068759
 21
214.952046
 31
0.0
  0
LINE
  5
263E5
  8
ALPHA
 10
1489.349785
 20
210.519744
 30
0.0
 11
1489.068759
 21
210.519744
 31
0.0
  0
POLYLINE
  5
263E6
  8
ALPHA
 66
     1
 10
0.0
 20
0.0
 30
0.0
  0
VERTEX
  5
2A19C
  8
ALPHA
 10
1489.349785
 20
218.061677
 30
0.0
  0
VERTEX
  5
2A19D
  8
ALPHA
 10
1489.360292
 20
217.940387
 30
0.0
  0
VERTEX
  5
2A19E
  8
ALPHA
 10
1489.369111
 20
217.598362
 30
0.0
  0
VERTEX
  5
2A19F
  8
ALPHA
 10
1489.374909
 20
217.094699
 30
0.0
  0
VERTEX
  5
2A1A0
  8
ALPHA
 10
1489.376923
 20
216.506861
 30
0.0
  0
VERTEX
  5
2A1A1
  8
ALPHA
 10
1489.374909
 20
215.919024
 30
0.0
  0
VERTEX
  5
2A1A2
  8
ALPHA
 10
1489.369111
 20
215.41536
 30
0.0
  0
VERTEX
  5
2A1A3
  8
ALPHA
 10
1489.360292
 20
215.073335
 30
0.0
  0
VERTEX
  5
2A1A4
  8
ALPHA
 10
1489.349785
 20
214.952046
 30
0.0
  0
SEQEND
  5
2A1A5
  8
ALPHA
  0
POLYLINE
  5
263F1
  8
ALPHA
 66
     1
 10
0.0
 20
0.0
 30
0.0
  0
VERTEX
  5
2A1A6
  8
ALPHA
 10
1489.068759
 20
214.952046
 30
0.0
  0
VERTEX
  5
2A1A7
  8
ALPHA
 10
1489.058251
 20
215.07328
 30
0.0
  0
VERTEX
  5
2A1A8
  8
ALPHA
 10
1489.049431
 20
215.415291
 30
0.0
  0
VERTEX
  5
2A1A9
  8
ALPHA
 10
1489.043632
 20
215.918979
 30
0.0
  0
VERTEX
  5
2A1AA
  8
ALPHA
 10
1489.041618
 20
216.506861
 30
0.0
  0
VERTEX
  5
2A1AB
  8
ALPHA
 10
1489.043632
 20
217.094744
 30
0.0
  0
VERTEX
  5
2A1AC
  8
ALPHA
 10
1489.049431
 20
217.598432
 30
0.0
  0
VERTEX
  5
2A1AD
  8
ALPHA
 10
1489.058251
 20
217.940443
 30
0.0
  0
VERTEX
  5
2A1AE
  8
ALPHA
 10
1489.068759
 20
218.061677
 30
0.0
  0
SEQEND
  5
2A1AF
  8
ALPHA
  0
LINE
  5
263FC
  8
ALPHA
 10
1489.068759
 20
240.561677
 30
0.0
 11
1489.349785
 21
240.561677
 31
0.0
  0
LINE
  5
263FD
  8
ALPHA
 10
1489.349785
 20
237.452046
 30
0.0
 11
1489.068759
 21
237.452046
 31
0.0
  0
LINE
  5
263FE
  8
ALPHA
 10
1489.068759
 20
233.061677
 30
0.0
 11
1489.349785
 21
233.061677
 31
0.0
  0
LINE
  5
263FF
  8
ALPHA
 10
1489.349785
 20
229.952046
 30
0.0
 11
1489.068759
 21
229.952046
 31
0.0
  0
LINE
  5
26400
  8
ALPHA
 10
1489.068759
 20
225.561677
 30
0.0
 11
1489.349785
 21
225.561677
 31
0.0
  0
POLYLINE
  5
26401
  8
ALPHA
 66
     1
 10
0.0
 20
0.0
 30
0.0
  0
VERTEX
  5
2A1B0
  8
ALPHA
 10
1489.349785
 20
240.561677
 30
0.0
  0
VERTEX
  5
2A1B1
  8
ALPHA
 10
1489.360292
 20
240.440387
 30
0.0
  0
VERTEX
  5
2A1B2
  8
ALPHA
 10
1489.369111
 20
240.098362
 30
0.0
  0
VERTEX
  5
2A1B3
  8
ALPHA
 10
1489.374909
 20
239.594699
 30
0.0
  0
VERTEX
  5
2A1B4
  8
ALPHA
 10
1489.376923
 20
239.006861
 30
0.0
  0
VERTEX
  5
2A1B5
  8
ALPHA
 10
1489.374909
 20
238.419024
 30
0.0
  0
VERTEX
  5
2A1B6
  8
ALPHA
 10
1489.369111
 20
237.91536
 30
0.0
  0
VERTEX
  5
2A1B7
  8
ALPHA
 10
1489.360292
 20
237.573335
 30
0.0
  0
VERTEX
  5
2A1B8
  8
ALPHA
 10
1489.349785
 20
237.452046
 30
0.0
  0
SEQEND
  5
2A1B9
  8
ALPHA
  0
POLYLINE
  5
2640C
  8
ALPHA
 66
     1
 10
0.0
 20
0.0
 30
0.0
  0
VERTEX
  5
2A1BA
  8
ALPHA
 10
1489.068759
 20
237.452046
 30
0.0
  0
VERTEX
  5
2A1BB
  8
ALPHA
 10
1489.058251
 20
237.57328
 30
0.0
  0
VERTEX
  5
2A1BC
  8
ALPHA
 10
1489.049431
 20
237.915291
 30
0.0
  0
VERTEX
  5
2A1BD
  8
ALPHA
 10
1489.043632
 20
238.418979
 30
0.0
  0
VERTEX
  5
2A1BE
  8
ALPHA
 10
1489.041618
 20
239.006861
 30
0.0
  0
VERTEX
  5
2A1BF
  8
ALPHA
 10
1489.043632
 20
239.594744
 30
0.0
  0
VERTEX
  5
2A1C0
  8
ALPHA
 10
1489.049431
 20
240.098432
 30
0.0
  0
VERTEX
  5
2A1C1
  8
ALPHA
 10
1489.058251
 20
240.440443
 30
0.0
  0
VERTEX
  5
2A1C2
  8
ALPHA
 10
1489.068759
 20
240.561677
 30
0.0
  0
SEQEND
  5
2A1C3
  8
ALPHA
  0
POLYLINE
  5
26417
  8
ALPHA
 66
     1
 10
0.0
 20
0.0
 30
0.0
  0
VERTEX
  5
2A1C4
  8
ALPHA
 10
1489.349785
 20
233.061677
 30
0.0
  0
VERTEX
  5
2A1C5
  8
ALPHA
 10
1489.360292
 20
232.940387
 30
0.0
  0
VERTEX
  5
2A1C6
  8
ALPHA
 10
1489.369111
 20
232.598362
 30
0.0
  0
VERTEX
  5
2A1C7
  8
ALPHA
 10
1489.374909
 20
232.094699
 30
0.0
  0
VERTEX
  5
2A1C8
  8
ALPHA
 10
1489.376923
 20
231.506861
 30
0.0
  0
VERTEX
  5
2A1C9
  8
ALPHA
 10
1489.374909
 20
230.919024
 30
0.0
  0
VERTEX
  5
2A1CA
  8
ALPHA
 10
1489.369111
 20
230.41536
 30
0.0
  0
VERTEX
  5
2A1CB
  8
ALPHA
 10
1489.360292
 20
230.073335
 30
0.0
  0
VERTEX
  5
2A1CC
  8
ALPHA
 10
1489.349785
 20
229.952046
 30
0.0
  0
SEQEND
  5
2A1CD
  8
ALPHA
  0
POLYLINE
  5
26422
  8
ALPHA
 66
     1
 10
0.0
 20
0.0
 30
0.0
  0
VERTEX
  5
2A1CE
  8
ALPHA
 10
1489.068759
 20
229.952046
 30
0.0
  0
VERTEX
  5
2A1CF
  8
ALPHA
 10
1489.058251
 20
230.07328
 30
0.0
  0
VERTEX
  5
2A1D0
  8
ALPHA
 10
1489.049431
 20
230.415291
 30
0.0
  0
VERTEX
  5
2A1D1
  8
ALPHA
 10
1489.043632
 20
230.918979
 30
0.0
  0
VERTEX
  5
2A1D2
  8
ALPHA
 10
1489.041618
 20
231.506861
 30
0.0
  0
VERTEX
  5
2A1D3
  8
ALPHA
 10
1489.043632
 20
232.094744
 30
0.0
  0
VERTEX
  5
2A1D4
  8
ALPHA
 10
1489.049431
 20
232.598432
 30
0.0
  0
VERTEX
  5
2A1D5
  8
ALPHA
 10
1489.058251
 20
232.940443
 30
0.0
  0
VERTEX
  5
2A1D6
  8
ALPHA
 10
1489.068759
 20
233.061677
 30
0.0
  0
SEQEND
  5
2A1D7
  8
ALPHA
  0
LINE
  5
2642D
  8
ALPHA
 10
1489.349785
 20
255.456861
 30
0.0
 11
1489.068759
 21
255.456861
 31
0.0
  0
LINE
  5
2642E
  8
ALPHA
 10
1489.068759
 20
252.556861
 30
0.0
 11
1489.349785
 21
252.556861
 31
0.0
  0
LINE
  5
2642F
  8
ALPHA
 10
1489.349785
 20
247.956861
 30
0.0
 11
1489.068759
 21
247.956861
 31
0.0
  0
LINE
  5
26430
  8
ALPHA
 10
1489.068759
 20
245.056861
 30
0.0
 11
1489.349785
 21
245.056861
 31
0.0
  0
POLYLINE
  5
26431
  8
ALPHA
 66
     1
 10
0.0
 20
0.0
 30
0.0
  0
VERTEX
  5
2A1D8
  8
ALPHA
 10
1489.349785
 20
245.056861
 30
0.0
  0
VERTEX
  5
2A1D9
  8
ALPHA
 10
1489.359589
 20
245.170061
 30
0.0
  0
VERTEX
  5
2A1DA
  8
ALPHA
 10
1489.367824
 20
245.489775
 30
0.0
  0
VERTEX
  5
2A1DB
  8
ALPHA
 10
1489.373218
 20
245.958929
 30
0.0
  0
VERTEX
  5
2A1DC
  8
ALPHA
 10
1489.375095
 20
246.506861
 30
0.0
  0
VERTEX
  5
2A1DD
  8
ALPHA
 10
1489.373218
 20
247.054794
 30
0.0
  0
VERTEX
  5
2A1DE
  8
ALPHA
 10
1489.367824
 20
247.523948
 30
0.0
  0
VERTEX
  5
2A1DF
  8
ALPHA
 10
1489.359589
 20
247.843662
 30
0.0
  0
VERTEX
  5
2A1E0
  8
ALPHA
 10
1489.349785
 20
247.956861
 30
0.0
  0
SEQEND
  5
2A1E1
  8
ALPHA
  0
POLYLINE
  5
2643C
  8
ALPHA
 66
     1
 10
0.0
 20
0.0
 30
0.0
  0
VERTEX
  5
2A1E2
  8
ALPHA
 10
1489.068759
 20
247.956861
 30
0.0
  0
VERTEX
  5
2A1E3
  8
ALPHA
 10
1489.058955
 20
247.843662
 30
0.0
  0
VERTEX
  5
2A1E4
  8
ALPHA
 10
1489.05072
 20
247.523948
 30
0.0
  0
VERTEX
  5
2A1E5
  8
ALPHA
 10
1489.045326
 20
247.054793
 30
0.0
  0
VERTEX
  5
2A1E6
  8
ALPHA
 10
1489.043449
 20
246.506861
 30
0.0
  0
VERTEX
  5
2A1E7
  8
ALPHA
 10
1489.045326
 20
245.958929
 30
0.0
  0
VERTEX
  5
2A1E8
  8
ALPHA
 10
1489.05072
 20
245.489775
 30
0.0
  0
VERTEX
  5
2A1E9
  8
ALPHA
 10
1489.058955
 20
245.170061
 30
0.0
  0
VERTEX
  5
2A1EA
  8
ALPHA
 10
1489.068759
 20
245.056861
 30
0.0
  0
SEQEND
  5
2A1EB
  8
ALPHA
  0
POLYLINE
  5
26447
  8
ALPHA
 66
     1
 10
0.0
 20
0.0
 30
0.0
  0
VERTEX
  5
2A1EC
  8
ALPHA
 10
1489.349785
 20
252.556861
 30
0.0
  0
VERTEX
  5
2A1ED
  8
ALPHA
 10
1489.359589
 20
252.670061
 30
0.0
  0
VERTEX
  5
2A1EE
  8
ALPHA
 10
1489.367824
 20
252.989775
 30
0.0
  0
VERTEX
  5
2A1EF
  8
ALPHA
 10
1489.373218
 20
253.458929
 30
0.0
  0
VERTEX
  5
2A1F0
  8
ALPHA
 10
1489.375095
 20
254.006861
 30
0.0
  0
VERTEX
  5
2A1F1
  8
ALPHA
 10
1489.373218
 20
254.554794
 30
0.0
  0
VERTEX
  5
2A1F2
  8
ALPHA
 10
1489.367824
 20
255.023948
 30
0.0
  0
VERTEX
  5
2A1F3
  8
ALPHA
 10
1489.359589
 20
255.343662
 30
0.0
  0
VERTEX
  5
2A1F4
  8
ALPHA
 10
1489.349785
 20
255.456861
 30
0.0
  0
SEQEND
  5
2A1F5
  8
ALPHA
  0
POLYLINE
  5
26452
  8
ALPHA
 66
     1
 10
0.0
 20
0.0
 30
0.0
  0
VERTEX
  5
2A1F6
  8
ALPHA
 10
1489.068759
 20
255.456861
 30
0.0
  0
VERTEX
  5
2A1F7
  8
ALPHA
 10
1489.058955
 20
255.343662
 30
0.0
  0
VERTEX
  5
2A1F8
  8
ALPHA
 10
1489.05072
 20
255.023948
 30
0.0
  0
VERTEX
  5
2A1F9
  8
ALPHA
 10
1489.045326
 20
254.554793
 30
0.0
  0
VERTEX
  5
2A1FA
  8
ALPHA
 10
1489.043449
 20
254.006861
 30
0.0
  0
VERTEX
  5
2A1FB
  8
ALPHA
 10
1489.045326
 20
253.458929
 30
0.0
  0
VERTEX
  5
2A1FC
  8
ALPHA
 10
1489.05072
 20
252.989775
 30
0.0
  0
VERTEX
  5
2A1FD
  8
ALPHA
 10
1489.058955
 20
252.670061
 30
0.0
  0
VERTEX
  5
2A1FE
  8
ALPHA
 10
1489.068759
 20
252.556861
 30
0.0
  0
SEQEND
  5
2A1FF
  8
ALPHA
  0
POLYLINE
  5
2645D
  8
ALPHA
 66
     1
 10
0.0
 20
0.0
 30
0.0
  0
VERTEX
  5
2A200
  8
ALPHA
 10
1489.349785
 20
289.993978
 30
0.0
  0
VERTEX
  5
2A201
  8
ALPHA
 10
1489.360011
 20
290.112036
 30
0.0
  0
VERTEX
  5
2A202
  8
ALPHA
 10
1489.368597
 20
290.445139
 30
0.0
  0
VERTEX
  5
2A203
  8
ALPHA
 10
1489.374232
 20
290.934988
 30
0.0
  0
VERTEX
  5
2A204
  8
ALPHA
 10
1489.376192
 20
291.506861
 30
0.0
  0
VERTEX
  5
2A205
  8
ALPHA
 10
1489.374232
 20
292.078735
 30
0.0
  0
VERTEX
  5
2A206
  8
ALPHA
 10
1489.368597
 20
292.568584
 30
0.0
  0
VERTEX
  5
2A207
  8
ALPHA
 10
1489.360011
 20
292.901687
 30
0.0
  0
VERTEX
  5
2A208
  8
ALPHA
 10
1489.349785
 20
293.019744
 30
0.0
  0
SEQEND
  5
2A209
  8
ALPHA
  0
POLYLINE
  5
26468
  8
ALPHA
 66
     1
 10
0.0
 20
0.0
 30
0.0
  0
VERTEX
  5
2A20A
  8
ALPHA
 10
1489.068759
 20
293.019744
 30
0.0
  0
VERTEX
  5
2A20B
  8
ALPHA
 10
1489.058532
 20
292.90172
 30
0.0
  0
VERTEX
  5
2A20C
  8
ALPHA
 10
1489.049946
 20
292.568625
 30
0.0
  0
VERTEX
  5
2A20D
  8
ALPHA
 10
1489.04431
 20
292.078762
 30
0.0
  0
VERTEX
  5
2A20E
  8
ALPHA
 10
1489.04235
 20
291.506861
 30
0.0
  0
VERTEX
  5
2A20F
  8
ALPHA
 10
1489.04431
 20
290.934961
 30
0.0
  0
VERTEX
  5
2A210
  8
ALPHA
 10
1489.049946
 20
290.445097
 30
0.0
  0
VERTEX
  5
2A211
  8
ALPHA
 10
1489.058532
 20
290.112002
 30
0.0
  0
VERTEX
  5
2A212
  8
ALPHA
 10
1489.068759
 20
289.993978
 30
0.0
  0
SEQEND
  5
2A213
  8
ALPHA
  0
LINE
  5
26473
  8
ALPHA
 10
1489.068759
 20
270.561677
 30
0.0
 11
1489.349785
 21
270.561677
 31
0.0
  0
LINE
  5
26474
  8
ALPHA
 10
1489.349785
 20
267.452046
 30
0.0
 11
1489.068759
 21
267.452046
 31
0.0
  0
LINE
  5
26475
  8
ALPHA
 10
1489.349785
 20
262.956861
 30
0.0
 11
1489.068759
 21
262.956861
 31
0.0
  0
LINE
  5
26476
  8
ALPHA
 10
1489.068759
 20
260.056861
 30
0.0
 11
1489.349785
 21
260.056861
 31
0.0
  0
POLYLINE
  5
26477
  8
ALPHA
 66
     1
 10
0.0
 20
0.0
 30
0.0
  0
VERTEX
  5
2A214
  8
ALPHA
 10
1489.349785
 20
260.056861
 30
0.0
  0
VERTEX
  5
2A215
  8
ALPHA
 10
1489.359589
 20
260.170061
 30
0.0
  0
VERTEX
  5
2A216
  8
ALPHA
 10
1489.367824
 20
260.489775
 30
0.0
  0
VERTEX
  5
2A217
  8
ALPHA
 10
1489.373218
 20
260.958929
 30
0.0
  0
VERTEX
  5
2A218
  8
ALPHA
 10
1489.375095
 20
261.506861
 30
0.0
  0
VERTEX
  5
2A219
  8
ALPHA
 10
1489.373218
 20
262.054794
 30
0.0
  0
VERTEX
  5
2A21A
  8
ALPHA
 10
1489.367824
 20
262.523948
 30
0.0
  0
VERTEX
  5
2A21B
  8
ALPHA
 10
1489.359589
 20
262.843662
 30
0.0
  0
VERTEX
  5
2A21C
  8
ALPHA
 10
1489.349785
 20
262.956861
 30
0.0
  0
SEQEND
  5
2A21D
  8
ALPHA
  0
POLYLINE
  5
26482
  8
ALPHA
 66
     1
 10
0.0
 20
0.0
 30
0.0
  0
VERTEX
  5
2A21E
  8
ALPHA
 10
1489.349785
 20
270.561677
 30
0.0
  0
VERTEX
  5
2A21F
  8
ALPHA
 10
1489.360292
 20
270.440387
 30
0.0
  0
VERTEX
  5
2A220
  8
ALPHA
 10
1489.369111
 20
270.098362
 30
0.0
  0
VERTEX
  5
2A221
  8
ALPHA
 10
1489.374909
 20
269.594699
 30
0.0
  0
VERTEX
  5
2A222
  8
ALPHA
 10
1489.376923
 20
269.006861
 30
0.0
  0
VERTEX
  5
2A223
  8
ALPHA
 10
1489.374909
 20
268.419024
 30
0.0
  0
VERTEX
  5
2A224
  8
ALPHA
 10
1489.369111
 20
267.91536
 30
0.0
  0
VERTEX
  5
2A225
  8
ALPHA
 10
1489.360292
 20
267.573335
 30
0.0
  0
VERTEX
  5
2A226
  8
ALPHA
 10
1489.349785
 20
267.452046
 30
0.0
  0
SEQEND
  5
2A227
  8
ALPHA
  0
POLYLINE
  5
2648D
  8
ALPHA
 66
     1
 10
0.0
 20
0.0
 30
0.0
  0
VERTEX
  5
2A228
  8
ALPHA
 10
1489.068759
 20
267.452046
 30
0.0
  0
VERTEX
  5
2A229
  8
ALPHA
 10
1489.058251
 20
267.57328
 30
0.0
  0
VERTEX
  5
2A22A
  8
ALPHA
 10
1489.049431
 20
267.915291
 30
0.0
  0
VERTEX
  5
2A22B
  8
ALPHA
 10
1489.043632
 20
268.418979
 30
0.0
  0
VERTEX
  5
2A22C
  8
ALPHA
 10
1489.041618
 20
269.006861
 30
0.0
  0
VERTEX
  5
2A22D
  8
ALPHA
 10
1489.043632
 20
269.594744
 30
0.0
  0
VERTEX
  5
2A22E
  8
ALPHA
 10
1489.049431
 20
270.098432
 30
0.0
  0
VERTEX
  5
2A22F
  8
ALPHA
 10
1489.058251
 20
270.440443
 30
0.0
  0
VERTEX
  5
2A230
  8
ALPHA
 10
1489.068759
 20
270.561677
 30
0.0
  0
SEQEND
  5
2A231
  8
ALPHA
  0
POLYLINE
  5
26498
  8
ALPHA
 66
     1
 10
0.0
 20
0.0
 30
0.0
  0
VERTEX
  5
2A232
  8
ALPHA
 10
1489.068759
 20
262.956861
 30
0.0
  0
VERTEX
  5
2A233
  8
ALPHA
 10
1489.058955
 20
262.843662
 30
0.0
  0
VERTEX
  5
2A234
  8
ALPHA
 10
1489.05072
 20
262.523948
 30
0.0
  0
VERTEX
  5
2A235
  8
ALPHA
 10
1489.045326
 20
262.054793
 30
0.0
  0
VERTEX
  5
2A236
  8
ALPHA
 10
1489.043449
 20
261.506861
 30
0.0
  0
VERTEX
  5
2A237
  8
ALPHA
 10
1489.045326
 20
260.958929
 30
0.0
  0
VERTEX
  5
2A238
  8
ALPHA
 10
1489.05072
 20
260.489774
 30
0.0
  0
VERTEX
  5
2A239
  8
ALPHA
 10
1489.058955
 20
260.17006
 30
0.0
  0
VERTEX
  5
2A23A
  8
ALPHA
 10
1489.068759
 20
260.056861
 30
0.0
  0
SEQEND
  5
2A23B
  8
ALPHA
  0
LINE
  5
264A3
  8
ALPHA
 10
1489.068759
 20
289.993978
 30
0.0
 11
1489.349785
 21
289.993978
 31
0.0
  0
LINE
  5
264A4
  8
ALPHA
 10
1489.068759
 20
285.561677
 30
0.0
 11
1489.349785
 21
285.561677
 31
0.0
  0
LINE
  5
264A5
  8
ALPHA
 10
1489.349785
 20
282.452046
 30
0.0
 11
1489.068759
 21
282.452046
 31
0.0
  0
LINE
  5
264A6
  8
ALPHA
 10
1489.068759
 20
278.061677
 30
0.0
 11
1489.349785
 21
278.061677
 31
0.0
  0
LINE
  5
264A7
  8
ALPHA
 10
1489.349785
 20
274.952046
 30
0.0
 11
1489.068759
 21
274.952046
 31
0.0
  0
POLYLINE
  5
264A8
  8
ALPHA
 66
     1
 10
0.0
 20
0.0
 30
0.0
  0
VERTEX
  5
2A23C
  8
ALPHA
 10
1489.349785
 20
285.561677
 30
0.0
  0
VERTEX
  5
2A23D
  8
ALPHA
 10
1489.360292
 20
285.440387
 30
0.0
  0
VERTEX
  5
2A23E
  8
ALPHA
 10
1489.369111
 20
285.098362
 30
0.0
  0
VERTEX
  5
2A23F
  8
ALPHA
 10
1489.374909
 20
284.594699
 30
0.0
  0
VERTEX
  5
2A240
  8
ALPHA
 10
1489.376923
 20
284.006861
 30
0.0
  0
VERTEX
  5
2A241
  8
ALPHA
 10
1489.374909
 20
283.419024
 30
0.0
  0
VERTEX
  5
2A242
  8
ALPHA
 10
1489.369111
 20
282.91536
 30
0.0
  0
VERTEX
  5
2A243
  8
ALPHA
 10
1489.360292
 20
282.573335
 30
0.0
  0
VERTEX
  5
2A244
  8
ALPHA
 10
1489.349785
 20
282.452046
 30
0.0
  0
SEQEND
  5
2A245
  8
ALPHA
  0
POLYLINE
  5
264B3
  8
ALPHA
 66
     1
 10
0.0
 20
0.0
 30
0.0
  0
VERTEX
  5
2A246
  8
ALPHA
 10
1489.068759
 20
282.452046
 30
0.0
  0
VERTEX
  5
2A247
  8
ALPHA
 10
1489.058251
 20
282.57328
 30
0.0
  0
VERTEX
  5
2A248
  8
ALPHA
 10
1489.049431
 20
282.915291
 30
0.0
  0
VERTEX
  5
2A249
  8
ALPHA
 10
1489.043632
 20
283.418979
 30
0.0
  0
VERTEX
  5
2A24A
  8
ALPHA
 10
1489.041618
 20
284.006861
 30
0.0
  0
VERTEX
  5
2A24B
  8
ALPHA
 10
1489.043632
 20
284.594744
 30
0.0
  0
VERTEX
  5
2A24C
  8
ALPHA
 10
1489.049431
 20
285.098432
 30
0.0
  0
VERTEX
  5
2A24D
  8
ALPHA
 10
1489.058251
 20
285.440443
 30
0.0
  0
VERTEX
  5
2A24E
  8
ALPHA
 10
1489.068759
 20
285.561677
 30
0.0
  0
SEQEND
  5
2A24F
  8
ALPHA
  0
POLYLINE
  5
264BE
  8
ALPHA
 66
     1
 10
0.0
 20
0.0
 30
0.0
  0
VERTEX
  5
2A250
  8
ALPHA
 10
1489.349785
 20
278.061677
 30
0.0
  0
VERTEX
  5
2A251
  8
ALPHA
 10
1489.360292
 20
277.940387
 30
0.0
  0
VERTEX
  5
2A252
  8
ALPHA
 10
1489.369111
 20
277.598362
 30
0.0
  0
VERTEX
  5
2A253
  8
ALPHA
 10
1489.374909
 20
277.094699
 30
0.0
  0
VERTEX
  5
2A254
  8
ALPHA
 10
1489.376923
 20
276.506861
 30
0.0
  0
VERTEX
  5
2A255
  8
ALPHA
 10
1489.374909
 20
275.919024
 30
0.0
  0
VERTEX
  5
2A256
  8
ALPHA
 10
1489.369111
 20
275.41536
 30
0.0
  0
VERTEX
  5
2A257
  8
ALPHA
 10
1489.360292
 20
275.073335
 30
0.0
  0
VERTEX
  5
2A258
  8
ALPHA
 10
1489.349785
 20
274.952046
 30
0.0
  0
SEQEND
  5
2A259
  8
ALPHA
  0
POLYLINE
  5
264C9
  8
ALPHA
 66
     1
 10
0.0
 20
0.0
 30
0.0
  0
VERTEX
  5
2A25A
  8
ALPHA
 10
1489.068759
 20
274.952046
 30
0.0
  0
VERTEX
  5
2A25B
  8
ALPHA
 10
1489.058251
 20
275.07328
 30
0.0
  0
VERTEX
  5
2A25C
  8
ALPHA
 10
1489.049431
 20
275.415291
 30
0.0
  0
VERTEX
  5
2A25D
  8
ALPHA
 10
1489.043632
 20
275.918979
 30
0.0
  0
VERTEX
  5
2A25E
  8
ALPHA
 10
1489.041618
 20
276.506861
 30
0.0
  0
VERTEX
  5
2A25F
  8
ALPHA
 10
1489.043632
 20
277.094744
 30
0.0
  0
VERTEX
  5
2A260
  8
ALPHA
 10
1489.049431
 20
277.598432
 30
0.0
  0
VERTEX
  5
2A261
  8
ALPHA
 10
1489.058251
 20
277.940443
 30
0.0
  0
VERTEX
  5
2A262
  8
ALPHA
 10
1489.068759
 20
278.061677
 30
0.0
  0
SEQEND
  5
2A263
  8
ALPHA
  0
POLYLINE
  5
264D4
  8
ALPHA
 66
     1
 10
0.0
 20
0.0
 30
0.0
  0
VERTEX
  5
2A264
  8
ALPHA
 10
1489.349785
 20
308.061677
 30
0.0
  0
VERTEX
  5
2A265
  8
ALPHA
 10
1489.360292
 20
307.940387
 30
0.0
  0
VERTEX
  5
2A266
  8
ALPHA
 10
1489.369111
 20
307.598362
 30
0.0
  0
VERTEX
  5
2A267
  8
ALPHA
 10
1489.374909
 20
307.094699
 30
0.0
  0
VERTEX
  5
2A268
  8
ALPHA
 10
1489.376923
 20
306.506861
 30
0.0
  0
VERTEX
  5
2A269
  8
ALPHA
 10
1489.374909
 20
305.919024
 30
0.0
  0
VERTEX
  5
2A26A
  8
ALPHA
 10
1489.369111
 20
305.41536
 30
0.0
  0
VERTEX
  5
2A26B
  8
ALPHA
 10
1489.360292
 20
305.073335
 30
0.0
  0
VERTEX
  5
2A26C
  8
ALPHA
 10
1489.349785
 20
304.952046
 30
0.0
  0
SEQEND
  5
2A26D
  8
ALPHA
  0
POLYLINE
  5
264DF
  8
ALPHA
 66
     1
 10
0.0
 20
0.0
 30
0.0
  0
VERTEX
  5
2A26E
  8
ALPHA
 10
1489.068759
 20
304.952046
 30
0.0
  0
VERTEX
  5
2A26F
  8
ALPHA
 10
1489.058251
 20
305.07328
 30
0.0
  0
VERTEX
  5
2A270
  8
ALPHA
 10
1489.049431
 20
305.415291
 30
0.0
  0
VERTEX
  5
2A271
  8
ALPHA
 10
1489.043632
 20
305.918979
 30
0.0
  0
VERTEX
  5
2A272
  8
ALPHA
 10
1489.041618
 20
306.506861
 30
0.0
  0
VERTEX
  5
2A273
  8
ALPHA
 10
1489.043632
 20
307.094744
 30
0.0
  0
VERTEX
  5
2A274
  8
ALPHA
 10
1489.049431
 20
307.598432
 30
0.0
  0
VERTEX
  5
2A275
  8
ALPHA
 10
1489.058251
 20
307.940443
 30
0.0
  0
VERTEX
  5
2A276
  8
ALPHA
 10
1489.068759
 20
308.061677
 30
0.0
  0
SEQEND
  5
2A277
  8
ALPHA
  0
LINE
  5
264EA
  8
ALPHA
 10
1489.349785
 20
304.952046
 30
0.0
 11
1489.068759
 21
304.952046
 31
0.0
  0
LINE
  5
264EB
  8
ALPHA
 10
1489.068759
 20
300.561677
 30
0.0
 11
1489.349785
 21
300.561677
 31
0.0
  0
LINE
  5
264EC
  8
ALPHA
 10
1489.349785
 20
297.452046
 30
0.0
 11
1489.068759
 21
297.452046
 31
0.0
  0
LINE
  5
264ED
  8
ALPHA
 10
1489.349785
 20
293.019744
 30
0.0
 11
1489.068759
 21
293.019744
 31
0.0
  0
POLYLINE
  5
264EE
  8
ALPHA
 66
     1
 10
0.0
 20
0.0
 30
0.0
  0
VERTEX
  5
2A278
  8
ALPHA
 10
1489.349785
 20
300.561677
 30
0.0
  0
VERTEX
  5
2A279
  8
ALPHA
 10
1489.360292
 20
300.440387
 30
0.0
  0
VERTEX
  5
2A27A
  8
ALPHA
 10
1489.369111
 20
300.098362
 30
0.0
  0
VERTEX
  5
2A27B
  8
ALPHA
 10
1489.374909
 20
299.594699
 30
0.0
  0
VERTEX
  5
2A27C
  8
ALPHA
 10
1489.376923
 20
299.006861
 30
0.0
  0
VERTEX
  5
2A27D
  8
ALPHA
 10
1489.374909
 20
298.419024
 30
0.0
  0
VERTEX
  5
2A27E
  8
ALPHA
 10
1489.369111
 20
297.91536
 30
0.0
  0
VERTEX
  5
2A27F
  8
ALPHA
 10
1489.360292
 20
297.573335
 30
0.0
  0
VERTEX
  5
2A280
  8
ALPHA
 10
1489.349785
 20
297.452046
 30
0.0
  0
SEQEND
  5
2A281
  8
ALPHA
  0
POLYLINE
  5
264F9
  8
ALPHA
 66
     1
 10
0.0
 20
0.0
 30
0.0
  0
VERTEX
  5
2A282
  8
ALPHA
 10
1489.068759
 20
297.452046
 30
0.0
  0
VERTEX
  5
2A283
  8
ALPHA
 10
1489.058251
 20
297.57328
 30
0.0
  0
VERTEX
  5
2A284
  8
ALPHA
 10
1489.049431
 20
297.915291
 30
0.0
  0
VERTEX
  5
2A285
  8
ALPHA
 10
1489.043632
 20
298.418979
 30
0.0
  0
VERTEX
  5
2A286
  8
ALPHA
 10
1489.041618
 20
299.006861
 30
0.0
  0
VERTEX
  5
2A287
  8
ALPHA
 10
1489.043632
 20
299.594744
 30
0.0
  0
VERTEX
  5
2A288
  8
ALPHA
 10
1489.049431
 20
300.098432
 30
0.0
  0
VERTEX
  5
2A289
  8
ALPHA
 10
1489.058251
 20
300.440443
 30
0.0
  0
VERTEX
  5
2A28A
  8
ALPHA
 10
1489.068759
 20
300.561677
 30
0.0
  0
SEQEND
  5
2A28B
  8
ALPHA
  0
LINE
  5
26504
  8
ALPHA
 10
1489.349785
 20
319.952046
 30
0.0
 11
1489.068759
 21
319.952046
 31
0.0
  0
LINE
  5
26505
  8
ALPHA
 10
1489.068759
 20
315.561677
 30
0.0
 11
1489.349785
 21
315.561677
 31
0.0
  0
LINE
  5
26506
  8
ALPHA
 10
1489.349785
 20
312.452046
 30
0.0
 11
1489.068759
 21
312.452046
 31
0.0
  0
LINE
  5
26507
  8
ALPHA
 10
1489.068759
 20
308.061677
 30
0.0
 11
1489.349785
 21
308.061677
 31
0.0
  0
POLYLINE
  5
26508
  8
ALPHA
 66
     1
 10
0.0
 20
0.0
 30
0.0
  0
VERTEX
  5
2A28C
  8
ALPHA
 10
1489.349785
 20
315.561677
 30
0.0
  0
VERTEX
  5
2A28D
  8
ALPHA
 10
1489.360292
 20
315.440387
 30
0.0
  0
VERTEX
  5
2A28E
  8
ALPHA
 10
1489.369111
 20
315.098362
 30
0.0
  0
VERTEX
  5
2A28F
  8
ALPHA
 10
1489.374909
 20
314.594699
 30
0.0
  0
VERTEX
  5
2A290
  8
ALPHA
 10
1489.376923
 20
314.006861
 30
0.0
  0
VERTEX
  5
2A291
  8
ALPHA
 10
1489.374909
 20
313.419024
 30
0.0
  0
VERTEX
  5
2A292
  8
ALPHA
 10
1489.369111
 20
312.91536
 30
0.0
  0
VERTEX
  5
2A293
  8
ALPHA
 10
1489.360292
 20
312.573335
 30
0.0
  0
VERTEX
  5
2A294
  8
ALPHA
 10
1489.349785
 20
312.452046
 30
0.0
  0
SEQEND
  5
2A295
  8
ALPHA
  0
POLYLINE
  5
26513
  8
ALPHA
 66
     1
 10
0.0
 20
0.0
 30
0.0
  0
VERTEX
  5
2A296
  8
ALPHA
 10
1489.068759
 20
312.452046
 30
0.0
  0
VERTEX
  5
2A297
  8
ALPHA
 10
1489.058251
 20
312.57328
 30
0.0
  0
VERTEX
  5
2A298
  8
ALPHA
 10
1489.049431
 20
312.915291
 30
0.0
  0
VERTEX
  5
2A299
  8
ALPHA
 10
1489.043632
 20
313.418979
 30
0.0
  0
VERTEX
  5
2A29A
  8
ALPHA
 10
1489.041618
 20
314.006861
 30
0.0
  0
VERTEX
  5
2A29B
  8
ALPHA
 10
1489.043632
 20
314.594744
 30
0.0
  0
VERTEX
  5
2A29C
  8
ALPHA
 10
1489.049431
 20
315.098432
 30
0.0
  0
VERTEX
  5
2A29D
  8
ALPHA
 10
1489.058251
 20
315.440443
 30
0.0
  0
VERTEX
  5
2A29E
  8
ALPHA
 10
1489.068759
 20
315.561677
 30
0.0
  0
SEQEND
  5
2A29F
  8
ALPHA
  0
LINE
  5
2651E
  8
ALPHA
 10
1549.643475
 20
258.906861
 30
0.0
 11
1544.802671
 21
254.066057
 31
0.0
  0
LINE
  5
2651F
  8
ALPHA
 10
1549.173629
 20
259.376708
 30
0.0
 11
1544.332825
 21
254.535904
 31
0.0
  0
LINE
  5
26520
  8
ALPHA
 10
1544.332825
 20
254.535904
 30
0.0
 11
1544.332825
 21
280.627819
 31
0.0
  0
LINE
  5
26521
  8
ALPHA
 10
1544.273629
 20
254.006861
 30
0.0
 11
1544.273629
 21
281.156861
 31
0.0
  0
LINE
  5
26522
  8
ALPHA
 10
1525.723629
 20
243.029345
 30
0.0
 11
1525.723629
 21
286.406861
 31
0.0
  0
LINE
  5
26523
  8
ALPHA
 10
1525.473629
 20
286.656861
 30
0.0
 11
1525.473629
 21
243.163574
 31
0.0
  0
POLYLINE
  5
26524
  8
ALPHA
 66
     1
 10
0.0
 20
0.0
 30
0.0
  0
VERTEX
  5
2A2A0
  8
ALPHA
 10
1568.868969
 20
228.279759
 30
0.0
  0
VERTEX
  5
2A2A1
  8
ALPHA
 10
1561.914414
 20
227.041918
 30
0.0
  0
VERTEX
  5
2A2A2
  8
ALPHA
 10
1555.576653
 20
226.40381
 30
0.0
  0
VERTEX
  5
2A2A3
  8
ALPHA
 10
1549.853514
 20
226.320955
 30
0.0
  0
VERTEX
  5
2A2A4
  8
ALPHA
 10
1544.70713
 20
226.753892
 30
0.0
  0
VERTEX
  5
2A2A5
  8
ALPHA
 10
1540.187115
 20
227.670899
 30
0.0
  0
VERTEX
  5
2A2A6
  8
ALPHA
 10
1536.250153
 20
229.057938
 30
0.0
  0
VERTEX
  5
2A2A7
  8
ALPHA
 10
1533.158315
 20
230.690537
 30
0.0
  0
VERTEX
  5
2A2A8
  8
ALPHA
 10
1530.58171
 20
232.671046
 30
0.0
  0
VERTEX
  5
2A2A9
  8
ALPHA
 10
1528.418841
 20
235.19365
 30
0.0
  0
SEQEND
  5
2A2AA
  8
ALPHA
  0
POLYLINE
  5
26530
  8
ALPHA
 66
     1
 10
0.0
 20
0.0
 30
0.0
  0
VERTEX
  5
2A2AB
  8
ALPHA
 10
1528.623629
 20
235.406861
 30
0.0
  0
VERTEX
  5
2A2AC
  8
ALPHA
 10
1530.760042
 20
232.91415
 30
0.0
  0
VERTEX
  5
2A2AD
  8
ALPHA
 10
1533.279827
 20
230.960156
 30
0.0
  0
VERTEX
  5
2A2AE
  8
ALPHA
 10
1536.200915
 20
229.380562
 30
0.0
  0
VERTEX
  5
2A2AF
  8
ALPHA
 10
1539.561525
 20
228.126121
 30
0.0
  0
VERTEX
  5
2A2B0
  8
ALPHA
 10
1543.636922
 20
227.179393
 30
0.0
  0
VERTEX
  5
2A2B1
  8
ALPHA
 10
1548.379318
 20
226.640706
 30
0.0
  0
VERTEX
  5
2A2B2
  8
ALPHA
 10
1553.761525
 20
226.570395
 30
0.0
  0
VERTEX
  5
2A2B3
  8
ALPHA
 10
1559.616574
 20
227.004605
 30
0.0
  0
VERTEX
  5
2A2B4
  8
ALPHA
 10
1566.233276
 20
228.011964
 30
0.0
  0
SEQEND
  5
2A2B5
  8
ALPHA
  0
POLYLINE
  5
2653C
  8
ALPHA
 66
     1
 10
0.0
 20
0.0
 30
0.0
  0
VERTEX
  5
2A2B6
  8
ALPHA
 10
1528.009265
 20
234.906861
 30
0.0
  0
VERTEX
  5
2A2B7
  8
ALPHA
 10
1530.434618
 20
232.126676
 30
0.0
  0
VERTEX
  5
2A2B8
  8
ALPHA
 10
1533.741628
 20
229.759798
 30
0.0
  0
VERTEX
  5
2A2B9
  8
ALPHA
 10
1537.840835
 20
227.884745
 30
0.0
  0
VERTEX
  5
2A2BA
  8
ALPHA
 10
1542.71078
 20
226.57627
 30
0.0
  0
VERTEX
  5
2A2BB
  8
ALPHA
 10
1548.297075
 20
225.894179
 30
0.0
  0
VERTEX
  5
2A2BC
  8
ALPHA
 10
1554.560408
 20
225.851307
 30
0.0
  0
VERTEX
  5
2A2BD
  8
ALPHA
 10
1561.458039
 20
226.474801
 30
0.0
  0
VERTEX
  5
2A2BE
  8
ALPHA
 10
1568.973629
 20
227.790836
 30
0.0
  0
SEQEND
  5
2A2BF
  8
ALPHA
  0
POLYLINE
  5
26547
  8
ALPHA
 66
     1
 10
0.0
 20
0.0
 30
0.0
  0
VERTEX
  5
2A2C0
  8
ALPHA
 10
1527.813902
 20
234.77006
 30
0.0
  0
VERTEX
  5
2A2C1
  8
ALPHA
 10
1530.267242
 20
231.993989
 30
0.0
  0
VERTEX
  5
2A2C2
  8
ALPHA
 10
1533.600524
 20
229.637639
 30
0.0
  0
VERTEX
  5
2A2C3
  8
ALPHA
 10
1537.716992
 20
227.783267
 30
0.0
  0
VERTEX
  5
2A2C4
  8
ALPHA
 10
1542.607869
 20
226.496416
 30
0.0
  0
VERTEX
  5
2A2C5
  8
ALPHA
 10
1548.201531
 20
225.839413
 30
0.0
  0
VERTEX
  5
2A2C6
  8
ALPHA
 10
1554.484918
 20
225.818531
 30
0.0
  0
VERTEX
  5
2A2C7
  8
ALPHA
 10
1561.410549
 20
226.460352
 30
0.0
  0
VERTEX
  5
2A2C8
  8
ALPHA
 10
1568.973629
 20
227.790836
 30
0.0
  0
SEQEND
  5
2A2C9
  8
ALPHA
  0
CIRCLE
  5
26552
  8
ALPHA
 10
1496.573629
 20
201.506861
 30
0.0
 40
4.004288
  0
CIRCLE
  5
26553
  8
ALPHA
 10
1496.573629
 20
201.506861
 30
0.0
 40
3.754304
  0
ARC
  5
26554
  8
ALPHA
 10
1496.573629
 20
201.506861
 30
0.0
 40
3.0
 50
101.536959
 51
258.463041
  0
ARC
  5
26555
  8
ALPHA
 10
1496.573629
 20
201.506861
 30
0.0
 40
3.0
 50
281.536959
 51
78.463041
  0
ARC
  5
26556
  8
ALPHA
 10
1496.573629
 20
201.506861
 30
0.0
 40
3.5
 50
99.653406
 51
260.346594
  0
ARC
  5
26557
  8
ALPHA
 10
1496.573629
 20
201.506861
 30
0.0
 40
3.5
 50
279.653406
 51
80.346594
  0
ARC
  5
26558
  8
ALPHA
 10
1497.626908
 20
203.331194
 30
0.0
 40
0.688158
 50
193.266405
 51
286.733595
  0
ARC
  5
26559
  8
ALPHA
 10
1497.626908
 20
199.682529
 30
0.0
 40
0.688158
 50
73.266405
 51
166.733595
  0
ARC
  5
2655A
  8
ALPHA
 10
1495.52035
 20
203.331194
 30
0.0
 40
0.688158
 50
253.266405
 51
346.733595
  0
ARC
  5
2655B
  8
ALPHA
 10
1496.573629
 20
203.082861
 30
0.0
 40
0.394
 50
13.266405
 51
166.733595
  0
ARC
  5
2655C
  8
ALPHA
 10
1496.573629
 20
201.506861
 30
0.0
 40
3.5
 50
80.650837
 51
99.349163
  0
ARC
  5
2655D
  8
ALPHA
 10
1496.573629
 20
201.506861
 30
0.0
 40
3.5
 50
260.650837
 51
279.349163
  0
ARC
  5
2655E
  8
ALPHA
 10
1496.573629
 20
199.930861
 30
0.0
 40
0.394
 50
193.266405
 51
346.733595
  0
ARC
  5
2655F
  8
ALPHA
 10
1495.52035
 20
199.682529
 30
0.0
 40
0.688158
 50
13.266405
 51
106.733595
  0
ARC
  5
26560
  8
ALPHA
 10
1495.208773
 20
202.294861
 30
0.0
 40
0.394
 50
73.266405
 51
226.733595
  0
ARC
  5
26561
  8
ALPHA
 10
1495.208773
 20
200.718861
 30
0.0
 40
0.394
 50
133.266405
 51
286.733595
  0
ARC
  5
26562
  8
ALPHA
 10
1497.938485
 20
202.294861
 30
0.0
 40
0.394
 50
313.266405
 51
106.733595
  0
ARC
  5
26563
  8
ALPHA
 10
1497.938485
 20
200.718861
 30
0.0
 40
0.394
 50
253.266405
 51
46.733595
  0
ARC
  5
26564
  8
ALPHA
 10
1498.680186
 20
201.506861
 30
0.0
 40
0.688158
 50
133.266405
 51
226.733595
  0
ARC
  5
26565
  8
ALPHA
 10
1494.467071
 20
201.506861
 30
0.0
 40
0.688158
 50
313.266405
 51
46.733595
  0
LINE
  5
26566
  8
ALPHA
 10
1496.005052
 20
204.96037
 30
0.0
 11
1495.986722
 21
204.957302
 31
0.0
  0
LINE
  5
26567
  8
ALPHA
 10
1497.142206
 20
198.053353
 30
0.0
 11
1497.160536
 21
198.056421
 31
0.0
  0
LINE
  5
26568
  8
ALPHA
 10
1497.142206
 20
204.96037
 30
0.0
 11
1497.160536
 21
204.957302
 31
0.0
  0
LINE
  5
26569
  8
ALPHA
 10
1496.005052
 20
198.053353
 30
0.0
 11
1495.986722
 21
198.056421
 31
0.0
  0
POLYLINE
  5
2656A
  8
ALPHA
 66
     1
 10
0.0
 20
0.0
 30
0.0
  0
VERTEX
  5
2A2CA
  8
ALPHA
 10
1500.731879
 20
201.506861
 30
0.0
  0
VERTEX
  5
2A2CB
  8
ALPHA
 10
1500.587833
 20
200.423495
 30
0.0
  0
VERTEX
  5
2A2CC
  8
ALPHA
 10
1500.168476
 20
199.420175
 30
0.0
  0
VERTEX
  5
2A2CD
  8
ALPHA
 10
1499.506417
 20
198.564163
 30
0.0
  0
VERTEX
  5
2A2CE
  8
ALPHA
 10
1498.646823
 20
197.909514
 30
0.0
  0
VERTEX
  5
2A2CF
  8
ALPHA
 10
1497.646472
 20
197.499068
 30
0.0
  0
VERTEX
  5
2A2D0
  8
ALPHA
 10
1496.569462
 20
197.361349
 30
0.0
  0
VERTEX
  5
2A2D1
  8
ALPHA
 10
1495.492154
 20
197.508479
 30
0.0
  0
VERTEX
  5
2A2D2
  8
ALPHA
 10
1494.490442
 20
197.930567
 30
0.0
  0
VERTEX
  5
2A2D3
  8
ALPHA
 10
1493.635989
 20
198.595444
 30
0.0
  0
VERTEX
  5
2A2D4
  8
ALPHA
 10
1492.985484
 20
199.454251
 30
0.0
  0
VERTEX
  5
2A2D5
  8
ALPHA
 10
1492.579426
 20
200.447168
 30
0.0
  0
VERTEX
  5
2A2D6
  8
ALPHA
 10
1492.441713
 20
201.506861
 30
0.0
  0
SEQEND
  5
2A2D7
  8
ALPHA
  0
POLYLINE
  5
26579
  8
ALPHA
 66
     1
 10
0.0
 20
0.0
 30
0.0
  0
VERTEX
  5
2A2D8
  8
ALPHA
 10
1492.441713
 20
201.506861
 30
0.0
  0
VERTEX
  5
2A2D9
  8
ALPHA
 10
1492.584737
 20
202.586445
 30
0.0
  0
VERTEX
  5
2A2DA
  8
ALPHA
 10
1493.002111
 20
203.588379
 30
0.0
  0
VERTEX
  5
2A2DB
  8
ALPHA
 10
1493.662441
 20
204.444854
 30
0.0
  0
VERTEX
  5
2A2DC
  8
ALPHA
 10
1494.521157
 20
205.100988
 30
0.0
  0
VERTEX
  5
2A2DD
  8
ALPHA
 10
1495.521441
 20
205.513148
 30
0.0
  0
VERTEX
  5
2A2DE
  8
ALPHA
 10
1496.598579
 20
205.652393
 30
0.0
  0
VERTEX
  5
2A2DF
  8
ALPHA
 10
1497.67581
 20
205.50678
 30
0.0
  0
VERTEX
  5
2A2E0
  8
ALPHA
 10
1498.677587
 20
205.086412
 30
0.0
  0
VERTEX
  5
2A2E1
  8
ALPHA
 10
1499.53293
 20
204.423009
 30
0.0
  0
VERTEX
  5
2A2E2
  8
ALPHA
 10
1500.185353
 20
203.564299
 30
0.0
  0
VERTEX
  5
2A2E3
  8
ALPHA
 10
1500.593346
 20
202.56965
 30
0.0
  0
VERTEX
  5
2A2E4
  8
ALPHA
 10
1500.731879
 20
201.506861
 30
0.0
  0
SEQEND
  5
2A2E5
  8
ALPHA
  0
POLYLINE
  5
26588
  8
ALPHA
 66
     1
 10
0.0
 20
0.0
 30
0.0
  0
VERTEX
  5
2A2E6
  8
ALPHA
 10
1497.173629
 20
198.567474
 30
0.0
  0
VERTEX
  5
2A2E7
  8
ALPHA
 10
1497.173174
 20
198.434236
 30
0.0
  0
VERTEX
  5
2A2E8
  8
ALPHA
 10
1497.171851
 20
198.310824
 30
0.0
  0
VERTEX
  5
2A2E9
  8
ALPHA
 10
1497.169758
 20
198.205319
 30
0.0
  0
VERTEX
  5
2A2EA
  8
ALPHA
 10
1497.167042
 20
198.124637
 30
0.0
  0
VERTEX
  5
2A2EB
  8
ALPHA
 10
1497.163895
 20
198.073975
 30
0.0
  0
VERTEX
  5
2A2EC
  8
ALPHA
 10
1497.160536
 20
198.056421
 30
0.0
  0
SEQEND
  5
2A2ED
  8
ALPHA
  0
POLYLINE
  5
26591
  8
ALPHA
 66
     1
 10
0.0
 20
0.0
 30
0.0
  0
VERTEX
  5
2A2EE
  8
ALPHA
 10
1495.973629
 20
204.446249
 30
0.0
  0
VERTEX
  5
2A2EF
  8
ALPHA
 10
1495.974083
 20
204.579487
 30
0.0
  0
VERTEX
  5
2A2F0
  8
ALPHA
 10
1495.975406
 20
204.702899
 30
0.0
  0
VERTEX
  5
2A2F1
  8
ALPHA
 10
1495.9775
 20
204.808404
 30
0.0
  0
VERTEX
  5
2A2F2
  8
ALPHA
 10
1495.980215
 20
204.889085
 30
0.0
  0
VERTEX
  5
2A2F3
  8
ALPHA
 10
1495.983362
 20
204.939748
 30
0.0
  0
VERTEX
  5
2A2F4
  8
ALPHA
 10
1495.986722
 20
204.957302
 30
0.0
  0
SEQEND
  5
2A2F5
  8
ALPHA
  0
LINE
  5
2659A
  8
ALPHA
 10
1497.173629
 20
202.813411
 30
0.0
 11
1497.173629
 21
204.446249
 31
0.0
  0
LINE
  5
2659B
  8
ALPHA
 10
1497.173629
 20
198.567474
 30
0.0
 11
1497.173629
 21
200.200312
 31
0.0
  0
LINE
  5
2659C
  8
ALPHA
 10
1497.142206
 20
202.842701
 30
0.0
 11
1497.142206
 21
204.96037
 31
0.0
  0
LINE
  5
2659D
  8
ALPHA
 10
1497.142206
 20
198.053353
 30
0.0
 11
1497.142206
 21
200.171021
 31
0.0
  0
LINE
  5
2659E
  8
ALPHA
 10
1496.005052
 20
202.842701
 30
0.0
 11
1496.005052
 21
204.96037
 31
0.0
  0
LINE
  5
2659F
  8
ALPHA
 10
1496.005052
 20
198.053353
 30
0.0
 11
1496.005052
 21
200.171021
 31
0.0
  0
LINE
  5
265A0
  8
ALPHA
 10
1495.973629
 20
202.813411
 30
0.0
 11
1495.973629
 21
204.446249
 31
0.0
  0
LINE
  5
265A1
  8
ALPHA
 10
1495.973629
 20
198.567474
 30
0.0
 11
1495.973629
 21
200.200312
 31
0.0
  0
POLYLINE
  5
265A2
  8
ALPHA
 66
     1
 10
0.0
 20
0.0
 30
0.0
  0
VERTEX
  5
2A2F6
  8
ALPHA
 10
1497.173629
 20
204.446249
 30
0.0
  0
VERTEX
  5
2A2F7
  8
ALPHA
 10
1497.173174
 20
204.579487
 30
0.0
  0
VERTEX
  5
2A2F8
  8
ALPHA
 10
1497.171851
 20
204.702899
 30
0.0
  0
VERTEX
  5
2A2F9
  8
ALPHA
 10
1497.169758
 20
204.808404
 30
0.0
  0
VERTEX
  5
2A2FA
  8
ALPHA
 10
1497.167042
 20
204.889085
 30
0.0
  0
VERTEX
  5
2A2FB
  8
ALPHA
 10
1497.163895
 20
204.939748
 30
0.0
  0
VERTEX
  5
2A2FC
  8
ALPHA
 10
1497.160536
 20
204.957302
 30
0.0
  0
SEQEND
  5
2A2FD
  8
ALPHA
  0
POLYLINE
  5
265AB
  8
ALPHA
 66
     1
 10
0.0
 20
0.0
 30
0.0
  0
VERTEX
  5
2A2FE
  8
ALPHA
 10
1495.973629
 20
198.567474
 30
0.0
  0
VERTEX
  5
2A2FF
  8
ALPHA
 10
1495.974083
 20
198.434236
 30
0.0
  0
VERTEX
  5
2A300
  8
ALPHA
 10
1495.975406
 20
198.310824
 30
0.0
  0
VERTEX
  5
2A301
  8
ALPHA
 10
1495.9775
 20
198.205319
 30
0.0
  0
VERTEX
  5
2A302
  8
ALPHA
 10
1495.980215
 20
198.124637
 30
0.0
  0
VERTEX
  5
2A303
  8
ALPHA
 10
1495.983362
 20
198.073975
 30
0.0
  0
VERTEX
  5
2A304
  8
ALPHA
 10
1495.986722
 20
198.056421
 30
0.0
  0
SEQEND
  5
2A305
  8
ALPHA
  0
POLYLINE
  5
265B4
  8
ALPHA
 66
     1
 10
0.0
 20
0.0
 30
0.0
  0
VERTEX
  5
2A306
  8
ALPHA
 10
1524.973629
 20
243.132119
 30
0.0
  0
VERTEX
  5
2A307
  8
ALPHA
 10
1525.568374
 20
240.066254
 30
0.0
  0
VERTEX
  5
2A308
  8
ALPHA
 10
1526.552799
 20
237.399294
 30
0.0
  0
VERTEX
  5
2A309
  8
ALPHA
 10
1528.009265
 20
234.906861
 30
0.0
  0
SEQEND
  5
2A30A
  8
ALPHA
  0
POLYLINE
  5
265BA
  8
ALPHA
 66
     1
 10
0.0
 20
0.0
 30
0.0
  0
VERTEX
  5
2A30B
  8
ALPHA
 10
1524.697575
 20
243.114306
 30
0.0
  0
VERTEX
  5
2A30C
  8
ALPHA
 10
1525.300179
 20
240.025438
 30
0.0
  0
VERTEX
  5
2A30D
  8
ALPHA
 10
1526.311845
 20
237.310649
 30
0.0
  0
VERTEX
  5
2A30E
  8
ALPHA
 10
1527.813902
 20
234.77006
 30
0.0
  0
SEQEND
  5
2A30F
  8
ALPHA
  0
POLYLINE
  5
265C0
  8
ALPHA
 66
     1
 10
0.0
 20
0.0
 30
0.0
  0
VERTEX
  5
2A310
  8
ALPHA
 10
1525.723629
 20
243.029345
 30
0.0
  0
VERTEX
  5
2A311
  8
ALPHA
 10
1526.328707
 20
240.164993
 30
0.0
  0
VERTEX
  5
2A312
  8
ALPHA
 10
1527.261675
 20
237.721366
 30
0.0
  0
VERTEX
  5
2A313
  8
ALPHA
 10
1528.623629
 20
235.406861
 30
0.0
  0
SEQEND
  5
2A314
  8
ALPHA
  0
POLYLINE
  5
265C6
  8
ALPHA
 66
     1
 10
0.0
 20
0.0
 30
0.0
  0
VERTEX
  5
2A315
  8
ALPHA
 10
1528.418841
 20
235.19365
 30
0.0
  0
VERTEX
  5
2A316
  8
ALPHA
 10
1526.997362
 20
237.626116
 30
0.0
  0
VERTEX
  5
2A317
  8
ALPHA
 10
1526.04879
 20
240.201329
 30
0.0
  0
VERTEX
  5
2A318
  8
ALPHA
 10
1525.473629
 20
243.163574
 30
0.0
  0
SEQEND
  5
2A319
  8
ALPHA
  0
LINE
  5
265CC
  8
ALPHA
 10
1528.009265
 20
234.906861
 30
0.0
 11
1527.813902
 21
234.77006
 31
0.0
  0
LINE
  5
265CD
  8
ALPHA
 10
1524.973629
 20
243.132119
 30
0.0
 11
1524.697575
 21
243.114306
 31
0.0
  0
CIRCLE
  5
265CE
  8
ALPHA
 10
1560.523629
 20
243.706861
 30
0.0
 40
4.0
  0
LINE
  5
265CF
  8
ALPHA
 10
1557.523629
 20
244.706861
 30
0.0
 11
1563.523629
 21
244.706861
 31
0.0
  0
LINE
  5
265D0
  8
ALPHA
 10
1563.523629
 20
244.706861
 30
0.0
 11
1560.523629
 21
241.706861
 31
0.0
  0
CIRCLE
  5
265D1
  8
ALPHA
 10
1548.723629
 20
243.706861
 30
0.0
 40
4.0
  0
LINE
  5
265D2
  8
ALPHA
 10
1551.723629
 20
242.706861
 30
0.0
 11
1545.723629
 21
242.706861
 31
0.0
  0
LINE
  5
265D3
  8
ALPHA
 10
1548.723629
 20
245.706861
 30
0.0
 11
1551.723629
 21
242.706861
 31
0.0
  0
LINE
  5
265D4
  8
ALPHA
 10
1544.802671
 20
254.066057
 30
0.0
 11
1544.562139
 21
254.128187
 31
0.0
  0
LINE
  5
265D5
  8
ALPHA
 10
1545.723629
 20
242.706861
 30
0.0
 11
1548.723629
 21
245.706861
 31
0.0
  0
LINE
  5
265D6
  8
ALPHA
 10
1544.394954
 20
254.295371
 30
0.0
 11
1544.332825
 21
254.535904
 31
0.0
  0
LINE
  5
265D7
  8
ALPHA
 10
1544.562139
 20
254.128187
 30
0.0
 11
1544.394954
 21
254.295371
 31
0.0
  0
LINE
  5
265D8
  8
ALPHA
 10
1560.523629
 20
241.706861
 30
0.0
 11
1557.523629
 21
244.706861
 31
0.0
  0
CIRCLE
  5
265D9
  8
ALPHA
 10
1572.323629
 20
243.706861
 30
0.0
 40
4.0
  0
LINE
  5
265DA
  8
ALPHA
 10
1572.908004
 20
242.080264
 30
0.0
 11
1572.76217
 21
241.93133
 31
0.0
  0
LINE
  5
265DB
  8
ALPHA
 10
1572.835087
 20
242.527076
 30
0.0
 11
1572.908004
 21
242.75048
 31
0.0
  0
LINE
  5
265DC
  8
ALPHA
 10
1572.908004
 20
242.973883
 30
0.0
 11
1572.835087
 21
243.197287
 31
0.0
  0
LINE
  5
265DD
  8
ALPHA
 10
1572.871545
 20
245.058989
 30
0.0
 11
1572.98092
 21
244.761115
 31
0.0
  0
LINE
  5
265DE
  8
ALPHA
 10
1572.76217
 20
243.793032
 30
0.0
 11
1572.908004
 21
243.644095
 31
0.0
  0
LINE
  5
265DF
  8
ALPHA
 10
1573.017379
 20
244.537711
 30
0.0
 11
1572.798629
 21
244.537711
 31
0.0
  0
LINE
  5
265E0
  8
ALPHA
 10
1572.798629
 20
244.537711
 30
0.0
 11
1572.76217
 21
244.686648
 31
0.0
  0
LINE
  5
265E1
  8
ALPHA
 10
1572.76217
 20
241.93133
 30
0.0
 11
1572.579879
 21
241.85686
 31
0.0
  0
LINE
  5
265E2
  8
ALPHA
 10
1572.579879
 20
242.303672
 30
0.0
 11
1572.725712
 21
242.378138
 31
0.0
  0
LINE
  5
265E3
  8
ALPHA
 10
1572.215295
 20
245.282393
 30
0.0
 11
1572.361129
 21
245.35686
 31
0.0
  0
LINE
  5
265E4
  8
ALPHA
 10
1572.361129
 20
244.910052
 30
0.0
 11
1572.251754
 21
244.835585
 31
0.0
  0
LINE
  5
265E5
  8
ALPHA
 10
1572.069462
 20
245.133456
 30
0.0
 11
1572.215295
 21
245.282393
 31
0.0
  0
LINE
  5
265E6
  8
ALPHA
 10
1572.725712
 20
242.378138
 30
0.0
 11
1572.835087
 21
242.527076
 31
0.0
  0
LINE
  5
265E7
  8
ALPHA
 10
1572.251754
 20
244.835585
 30
0.0
 11
1572.142379
 21
244.686648
 31
0.0
  0
LINE
  5
265E8
  8
ALPHA
 10
1571.923629
 20
244.835585
 30
0.0
 11
1572.069462
 21
245.133456
 31
0.0
  0
LINE
  5
265E9
  8
ALPHA
 10
1572.142379
 20
244.686648
 30
0.0
 11
1572.10592
 21
244.463244
 31
0.0
  0
LINE
  5
265EA
  8
ALPHA
 10
1571.88717
 20
244.537711
 30
0.0
 11
1571.923629
 21
244.835585
 31
0.0
  0
LINE
  5
265EB
  8
ALPHA
 10
1572.10592
 20
244.463244
 30
0.0
 11
1572.10592
 21
244.314307
 31
0.0
  0
LINE
  5
265EC
  8
ALPHA
 10
1571.88717
 20
244.23984
 30
0.0
 11
1571.88717
 21
244.537711
 31
0.0
  0
LINE
  5
265ED
  8
ALPHA
 10
1571.486129
 20
242.303672
 30
0.0
 11
1571.486129
 21
241.85686
 31
0.0
  0
LINE
  5
265EE
  8
ALPHA
 10
1571.486129
 20
245.35686
 30
0.0
 11
1571.486129
 21
244.910052
 31
0.0
  0
LINE
  5
265EF
  8
ALPHA
 10
1571.340295
 20
243.941966
 30
0.0
 11
1571.340295
 21
243.495158
 31
0.0
  0
LINE
  5
265F0
  8
ALPHA
 10
1571.923629
 20
243.941966
 30
0.0
 11
1571.88717
 21
244.23984
 31
0.0
  0
LINE
  5
265F1
  8
ALPHA
 10
1571.814254
 20
242.527076
 30
0.0
 11
1571.777795
 21
242.824946
 31
0.0
  0
LINE
  5
265F2
  8
ALPHA
 10
1572.10592
 20
244.314307
 30
0.0
 11
1572.142379
 21
244.090903
 31
0.0
  0
LINE
  5
265F3
  8
ALPHA
 10
1571.996545
 20
242.824946
 30
0.0
 11
1572.033004
 21
242.601542
 31
0.0
  0
LINE
  5
265F4
  8
ALPHA
 10
1571.923629
 20
242.154734
 30
0.0
 11
1571.814254
 21
242.527076
 31
0.0
  0
LINE
  5
265F5
  8
ALPHA
 10
1572.76217
 20
244.686648
 30
0.0
 11
1572.689254
 21
244.835585
 31
0.0
  0
LINE
  5
265F6
  8
ALPHA
 10
1572.069462
 20
243.644095
 30
0.0
 11
1571.923629
 21
243.941966
 31
0.0
  0
LINE
  5
265F7
  8
ALPHA
 10
1572.033004
 20
242.601542
 30
0.0
 11
1572.142379
 21
242.378138
 31
0.0
  0
LINE
  5
265F8
  8
ALPHA
 10
1572.725712
 20
245.282393
 30
0.0
 11
1572.871545
 21
245.058989
 31
0.0
  0
LINE
  5
265F9
  8
ALPHA
 10
1572.835087
 20
243.197287
 30
0.0
 11
1572.725712
 21
243.346225
 31
0.0
  0
LINE
  5
265FA
  8
ALPHA
 10
1572.142379
 20
244.090903
 30
0.0
 11
1572.251754
 21
243.941966
 31
0.0
  0
LINE
  5
265FB
  8
ALPHA
 10
1572.10592
 20
241.93133
 30
0.0
 11
1571.923629
 21
242.154734
 31
0.0
  0
LINE
  5
265FC
  8
ALPHA
 10
1572.215295
 20
243.495158
 30
0.0
 11
1572.069462
 21
243.644095
 31
0.0
  0
LINE
  5
265FD
  8
ALPHA
 10
1572.689254
 20
244.835585
 30
0.0
 11
1572.579879
 21
244.910052
 31
0.0
  0
LINE
  5
265FE
  8
ALPHA
 10
1572.251754
 20
243.941966
 30
0.0
 11
1572.361129
 21
243.867499
 31
0.0
  0
LINE
  5
265FF
  8
ALPHA
 10
1572.725712
 20
243.346225
 30
0.0
 11
1572.579879
 21
243.420691
 31
0.0
  0
LINE
  5
26600
  8
ALPHA
 10
1572.361129
 20
243.420691
 30
0.0
 11
1572.215295
 21
243.495158
 31
0.0
  0
LINE
  5
26601
  8
ALPHA
 10
1572.142379
 20
242.378138
 30
0.0
 11
1572.288212
 21
242.303672
 31
0.0
  0
LINE
  5
26602
  8
ALPHA
 10
1572.54342
 20
245.35686
 30
0.0
 11
1572.725712
 21
245.282393
 31
0.0
  0
LINE
  5
26603
  8
ALPHA
 10
1572.579879
 20
243.867499
 30
0.0
 11
1572.76217
 21
243.793032
 31
0.0
  0
LINE
  5
26604
  8
ALPHA
 10
1572.288212
 20
241.85686
 30
0.0
 11
1572.10592
 21
241.93133
 31
0.0
  0
LINE
  5
26605
  8
ALPHA
 10
1572.361129
 20
245.35686
 30
0.0
 11
1572.54342
 21
245.35686
 31
0.0
  0
LINE
  5
26606
  8
ALPHA
 10
1570.173629
 20
245.35686
 30
0.0
 11
1571.486129
 21
245.35686
 31
0.0
  0
LINE
  5
26607
  8
ALPHA
 10
1571.486129
 20
244.910052
 30
0.0
 11
1570.392379
 21
244.910052
 31
0.0
  0
LINE
  5
26608
  8
ALPHA
 10
1572.579879
 20
244.910052
 30
0.0
 11
1572.361129
 21
244.910052
 31
0.0
  0
LINE
  5
26609
  8
ALPHA
 10
1570.392379
 20
243.941966
 30
0.0
 11
1571.340295
 21
243.941966
 31
0.0
  0
LINE
  5
2660A
  8
ALPHA
 10
1572.361129
 20
243.867499
 30
0.0
 11
1572.579879
 21
243.867499
 31
0.0
  0
LINE
  5
2660B
  8
ALPHA
 10
1571.340295
 20
243.495158
 30
0.0
 11
1570.392379
 21
243.495158
 31
0.0
  0
LINE
  5
2660C
  8
ALPHA
 10
1572.579879
 20
243.420691
 30
0.0
 11
1572.361129
 21
243.420691
 31
0.0
  0
LINE
  5
2660D
  8
ALPHA
 10
1571.777795
 20
242.824946
 30
0.0
 11
1571.996545
 21
242.824946
 31
0.0
  0
LINE
  5
2660E
  8
ALPHA
 10
1572.288212
 20
242.303672
 30
0.0
 11
1572.579879
 21
242.303672
 31
0.0
  0
LINE
  5
2660F
  8
ALPHA
 10
1570.392379
 20
242.303672
 30
0.0
 11
1571.486129
 21
242.303672
 31
0.0
  0
LINE
  5
26610
  8
ALPHA
 10
1571.486129
 20
241.85686
 30
0.0
 11
1570.173629
 21
241.85686
 31
0.0
  0
LINE
  5
26611
  8
ALPHA
 10
1572.579879
 20
241.85686
 30
0.0
 11
1572.288212
 21
241.85686
 31
0.0
  0
LINE
  5
26612
  8
ALPHA
 10
1570.392379
 20
243.495158
 30
0.0
 11
1570.392379
 21
242.303672
 31
0.0
  0
LINE
  5
26613
  8
ALPHA
 10
1570.392379
 20
244.910052
 30
0.0
 11
1570.392379
 21
243.941966
 31
0.0
  0
LINE
  5
26614
  8
ALPHA
 10
1570.173629
 20
241.85686
 30
0.0
 11
1570.173629
 21
245.35686
 31
0.0
  0
LINE
  5
26615
  8
ALPHA
 10
1573.63717
 20
243.04835
 30
0.0
 11
1573.673629
 21
242.75048
 31
0.0
  0
LINE
  5
26616
  8
ALPHA
 10
1574.621545
 20
244.463244
 30
0.0
 11
1574.585087
 21
244.686648
 31
0.0
  0
LINE
  5
26617
  8
ALPHA
 10
1572.98092
 20
244.761115
 30
0.0
 11
1573.017379
 21
244.537711
 31
0.0
  0
LINE
  5
26618
  8
ALPHA
 10
1573.527795
 20
242.378138
 30
0.0
 11
1573.454879
 21
242.676009
 31
0.0
  0
LINE
  5
26619
  8
ALPHA
 10
1573.053837
 20
243.346225
 30
0.0
 11
1573.126754
 21
243.04835
 31
0.0
  0
LINE
  5
2661A
  8
ALPHA
 10
1574.658004
 20
245.133456
 30
0.0
 11
1574.803837
 21
244.835585
 31
0.0
  0
LINE
  5
2661B
  8
ALPHA
 10
1574.51217
 20
241.93133
 30
0.0
 11
1574.329879
 21
241.85686
 31
0.0
  0
LINE
  5
2661C
  8
ALPHA
 10
1573.819462
 20
245.282393
 30
0.0
 11
1574.001754
 21
245.35686
 31
0.0
  0
LINE
  5
2661D
  8
ALPHA
 10
1574.329879
 20
242.303672
 30
0.0
 11
1574.475712
 21
242.378138
 31
0.0
  0
LINE
  5
2661E
  8
ALPHA
 10
1574.001754
 20
244.910052
 30
0.0
 11
1573.85592
 21
244.835585
 31
0.0
  0
LINE
  5
2661F
  8
ALPHA
 10
1574.658004
 20
242.080264
 30
0.0
 11
1574.51217
 21
241.93133
 31
0.0
  0
LINE
  5
26620
  8
ALPHA
 10
1573.673629
 20
245.133456
 30
0.0
 11
1573.819462
 21
245.282393
 31
0.0
  0
LINE
  5
26621
  8
ALPHA
 10
1574.475712
 20
242.378138
 30
0.0
 11
1574.585087
 21
242.527076
 31
0.0
  0
LINE
  5
26622
  8
ALPHA
 10
1573.85592
 20
244.835585
 30
0.0
 11
1573.746545
 21
244.686648
 31
0.0
  0
LINE
  5
26623
  8
ALPHA
 10
1574.803837
 20
242.378138
 30
0.0
 11
1574.658004
 21
242.080264
 31
0.0
  0
LINE
  5
26624
  8
ALPHA
 10
1573.053837
 20
242.378138
 30
0.0
 11
1572.908004
 21
242.080264
 31
0.0
  0
LINE
  5
26625
  8
ALPHA
 10
1573.527795
 20
244.835585
 30
0.0
 11
1573.673629
 21
245.133456
 31
0.0
  0
LINE
  5
26626
  8
ALPHA
 10
1573.746545
 20
244.686648
 30
0.0
 11
1573.673629
 21
244.463244
 31
0.0
  0
LINE
  5
26627
  8
ALPHA
 10
1573.126754
 20
242.676009
 30
0.0
 11
1573.053837
 21
242.378138
 31
0.0
  0
LINE
  5
26628
  8
ALPHA
 10
1573.454879
 20
244.537711
 30
0.0
 11
1573.527795
 21
244.835585
 31
0.0
  0
LINE
  5
26629
  8
ALPHA
 10
1574.585087
 20
242.527076
 30
0.0
 11
1574.621545
 21
242.75048
 31
0.0
  0
LINE
  5
2662A
  8
ALPHA
 10
1573.673629
 20
244.463244
 30
0.0
 11
1573.63717
 21
244.165374
 31
0.0
  0
LINE
  5
2662B
  8
ALPHA
 10
1574.840295
 20
242.75048
 30
0.0
 11
1574.803837
 21
242.378138
 31
0.0
  0
LINE
  5
2662C
  8
ALPHA
 10
1573.41842
 20
244.165374
 30
0.0
 11
1573.454879
 21
244.537711
 31
0.0
  0
LINE
  5
2662D
  8
ALPHA
 10
1583.796545
 20
244.910052
 30
0.0
 11
1583.796545
 21
241.85686
 31
0.0
  0
LINE
  5
2662E
  8
ALPHA
 10
1583.577795
 20
241.85686
 30
0.0
 11
1583.577795
 21
245.35686
 31
0.0
  0
LINE
  5
2662F
  8
ALPHA
 10
1583.286128
 20
242.303672
 30
0.0
 11
1583.286128
 21
241.85686
 31
0.0
  0
LINE
  5
26630
  8
ALPHA
 10
1583.286128
 20
245.35686
 30
0.0
 11
1583.286128
 21
244.910052
 31
0.0
  0
LINE
  5
26631
  8
ALPHA
 10
1583.140295
 20
243.941966
 30
0.0
 11
1583.140295
 21
243.495158
 31
0.0
  0
LINE
  5
26632
  8
ALPHA
 10
1582.192378
 20
243.495158
 30
0.0
 11
1582.192378
 21
242.303672
 31
0.0
  0
LINE
  5
26633
  8
ALPHA
 10
1582.192378
 20
244.910052
 30
0.0
 11
1582.192378
 21
243.941966
 31
0.0
  0
LINE
  5
26634
  8
ALPHA
 10
1581.973628
 20
241.85686
 30
0.0
 11
1581.973628
 21
245.35686
 31
0.0
  0
LINE
  5
26635
  8
ALPHA
 10
1573.63717
 20
244.165374
 30
0.0
 11
1573.63717
 21
243.04835
 31
0.0
  0
LINE
  5
26636
  8
ALPHA
 10
1573.41842
 20
243.04835
 30
0.0
 11
1573.41842
 21
244.165374
 31
0.0
  0
LINE
  5
26637
  8
ALPHA
 10
1573.126754
 20
243.04835
 30
0.0
 11
1573.126754
 21
242.676009
 31
0.0
  0
LINE
  5
26638
  8
ALPHA
 10
1572.908004
 20
242.75048
 30
0.0
 11
1572.908004
 21
242.973883
 31
0.0
  0
LINE
  5
26639
  8
ALPHA
 10
1574.803837
 20
244.835585
 30
0.0
 11
1574.840295
 21
244.463244
 31
0.0
  0
LINE
  5
2663A
  8
ALPHA
 10
1573.454879
 20
242.676009
 30
0.0
 11
1573.41842
 21
243.04835
 31
0.0
  0
LINE
  5
2663B
  8
ALPHA
 10
1573.673629
 20
242.75048
 30
0.0
 11
1573.746545
 21
242.527076
 31
0.0
  0
LINE
  5
2663C
  8
ALPHA
 10
1573.673629
 20
242.080264
 30
0.0
 11
1573.527795
 21
242.378138
 31
0.0
  0
LINE
  5
2663D
  8
ALPHA
 10
1572.908004
 20
243.644095
 30
0.0
 11
1573.053837
 21
243.346225
 31
0.0
  0
LINE
  5
2663E
  8
ALPHA
 10
1574.585087
 20
244.686648
 30
0.0
 11
1574.475712
 21
244.835585
 31
0.0
  0
LINE
  5
2663F
  8
ALPHA
 10
1573.746545
 20
242.527076
 30
0.0
 11
1573.85592
 21
242.378138
 31
0.0
  0
LINE
  5
26640
  8
ALPHA
 10
1574.51217
 20
245.282393
 30
0.0
 11
1574.658004
 21
245.133456
 31
0.0
  0
LINE
  5
26641
  8
ALPHA
 10
1573.819462
 20
241.93133
 30
0.0
 11
1573.673629
 21
242.080264
 31
0.0
  0
LINE
  5
26642
  8
ALPHA
 10
1574.475712
 20
244.835585
 30
0.0
 11
1574.329879
 21
244.910052
 31
0.0
  0
LINE
  5
26643
  8
ALPHA
 10
1573.85592
 20
242.378138
 30
0.0
 11
1574.001754
 21
242.303672
 31
0.0
  0
LINE
  5
26644
  8
ALPHA
 10
1574.329879
 20
245.35686
 30
0.0
 11
1574.51217
 21
245.282393
 31
0.0
  0
LINE
  5
26645
  8
ALPHA
 10
1574.001754
 20
241.85686
 30
0.0
 11
1573.819462
 21
241.93133
 31
0.0
  0
LINE
  5
26646
  8
ALPHA
 10
1583.577795
 20
245.35686
 30
0.0
 11
1583.90592
 21
245.35686
 31
0.0
  0
LINE
  5
26647
  8
ALPHA
 10
1581.973628
 20
245.35686
 30
0.0
 11
1583.286128
 21
245.35686
 31
0.0
  0
LINE
  5
26648
  8
ALPHA
 10
1574.001754
 20
245.35686
 30
0.0
 11
1574.329879
 21
245.35686
 31
0.0
  0
LINE
  5
26649
  8
ALPHA
 10
1574.329879
 20
244.910052
 30
0.0
 11
1574.001754
 21
244.910052
 31
0.0
  0
LINE
  5
2664A
  8
ALPHA
 10
1583.286128
 20
244.910052
 30
0.0
 11
1582.192378
 21
244.910052
 31
0.0
  0
LINE
  5
2664B
  8
ALPHA
 10
1574.840295
 20
244.463244
 30
0.0
 11
1574.621545
 21
244.463244
 31
0.0
  0
LINE
  5
2664C
  8
ALPHA
 10
1582.192378
 20
243.941966
 30
0.0
 11
1583.140295
 21
243.941966
 31
0.0
  0
LINE
  5
2664D
  8
ALPHA
 10
1583.140295
 20
243.495158
 30
0.0
 11
1582.192378
 21
243.495158
 31
0.0
  0
LINE
  5
2664E
  8
ALPHA
 10
1574.621545
 20
242.75048
 30
0.0
 11
1574.840295
 21
242.75048
 31
0.0
  0
LINE
  5
2664F
  8
ALPHA
 10
1582.192378
 20
242.303672
 30
0.0
 11
1583.286128
 21
242.303672
 31
0.0
  0
LINE
  5
26650
  8
ALPHA
 10
1574.001754
 20
242.303672
 30
0.0
 11
1574.329879
 21
242.303672
 31
0.0
  0
LINE
  5
26651
  8
ALPHA
 10
1574.329879
 20
241.85686
 30
0.0
 11
1574.001754
 21
241.85686
 31
0.0
  0
LINE
  5
26652
  8
ALPHA
 10
1583.286128
 20
241.85686
 30
0.0
 11
1581.973628
 21
241.85686
 31
0.0
  0
LINE
  5
26653
  8
ALPHA
 10
1583.796545
 20
241.85686
 30
0.0
 11
1583.577795
 21
241.85686
 31
0.0
  0
LINE
  5
26654
  8
ALPHA
 10
1526.023629
 20
294.156861
 30
0.0
 11
1526.023629
 21
289.156861
 31
0.0
  0
LINE
  5
26655
  8
ALPHA
 10
1525.473629
 20
295.656861
 30
0.0
 11
1525.473629
 21
287.656861
 31
0.0
  0
ARC
  5
26656
  8
ALPHA
 10
1527.023629
 20
289.156861
 30
0.0
 40
1.0
 50
180.0
 51
270.0
  0
LINE
  5
26657
  8
ALPHA
 10
1525.473629
 20
308.656861
 30
0.0
 11
1525.473629
 21
296.656861
 31
0.0
  0
ARC
  5
26658
  8
ALPHA
 10
1527.023629
 20
294.156861
 30
0.0
 40
1.0
 50
90.0
 51
180.0
  0
LINE
  5
26659
  8
ALPHA
 10
1569.315297
 20
289.156861
 30
0.0
 11
1568.898629
 21
290.433457
 31
0.0
  0
LINE
  5
2665A
  8
ALPHA
 10
1568.273629
 20
294.156861
 30
0.0
 11
1569.940297
 21
289.156861
 31
0.0
  0
LINE
  5
2665B
  8
ALPHA
 10
1565.773629
 20
289.156861
 30
0.0
 11
1567.440297
 21
294.156861
 31
0.0
  0
LINE
  5
2665C
  8
ALPHA
 10
1566.815297
 20
290.433457
 30
0.0
 11
1566.398629
 21
289.156861
 31
0.0
  0
LINE
  5
2665D
  8
ALPHA
 10
1549.643475
 20
276.256861
 30
0.0
 11
1583.203782
 21
276.256861
 31
0.0
  0
LINE
  5
2665E
  8
ALPHA
 10
1580.773629
 20
273.996861
 30
0.0
 11
1550.753629
 21
273.996861
 31
0.0
  0
LINE
  5
2665F
  8
ALPHA
 10
1561.389404
 20
271.15345
 30
0.0
 11
1560.958809
 21
271.801195
 31
0.0
  0
LINE
  5
26660
  8
ALPHA
 10
1550.753629
 20
261.196861
 30
0.0
 11
1580.773629
 21
261.196861
 31
0.0
  0
LINE
  5
26661
  8
ALPHA
 10
1583.203782
 20
258.906861
 30
0.0
 11
1549.643475
 21
258.906861
 31
0.0
  0
LINE
  5
26662
  8
ALPHA
 10
1560.932545
 20
268.562474
 30
0.0
 11
1561.448038
 21
269.426133
 31
0.0
  0
LINE
  5
26663
  8
ALPHA
 10
1550.753629
 20
273.996861
 30
0.0
 11
1550.753629
 21
261.196861
 31
0.0
  0
LINE
  5
26664
  8
ALPHA
 10
1549.173629
 20
259.376708
 30
0.0
 11
1549.173629
 21
275.787015
 31
0.0
  0
POLYLINE
  5
26665
  8
ALPHA
 66
     1
 10
0.0
 20
0.0
 30
0.0
  0
VERTEX
  5
2A31A
  8
ALPHA
 10
1549.173629
 20
259.376708
 30
0.0
  0
VERTEX
  5
2A31B
  8
ALPHA
 10
1549.235758
 20
259.136175
 30
0.0
  0
VERTEX
  5
2A31C
  8
ALPHA
 10
1549.402943
 20
258.968991
 30
0.0
  0
VERTEX
  5
2A31D
  8
ALPHA
 10
1549.643475
 20
258.906861
 30
0.0
  0
SEQEND
  5
2A31E
  8
ALPHA
  0
LINE
  5
2666B
  8
ALPHA
 10
1560.165007
 20
272.448939
 30
0.0
 11
1559.295061
 21
272.664853
 31
0.0
  0
LINE
  5
2666C
  8
ALPHA
 10
1559.295061
 20
272.664853
 30
0.0
 11
1558.568648
 21
272.664853
 31
0.0
  0
LINE
  5
2666D
  8
ALPHA
 10
1558.37829
 20
271.58528
 30
0.0
 11
1559.104703
 21
271.58528
 31
0.0
  0
LINE
  5
2666E
  8
ALPHA
 10
1558.568648
 20
272.664853
 30
0.0
 11
1557.622559
 21
272.448939
 31
0.0
  0
LINE
  5
2666F
  8
ALPHA
 10
1557.613805
 20
271.369365
 30
0.0
 11
1558.37829
 21
271.58528
 31
0.0
  0
LINE
  5
26670
  8
ALPHA
 10
1559.260043
 20
268.346559
 30
0.0
 11
1558.495558
 21
268.130644
 31
0.0
  0
LINE
  5
26671
  8
ALPHA
 10
1556.852373
 20
267.051071
 30
0.0
 11
1557.616858
 21
267.266985
 31
0.0
  0
LINE
  5
26672
  8
ALPHA
 10
1559.793045
 20
271.369365
 30
0.0
 11
1560.405244
 21
270.721621
 31
0.0
  0
LINE
  5
26673
  8
ALPHA
 10
1560.809576
 20
266.835156
 30
0.0
 11
1560.197377
 21
267.4829
 31
0.0
  0
LINE
  5
26674
  8
ALPHA
 10
1557.080802
 20
268.346559
 30
0.0
 11
1556.468603
 21
268.994303
 31
0.0
  0
LINE
  5
26675
  8
ALPHA
 10
1560.958809
 20
271.801195
 30
0.0
 11
1560.165007
 21
272.448939
 31
0.0
  0
LINE
  5
26676
  8
ALPHA
 10
1560.197377
 20
267.4829
 30
0.0
 11
1559.872242
 21
267.698815
 31
0.0
  0
LINE
  5
26677
  8
ALPHA
 10
1559.031613
 20
267.051071
 30
0.0
 11
1559.681884
 21
266.619241
 31
0.0
  0
LINE
  5
26678
  8
ALPHA
 10
1555.915039
 20
267.91473
 30
0.0
 11
1556.240174
 21
267.698815
 31
0.0
  0
LINE
  5
26679
  8
ALPHA
 10
1556.281299
 20
263.81235
 30
0.0
 11
1555.631028
 21
264.244179
 31
0.0
  0
LINE
  5
2667A
  8
ALPHA
 10
1559.104703
 20
271.58528
 30
0.0
 11
1559.793045
 21
271.369365
 31
0.0
  0
LINE
  5
2667B
  8
ALPHA
 10
1557.769144
 20
268.130644
 30
0.0
 11
1557.080802
 21
268.346559
 31
0.0
  0
LINE
  5
2667C
  8
ALPHA
 10
1558.343271
 20
267.266985
 30
0.0
 11
1559.031613
 21
267.051071
 31
0.0
  0
LINE
  5
2667D
  8
ALPHA
 10
1556.969641
 20
263.596435
 30
0.0
 11
1556.281299
 21
263.81235
 31
0.0
  0
LINE
  5
2667E
  8
ALPHA
 10
1555.727734
 20
262.732776
 30
0.0
 11
1556.597679
 21
262.516861
 31
0.0
  0
LINE
  5
2667F
  8
ALPHA
 10
1558.495558
 20
268.130644
 30
0.0
 11
1557.769144
 21
268.130644
 31
0.0
  0
LINE
  5
26680
  8
ALPHA
 10
1557.616858
 20
267.266985
 30
0.0
 11
1558.343271
 21
267.266985
 31
0.0
  0
LINE
  5
26681
  8
ALPHA
 10
1557.696054
 20
263.596435
 30
0.0
 11
1556.969641
 21
263.596435
 31
0.0
  0
LINE
  5
26682
  8
ALPHA
 10
1556.597679
 20
262.516861
 30
0.0
 11
1557.6873
 21
262.516861
 31
0.0
  0
LINE
  5
26683
  8
ALPHA
 10
1558.773629
 20
259.256861
 30
0.0
 11
1560.073629
 21
259.256861
 31
0.0
  0
LINE
  5
26684
  8
ALPHA
 10
1557.6873
 20
262.516861
 30
0.0
 11
1558.633388
 21
262.732776
 31
0.0
  0
LINE
  5
26685
  8
ALPHA
 10
1558.46054
 20
263.81235
 30
0.0
 11
1557.696054
 21
263.596435
 31
0.0
  0
LINE
  5
26686
  8
ALPHA
 10
1560.982425
 20
265.755582
 30
0.0
 11
1560.809576
 21
266.835156
 31
0.0
  0
LINE
  5
26687
  8
ALPHA
 10
1554.330488
 20
265.107838
 30
0.0
 11
1554.503336
 21
264.028264
 31
0.0
  0
LINE
  5
26688
  8
ALPHA
 10
1555.273523
 20
269.426133
 30
0.0
 11
1555.484443
 21
268.562474
 31
0.0
  0
LINE
  5
26689
  8
ALPHA
 10
1560.405244
 20
270.721621
 30
0.0
 11
1560.654236
 21
270.073877
 31
0.0
  0
LINE
  5
2668A
  8
ALPHA
 10
1556.468603
 20
268.994303
 30
0.0
 11
1556.219611
 21
269.642047
 31
0.0
  0
LINE
  5
2668B
  8
ALPHA
 10
1559.681884
 20
266.619241
 30
0.0
 11
1560.074408
 21
265.755582
 31
0.0
  0
LINE
  5
2668C
  8
ALPHA
 10
1555.631028
 20
264.244179
 30
0.0
 11
1555.238504
 21
265.107838
 31
0.0
  0
LINE
  5
2668D
  8
ALPHA
 10
1555.484443
 20
268.562474
 30
0.0
 11
1555.915039
 21
267.91473
 31
0.0
  0
LINE
  5
2668E
  8
ALPHA
 10
1554.503336
 20
264.028264
 30
0.0
 11
1554.933932
 21
263.38052
 31
0.0
  0
LINE
  5
2668F
  8
ALPHA
 10
1554.933932
 20
263.38052
 30
0.0
 11
1555.727734
 21
262.732776
 31
0.0
  0
LINE
  5
26690
  8
ALPHA
 10
1560.314645
 20
264.028264
 30
0.0
 11
1560.86821
 21
265.107838
 31
0.0
  0
LINE
  5
26691
  8
ALPHA
 10
1560.86821
 20
265.107838
 30
0.0
 11
1560.982425
 21
265.755582
 31
0.0
  0
LINE
  5
26692
  8
ALPHA
 10
1560.074408
 20
265.755582
 30
0.0
 11
1559.960193
 21
265.107838
 31
0.0
  0
LINE
  5
26693
  8
ALPHA
 10
1560.654236
 20
270.073877
 30
0.0
 11
1560.578093
 21
269.642047
 31
0.0
  0
LINE
  5
26694
  8
ALPHA
 10
1560.073629
 20
259.256861
 30
0.0
 11
1560.073629
 21
258.906861
 31
0.0
  0
LINE
  5
26695
  8
ALPHA
 10
1558.773629
 20
258.906861
 30
0.0
 11
1558.773629
 21
259.256861
 31
0.0
  0
LINE
  5
26696
  8
ALPHA
 10
1559.263096
 20
264.244179
 30
0.0
 11
1558.46054
 21
263.81235
 31
0.0
  0
LINE
  5
26697
  8
ALPHA
 10
1559.872242
 20
267.698815
 30
0.0
 11
1560.27352
 21
267.91473
 31
0.0
  0
LINE
  5
26698
  8
ALPHA
 10
1556.049816
 20
266.619241
 30
0.0
 11
1556.852373
 21
267.051071
 31
0.0
  0
LINE
  5
26699
  8
ALPHA
 10
1556.240174
 20
267.698815
 30
0.0
 11
1555.838896
 21
267.4829
 31
0.0
  0
LINE
  5
2669A
  8
ALPHA
 10
1558.633388
 20
262.732776
 30
0.0
 11
1559.65562
 21
263.38052
 31
0.0
  0
LINE
  5
2669B
  8
ALPHA
 10
1557.622559
 20
272.448939
 30
0.0
 11
1556.600327
 21
271.801195
 31
0.0
  0
LINE
  5
2669C
  8
ALPHA
 10
1560.100671
 20
268.994303
 30
0.0
 11
1559.260043
 21
268.346559
 31
0.0
  0
LINE
  5
2669D
  8
ALPHA
 10
1555.838896
 20
267.4829
 30
0.0
 11
1554.998267
 21
266.835156
 31
0.0
  0
LINE
  5
2669E
  8
ALPHA
 10
1556.773176
 20
270.721621
 30
0.0
 11
1557.613805
 21
271.369365
 31
0.0
  0
LINE
  5
2669F
  8
ALPHA
 10
1559.65562
 20
263.38052
 30
0.0
 11
1560.314645
 21
264.028264
 31
0.0
  0
LINE
  5
266A0
  8
ALPHA
 10
1560.27352
 20
267.91473
 30
0.0
 11
1560.932545
 21
268.562474
 31
0.0
  0
LINE
  5
266A1
  8
ALPHA
 10
1556.600327
 20
271.801195
 30
0.0
 11
1555.941302
 21
271.15345
 31
0.0
  0
LINE
  5
266A2
  8
ALPHA
 10
1559.960193
 20
265.107838
 30
0.0
 11
1559.263096
 21
264.244179
 31
0.0
  0
LINE
  5
266A3
  8
ALPHA
 10
1555.352719
 20
265.755582
 30
0.0
 11
1556.049816
 21
266.619241
 31
0.0
  0
LINE
  5
266A4
  8
ALPHA
 10
1560.578093
 20
269.642047
 30
0.0
 11
1560.100671
 21
268.994303
 31
0.0
  0
LINE
  5
266A5
  8
ALPHA
 10
1556.295755
 20
270.073877
 30
0.0
 11
1556.773176
 21
270.721621
 31
0.0
  0
LINE
  5
266A6
  8
ALPHA
 10
1554.998267
 20
266.835156
 30
0.0
 11
1554.444703
 21
265.755582
 31
0.0
  0
LINE
  5
266A7
  8
ALPHA
 10
1555.941302
 20
271.15345
 30
0.0
 11
1555.387738
 21
270.073877
 31
0.0
  0
LINE
  5
266A8
  8
ALPHA
 10
1556.219611
 20
269.642047
 30
0.0
 11
1556.295755
 21
270.073877
 31
0.0
  0
LINE
  5
266A9
  8
ALPHA
 10
1555.238504
 20
265.107838
 30
0.0
 11
1555.352719
 21
265.755582
 31
0.0
  0
LINE
  5
266AA
  8
ALPHA
 10
1555.387738
 20
270.073877
 30
0.0
 11
1555.273523
 21
269.426133
 31
0.0
  0
LINE
  5
266AB
  8
ALPHA
 10
1554.444703
 20
265.755582
 30
0.0
 11
1554.330488
 21
265.107838
 31
0.0
  0
LINE
  5
266AC
  8
ALPHA
 10
1544.562139
 20
281.035536
 30
0.0
 11
1544.802671
 21
281.097665
 31
0.0
  0
POLYLINE
  5
266AD
  8
ALPHA
 66
     1
 10
0.0
 20
0.0
 30
0.0
  0
VERTEX
  5
2A31F
  8
ALPHA
 10
1549.643475
 20
276.256861
 30
0.0
  0
VERTEX
  5
2A320
  8
ALPHA
 10
1549.402943
 20
276.194732
 30
0.0
  0
VERTEX
  5
2A321
  8
ALPHA
 10
1549.235758
 20
276.027547
 30
0.0
  0
VERTEX
  5
2A322
  8
ALPHA
 10
1549.173629
 20
275.787015
 30
0.0
  0
SEQEND
  5
2A323
  8
ALPHA
  0
LINE
  5
266B3
  8
ALPHA
 10
1549.643475
 20
276.256861
 30
0.0
 11
1544.802671
 21
281.097665
 31
0.0
  0
LINE
  5
266B4
  8
ALPHA
 10
1549.173629
 20
275.787015
 30
0.0
 11
1544.332825
 21
280.627819
 31
0.0
  0
LINE
  5
266B5
  8
ALPHA
 10
1544.394954
 20
280.868351
 30
0.0
 11
1544.562139
 21
281.035536
 31
0.0
  0
LINE
  5
266B6
  8
ALPHA
 10
1544.332825
 20
280.627819
 30
0.0
 11
1544.394954
 21
280.868351
 31
0.0
  0
LINE
  5
266B7
  8
ALPHA
 10
1583.673629
 20
275.787015
 30
0.0
 11
1583.673629
 21
259.376708
 31
0.0
  0
LINE
  5
266B8
  8
ALPHA
 10
1580.773629
 20
261.196861
 30
0.0
 11
1580.773629
 21
273.996861
 31
0.0
  0
LINE
  5
266B9
  8
ALPHA
 10
1573.061901
 20
268.346559
 30
0.0
 11
1572.449702
 21
268.994303
 31
0.0
  0
LINE
  5
266BA
  8
ALPHA
 10
1572.950739
 20
263.596435
 30
0.0
 11
1572.262397
 21
263.81235
 31
0.0
  0
LINE
  5
266BB
  8
ALPHA
 10
1572.578778
 20
262.516861
 30
0.0
 11
1573.668398
 21
262.516861
 31
0.0
  0
LINE
  5
266BC
  8
ALPHA
 10
1572.833471
 20
267.051071
 30
0.0
 11
1573.597957
 21
267.266985
 31
0.0
  0
LINE
  5
266BD
  8
ALPHA
 10
1572.754274
 20
270.721621
 30
0.0
 11
1573.594903
 21
271.369365
 31
0.0
  0
LINE
  5
266BE
  8
ALPHA
 10
1573.603658
 20
272.448939
 30
0.0
 11
1572.581426
 21
271.801195
 31
0.0
  0
LINE
  5
266BF
  8
ALPHA
 10
1567.095253
 20
271.58528
 30
0.0
 11
1567.783594
 21
271.369365
 31
0.0
  0
LINE
  5
266C0
  8
ALPHA
 10
1568.155556
 20
272.448939
 30
0.0
 11
1567.28561
 21
272.664853
 31
0.0
  0
LINE
  5
266C1
  8
ALPHA
 10
1567.28561
 20
272.664853
 30
0.0
 11
1566.559197
 21
272.664853
 31
0.0
  0
LINE
  5
266C2
  8
ALPHA
 10
1566.368839
 20
271.58528
 30
0.0
 11
1567.095253
 21
271.58528
 31
0.0
  0
LINE
  5
266C3
  8
ALPHA
 10
1566.559197
 20
272.664853
 30
0.0
 11
1565.613108
 21
272.448939
 31
0.0
  0
LINE
  5
266C4
  8
ALPHA
 10
1565.604354
 20
271.369365
 30
0.0
 11
1566.368839
 21
271.58528
 31
0.0
  0
LINE
  5
266C5
  8
ALPHA
 10
1569.552802
 20
270.073877
 30
0.0
 11
1569.379953
 21
271.15345
 31
0.0
  0
LINE
  5
266C6
  8
ALPHA
 10
1570.311586
 20
265.107838
 30
0.0
 11
1570.484435
 21
264.028264
 31
0.0
  0
LINE
  5
266C7
  8
ALPHA
 10
1568.972974
 20
265.755582
 30
0.0
 11
1568.800125
 21
266.835156
 31
0.0
  0
LINE
  5
266C8
  8
ALPHA
 10
1571.254622
 20
269.426133
 30
0.0
 11
1571.465542
 21
268.562474
 31
0.0
  0
LINE
  5
266C9
  8
ALPHA
 10
1572.449702
 20
268.994303
 30
0.0
 11
1572.20071
 21
269.642047
 31
0.0
  0
LINE
  5
266CA
  8
ALPHA
 10
1568.395793
 20
270.721621
 30
0.0
 11
1568.644785
 21
270.073877
 31
0.0
  0
LINE
  5
266CB
  8
ALPHA
 10
1564.459153
 20
268.994303
 30
0.0
 11
1564.210161
 21
269.642047
 31
0.0
  0
LINE
  5
266CC
  8
ALPHA
 10
1571.612127
 20
264.244179
 30
0.0
 11
1571.219603
 21
265.107838
 31
0.0
  0
LINE
  5
266CD
  8
ALPHA
 10
1567.672433
 20
266.619241
 30
0.0
 11
1568.064957
 21
265.755582
 31
0.0
  0
LINE
  5
266CE
  8
ALPHA
 10
1571.465542
 20
268.562474
 30
0.0
 11
1571.896137
 21
267.91473
 31
0.0
  0
LINE
  5
266CF
  8
ALPHA
 10
1569.379953
 20
271.15345
 30
0.0
 11
1568.949358
 21
271.801195
 31
0.0
  0
LINE
  5
266D0
  8
ALPHA
 10
1570.484435
 20
264.028264
 30
0.0
 11
1570.915031
 21
263.38052
 31
0.0
  0
LINE
  5
266D1
  8
ALPHA
 10
1563.474992
 20
268.562474
 30
0.0
 11
1563.905588
 21
267.91473
 31
0.0
  0
LINE
  5
266D2
  8
ALPHA
 10
1562.493886
 20
264.028264
 30
0.0
 11
1562.924481
 21
263.38052
 31
0.0
  0
LINE
  5
266D3
  8
ALPHA
 10
1567.783594
 20
271.369365
 30
0.0
 11
1568.395793
 21
270.721621
 31
0.0
  0
LINE
  5
266D4
  8
ALPHA
 10
1568.800125
 20
266.835156
 30
0.0
 11
1568.187926
 21
267.4829
 31
0.0
  0
LINE
  5
266D5
  8
ALPHA
 10
1565.071352
 20
268.346559
 30
0.0
 11
1564.459153
 21
268.994303
 31
0.0
  0
LINE
  5
266D6
  8
ALPHA
 10
1568.949358
 20
271.801195
 30
0.0
 11
1568.155556
 21
272.448939
 31
0.0
  0
LINE
  5
266D7
  8
ALPHA
 10
1570.915031
 20
263.38052
 30
0.0
 11
1571.708833
 21
262.732776
 31
0.0
  0
LINE
  5
266D8
  8
ALPHA
 10
1562.924481
 20
263.38052
 30
0.0
 11
1563.718283
 21
262.732776
 31
0.0
  0
LINE
  5
266D9
  8
ALPHA
 10
1571.896137
 20
267.91473
 30
0.0
 11
1572.221273
 21
267.698815
 31
0.0
  0
LINE
  5
266DA
  8
ALPHA
 10
1568.187926
 20
267.4829
 30
0.0
 11
1567.862791
 21
267.698815
 31
0.0
  0
LINE
  5
266DB
  8
ALPHA
 10
1572.262397
 20
263.81235
 30
0.0
 11
1571.612127
 21
264.244179
 31
0.0
  0
LINE
  5
266DC
  8
ALPHA
 10
1567.022163
 20
267.051071
 30
0.0
 11
1567.672433
 21
266.619241
 31
0.0
  0
LINE
  5
266DD
  8
ALPHA
 10
1563.905588
 20
267.91473
 30
0.0
 11
1564.230723
 21
267.698815
 31
0.0
  0
LINE
  5
266DE
  8
ALPHA
 10
1564.271848
 20
263.81235
 30
0.0
 11
1563.621578
 21
264.244179
 31
0.0
  0
LINE
  5
266DF
  8
ALPHA
 10
1565.759694
 20
268.130644
 30
0.0
 11
1565.071352
 21
268.346559
 31
0.0
  0
LINE
  5
266E0
  8
ALPHA
 10
1566.333821
 20
267.266985
 30
0.0
 11
1567.022163
 21
267.051071
 31
0.0
  0
LINE
  5
266E1
  8
ALPHA
 10
1564.96019
 20
263.596435
 30
0.0
 11
1564.271848
 21
263.81235
 31
0.0
  0
LINE
  5
266E2
  8
ALPHA
 10
1571.708833
 20
262.732776
 30
0.0
 11
1572.578778
 21
262.516861
 31
0.0
  0
LINE
  5
266E3
  8
ALPHA
 10
1563.718283
 20
262.732776
 30
0.0
 11
1564.588229
 21
262.516861
 31
0.0
  0
LINE
  5
266E4
  8
ALPHA
 10
1566.486107
 20
268.130644
 30
0.0
 11
1565.759694
 21
268.130644
 31
0.0
  0
LINE
  5
266E5
  8
ALPHA
 10
1565.607407
 20
267.266985
 30
0.0
 11
1566.333821
 21
267.266985
 31
0.0
  0
LINE
  5
266E6
  8
ALPHA
 10
1565.686604
 20
263.596435
 30
0.0
 11
1564.96019
 21
263.596435
 31
0.0
  0
LINE
  5
266E7
  8
ALPHA
 10
1564.588229
 20
262.516861
 30
0.0
 11
1565.677849
 21
262.516861
 31
0.0
  0
LINE
  5
266E8
  8
ALPHA
 10
1569.873629
 20
259.256861
 30
0.0
 11
1571.173629
 21
259.256861
 31
0.0
  0
LINE
  5
266E9
  8
ALPHA
 10
1562.573629
 20
259.206861
 30
0.0
 11
1568.473629
 21
259.206861
 31
0.0
  0
LINE
  5
266EA
  8
ALPHA
 10
1565.677849
 20
262.516861
 30
0.0
 11
1566.623938
 21
262.732776
 31
0.0
  0
LINE
  5
266EB
  8
ALPHA
 10
1567.250592
 20
268.346559
 30
0.0
 11
1566.486107
 21
268.130644
 31
0.0
  0
LINE
  5
266EC
  8
ALPHA
 10
1564.842922
 20
267.051071
 30
0.0
 11
1565.607407
 21
267.266985
 31
0.0
  0
LINE
  5
266ED
  8
ALPHA
 10
1566.451089
 20
263.81235
 30
0.0
 11
1565.686604
 21
263.596435
 31
0.0
  0
LINE
  5
266EE
  8
ALPHA
 10
1561.562253
 20
270.073877
 30
0.0
 11
1561.389404
 21
271.15345
 31
0.0
  0
LINE
  5
266EF
  8
ALPHA
 10
1562.321037
 20
265.107838
 30
0.0
 11
1562.493886
 21
264.028264
 31
0.0
  0
LINE
  5
266F0
  8
ALPHA
 10
1563.264072
 20
269.426133
 30
0.0
 11
1563.474992
 21
268.562474
 31
0.0
  0
LINE
  5
266F1
  8
ALPHA
 10
1563.621578
 20
264.244179
 30
0.0
 11
1563.229054
 21
265.107838
 31
0.0
  0
LINE
  5
266F2
  8
ALPHA
 10
1572.030914
 20
266.619241
 30
0.0
 11
1572.833471
 21
267.051071
 31
0.0
  0
LINE
  5
266F3
  8
ALPHA
 10
1567.253645
 20
264.244179
 30
0.0
 11
1566.451089
 21
263.81235
 31
0.0
  0
LINE
  5
266F4
  8
ALPHA
 10
1572.221273
 20
267.698815
 30
0.0
 11
1571.819994
 21
267.4829
 31
0.0
  0
LINE
  5
266F5
  8
ALPHA
 10
1566.623938
 20
262.732776
 30
0.0
 11
1567.64617
 21
263.38052
 31
0.0
  0
LINE
  5
266F6
  8
ALPHA
 10
1571.819994
 20
267.4829
 30
0.0
 11
1570.979365
 21
266.835156
 31
0.0
  0
LINE
  5
266F7
  8
ALPHA
 10
1567.64617
 20
263.38052
 30
0.0
 11
1568.305194
 21
264.028264
 31
0.0
  0
LINE
  5
266F8
  8
ALPHA
 10
1572.581426
 20
271.801195
 30
0.0
 11
1571.922401
 21
271.15345
 31
0.0
  0
LINE
  5
266F9
  8
ALPHA
 10
1568.26407
 20
267.91473
 30
0.0
 11
1568.923094
 21
268.562474
 31
0.0
  0
LINE
  5
266FA
  8
ALPHA
 10
1571.333818
 20
265.755582
 30
0.0
 11
1572.030914
 21
266.619241
 31
0.0
  0
LINE
  5
266FB
  8
ALPHA
 10
1567.950742
 20
265.107838
 30
0.0
 11
1567.253645
 21
264.244179
 31
0.0
  0
LINE
  5
266FC
  8
ALPHA
 10
1563.343269
 20
265.755582
 30
0.0
 11
1564.040365
 21
266.619241
 31
0.0
  0
LINE
  5
266FD
  8
ALPHA
 10
1572.276853
 20
270.073877
 30
0.0
 11
1572.754274
 21
270.721621
 31
0.0
  0
LINE
  5
266FE
  8
ALPHA
 10
1568.568642
 20
269.642047
 30
0.0
 11
1568.091221
 21
268.994303
 31
0.0
  0
LINE
  5
266FF
  8
ALPHA
 10
1568.923094
 20
268.562474
 30
0.0
 11
1569.438587
 21
269.426133
 31
0.0
  0
LINE
  5
26700
  8
ALPHA
 10
1570.979365
 20
266.835156
 30
0.0
 11
1570.425801
 21
265.755582
 31
0.0
  0
LINE
  5
26701
  8
ALPHA
 10
1568.305194
 20
264.028264
 30
0.0
 11
1568.858759
 21
265.107838
 31
0.0
  0
LINE
  5
26702
  8
ALPHA
 10
1571.922401
 20
271.15345
 30
0.0
 11
1571.368836
 21
270.073877
 31
0.0
  0
LINE
  5
26703
  8
ALPHA
 10
1562.988817
 20
266.835156
 30
0.0
 11
1562.435252
 21
265.755582
 31
0.0
  0
LINE
  5
26704
  8
ALPHA
 10
1563.931851
 20
271.15345
 30
0.0
 11
1563.378287
 21
270.073877
 31
0.0
  0
LINE
  5
26705
  8
ALPHA
 10
1572.20071
 20
269.642047
 30
0.0
 11
1572.276853
 21
270.073877
 31
0.0
  0
LINE
  5
26706
  8
ALPHA
 10
1571.219603
 20
265.107838
 30
0.0
 11
1571.333818
 21
265.755582
 31
0.0
  0
LINE
  5
26707
  8
ALPHA
 10
1571.368836
 20
270.073877
 30
0.0
 11
1571.254622
 21
269.426133
 31
0.0
  0
LINE
  5
26708
  8
ALPHA
 10
1570.425801
 20
265.755582
 30
0.0
 11
1570.311586
 21
265.107838
 31
0.0
  0
LINE
  5
26709
  8
ALPHA
 10
1568.858759
 20
265.107838
 30
0.0
 11
1568.972974
 21
265.755582
 31
0.0
  0
LINE
  5
2670A
  8
ALPHA
 10
1569.438587
 20
269.426133
 30
0.0
 11
1569.552802
 21
270.073877
 31
0.0
  0
LINE
  5
2670B
  8
ALPHA
 10
1568.064957
 20
265.755582
 30
0.0
 11
1567.950742
 21
265.107838
 31
0.0
  0
LINE
  5
2670C
  8
ALPHA
 10
1568.644785
 20
270.073877
 30
0.0
 11
1568.568642
 21
269.642047
 31
0.0
  0
LINE
  5
2670D
  8
ALPHA
 10
1564.210161
 20
269.642047
 30
0.0
 11
1564.286304
 21
270.073877
 31
0.0
  0
LINE
  5
2670E
  8
ALPHA
 10
1563.229054
 20
265.107838
 30
0.0
 11
1563.343269
 21
265.755582
 31
0.0
  0
LINE
  5
2670F
  8
ALPHA
 10
1563.378287
 20
270.073877
 30
0.0
 11
1563.264072
 21
269.426133
 31
0.0
  0
LINE
  5
26710
  8
ALPHA
 10
1562.435252
 20
265.755582
 30
0.0
 11
1562.321037
 21
265.107838
 31
0.0
  0
LINE
  5
26711
  8
ALPHA
 10
1561.448038
 20
269.426133
 30
0.0
 11
1561.562253
 21
270.073877
 31
0.0
  0
LINE
  5
26712
  8
ALPHA
 10
1571.173629
 20
259.256861
 30
0.0
 11
1571.173629
 21
258.906861
 31
0.0
  0
LINE
  5
26713
  8
ALPHA
 10
1569.873629
 20
258.906861
 30
0.0
 11
1569.873629
 21
259.256861
 31
0.0
  0
LINE
  5
26714
  8
ALPHA
 10
1568.473629
 20
259.206861
 30
0.0
 11
1568.473629
 21
258.906861
 31
0.0
  0
LINE
  5
26715
  8
ALPHA
 10
1562.573629
 20
258.906861
 30
0.0
 11
1562.573629
 21
259.206861
 31
0.0
  0
LINE
  5
26716
  8
ALPHA
 10
1567.862791
 20
267.698815
 30
0.0
 11
1568.26407
 21
267.91473
 31
0.0
  0
LINE
  5
26717
  8
ALPHA
 10
1564.040365
 20
266.619241
 30
0.0
 11
1564.842922
 21
267.051071
 31
0.0
  0
LINE
  5
26718
  8
ALPHA
 10
1564.230723
 20
267.698815
 30
0.0
 11
1563.829445
 21
267.4829
 31
0.0
  0
LINE
  5
26719
  8
ALPHA
 10
1565.613108
 20
272.448939
 30
0.0
 11
1564.590877
 21
271.801195
 31
0.0
  0
LINE
  5
2671A
  8
ALPHA
 10
1568.091221
 20
268.994303
 30
0.0
 11
1567.250592
 21
268.346559
 31
0.0
  0
LINE
  5
2671B
  8
ALPHA
 10
1563.829445
 20
267.4829
 30
0.0
 11
1562.988817
 21
266.835156
 31
0.0
  0
LINE
  5
2671C
  8
ALPHA
 10
1564.763725
 20
270.721621
 30
0.0
 11
1565.604354
 21
271.369365
 31
0.0
  0
LINE
  5
2671D
  8
ALPHA
 10
1564.590877
 20
271.801195
 30
0.0
 11
1563.931851
 21
271.15345
 31
0.0
  0
LINE
  5
2671E
  8
ALPHA
 10
1564.286304
 20
270.073877
 30
0.0
 11
1564.763725
 21
270.721621
 31
0.0
  0
LINE
  5
2671F
  8
ALPHA
 10
1575.774144
 20
271.369365
 30
0.0
 11
1576.386342
 21
270.721621
 31
0.0
  0
LINE
  5
26720
  8
ALPHA
 10
1576.939908
 20
271.801195
 30
0.0
 11
1576.146106
 21
272.448939
 31
0.0
  0
LINE
  5
26721
  8
ALPHA
 10
1575.085802
 20
271.58528
 30
0.0
 11
1575.774144
 21
271.369365
 31
0.0
  0
LINE
  5
26722
  8
ALPHA
 10
1576.146106
 20
272.448939
 30
0.0
 11
1575.276159
 21
272.664853
 31
0.0
  0
LINE
  5
26723
  8
ALPHA
 10
1575.276159
 20
272.664853
 30
0.0
 11
1574.549746
 21
272.664853
 31
0.0
  0
LINE
  5
26724
  8
ALPHA
 10
1574.359388
 20
271.58528
 30
0.0
 11
1575.085802
 21
271.58528
 31
0.0
  0
LINE
  5
26725
  8
ALPHA
 10
1574.549746
 20
272.664853
 30
0.0
 11
1573.603658
 21
272.448939
 31
0.0
  0
LINE
  5
26726
  8
ALPHA
 10
1573.594903
 20
271.369365
 30
0.0
 11
1574.359388
 21
271.58528
 31
0.0
  0
LINE
  5
26727
  8
ALPHA
 10
1577.543351
 20
270.073877
 30
0.0
 11
1577.370503
 21
271.15345
 31
0.0
  0
LINE
  5
26728
  8
ALPHA
 10
1576.963523
 20
265.755582
 30
0.0
 11
1576.790673
 21
266.835156
 31
0.0
  0
LINE
  5
26729
  8
ALPHA
 10
1576.386342
 20
270.721621
 30
0.0
 11
1576.635335
 21
270.073877
 31
0.0
  0
LINE
  5
2672A
  8
ALPHA
 10
1575.662982
 20
266.619241
 30
0.0
 11
1576.055507
 21
265.755582
 31
0.0
  0
LINE
  5
2672B
  8
ALPHA
 10
1577.370503
 20
271.15345
 30
0.0
 11
1576.939908
 21
271.801195
 31
0.0
  0
LINE
  5
2672C
  8
ALPHA
 10
1576.790673
 20
266.835156
 30
0.0
 11
1576.178475
 21
267.4829
 31
0.0
  0
LINE
  5
2672D
  8
ALPHA
 10
1576.178475
 20
267.4829
 30
0.0
 11
1575.853339
 21
267.698815
 31
0.0
  0
LINE
  5
2672E
  8
ALPHA
 10
1575.012712
 20
267.051071
 30
0.0
 11
1575.662982
 21
266.619241
 31
0.0
  0
LINE
  5
2672F
  8
ALPHA
 10
1573.750242
 20
268.130644
 30
0.0
 11
1573.061901
 21
268.346559
 31
0.0
  0
LINE
  5
26730
  8
ALPHA
 10
1574.32437
 20
267.266985
 30
0.0
 11
1575.012712
 21
267.051071
 31
0.0
  0
LINE
  5
26731
  8
ALPHA
 10
1574.476656
 20
268.130644
 30
0.0
 11
1573.750242
 21
268.130644
 31
0.0
  0
LINE
  5
26732
  8
ALPHA
 10
1573.597957
 20
267.266985
 30
0.0
 11
1574.32437
 21
267.266985
 31
0.0
  0
LINE
  5
26733
  8
ALPHA
 10
1573.677153
 20
263.596435
 30
0.0
 11
1572.950739
 21
263.596435
 31
0.0
  0
LINE
  5
26734
  8
ALPHA
 10
1583.416129
 20
260.951861
 30
0.0
 11
1583.673629
 21
260.951861
 31
0.0
  0
LINE
  5
26735
  8
ALPHA
 10
1574.873629
 20
259.256861
 30
0.0
 11
1576.173629
 21
259.256861
 31
0.0
  0
LINE
  5
26736
  8
ALPHA
 10
1573.668398
 20
262.516861
 30
0.0
 11
1574.614487
 21
262.732776
 31
0.0
  0
POLYLINE
  5
26737
  8
ALPHA
 66
     1
 10
0.0
 20
0.0
 30
0.0
  0
VERTEX
  5
2A324
  8
ALPHA
 10
1583.203782
 20
258.906861
 30
0.0
  0
VERTEX
  5
2A325
  8
ALPHA
 10
1583.444315
 20
258.968991
 30
0.0
  0
VERTEX
  5
2A326
  8
ALPHA
 10
1583.611499
 20
259.136175
 30
0.0
  0
VERTEX
  5
2A327
  8
ALPHA
 10
1583.673629
 20
259.376708
 30
0.0
  0
SEQEND
  5
2A328
  8
ALPHA
  0
LINE
  5
2673D
  8
ALPHA
 10
1575.241141
 20
268.346559
 30
0.0
 11
1574.476656
 21
268.130644
 31
0.0
  0
LINE
  5
2673E
  8
ALPHA
 10
1574.441638
 20
263.81235
 30
0.0
 11
1573.677153
 21
263.596435
 31
0.0
  0
LINE
  5
2673F
  8
ALPHA
 10
1576.849309
 20
265.107838
 30
0.0
 11
1576.963523
 21
265.755582
 31
0.0
  0
LINE
  5
26740
  8
ALPHA
 10
1577.429137
 20
269.426133
 30
0.0
 11
1577.543351
 21
270.073877
 31
0.0
  0
LINE
  5
26741
  8
ALPHA
 10
1576.055507
 20
265.755582
 30
0.0
 11
1575.941291
 21
265.107838
 31
0.0
  0
LINE
  5
26742
  8
ALPHA
 10
1576.635335
 20
270.073877
 30
0.0
 11
1576.559192
 21
269.642047
 31
0.0
  0
LINE
  5
26743
  8
ALPHA
 10
1583.416129
 20
258.96171
 30
0.0
 11
1583.416129
 21
260.951861
 31
0.0
  0
LINE
  5
26744
  8
ALPHA
 10
1576.173629
 20
259.256861
 30
0.0
 11
1576.173629
 21
258.906861
 31
0.0
  0
LINE
  5
26745
  8
ALPHA
 10
1574.873629
 20
258.906861
 30
0.0
 11
1574.873629
 21
259.256861
 31
0.0
  0
LINE
  5
26746
  8
ALPHA
 10
1575.244195
 20
264.244179
 30
0.0
 11
1574.441638
 21
263.81235
 31
0.0
  0
LINE
  5
26747
  8
ALPHA
 10
1575.853339
 20
267.698815
 30
0.0
 11
1576.254619
 21
267.91473
 31
0.0
  0
LINE
  5
26748
  8
ALPHA
 10
1574.614487
 20
262.732776
 30
0.0
 11
1575.636718
 21
263.38052
 31
0.0
  0
LINE
  5
26749
  8
ALPHA
 10
1576.081769
 20
268.994303
 30
0.0
 11
1575.241141
 21
268.346559
 31
0.0
  0
LINE
  5
2674A
  8
ALPHA
 10
1575.636718
 20
263.38052
 30
0.0
 11
1576.295743
 21
264.028264
 31
0.0
  0
LINE
  5
2674B
  8
ALPHA
 10
1576.254619
 20
267.91473
 30
0.0
 11
1576.913644
 21
268.562474
 31
0.0
  0
LINE
  5
2674C
  8
ALPHA
 10
1575.941291
 20
265.107838
 30
0.0
 11
1575.244195
 21
264.244179
 31
0.0
  0
LINE
  5
2674D
  8
ALPHA
 10
1576.559192
 20
269.642047
 30
0.0
 11
1576.081769
 21
268.994303
 31
0.0
  0
LINE
  5
2674E
  8
ALPHA
 10
1576.913644
 20
268.562474
 30
0.0
 11
1577.429137
 21
269.426133
 31
0.0
  0
LINE
  5
2674F
  8
ALPHA
 10
1576.295743
 20
264.028264
 30
0.0
 11
1576.849309
 21
265.107838
 31
0.0
  0
LINE
  5
26750
  8
ALPHA
 10
1566.398629
 20
289.156861
 30
0.0
 11
1565.773629
 21
289.156861
 31
0.0
  0
LINE
  5
26751
  8
ALPHA
 10
1569.940297
 20
289.156861
 30
0.0
 11
1569.315297
 21
289.156861
 31
0.0
  0
POLYLINE
  5
26752
  8
ALPHA
 66
     1
 10
0.0
 20
0.0
 30
0.0
  0
VERTEX
  5
2A329
  8
ALPHA
 10
1583.673629
 20
275.787015
 30
0.0
  0
VERTEX
  5
2A32A
  8
ALPHA
 10
1583.611499
 20
276.027547
 30
0.0
  0
VERTEX
  5
2A32B
  8
ALPHA
 10
1583.444315
 20
276.194732
 30
0.0
  0
VERTEX
  5
2A32C
  8
ALPHA
 10
1583.203782
 20
276.256861
 30
0.0
  0
SEQEND
  5
2A32D
  8
ALPHA
  0
LINE
  5
26758
  8
ALPHA
 10
1567.440297
 20
294.156861
 30
0.0
 11
1568.273629
 21
294.156861
 31
0.0
  0
LINE
  5
26759
  8
ALPHA
 10
1568.794461
 20
290.858989
 30
0.0
 11
1566.919461
 21
290.858989
 31
0.0
  0
LINE
  5
2675A
  8
ALPHA
 10
1568.898629
 20
290.433457
 30
0.0
 11
1566.815297
 21
290.433457
 31
0.0
  0
LINE
  5
2675B
  8
ALPHA
 10
1567.856961
 20
293.731329
 30
0.0
 11
1568.794461
 21
290.858989
 31
0.0
  0
LINE
  5
2675C
  8
ALPHA
 10
1566.919461
 20
290.858989
 30
0.0
 11
1567.856961
 21
293.731329
 31
0.0
  0
ARC
  5
2675D
  8
ALPHA
 10
1504.723629
 20
410.256861
 30
0.0
 40
12.5
 50
180.0
 51
270.0
  0
ARC
  5
2675E
  8
ALPHA
 10
1504.723629
 20
410.256861
 30
0.0
 40
11.5
 50
180.0
 51
270.0
  0
LINE
  5
2675F
  8
ALPHA
 10
1494.227991
 20
366.242357
 30
0.0
 11
1490.69377
 21
366.251879
 31
0.0
  0
POLYLINE
  5
26760
  8
ALPHA
 66
     1
 10
0.0
 20
0.0
 30
0.0
  0
VERTEX
  5
2A32E
  8
ALPHA
 10
1490.928611
 20
367.75165
 30
0.0
  0
VERTEX
  5
2A32F
  8
ALPHA
 10
1507.671556
 20
367.710395
 30
0.0
  0
VERTEX
  5
2A330
  8
ALPHA
 10
1524.486963
 20
367.679069
 30
0.0
  0
SEQEND
  5
2A331
  8
ALPHA
  0
POLYLINE
  5
26765
  8
ALPHA
 66
     1
 10
0.0
 20
0.0
 30
0.0
  0
VERTEX
  5
2A332
  8
ALPHA
 10
1496.428538
 20
356.281193
 30
0.0
  0
VERTEX
  5
2A333
  8
ALPHA
 10
1495.007565
 20
356.481098
 30
0.0
  0
VERTEX
  5
2A334
  8
ALPHA
 10
1493.699254
 20
357.055647
 30
0.0
  0
VERTEX
  5
2A335
  8
ALPHA
 10
1492.605588
 20
357.950747
 30
0.0
  0
VERTEX
  5
2A336
  8
ALPHA
 10
1491.797096
 20
359.095409
 30
0.0
  0
VERTEX
  5
2A337
  8
ALPHA
 10
1491.32307
 20
360.409298
 30
0.0
  0
VERTEX
  5
2A338
  8
ALPHA
 10
1491.214553
 20
361.800632
 30
0.0
  0
VERTEX
  5
2A339
  8
ALPHA
 10
1491.479058
 20
363.171637
 30
0.0
  0
VERTEX
  5
2A33A
  8
ALPHA
 10
1492.099156
 20
364.425759
 30
0.0
  0
VERTEX
  5
2A33B
  8
ALPHA
 10
1493.03469
 20
365.474572
 30
0.0
  0
VERTEX
  5
2A33C
  8
ALPHA
 10
1494.227991
 20
366.242357
 30
0.0
  0
SEQEND
  5
2A33D
  8
ALPHA
  0
LINE
  5
26772
  8
ALPHA
 10
1490.473629
 20
408.106861
 30
0.0
 11
1492.251406
 21
396.106861
 31
0.0
  0
ARC
  5
26773
  8
ALPHA
 10
1416.319722
 20
361.507308
 30
0.0
 40
0.225738
 50
64.055271
 51
172.871056
  0
ARC
  5
26774
  8
ALPHA
 10
1415.723629
 20
361.581861
 30
0.0
 40
0.375
 50
190.240209
 51
352.871056
  0
ARC
  5
26775
  8
ALPHA
 10
1415.062934
 20
361.462505
 30
0.0
 40
0.296389
 50
10.240209
 51
109.759791
  0
CIRCLE
  5
26776
  8
ALPHA
 10
1415.723629
 20
362.606861
 30
0.0
 40
4.0
  0
ARC
  5
26777
  8
ALPHA
 10
1415.053715
 20
363.846854
 30
0.0
 40
0.384385
 50
253.335852
 51
348.196726
  0
ARC
  5
26778
  8
ALPHA
 10
1415.723629
 20
363.706861
 30
0.0
 40
0.3
 50
15.033707
 51
168.196726
  0
ARC
  5
26779
  8
ALPHA
 10
1416.475266
 20
363.908736
 30
0.0
 40
0.478275
 50
195.033707
 51
284.966293
  0
ARC
  5
2677A
  8
ALPHA
 10
1416.676257
 20
363.156861
 30
0.0
 40
0.3
 50
315.033707
 51
104.966293
  0
ARC
  5
2677B
  8
ALPHA
 10
1417.226904
 20
362.606861
 30
0.0
 40
0.478275
 50
135.033707
 51
220.960938
  0
ARC
  5
2677C
  8
ALPHA
 10
1416.582547
 20
362.047501
 30
0.0
 40
0.375
 50
244.055271
 51
40.960938
  0
ARC
  5
2677D
  8
ALPHA
 10
1414.835953
 20
363.119361
 30
0.0
 40
0.375
 50
73.335852
 51
229.759791
  0
ARC
  5
2677E
  8
ALPHA
 10
1414.835953
 20
362.094361
 30
0.0
 40
0.375
 50
130.240209
 51
289.759791
  0
ARC
  5
2677F
  8
ALPHA
 10
1414.40224
 20
362.606861
 30
0.0
 40
0.296389
 50
310.240209
 51
49.759791
  0
LINE
  5
26780
  8
ALPHA
 10
1416.223629
 20
363.50201
 30
0.0
 11
1416.223629
 21
366.575488
 31
0.0
  0
LINE
  5
26781
  8
ALPHA
 10
1416.223629
 20
358.638234
 30
0.0
 11
1416.223629
 21
361.711572
 31
0.0
  0
LINE
  5
26782
  8
ALPHA
 10
1415.223629
 20
361.711551
 30
0.0
 11
1415.223629
 21
358.638234
 31
0.0
  0
LINE
  5
26783
  8
ALPHA
 10
1415.223629
 20
366.575488
 30
0.0
 11
1415.223629
 21
363.502062
 31
0.0
  0
LINE
  5
26784
  8
ALPHA
 10
1411.973629
 20
376.106861
 30
0.0
 11
1408.973629
 21
379.106861
 31
0.0
  0
LINE
  5
26785
  8
ALPHA
 10
1408.973629
 20
372.306861
 30
0.0
 11
1411.973629
 21
375.306861
 31
0.0
  0
LINE
  5
26786
  8
ALPHA
 10
1420.973629
 20
376.106861
 30
0.0
 11
1420.973629
 21
375.306861
 31
0.0
  0
LINE
  5
26787
  8
ALPHA
 10
1411.973629
 20
375.306861
 30
0.0
 11
1411.973629
 21
376.106861
 31
0.0
  0
LINE
  5
26788
  8
ALPHA
 10
1489.068759
 20
338.061677
 30
0.0
 11
1489.349785
 21
338.061677
 31
0.0
  0
LINE
  5
26789
  8
ALPHA
 10
1489.349785
 20
334.952046
 30
0.0
 11
1489.068759
 21
334.952046
 31
0.0
  0
LINE
  5
2678A
  8
ALPHA
 10
1489.068759
 20
330.561677
 30
0.0
 11
1489.349785
 21
330.561677
 31
0.0
  0
LINE
  5
2678B
  8
ALPHA
 10
1489.349785
 20
327.452046
 30
0.0
 11
1489.068759
 21
327.452046
 31
0.0
  0
LINE
  5
2678C
  8
ALPHA
 10
1489.068759
 20
323.061677
 30
0.0
 11
1489.349785
 21
323.061677
 31
0.0
  0
POLYLINE
  5
2678D
  8
ALPHA
 66
     1
 10
0.0
 20
0.0
 30
0.0
  0
VERTEX
  5
2A33E
  8
ALPHA
 10
1489.349785
 20
338.061677
 30
0.0
  0
VERTEX
  5
2A33F
  8
ALPHA
 10
1489.360292
 20
337.940387
 30
0.0
  0
VERTEX
  5
2A340
  8
ALPHA
 10
1489.369111
 20
337.598362
 30
0.0
  0
VERTEX
  5
2A341
  8
ALPHA
 10
1489.374909
 20
337.094699
 30
0.0
  0
VERTEX
  5
2A342
  8
ALPHA
 10
1489.376923
 20
336.506861
 30
0.0
  0
VERTEX
  5
2A343
  8
ALPHA
 10
1489.374909
 20
335.919024
 30
0.0
  0
VERTEX
  5
2A344
  8
ALPHA
 10
1489.369111
 20
335.41536
 30
0.0
  0
VERTEX
  5
2A345
  8
ALPHA
 10
1489.360292
 20
335.073335
 30
0.0
  0
VERTEX
  5
2A346
  8
ALPHA
 10
1489.349785
 20
334.952046
 30
0.0
  0
SEQEND
  5
2A347
  8
ALPHA
  0
POLYLINE
  5
26798
  8
ALPHA
 66
     1
 10
0.0
 20
0.0
 30
0.0
  0
VERTEX
  5
2A348
  8
ALPHA
 10
1489.068759
 20
334.952046
 30
0.0
  0
VERTEX
  5
2A349
  8
ALPHA
 10
1489.058251
 20
335.07328
 30
0.0
  0
VERTEX
  5
2A34A
  8
ALPHA
 10
1489.049431
 20
335.415291
 30
0.0
  0
VERTEX
  5
2A34B
  8
ALPHA
 10
1489.043632
 20
335.918979
 30
0.0
  0
VERTEX
  5
2A34C
  8
ALPHA
 10
1489.041618
 20
336.506861
 30
0.0
  0
VERTEX
  5
2A34D
  8
ALPHA
 10
1489.043632
 20
337.094744
 30
0.0
  0
VERTEX
  5
2A34E
  8
ALPHA
 10
1489.049431
 20
337.598432
 30
0.0
  0
VERTEX
  5
2A34F
  8
ALPHA
 10
1489.058251
 20
337.940443
 30
0.0
  0
VERTEX
  5
2A350
  8
ALPHA
 10
1489.068759
 20
338.061677
 30
0.0
  0
SEQEND
  5
2A351
  8
ALPHA
  0
POLYLINE
  5
267A3
  8
ALPHA
 66
     1
 10
0.0
 20
0.0
 30
0.0
  0
VERTEX
  5
2A352
  8
ALPHA
 10
1489.349785
 20
330.561677
 30
0.0
  0
VERTEX
  5
2A353
  8
ALPHA
 10
1489.360292
 20
330.440387
 30
0.0
  0
VERTEX
  5
2A354
  8
ALPHA
 10
1489.369111
 20
330.098362
 30
0.0
  0
VERTEX
  5
2A355
  8
ALPHA
 10
1489.374909
 20
329.594699
 30
0.0
  0
VERTEX
  5
2A356
  8
ALPHA
 10
1489.376923
 20
329.006861
 30
0.0
  0
VERTEX
  5
2A357
  8
ALPHA
 10
1489.374909
 20
328.419024
 30
0.0
  0
VERTEX
  5
2A358
  8
ALPHA
 10
1489.369111
 20
327.91536
 30
0.0
  0
VERTEX
  5
2A359
  8
ALPHA
 10
1489.360292
 20
327.573335
 30
0.0
  0
VERTEX
  5
2A35A
  8
ALPHA
 10
1489.349785
 20
327.452046
 30
0.0
  0
SEQEND
  5
2A35B
  8
ALPHA
  0
POLYLINE
  5
267AE
  8
ALPHA
 66
     1
 10
0.0
 20
0.0
 30
0.0
  0
VERTEX
  5
2A35C
  8
ALPHA
 10
1489.068759
 20
327.452046
 30
0.0
  0
VERTEX
  5
2A35D
  8
ALPHA
 10
1489.058251
 20
327.57328
 30
0.0
  0
VERTEX
  5
2A35E
  8
ALPHA
 10
1489.049431
 20
327.915291
 30
0.0
  0
VERTEX
  5
2A35F
  8
ALPHA
 10
1489.043632
 20
328.418979
 30
0.0
  0
VERTEX
  5
2A360
  8
ALPHA
 10
1489.041618
 20
329.006861
 30
0.0
  0
VERTEX
  5
2A361
  8
ALPHA
 10
1489.043632
 20
329.594744
 30
0.0
  0
VERTEX
  5
2A362
  8
ALPHA
 10
1489.049431
 20
330.098432
 30
0.0
  0
VERTEX
  5
2A363
  8
ALPHA
 10
1489.058251
 20
330.440443
 30
0.0
  0
VERTEX
  5
2A364
  8
ALPHA
 10
1489.068759
 20
330.561677
 30
0.0
  0
SEQEND
  5
2A365
  8
ALPHA
  0
LINE
  5
267B9
  8
ALPHA
 10
1489.068759
 20
353.061677
 30
0.0
 11
1489.349785
 21
353.061677
 31
0.0
  0
LINE
  5
267BA
  8
ALPHA
 10
1489.349785
 20
349.952046
 30
0.0
 11
1489.068759
 21
349.952046
 31
0.0
  0
LINE
  5
267BB
  8
ALPHA
 10
1489.068759
 20
345.561677
 30
0.0
 11
1489.349785
 21
345.561677
 31
0.0
  0
LINE
  5
267BC
  8
ALPHA
 10
1489.349785
 20
342.452046
 30
0.0
 11
1489.068759
 21
342.452046
 31
0.0
  0
POLYLINE
  5
267BD
  8
ALPHA
 66
     1
 10
0.0
 20
0.0
 30
0.0
  0
VERTEX
  5
2A366
  8
ALPHA
 10
1489.349785
 20
353.061677
 30
0.0
  0
VERTEX
  5
2A367
  8
ALPHA
 10
1489.360292
 20
352.940387
 30
0.0
  0
VERTEX
  5
2A368
  8
ALPHA
 10
1489.369111
 20
352.598362
 30
0.0
  0
VERTEX
  5
2A369
  8
ALPHA
 10
1489.374909
 20
352.094699
 30
0.0
  0
VERTEX
  5
2A36A
  8
ALPHA
 10
1489.376923
 20
351.506861
 30
0.0
  0
VERTEX
  5
2A36B
  8
ALPHA
 10
1489.374909
 20
350.919024
 30
0.0
  0
VERTEX
  5
2A36C
  8
ALPHA
 10
1489.369111
 20
350.41536
 30
0.0
  0
VERTEX
  5
2A36D
  8
ALPHA
 10
1489.360292
 20
350.073335
 30
0.0
  0
VERTEX
  5
2A36E
  8
ALPHA
 10
1489.349785
 20
349.952046
 30
0.0
  0
SEQEND
  5
2A36F
  8
ALPHA
  0
POLYLINE
  5
267C8
  8
ALPHA
 66
     1
 10
0.0
 20
0.0
 30
0.0
  0
VERTEX
  5
2A370
  8
ALPHA
 10
1489.068759
 20
349.952046
 30
0.0
  0
VERTEX
  5
2A371
  8
ALPHA
 10
1489.058251
 20
350.07328
 30
0.0
  0
VERTEX
  5
2A372
  8
ALPHA
 10
1489.049431
 20
350.415291
 30
0.0
  0
VERTEX
  5
2A373
  8
ALPHA
 10
1489.043632
 20
350.918979
 30
0.0
  0
VERTEX
  5
2A374
  8
ALPHA
 10
1489.041618
 20
351.506861
 30
0.0
  0
VERTEX
  5
2A375
  8
ALPHA
 10
1489.043632
 20
352.094744
 30
0.0
  0
VERTEX
  5
2A376
  8
ALPHA
 10
1489.049431
 20
352.598432
 30
0.0
  0
VERTEX
  5
2A377
  8
ALPHA
 10
1489.058251
 20
352.940443
 30
0.0
  0
VERTEX
  5
2A378
  8
ALPHA
 10
1489.068759
 20
353.061677
 30
0.0
  0
SEQEND
  5
2A379
  8
ALPHA
  0
POLYLINE
  5
267D3
  8
ALPHA
 66
     1
 10
0.0
 20
0.0
 30
0.0
  0
VERTEX
  5
2A37A
  8
ALPHA
 10
1489.349785
 20
345.561677
 30
0.0
  0
VERTEX
  5
2A37B
  8
ALPHA
 10
1489.360292
 20
345.440387
 30
0.0
  0
VERTEX
  5
2A37C
  8
ALPHA
 10
1489.369111
 20
345.098362
 30
0.0
  0
VERTEX
  5
2A37D
  8
ALPHA
 10
1489.374909
 20
344.594699
 30
0.0
  0
VERTEX
  5
2A37E
  8
ALPHA
 10
1489.376923
 20
344.006861
 30
0.0
  0
VERTEX
  5
2A37F
  8
ALPHA
 10
1489.374909
 20
343.419024
 30
0.0
  0
VERTEX
  5
2A380
  8
ALPHA
 10
1489.369111
 20
342.91536
 30
0.0
  0
VERTEX
  5
2A381
  8
ALPHA
 10
1489.360292
 20
342.573335
 30
0.0
  0
VERTEX
  5
2A382
  8
ALPHA
 10
1489.349785
 20
342.452046
 30
0.0
  0
SEQEND
  5
2A383
  8
ALPHA
  0
POLYLINE
  5
267DE
  8
ALPHA
 66
     1
 10
0.0
 20
0.0
 30
0.0
  0
VERTEX
  5
2A384
  8
ALPHA
 10
1489.068759
 20
342.452046
 30
0.0
  0
VERTEX
  5
2A385
  8
ALPHA
 10
1489.058251
 20
342.57328
 30
0.0
  0
VERTEX
  5
2A386
  8
ALPHA
 10
1489.049431
 20
342.915291
 30
0.0
  0
VERTEX
  5
2A387
  8
ALPHA
 10
1489.043632
 20
343.418979
 30
0.0
  0
VERTEX
  5
2A388
  8
ALPHA
 10
1489.041618
 20
344.006861
 30
0.0
  0
VERTEX
  5
2A389
  8
ALPHA
 10
1489.043632
 20
344.594744
 30
0.0
  0
VERTEX
  5
2A38A
  8
ALPHA
 10
1489.049431
 20
345.098432
 30
0.0
  0
VERTEX
  5
2A38B
  8
ALPHA
 10
1489.058251
 20
345.440443
 30
0.0
  0
VERTEX
  5
2A38C
  8
ALPHA
 10
1489.068759
 20
345.561677
 30
0.0
  0
SEQEND
  5
2A38D
  8
ALPHA
  0
POLYLINE
  5
267E9
  8
ALPHA
 66
     1
 10
0.0
 20
0.0
 30
0.0
  0
VERTEX
  5
2A38E
  8
ALPHA
 10
1490.928609
 20
367.751652
 30
0.0
  0
VERTEX
  5
2A38F
  8
ALPHA
 10
1490.354777
 20
367.637358
 30
0.0
  0
VERTEX
  5
2A390
  8
ALPHA
 10
1489.868272
 20
367.312218
 30
0.0
  0
VERTEX
  5
2A391
  8
ALPHA
 10
1489.543132
 20
366.825713
 30
0.0
  0
VERTEX
  5
2A392
  8
ALPHA
 10
1489.428838
 20
366.251881
 30
0.0
  0
SEQEND
  5
2A393
  8
ALPHA
  0
LINE
  5
267F0
  8
ALPHA
 10
1490.69377
 20
366.251881
 30
0.0
 11
1489.428838
 21
366.251881
 31
0.0
  0
LINE
  5
267F1
  8
ALPHA
 10
1490.4734
 20
368.206861
 30
0.0
 11
1490.928611
 21
367.75165
 31
0.0
  0
LINE
  5
267F2
  8
ALPHA
 10
1488.973629
 20
366.70709
 30
0.0
 11
1489.428838
 21
366.251881
 31
0.0
  0
POLYLINE
  5
267F3
  8
ALPHA
 66
     1
 10
0.0
 20
0.0
 30
0.0
  0
VERTEX
  5
2A394
  8
ALPHA
 10
1488.973629
 20
366.70709
 30
0.0
  0
VERTEX
  5
2A395
  8
ALPHA
 10
1489.087775
 20
367.281042
 30
0.0
  0
VERTEX
  5
2A396
  8
ALPHA
 10
1489.412874
 20
367.767616
 30
0.0
  0
VERTEX
  5
2A397
  8
ALPHA
 10
1489.899448
 20
368.092715
 30
0.0
  0
VERTEX
  5
2A398
  8
ALPHA
 10
1490.4734
 20
368.206861
 30
0.0
  0
SEQEND
  5
2A399
  8
ALPHA
  0
POLYLINE
  5
267FA
  8
ALPHA
 66
     1
 10
0.0
 20
0.0
 30
0.0
  0
VERTEX
  5
2A39A
  8
ALPHA
 10
1490.928609
 20
367.751652
 30
0.0
  0
VERTEX
  5
2A39B
  8
ALPHA
 10
1490.840911
 20
367.632661
 30
0.0
  0
VERTEX
  5
2A39C
  8
ALPHA
 10
1490.764866
 20
367.30635
 30
0.0
  0
VERTEX
  5
2A39D
  8
ALPHA
 10
1490.713239
 20
366.821736
 30
0.0
  0
VERTEX
  5
2A39E
  8
ALPHA
 10
1490.69377
 20
366.251881
 30
0.0
  0
SEQEND
  5
2A39F
  8
ALPHA
  0
ARC
  5
26801
  8
ALPHA
 10
1443.973629
 20
413.256861
 30
0.0
 40
10.0
 50
116.743684
 51
63.256316
  0
ARC
  5
26802
  8
ALPHA
 10
1443.973629
 20
425.256861
 30
0.0
 40
4.5
 50
0.0
 51
180.0
  0
LINE
  5
26803
  8
ALPHA
 10
1411.973629
 20
440.256861
 30
0.0
 11
1411.973629
 21
398.263382
 31
0.0
  0
LINE
  5
26804
  8
ALPHA
 10
1410.473629
 20
396.106861
 30
0.0
 11
1410.473629
 21
440.256861
 31
0.0
  0
ARC
  5
26805
  8
ALPHA
 10
1415.723629
 20
391.206861
 30
0.0
 40
8.0
 50
60.0
 51
82.627033
  0
ARC
  5
26806
  8
ALPHA
 10
1415.723629
 20
391.206861
 30
0.0
 40
8.0
 50
97.36126
 51
120.0
  0
LINE
  5
26807
  8
ALPHA
 10
1414.698629
 20
399.140926
 30
0.0
 11
1414.593705
 21
399.123432
 31
0.0
  0
POLYLINE
  5
26808
  8
ALPHA
 66
     1
 10
0.0
 20
0.0
 30
0.0
  0
VERTEX
  5
2A3A0
  8
ALPHA
 10
1416.942057
 20
399.08543
 30
0.0
  0
VERTEX
  5
2A3A1
  8
ALPHA
 10
1416.905369
 20
399.083455
 30
0.0
  0
VERTEX
  5
2A3A2
  8
ALPHA
 10
1416.849861
 20
399.084382
 30
0.0
  0
VERTEX
  5
2A3A3
  8
ALPHA
 10
1416.778816
 20
399.088113
 30
0.0
  0
SEQEND
  5
2A3A4
  8
ALPHA
  0
POLYLINE
  5
2680E
  8
ALPHA
 66
     1
 10
0.0
 20
0.0
 30
0.0
  0
VERTEX
  5
2A3A5
  8
ALPHA
 10
1414.773119
 20
399.101053
 30
0.0
  0
VERTEX
  5
2A3A6
  8
ALPHA
 10
1414.681919
 20
399.092597
 30
0.0
  0
VERTEX
  5
2A3A7
  8
ALPHA
 10
1414.603294
 20
399.086852
 30
0.0
  0
VERTEX
  5
2A3A8
  8
ALPHA
 10
1414.538285
 20
399.083822
 30
0.0
  0
VERTEX
  5
2A3A9
  8
ALPHA
 10
1414.490466
 20
399.083785
 30
0.0
  0
VERTEX
  5
2A3AA
  8
ALPHA
 10
1414.465014
 20
399.086823
 30
0.0
  0
VERTEX
  5
2A3AB
  8
ALPHA
 10
1414.460953
 20
399.089928
 30
0.0
  0
SEQEND
  5
2A3AC
  8
ALPHA
  0
POLYLINE
  5
26817
  8
ALPHA
 66
     1
 10
0.0
 20
0.0
 30
0.0
  0
VERTEX
  5
2A3AD
  8
ALPHA
 10
1414.962732
 20
399.123432
 30
0.0
  0
VERTEX
  5
2A3AE
  8
ALPHA
 10
1414.869833
 20
399.111676
 30
0.0
  0
VERTEX
  5
2A3AF
  8
ALPHA
 10
1414.773119
 20
399.101053
 30
0.0
  0
SEQEND
  5
2A3B0
  8
ALPHA
  0
POLYLINE
  5
2681C
  8
ALPHA
 66
     1
 10
0.0
 20
0.0
 30
0.0
  0
VERTEX
  5
2A3B1
  8
ALPHA
 10
1416.778816
 20
399.088113
 30
0.0
  0
VERTEX
  5
2A3B2
  8
ALPHA
 10
1416.695828
 20
399.094461
 30
0.0
  0
VERTEX
  5
2A3B3
  8
ALPHA
 10
1416.602641
 20
399.1034
 30
0.0
  0
VERTEX
  5
2A3B4
  8
ALPHA
 10
1416.507232
 20
399.114273
 30
0.0
  0
VERTEX
  5
2A3B5
  8
ALPHA
 10
1416.418483
 20
399.126037
 30
0.0
  0
SEQEND
  5
2A3B6
  8
ALPHA
  0
LINE
  5
26823
  8
ALPHA
 10
1416.354096
 20
399.137703
 30
0.0
 11
1416.430508
 21
399.132676
 31
0.0
  0
POLYLINE
  5
26824
  8
ALPHA
 66
     1
 10
0.0
 20
0.0
 30
0.0
  0
VERTEX
  5
2A3B7
  8
ALPHA
 10
1416.223629
 20
399.140884
 30
0.0
  0
VERTEX
  5
2A3B8
  8
ALPHA
 10
1416.285233
 20
399.140327
 30
0.0
  0
VERTEX
  5
2A3B9
  8
ALPHA
 10
1416.354096
 20
399.137703
 30
0.0
  0
SEQEND
  5
2A3BA
  8
ALPHA
  0
LINE
  5
26829
  8
ALPHA
 10
1416.223629
 20
398.135065
 30
0.0
 11
1419.723629
 21
398.135065
 31
0.0
  0
LINE
  5
2682A
  8
ALPHA
 10
1411.723629
 20
398.135065
 30
0.0
 11
1415.223629
 21
398.135065
 31
0.0
  0
LINE
  5
2682B
  8
ALPHA
 10
1416.223629
 20
397.606861
 30
0.0
 11
1415.223629
 21
397.606861
 31
0.0
  0
POLYLINE
  5
2682C
  8
ALPHA
 66
     1
 10
0.0
 20
0.0
 30
0.0
  0
VERTEX
  5
2A3BB
  8
ALPHA
 10
1415.223629
 20
399.140865
 30
0.0
  0
VERTEX
  5
2A3BC
  8
ALPHA
 10
1415.176976
 20
399.140518
 30
0.0
  0
VERTEX
  5
2A3BD
  8
ALPHA
 10
1415.125657
 20
399.138567
 30
0.0
  0
VERTEX
  5
2A3BE
  8
ALPHA
 10
1415.070942
 20
399.134961
 30
0.0
  0
VERTEX
  5
2A3BF
  8
ALPHA
 10
1415.015568
 20
399.129811
 30
0.0
  0
VERTEX
  5
2A3C0
  8
ALPHA
 10
1414.962732
 20
399.123432
 30
0.0
  0
SEQEND
  5
2A3C1
  8
ALPHA
  0
POLYLINE
  5
26834
  8
ALPHA
 66
     1
 10
0.0
 20
0.0
 30
0.0
  0
VERTEX
  5
2A3C2
  8
ALPHA
 10
1416.598781
 20
399.114377
 30
0.0
  0
VERTEX
  5
2A3C3
  8
ALPHA
 10
1416.676799
 20
399.104264
 30
0.0
  0
VERTEX
  5
2A3C4
  8
ALPHA
 10
1416.748629
 20
399.096272
 30
0.0
  0
SEQEND
  5
2A3C5
  8
ALPHA
  0
POLYLINE
  5
26839
  8
ALPHA
 66
     1
 10
0.0
 20
0.0
 30
0.0
  0
VERTEX
  5
2A3C6
  8
ALPHA
 10
1416.418483
 20
399.126037
 30
0.0
  0
VERTEX
  5
2A3C7
  8
ALPHA
 10
1416.368662
 20
399.132198
 30
0.0
  0
VERTEX
  5
2A3C8
  8
ALPHA
 10
1416.318378
 20
399.136723
 30
0.0
  0
VERTEX
  5
2A3C9
  8
ALPHA
 10
1416.269416
 20
399.139617
 30
0.0
  0
VERTEX
  5
2A3CA
  8
ALPHA
 10
1416.223629
 20
399.140868
 30
0.0
  0
SEQEND
  5
2A3CB
  8
ALPHA
  0
POLYLINE
  5
26840
  8
ALPHA
 66
     1
 10
0.0
 20
0.0
 30
0.0
  0
VERTEX
  5
2A3CC
  8
ALPHA
 10
1416.430508
 20
399.132676
 30
0.0
  0
VERTEX
  5
2A3CD
  8
ALPHA
 10
1416.513087
 20
399.12494
 30
0.0
  0
VERTEX
  5
2A3CE
  8
ALPHA
 10
1416.598781
 20
399.114377
 30
0.0
  0
SEQEND
  5
2A3CF
  8
ALPHA
  0
POLYLINE
  5
26845
  8
ALPHA
 66
     1
 10
0.0
 20
0.0
 30
0.0
  0
VERTEX
  5
2A3D0
  8
ALPHA
 10
1416.865731
 20
399.118707
 30
0.0
  0
VERTEX
  5
2A3D1
  8
ALPHA
 10
1416.918003
 20
399.107495
 30
0.0
  0
VERTEX
  5
2A3D2
  8
ALPHA
 10
1416.9495
 20
399.097668
 30
0.0
  0
VERTEX
  5
2A3D3
  8
ALPHA
 10
1416.957547
 20
399.091298
 30
0.0
  0
SEQEND
  5
2A3D4
  8
ALPHA
  0
LINE
  5
2684B
  8
ALPHA
 10
1416.865731
 20
399.118707
 30
0.0
 11
1416.748629
 21
399.140924
 31
0.0
  0
LINE
  5
2684C
  8
ALPHA
 10
1419.723629
 20
398.135065
 30
0.0
 11
1419.723629
 21
396.106861
 31
0.0
  0
LINE
  5
2684D
  8
ALPHA
 10
1416.865731
 20
399.118707
 30
0.0
 11
1416.865731
 21
399.084117
 31
0.0
  0
LINE
  5
2684E
  8
ALPHA
 10
1416.748629
 20
399.090422
 30
0.0
 11
1416.748629
 21
399.140717
 31
0.0
  0
LINE
  5
2684F
  8
ALPHA
 10
1416.598781
 20
399.114377
 30
0.0
 11
1416.598781
 21
399.103839
 31
0.0
  0
LINE
  5
26850
  8
ALPHA
 10
1416.223629
 20
397.606861
 30
0.0
 11
1416.223629
 21
399.140868
 31
0.0
  0
LINE
  5
26851
  8
ALPHA
 10
1415.223629
 20
399.140865
 30
0.0
 11
1415.223629
 21
397.606861
 31
0.0
  0
LINE
  5
26852
  8
ALPHA
 10
1414.698629
 20
399.094147
 30
0.0
 11
1414.698629
 21
399.140926
 31
0.0
  0
LINE
  5
26853
  8
ALPHA
 10
1414.593705
 20
399.123432
 30
0.0
 11
1414.593705
 21
399.086405
 31
0.0
  0
LINE
  5
26854
  8
ALPHA
 10
1411.723629
 20
398.135065
 30
0.0
 11
1411.723629
 21
396.106861
 31
0.0
  0
POLYLINE
  5
26855
  8
ALPHA
 66
     1
 10
0.0
 20
0.0
 30
0.0
  0
VERTEX
  5
2A3D5
  8
ALPHA
 10
1416.957547
 20
399.091298
 30
0.0
  0
VERTEX
  5
2A3D6
  8
ALPHA
 10
1416.957177
 20
399.090169
 30
0.0
  0
VERTEX
  5
2A3D7
  8
ALPHA
 10
1416.942057
 20
399.08543
 30
0.0
  0
SEQEND
  5
2A3D8
  8
ALPHA
  0
POLYLINE
  5
2685A
  8
ALPHA
 66
     1
 10
0.0
 20
0.0
 30
0.0
  0
VERTEX
  5
2A3D9
  8
ALPHA
 10
1414.460953
 20
399.089928
 30
0.0
  0
VERTEX
  5
2A3DA
  8
ALPHA
 10
1414.462832
 20
399.092593
 30
0.0
  0
VERTEX
  5
2A3DB
  8
ALPHA
 10
1414.484547
 20
399.101104
 30
0.0
  0
VERTEX
  5
2A3DC
  8
ALPHA
 10
1414.529758
 20
399.111737
 30
0.0
  0
VERTEX
  5
2A3DD
  8
ALPHA
 10
1414.593705
 20
399.123432
 30
0.0
  0
SEQEND
  5
2A3DE
  8
ALPHA
  0
LINE
  5
26861
  8
ALPHA
 10
1410.473629
 20
440.256861
 30
0.0
 11
1408.973629
 21
440.256861
 31
0.0
  0
LINE
  5
26862
  8
ALPHA
 10
1410.473629
 20
439.367943
 30
0.0
 11
1408.973629
 21
439.367943
 31
0.0
  0
LINE
  5
26863
  8
ALPHA
 10
1439.473629
 20
425.256861
 30
0.0
 11
1439.473629
 21
422.187147
 31
0.0
  0
CIRCLE
  5
26864
  8
ALPHA
 10
1478.973629
 20
427.106861
 30
0.0
 40
6.0
  0
LINE
  5
26865
  8
ALPHA
 10
1488.973629
 20
408.106861
 30
0.0
 11
1488.973629
 21
439.606861
 31
0.0
  0
LINE
  5
26866
  8
ALPHA
 10
1468.973629
 20
439.606861
 30
0.0
 11
1468.973629
 21
408.106861
 31
0.0
  0
LINE
  5
26867
  8
ALPHA
 10
1490.473629
 20
408.106861
 30
0.0
 11
1467.473629
 21
408.106861
 31
0.0
  0
LINE
  5
26868
  8
ALPHA
 10
1465.695851
 20
396.106861
 30
0.0
 11
1467.473629
 21
408.106861
 31
0.0
  0
LINE
  5
26869
  8
ALPHA
 10
1489.273629
 20
396.906861
 30
0.0
 11
1489.273629
 21
406.452955
 31
0.0
  0
LINE
  5
2686A
  8
ALPHA
 10
1468.673629
 20
396.906861
 30
0.0
 11
1468.673629
 21
406.452955
 31
0.0
  0
LINE
  5
2686B
  8
ALPHA
 10
1489.273629
 20
397.815888
 30
0.0
 11
1468.673629
 21
397.815888
 31
0.0
  0
LINE
  5
2686C
  8
ALPHA
 10
1489.273629
 20
396.906861
 30
0.0
 11
1468.673629
 21
396.906861
 31
0.0
  0
LINE
  5
2686D
  8
ALPHA
 10
1489.273629
 20
406.452955
 30
0.0
 11
1468.673629
 21
406.452955
 31
0.0
  0
LINE
  5
2686E
  8
ALPHA
 10
1448.473629
 20
422.187147
 30
0.0
 11
1448.473629
 21
425.256861
 31
0.0
  0
LINE
  5
2686F
  8
ALPHA
 10
1488.973629
 20
439.606861
 30
0.0
 11
1468.973629
 21
439.606861
 31
0.0
  0
POLYLINE
  5
26870
  8
ALPHA
 66
     1
 10
0.0
 20
0.0
 30
0.0
  0
VERTEX
  5
2A3DF
  8
ALPHA
 10
1498.680109
 20
366.230999
 30
0.0
  0
VERTEX
  5
2A3E0
  8
ALPHA
 10
1511.663871
 20
366.201927
 30
0.0
  0
VERTEX
  5
2A3E1
  8
ALPHA
 10
1524.697575
 20
366.178763
 30
0.0
  0
SEQEND
  5
2A3E2
  8
ALPHA
  0
CIRCLE
  5
26875
  8
ALPHA
 10
1496.573629
 20
361.506861
 30
0.0
 40
4.004288
  0
CIRCLE
  5
26876
  8
ALPHA
 10
1496.573629
 20
361.506861
 30
0.0
 40
3.754319
  0
ARC
  5
26877
  8
ALPHA
 10
1496.573629
 20
361.506861
 30
0.0
 40
3.0
 50
101.536959
 51
258.463041
  0
ARC
  5
26878
  8
ALPHA
 10
1496.573629
 20
361.506861
 30
0.0
 40
3.0
 50
281.536959
 51
78.463041
  0
ARC
  5
26879
  8
ALPHA
 10
1496.573629
 20
361.506861
 30
0.0
 40
3.5
 50
99.653406
 51
260.346594
  0
ARC
  5
2687A
  8
ALPHA
 10
1496.573629
 20
361.506861
 30
0.0
 40
3.5
 50
279.653406
 51
80.346594
  0
ARC
  5
2687B
  8
ALPHA
 10
1497.626908
 20
363.331194
 30
0.0
 40
0.688158
 50
193.266405
 51
286.733595
  0
ARC
  5
2687C
  8
ALPHA
 10
1497.626908
 20
359.682529
 30
0.0
 40
0.688158
 50
73.266405
 51
166.733595
  0
ARC
  5
2687D
  8
ALPHA
 10
1495.52035
 20
363.331194
 30
0.0
 40
0.688158
 50
253.266405
 51
346.733595
  0
ARC
  5
2687E
  8
ALPHA
 10
1496.573629
 20
363.082861
 30
0.0
 40
0.394
 50
13.266405
 51
166.733595
  0
ARC
  5
2687F
  8
ALPHA
 10
1496.573629
 20
361.506861
 30
0.0
 40
3.5
 50
80.650837
 51
99.349163
  0
ARC
  5
26880
  8
ALPHA
 10
1496.573629
 20
361.506861
 30
0.0
 40
3.5
 50
260.650837
 51
279.349163
  0
ARC
  5
26881
  8
ALPHA
 10
1496.573629
 20
359.930861
 30
0.0
 40
0.394
 50
193.266405
 51
346.733595
  0
ARC
  5
26882
  8
ALPHA
 10
1495.52035
 20
359.682529
 30
0.0
 40
0.688158
 50
13.266405
 51
106.733595
  0
ARC
  5
26883
  8
ALPHA
 10
1495.208773
 20
362.294861
 30
0.0
 40
0.394
 50
73.266405
 51
226.733595
  0
ARC
  5
26884
  8
ALPHA
 10
1495.208773
 20
360.718861
 30
0.0
 40
0.394
 50
133.266405
 51
286.733595
  0
ARC
  5
26885
  8
ALPHA
 10
1497.938485
 20
362.294861
 30
0.0
 40
0.394
 50
313.266405
 51
106.733595
  0
ARC
  5
26886
  8
ALPHA
 10
1497.938485
 20
360.718861
 30
0.0
 40
0.394
 50
253.266405
 51
46.733595
  0
ARC
  5
26887
  8
ALPHA
 10
1498.680186
 20
361.506861
 30
0.0
 40
0.688158
 50
133.266405
 51
226.733595
  0
ARC
  5
26888
  8
ALPHA
 10
1494.467071
 20
361.506861
 30
0.0
 40
0.688158
 50
313.266405
 51
46.733595
  0
LINE
  5
26889
  8
ALPHA
 10
1496.005052
 20
364.96037
 30
0.0
 11
1495.986722
 21
364.957302
 31
0.0
  0
LINE
  5
2688A
  8
ALPHA
 10
1497.142206
 20
358.053353
 30
0.0
 11
1497.160536
 21
358.056421
 31
0.0
  0
POLYLINE
  5
2688B
  8
ALPHA
 66
     1
 10
0.0
 20
0.0
 30
0.0
  0
VERTEX
  5
2A3E3
  8
ALPHA
 10
1496.545472
 20
367.703088
 30
0.0
  0
VERTEX
  5
2A3E4
  8
ALPHA
 10
1496.742511
 20
367.694676
 30
0.0
  0
VERTEX
  5
2A3E5
  8
ALPHA
 10
1496.937734
 20
367.66345
 30
0.0
  0
VERTEX
  5
2A3E6
  8
ALPHA
 10
1497.136383
 20
367.605802
 30
0.0
  0
VERTEX
  5
2A3E7
  8
ALPHA
 10
1497.340913
 20
367.518352
 30
0.0
  0
VERTEX
  5
2A3E8
  8
ALPHA
 10
1497.558289
 20
367.393741
 30
0.0
  0
VERTEX
  5
2A3E9
  8
ALPHA
 10
1497.795623
 20
367.220202
 30
0.0
  0
VERTEX
  5
2A3EA
  8
ALPHA
 10
1498.059673
 20
366.981042
 30
0.0
  0
VERTEX
  5
2A3EB
  8
ALPHA
 10
1498.355437
 20
366.65609
 30
0.0
  0
VERTEX
  5
2A3EC
  8
ALPHA
 10
1498.680103
 20
366.231
 30
0.0
  0
SEQEND
  5
2A3ED
  8
ALPHA
  0
POLYLINE
  5
26897
  8
ALPHA
 66
     1
 10
0.0
 20
0.0
 30
0.0
  0
VERTEX
  5
2A3EE
  8
ALPHA
 10
1496.573629
 20
365.72572
 30
0.0
  0
VERTEX
  5
2A3EF
  8
ALPHA
 10
1496.734824
 20
365.723348
 30
0.0
  0
VERTEX
  5
2A3F0
  8
ALPHA
 10
1496.901733
 20
365.714829
 30
0.0
  0
VERTEX
  5
2A3F1
  8
ALPHA
 10
1497.073946
 20
365.699274
 30
0.0
  0
VERTEX
  5
2A3F2
  8
ALPHA
 10
1497.252346
 20
365.675671
 30
0.0
  0
VERTEX
  5
2A3F3
  8
ALPHA
 10
1497.44173
 20
365.642045
 30
0.0
  0
VERTEX
  5
2A3F4
  8
ALPHA
 10
1497.647521
 20
365.595183
 30
0.0
  0
VERTEX
  5
2A3F5
  8
ALPHA
 10
1497.874289
 20
365.53058
 30
0.0
  0
VERTEX
  5
2A3F6
  8
ALPHA
 10
1498.12425
 20
365.442726
 30
0.0
  0
VERTEX
  5
2A3F7
  8
ALPHA
 10
1498.391222
 20
365.328089
 30
0.0
  0
SEQEND
  5
2A3F8
  8
ALPHA
  0
LINE
  5
268A3
  8
ALPHA
 10
1497.142206
 20
364.96037
 30
0.0
 11
1497.160536
 21
364.957302
 31
0.0
  0
LINE
  5
268A4
  8
ALPHA
 10
1496.005052
 20
358.053353
 30
0.0
 11
1495.986722
 21
358.056421
 31
0.0
  0
POLYLINE
  5
268A5
  8
ALPHA
 66
     1
 10
0.0
 20
0.0
 30
0.0
  0
VERTEX
  5
2A3F9
  8
ALPHA
 10
1496.573629
 20
357.281041
 30
0.0
  0
VERTEX
  5
2A3FA
  8
ALPHA
 10
1495.420532
 20
357.445239
 30
0.0
  0
VERTEX
  5
2A3FB
  8
ALPHA
 10
1494.366305
 20
357.911708
 30
0.0
  0
VERTEX
  5
2A3FC
  8
ALPHA
 10
1493.485819
 20
358.636631
 30
0.0
  0
VERTEX
  5
2A3FD
  8
ALPHA
 10
1492.835503
 20
359.562432
 30
0.0
  0
VERTEX
  5
2A3FE
  8
ALPHA
 10
1492.454823
 20
360.624272
 30
0.0
  0
VERTEX
  5
2A3FF
  8
ALPHA
 10
1492.368531
 20
361.748111
 30
0.0
  0
VERTEX
  5
2A400
  8
ALPHA
 10
1492.582493
 20
362.855197
 30
0.0
  0
VERTEX
  5
2A401
  8
ALPHA
 10
1493.082604
 20
363.867824
 30
0.0
  0
VERTEX
  5
2A402
  8
ALPHA
 10
1493.836561
 20
364.714836
 30
0.0
  0
VERTEX
  5
2A403
  8
ALPHA
 10
1494.798139
 20
365.335305
 30
0.0
  0
SEQEND
  5
2A404
  8
ALPHA
  0
POLYLINE
  5
268B2
  8
ALPHA
 66
     1
 10
0.0
 20
0.0
 30
0.0
  0
VERTEX
  5
2A405
  8
ALPHA
 10
1498.391222
 20
365.328089
 30
0.0
  0
VERTEX
  5
2A406
  8
ALPHA
 10
1498.974633
 20
364.993358
 30
0.0
  0
VERTEX
  5
2A407
  8
ALPHA
 10
1499.551245
 20
364.51834
 30
0.0
  0
VERTEX
  5
2A408
  8
ALPHA
 10
1500.081209
 20
363.882882
 30
0.0
  0
VERTEX
  5
2A409
  8
ALPHA
 10
1500.509786
 20
363.077214
 30
0.0
  0
VERTEX
  5
2A40A
  8
ALPHA
 10
1500.766127
 20
362.130304
 30
0.0
  0
VERTEX
  5
2A40B
  8
ALPHA
 10
1500.794156
 20
361.11498
 30
0.0
  0
VERTEX
  5
2A40C
  8
ALPHA
 10
1500.574692
 20
360.109562
 30
0.0
  0
VERTEX
  5
2A40D
  8
ALPHA
 10
1500.116761
 20
359.183996
 30
0.0
  0
VERTEX
  5
2A40E
  8
ALPHA
 10
1499.447092
 20
358.396273
 30
0.0
  0
VERTEX
  5
2A40F
  8
ALPHA
 10
1498.601571
 20
357.792252
 30
0.0
  0
VERTEX
  5
2A410
  8
ALPHA
 10
1497.624826
 20
357.410471
 30
0.0
  0
VERTEX
  5
2A411
  8
ALPHA
 10
1496.573629
 20
357.281041
 30
0.0
  0
SEQEND
  5
2A412
  8
ALPHA
  0
POLYLINE
  5
268C1
  8
ALPHA
 66
     1
 10
0.0
 20
0.0
 30
0.0
  0
VERTEX
  5
2A413
  8
ALPHA
 10
1498.680109
 20
366.230999
 30
0.0
  0
VERTEX
  5
2A414
  8
ALPHA
 10
1499.402704
 20
365.816736
 30
0.0
  0
VERTEX
  5
2A415
  8
ALPHA
 10
1500.116776
 20
365.229064
 30
0.0
  0
VERTEX
  5
2A416
  8
ALPHA
 10
1500.773048
 20
364.442978
 30
0.0
  0
VERTEX
  5
2A417
  8
ALPHA
 10
1501.303763
 20
363.446091
 30
0.0
  0
VERTEX
  5
2A418
  8
ALPHA
 10
1501.620855
 20
362.27425
 30
0.0
  0
VERTEX
  5
2A419
  8
ALPHA
 10
1501.65467
 20
361.018293
 30
0.0
  0
VERTEX
  5
2A41A
  8
ALPHA
 10
1501.381783
 20
359.775251
 30
0.0
  0
VERTEX
  5
2A41B
  8
ALPHA
 10
1500.813652
 20
358.631399
 30
0.0
  0
VERTEX
  5
2A41C
  8
ALPHA
 10
1499.983471
 20
357.65814
 30
0.0
  0
VERTEX
  5
2A41D
  8
ALPHA
 10
1498.9356
 20
356.912057
 30
0.0
  0
VERTEX
  5
2A41E
  8
ALPHA
 10
1497.725367
 20
356.440619
 30
0.0
  0
VERTEX
  5
2A41F
  8
ALPHA
 10
1496.428538
 20
356.281193
 30
0.0
  0
SEQEND
  5
2A420
  8
ALPHA
  0
POLYLINE
  5
268D0
  8
ALPHA
 66
     1
 10
0.0
 20
0.0
 30
0.0
  0
VERTEX
  5
2A421
  8
ALPHA
 10
1494.22799
 20
366.242357
 30
0.0
  0
VERTEX
  5
2A422
  8
ALPHA
 10
1494.402924
 20
365.885334
 30
0.0
  0
VERTEX
  5
2A423
  8
ALPHA
 10
1494.573758
 20
365.585823
 30
0.0
  0
VERTEX
  5
2A424
  8
ALPHA
 10
1494.712974
 20
365.392071
 30
0.0
  0
VERTEX
  5
2A425
  8
ALPHA
 10
1494.798145
 20
365.335291
 30
0.0
  0
SEQEND
  5
2A426
  8
ALPHA
  0
POLYLINE
  5
268D7
  8
ALPHA
 66
     1
 10
0.0
 20
0.0
 30
0.0
  0
VERTEX
  5
2A427
  8
ALPHA
 10
1497.173629
 20
358.567474
 30
0.0
  0
VERTEX
  5
2A428
  8
ALPHA
 10
1497.173174
 20
358.434236
 30
0.0
  0
VERTEX
  5
2A429
  8
ALPHA
 10
1497.171851
 20
358.310824
 30
0.0
  0
VERTEX
  5
2A42A
  8
ALPHA
 10
1497.169758
 20
358.205319
 30
0.0
  0
VERTEX
  5
2A42B
  8
ALPHA
 10
1497.167042
 20
358.124637
 30
0.0
  0
VERTEX
  5
2A42C
  8
ALPHA
 10
1497.163895
 20
358.073975
 30
0.0
  0
VERTEX
  5
2A42D
  8
ALPHA
 10
1497.160536
 20
358.056421
 30
0.0
  0
SEQEND
  5
2A42E
  8
ALPHA
  0
POLYLINE
  5
268E0
  8
ALPHA
 66
     1
 10
0.0
 20
0.0
 30
0.0
  0
VERTEX
  5
2A42F
  8
ALPHA
 10
1495.973629
 20
364.446249
 30
0.0
  0
VERTEX
  5
2A430
  8
ALPHA
 10
1495.974083
 20
364.579487
 30
0.0
  0
VERTEX
  5
2A431
  8
ALPHA
 10
1495.975406
 20
364.702899
 30
0.0
  0
VERTEX
  5
2A432
  8
ALPHA
 10
1495.9775
 20
364.808404
 30
0.0
  0
VERTEX
  5
2A433
  8
ALPHA
 10
1495.980215
 20
364.889085
 30
0.0
  0
VERTEX
  5
2A434
  8
ALPHA
 10
1495.983362
 20
364.939748
 30
0.0
  0
VERTEX
  5
2A435
  8
ALPHA
 10
1495.986722
 20
364.957302
 30
0.0
  0
SEQEND
  5
2A436
  8
ALPHA
  0
LINE
  5
268E9
  8
ALPHA
 10
1497.173629
 20
362.813411
 30
0.0
 11
1497.173629
 21
364.446249
 31
0.0
  0
LINE
  5
268EA
  8
ALPHA
 10
1497.173629
 20
358.567474
 30
0.0
 11
1497.173629
 21
360.200312
 31
0.0
  0
LINE
  5
268EB
  8
ALPHA
 10
1497.142206
 20
362.842701
 30
0.0
 11
1497.142206
 21
364.96037
 31
0.0
  0
LINE
  5
268EC
  8
ALPHA
 10
1497.142206
 20
358.053353
 30
0.0
 11
1497.142206
 21
360.171021
 31
0.0
  0
LINE
  5
268ED
  8
ALPHA
 10
1496.005052
 20
362.842701
 30
0.0
 11
1496.005052
 21
364.96037
 31
0.0
  0
LINE
  5
268EE
  8
ALPHA
 10
1496.005052
 20
358.053353
 30
0.0
 11
1496.005052
 21
360.171021
 31
0.0
  0
LINE
  5
268EF
  8
ALPHA
 10
1495.973629
 20
362.813411
 30
0.0
 11
1495.973629
 21
364.446249
 31
0.0
  0
LINE
  5
268F0
  8
ALPHA
 10
1495.973629
 20
358.567474
 30
0.0
 11
1495.973629
 21
360.200312
 31
0.0
  0
POLYLINE
  5
268F1
  8
ALPHA
 66
     1
 10
0.0
 20
0.0
 30
0.0
  0
VERTEX
  5
2A437
  8
ALPHA
 10
1497.173629
 20
364.446249
 30
0.0
  0
VERTEX
  5
2A438
  8
ALPHA
 10
1497.173174
 20
364.579487
 30
0.0
  0
VERTEX
  5
2A439
  8
ALPHA
 10
1497.171851
 20
364.702899
 30
0.0
  0
VERTEX
  5
2A43A
  8
ALPHA
 10
1497.169758
 20
364.808404
 30
0.0
  0
VERTEX
  5
2A43B
  8
ALPHA
 10
1497.167042
 20
364.889085
 30
0.0
  0
VERTEX
  5
2A43C
  8
ALPHA
 10
1497.163895
 20
364.939748
 30
0.0
  0
VERTEX
  5
2A43D
  8
ALPHA
 10
1497.160536
 20
364.957302
 30
0.0
  0
SEQEND
  5
2A43E
  8
ALPHA
  0
POLYLINE
  5
268FA
  8
ALPHA
 66
     1
 10
0.0
 20
0.0
 30
0.0
  0
VERTEX
  5
2A43F
  8
ALPHA
 10
1495.973629
 20
358.567474
 30
0.0
  0
VERTEX
  5
2A440
  8
ALPHA
 10
1495.974083
 20
358.434236
 30
0.0
  0
VERTEX
  5
2A441
  8
ALPHA
 10
1495.975406
 20
358.310824
 30
0.0
  0
VERTEX
  5
2A442
  8
ALPHA
 10
1495.9775
 20
358.205319
 30
0.0
  0
VERTEX
  5
2A443
  8
ALPHA
 10
1495.980215
 20
358.124637
 30
0.0
  0
VERTEX
  5
2A444
  8
ALPHA
 10
1495.983362
 20
358.073975
 30
0.0
  0
VERTEX
  5
2A445
  8
ALPHA
 10
1495.986722
 20
358.056421
 30
0.0
  0
SEQEND
  5
2A446
  8
ALPHA
  0
POLYLINE
  5
26903
  8
ALPHA
 66
     1
 10
0.0
 20
0.0
 30
0.0
  0
VERTEX
  5
2A447
  8
ALPHA
 10
1498.680109
 20
366.230999
 30
0.0
  0
VERTEX
  5
2A448
  8
ALPHA
 10
1498.496738
 20
365.798643
 30
0.0
  0
VERTEX
  5
2A449
  8
ALPHA
 10
1498.391968
 20
365.471188
 30
0.0
  0
VERTEX
  5
2A44A
  8
ALPHA
 10
1498.391219
 20
365.328083
 30
0.0
  0
SEQEND
  5
2A44B
  8
ALPHA
  0
POLYLINE
  5
26909
  8
ALPHA
 66
     1
 10
0.0
 20
0.0
 30
0.0
  0
VERTEX
  5
2A44C
  8
ALPHA
 10
1496.545472
 20
367.703088
 30
0.0
  0
VERTEX
  5
2A44D
  8
ALPHA
 10
1496.498739
 20
367.534545
 30
0.0
  0
VERTEX
  5
2A44E
  8
ALPHA
 10
1496.464835
 20
367.227983
 30
0.0
  0
VERTEX
  5
2A44F
  8
ALPHA
 10
1496.449534
 20
366.835702
 30
0.0
  0
VERTEX
  5
2A450
  8
ALPHA
 10
1496.455428
 20
366.424629
 30
0.0
  0
VERTEX
  5
2A451
  8
ALPHA
 10
1496.481496
 20
366.064894
 30
0.0
  0
VERTEX
  5
2A452
  8
ALPHA
 10
1496.523277
 20
365.81787
 30
0.0
  0
VERTEX
  5
2A453
  8
ALPHA
 10
1496.573629
 20
365.725699
 30
0.0
  0
SEQEND
  5
2A454
  8
ALPHA
  0
POLYLINE
  5
26913
  8
ALPHA
 66
     1
 10
0.0
 20
0.0
 30
0.0
  0
VERTEX
  5
2A455
  8
ALPHA
 10
1494.798139
 20
365.335305
 30
0.0
  0
VERTEX
  5
2A456
  8
ALPHA
 10
1495.068097
 20
365.449837
 30
0.0
  0
VERTEX
  5
2A457
  8
ALPHA
 10
1495.328065
 20
365.539492
 30
0.0
  0
VERTEX
  5
2A458
  8
ALPHA
 10
1495.569774
 20
365.606037
 30
0.0
  0
VERTEX
  5
2A459
  8
ALPHA
 10
1495.792619
 20
365.653824
 30
0.0
  0
VERTEX
  5
2A45A
  8
ALPHA
 10
1495.99866
 20
365.686899
 30
0.0
  0
VERTEX
  5
2A45B
  8
ALPHA
 10
1496.191172
 20
365.708462
 30
0.0
  0
VERTEX
  5
2A45C
  8
ALPHA
 10
1496.378342
 20
365.721034
 30
0.0
  0
VERTEX
  5
2A45D
  8
ALPHA
 10
1496.573629
 20
365.72572
 30
0.0
  0
SEQEND
  5
2A45E
  8
ALPHA
  0
POLYLINE
  5
2691E
  8
ALPHA
 66
     1
 10
0.0
 20
0.0
 30
0.0
  0
VERTEX
  5
2A45F
  8
ALPHA
 10
1494.22799
 20
366.242357
 30
0.0
  0
VERTEX
  5
2A460
  8
ALPHA
 10
1494.569898
 20
366.669314
 30
0.0
  0
VERTEX
  5
2A461
  8
ALPHA
 10
1494.906925
 20
367.003295
 30
0.0
  0
VERTEX
  5
2A462
  8
ALPHA
 10
1495.224722
 20
367.251761
 30
0.0
  0
VERTEX
  5
2A463
  8
ALPHA
 10
1495.520155
 20
367.430705
 30
0.0
  0
VERTEX
  5
2A464
  8
ALPHA
 10
1495.793992
 20
367.554971
 30
0.0
  0
VERTEX
  5
2A465
  8
ALPHA
 10
1496.049966
 20
367.636572
 30
0.0
  0
VERTEX
  5
2A466
  8
ALPHA
 10
1496.294574
 20
367.6844
 30
0.0
  0
VERTEX
  5
2A467
  8
ALPHA
 10
1496.545472
 20
367.703107
 30
0.0
  0
SEQEND
  5
2A468
  8
ALPHA
  0
LINE
  5
26929
  8
ALPHA
 10
1524.486963
 20
367.679069
 30
0.0
 11
1524.766497
 21
367.644351
 31
0.0
  0
POLYLINE
  5
2692A
  8
ALPHA
 66
     1
 10
0.0
 20
0.0
 30
0.0
  0
VERTEX
  5
2A469
  8
ALPHA
 10
1524.486963
 20
367.679069
 30
0.0
  0
VERTEX
  5
2A46A
  8
ALPHA
 10
1524.568563
 20
367.555121
 30
0.0
  0
VERTEX
  5
2A46B
  8
ALPHA
 10
1524.636673
 20
367.226312
 30
0.0
  0
VERTEX
  5
2A46C
  8
ALPHA
 10
1524.681922
 20
366.741526
 30
0.0
  0
VERTEX
  5
2A46D
  8
ALPHA
 10
1524.697575
 20
366.178763
 30
0.0
  0
SEQEND
  5
2A46E
  8
ALPHA
  0
POLYLINE
  5
26931
  8
ALPHA
 66
     1
 10
0.0
 20
0.0
 30
0.0
  0
VERTEX
  5
2A46F
  8
ALPHA
 10
1524.973629
 20
366.14458
 30
0.0
  0
VERTEX
  5
2A470
  8
ALPHA
 10
1524.958043
 20
366.710611
 30
0.0
  0
VERTEX
  5
2A471
  8
ALPHA
 10
1524.913383
 20
367.194465
 30
0.0
  0
VERTEX
  5
2A472
  8
ALPHA
 10
1524.846299
 20
367.521955
 30
0.0
  0
VERTEX
  5
2A473
  8
ALPHA
 10
1524.766497
 20
367.644351
 30
0.0
  0
SEQEND
  5
2A474
  8
ALPHA
  0
CIRCLE
  5
26938
  8
ALPHA
 10
1534.723629
 20
425.256861
 30
0.0
 40
3.5
  0
CIRCLE
  5
26939
  8
ALPHA
 10
1509.723629
 20
425.256861
 30
0.0
 40
11.0
  0
CIRCLE
  5
2693A
  8
ALPHA
 10
1509.723629
 20
425.256861
 30
0.0
 40
7.75
  0
CIRCLE
  5
2693B
  8
ALPHA
 10
1509.723629
 20
425.256861
 30
0.0
 40
4.188125
  0
CIRCLE
  5
2693C
  8
ALPHA
 10
1509.723629
 20
425.256861
 30
0.0
 40
5.0
  0
LINE
  5
2693D
  8
ALPHA
 10
1527.223629
 20
410.256861
 30
0.0
 11
1527.223629
 21
440.256861
 31
0.0
  0
LINE
  5
2693E
  8
ALPHA
 10
1526.223629
 20
410.256861
 30
0.0
 11
1526.223629
 21
440.256861
 31
0.0
  0
LINE
  5
2693F
  8
ALPHA
 10
1524.523629
 20
410.256861
 30
0.0
 11
1524.523629
 21
440.256861
 31
0.0
  0
LINE
  5
26940
  8
ALPHA
 10
1517.723629
 20
420.638059
 30
0.0
 11
1517.723629
 21
429.875664
 31
0.0
  0
LINE
  5
26941
  8
ALPHA
 10
1501.723629
 20
429.875664
 30
0.0
 11
1501.723629
 21
420.638059
 31
0.0
  0
LINE
  5
26942
  8
ALPHA
 10
1494.923629
 20
440.256861
 30
0.0
 11
1494.923629
 21
410.256861
 31
0.0
  0
LINE
  5
26943
  8
ALPHA
 10
1493.223629
 20
440.256861
 30
0.0
 11
1493.223629
 21
410.256861
 31
0.0
  0
LINE
  5
26944
  8
ALPHA
 10
1492.223629
 20
440.256861
 30
0.0
 11
1492.223629
 21
410.256861
 31
0.0
  0
ARC
  5
26945
  8
ALPHA
 10
1514.723629
 20
410.256861
 30
0.0
 40
9.8
 50
270.0
 51
0.0
  0
ARC
  5
26946
  8
ALPHA
 10
1514.723629
 20
410.256861
 30
0.0
 40
12.5
 50
270.0
 51
0.0
  0
ARC
  5
26947
  8
ALPHA
 10
1514.723629
 20
410.256861
 30
0.0
 40
11.5
 50
270.0
 51
0.0
  0
LINE
  5
26948
  8
ALPHA
 10
1509.723629
 20
416.019257
 30
0.0
 11
1517.723629
 21
420.638059
 31
0.0
  0
ARC
  5
26949
  8
ALPHA
 10
1504.723629
 20
410.256861
 30
0.0
 40
9.8
 50
180.0
 51
270.0
  0
LINE
  5
2694A
  8
ALPHA
 10
1504.723629
 20
400.456861
 30
0.0
 11
1514.723629
 21
400.456861
 31
0.0
  0
LINE
  5
2694B
  8
ALPHA
 10
1504.723629
 20
398.756861
 30
0.0
 11
1514.723629
 21
398.756861
 31
0.0
  0
LINE
  5
2694C
  8
ALPHA
 10
1504.723629
 20
397.756861
 30
0.0
 11
1514.723629
 21
397.756861
 31
0.0
  0
LINE
  5
2694D
  8
ALPHA
 10
1514.723629
 20
397.756861
 30
0.0
 11
1514.723629
 21
400.456861
 31
0.0
  0
LINE
  5
2694E
  8
ALPHA
 10
1504.723629
 20
397.756861
 30
0.0
 11
1504.723629
 21
400.456861
 31
0.0
  0
LINE
  5
2694F
  8
ALPHA
 10
1501.723629
 20
420.638059
 30
0.0
 11
1509.723629
 21
416.019257
 31
0.0
  0
LINE
  5
26950
  8
ALPHA
 10
1492.223629
 20
410.256861
 30
0.0
 11
1494.923629
 21
410.256861
 31
0.0
  0
LINE
  5
26951
  8
ALPHA
 10
1524.523629
 20
410.256861
 30
0.0
 11
1527.223629
 21
410.256861
 31
0.0
  0
LINE
  5
26952
  8
ALPHA
 10
1517.723629
 20
429.875664
 30
0.0
 11
1509.723629
 21
434.494466
 31
0.0
  0
LINE
  5
26953
  8
ALPHA
 10
1509.723629
 20
434.494466
 30
0.0
 11
1501.723629
 21
429.875664
 31
0.0
  0
CIRCLE
  5
26954
  8
ALPHA
 10
1534.723629
 20
425.256861
 30
0.0
 40
3.0
  0
LINE
  5
26955
  8
ALPHA
 10
1534.523629
 20
427.756861
 30
0.0
 11
1534.923629
 21
427.756861
 31
0.0
  0
LINE
  5
26956
  8
ALPHA
 10
1534.923629
 20
425.456861
 30
0.0
 11
1536.973629
 21
425.456861
 31
0.0
  0
LINE
  5
26957
  8
ALPHA
 10
1534.523629
 20
425.456861
 30
0.0
 11
1532.473629
 21
425.456861
 31
0.0
  0
LINE
  5
26958
  8
ALPHA
 10
1532.473629
 20
425.056861
 30
0.0
 11
1536.973629
 21
425.056861
 31
0.0
  0
LINE
  5
26959
  8
ALPHA
 10
1533.723629
 20
424.456861
 30
0.0
 11
1535.723629
 21
424.456861
 31
0.0
  0
LINE
  5
2695A
  8
ALPHA
 10
1535.723629
 20
424.056861
 30
0.0
 11
1533.723629
 21
424.056861
 31
0.0
  0
LINE
  5
2695B
  8
ALPHA
 10
1534.323629
 20
423.456861
 30
0.0
 11
1535.123629
 21
423.456861
 31
0.0
  0
LINE
  5
2695C
  8
ALPHA
 10
1535.123629
 20
423.056861
 30
0.0
 11
1534.323629
 21
423.056861
 31
0.0
  0
LINE
  5
2695D
  8
ALPHA
 10
1536.973629
 20
425.456861
 30
0.0
 11
1536.973629
 21
425.056861
 31
0.0
  0
LINE
  5
2695E
  8
ALPHA
 10
1535.723629
 20
424.456861
 30
0.0
 11
1535.723629
 21
424.056861
 31
0.0
  0
LINE
  5
2695F
  8
ALPHA
 10
1535.123629
 20
423.456861
 30
0.0
 11
1535.123629
 21
423.056861
 31
0.0
  0
LINE
  5
26960
  8
ALPHA
 10
1534.923629
 20
427.756861
 30
0.0
 11
1534.923629
 21
425.456861
 31
0.0
  0
LINE
  5
26961
  8
ALPHA
 10
1534.523629
 20
427.756861
 30
0.0
 11
1534.523629
 21
425.456861
 31
0.0
  0
LINE
  5
26962
  8
ALPHA
 10
1534.323629
 20
423.456861
 30
0.0
 11
1534.323629
 21
423.056861
 31
0.0
  0
LINE
  5
26963
  8
ALPHA
 10
1533.723629
 20
424.456861
 30
0.0
 11
1533.723629
 21
424.056861
 31
0.0
  0
LINE
  5
26964
  8
ALPHA
 10
1532.473629
 20
425.456861
 30
0.0
 11
1532.473629
 21
425.056861
 31
0.0
  0
CIRCLE
  5
26965
  8
ALPHA
 10
1568.973629
 20
427.106861
 30
0.0
 40
6.0
  0
LINE
  5
26966
  8
ALPHA
 10
1578.973629
 20
408.106861
 30
0.0
 11
1578.973629
 21
439.606861
 31
0.0
  0
LINE
  5
26967
  8
ALPHA
 10
1558.973629
 20
439.606861
 30
0.0
 11
1558.973629
 21
408.106861
 31
0.0
  0
LINE
  5
26968
  8
ALPHA
 10
1580.473629
 20
408.106861
 30
0.0
 11
1557.473629
 21
408.106861
 31
0.0
  0
LINE
  5
26969
  8
ALPHA
 10
1579.273629
 20
406.452955
 30
0.0
 11
1558.673629
 21
406.452955
 31
0.0
  0
LINE
  5
2696A
  8
ALPHA
 10
1579.273629
 20
397.815888
 30
0.0
 11
1558.673629
 21
397.815888
 31
0.0
  0
LINE
  5
2696B
  8
ALPHA
 10
1579.273629
 20
396.906861
 30
0.0
 11
1558.673629
 21
396.906861
 31
0.0
  0
LINE
  5
2696C
  8
ALPHA
 10
1558.673629
 20
396.906861
 30
0.0
 11
1558.673629
 21
406.452955
 31
0.0
  0
LINE
  5
2696D
  8
ALPHA
 10
1555.695851
 20
396.106861
 30
0.0
 11
1557.473629
 21
408.106861
 31
0.0
  0
LINE
  5
2696E
  8
ALPHA
 10
1580.473629
 20
408.106861
 30
0.0
 11
1582.251406
 21
396.106861
 31
0.0
  0
LINE
  5
2696F
  8
ALPHA
 10
1579.273629
 20
396.906861
 30
0.0
 11
1579.273629
 21
406.452955
 31
0.0
  0
LINE
  5
26970
  8
ALPHA
 10
1578.973629
 20
439.606861
 30
0.0
 11
1558.973629
 21
439.606861
 31
0.0
  0
LINE
  5
26971
  8
ALPHA
 10
1728.973629
 20
60.256861
 30
0.0
 11
1728.973629
 21
440.256861
 31
0.0
  0
LINE
  5
26972
  8
ALPHA
 10
1648.973629
 20
172.006633
 30
0.0
 11
1648.973629
 21
366.70709
 31
0.0
  0
LINE
  5
26973
  8
ALPHA
 10
1648.518419
 20
366.251881
 30
0.0
 11
1648.518419
 21
181.656885
 31
0.0
  0
LINE
  5
26974
  8
ALPHA
 10
1647.253487
 20
366.251881
 30
0.0
 11
1647.253487
 21
181.656885
 31
0.0
  0
CIRCLE
  5
26975
  8
ALPHA
 10
1658.973629
 20
91.106861
 30
0.0
 40
6.0
  0
LINE
  5
26976
  8
ALPHA
 10
1668.973629
 20
110.106861
 30
0.0
 11
1668.973629
 21
79.406861
 31
0.0
  0
LINE
  5
26977
  8
ALPHA
 10
1648.973629
 20
110.106861
 30
0.0
 11
1648.973629
 21
79.406861
 31
0.0
  0
CIRCLE
  5
26978
  8
ALPHA
 10
1658.973629
 20
73.406861
 30
0.0
 40
6.0
  0
LINE
  5
26979
  8
ALPHA
 10
1648.973629
 20
79.406861
 30
0.0
 11
1668.973629
 21
79.406861
 31
0.0
  0
LINE
  5
2697A
  8
ALPHA
 10
1648.973629
 20
60.906861
 30
0.0
 11
1668.973629
 21
60.906861
 31
0.0
  0
LINE
  5
2697B
  8
ALPHA
 10
1648.973629
 20
79.406861
 30
0.0
 11
1648.973629
 21
60.906861
 31
0.0
  0
LINE
  5
2697C
  8
ALPHA
 10
1668.973629
 20
60.906861
 30
0.0
 11
1668.973629
 21
79.406861
 31
0.0
  0
LINE
  5
2697D
  8
ALPHA
 10
1648.673629
 20
121.306861
 30
0.0
 11
1669.273629
 21
121.306861
 31
0.0
  0
LINE
  5
2697E
  8
ALPHA
 10
1648.673629
 20
120.397834
 30
0.0
 11
1669.273629
 21
120.397834
 31
0.0
  0
LINE
  5
2697F
  8
ALPHA
 10
1648.673629
 20
111.760768
 30
0.0
 11
1669.273629
 21
111.760768
 31
0.0
  0
LINE
  5
26980
  8
ALPHA
 10
1647.473629
 20
110.106861
 30
0.0
 11
1670.473629
 21
110.106861
 31
0.0
  0
LINE
  5
26981
  8
ALPHA
 10
1648.673629
 20
121.306861
 30
0.0
 11
1648.673629
 21
111.760768
 31
0.0
  0
LINE
  5
26982
  8
ALPHA
 10
1647.473629
 20
110.106861
 30
0.0
 11
1645.695851
 21
122.106861
 31
0.0
  0
LINE
  5
26983
  8
ALPHA
 10
1672.251406
 20
122.106861
 30
0.0
 11
1670.473629
 21
110.106861
 31
0.0
  0
LINE
  5
26984
  8
ALPHA
 10
1669.273629
 20
121.306861
 30
0.0
 11
1669.273629
 21
111.760768
 31
0.0
  0
LINE
  5
26985
  8
ALPHA
 10
1636.888629
 20
180.17391
 30
0.0
 11
1629.421751
 21
180.190955
 31
0.0
  0
LINE
  5
26986
  8
ALPHA
 10
1615.966499
 20
180.225665
 30
0.0
 11
1647.018646
 21
180.157115
 31
0.0
  0
LINE
  5
26987
  8
ALPHA
 10
1624.993629
 20
177.876861
 30
0.0
 11
1641.253629
 21
177.876861
 31
0.0
  0
LINE
  5
26988
  8
ALPHA
 10
1594.223629
 20
142.906861
 30
0.0
 11
1594.223629
 21
142.106861
 31
0.0
  0
LINE
  5
26989
  8
ALPHA
 10
1593.223629
 20
142.906861
 30
0.0
 11
1593.223629
 21
142.106861
 31
0.0
  0
LINE
  5
2698A
  8
ALPHA
 10
1621.043629
 20
174.256861
 30
0.0
 11
1621.043629
 21
180.122571
 31
0.0
  0
LINE
  5
2698B
  8
ALPHA
 10
1623.073629
 20
180.203784
 30
0.0
 11
1623.009566
 21
180.139721
 31
0.0
  0
LINE
  5
2698C
  8
ALPHA
 10
1629.358629
 20
180.191083
 30
0.0
 11
1629.358629
 21
177.876861
 31
0.0
  0
LINE
  5
2698D
  8
ALPHA
 10
1626.728629
 20
180.196398
 30
0.0
 11
1626.728629
 21
177.876861
 31
0.0
  0
LINE
  5
2698E
  8
ALPHA
 10
1624.993629
 20
177.876861
 30
0.0
 11
1624.993629
 21
180.199904
 31
0.0
  0
LINE
  5
2698F
  8
ALPHA
 10
1629.421751
 20
180.190955
 30
0.0
 11
1623.073629
 21
180.203784
 31
0.0
  0
POLYLINE
  5
26990
  8
ALPHA
 66
     1
 10
0.0
 20
0.0
 30
0.0
  0
VERTEX
  5
2A475
  8
ALPHA
 10
1622.009718
 20
180.122571
 30
0.0
  0
VERTEX
  5
2A476
  8
ALPHA
 10
1622.388347
 20
180.12387
 30
0.0
  0
VERTEX
  5
2A477
  8
ALPHA
 10
1622.710612
 20
180.127576
 30
0.0
  0
VERTEX
  5
2A478
  8
ALPHA
 10
1622.928501
 20
180.133135
 30
0.0
  0
VERTEX
  5
2A479
  8
ALPHA
 10
1623.009566
 20
180.139721
 30
0.0
  0
SEQEND
  5
2A47A
  8
ALPHA
  0
LINE
  5
26997
  8
ALPHA
 10
1648.973629
 20
142.906861
 30
0.0
 11
1648.973629
 21
142.106861
 31
0.0
  0
LINE
  5
26998
  8
ALPHA
 10
1634.723629
 20
142.106861
 30
0.0
 11
1634.723629
 21
142.906861
 31
0.0
  0
LINE
  5
26999
  8
ALPHA
 10
1633.723629
 20
142.106861
 30
0.0
 11
1633.723629
 21
142.906861
 31
0.0
  0
LINE
  5
2699A
  8
ALPHA
 10
1668.973629
 20
142.906861
 30
0.0
 11
1668.973629
 21
142.106861
 31
0.0
  0
LINE
  5
2699B
  8
ALPHA
 10
1648.590514
 20
180.926718
 30
0.0
 11
1648.724524
 21
172.255737
 31
0.0
  0
LINE
  5
2699C
  8
ALPHA
 10
1647.090743
 20
179.932352
 30
0.0
 11
1647.224753
 21
171.261372
 31
0.0
  0
LINE
  5
2699D
  8
ALPHA
 10
1643.923086
 20
173.004847
 30
0.0
 11
1643.816021
 21
179.932352
 31
0.0
  0
POLYLINE
  5
2699E
  8
ALPHA
 66
     1
 10
0.0
 20
0.0
 30
0.0
  0
VERTEX
  5
2A47B
  8
ALPHA
 10
1641.938132
 20
172.681412
 30
0.0
  0
VERTEX
  5
2A47C
  8
ALPHA
 10
1642.547606
 20
172.683072
 30
0.0
  0
VERTEX
  5
2A47D
  8
ALPHA
 10
1643.105488
 20
172.687976
 30
0.0
  0
VERTEX
  5
2A47E
  8
ALPHA
 10
1643.541427
 20
172.695453
 30
0.0
  0
VERTEX
  5
2A47F
  8
ALPHA
 10
1643.832053
 20
172.705104
 30
0.0
  0
VERTEX
  5
2A480
  8
ALPHA
 10
1643.937827
 20
172.715713
 30
0.0
  0
SEQEND
  5
2A481
  8
ALPHA
  0
POLYLINE
  5
269A6
  8
ALPHA
 66
     1
 10
0.0
 20
0.0
 30
0.0
  0
VERTEX
  5
2A482
  8
ALPHA
 10
1643.937827
 20
170.715713
 30
0.0
  0
VERTEX
  5
2A483
  8
ALPHA
 10
1643.832053
 20
170.705104
 30
0.0
  0
VERTEX
  5
2A484
  8
ALPHA
 10
1643.541427
 20
170.695453
 30
0.0
  0
VERTEX
  5
2A485
  8
ALPHA
 10
1643.105488
 20
170.687976
 30
0.0
  0
VERTEX
  5
2A486
  8
ALPHA
 10
1642.547606
 20
170.683072
 30
0.0
  0
VERTEX
  5
2A487
  8
ALPHA
 10
1641.938132
 20
170.681412
 30
0.0
  0
SEQEND
  5
2A488
  8
ALPHA
  0
LINE
  5
269AE
  8
ALPHA
 10
1641.938132
 20
170.681412
 30
0.0
 11
1641.938132
 21
172.681412
 31
0.0
  0
LINE
  5
269AF
  8
ALPHA
 10
1643.937827
 20
170.715713
 30
0.0
 11
1643.97808
 21
170.755966
 31
0.0
  0
LINE
  5
269B0
  8
ALPHA
 10
1643.937827
 20
172.715713
 30
0.0
 11
1643.969791
 21
172.747677
 31
0.0
  0
POLYLINE
  5
269B1
  8
ALPHA
 66
     1
 10
0.0
 20
0.0
 30
0.0
  0
VERTEX
  5
2A489
  8
ALPHA
 10
1648.724524
 20
172.255737
 30
0.0
  0
VERTEX
  5
2A48A
  8
ALPHA
 10
1648.606312
 20
171.880577
 30
0.0
  0
VERTEX
  5
2A48B
  8
ALPHA
 10
1648.280231
 20
171.558387
 30
0.0
  0
VERTEX
  5
2A48C
  8
ALPHA
 10
1647.795122
 20
171.341015
 30
0.0
  0
VERTEX
  5
2A48D
  8
ALPHA
 10
1647.224753
 20
171.261372
 30
0.0
  0
SEQEND
  5
2A48E
  8
ALPHA
  0
LINE
  5
269B8
  8
ALPHA
 10
1644.020302
 20
172.985451
 30
0.0
 11
1644.024172
 21
173.004847
 31
0.0
  0
POLYLINE
  5
269B9
  8
ALPHA
 66
     1
 10
0.0
 20
0.0
 30
0.0
  0
VERTEX
  5
2A48F
  8
ALPHA
 10
1648.724524
 20
172.255737
 30
0.0
  0
VERTEX
  5
2A490
  8
ALPHA
 10
1648.61023
 20
171.681905
 30
0.0
  0
VERTEX
  5
2A491
  8
ALPHA
 10
1648.28509
 20
171.1954
 30
0.0
  0
VERTEX
  5
2A492
  8
ALPHA
 10
1647.798585
 20
170.87026
 30
0.0
  0
VERTEX
  5
2A493
  8
ALPHA
 10
1647.224753
 20
170.755966
 30
0.0
  0
SEQEND
  5
2A494
  8
ALPHA
  0
POLYLINE
  5
269C0
  8
ALPHA
 66
     1
 10
0.0
 20
0.0
 30
0.0
  0
VERTEX
  5
2A495
  8
ALPHA
 10
1648.973629
 20
172.006633
 30
0.0
  0
VERTEX
  5
2A496
  8
ALPHA
 10
1648.859483
 20
171.432681
 30
0.0
  0
VERTEX
  5
2A497
  8
ALPHA
 10
1648.534383
 20
170.946107
 30
0.0
  0
VERTEX
  5
2A498
  8
ALPHA
 10
1648.047809
 20
170.621007
 30
0.0
  0
VERTEX
  5
2A499
  8
ALPHA
 10
1647.473857
 20
170.506861
 30
0.0
  0
SEQEND
  5
2A49A
  8
ALPHA
  0
POLYLINE
  5
269C7
  8
ALPHA
 66
     1
 10
0.0
 20
0.0
 30
0.0
  0
VERTEX
  5
2A49B
  8
ALPHA
 10
1643.97808
 20
170.755966
 30
0.0
  0
VERTEX
  5
2A49C
  8
ALPHA
 10
1643.985203
 20
170.819958
 30
0.0
  0
VERTEX
  5
2A49D
  8
ALPHA
 10
1643.99175
 20
170.992799
 30
0.0
  0
VERTEX
  5
2A49E
  8
ALPHA
 10
1643.997226
 20
171.261372
 30
0.0
  0
SEQEND
  5
2A49F
  8
ALPHA
  0
LINE
  5
269CD
  8
ALPHA
 10
1643.997226
 20
171.261372
 30
0.0
 11
1644.024172
 21
173.004847
 31
0.0
  0
LINE
  5
269CE
  8
ALPHA
 10
1647.224753
 20
170.755966
 30
0.0
 11
1647.224753
 21
171.261372
 31
0.0
  0
LINE
  5
269CF
  8
ALPHA
 10
1643.937827
 20
170.715713
 30
0.0
 11
1643.937827
 21
172.715713
 31
0.0
  0
LINE
  5
269D0
  8
ALPHA
 10
1643.973629
 20
172.751514
 30
0.0
 11
1643.923086
 21
173.004847
 31
0.0
  0
LINE
  5
269D1
  8
ALPHA
 10
1648.724524
 20
172.255737
 30
0.0
 11
1648.973629
 21
172.006633
 31
0.0
  0
LINE
  5
269D2
  8
ALPHA
 10
1647.224753
 20
170.755966
 30
0.0
 11
1647.473857
 21
170.506861
 31
0.0
  0
LINE
  5
269D3
  8
ALPHA
 10
1643.923086
 20
173.004847
 30
0.0
 11
1644.024172
 21
173.004847
 31
0.0
  0
LINE
  5
269D4
  8
ALPHA
 10
1647.224753
 20
171.261372
 30
0.0
 11
1643.997226
 21
171.261372
 31
0.0
  0
LINE
  5
269D5
  8
ALPHA
 10
1647.224753
 20
170.755966
 30
0.0
 11
1643.97808
 21
170.755966
 31
0.0
  0
POLYLINE
  5
269D6
  8
ALPHA
 66
     1
 10
0.0
 20
0.0
 30
0.0
  0
VERTEX
  5
2A4A0
  8
ALPHA
 10
1642.087002
 20
180.161037
 30
0.0
  0
VERTEX
  5
2A4A1
  8
ALPHA
 10
1642.750165
 20
180.157161
 30
0.0
  0
VERTEX
  5
2A4A2
  8
ALPHA
 10
1643.296362
 20
180.149537
 30
0.0
  0
VERTEX
  5
2A4A3
  8
ALPHA
 10
1643.658771
 20
180.139096
 30
0.0
  0
VERTEX
  5
2A4A4
  8
ALPHA
 10
1643.793071
 20
180.127115
 30
0.0
  0
SEQEND
  5
2A4A5
  8
ALPHA
  0
LINE
  5
269DD
  8
ALPHA
 10
1641.253629
 20
177.876861
 30
0.0
 11
1641.253629
 21
180.163101
 31
0.0
  0
LINE
  5
269DE
  8
ALPHA
 10
1639.518629
 20
180.167397
 30
0.0
 11
1639.518629
 21
177.876861
 31
0.0
  0
LINE
  5
269DF
  8
ALPHA
 10
1636.888629
 20
180.17391
 30
0.0
 11
1636.888629
 21
177.876861
 31
0.0
  0
LINE
  5
269E0
  8
ALPHA
 10
1642.087002
 20
180.161037
 30
0.0
 11
1636.888629
 21
180.17391
 31
0.0
  0
POLYLINE
  5
269E1
  8
ALPHA
 66
     1
 10
0.0
 20
0.0
 30
0.0
  0
VERTEX
  5
2A4A6
  8
ALPHA
 10
1648.590514
 20
180.926718
 30
0.0
  0
VERTEX
  5
2A4A7
  8
ALPHA
 10
1648.470777
 20
180.549162
 30
0.0
  0
VERTEX
  5
2A4A8
  8
ALPHA
 10
1648.14438
 20
180.228145
 30
0.0
  0
VERTEX
  5
2A4A9
  8
ALPHA
 10
1647.660199
 20
180.011739
 30
0.0
  0
VERTEX
  5
2A4AA
  8
ALPHA
 10
1647.090743
 20
179.932352
 30
0.0
  0
SEQEND
  5
2A4AB
  8
ALPHA
  0
POLYLINE
  5
269E8
  8
ALPHA
 66
     1
 10
0.0
 20
0.0
 30
0.0
  0
VERTEX
  5
2A4AC
  8
ALPHA
 10
1648.564603
 20
181.610701
 30
0.0
  0
VERTEX
  5
2A4AD
  8
ALPHA
 10
1648.450308
 20
181.036867
 30
0.0
  0
VERTEX
  5
2A4AE
  8
ALPHA
 10
1648.125168
 20
180.550362
 30
0.0
  0
VERTEX
  5
2A4AF
  8
ALPHA
 10
1647.638663
 20
180.225223
 30
0.0
  0
VERTEX
  5
2A4B0
  8
ALPHA
 10
1647.064832
 20
180.110929
 30
0.0
  0
SEQEND
  5
2A4B1
  8
ALPHA
  0
POLYLINE
  5
269EF
  8
ALPHA
 66
     1
 10
0.0
 20
0.0
 30
0.0
  0
VERTEX
  5
2A4B2
  8
ALPHA
 10
1648.518419
 20
181.656885
 30
0.0
  0
VERTEX
  5
2A4B3
  8
ALPHA
 10
1648.404125
 20
181.083052
 30
0.0
  0
VERTEX
  5
2A4B4
  8
ALPHA
 10
1648.078985
 20
180.596548
 30
0.0
  0
VERTEX
  5
2A4B5
  8
ALPHA
 10
1647.59248
 20
180.271408
 30
0.0
  0
VERTEX
  5
2A4B6
  8
ALPHA
 10
1647.018648
 20
180.157113
 30
0.0
  0
SEQEND
  5
2A4B7
  8
ALPHA
  0
POLYLINE
  5
269F6
  8
ALPHA
 66
     1
 10
0.0
 20
0.0
 30
0.0
  0
VERTEX
  5
2A4B8
  8
ALPHA
 10
1648.878499
 20
184.952046
 30
0.0
  0
VERTEX
  5
2A4B9
  8
ALPHA
 10
1648.889006
 20
185.07328
 30
0.0
  0
VERTEX
  5
2A4BA
  8
ALPHA
 10
1648.897827
 20
185.415291
 30
0.0
  0
VERTEX
  5
2A4BB
  8
ALPHA
 10
1648.903625
 20
185.918979
 30
0.0
  0
VERTEX
  5
2A4BC
  8
ALPHA
 10
1648.90564
 20
186.506861
 30
0.0
  0
VERTEX
  5
2A4BD
  8
ALPHA
 10
1648.903625
 20
187.094744
 30
0.0
  0
VERTEX
  5
2A4BE
  8
ALPHA
 10
1648.897827
 20
187.598432
 30
0.0
  0
VERTEX
  5
2A4BF
  8
ALPHA
 10
1648.889006
 20
187.940443
 30
0.0
  0
VERTEX
  5
2A4C0
  8
ALPHA
 10
1648.878499
 20
188.061677
 30
0.0
  0
SEQEND
  5
2A4C1
  8
ALPHA
  0
POLYLINE
  5
26A01
  8
ALPHA
 66
     1
 10
0.0
 20
0.0
 30
0.0
  0
VERTEX
  5
2A4C2
  8
ALPHA
 10
1648.564603
 20
181.610701
 30
0.0
  0
VERTEX
  5
2A4C3
  8
ALPHA
 10
1648.574297
 20
181.523082
 30
0.0
  0
VERTEX
  5
2A4C4
  8
ALPHA
 10
1648.583125
 20
181.289313
 30
0.0
  0
VERTEX
  5
2A4C5
  8
ALPHA
 10
1648.590514
 20
180.926718
 30
0.0
  0
SEQEND
  5
2A4C6
  8
ALPHA
  0
POLYLINE
  5
26A07
  8
ALPHA
 66
     1
 10
0.0
 20
0.0
 30
0.0
  0
VERTEX
  5
2A4C7
  8
ALPHA
 10
1648.597472
 20
188.061677
 30
0.0
  0
VERTEX
  5
2A4C8
  8
ALPHA
 10
1648.586965
 20
187.940387
 30
0.0
  0
VERTEX
  5
2A4C9
  8
ALPHA
 10
1648.578146
 20
187.598362
 30
0.0
  0
VERTEX
  5
2A4CA
  8
ALPHA
 10
1648.572349
 20
187.094699
 30
0.0
  0
VERTEX
  5
2A4CB
  8
ALPHA
 10
1648.570334
 20
186.506861
 30
0.0
  0
VERTEX
  5
2A4CC
  8
ALPHA
 10
1648.572349
 20
185.919024
 30
0.0
  0
VERTEX
  5
2A4CD
  8
ALPHA
 10
1648.578146
 20
185.41536
 30
0.0
  0
VERTEX
  5
2A4CE
  8
ALPHA
 10
1648.586965
 20
185.073335
 30
0.0
  0
VERTEX
  5
2A4CF
  8
ALPHA
 10
1648.597472
 20
184.952046
 30
0.0
  0
SEQEND
  5
2A4D0
  8
ALPHA
  0
POLYLINE
  5
26A12
  8
ALPHA
 66
     1
 10
0.0
 20
0.0
 30
0.0
  0
VERTEX
  5
2A4D1
  8
ALPHA
 10
1647.253487
 20
181.656885
 30
0.0
  0
VERTEX
  5
2A4D2
  8
ALPHA
 10
1647.234006
 20
181.087029
 30
0.0
  0
VERTEX
  5
2A4D3
  8
ALPHA
 10
1647.182375
 20
180.602415
 30
0.0
  0
VERTEX
  5
2A4D4
  8
ALPHA
 10
1647.106335
 20
180.276104
 30
0.0
  0
VERTEX
  5
2A4D5
  8
ALPHA
 10
1647.018648
 20
180.157113
 30
0.0
  0
SEQEND
  5
2A4D6
  8
ALPHA
  0
POLYLINE
  5
26A19
  8
ALPHA
 66
     1
 10
0.0
 20
0.0
 30
0.0
  0
VERTEX
  5
2A4D7
  8
ALPHA
 10
1643.816021
 20
179.932352
 30
0.0
  0
VERTEX
  5
2A4D8
  8
ALPHA
 10
1643.814086
 20
180.027248
 30
0.0
  0
VERTEX
  5
2A4D9
  8
ALPHA
 10
1643.811773
 20
180.088319
 30
0.0
  0
VERTEX
  5
2A4DA
  8
ALPHA
 10
1643.809256
 20
180.110929
 30
0.0
  0
SEQEND
  5
2A4DB
  8
ALPHA
  0
LINE
  5
26A1F
  8
ALPHA
 10
1647.083352
 20
180.027074
 30
0.0
 11
1647.090743
 21
179.932352
 31
0.0
  0
POLYLINE
  5
26A20
  8
ALPHA
 66
     1
 10
0.0
 20
0.0
 30
0.0
  0
VERTEX
  5
2A4DC
  8
ALPHA
 10
1647.064832
 20
180.110929
 30
0.0
  0
VERTEX
  5
2A4DD
  8
ALPHA
 10
1647.074539
 20
180.088104
 30
0.0
  0
VERTEX
  5
2A4DE
  8
ALPHA
 10
1647.083352
 20
180.027074
 30
0.0
  0
SEQEND
  5
2A4DF
  8
ALPHA
  0
LINE
  5
26A25
  8
ALPHA
 10
1648.518419
 20
181.656885
 30
0.0
 11
1648.564603
 21
181.610701
 31
0.0
  0
LINE
  5
26A26
  8
ALPHA
 10
1647.018646
 20
180.157115
 30
0.0
 11
1647.064832
 21
180.110929
 31
0.0
  0
LINE
  5
26A27
  8
ALPHA
 10
1643.793071
 20
180.127115
 30
0.0
 11
1643.809256
 21
180.110929
 31
0.0
  0
LINE
  5
26A28
  8
ALPHA
 10
1648.878499
 20
188.061677
 30
0.0
 11
1648.597472
 21
188.061677
 31
0.0
  0
LINE
  5
26A29
  8
ALPHA
 10
1648.597472
 20
184.952046
 30
0.0
 11
1648.878499
 21
184.952046
 31
0.0
  0
LINE
  5
26A2A
  8
ALPHA
 10
1648.518419
 20
181.656885
 30
0.0
 11
1647.253487
 21
181.656885
 31
0.0
  0
LINE
  5
26A2B
  8
ALPHA
 10
1647.064832
 20
180.110929
 30
0.0
 11
1643.809256
 21
180.110929
 31
0.0
  0
LINE
  5
26A2C
  8
ALPHA
 10
1647.090743
 20
179.932352
 30
0.0
 11
1643.816021
 21
179.932352
 31
0.0
  0
ARC
  5
26A2D
  8
ALPHA
 10
1722.223629
 20
127.006861
 30
0.0
 40
8.0
 50
277.36126
 51
300.0
  0
LINE
  5
26A2E
  8
ALPHA
 10
1726.223629
 20
120.078658
 30
0.0
 11
1722.723629
 21
120.078658
 31
0.0
  0
LINE
  5
26A2F
  8
ALPHA
 10
1725.473549
 20
118.300055
 30
0.0
 11
1722.623629
 21
118.300055
 31
0.0
  0
LINE
  5
26A30
  8
ALPHA
 10
1725.173626
 20
118.006861
 30
0.0
 11
1722.623629
 21
118.006861
 31
0.0
  0
LINE
  5
26A31
  8
ALPHA
 10
1700.473629
 20
60.256861
 30
0.0
 11
1727.473629
 21
60.256861
 31
0.0
  0
ARC
  5
26A32
  8
ALPHA
 10
1693.973629
 20
75.256861
 30
0.0
 40
4.5
 50
0.0
 51
180.0
  0
LINE
  5
26A33
  8
ALPHA
 10
1687.473629
 20
60.256861
 30
0.0
 11
1689.473629
 21
62.256861
 31
0.0
  0
LINE
  5
26A34
  8
ALPHA
 10
1698.473629
 20
62.256861
 30
0.0
 11
1698.473629
 21
75.256861
 31
0.0
  0
LINE
  5
26A35
  8
ALPHA
 10
1689.473629
 20
62.256861
 30
0.0
 11
1689.473629
 21
75.256861
 31
0.0
  0
LINE
  5
26A36
  8
ALPHA
 10
1700.473629
 20
60.256861
 30
0.0
 11
1698.473629
 21
62.256861
 31
0.0
  0
ARC
  5
26A37
  8
ALPHA
 10
1696.923626
 20
118.306861
 30
0.0
 40
0.3
 50
270.0
 51
358.7
  0
ARC
  5
26A38
  8
ALPHA
 10
1691.023631
 20
118.306861
 30
0.0
 40
0.3
 50
181.3
 51
270.0
  0
LINE
  5
26A39
  8
ALPHA
 10
1697.273629
 20
120.506861
 30
0.0
 11
1697.223549
 21
118.300055
 31
0.0
  0
LINE
  5
26A3A
  8
ALPHA
 10
1697.473629
 20
122.106861
 30
0.0
 11
1697.473629
 21
121.306861
 31
0.0
  0
LINE
  5
26A3B
  8
ALPHA
 10
1697.073629
 20
121.306861
 30
0.0
 11
1697.073629
 21
120.506861
 31
0.0
  0
LINE
  5
26A3C
  8
ALPHA
 10
1694.373629
 20
118.006861
 30
0.0
 11
1694.373629
 21
118.806861
 31
0.0
  0
LINE
  5
26A3D
  8
ALPHA
 10
1693.573629
 20
118.806861
 30
0.0
 11
1693.573629
 21
118.006861
 31
0.0
  0
LINE
  5
26A3E
  8
ALPHA
 10
1690.883726
 20
121.306861
 30
0.0
 11
1690.883726
 21
120.506861
 31
0.0
  0
LINE
  5
26A3F
  8
ALPHA
 10
1690.473629
 20
122.106861
 30
0.0
 11
1690.473629
 21
121.306861
 31
0.0
  0
LINE
  5
26A40
  8
ALPHA
 10
1690.673629
 20
120.506861
 30
0.0
 11
1690.723708
 21
118.300055
 31
0.0
  0
LINE
  5
26A41
  8
ALPHA
 10
1697.473629
 20
121.306861
 30
0.0
 11
1690.473629
 21
121.306861
 31
0.0
  0
LINE
  5
26A42
  8
ALPHA
 10
1697.273629
 20
120.506861
 30
0.0
 11
1690.673629
 21
120.506861
 31
0.0
  0
LINE
  5
26A43
  8
ALPHA
 10
1694.373629
 20
118.806861
 30
0.0
 11
1693.573629
 21
118.806861
 31
0.0
  0
LINE
  5
26A44
  8
ALPHA
 10
1693.573629
 20
118.300055
 30
0.0
 11
1690.723708
 21
118.300055
 31
0.0
  0
LINE
  5
26A45
  8
ALPHA
 10
1697.223549
 20
118.300055
 30
0.0
 11
1694.373629
 21
118.300055
 31
0.0
  0
LINE
  5
26A46
  8
ALPHA
 10
1693.573629
 20
118.006861
 30
0.0
 11
1691.023631
 21
118.006861
 31
0.0
  0
LINE
  5
26A47
  8
ALPHA
 10
1696.923626
 20
118.006861
 30
0.0
 11
1694.373629
 21
118.006861
 31
0.0
  0
ARC
  5
26A48
  8
ALPHA
 10
1722.223629
 20
127.006861
 30
0.0
 40
8.0
 50
240.0
 51
262.627033
  0
ARC
  5
26A49
  8
ALPHA
 10
1719.273631
 20
118.306861
 30
0.0
 40
0.3
 50
181.3
 51
270.0
  0
POLYLINE
  5
26A4A
  8
ALPHA
 66
     1
 10
0.0
 20
0.0
 30
0.0
  0
VERTEX
  5
2A4E0
  8
ALPHA
 10
1723.486305
 20
119.123795
 30
0.0
  0
VERTEX
  5
2A4E1
  8
ALPHA
 10
1723.484425
 20
119.12113
 30
0.0
  0
VERTEX
  5
2A4E2
  8
ALPHA
 10
1723.46271
 20
119.112618
 30
0.0
  0
VERTEX
  5
2A4E3
  8
ALPHA
 10
1723.417499
 20
119.101986
 30
0.0
  0
VERTEX
  5
2A4E4
  8
ALPHA
 10
1723.353552
 20
119.090291
 30
0.0
  0
SEQEND
  5
2A4E5
  8
ALPHA
  0
POLYLINE
  5
26A51
  8
ALPHA
 66
     1
 10
0.0
 20
0.0
 30
0.0
  0
VERTEX
  5
2A4E6
  8
ALPHA
 10
1720.98971
 20
119.122425
 30
0.0
  0
VERTEX
  5
2A4E7
  8
ALPHA
 10
1720.990081
 20
119.123553
 30
0.0
  0
VERTEX
  5
2A4E8
  8
ALPHA
 10
1721.0052
 20
119.128293
 30
0.0
  0
SEQEND
  5
2A4E9
  8
ALPHA
  0
LINE
  5
26A56
  8
ALPHA
 10
1723.353552
 20
119.090291
 30
0.0
 11
1723.353552
 21
119.127318
 31
0.0
  0
LINE
  5
26A57
  8
ALPHA
 10
1723.248629
 20
119.119576
 30
0.0
 11
1723.248629
 21
119.072797
 31
0.0
  0
LINE
  5
26A58
  8
ALPHA
 10
1722.723629
 20
119.072857
 30
0.0
 11
1722.723629
 21
120.606861
 31
0.0
  0
LINE
  5
26A59
  8
ALPHA
 10
1722.623629
 20
118.006861
 30
0.0
 11
1722.623629
 21
118.806861
 31
0.0
  0
LINE
  5
26A5A
  8
ALPHA
 10
1721.823629
 20
118.806861
 30
0.0
 11
1721.823629
 21
118.006861
 31
0.0
  0
LINE
  5
26A5B
  8
ALPHA
 10
1721.723629
 20
119.072855
 30
0.0
 11
1721.723629
 21
120.606861
 31
0.0
  0
LINE
  5
26A5C
  8
ALPHA
 10
1721.348476
 20
119.099346
 30
0.0
 11
1721.348476
 21
119.109883
 31
0.0
  0
LINE
  5
26A5D
  8
ALPHA
 10
1721.198629
 20
119.123301
 30
0.0
 11
1721.198629
 21
119.073006
 31
0.0
  0
LINE
  5
26A5E
  8
ALPHA
 10
1721.081526
 20
119.095016
 30
0.0
 11
1721.081526
 21
119.129606
 31
0.0
  0
LINE
  5
26A5F
  8
ALPHA
 10
1718.223629
 20
120.078658
 30
0.0
 11
1718.223629
 21
122.106861
 31
0.0
  0
LINE
  5
26A60
  8
ALPHA
 10
1718.941668
 20
119.711927
 30
0.0
 11
1718.973708
 21
118.300055
 31
0.0
  0
POLYLINE
  5
26A61
  8
ALPHA
 66
     1
 10
0.0
 20
0.0
 30
0.0
  0
VERTEX
  5
2A4EA
  8
ALPHA
 10
1721.081526
 20
119.095016
 30
0.0
  0
VERTEX
  5
2A4EB
  8
ALPHA
 10
1721.029254
 20
119.106228
 30
0.0
  0
VERTEX
  5
2A4EC
  8
ALPHA
 10
1720.997757
 20
119.116055
 30
0.0
  0
VERTEX
  5
2A4ED
  8
ALPHA
 10
1720.98971
 20
119.122425
 30
0.0
  0
SEQEND
  5
2A4EE
  8
ALPHA
  0
LINE
  5
26A67
  8
ALPHA
 10
1721.081526
 20
119.095016
 30
0.0
 11
1721.198629
 21
119.072799
 31
0.0
  0
POLYLINE
  5
26A68
  8
ALPHA
 66
     1
 10
0.0
 20
0.0
 30
0.0
  0
VERTEX
  5
2A4EF
  8
ALPHA
 10
1721.348476
 20
119.099346
 30
0.0
  0
VERTEX
  5
2A4F0
  8
ALPHA
 10
1721.270458
 20
119.109459
 30
0.0
  0
VERTEX
  5
2A4F1
  8
ALPHA
 10
1721.198629
 20
119.11745
 30
0.0
  0
SEQEND
  5
2A4F2
  8
ALPHA
  0
POLYLINE
  5
26A6D
  8
ALPHA
 66
     1
 10
0.0
 20
0.0
 30
0.0
  0
VERTEX
  5
2A4F3
  8
ALPHA
 10
1721.528774
 20
119.087686
 30
0.0
  0
VERTEX
  5
2A4F4
  8
ALPHA
 10
1721.578596
 20
119.081524
 30
0.0
  0
VERTEX
  5
2A4F5
  8
ALPHA
 10
1721.628879
 20
119.076999
 30
0.0
  0
VERTEX
  5
2A4F6
  8
ALPHA
 10
1721.677841
 20
119.074106
 30
0.0
  0
VERTEX
  5
2A4F7
  8
ALPHA
 10
1721.723629
 20
119.072855
 30
0.0
  0
SEQEND
  5
2A4F8
  8
ALPHA
  0
POLYLINE
  5
26A74
  8
ALPHA
 66
     1
 10
0.0
 20
0.0
 30
0.0
  0
VERTEX
  5
2A4F9
  8
ALPHA
 10
1721.516749
 20
119.081046
 30
0.0
  0
VERTEX
  5
2A4FA
  8
ALPHA
 10
1721.43417
 20
119.088783
 30
0.0
  0
VERTEX
  5
2A4FB
  8
ALPHA
 10
1721.348476
 20
119.099346
 30
0.0
  0
SEQEND
  5
2A4FC
  8
ALPHA
  0
POLYLINE
  5
26A79
  8
ALPHA
 66
     1
 10
0.0
 20
0.0
 30
0.0
  0
VERTEX
  5
2A4FD
  8
ALPHA
 10
1721.168441
 20
119.12561
 30
0.0
  0
VERTEX
  5
2A4FE
  8
ALPHA
 10
1721.251429
 20
119.119261
 30
0.0
  0
VERTEX
  5
2A4FF
  8
ALPHA
 10
1721.344617
 20
119.110323
 30
0.0
  0
VERTEX
  5
2A500
  8
ALPHA
 10
1721.440026
 20
119.09945
 30
0.0
  0
VERTEX
  5
2A501
  8
ALPHA
 10
1721.528774
 20
119.087686
 30
0.0
  0
SEQEND
  5
2A502
  8
ALPHA
  0
LINE
  5
26A80
  8
ALPHA
 10
1721.593161
 20
119.07602
 30
0.0
 11
1721.516749
 21
119.081046
 31
0.0
  0
POLYLINE
  5
26A81
  8
ALPHA
 66
     1
 10
0.0
 20
0.0
 30
0.0
  0
VERTEX
  5
2A503
  8
ALPHA
 10
1721.723629
 20
119.072839
 30
0.0
  0
VERTEX
  5
2A504
  8
ALPHA
 10
1721.662024
 20
119.073396
 30
0.0
  0
VERTEX
  5
2A505
  8
ALPHA
 10
1721.593161
 20
119.07602
 30
0.0
  0
SEQEND
  5
2A506
  8
ALPHA
  0
LINE
  5
26A86
  8
ALPHA
 10
1721.723629
 20
120.606861
 30
0.0
 11
1722.723629
 21
120.606861
 31
0.0
  0
LINE
  5
26A87
  8
ALPHA
 10
1722.723629
 20
120.506861
 30
0.0
 11
1721.723629
 21
120.506861
 31
0.0
  0
LINE
  5
26A88
  8
ALPHA
 10
1721.723629
 20
120.078658
 30
0.0
 11
1718.223629
 21
120.078658
 31
0.0
  0
LINE
  5
26A89
  8
ALPHA
 10
1722.623629
 20
118.806861
 30
0.0
 11
1721.823629
 21
118.806861
 31
0.0
  0
LINE
  5
26A8A
  8
ALPHA
 10
1721.823629
 20
118.300055
 30
0.0
 11
1718.973708
 21
118.300055
 31
0.0
  0
LINE
  5
26A8B
  8
ALPHA
 10
1721.823629
 20
118.006861
 30
0.0
 11
1719.273631
 21
118.006861
 31
0.0
  0
POLYLINE
  5
26A8C
  8
ALPHA
 66
     1
 10
0.0
 20
0.0
 30
0.0
  0
VERTEX
  5
2A507
  8
ALPHA
 10
1722.723629
 20
119.072857
 30
0.0
  0
VERTEX
  5
2A508
  8
ALPHA
 10
1722.770281
 20
119.073205
 30
0.0
  0
VERTEX
  5
2A509
  8
ALPHA
 10
1722.8216
 20
119.075156
 30
0.0
  0
VERTEX
  5
2A50A
  8
ALPHA
 10
1722.876315
 20
119.078761
 30
0.0
  0
VERTEX
  5
2A50B
  8
ALPHA
 10
1722.931689
 20
119.083912
 30
0.0
  0
VERTEX
  5
2A50C
  8
ALPHA
 10
1722.984526
 20
119.090291
 30
0.0
  0
SEQEND
  5
2A50D
  8
ALPHA
  0
POLYLINE
  5
26A94
  8
ALPHA
 66
     1
 10
0.0
 20
0.0
 30
0.0
  0
VERTEX
  5
2A50E
  8
ALPHA
 10
1721.0052
 20
119.128293
 30
0.0
  0
VERTEX
  5
2A50F
  8
ALPHA
 10
1721.041888
 20
119.130268
 30
0.0
  0
VERTEX
  5
2A510
  8
ALPHA
 10
1721.097396
 20
119.129341
 30
0.0
  0
VERTEX
  5
2A511
  8
ALPHA
 10
1721.168441
 20
119.12561
 30
0.0
  0
SEQEND
  5
2A512
  8
ALPHA
  0
POLYLINE
  5
26A9A
  8
ALPHA
 66
     1
 10
0.0
 20
0.0
 30
0.0
  0
VERTEX
  5
2A513
  8
ALPHA
 10
1723.174138
 20
119.11267
 30
0.0
  0
VERTEX
  5
2A514
  8
ALPHA
 10
1723.265338
 20
119.121125
 30
0.0
  0
VERTEX
  5
2A515
  8
ALPHA
 10
1723.343963
 20
119.126871
 30
0.0
  0
VERTEX
  5
2A516
  8
ALPHA
 10
1723.408973
 20
119.129901
 30
0.0
  0
VERTEX
  5
2A517
  8
ALPHA
 10
1723.456791
 20
119.129938
 30
0.0
  0
VERTEX
  5
2A518
  8
ALPHA
 10
1723.482244
 20
119.1269
 30
0.0
  0
VERTEX
  5
2A519
  8
ALPHA
 10
1723.486305
 20
119.123795
 30
0.0
  0
SEQEND
  5
2A51A
  8
ALPHA
  0
POLYLINE
  5
26AA3
  8
ALPHA
 66
     1
 10
0.0
 20
0.0
 30
0.0
  0
VERTEX
  5
2A51B
  8
ALPHA
 10
1722.984526
 20
119.090291
 30
0.0
  0
VERTEX
  5
2A51C
  8
ALPHA
 10
1723.077424
 20
119.102047
 30
0.0
  0
VERTEX
  5
2A51D
  8
ALPHA
 10
1723.174138
 20
119.11267
 30
0.0
  0
SEQEND
  5
2A51E
  8
ALPHA
  0
LINE
  5
26AA8
  8
ALPHA
 10
1723.248629
 20
119.072797
 30
0.0
 11
1723.353552
 21
119.090291
 31
0.0
  0
LINE
  5
26AA9
  8
ALPHA
 10
1727.473629
 20
60.256861
 30
0.0
 11
1727.473629
 21
122.106861
 31
0.0
  0
LINE
  5
26AAA
  8
ALPHA
 10
1725.973629
 20
119.950341
 30
0.0
 11
1725.973629
 21
60.256861
 31
0.0
  0
LINE
  5
26AAB
  8
ALPHA
 10
1727.473629
 20
61.424392
 30
0.0
 11
1728.973629
 21
61.424392
 31
0.0
  0
LINE
  5
26AAC
  8
ALPHA
 10
1727.473629
 20
60.256861
 30
0.0
 11
1728.973629
 21
60.256861
 31
0.0
  0
ARC
  5
26AAD
  8
ALPHA
 10
1725.173626
 20
118.306861
 30
0.0
 40
0.3
 50
270.0
 51
358.7
  0
LINE
  5
26AAE
  8
ALPHA
 10
1725.505589
 20
119.711927
 30
0.0
 11
1725.473549
 21
118.300055
 31
0.0
  0
LINE
  5
26AAF
  8
ALPHA
 10
1726.223629
 20
120.078658
 30
0.0
 11
1726.223629
 21
122.106861
 31
0.0
  0
CIRCLE
  5
26AB0
  8
ALPHA
 10
1722.223629
 20
155.606861
 30
0.0
 40
4.0
  0
LINE
  5
26AB1
  8
ALPHA
 10
1722.723629
 20
156.50201
 30
0.0
 11
1722.723629
 21
159.575488
 31
0.0
  0
LINE
  5
26AB2
  8
ALPHA
 10
1721.723629
 20
159.575488
 30
0.0
 11
1721.723629
 21
156.502062
 31
0.0
  0
LINE
  5
26AB3
  8
ALPHA
 10
1684.223629
 20
142.906861
 30
0.0
 11
1684.223629
 21
142.106861
 31
0.0
  0
LINE
  5
26AB4
  8
ALPHA
 10
1683.223629
 20
142.906861
 30
0.0
 11
1683.223629
 21
142.106861
 31
0.0
  0
LINE
  5
26AB5
  8
ALPHA
 10
1716.973629
 20
142.106861
 30
0.0
 11
1716.973629
 21
142.906861
 31
0.0
  0
LINE
  5
26AB6
  8
ALPHA
 10
1710.473629
 20
142.906861
 30
0.0
 11
1710.473629
 21
142.106861
 31
0.0
  0
LINE
  5
26AB7
  8
ALPHA
 10
1708.973629
 20
142.906861
 30
0.0
 11
1708.973629
 21
142.106861
 31
0.0
  0
LINE
  5
26AB8
  8
ALPHA
 10
1708.473629
 20
142.106861
 30
0.0
 11
1708.473629
 21
142.906861
 31
0.0
  0
ARC
  5
26AB9
  8
ALPHA
 10
1722.819722
 20
154.507308
 30
0.0
 40
0.225738
 50
64.055271
 51
172.871056
  0
ARC
  5
26ABA
  8
ALPHA
 10
1722.223629
 20
154.581861
 30
0.0
 40
0.375
 50
190.240209
 51
352.871056
  0
ARC
  5
26ABB
  8
ALPHA
 10
1721.562934
 20
154.462505
 30
0.0
 40
0.296389
 50
10.240209
 51
109.759791
  0
ARC
  5
26ABC
  8
ALPHA
 10
1721.553715
 20
156.846854
 30
0.0
 40
0.384385
 50
253.335852
 51
348.196726
  0
ARC
  5
26ABD
  8
ALPHA
 10
1722.223629
 20
156.706861
 30
0.0
 40
0.3
 50
15.033707
 51
168.196726
  0
ARC
  5
26ABE
  8
ALPHA
 10
1722.975266
 20
156.908736
 30
0.0
 40
0.478275
 50
195.033707
 51
284.966293
  0
ARC
  5
26ABF
  8
ALPHA
 10
1723.176257
 20
156.156861
 30
0.0
 40
0.3
 50
315.033707
 51
104.966293
  0
ARC
  5
26AC0
  8
ALPHA
 10
1723.726904
 20
155.606861
 30
0.0
 40
0.478275
 50
135.033707
 51
220.960938
  0
ARC
  5
26AC1
  8
ALPHA
 10
1723.082547
 20
155.047501
 30
0.0
 40
0.375
 50
244.055271
 51
40.960938
  0
ARC
  5
26AC2
  8
ALPHA
 10
1721.335953
 20
156.119361
 30
0.0
 40
0.375
 50
73.335852
 51
229.759791
  0
ARC
  5
26AC3
  8
ALPHA
 10
1721.335953
 20
155.094361
 30
0.0
 40
0.375
 50
130.240209
 51
289.759791
  0
ARC
  5
26AC4
  8
ALPHA
 10
1720.90224
 20
155.606861
 30
0.0
 40
0.296389
 50
310.240209
 51
49.759791
  0
LINE
  5
26AC5
  8
ALPHA
 10
1722.723629
 20
151.638234
 30
0.0
 11
1722.723629
 21
154.711572
 31
0.0
  0
LINE
  5
26AC6
  8
ALPHA
 10
1721.723629
 20
154.711551
 30
0.0
 11
1721.723629
 21
151.638234
 31
0.0
  0
LINE
  5
26AC7
  8
ALPHA
 10
1725.973629
 20
142.106861
 30
0.0
 11
1725.973629
 21
142.906861
 31
0.0
  0
LINE
  5
26AC8
  8
ALPHA
 10
1725.973629
 20
142.106861
 30
0.0
 11
1728.973629
 21
139.106861
 31
0.0
  0
LINE
  5
26AC9
  8
ALPHA
 10
1728.973629
 20
145.906861
 30
0.0
 11
1725.973629
 21
142.906861
 31
0.0
  0
POLYLINE
  5
26ACA
  8
ALPHA
 66
     1
 10
0.0
 20
0.0
 30
0.0
  0
VERTEX
  5
2A51F
  8
ALPHA
 10
1648.878499
 20
319.952046
 30
0.0
  0
VERTEX
  5
2A520
  8
ALPHA
 10
1648.889006
 20
320.07328
 30
0.0
  0
VERTEX
  5
2A521
  8
ALPHA
 10
1648.897827
 20
320.415291
 30
0.0
  0
VERTEX
  5
2A522
  8
ALPHA
 10
1648.903625
 20
320.918979
 30
0.0
  0
VERTEX
  5
2A523
  8
ALPHA
 10
1648.90564
 20
321.506861
 30
0.0
  0
VERTEX
  5
2A524
  8
ALPHA
 10
1648.903625
 20
322.094744
 30
0.0
  0
VERTEX
  5
2A525
  8
ALPHA
 10
1648.897827
 20
322.598432
 30
0.0
  0
VERTEX
  5
2A526
  8
ALPHA
 10
1648.889006
 20
322.940443
 30
0.0
  0
VERTEX
  5
2A527
  8
ALPHA
 10
1648.878499
 20
323.061677
 30
0.0
  0
SEQEND
  5
2A528
  8
ALPHA
  0
POLYLINE
  5
26AD5
  8
ALPHA
 66
     1
 10
0.0
 20
0.0
 30
0.0
  0
VERTEX
  5
2A529
  8
ALPHA
 10
1648.597472
 20
323.061677
 30
0.0
  0
VERTEX
  5
2A52A
  8
ALPHA
 10
1648.586965
 20
322.940387
 30
0.0
  0
VERTEX
  5
2A52B
  8
ALPHA
 10
1648.578146
 20
322.598362
 30
0.0
  0
VERTEX
  5
2A52C
  8
ALPHA
 10
1648.572349
 20
322.094699
 30
0.0
  0
VERTEX
  5
2A52D
  8
ALPHA
 10
1648.570334
 20
321.506861
 30
0.0
  0
VERTEX
  5
2A52E
  8
ALPHA
 10
1648.572349
 20
320.919024
 30
0.0
  0
VERTEX
  5
2A52F
  8
ALPHA
 10
1648.578146
 20
320.41536
 30
0.0
  0
VERTEX
  5
2A530
  8
ALPHA
 10
1648.586965
 20
320.073335
 30
0.0
  0
VERTEX
  5
2A531
  8
ALPHA
 10
1648.597472
 20
319.952046
 30
0.0
  0
SEQEND
  5
2A532
  8
ALPHA
  0
LINE
  5
26AE0
  8
ALPHA
 10
1610.820167
 20
243.721323
 30
0.0
 11
1610.820167
 21
366.175108
 31
0.0
  0
LINE
  5
26AE1
  8
ALPHA
 10
1610.573629
 20
366.14458
 30
0.0
 11
1610.573629
 21
243.86771
 31
0.0
  0
LINE
  5
26AE2
  8
ALPHA
 10
1610.073629
 20
244.164959
 30
0.0
 11
1610.073629
 21
286.656861
 31
0.0
  0
LINE
  5
26AE3
  8
ALPHA
 10
1609.823629
 20
244.374601
 30
0.0
 11
1609.823629
 21
286.406861
 31
0.0
  0
LINE
  5
26AE4
  8
ALPHA
 10
1588.573629
 20
281.156861
 30
0.0
 11
1588.573629
 21
254.006861
 31
0.0
  0
LINE
  5
26AE5
  8
ALPHA
 10
1588.514433
 20
280.627819
 30
0.0
 11
1588.514433
 21
254.535904
 31
0.0
  0
LINE
  5
26AE6
  8
ALPHA
 10
1588.452303
 20
254.295371
 30
0.0
 11
1588.285119
 21
254.128187
 31
0.0
  0
LINE
  5
26AE7
  8
ALPHA
 10
1588.514433
 20
254.535904
 30
0.0
 11
1588.452303
 21
254.295371
 31
0.0
  0
LINE
  5
26AE8
  8
ALPHA
 10
1586.713211
 20
245.35686
 30
0.0
 11
1586.713211
 21
244.984523
 31
0.0
  0
LINE
  5
26AE9
  8
ALPHA
 10
1586.129879
 20
244.984523
 30
0.0
 11
1586.129879
 21
241.85686
 31
0.0
  0
LINE
  5
26AEA
  8
ALPHA
 10
1585.911129
 20
241.85686
 30
0.0
 11
1585.911129
 21
244.984523
 31
0.0
  0
LINE
  5
26AEB
  8
ALPHA
 10
1585.327795
 20
244.984523
 30
0.0
 11
1585.327795
 21
245.35686
 31
0.0
  0
LINE
  5
26AEC
  8
ALPHA
 10
1585.036129
 20
245.35686
 30
0.0
 11
1585.036129
 21
241.85686
 31
0.0
  0
LINE
  5
26AED
  8
ALPHA
 10
1584.817379
 20
242.378138
 30
0.0
 11
1584.817379
 21
245.35686
 31
0.0
  0
LINE
  5
26AEE
  8
ALPHA
 10
1585.327795
 20
245.35686
 30
0.0
 11
1586.713211
 21
245.35686
 31
0.0
  0
LINE
  5
26AEF
  8
ALPHA
 10
1584.817379
 20
245.35686
 30
0.0
 11
1585.036129
 21
245.35686
 31
0.0
  0
LINE
  5
26AF0
  8
ALPHA
 10
1586.713211
 20
244.984523
 30
0.0
 11
1586.129879
 21
244.984523
 31
0.0
  0
LINE
  5
26AF1
  8
ALPHA
 10
1585.911129
 20
244.984523
 30
0.0
 11
1585.327795
 21
244.984523
 31
0.0
  0
LINE
  5
26AF2
  8
ALPHA
 10
1585.036129
 20
241.85686
 30
0.0
 11
1584.708004
 21
241.85686
 31
0.0
  0
LINE
  5
26AF3
  8
ALPHA
 10
1586.129879
 20
241.85686
 30
0.0
 11
1585.911129
 21
241.85686
 31
0.0
  0
LINE
  5
26AF4
  8
ALPHA
 10
1588.285119
 20
254.128187
 30
0.0
 11
1588.044586
 21
254.066057
 31
0.0
  0
LINE
  5
26AF5
  8
ALPHA
 10
1610.573629
 20
243.86771
 30
0.0
 11
1610.820167
 21
243.721323
 31
0.0
  0
POLYLINE
  5
26AF6
  8
ALPHA
 66
     1
 10
0.0
 20
0.0
 30
0.0
  0
VERTEX
  5
2A533
  8
ALPHA
 10
1648.878499
 20
222.452046
 30
0.0
  0
VERTEX
  5
2A534
  8
ALPHA
 10
1648.889006
 20
222.57328
 30
0.0
  0
VERTEX
  5
2A535
  8
ALPHA
 10
1648.897827
 20
222.915291
 30
0.0
  0
VERTEX
  5
2A536
  8
ALPHA
 10
1648.903625
 20
223.418979
 30
0.0
  0
VERTEX
  5
2A537
  8
ALPHA
 10
1648.90564
 20
224.006861
 30
0.0
  0
VERTEX
  5
2A538
  8
ALPHA
 10
1648.903625
 20
224.594744
 30
0.0
  0
VERTEX
  5
2A539
  8
ALPHA
 10
1648.897827
 20
225.098432
 30
0.0
  0
VERTEX
  5
2A53A
  8
ALPHA
 10
1648.889006
 20
225.440443
 30
0.0
  0
VERTEX
  5
2A53B
  8
ALPHA
 10
1648.878499
 20
225.561677
 30
0.0
  0
SEQEND
  5
2A53C
  8
ALPHA
  0
POLYLINE
  5
26B01
  8
ALPHA
 66
     1
 10
0.0
 20
0.0
 30
0.0
  0
VERTEX
  5
2A53D
  8
ALPHA
 10
1648.597472
 20
225.561677
 30
0.0
  0
VERTEX
  5
2A53E
  8
ALPHA
 10
1648.586965
 20
225.440387
 30
0.0
  0
VERTEX
  5
2A53F
  8
ALPHA
 10
1648.578146
 20
225.098362
 30
0.0
  0
VERTEX
  5
2A540
  8
ALPHA
 10
1648.572349
 20
224.594699
 30
0.0
  0
VERTEX
  5
2A541
  8
ALPHA
 10
1648.570334
 20
224.006861
 30
0.0
  0
VERTEX
  5
2A542
  8
ALPHA
 10
1648.572349
 20
223.419024
 30
0.0
  0
VERTEX
  5
2A543
  8
ALPHA
 10
1648.578146
 20
222.91536
 30
0.0
  0
VERTEX
  5
2A544
  8
ALPHA
 10
1648.586965
 20
222.573335
 30
0.0
  0
VERTEX
  5
2A545
  8
ALPHA
 10
1648.597472
 20
222.452046
 30
0.0
  0
SEQEND
  5
2A546
  8
ALPHA
  0
POLYLINE
  5
26B0C
  8
ALPHA
 66
     1
 10
0.0
 20
0.0
 30
0.0
  0
VERTEX
  5
2A547
  8
ALPHA
 10
1648.878499
 20
207.493978
 30
0.0
  0
VERTEX
  5
2A548
  8
ALPHA
 10
1648.888725
 20
207.612002
 30
0.0
  0
VERTEX
  5
2A549
  8
ALPHA
 10
1648.897311
 20
207.945097
 30
0.0
  0
VERTEX
  5
2A54A
  8
ALPHA
 10
1648.902947
 20
208.434961
 30
0.0
  0
VERTEX
  5
2A54B
  8
ALPHA
 10
1648.904907
 20
209.006862
 30
0.0
  0
VERTEX
  5
2A54C
  8
ALPHA
 10
1648.902947
 20
209.578762
 30
0.0
  0
VERTEX
  5
2A54D
  8
ALPHA
 10
1648.897311
 20
210.068626
 30
0.0
  0
VERTEX
  5
2A54E
  8
ALPHA
 10
1648.888725
 20
210.401721
 30
0.0
  0
VERTEX
  5
2A54F
  8
ALPHA
 10
1648.878499
 20
210.519744
 30
0.0
  0
SEQEND
  5
2A550
  8
ALPHA
  0
POLYLINE
  5
26B17
  8
ALPHA
 66
     1
 10
0.0
 20
0.0
 30
0.0
  0
VERTEX
  5
2A551
  8
ALPHA
 10
1648.597472
 20
210.519744
 30
0.0
  0
VERTEX
  5
2A552
  8
ALPHA
 10
1648.587246
 20
210.401687
 30
0.0
  0
VERTEX
  5
2A553
  8
ALPHA
 10
1648.578661
 20
210.068584
 30
0.0
  0
VERTEX
  5
2A554
  8
ALPHA
 10
1648.573025
 20
209.578735
 30
0.0
  0
VERTEX
  5
2A555
  8
ALPHA
 10
1648.571066
 20
209.006861
 30
0.0
  0
VERTEX
  5
2A556
  8
ALPHA
 10
1648.573025
 20
208.434988
 30
0.0
  0
VERTEX
  5
2A557
  8
ALPHA
 10
1648.578661
 20
207.945139
 30
0.0
  0
VERTEX
  5
2A558
  8
ALPHA
 10
1648.587246
 20
207.612036
 30
0.0
  0
VERTEX
  5
2A559
  8
ALPHA
 10
1648.597472
 20
207.493978
 30
0.0
  0
SEQEND
  5
2A55A
  8
ALPHA
  0
ARC
  5
26B22
  8
ALPHA
 10
1642.426908
 20
199.682529
 30
0.0
 40
0.688158
 50
73.266405
 51
166.733595
  0
ARC
  5
26B23
  8
ALPHA
 10
1642.426908
 20
203.331194
 30
0.0
 40
0.688158
 50
193.266405
 51
286.733595
  0
LINE
  5
26B24
  8
ALPHA
 10
1643.097989
 20
197.732065
 30
0.0
 11
1641.972428
 21
197.400289
 31
0.0
  0
POLYLINE
  5
26B25
  8
ALPHA
 66
     1
 10
0.0
 20
0.0
 30
0.0
  0
VERTEX
  5
2A55B
  8
ALPHA
 10
1637.223629
 20
201.506859
 30
0.0
  0
VERTEX
  5
2A55C
  8
ALPHA
 10
1637.390891
 20
202.673178
 30
0.0
  0
VERTEX
  5
2A55D
  8
ALPHA
 10
1637.885566
 20
203.755401
 30
0.0
  0
VERTEX
  5
2A55E
  8
ALPHA
 10
1638.652046
 20
204.639827
 30
0.0
  0
VERTEX
  5
2A55F
  8
ALPHA
 10
1639.651223
 20
205.28255
 30
0.0
  0
VERTEX
  5
2A560
  8
ALPHA
 10
1640.776868
 20
205.613731
 30
0.0
  0
VERTEX
  5
2A561
  8
ALPHA
 10
1641.972404
 20
205.613438
 30
0.0
  0
VERTEX
  5
2A562
  8
ALPHA
 10
1643.097968
 20
205.281667
 30
0.0
  0
VERTEX
  5
2A563
  8
ALPHA
 10
1644.096939
 20
204.638326
 30
0.0
  0
VERTEX
  5
2A564
  8
ALPHA
 10
1644.862974
 20
203.753409
 30
0.0
  0
VERTEX
  5
2A565
  8
ALPHA
 10
1645.356934
 20
202.67124
 30
0.0
  0
SEQEND
  5
2A566
  8
ALPHA
  0
POLYLINE
  5
26B32
  8
ALPHA
 66
     1
 10
0.0
 20
0.0
 30
0.0
  0
VERTEX
  5
2A567
  8
ALPHA
 10
1637.21651
 20
201.50686
 30
0.0
  0
VERTEX
  5
2A568
  8
ALPHA
 10
1637.243961
 20
201.983991
 30
0.0
  0
VERTEX
  5
2A569
  8
ALPHA
 10
1637.338545
 20
202.506492
 30
0.0
  0
VERTEX
  5
2A56A
  8
ALPHA
 10
1637.518557
 20
203.062032
 30
0.0
  0
VERTEX
  5
2A56B
  8
ALPHA
 10
1637.76951
 20
203.577932
 30
0.0
  0
VERTEX
  5
2A56C
  8
ALPHA
 10
1638.059511
 20
204.01574
 30
0.0
  0
VERTEX
  5
2A56D
  8
ALPHA
 10
1638.381099
 20
204.391536
 30
0.0
  0
VERTEX
  5
2A56E
  8
ALPHA
 10
1638.742788
 20
204.724483
 30
0.0
  0
VERTEX
  5
2A56F
  8
ALPHA
 10
1639.170531
 20
205.030898
 30
0.0
  0
VERTEX
  5
2A570
  8
ALPHA
 10
1639.69337
 20
205.307778
 30
0.0
  0
VERTEX
  5
2A571
  8
ALPHA
 10
1640.316128
 20
205.525444
 30
0.0
  0
VERTEX
  5
2A572
  8
ALPHA
 10
1641.041486
 20
205.648461
 30
0.0
  0
VERTEX
  5
2A573
  8
ALPHA
 10
1641.879375
 20
205.630363
 30
0.0
  0
VERTEX
  5
2A574
  8
ALPHA
 10
1642.730282
 20
205.432966
 30
0.0
  0
VERTEX
  5
2A575
  8
ALPHA
 10
1643.45306
 20
205.102219
 30
0.0
  0
VERTEX
  5
2A576
  8
ALPHA
 10
1644.029876
 20
204.699332
 30
0.0
  0
VERTEX
  5
2A577
  8
ALPHA
 10
1644.481231
 20
204.261454
 30
0.0
  0
VERTEX
  5
2A578
  8
ALPHA
 10
1644.82628
 20
203.813842
 30
0.0
  0
VERTEX
  5
2A579
  8
ALPHA
 10
1645.08332
 20
203.372278
 30
0.0
  0
VERTEX
  5
2A57A
  8
ALPHA
 10
1645.267844
 20
202.947454
 30
0.0
  0
VERTEX
  5
2A57B
  8
ALPHA
 10
1645.393537
 20
202.546166
 30
0.0
  0
VERTEX
  5
2A57C
  8
ALPHA
 10
1645.472245
 20
202.170632
 30
0.0
  0
VERTEX
  5
2A57D
  8
ALPHA
 10
1645.513551
 20
201.82407
 30
0.0
  0
VERTEX
  5
2A57E
  8
ALPHA
 10
1645.525617
 20
201.506857
 30
0.0
  0
SEQEND
  5
2A57F
  8
ALPHA
  0
POLYLINE
  5
26B4C
  8
ALPHA
 66
     1
 10
0.0
 20
0.0
 30
0.0
  0
VERTEX
  5
2A580
  8
ALPHA
 10
1636.351418
 20
201.506859
 30
0.0
  0
VERTEX
  5
2A581
  8
ALPHA
 10
1636.385555
 20
202.098831
 30
0.0
  0
VERTEX
  5
2A582
  8
ALPHA
 10
1636.502966
 20
202.746413
 30
0.0
  0
VERTEX
  5
2A583
  8
ALPHA
 10
1636.726465
 20
203.435196
 30
0.0
  0
VERTEX
  5
2A584
  8
ALPHA
 10
1637.038143
 20
204.075071
 30
0.0
  0
VERTEX
  5
2A585
  8
ALPHA
 10
1637.398378
 20
204.618166
 30
0.0
  0
VERTEX
  5
2A586
  8
ALPHA
 10
1637.797738
 20
205.084243
 30
0.0
  0
VERTEX
  5
2A587
  8
ALPHA
 10
1638.247132
 20
205.497453
 30
0.0
  0
VERTEX
  5
2A588
  8
ALPHA
 10
1638.778655
 20
205.877783
 30
0.0
  0
VERTEX
  5
2A589
  8
ALPHA
 10
1639.428126
 20
206.221417
 30
0.0
  0
VERTEX
  5
2A58A
  8
ALPHA
 10
1640.202067
 20
206.491822
 30
0.0
  0
VERTEX
  5
2A58B
  8
ALPHA
 10
1641.103805
 20
206.644943
 30
0.0
  0
VERTEX
  5
2A58C
  8
ALPHA
 10
1642.145487
 20
206.623012
 30
0.0
  0
VERTEX
  5
2A58D
  8
ALPHA
 10
1643.203482
 20
206.3786
 30
0.0
  0
VERTEX
  5
2A58E
  8
ALPHA
 10
1644.102108
 20
205.968765
 30
0.0
  0
VERTEX
  5
2A58F
  8
ALPHA
 10
1644.819507
 20
205.46922
 30
0.0
  0
VERTEX
  5
2A590
  8
ALPHA
 10
1645.381162
 20
204.925917
 30
0.0
  0
VERTEX
  5
2A591
  8
ALPHA
 10
1645.810593
 20
204.370379
 30
0.0
  0
VERTEX
  5
2A592
  8
ALPHA
 10
1646.130408
 20
203.822441
 30
0.0
  0
VERTEX
  5
2A593
  8
ALPHA
 10
1646.360014
 20
203.295289
 30
0.0
  0
VERTEX
  5
2A594
  8
ALPHA
 10
1646.5165
 20
202.796959
 30
0.0
  0
VERTEX
  5
2A595
  8
ALPHA
 10
1646.614415
 20
202.331125
 30
0.0
  0
VERTEX
  5
2A596
  8
ALPHA
 10
1646.665853
 20
201.900534
 30
0.0
  0
VERTEX
  5
2A597
  8
ALPHA
 10
1646.680879
 20
201.506856
 30
0.0
  0
SEQEND
  5
2A598
  8
ALPHA
  0
POLYLINE
  5
26B66
  8
ALPHA
 66
     1
 10
0.0
 20
0.0
 30
0.0
  0
VERTEX
  5
2A599
  8
ALPHA
 10
1646.680879
 20
201.506856
 30
0.0
  0
VERTEX
  5
2A59A
  8
ALPHA
 10
1646.647191
 20
200.918783
 30
0.0
  0
VERTEX
  5
2A59B
  8
ALPHA
 10
1646.531087
 20
200.274406
 30
0.0
  0
VERTEX
  5
2A59C
  8
ALPHA
 10
1646.308785
 20
199.585847
 30
0.0
  0
VERTEX
  5
2A59D
  8
ALPHA
 10
1645.99703
 20
198.943654
 30
0.0
  0
VERTEX
  5
2A59E
  8
ALPHA
 10
1645.635126
 20
198.39715
 30
0.0
  0
VERTEX
  5
2A59F
  8
ALPHA
 10
1645.233488
 20
197.928371
 30
0.0
  0
VERTEX
  5
2A5A0
  8
ALPHA
 10
1644.781609
 20
197.513371
 30
0.0
  0
VERTEX
  5
2A5A1
  8
ALPHA
 10
1644.246478
 20
197.131486
 30
0.0
  0
VERTEX
  5
2A5A2
  8
ALPHA
 10
1643.592129
 20
196.787011
 30
0.0
  0
VERTEX
  5
2A5A3
  8
ALPHA
 10
1642.812365
 20
196.517238
 30
0.0
  0
VERTEX
  5
2A5A4
  8
ALPHA
 10
1641.901713
 20
196.366701
 30
0.0
  0
VERTEX
  5
2A5A5
  8
ALPHA
 10
1640.952404
 20
196.383108
 30
0.0
  0
VERTEX
  5
2A5A6
  8
ALPHA
 10
1640.097744
 20
196.550487
 30
0.0
  0
VERTEX
  5
2A5A7
  8
ALPHA
 10
1639.374531
 20
196.816361
 30
0.0
  0
VERTEX
  5
2A5A8
  8
ALPHA
 10
1638.766484
 20
197.143553
 30
0.0
  0
VERTEX
  5
2A5A9
  8
ALPHA
 10
1638.263607
 20
197.502852
 30
0.0
  0
VERTEX
  5
2A5AA
  8
ALPHA
 10
1637.842198
 20
197.884047
 30
0.0
  0
VERTEX
  5
2A5AB
  8
ALPHA
 10
1637.474736
 20
198.297354
 30
0.0
  0
VERTEX
  5
2A5AC
  8
ALPHA
 10
1637.150994
 20
198.751909
 30
0.0
  0
VERTEX
  5
2A5AD
  8
ALPHA
 10
1636.876256
 20
199.242907
 30
0.0
  0
VERTEX
  5
2A5AE
  8
ALPHA
 10
1636.658157
 20
199.756947
 30
0.0
  0
VERTEX
  5
2A5AF
  8
ALPHA
 10
1636.504036
 20
200.263142
 30
0.0
  0
VERTEX
  5
2A5B0
  8
ALPHA
 10
1636.410874
 20
200.726824
 30
0.0
  0
VERTEX
  5
2A5B1
  8
ALPHA
 10
1636.364538
 20
201.139004
 30
0.0
  0
VERTEX
  5
2A5B2
  8
ALPHA
 10
1636.351418
 20
201.506859
 30
0.0
  0
SEQEND
  5
2A5B3
  8
ALPHA
  0
POLYLINE
  5
26B82
  8
ALPHA
 66
     1
 10
0.0
 20
0.0
 30
0.0
  0
VERTEX
  5
2A5B4
  8
ALPHA
 10
1645.525616
 20
201.506857
 30
0.0
  0
VERTEX
  5
2A5B5
  8
ALPHA
 10
1645.498594
 20
201.03345
 30
0.0
  0
VERTEX
  5
2A5B6
  8
ALPHA
 10
1645.405295
 20
200.514164
 30
0.0
  0
VERTEX
  5
2A5B7
  8
ALPHA
 10
1645.226663
 20
199.959378
 30
0.0
  0
VERTEX
  5
2A5B8
  8
ALPHA
 10
1644.976205
 20
199.442045
 30
0.0
  0
VERTEX
  5
2A5B9
  8
ALPHA
 10
1644.685461
 20
199.001743
 30
0.0
  0
VERTEX
  5
2A5BA
  8
ALPHA
 10
1644.362654
 20
198.623872
 30
0.0
  0
VERTEX
  5
2A5BB
  8
ALPHA
 10
1643.999551
 20
198.289411
 30
0.0
  0
VERTEX
  5
2A5BC
  8
ALPHA
 10
1643.569554
 20
197.981556
 30
0.0
  0
VERTEX
  5
2A5BD
  8
ALPHA
 10
1643.04344
 20
197.703603
 30
0.0
  0
VERTEX
  5
2A5BE
  8
ALPHA
 10
1642.416527
 20
197.485799
 30
0.0
  0
VERTEX
  5
2A5BF
  8
ALPHA
 10
1641.68413
 20
197.363974
 30
0.0
  0
VERTEX
  5
2A5C0
  8
ALPHA
 10
1640.920221
 20
197.376688
 30
0.0
  0
VERTEX
  5
2A5C1
  8
ALPHA
 10
1640.232456
 20
197.511208
 30
0.0
  0
VERTEX
  5
2A5C2
  8
ALPHA
 10
1639.65058
 20
197.725169
 30
0.0
  0
VERTEX
  5
2A5C3
  8
ALPHA
 10
1639.161178
 20
197.988674
 30
0.0
  0
VERTEX
  5
2A5C4
  8
ALPHA
 10
1638.756123
 20
198.278373
 30
0.0
  0
VERTEX
  5
2A5C5
  8
ALPHA
 10
1638.416992
 20
198.585456
 30
0.0
  0
VERTEX
  5
2A5C6
  8
ALPHA
 10
1638.12114
 20
198.918631
 30
0.0
  0
VERTEX
  5
2A5C7
  8
ALPHA
 10
1637.860447
 20
199.285107
 30
0.0
  0
VERTEX
  5
2A5C8
  8
ALPHA
 10
1637.639247
 20
199.680911
 30
0.0
  0
VERTEX
  5
2A5C9
  8
ALPHA
 10
1637.463534
 20
200.095655
 30
0.0
  0
VERTEX
  5
2A5CA
  8
ALPHA
 10
1637.339421
 20
200.503742
 30
0.0
  0
VERTEX
  5
2A5CB
  8
ALPHA
 10
1637.264375
 20
200.877984
 30
0.0
  0
VERTEX
  5
2A5CC
  8
ALPHA
 10
1637.22706
 20
201.210105
 30
0.0
  0
VERTEX
  5
2A5CD
  8
ALPHA
 10
1637.21651
 20
201.50686
 30
0.0
  0
SEQEND
  5
2A5CE
  8
ALPHA
  0
POLYLINE
  5
26B9E
  8
ALPHA
 66
     1
 10
0.0
 20
0.0
 30
0.0
  0
VERTEX
  5
2A5CF
  8
ALPHA
 10
1641.373629
 20
204.006861
 30
0.0
  0
VERTEX
  5
2A5D0
  8
ALPHA
 10
1642.231324
 20
203.855129
 30
0.0
  0
VERTEX
  5
2A5D1
  8
ALPHA
 10
1642.992048
 20
203.412308
 30
0.0
  0
VERTEX
  5
2A5D2
  8
ALPHA
 10
1643.539551
 20
202.75537
 30
0.0
  0
VERTEX
  5
2A5D3
  8
ALPHA
 10
1643.837129
 20
201.932503
 30
0.0
  0
VERTEX
  5
2A5D4
  8
ALPHA
 10
1643.837102
 20
201.081061
 30
0.0
  0
VERTEX
  5
2A5D5
  8
ALPHA
 10
1643.539484
 20
200.258237
 30
0.0
  0
VERTEX
  5
2A5D6
  8
ALPHA
 10
1642.991999
 20
199.601373
 30
0.0
  0
VERTEX
  5
2A5D7
  8
ALPHA
 10
1642.231274
 20
199.158575
 30
0.0
  0
VERTEX
  5
2A5D8
  8
ALPHA
 10
1641.373629
 20
199.006861
 30
0.0
  0
SEQEND
  5
2A5D9
  8
ALPHA
  0
ARC
  5
26BAA
  8
ALPHA
 10
1641.373629
 20
199.930861
 30
0.0
 40
0.394
 50
193.266405
 51
346.733595
  0
ARC
  5
26BAB
  8
ALPHA
 10
1640.32035
 20
199.682529
 30
0.0
 40
0.688158
 50
13.266405
 51
106.733595
  0
ARC
  5
26BAC
  8
ALPHA
 10
1640.32035
 20
203.331194
 30
0.0
 40
0.688158
 50
253.266405
 51
346.733595
  0
ARC
  5
26BAD
  8
ALPHA
 10
1641.373629
 20
203.082861
 30
0.0
 40
0.394
 50
13.266405
 51
166.733595
  0
ARC
  5
26BAE
  8
ALPHA
 10
1640.008773
 20
202.294861
 30
0.0
 40
0.394
 50
73.266405
 51
226.733595
  0
ARC
  5
26BAF
  8
ALPHA
 10
1640.008773
 20
200.718861
 30
0.0
 40
0.394
 50
133.266405
 51
286.733595
  0
ARC
  5
26BB0
  8
ALPHA
 10
1639.267071
 20
201.506861
 30
0.0
 40
0.688158
 50
313.266405
 51
46.733595
  0
LINE
  5
26BB1
  8
ALPHA
 10
1641.973629
 20
202.813411
 30
0.0
 11
1641.973629
 21
203.900717
 31
0.0
  0
LINE
  5
26BB2
  8
ALPHA
 10
1641.973629
 20
199.112999
 30
0.0
 11
1641.973629
 21
200.200312
 31
0.0
  0
LINE
  5
26BB3
  8
ALPHA
 10
1641.942206
 20
202.842701
 30
0.0
 11
1641.942206
 21
203.906276
 31
0.0
  0
LINE
  5
26BB4
  8
ALPHA
 10
1641.942206
 20
199.10744
 30
0.0
 11
1641.942206
 21
200.171021
 31
0.0
  0
LINE
  5
26BB5
  8
ALPHA
 10
1640.805052
 20
202.842701
 30
0.0
 11
1640.805052
 21
203.906343
 31
0.0
  0
LINE
  5
26BB6
  8
ALPHA
 10
1640.805052
 20
199.107386
 30
0.0
 11
1640.805052
 21
200.171021
 31
0.0
  0
LINE
  5
26BB7
  8
ALPHA
 10
1640.773629
 20
202.813411
 30
0.0
 11
1640.773629
 21
203.900787
 31
0.0
  0
LINE
  5
26BB8
  8
ALPHA
 10
1640.773629
 20
199.112942
 30
0.0
 11
1640.773629
 21
200.200312
 31
0.0
  0
POLYLINE
  5
26BB9
  8
ALPHA
 66
     1
 10
0.0
 20
0.0
 30
0.0
  0
VERTEX
  5
2A5DA
  8
ALPHA
 10
1640.776894
 20
197.399988
 30
0.0
  0
VERTEX
  5
2A5DB
  8
ALPHA
 10
1639.651247
 20
197.731161
 30
0.0
  0
VERTEX
  5
2A5DC
  8
ALPHA
 10
1638.652058
 20
198.373885
 30
0.0
  0
VERTEX
  5
2A5DD
  8
ALPHA
 10
1637.885574
 20
199.258309
 30
0.0
  0
VERTEX
  5
2A5DE
  8
ALPHA
 10
1637.390895
 20
200.340531
 30
0.0
  0
VERTEX
  5
2A5DF
  8
ALPHA
 10
1637.223629
 20
201.506859
 30
0.0
  0
SEQEND
  5
2A5E0
  8
ALPHA
  0
POLYLINE
  5
26BC1
  8
ALPHA
 66
     1
 10
0.0
 20
0.0
 30
0.0
  0
VERTEX
  5
2A5E1
  8
ALPHA
 10
1641.373629
 20
199.006861
 30
0.0
  0
VERTEX
  5
2A5E2
  8
ALPHA
 10
1640.516416
 20
199.158417
 30
0.0
  0
VERTEX
  5
2A5E3
  8
ALPHA
 10
1639.7555
 20
199.601168
 30
0.0
  0
VERTEX
  5
2A5E4
  8
ALPHA
 10
1639.207781
 20
200.258223
 30
0.0
  0
VERTEX
  5
2A5E5
  8
ALPHA
 10
1638.910134
 20
201.081187
 30
0.0
  0
VERTEX
  5
2A5E6
  8
ALPHA
 10
1638.910161
 20
201.932692
 30
0.0
  0
VERTEX
  5
2A5E7
  8
ALPHA
 10
1639.207846
 20
202.755612
 30
0.0
  0
VERTEX
  5
2A5E8
  8
ALPHA
 10
1639.755548
 20
203.412595
 30
0.0
  0
VERTEX
  5
2A5E9
  8
ALPHA
 10
1640.516466
 20
203.855323
 30
0.0
  0
VERTEX
  5
2A5EA
  8
ALPHA
 10
1641.373629
 20
204.006861
 30
0.0
  0
SEQEND
  5
2A5EB
  8
ALPHA
  0
LINE
  5
26BCD
  8
ALPHA
 10
1641.972428
 20
197.400289
 30
0.0
 11
1640.776894
 21
197.399988
 31
0.0
  0
ARC
  5
26BCE
  8
ALPHA
 10
1642.738485
 20
202.294861
 30
0.0
 40
0.394
 50
313.266405
 51
106.733595
  0
ARC
  5
26BCF
  8
ALPHA
 10
1642.738485
 20
200.718861
 30
0.0
 40
0.394
 50
253.266405
 51
46.733595
  0
ARC
  5
26BD0
  8
ALPHA
 10
1643.480186
 20
201.506861
 30
0.0
 40
0.688158
 50
133.266405
 51
226.733595
  0
LINE
  5
26BD1
  8
ALPHA
 10
1644.862978
 20
199.260319
 30
0.0
 11
1644.096947
 21
198.375404
 31
0.0
  0
LINE
  5
26BD2
  8
ALPHA
 10
1645.356934
 20
200.342486
 30
0.0
 11
1644.862978
 21
199.260319
 31
0.0
  0
LINE
  5
26BD3
  8
ALPHA
 10
1645.356934
 20
202.67124
 30
0.0
 11
1645.523629
 21
201.506857
 31
0.0
  0
LINE
  5
26BD4
  8
ALPHA
 10
1644.096947
 20
198.375404
 30
0.0
 11
1643.097989
 21
197.732065
 31
0.0
  0
LINE
  5
26BD5
  8
ALPHA
 10
1645.523629
 20
201.506857
 30
0.0
 11
1645.356934
 21
200.342486
 31
0.0
  0
POLYLINE
  5
26BD6
  8
ALPHA
 66
     1
 10
0.0
 20
0.0
 30
0.0
  0
VERTEX
  5
2A5EC
  8
ALPHA
 10
1648.878499
 20
192.493978
 30
0.0
  0
VERTEX
  5
2A5ED
  8
ALPHA
 10
1648.888725
 20
192.612002
 30
0.0
  0
VERTEX
  5
2A5EE
  8
ALPHA
 10
1648.897311
 20
192.945097
 30
0.0
  0
VERTEX
  5
2A5EF
  8
ALPHA
 10
1648.902947
 20
193.434961
 30
0.0
  0
VERTEX
  5
2A5F0
  8
ALPHA
 10
1648.904907
 20
194.006861
 30
0.0
  0
VERTEX
  5
2A5F1
  8
ALPHA
 10
1648.902947
 20
194.578762
 30
0.0
  0
VERTEX
  5
2A5F2
  8
ALPHA
 10
1648.897311
 20
195.068625
 30
0.0
  0
VERTEX
  5
2A5F3
  8
ALPHA
 10
1648.888725
 20
195.40172
 30
0.0
  0
VERTEX
  5
2A5F4
  8
ALPHA
 10
1648.878499
 20
195.519744
 30
0.0
  0
SEQEND
  5
2A5F5
  8
ALPHA
  0
POLYLINE
  5
26BE1
  8
ALPHA
 66
     1
 10
0.0
 20
0.0
 30
0.0
  0
VERTEX
  5
2A5F6
  8
ALPHA
 10
1648.597472
 20
195.519744
 30
0.0
  0
VERTEX
  5
2A5F7
  8
ALPHA
 10
1648.587246
 20
195.401687
 30
0.0
  0
VERTEX
  5
2A5F8
  8
ALPHA
 10
1648.578661
 20
195.068584
 30
0.0
  0
VERTEX
  5
2A5F9
  8
ALPHA
 10
1648.573025
 20
194.578735
 30
0.0
  0
VERTEX
  5
2A5FA
  8
ALPHA
 10
1648.571066
 20
194.006861
 30
0.0
  0
VERTEX
  5
2A5FB
  8
ALPHA
 10
1648.573025
 20
193.434988
 30
0.0
  0
VERTEX
  5
2A5FC
  8
ALPHA
 10
1648.578661
 20
192.945139
 30
0.0
  0
VERTEX
  5
2A5FD
  8
ALPHA
 10
1648.587246
 20
192.612036
 30
0.0
  0
VERTEX
  5
2A5FE
  8
ALPHA
 10
1648.597472
 20
192.493978
 30
0.0
  0
SEQEND
  5
2A5FF
  8
ALPHA
  0
POLYLINE
  5
26BEC
  8
ALPHA
 66
     1
 10
0.0
 20
0.0
 30
0.0
  0
VERTEX
  5
2A600
  8
ALPHA
 10
1648.878499
 20
199.993978
 30
0.0
  0
VERTEX
  5
2A601
  8
ALPHA
 10
1648.888725
 20
200.112002
 30
0.0
  0
VERTEX
  5
2A602
  8
ALPHA
 10
1648.897311
 20
200.445097
 30
0.0
  0
VERTEX
  5
2A603
  8
ALPHA
 10
1648.902947
 20
200.934961
 30
0.0
  0
VERTEX
  5
2A604
  8
ALPHA
 10
1648.904907
 20
201.506861
 30
0.0
  0
VERTEX
  5
2A605
  8
ALPHA
 10
1648.902947
 20
202.078762
 30
0.0
  0
VERTEX
  5
2A606
  8
ALPHA
 10
1648.897311
 20
202.568625
 30
0.0
  0
VERTEX
  5
2A607
  8
ALPHA
 10
1648.888725
 20
202.90172
 30
0.0
  0
VERTEX
  5
2A608
  8
ALPHA
 10
1648.878499
 20
203.019744
 30
0.0
  0
SEQEND
  5
2A609
  8
ALPHA
  0
POLYLINE
  5
26BF7
  8
ALPHA
 66
     1
 10
0.0
 20
0.0
 30
0.0
  0
VERTEX
  5
2A60A
  8
ALPHA
 10
1648.597472
 20
203.019744
 30
0.0
  0
VERTEX
  5
2A60B
  8
ALPHA
 10
1648.587246
 20
202.901687
 30
0.0
  0
VERTEX
  5
2A60C
  8
ALPHA
 10
1648.578661
 20
202.568584
 30
0.0
  0
VERTEX
  5
2A60D
  8
ALPHA
 10
1648.573025
 20
202.078735
 30
0.0
  0
VERTEX
  5
2A60E
  8
ALPHA
 10
1648.571066
 20
201.506861
 30
0.0
  0
VERTEX
  5
2A60F
  8
ALPHA
 10
1648.573025
 20
200.934988
 30
0.0
  0
VERTEX
  5
2A610
  8
ALPHA
 10
1648.578661
 20
200.445139
 30
0.0
  0
VERTEX
  5
2A611
  8
ALPHA
 10
1648.587246
 20
200.112036
 30
0.0
  0
VERTEX
  5
2A612
  8
ALPHA
 10
1648.597472
 20
199.993978
 30
0.0
  0
SEQEND
  5
2A613
  8
ALPHA
  0
LINE
  5
26C02
  8
ALPHA
 10
1648.597472
 20
207.493978
 30
0.0
 11
1648.878499
 21
207.493978
 31
0.0
  0
LINE
  5
26C03
  8
ALPHA
 10
1648.878499
 20
203.019744
 30
0.0
 11
1648.597472
 21
203.019744
 31
0.0
  0
LINE
  5
26C04
  8
ALPHA
 10
1648.597472
 20
199.993978
 30
0.0
 11
1648.878499
 21
199.993978
 31
0.0
  0
LINE
  5
26C05
  8
ALPHA
 10
1648.878499
 20
195.519744
 30
0.0
 11
1648.597472
 21
195.519744
 31
0.0
  0
LINE
  5
26C06
  8
ALPHA
 10
1648.597472
 20
192.493978
 30
0.0
 11
1648.878499
 21
192.493978
 31
0.0
  0
POLYLINE
  5
26C07
  8
ALPHA
 66
     1
 10
0.0
 20
0.0
 30
0.0
  0
VERTEX
  5
2A614
  8
ALPHA
 10
1648.878499
 20
214.952046
 30
0.0
  0
VERTEX
  5
2A615
  8
ALPHA
 10
1648.889006
 20
215.07328
 30
0.0
  0
VERTEX
  5
2A616
  8
ALPHA
 10
1648.897827
 20
215.415291
 30
0.0
  0
VERTEX
  5
2A617
  8
ALPHA
 10
1648.903625
 20
215.918979
 30
0.0
  0
VERTEX
  5
2A618
  8
ALPHA
 10
1648.90564
 20
216.506861
 30
0.0
  0
VERTEX
  5
2A619
  8
ALPHA
 10
1648.903625
 20
217.094744
 30
0.0
  0
VERTEX
  5
2A61A
  8
ALPHA
 10
1648.897827
 20
217.598432
 30
0.0
  0
VERTEX
  5
2A61B
  8
ALPHA
 10
1648.889006
 20
217.940443
 30
0.0
  0
VERTEX
  5
2A61C
  8
ALPHA
 10
1648.878499
 20
218.061677
 30
0.0
  0
SEQEND
  5
2A61D
  8
ALPHA
  0
POLYLINE
  5
26C12
  8
ALPHA
 66
     1
 10
0.0
 20
0.0
 30
0.0
  0
VERTEX
  5
2A61E
  8
ALPHA
 10
1648.597472
 20
218.061677
 30
0.0
  0
VERTEX
  5
2A61F
  8
ALPHA
 10
1648.586965
 20
217.940387
 30
0.0
  0
VERTEX
  5
2A620
  8
ALPHA
 10
1648.578146
 20
217.598362
 30
0.0
  0
VERTEX
  5
2A621
  8
ALPHA
 10
1648.572349
 20
217.094699
 30
0.0
  0
VERTEX
  5
2A622
  8
ALPHA
 10
1648.570334
 20
216.506861
 30
0.0
  0
VERTEX
  5
2A623
  8
ALPHA
 10
1648.572349
 20
215.919024
 30
0.0
  0
VERTEX
  5
2A624
  8
ALPHA
 10
1648.578146
 20
215.41536
 30
0.0
  0
VERTEX
  5
2A625
  8
ALPHA
 10
1648.586965
 20
215.073335
 30
0.0
  0
VERTEX
  5
2A626
  8
ALPHA
 10
1648.597472
 20
214.952046
 30
0.0
  0
SEQEND
  5
2A627
  8
ALPHA
  0
LINE
  5
26C1D
  8
ALPHA
 10
1648.597472
 20
222.452046
 30
0.0
 11
1648.878499
 21
222.452046
 31
0.0
  0
LINE
  5
26C1E
  8
ALPHA
 10
1648.878499
 20
218.061677
 30
0.0
 11
1648.597472
 21
218.061677
 31
0.0
  0
LINE
  5
26C1F
  8
ALPHA
 10
1648.597472
 20
214.952046
 30
0.0
 11
1648.878499
 21
214.952046
 31
0.0
  0
LINE
  5
26C20
  8
ALPHA
 10
1648.878499
 20
210.519744
 30
0.0
 11
1648.597472
 21
210.519744
 31
0.0
  0
POLYLINE
  5
26C21
  8
ALPHA
 66
     1
 10
0.0
 20
0.0
 30
0.0
  0
VERTEX
  5
2A628
  8
ALPHA
 10
1648.878499
 20
229.952046
 30
0.0
  0
VERTEX
  5
2A629
  8
ALPHA
 10
1648.889006
 20
230.07328
 30
0.0
  0
VERTEX
  5
2A62A
  8
ALPHA
 10
1648.897827
 20
230.415291
 30
0.0
  0
VERTEX
  5
2A62B
  8
ALPHA
 10
1648.903625
 20
230.918979
 30
0.0
  0
VERTEX
  5
2A62C
  8
ALPHA
 10
1648.90564
 20
231.506861
 30
0.0
  0
VERTEX
  5
2A62D
  8
ALPHA
 10
1648.903625
 20
232.094744
 30
0.0
  0
VERTEX
  5
2A62E
  8
ALPHA
 10
1648.897827
 20
232.598432
 30
0.0
  0
VERTEX
  5
2A62F
  8
ALPHA
 10
1648.889006
 20
232.940443
 30
0.0
  0
VERTEX
  5
2A630
  8
ALPHA
 10
1648.878499
 20
233.061677
 30
0.0
  0
SEQEND
  5
2A631
  8
ALPHA
  0
POLYLINE
  5
26C2C
  8
ALPHA
 66
     1
 10
0.0
 20
0.0
 30
0.0
  0
VERTEX
  5
2A632
  8
ALPHA
 10
1648.878499
 20
237.452046
 30
0.0
  0
VERTEX
  5
2A633
  8
ALPHA
 10
1648.889006
 20
237.57328
 30
0.0
  0
VERTEX
  5
2A634
  8
ALPHA
 10
1648.897827
 20
237.915291
 30
0.0
  0
VERTEX
  5
2A635
  8
ALPHA
 10
1648.903625
 20
238.418979
 30
0.0
  0
VERTEX
  5
2A636
  8
ALPHA
 10
1648.90564
 20
239.006861
 30
0.0
  0
VERTEX
  5
2A637
  8
ALPHA
 10
1648.903625
 20
239.594744
 30
0.0
  0
VERTEX
  5
2A638
  8
ALPHA
 10
1648.897827
 20
240.098432
 30
0.0
  0
VERTEX
  5
2A639
  8
ALPHA
 10
1648.889006
 20
240.440443
 30
0.0
  0
VERTEX
  5
2A63A
  8
ALPHA
 10
1648.878499
 20
240.561677
 30
0.0
  0
SEQEND
  5
2A63B
  8
ALPHA
  0
POLYLINE
  5
26C37
  8
ALPHA
 66
     1
 10
0.0
 20
0.0
 30
0.0
  0
VERTEX
  5
2A63C
  8
ALPHA
 10
1648.597472
 20
233.061677
 30
0.0
  0
VERTEX
  5
2A63D
  8
ALPHA
 10
1648.586965
 20
232.940387
 30
0.0
  0
VERTEX
  5
2A63E
  8
ALPHA
 10
1648.578146
 20
232.598362
 30
0.0
  0
VERTEX
  5
2A63F
  8
ALPHA
 10
1648.572349
 20
232.094699
 30
0.0
  0
VERTEX
  5
2A640
  8
ALPHA
 10
1648.570334
 20
231.506861
 30
0.0
  0
VERTEX
  5
2A641
  8
ALPHA
 10
1648.572349
 20
230.919024
 30
0.0
  0
VERTEX
  5
2A642
  8
ALPHA
 10
1648.578146
 20
230.41536
 30
0.0
  0
VERTEX
  5
2A643
  8
ALPHA
 10
1648.586965
 20
230.073335
 30
0.0
  0
VERTEX
  5
2A644
  8
ALPHA
 10
1648.597472
 20
229.952046
 30
0.0
  0
SEQEND
  5
2A645
  8
ALPHA
  0
POLYLINE
  5
26C42
  8
ALPHA
 66
     1
 10
0.0
 20
0.0
 30
0.0
  0
VERTEX
  5
2A646
  8
ALPHA
 10
1648.597472
 20
240.561677
 30
0.0
  0
VERTEX
  5
2A647
  8
ALPHA
 10
1648.586965
 20
240.440387
 30
0.0
  0
VERTEX
  5
2A648
  8
ALPHA
 10
1648.578146
 20
240.098362
 30
0.0
  0
VERTEX
  5
2A649
  8
ALPHA
 10
1648.572349
 20
239.594699
 30
0.0
  0
VERTEX
  5
2A64A
  8
ALPHA
 10
1648.570334
 20
239.006861
 30
0.0
  0
VERTEX
  5
2A64B
  8
ALPHA
 10
1648.572349
 20
238.419024
 30
0.0
  0
VERTEX
  5
2A64C
  8
ALPHA
 10
1648.578146
 20
237.91536
 30
0.0
  0
VERTEX
  5
2A64D
  8
ALPHA
 10
1648.586965
 20
237.573335
 30
0.0
  0
VERTEX
  5
2A64E
  8
ALPHA
 10
1648.597472
 20
237.452046
 30
0.0
  0
SEQEND
  5
2A64F
  8
ALPHA
  0
LINE
  5
26C4D
  8
ALPHA
 10
1648.878499
 20
240.561677
 30
0.0
 11
1648.597472
 21
240.561677
 31
0.0
  0
LINE
  5
26C4E
  8
ALPHA
 10
1648.597472
 20
237.452046
 30
0.0
 11
1648.878499
 21
237.452046
 31
0.0
  0
LINE
  5
26C4F
  8
ALPHA
 10
1648.878499
 20
233.061677
 30
0.0
 11
1648.597472
 21
233.061677
 31
0.0
  0
LINE
  5
26C50
  8
ALPHA
 10
1648.597472
 20
229.952046
 30
0.0
 11
1648.878499
 21
229.952046
 31
0.0
  0
LINE
  5
26C51
  8
ALPHA
 10
1648.878499
 20
225.561677
 30
0.0
 11
1648.597472
 21
225.561677
 31
0.0
  0
POLYLINE
  5
26C52
  8
ALPHA
 66
     1
 10
0.0
 20
0.0
 30
0.0
  0
VERTEX
  5
2A650
  8
ALPHA
 10
1648.878499
 20
244.952046
 30
0.0
  0
VERTEX
  5
2A651
  8
ALPHA
 10
1648.889006
 20
245.07328
 30
0.0
  0
VERTEX
  5
2A652
  8
ALPHA
 10
1648.897827
 20
245.415291
 30
0.0
  0
VERTEX
  5
2A653
  8
ALPHA
 10
1648.903625
 20
245.918979
 30
0.0
  0
VERTEX
  5
2A654
  8
ALPHA
 10
1648.90564
 20
246.506861
 30
0.0
  0
VERTEX
  5
2A655
  8
ALPHA
 10
1648.903625
 20
247.094744
 30
0.0
  0
VERTEX
  5
2A656
  8
ALPHA
 10
1648.897827
 20
247.598432
 30
0.0
  0
VERTEX
  5
2A657
  8
ALPHA
 10
1648.889006
 20
247.940443
 30
0.0
  0
VERTEX
  5
2A658
  8
ALPHA
 10
1648.878499
 20
248.061677
 30
0.0
  0
SEQEND
  5
2A659
  8
ALPHA
  0
POLYLINE
  5
26C5D
  8
ALPHA
 66
     1
 10
0.0
 20
0.0
 30
0.0
  0
VERTEX
  5
2A65A
  8
ALPHA
 10
1648.878499
 20
252.452046
 30
0.0
  0
VERTEX
  5
2A65B
  8
ALPHA
 10
1648.889006
 20
252.57328
 30
0.0
  0
VERTEX
  5
2A65C
  8
ALPHA
 10
1648.897827
 20
252.915291
 30
0.0
  0
VERTEX
  5
2A65D
  8
ALPHA
 10
1648.903625
 20
253.418979
 30
0.0
  0
VERTEX
  5
2A65E
  8
ALPHA
 10
1648.90564
 20
254.006861
 30
0.0
  0
VERTEX
  5
2A65F
  8
ALPHA
 10
1648.903625
 20
254.594744
 30
0.0
  0
VERTEX
  5
2A660
  8
ALPHA
 10
1648.897827
 20
255.098432
 30
0.0
  0
VERTEX
  5
2A661
  8
ALPHA
 10
1648.889006
 20
255.440443
 30
0.0
  0
VERTEX
  5
2A662
  8
ALPHA
 10
1648.878499
 20
255.561677
 30
0.0
  0
SEQEND
  5
2A663
  8
ALPHA
  0
POLYLINE
  5
26C68
  8
ALPHA
 66
     1
 10
0.0
 20
0.0
 30
0.0
  0
VERTEX
  5
2A664
  8
ALPHA
 10
1648.597472
 20
248.061677
 30
0.0
  0
VERTEX
  5
2A665
  8
ALPHA
 10
1648.586965
 20
247.940387
 30
0.0
  0
VERTEX
  5
2A666
  8
ALPHA
 10
1648.578146
 20
247.598362
 30
0.0
  0
VERTEX
  5
2A667
  8
ALPHA
 10
1648.572349
 20
247.094699
 30
0.0
  0
VERTEX
  5
2A668
  8
ALPHA
 10
1648.570334
 20
246.506861
 30
0.0
  0
VERTEX
  5
2A669
  8
ALPHA
 10
1648.572349
 20
245.919024
 30
0.0
  0
VERTEX
  5
2A66A
  8
ALPHA
 10
1648.578146
 20
245.41536
 30
0.0
  0
VERTEX
  5
2A66B
  8
ALPHA
 10
1648.586965
 20
245.073335
 30
0.0
  0
VERTEX
  5
2A66C
  8
ALPHA
 10
1648.597472
 20
244.952046
 30
0.0
  0
SEQEND
  5
2A66D
  8
ALPHA
  0
POLYLINE
  5
26C73
  8
ALPHA
 66
     1
 10
0.0
 20
0.0
 30
0.0
  0
VERTEX
  5
2A66E
  8
ALPHA
 10
1648.597472
 20
255.561677
 30
0.0
  0
VERTEX
  5
2A66F
  8
ALPHA
 10
1648.586965
 20
255.440387
 30
0.0
  0
VERTEX
  5
2A670
  8
ALPHA
 10
1648.578146
 20
255.098362
 30
0.0
  0
VERTEX
  5
2A671
  8
ALPHA
 10
1648.572349
 20
254.594699
 30
0.0
  0
VERTEX
  5
2A672
  8
ALPHA
 10
1648.570334
 20
254.006861
 30
0.0
  0
VERTEX
  5
2A673
  8
ALPHA
 10
1648.572349
 20
253.419024
 30
0.0
  0
VERTEX
  5
2A674
  8
ALPHA
 10
1648.578146
 20
252.91536
 30
0.0
  0
VERTEX
  5
2A675
  8
ALPHA
 10
1648.586965
 20
252.573335
 30
0.0
  0
VERTEX
  5
2A676
  8
ALPHA
 10
1648.597472
 20
252.452046
 30
0.0
  0
SEQEND
  5
2A677
  8
ALPHA
  0
LINE
  5
26C7E
  8
ALPHA
 10
1648.878499
 20
255.561677
 30
0.0
 11
1648.597472
 21
255.561677
 31
0.0
  0
LINE
  5
26C7F
  8
ALPHA
 10
1648.597472
 20
252.452046
 30
0.0
 11
1648.878499
 21
252.452046
 31
0.0
  0
LINE
  5
26C80
  8
ALPHA
 10
1648.878499
 20
248.061677
 30
0.0
 11
1648.597472
 21
248.061677
 31
0.0
  0
LINE
  5
26C81
  8
ALPHA
 10
1648.597472
 20
244.952046
 30
0.0
 11
1648.878499
 21
244.952046
 31
0.0
  0
LINE
  5
26C82
  8
ALPHA
 10
1610.073629
 20
287.656861
 30
0.0
 11
1610.073629
 21
295.656861
 31
0.0
  0
LINE
  5
26C83
  8
ALPHA
 10
1609.523629
 20
289.156861
 30
0.0
 11
1609.523629
 21
294.156861
 31
0.0
  0
LINE
  5
26C84
  8
ALPHA
 10
1588.285119
 20
281.035536
 30
0.0
 11
1588.452303
 21
280.868351
 31
0.0
  0
LINE
  5
26C85
  8
ALPHA
 10
1588.452303
 20
280.868351
 30
0.0
 11
1588.514433
 21
280.627819
 31
0.0
  0
LINE
  5
26C86
  8
ALPHA
 10
1588.044586
 20
281.097665
 30
0.0
 11
1588.285119
 21
281.035536
 31
0.0
  0
ARC
  5
26C87
  8
ALPHA
 10
1608.523629
 20
289.156861
 30
0.0
 40
1.0
 50
270.0
 51
0.0
  0
LINE
  5
26C88
  8
ALPHA
 10
1610.073629
 20
296.656861
 30
0.0
 11
1610.073629
 21
308.656861
 31
0.0
  0
ARC
  5
26C89
  8
ALPHA
 10
1608.523629
 20
294.156861
 30
0.0
 40
1.0
 50
0.0
 51
90.0
  0
POLYLINE
  5
26C8A
  8
ALPHA
 66
     1
 10
0.0
 20
0.0
 30
0.0
  0
VERTEX
  5
2A678
  8
ALPHA
 10
1648.878499
 20
289.993978
 30
0.0
  0
VERTEX
  5
2A679
  8
ALPHA
 10
1648.888725
 20
290.112002
 30
0.0
  0
VERTEX
  5
2A67A
  8
ALPHA
 10
1648.897311
 20
290.445097
 30
0.0
  0
VERTEX
  5
2A67B
  8
ALPHA
 10
1648.902947
 20
290.934961
 30
0.0
  0
VERTEX
  5
2A67C
  8
ALPHA
 10
1648.904907
 20
291.506862
 30
0.0
  0
VERTEX
  5
2A67D
  8
ALPHA
 10
1648.902947
 20
292.078762
 30
0.0
  0
VERTEX
  5
2A67E
  8
ALPHA
 10
1648.897311
 20
292.568626
 30
0.0
  0
VERTEX
  5
2A67F
  8
ALPHA
 10
1648.888725
 20
292.901721
 30
0.0
  0
VERTEX
  5
2A680
  8
ALPHA
 10
1648.878499
 20
293.019744
 30
0.0
  0
SEQEND
  5
2A681
  8
ALPHA
  0
POLYLINE
  5
26C95
  8
ALPHA
 66
     1
 10
0.0
 20
0.0
 30
0.0
  0
VERTEX
  5
2A682
  8
ALPHA
 10
1648.597472
 20
293.019744
 30
0.0
  0
VERTEX
  5
2A683
  8
ALPHA
 10
1648.587246
 20
292.901687
 30
0.0
  0
VERTEX
  5
2A684
  8
ALPHA
 10
1648.578661
 20
292.568584
 30
0.0
  0
VERTEX
  5
2A685
  8
ALPHA
 10
1648.573025
 20
292.078735
 30
0.0
  0
VERTEX
  5
2A686
  8
ALPHA
 10
1648.571066
 20
291.506861
 30
0.0
  0
VERTEX
  5
2A687
  8
ALPHA
 10
1648.573025
 20
290.934988
 30
0.0
  0
VERTEX
  5
2A688
  8
ALPHA
 10
1648.578661
 20
290.445139
 30
0.0
  0
VERTEX
  5
2A689
  8
ALPHA
 10
1648.587246
 20
290.112036
 30
0.0
  0
VERTEX
  5
2A68A
  8
ALPHA
 10
1648.597472
 20
289.993978
 30
0.0
  0
SEQEND
  5
2A68B
  8
ALPHA
  0
POLYLINE
  5
26CA0
  8
ALPHA
 66
     1
 10
0.0
 20
0.0
 30
0.0
  0
VERTEX
  5
2A68C
  8
ALPHA
 10
1648.878499
 20
259.952046
 30
0.0
  0
VERTEX
  5
2A68D
  8
ALPHA
 10
1648.889006
 20
260.07328
 30
0.0
  0
VERTEX
  5
2A68E
  8
ALPHA
 10
1648.897827
 20
260.415291
 30
0.0
  0
VERTEX
  5
2A68F
  8
ALPHA
 10
1648.903625
 20
260.918979
 30
0.0
  0
VERTEX
  5
2A690
  8
ALPHA
 10
1648.90564
 20
261.506861
 30
0.0
  0
VERTEX
  5
2A691
  8
ALPHA
 10
1648.903625
 20
262.094744
 30
0.0
  0
VERTEX
  5
2A692
  8
ALPHA
 10
1648.897827
 20
262.598432
 30
0.0
  0
VERTEX
  5
2A693
  8
ALPHA
 10
1648.889006
 20
262.940443
 30
0.0
  0
VERTEX
  5
2A694
  8
ALPHA
 10
1648.878499
 20
263.061677
 30
0.0
  0
SEQEND
  5
2A695
  8
ALPHA
  0
POLYLINE
  5
26CAB
  8
ALPHA
 66
     1
 10
0.0
 20
0.0
 30
0.0
  0
VERTEX
  5
2A696
  8
ALPHA
 10
1648.878499
 20
267.452046
 30
0.0
  0
VERTEX
  5
2A697
  8
ALPHA
 10
1648.889006
 20
267.57328
 30
0.0
  0
VERTEX
  5
2A698
  8
ALPHA
 10
1648.897827
 20
267.915291
 30
0.0
  0
VERTEX
  5
2A699
  8
ALPHA
 10
1648.903625
 20
268.418979
 30
0.0
  0
VERTEX
  5
2A69A
  8
ALPHA
 10
1648.90564
 20
269.006861
 30
0.0
  0
VERTEX
  5
2A69B
  8
ALPHA
 10
1648.903625
 20
269.594744
 30
0.0
  0
VERTEX
  5
2A69C
  8
ALPHA
 10
1648.897827
 20
270.098432
 30
0.0
  0
VERTEX
  5
2A69D
  8
ALPHA
 10
1648.889006
 20
270.440443
 30
0.0
  0
VERTEX
  5
2A69E
  8
ALPHA
 10
1648.878499
 20
270.561677
 30
0.0
  0
SEQEND
  5
2A69F
  8
ALPHA
  0
POLYLINE
  5
26CB6
  8
ALPHA
 66
     1
 10
0.0
 20
0.0
 30
0.0
  0
VERTEX
  5
2A6A0
  8
ALPHA
 10
1648.597472
 20
263.061677
 30
0.0
  0
VERTEX
  5
2A6A1
  8
ALPHA
 10
1648.586965
 20
262.940387
 30
0.0
  0
VERTEX
  5
2A6A2
  8
ALPHA
 10
1648.578146
 20
262.598362
 30
0.0
  0
VERTEX
  5
2A6A3
  8
ALPHA
 10
1648.572349
 20
262.094699
 30
0.0
  0
VERTEX
  5
2A6A4
  8
ALPHA
 10
1648.570334
 20
261.506861
 30
0.0
  0
VERTEX
  5
2A6A5
  8
ALPHA
 10
1648.572349
 20
260.919024
 30
0.0
  0
VERTEX
  5
2A6A6
  8
ALPHA
 10
1648.578146
 20
260.41536
 30
0.0
  0
VERTEX
  5
2A6A7
  8
ALPHA
 10
1648.586965
 20
260.073335
 30
0.0
  0
VERTEX
  5
2A6A8
  8
ALPHA
 10
1648.597472
 20
259.952046
 30
0.0
  0
SEQEND
  5
2A6A9
  8
ALPHA
  0
POLYLINE
  5
26CC1
  8
ALPHA
 66
     1
 10
0.0
 20
0.0
 30
0.0
  0
VERTEX
  5
2A6AA
  8
ALPHA
 10
1648.597472
 20
270.561677
 30
0.0
  0
VERTEX
  5
2A6AB
  8
ALPHA
 10
1648.586965
 20
270.440387
 30
0.0
  0
VERTEX
  5
2A6AC
  8
ALPHA
 10
1648.578146
 20
270.098362
 30
0.0
  0
VERTEX
  5
2A6AD
  8
ALPHA
 10
1648.572349
 20
269.594699
 30
0.0
  0
VERTEX
  5
2A6AE
  8
ALPHA
 10
1648.570334
 20
269.006861
 30
0.0
  0
VERTEX
  5
2A6AF
  8
ALPHA
 10
1648.572349
 20
268.419024
 30
0.0
  0
VERTEX
  5
2A6B0
  8
ALPHA
 10
1648.578146
 20
267.91536
 30
0.0
  0
VERTEX
  5
2A6B1
  8
ALPHA
 10
1648.586965
 20
267.573335
 30
0.0
  0
VERTEX
  5
2A6B2
  8
ALPHA
 10
1648.597472
 20
267.452046
 30
0.0
  0
SEQEND
  5
2A6B3
  8
ALPHA
  0
LINE
  5
26CCC
  8
ALPHA
 10
1648.878499
 20
270.561677
 30
0.0
 11
1648.597472
 21
270.561677
 31
0.0
  0
LINE
  5
26CCD
  8
ALPHA
 10
1648.597472
 20
267.452046
 30
0.0
 11
1648.878499
 21
267.452046
 31
0.0
  0
LINE
  5
26CCE
  8
ALPHA
 10
1648.878499
 20
263.061677
 30
0.0
 11
1648.597472
 21
263.061677
 31
0.0
  0
LINE
  5
26CCF
  8
ALPHA
 10
1648.597472
 20
259.952046
 30
0.0
 11
1648.878499
 21
259.952046
 31
0.0
  0
POLYLINE
  5
26CD0
  8
ALPHA
 66
     1
 10
0.0
 20
0.0
 30
0.0
  0
VERTEX
  5
2A6B4
  8
ALPHA
 10
1648.878499
 20
274.952046
 30
0.0
  0
VERTEX
  5
2A6B5
  8
ALPHA
 10
1648.889006
 20
275.07328
 30
0.0
  0
VERTEX
  5
2A6B6
  8
ALPHA
 10
1648.897827
 20
275.415291
 30
0.0
  0
VERTEX
  5
2A6B7
  8
ALPHA
 10
1648.903625
 20
275.918979
 30
0.0
  0
VERTEX
  5
2A6B8
  8
ALPHA
 10
1648.90564
 20
276.506861
 30
0.0
  0
VERTEX
  5
2A6B9
  8
ALPHA
 10
1648.903625
 20
277.094744
 30
0.0
  0
VERTEX
  5
2A6BA
  8
ALPHA
 10
1648.897827
 20
277.598432
 30
0.0
  0
VERTEX
  5
2A6BB
  8
ALPHA
 10
1648.889006
 20
277.940443
 30
0.0
  0
VERTEX
  5
2A6BC
  8
ALPHA
 10
1648.878499
 20
278.061677
 30
0.0
  0
SEQEND
  5
2A6BD
  8
ALPHA
  0
POLYLINE
  5
26CDB
  8
ALPHA
 66
     1
 10
0.0
 20
0.0
 30
0.0
  0
VERTEX
  5
2A6BE
  8
ALPHA
 10
1648.878499
 20
282.452046
 30
0.0
  0
VERTEX
  5
2A6BF
  8
ALPHA
 10
1648.889006
 20
282.57328
 30
0.0
  0
VERTEX
  5
2A6C0
  8
ALPHA
 10
1648.897827
 20
282.915291
 30
0.0
  0
VERTEX
  5
2A6C1
  8
ALPHA
 10
1648.903625
 20
283.418979
 30
0.0
  0
VERTEX
  5
2A6C2
  8
ALPHA
 10
1648.90564
 20
284.006861
 30
0.0
  0
VERTEX
  5
2A6C3
  8
ALPHA
 10
1648.903625
 20
284.594744
 30
0.0
  0
VERTEX
  5
2A6C4
  8
ALPHA
 10
1648.897827
 20
285.098432
 30
0.0
  0
VERTEX
  5
2A6C5
  8
ALPHA
 10
1648.889006
 20
285.440443
 30
0.0
  0
VERTEX
  5
2A6C6
  8
ALPHA
 10
1648.878499
 20
285.561677
 30
0.0
  0
SEQEND
  5
2A6C7
  8
ALPHA
  0
POLYLINE
  5
26CE6
  8
ALPHA
 66
     1
 10
0.0
 20
0.0
 30
0.0
  0
VERTEX
  5
2A6C8
  8
ALPHA
 10
1648.597472
 20
278.061677
 30
0.0
  0
VERTEX
  5
2A6C9
  8
ALPHA
 10
1648.586965
 20
277.940387
 30
0.0
  0
VERTEX
  5
2A6CA
  8
ALPHA
 10
1648.578146
 20
277.598362
 30
0.0
  0
VERTEX
  5
2A6CB
  8
ALPHA
 10
1648.572349
 20
277.094699
 30
0.0
  0
VERTEX
  5
2A6CC
  8
ALPHA
 10
1648.570334
 20
276.506861
 30
0.0
  0
VERTEX
  5
2A6CD
  8
ALPHA
 10
1648.572349
 20
275.919024
 30
0.0
  0
VERTEX
  5
2A6CE
  8
ALPHA
 10
1648.578146
 20
275.41536
 30
0.0
  0
VERTEX
  5
2A6CF
  8
ALPHA
 10
1648.586965
 20
275.073335
 30
0.0
  0
VERTEX
  5
2A6D0
  8
ALPHA
 10
1648.597472
 20
274.952046
 30
0.0
  0
SEQEND
  5
2A6D1
  8
ALPHA
  0
POLYLINE
  5
26CF1
  8
ALPHA
 66
     1
 10
0.0
 20
0.0
 30
0.0
  0
VERTEX
  5
2A6D2
  8
ALPHA
 10
1648.597472
 20
285.561677
 30
0.0
  0
VERTEX
  5
2A6D3
  8
ALPHA
 10
1648.586965
 20
285.440387
 30
0.0
  0
VERTEX
  5
2A6D4
  8
ALPHA
 10
1648.578146
 20
285.098362
 30
0.0
  0
VERTEX
  5
2A6D5
  8
ALPHA
 10
1648.572349
 20
284.594699
 30
0.0
  0
VERTEX
  5
2A6D6
  8
ALPHA
 10
1648.570334
 20
284.006861
 30
0.0
  0
VERTEX
  5
2A6D7
  8
ALPHA
 10
1648.572349
 20
283.419024
 30
0.0
  0
VERTEX
  5
2A6D8
  8
ALPHA
 10
1648.578146
 20
282.91536
 30
0.0
  0
VERTEX
  5
2A6D9
  8
ALPHA
 10
1648.586965
 20
282.573335
 30
0.0
  0
VERTEX
  5
2A6DA
  8
ALPHA
 10
1648.597472
 20
282.452046
 30
0.0
  0
SEQEND
  5
2A6DB
  8
ALPHA
  0
LINE
  5
26CFC
  8
ALPHA
 10
1648.597472
 20
289.993978
 30
0.0
 11
1648.878499
 21
289.993978
 31
0.0
  0
LINE
  5
26CFD
  8
ALPHA
 10
1648.878499
 20
285.561677
 30
0.0
 11
1648.597472
 21
285.561677
 31
0.0
  0
LINE
  5
26CFE
  8
ALPHA
 10
1648.597472
 20
282.452046
 30
0.0
 11
1648.878499
 21
282.452046
 31
0.0
  0
LINE
  5
26CFF
  8
ALPHA
 10
1648.878499
 20
278.061677
 30
0.0
 11
1648.597472
 21
278.061677
 31
0.0
  0
LINE
  5
26D00
  8
ALPHA
 10
1648.597472
 20
274.952046
 30
0.0
 11
1648.878499
 21
274.952046
 31
0.0
  0
POLYLINE
  5
26D01
  8
ALPHA
 66
     1
 10
0.0
 20
0.0
 30
0.0
  0
VERTEX
  5
2A6DC
  8
ALPHA
 10
1648.878499
 20
304.952046
 30
0.0
  0
VERTEX
  5
2A6DD
  8
ALPHA
 10
1648.889006
 20
305.07328
 30
0.0
  0
VERTEX
  5
2A6DE
  8
ALPHA
 10
1648.897827
 20
305.415291
 30
0.0
  0
VERTEX
  5
2A6DF
  8
ALPHA
 10
1648.903625
 20
305.918979
 30
0.0
  0
VERTEX
  5
2A6E0
  8
ALPHA
 10
1648.90564
 20
306.506861
 30
0.0
  0
VERTEX
  5
2A6E1
  8
ALPHA
 10
1648.903625
 20
307.094744
 30
0.0
  0
VERTEX
  5
2A6E2
  8
ALPHA
 10
1648.897827
 20
307.598432
 30
0.0
  0
VERTEX
  5
2A6E3
  8
ALPHA
 10
1648.889006
 20
307.940443
 30
0.0
  0
VERTEX
  5
2A6E4
  8
ALPHA
 10
1648.878499
 20
308.061677
 30
0.0
  0
SEQEND
  5
2A6E5
  8
ALPHA
  0
POLYLINE
  5
26D0C
  8
ALPHA
 66
     1
 10
0.0
 20
0.0
 30
0.0
  0
VERTEX
  5
2A6E6
  8
ALPHA
 10
1648.597472
 20
308.061677
 30
0.0
  0
VERTEX
  5
2A6E7
  8
ALPHA
 10
1648.586965
 20
307.940387
 30
0.0
  0
VERTEX
  5
2A6E8
  8
ALPHA
 10
1648.578146
 20
307.598362
 30
0.0
  0
VERTEX
  5
2A6E9
  8
ALPHA
 10
1648.572349
 20
307.094699
 30
0.0
  0
VERTEX
  5
2A6EA
  8
ALPHA
 10
1648.570334
 20
306.506861
 30
0.0
  0
VERTEX
  5
2A6EB
  8
ALPHA
 10
1648.572349
 20
305.919024
 30
0.0
  0
VERTEX
  5
2A6EC
  8
ALPHA
 10
1648.578146
 20
305.41536
 30
0.0
  0
VERTEX
  5
2A6ED
  8
ALPHA
 10
1648.586965
 20
305.073335
 30
0.0
  0
VERTEX
  5
2A6EE
  8
ALPHA
 10
1648.597472
 20
304.952046
 30
0.0
  0
SEQEND
  5
2A6EF
  8
ALPHA
  0
POLYLINE
  5
26D17
  8
ALPHA
 66
     1
 10
0.0
 20
0.0
 30
0.0
  0
VERTEX
  5
2A6F0
  8
ALPHA
 10
1648.878499
 20
297.452046
 30
0.0
  0
VERTEX
  5
2A6F1
  8
ALPHA
 10
1648.889006
 20
297.57328
 30
0.0
  0
VERTEX
  5
2A6F2
  8
ALPHA
 10
1648.897827
 20
297.915291
 30
0.0
  0
VERTEX
  5
2A6F3
  8
ALPHA
 10
1648.903625
 20
298.418979
 30
0.0
  0
VERTEX
  5
2A6F4
  8
ALPHA
 10
1648.90564
 20
299.006861
 30
0.0
  0
VERTEX
  5
2A6F5
  8
ALPHA
 10
1648.903625
 20
299.594744
 30
0.0
  0
VERTEX
  5
2A6F6
  8
ALPHA
 10
1648.897827
 20
300.098432
 30
0.0
  0
VERTEX
  5
2A6F7
  8
ALPHA
 10
1648.889006
 20
300.440443
 30
0.0
  0
VERTEX
  5
2A6F8
  8
ALPHA
 10
1648.878499
 20
300.561677
 30
0.0
  0
SEQEND
  5
2A6F9
  8
ALPHA
  0
POLYLINE
  5
26D22
  8
ALPHA
 66
     1
 10
0.0
 20
0.0
 30
0.0
  0
VERTEX
  5
2A6FA
  8
ALPHA
 10
1648.597472
 20
300.561677
 30
0.0
  0
VERTEX
  5
2A6FB
  8
ALPHA
 10
1648.586965
 20
300.440387
 30
0.0
  0
VERTEX
  5
2A6FC
  8
ALPHA
 10
1648.578146
 20
300.098362
 30
0.0
  0
VERTEX
  5
2A6FD
  8
ALPHA
 10
1648.572349
 20
299.594699
 30
0.0
  0
VERTEX
  5
2A6FE
  8
ALPHA
 10
1648.570334
 20
299.006861
 30
0.0
  0
VERTEX
  5
2A6FF
  8
ALPHA
 10
1648.572349
 20
298.419024
 30
0.0
  0
VERTEX
  5
2A700
  8
ALPHA
 10
1648.578146
 20
297.91536
 30
0.0
  0
VERTEX
  5
2A701
  8
ALPHA
 10
1648.586965
 20
297.573335
 30
0.0
  0
VERTEX
  5
2A702
  8
ALPHA
 10
1648.597472
 20
297.452046
 30
0.0
  0
SEQEND
  5
2A703
  8
ALPHA
  0
LINE
  5
26D2D
  8
ALPHA
 10
1648.597472
 20
304.952046
 30
0.0
 11
1648.878499
 21
304.952046
 31
0.0
  0
LINE
  5
26D2E
  8
ALPHA
 10
1648.878499
 20
300.561677
 30
0.0
 11
1648.597472
 21
300.561677
 31
0.0
  0
LINE
  5
26D2F
  8
ALPHA
 10
1648.597472
 20
297.452046
 30
0.0
 11
1648.878499
 21
297.452046
 31
0.0
  0
LINE
  5
26D30
  8
ALPHA
 10
1648.878499
 20
293.019744
 30
0.0
 11
1648.597472
 21
293.019744
 31
0.0
  0
LINE
  5
26D31
  8
ALPHA
 10
1648.597472
 20
319.952046
 30
0.0
 11
1648.878499
 21
319.952046
 31
0.0
  0
POLYLINE
  5
26D32
  8
ALPHA
 66
     1
 10
0.0
 20
0.0
 30
0.0
  0
VERTEX
  5
2A704
  8
ALPHA
 10
1648.878499
 20
312.452046
 30
0.0
  0
VERTEX
  5
2A705
  8
ALPHA
 10
1648.889006
 20
312.57328
 30
0.0
  0
VERTEX
  5
2A706
  8
ALPHA
 10
1648.897827
 20
312.915291
 30
0.0
  0
VERTEX
  5
2A707
  8
ALPHA
 10
1648.903625
 20
313.418979
 30
0.0
  0
VERTEX
  5
2A708
  8
ALPHA
 10
1648.90564
 20
314.006861
 30
0.0
  0
VERTEX
  5
2A709
  8
ALPHA
 10
1648.903625
 20
314.594744
 30
0.0
  0
VERTEX
  5
2A70A
  8
ALPHA
 10
1648.897827
 20
315.098432
 30
0.0
  0
VERTEX
  5
2A70B
  8
ALPHA
 10
1648.889006
 20
315.440443
 30
0.0
  0
VERTEX
  5
2A70C
  8
ALPHA
 10
1648.878499
 20
315.561677
 30
0.0
  0
SEQEND
  5
2A70D
  8
ALPHA
  0
POLYLINE
  5
26D3D
  8
ALPHA
 66
     1
 10
0.0
 20
0.0
 30
0.0
  0
VERTEX
  5
2A70E
  8
ALPHA
 10
1648.597472
 20
315.561677
 30
0.0
  0
VERTEX
  5
2A70F
  8
ALPHA
 10
1648.586965
 20
315.440387
 30
0.0
  0
VERTEX
  5
2A710
  8
ALPHA
 10
1648.578146
 20
315.098362
 30
0.0
  0
VERTEX
  5
2A711
  8
ALPHA
 10
1648.572349
 20
314.594699
 30
0.0
  0
VERTEX
  5
2A712
  8
ALPHA
 10
1648.570334
 20
314.006861
 30
0.0
  0
VERTEX
  5
2A713
  8
ALPHA
 10
1648.572349
 20
313.419024
 30
0.0
  0
VERTEX
  5
2A714
  8
ALPHA
 10
1648.578146
 20
312.91536
 30
0.0
  0
VERTEX
  5
2A715
  8
ALPHA
 10
1648.586965
 20
312.573335
 30
0.0
  0
VERTEX
  5
2A716
  8
ALPHA
 10
1648.597472
 20
312.452046
 30
0.0
  0
SEQEND
  5
2A717
  8
ALPHA
  0
LINE
  5
26D48
  8
ALPHA
 10
1648.878499
 20
315.561677
 30
0.0
 11
1648.597472
 21
315.561677
 31
0.0
  0
LINE
  5
26D49
  8
ALPHA
 10
1648.597472
 20
312.452046
 30
0.0
 11
1648.878499
 21
312.452046
 31
0.0
  0
LINE
  5
26D4A
  8
ALPHA
 10
1648.878499
 20
308.061677
 30
0.0
 11
1648.597472
 21
308.061677
 31
0.0
  0
POLYLINE
  5
26D4B
  8
ALPHA
 66
     1
 10
0.0
 20
0.0
 30
0.0
  0
VERTEX
  5
2A718
  8
ALPHA
 10
1610.820167
 20
366.175108
 30
0.0
  0
VERTEX
  5
2A719
  8
ALPHA
 10
1625.073104
 20
366.199523
 30
0.0
  0
VERTEX
  5
2A71A
  8
ALPHA
 10
1639.267148
 20
366.230999
 30
0.0
  0
SEQEND
  5
2A71B
  8
ALPHA
  0
LINE
  5
26D50
  8
ALPHA
 10
1629.066849
 20
367.707807
 30
0.0
 11
1647.018646
 21
367.75165
 31
0.0
  0
LINE
  5
26D51
  8
ALPHA
 10
1611.03054
 20
367.675374
 30
0.0
 11
1629.066849
 21
367.707807
 31
0.0
  0
LINE
  5
26D52
  8
ALPHA
 10
1610.780761
 20
367.644351
 30
0.0
 11
1611.03054
 21
367.675374
 31
0.0
  0
POLYLINE
  5
26D53
  8
ALPHA
 66
     1
 10
0.0
 20
0.0
 30
0.0
  0
VERTEX
  5
2A71C
  8
ALPHA
 10
1610.820167
 20
366.175108
 30
0.0
  0
VERTEX
  5
2A71D
  8
ALPHA
 10
1610.835815
 20
366.738093
 30
0.0
  0
VERTEX
  5
2A71E
  8
ALPHA
 10
1610.881024
 20
367.222813
 30
0.0
  0
VERTEX
  5
2A71F
  8
ALPHA
 10
1610.949063
 20
367.551531
 30
0.0
  0
VERTEX
  5
2A720
  8
ALPHA
 10
1611.03054
 20
367.675374
 30
0.0
  0
SEQEND
  5
2A721
  8
ALPHA
  0
POLYLINE
  5
26D5A
  8
ALPHA
 66
     1
 10
0.0
 20
0.0
 30
0.0
  0
VERTEX
  5
2A722
  8
ALPHA
 10
1610.780761
 20
367.644351
 30
0.0
  0
VERTEX
  5
2A723
  8
ALPHA
 10
1610.700958
 20
367.521955
 30
0.0
  0
VERTEX
  5
2A724
  8
ALPHA
 10
1610.633875
 20
367.194465
 30
0.0
  0
VERTEX
  5
2A725
  8
ALPHA
 10
1610.589214
 20
366.710611
 30
0.0
  0
VERTEX
  5
2A726
  8
ALPHA
 10
1610.573629
 20
366.14458
 30
0.0
  0
SEQEND
  5
2A727
  8
ALPHA
  0
LINE
  5
26D61
  8
ALPHA
 10
1648.878499
 20
338.061677
 30
0.0
 11
1648.597472
 21
338.061677
 31
0.0
  0
LINE
  5
26D62
  8
ALPHA
 10
1648.597472
 20
334.952046
 30
0.0
 11
1648.878499
 21
334.952046
 31
0.0
  0
LINE
  5
26D63
  8
ALPHA
 10
1648.878499
 20
330.561677
 30
0.0
 11
1648.597472
 21
330.561677
 31
0.0
  0
LINE
  5
26D64
  8
ALPHA
 10
1648.597472
 20
327.452046
 30
0.0
 11
1648.878499
 21
327.452046
 31
0.0
  0
LINE
  5
26D65
  8
ALPHA
 10
1648.878499
 20
323.061677
 30
0.0
 11
1648.597472
 21
323.061677
 31
0.0
  0
POLYLINE
  5
26D66
  8
ALPHA
 66
     1
 10
0.0
 20
0.0
 30
0.0
  0
VERTEX
  5
2A728
  8
ALPHA
 10
1648.878499
 20
327.452046
 30
0.0
  0
VERTEX
  5
2A729
  8
ALPHA
 10
1648.889006
 20
327.57328
 30
0.0
  0
VERTEX
  5
2A72A
  8
ALPHA
 10
1648.897827
 20
327.915291
 30
0.0
  0
VERTEX
  5
2A72B
  8
ALPHA
 10
1648.903625
 20
328.418979
 30
0.0
  0
VERTEX
  5
2A72C
  8
ALPHA
 10
1648.90564
 20
329.006861
 30
0.0
  0
VERTEX
  5
2A72D
  8
ALPHA
 10
1648.903625
 20
329.594744
 30
0.0
  0
VERTEX
  5
2A72E
  8
ALPHA
 10
1648.897827
 20
330.098432
 30
0.0
  0
VERTEX
  5
2A72F
  8
ALPHA
 10
1648.889006
 20
330.440443
 30
0.0
  0
VERTEX
  5
2A730
  8
ALPHA
 10
1648.878499
 20
330.561677
 30
0.0
  0
SEQEND
  5
2A731
  8
ALPHA
  0
POLYLINE
  5
26D71
  8
ALPHA
 66
     1
 10
0.0
 20
0.0
 30
0.0
  0
VERTEX
  5
2A732
  8
ALPHA
 10
1648.878499
 20
334.952046
 30
0.0
  0
VERTEX
  5
2A733
  8
ALPHA
 10
1648.889006
 20
335.07328
 30
0.0
  0
VERTEX
  5
2A734
  8
ALPHA
 10
1648.897827
 20
335.415291
 30
0.0
  0
VERTEX
  5
2A735
  8
ALPHA
 10
1648.903625
 20
335.918979
 30
0.0
  0
VERTEX
  5
2A736
  8
ALPHA
 10
1648.90564
 20
336.506861
 30
0.0
  0
VERTEX
  5
2A737
  8
ALPHA
 10
1648.903625
 20
337.094744
 30
0.0
  0
VERTEX
  5
2A738
  8
ALPHA
 10
1648.897827
 20
337.598432
 30
0.0
  0
VERTEX
  5
2A739
  8
ALPHA
 10
1648.889006
 20
337.940443
 30
0.0
  0
VERTEX
  5
2A73A
  8
ALPHA
 10
1648.878499
 20
338.061677
 30
0.0
  0
SEQEND
  5
2A73B
  8
ALPHA
  0
POLYLINE
  5
26D7C
  8
ALPHA
 66
     1
 10
0.0
 20
0.0
 30
0.0
  0
VERTEX
  5
2A73C
  8
ALPHA
 10
1648.597472
 20
330.561677
 30
0.0
  0
VERTEX
  5
2A73D
  8
ALPHA
 10
1648.586965
 20
330.440387
 30
0.0
  0
VERTEX
  5
2A73E
  8
ALPHA
 10
1648.578146
 20
330.098362
 30
0.0
  0
VERTEX
  5
2A73F
  8
ALPHA
 10
1648.572349
 20
329.594699
 30
0.0
  0
VERTEX
  5
2A740
  8
ALPHA
 10
1648.570334
 20
329.006861
 30
0.0
  0
VERTEX
  5
2A741
  8
ALPHA
 10
1648.572349
 20
328.419024
 30
0.0
  0
VERTEX
  5
2A742
  8
ALPHA
 10
1648.578146
 20
327.91536
 30
0.0
  0
VERTEX
  5
2A743
  8
ALPHA
 10
1648.586965
 20
327.573335
 30
0.0
  0
VERTEX
  5
2A744
  8
ALPHA
 10
1648.597472
 20
327.452046
 30
0.0
  0
SEQEND
  5
2A745
  8
ALPHA
  0
POLYLINE
  5
26D87
  8
ALPHA
 66
     1
 10
0.0
 20
0.0
 30
0.0
  0
VERTEX
  5
2A746
  8
ALPHA
 10
1648.597472
 20
338.061677
 30
0.0
  0
VERTEX
  5
2A747
  8
ALPHA
 10
1648.586965
 20
337.940387
 30
0.0
  0
VERTEX
  5
2A748
  8
ALPHA
 10
1648.578146
 20
337.598362
 30
0.0
  0
VERTEX
  5
2A749
  8
ALPHA
 10
1648.572349
 20
337.094699
 30
0.0
  0
VERTEX
  5
2A74A
  8
ALPHA
 10
1648.570334
 20
336.506861
 30
0.0
  0
VERTEX
  5
2A74B
  8
ALPHA
 10
1648.572349
 20
335.919024
 30
0.0
  0
VERTEX
  5
2A74C
  8
ALPHA
 10
1648.578146
 20
335.41536
 30
0.0
  0
VERTEX
  5
2A74D
  8
ALPHA
 10
1648.586965
 20
335.073335
 30
0.0
  0
VERTEX
  5
2A74E
  8
ALPHA
 10
1648.597472
 20
334.952046
 30
0.0
  0
SEQEND
  5
2A74F
  8
ALPHA
  0
LINE
  5
26D92
  8
ALPHA
 10
1648.878499
 20
353.061677
 30
0.0
 11
1648.597472
 21
353.061677
 31
0.0
  0
LINE
  5
26D93
  8
ALPHA
 10
1648.597472
 20
349.952046
 30
0.0
 11
1648.878499
 21
349.952046
 31
0.0
  0
LINE
  5
26D94
  8
ALPHA
 10
1648.878499
 20
345.561677
 30
0.0
 11
1648.597472
 21
345.561677
 31
0.0
  0
LINE
  5
26D95
  8
ALPHA
 10
1648.597472
 20
342.452046
 30
0.0
 11
1648.878499
 21
342.452046
 31
0.0
  0
POLYLINE
  5
26D96
  8
ALPHA
 66
     1
 10
0.0
 20
0.0
 30
0.0
  0
VERTEX
  5
2A750
  8
ALPHA
 10
1648.878499
 20
342.452046
 30
0.0
  0
VERTEX
  5
2A751
  8
ALPHA
 10
1648.889006
 20
342.57328
 30
0.0
  0
VERTEX
  5
2A752
  8
ALPHA
 10
1648.897827
 20
342.915291
 30
0.0
  0
VERTEX
  5
2A753
  8
ALPHA
 10
1648.903625
 20
343.418979
 30
0.0
  0
VERTEX
  5
2A754
  8
ALPHA
 10
1648.90564
 20
344.006861
 30
0.0
  0
VERTEX
  5
2A755
  8
ALPHA
 10
1648.903625
 20
344.594744
 30
0.0
  0
VERTEX
  5
2A756
  8
ALPHA
 10
1648.897827
 20
345.098432
 30
0.0
  0
VERTEX
  5
2A757
  8
ALPHA
 10
1648.889006
 20
345.440443
 30
0.0
  0
VERTEX
  5
2A758
  8
ALPHA
 10
1648.878499
 20
345.561677
 30
0.0
  0
SEQEND
  5
2A759
  8
ALPHA
  0
POLYLINE
  5
26DA1
  8
ALPHA
 66
     1
 10
0.0
 20
0.0
 30
0.0
  0
VERTEX
  5
2A75A
  8
ALPHA
 10
1648.878499
 20
349.952046
 30
0.0
  0
VERTEX
  5
2A75B
  8
ALPHA
 10
1648.889006
 20
350.07328
 30
0.0
  0
VERTEX
  5
2A75C
  8
ALPHA
 10
1648.897827
 20
350.415291
 30
0.0
  0
VERTEX
  5
2A75D
  8
ALPHA
 10
1648.903625
 20
350.918979
 30
0.0
  0
VERTEX
  5
2A75E
  8
ALPHA
 10
1648.90564
 20
351.506861
 30
0.0
  0
VERTEX
  5
2A75F
  8
ALPHA
 10
1648.903625
 20
352.094744
 30
0.0
  0
VERTEX
  5
2A760
  8
ALPHA
 10
1648.897827
 20
352.598432
 30
0.0
  0
VERTEX
  5
2A761
  8
ALPHA
 10
1648.889006
 20
352.940443
 30
0.0
  0
VERTEX
  5
2A762
  8
ALPHA
 10
1648.878499
 20
353.061677
 30
0.0
  0
SEQEND
  5
2A763
  8
ALPHA
  0
POLYLINE
  5
26DAC
  8
ALPHA
 66
     1
 10
0.0
 20
0.0
 30
0.0
  0
VERTEX
  5
2A764
  8
ALPHA
 10
1648.597472
 20
345.561677
 30
0.0
  0
VERTEX
  5
2A765
  8
ALPHA
 10
1648.586965
 20
345.440387
 30
0.0
  0
VERTEX
  5
2A766
  8
ALPHA
 10
1648.578146
 20
345.098362
 30
0.0
  0
VERTEX
  5
2A767
  8
ALPHA
 10
1648.572349
 20
344.594699
 30
0.0
  0
VERTEX
  5
2A768
  8
ALPHA
 10
1648.570334
 20
344.006861
 30
0.0
  0
VERTEX
  5
2A769
  8
ALPHA
 10
1648.572349
 20
343.419024
 30
0.0
  0
VERTEX
  5
2A76A
  8
ALPHA
 10
1648.578146
 20
342.91536
 30
0.0
  0
VERTEX
  5
2A76B
  8
ALPHA
 10
1648.586965
 20
342.573335
 30
0.0
  0
VERTEX
  5
2A76C
  8
ALPHA
 10
1648.597472
 20
342.452046
 30
0.0
  0
SEQEND
  5
2A76D
  8
ALPHA
  0
POLYLINE
  5
26DB7
  8
ALPHA
 66
     1
 10
0.0
 20
0.0
 30
0.0
  0
VERTEX
  5
2A76E
  8
ALPHA
 10
1648.597472
 20
353.061677
 30
0.0
  0
VERTEX
  5
2A76F
  8
ALPHA
 10
1648.586965
 20
352.940387
 30
0.0
  0
VERTEX
  5
2A770
  8
ALPHA
 10
1648.578146
 20
352.598362
 30
0.0
  0
VERTEX
  5
2A771
  8
ALPHA
 10
1648.572349
 20
352.094699
 30
0.0
  0
VERTEX
  5
2A772
  8
ALPHA
 10
1648.570334
 20
351.506861
 30
0.0
  0
VERTEX
  5
2A773
  8
ALPHA
 10
1648.572349
 20
350.919024
 30
0.0
  0
VERTEX
  5
2A774
  8
ALPHA
 10
1648.578146
 20
350.41536
 30
0.0
  0
VERTEX
  5
2A775
  8
ALPHA
 10
1648.586965
 20
350.073335
 30
0.0
  0
VERTEX
  5
2A776
  8
ALPHA
 10
1648.597472
 20
349.952046
 30
0.0
  0
SEQEND
  5
2A777
  8
ALPHA
  0
CIRCLE
  5
26DC2
  8
ALPHA
 10
1641.373629
 20
361.506861
 30
0.0
 40
4.004288
  0
CIRCLE
  5
26DC3
  8
ALPHA
 10
1641.373629
 20
361.506861
 30
0.0
 40
3.754319
  0
ARC
  5
26DC4
  8
ALPHA
 10
1641.373629
 20
361.506861
 30
0.0
 40
3.0
 50
281.536959
 51
78.463041
  0
ARC
  5
26DC5
  8
ALPHA
 10
1641.373629
 20
361.506861
 30
0.0
 40
3.5
 50
279.653406
 51
80.346594
  0
ARC
  5
26DC6
  8
ALPHA
 10
1642.426908
 20
363.331194
 30
0.0
 40
0.688158
 50
193.266405
 51
286.733595
  0
ARC
  5
26DC7
  8
ALPHA
 10
1642.426908
 20
359.682529
 30
0.0
 40
0.688158
 50
73.266405
 51
166.733595
  0
POLYLINE
  5
26DC8
  8
ALPHA
 66
     1
 10
0.0
 20
0.0
 30
0.0
  0
VERTEX
  5
2A778
  8
ALPHA
 10
1643.149119
 20
365.335305
 30
0.0
  0
VERTEX
  5
2A779
  8
ALPHA
 10
1643.726462
 20
365.007937
 30
0.0
  0
VERTEX
  5
2A77A
  8
ALPHA
 10
1644.298646
 20
364.543576
 30
0.0
  0
VERTEX
  5
2A77B
  8
ALPHA
 10
1644.827764
 20
363.921689
 30
0.0
  0
VERTEX
  5
2A77C
  8
ALPHA
 10
1645.261236
 20
363.130633
 30
0.0
  0
VERTEX
  5
2A77D
  8
ALPHA
 10
1645.529356
 20
362.19417
 30
0.0
  0
VERTEX
  5
2A77E
  8
ALPHA
 10
1645.573026
 20
361.180865
 30
0.0
  0
VERTEX
  5
2A77F
  8
ALPHA
 10
1645.368284
 20
360.169027
 30
0.0
  0
VERTEX
  5
2A780
  8
ALPHA
 10
1644.920923
 20
359.231667
 30
0.0
  0
VERTEX
  5
2A781
  8
ALPHA
 10
1644.256996
 20
358.430381
 30
0.0
  0
VERTEX
  5
2A782
  8
ALPHA
 10
1643.412328
 20
357.812841
 30
0.0
  0
VERTEX
  5
2A783
  8
ALPHA
 10
1642.431727
 20
357.419145
 30
0.0
  0
VERTEX
  5
2A784
  8
ALPHA
 10
1641.373629
 20
357.281041
 30
0.0
  0
SEQEND
  5
2A785
  8
ALPHA
  0
POLYLINE
  5
26DD7
  8
ALPHA
 66
     1
 10
0.0
 20
0.0
 30
0.0
  0
VERTEX
  5
2A786
  8
ALPHA
 10
1643.719267
 20
366.242357
 30
0.0
  0
VERTEX
  5
2A787
  8
ALPHA
 10
1644.435212
 20
365.837704
 30
0.0
  0
VERTEX
  5
2A788
  8
ALPHA
 10
1645.144904
 20
365.263412
 30
0.0
  0
VERTEX
  5
2A789
  8
ALPHA
 10
1645.801356
 20
364.493869
 30
0.0
  0
VERTEX
  5
2A78A
  8
ALPHA
 10
1646.339281
 20
363.514282
 30
0.0
  0
VERTEX
  5
2A78B
  8
ALPHA
 10
1646.671722
 20
362.354127
 30
0.0
  0
VERTEX
  5
2A78C
  8
ALPHA
 10
1646.725024
 20
361.099137
 30
0.0
  0
VERTEX
  5
2A78D
  8
ALPHA
 10
1646.469734
 20
359.846723
 30
0.0
  0
VERTEX
  5
2A78E
  8
ALPHA
 10
1645.913454
 20
358.68733
 30
0.0
  0
VERTEX
  5
2A78F
  8
ALPHA
 10
1645.088831
 20
357.69704
 30
0.0
  0
VERTEX
  5
2A790
  8
ALPHA
 10
1644.040494
 20
356.934739
 30
0.0
  0
VERTEX
  5
2A791
  8
ALPHA
 10
1642.824375
 20
356.449741
 30
0.0
  0
VERTEX
  5
2A792
  8
ALPHA
 10
1641.518719
 20
356.281193
 30
0.0
  0
SEQEND
  5
2A793
  8
ALPHA
  0
POLYLINE
  5
26DE6
  8
ALPHA
 66
     1
 10
0.0
 20
0.0
 30
0.0
  0
VERTEX
  5
2A794
  8
ALPHA
 10
1641.401785
 20
367.703093
 30
0.0
  0
VERTEX
  5
2A795
  8
ALPHA
 10
1641.675542
 20
367.681272
 30
0.0
  0
VERTEX
  5
2A796
  8
ALPHA
 10
1641.972142
 20
367.615785
 30
0.0
  0
VERTEX
  5
2A797
  8
ALPHA
 10
1642.286386
 20
367.499822
 30
0.0
  0
VERTEX
  5
2A798
  8
ALPHA
 10
1642.619041
 20
367.319744
 30
0.0
  0
VERTEX
  5
2A799
  8
ALPHA
 10
1642.975542
 20
367.058963
 30
0.0
  0
VERTEX
  5
2A79A
  8
ALPHA
 10
1643.350172
 20
366.699141
 30
0.0
  0
VERTEX
  5
2A79B
  8
ALPHA
 10
1643.719272
 20
366.242356
 30
0.0
  0
SEQEND
  5
2A79C
  8
ALPHA
  0
POLYLINE
  5
26DF0
  8
ALPHA
 66
     1
 10
0.0
 20
0.0
 30
0.0
  0
VERTEX
  5
2A79D
  8
ALPHA
 10
1641.373629
 20
365.72572
 30
0.0
  0
VERTEX
  5
2A79E
  8
ALPHA
 10
1641.588537
 20
365.720098
 30
0.0
  0
VERTEX
  5
2A79F
  8
ALPHA
 10
1641.813931
 20
365.702913
 30
0.0
  0
VERTEX
  5
2A7A0
  8
ALPHA
 10
1642.049465
 20
365.672018
 30
0.0
  0
VERTEX
  5
2A7A1
  8
ALPHA
 10
1642.300535
 20
365.623977
 30
0.0
  0
VERTEX
  5
2A7A2
  8
ALPHA
 10
1642.570535
 20
365.554156
 30
0.0
  0
VERTEX
  5
2A7A3
  8
ALPHA
 10
1642.85866
 20
365.457619
 30
0.0
  0
VERTEX
  5
2A7A4
  8
ALPHA
 10
1643.149119
 20
365.335305
 30
0.0
  0
SEQEND
  5
2A7A5
  8
ALPHA
  0
ARC
  5
26DFA
  8
ALPHA
 10
1641.373629
 20
361.506861
 30
0.0
 40
3.0
 50
101.536959
 51
258.463041
  0
ARC
  5
26DFB
  8
ALPHA
 10
1641.373629
 20
361.506861
 30
0.0
 40
3.5
 50
99.653406
 51
260.346594
  0
ARC
  5
26DFC
  8
ALPHA
 10
1640.32035
 20
363.331194
 30
0.0
 40
0.688158
 50
253.266405
 51
346.733595
  0
ARC
  5
26DFD
  8
ALPHA
 10
1641.373629
 20
363.082861
 30
0.0
 40
0.394
 50
13.266405
 51
166.733595
  0
ARC
  5
26DFE
  8
ALPHA
 10
1641.373629
 20
361.506861
 30
0.0
 40
3.5
 50
80.650837
 51
99.349163
  0
ARC
  5
26DFF
  8
ALPHA
 10
1641.373629
 20
361.506861
 30
0.0
 40
3.5
 50
260.650837
 51
279.349163
  0
ARC
  5
26E00
  8
ALPHA
 10
1641.373629
 20
359.930861
 30
0.0
 40
0.394
 50
193.266405
 51
346.733595
  0
ARC
  5
26E01
  8
ALPHA
 10
1640.32035
 20
359.682529
 30
0.0
 40
0.688158
 50
13.266405
 51
106.733595
  0
ARC
  5
26E02
  8
ALPHA
 10
1640.008773
 20
362.294861
 30
0.0
 40
0.394
 50
73.266405
 51
226.733595
  0
ARC
  5
26E03
  8
ALPHA
 10
1640.008773
 20
360.718861
 30
0.0
 40
0.394
 50
133.266405
 51
286.733595
  0
ARC
  5
26E04
  8
ALPHA
 10
1639.267071
 20
361.506861
 30
0.0
 40
0.688158
 50
313.266405
 51
46.733595
  0
LINE
  5
26E05
  8
ALPHA
 10
1641.942206
 20
364.96037
 30
0.0
 11
1641.960536
 21
364.957302
 31
0.0
  0
LINE
  5
26E06
  8
ALPHA
 10
1640.805052
 20
358.053353
 30
0.0
 11
1640.786722
 21
358.056421
 31
0.0
  0
POLYLINE
  5
26E07
  8
ALPHA
 66
     1
 10
0.0
 20
0.0
 30
0.0
  0
VERTEX
  5
2A7A6
  8
ALPHA
 10
1641.401785
 20
367.703093
 30
0.0
  0
VERTEX
  5
2A7A7
  8
ALPHA
 10
1641.449464
 20
367.534555
 30
0.0
  0
VERTEX
  5
2A7A8
  8
ALPHA
 10
1641.484052
 20
367.228014
 30
0.0
  0
VERTEX
  5
2A7A9
  8
ALPHA
 10
1641.499679
 20
366.835759
 30
0.0
  0
VERTEX
  5
2A7AA
  8
ALPHA
 10
1641.493722
 20
366.424704
 30
0.0
  0
VERTEX
  5
2A7AB
  8
ALPHA
 10
1641.467238
 20
366.064971
 30
0.0
  0
VERTEX
  5
2A7AC
  8
ALPHA
 10
1641.42478
 20
365.817924
 30
0.0
  0
VERTEX
  5
2A7AD
  8
ALPHA
 10
1641.373629
 20
365.725706
 30
0.0
  0
SEQEND
  5
2A7AE
  8
ALPHA
  0
POLYLINE
  5
26E11
  8
ALPHA
 66
     1
 10
0.0
 20
0.0
 30
0.0
  0
VERTEX
  5
2A7AF
  8
ALPHA
 10
1639.267145
 20
366.230999
 30
0.0
  0
VERTEX
  5
2A7B0
  8
ALPHA
 10
1639.450512
 20
365.798655
 30
0.0
  0
VERTEX
  5
2A7B1
  8
ALPHA
 10
1639.555282
 20
365.471202
 30
0.0
  0
VERTEX
  5
2A7B2
  8
ALPHA
 10
1639.556037
 20
365.328085
 30
0.0
  0
SEQEND
  5
2A7B3
  8
ALPHA
  0
POLYLINE
  5
26E17
  8
ALPHA
 66
     1
 10
0.0
 20
0.0
 30
0.0
  0
VERTEX
  5
2A7B4
  8
ALPHA
 10
1641.373629
 20
357.281041
 30
0.0
  0
VERTEX
  5
2A7B5
  8
ALPHA
 10
1640.297441
 20
357.416885
 30
0.0
  0
VERTEX
  5
2A7B6
  8
ALPHA
 10
1639.30068
 20
357.817021
 30
0.0
  0
VERTEX
  5
2A7B7
  8
ALPHA
 10
1638.444407
 20
358.448491
 30
0.0
  0
VERTEX
  5
2A7B8
  8
ALPHA
 10
1637.777142
 20
359.267192
 30
0.0
  0
VERTEX
  5
2A7B9
  8
ALPHA
 10
1637.334643
 20
360.222923
 30
0.0
  0
VERTEX
  5
2A7BA
  8
ALPHA
 10
1637.142189
 20
361.258643
 30
0.0
  0
VERTEX
  5
2A7BB
  8
ALPHA
 10
1637.211853
 20
362.309721
 30
0.0
  0
VERTEX
  5
2A7BC
  8
ALPHA
 10
1637.53493
 20
363.301659
 30
0.0
  0
VERTEX
  5
2A7BD
  8
ALPHA
 10
1638.074927
 20
364.164285
 30
0.0
  0
VERTEX
  5
2A7BE
  8
ALPHA
 10
1638.773056
 20
364.847911
 30
0.0
  0
VERTEX
  5
2A7BF
  8
ALPHA
 10
1639.556035
 20
365.328089
 30
0.0
  0
SEQEND
  5
2A7C0
  8
ALPHA
  0
POLYLINE
  5
26E25
  8
ALPHA
 66
     1
 10
0.0
 20
0.0
 30
0.0
  0
VERTEX
  5
2A7C1
  8
ALPHA
 10
1641.518719
 20
356.281193
 30
0.0
  0
VERTEX
  5
2A7C2
  8
ALPHA
 10
1640.193078
 20
356.44796
 30
0.0
  0
VERTEX
  5
2A7C3
  8
ALPHA
 10
1638.95719
 20
356.941885
 30
0.0
  0
VERTEX
  5
2A7C4
  8
ALPHA
 10
1637.894992
 20
357.722295
 30
0.0
  0
VERTEX
  5
2A7C5
  8
ALPHA
 10
1637.066878
 20
358.735012
 30
0.0
  0
VERTEX
  5
2A7C6
  8
ALPHA
 10
1636.517559
 20
359.917867
 30
0.0
  0
VERTEX
  5
2A7C7
  8
ALPHA
 10
1636.278735
 20
361.199289
 30
0.0
  0
VERTEX
  5
2A7C8
  8
ALPHA
 10
1636.364936
 20
362.499124
 30
0.0
  0
VERTEX
  5
2A7C9
  8
ALPHA
 10
1636.764939
 20
363.725337
 30
0.0
  0
VERTEX
  5
2A7CA
  8
ALPHA
 10
1637.433351
 20
364.791596
 30
0.0
  0
VERTEX
  5
2A7CB
  8
ALPHA
 10
1638.297563
 20
365.636836
 30
0.0
  0
VERTEX
  5
2A7CC
  8
ALPHA
 10
1639.267148
 20
366.230999
 30
0.0
  0
SEQEND
  5
2A7CD
  8
ALPHA
  0
LINE
  5
26E33
  8
ALPHA
 10
1640.805052
 20
364.96037
 30
0.0
 11
1640.786722
 21
364.957302
 31
0.0
  0
LINE
  5
26E34
  8
ALPHA
 10
1641.942206
 20
358.053353
 30
0.0
 11
1641.960536
 21
358.056421
 31
0.0
  0
POLYLINE
  5
26E35
  8
ALPHA
 66
     1
 10
0.0
 20
0.0
 30
0.0
  0
VERTEX
  5
2A7CE
  8
ALPHA
 10
1641.973629
 20
358.567474
 30
0.0
  0
VERTEX
  5
2A7CF
  8
ALPHA
 10
1641.973174
 20
358.434236
 30
0.0
  0
VERTEX
  5
2A7D0
  8
ALPHA
 10
1641.971851
 20
358.310824
 30
0.0
  0
VERTEX
  5
2A7D1
  8
ALPHA
 10
1641.969758
 20
358.205319
 30
0.0
  0
VERTEX
  5
2A7D2
  8
ALPHA
 10
1641.967042
 20
358.124637
 30
0.0
  0
VERTEX
  5
2A7D3
  8
ALPHA
 10
1641.963895
 20
358.073975
 30
0.0
  0
VERTEX
  5
2A7D4
  8
ALPHA
 10
1641.960536
 20
358.056421
 30
0.0
  0
SEQEND
  5
2A7D5
  8
ALPHA
  0
POLYLINE
  5
26E3E
  8
ALPHA
 66
     1
 10
0.0
 20
0.0
 30
0.0
  0
VERTEX
  5
2A7D6
  8
ALPHA
 10
1640.773629
 20
364.446249
 30
0.0
  0
VERTEX
  5
2A7D7
  8
ALPHA
 10
1640.774083
 20
364.579487
 30
0.0
  0
VERTEX
  5
2A7D8
  8
ALPHA
 10
1640.775406
 20
364.702899
 30
0.0
  0
VERTEX
  5
2A7D9
  8
ALPHA
 10
1640.7775
 20
364.808404
 30
0.0
  0
VERTEX
  5
2A7DA
  8
ALPHA
 10
1640.780215
 20
364.889085
 30
0.0
  0
VERTEX
  5
2A7DB
  8
ALPHA
 10
1640.783362
 20
364.939748
 30
0.0
  0
VERTEX
  5
2A7DC
  8
ALPHA
 10
1640.786722
 20
364.957302
 30
0.0
  0
SEQEND
  5
2A7DD
  8
ALPHA
  0
LINE
  5
26E47
  8
ALPHA
 10
1641.973629
 20
362.813411
 30
0.0
 11
1641.973629
 21
364.446249
 31
0.0
  0
LINE
  5
26E48
  8
ALPHA
 10
1641.973629
 20
358.567474
 30
0.0
 11
1641.973629
 21
360.200312
 31
0.0
  0
LINE
  5
26E49
  8
ALPHA
 10
1641.942206
 20
362.842701
 30
0.0
 11
1641.942206
 21
364.96037
 31
0.0
  0
LINE
  5
26E4A
  8
ALPHA
 10
1641.942206
 20
358.053353
 30
0.0
 11
1641.942206
 21
360.171021
 31
0.0
  0
LINE
  5
26E4B
  8
ALPHA
 10
1640.805052
 20
362.842701
 30
0.0
 11
1640.805052
 21
364.96037
 31
0.0
  0
LINE
  5
26E4C
  8
ALPHA
 10
1640.805052
 20
358.053353
 30
0.0
 11
1640.805052
 21
360.171021
 31
0.0
  0
LINE
  5
26E4D
  8
ALPHA
 10
1640.773629
 20
362.813411
 30
0.0
 11
1640.773629
 21
364.446249
 31
0.0
  0
LINE
  5
26E4E
  8
ALPHA
 10
1640.773629
 20
358.567474
 30
0.0
 11
1640.773629
 21
360.200312
 31
0.0
  0
POLYLINE
  5
26E4F
  8
ALPHA
 66
     1
 10
0.0
 20
0.0
 30
0.0
  0
VERTEX
  5
2A7DE
  8
ALPHA
 10
1641.973629
 20
364.446249
 30
0.0
  0
VERTEX
  5
2A7DF
  8
ALPHA
 10
1641.973174
 20
364.579487
 30
0.0
  0
VERTEX
  5
2A7E0
  8
ALPHA
 10
1641.971851
 20
364.702899
 30
0.0
  0
VERTEX
  5
2A7E1
  8
ALPHA
 10
1641.969758
 20
364.808404
 30
0.0
  0
VERTEX
  5
2A7E2
  8
ALPHA
 10
1641.967042
 20
364.889085
 30
0.0
  0
VERTEX
  5
2A7E3
  8
ALPHA
 10
1641.963895
 20
364.939748
 30
0.0
  0
VERTEX
  5
2A7E4
  8
ALPHA
 10
1641.960536
 20
364.957302
 30
0.0
  0
SEQEND
  5
2A7E5
  8
ALPHA
  0
POLYLINE
  5
26E58
  8
ALPHA
 66
     1
 10
0.0
 20
0.0
 30
0.0
  0
VERTEX
  5
2A7E6
  8
ALPHA
 10
1640.773629
 20
358.567474
 30
0.0
  0
VERTEX
  5
2A7E7
  8
ALPHA
 10
1640.774083
 20
358.434236
 30
0.0
  0
VERTEX
  5
2A7E8
  8
ALPHA
 10
1640.775406
 20
358.310824
 30
0.0
  0
VERTEX
  5
2A7E9
  8
ALPHA
 10
1640.7775
 20
358.205319
 30
0.0
  0
VERTEX
  5
2A7EA
  8
ALPHA
 10
1640.780215
 20
358.124637
 30
0.0
  0
VERTEX
  5
2A7EB
  8
ALPHA
 10
1640.783362
 20
358.073975
 30
0.0
  0
VERTEX
  5
2A7EC
  8
ALPHA
 10
1640.786722
 20
358.056421
 30
0.0
  0
SEQEND
  5
2A7ED
  8
ALPHA
  0
POLYLINE
  5
26E61
  8
ALPHA
 66
     1
 10
0.0
 20
0.0
 30
0.0
  0
VERTEX
  5
2A7EE
  8
ALPHA
 10
1639.267145
 20
366.230999
 30
0.0
  0
VERTEX
  5
2A7EF
  8
ALPHA
 10
1639.592236
 20
366.656778
 30
0.0
  0
VERTEX
  5
2A7F0
  8
ALPHA
 10
1639.910482
 20
367.003729
 30
0.0
  0
VERTEX
  5
2A7F1
  8
ALPHA
 10
1640.201366
 20
367.259812
 30
0.0
  0
VERTEX
  5
2A7F2
  8
ALPHA
 10
1640.46543
 20
367.441328
 30
0.0
  0
VERTEX
  5
2A7F3
  8
ALPHA
 10
1640.706607
 20
367.56476
 30
0.0
  0
VERTEX
  5
2A7F4
  8
ALPHA
 10
1640.93046
 20
367.643776
 30
0.0
  0
VERTEX
  5
2A7F5
  8
ALPHA
 10
1641.151885
 20
367.68855
 30
0.0
  0
VERTEX
  5
2A7F6
  8
ALPHA
 10
1641.401785
 20
367.7031
 30
0.0
  0
SEQEND
  5
2A7F7
  8
ALPHA
  0
POLYLINE
  5
26E6C
  8
ALPHA
 66
     1
 10
0.0
 20
0.0
 30
0.0
  0
VERTEX
  5
2A7F8
  8
ALPHA
 10
1639.556035
 20
365.328089
 30
0.0
  0
VERTEX
  5
2A7F9
  8
ALPHA
 10
1639.82413
 20
365.443161
 30
0.0
  0
VERTEX
  5
2A7FA
  8
ALPHA
 10
1640.093139
 20
365.536895
 30
0.0
  0
VERTEX
  5
2A7FB
  8
ALPHA
 10
1640.343262
 20
365.606011
 30
0.0
  0
VERTEX
  5
2A7FC
  8
ALPHA
 10
1640.572547
 20
365.65497
 30
0.0
  0
VERTEX
  5
2A7FD
  8
ALPHA
 10
1640.782828
 20
365.688267
 30
0.0
  0
VERTEX
  5
2A7FE
  8
ALPHA
 10
1640.977479
 20
365.70952
 30
0.0
  0
VERTEX
  5
2A7FF
  8
ALPHA
 10
1641.168294
 20
365.7217
 30
0.0
  0
VERTEX
  5
2A800
  8
ALPHA
 10
1641.373629
 20
365.72572
 30
0.0
  0
SEQEND
  5
2A801
  8
ALPHA
  0
ARC
  5
26E77
  8
ALPHA
 10
1642.738485
 20
362.294861
 30
0.0
 40
0.394
 50
313.266405
 51
106.733595
  0
ARC
  5
26E78
  8
ALPHA
 10
1642.738485
 20
360.718861
 30
0.0
 40
0.394
 50
253.266405
 51
46.733595
  0
ARC
  5
26E79
  8
ALPHA
 10
1643.480186
 20
361.506861
 30
0.0
 40
0.688158
 50
133.266405
 51
226.733595
  0
POLYLINE
  5
26E7A
  8
ALPHA
 66
     1
 10
0.0
 20
0.0
 30
0.0
  0
VERTEX
  5
2A802
  8
ALPHA
 10
1647.018648
 20
367.751652
 30
0.0
  0
VERTEX
  5
2A803
  8
ALPHA
 10
1647.107639
 20
367.629145
 30
0.0
  0
VERTEX
  5
2A804
  8
ALPHA
 10
1647.183381
 20
367.30004
 30
0.0
  0
VERTEX
  5
2A805
  8
ALPHA
 10
1647.234538
 20
366.813777
 30
0.0
  0
VERTEX
  5
2A806
  8
ALPHA
 10
1647.253487
 20
366.251881
 30
0.0
  0
SEQEND
  5
2A807
  8
ALPHA
  0
POLYLINE
  5
26E81
  8
ALPHA
 66
     1
 10
0.0
 20
0.0
 30
0.0
  0
VERTEX
  5
2A808
  8
ALPHA
 10
1647.018648
 20
367.751652
 30
0.0
  0
VERTEX
  5
2A809
  8
ALPHA
 10
1647.593741
 20
367.636834
 30
0.0
  0
VERTEX
  5
2A80A
  8
ALPHA
 10
1648.080697
 20
367.310503
 30
0.0
  0
VERTEX
  5
2A80B
  8
ALPHA
 10
1648.405598
 20
366.822144
 30
0.0
  0
VERTEX
  5
2A80C
  8
ALPHA
 10
1648.518419
 20
366.251881
 30
0.0
  0
SEQEND
  5
2A80D
  8
ALPHA
  0
POLYLINE
  5
26E88
  8
ALPHA
 66
     1
 10
0.0
 20
0.0
 30
0.0
  0
VERTEX
  5
2A80E
  8
ALPHA
 10
1647.473857
 20
368.206861
 30
0.0
  0
VERTEX
  5
2A80F
  8
ALPHA
 10
1648.047809
 20
368.092715
 30
0.0
  0
VERTEX
  5
2A810
  8
ALPHA
 10
1648.534383
 20
367.767616
 30
0.0
  0
VERTEX
  5
2A811
  8
ALPHA
 10
1648.859483
 20
367.281042
 30
0.0
  0
VERTEX
  5
2A812
  8
ALPHA
 10
1648.973629
 20
366.70709
 30
0.0
  0
SEQEND
  5
2A813
  8
ALPHA
  0
LINE
  5
26E8F
  8
ALPHA
 10
1647.253487
 20
366.242357
 30
0.0
 11
1643.719267
 21
366.251878
 31
0.0
  0
LINE
  5
26E90
  8
ALPHA
 10
1648.518419
 20
366.251881
 30
0.0
 11
1647.253487
 21
366.251881
 31
0.0
  0
POLYLINE
  5
26E91
  8
ALPHA
 66
     1
 10
0.0
 20
0.0
 30
0.0
  0
VERTEX
  5
2A814
  8
ALPHA
 10
1643.719266
 20
366.242357
 30
0.0
  0
VERTEX
  5
2A815
  8
ALPHA
 10
1643.544334
 20
365.885328
 30
0.0
  0
VERTEX
  5
2A816
  8
ALPHA
 10
1643.3735
 20
365.585814
 30
0.0
  0
VERTEX
  5
2A817
  8
ALPHA
 10
1643.234285
 20
365.392068
 30
0.0
  0
VERTEX
  5
2A818
  8
ALPHA
 10
1643.149116
 20
365.335299
 30
0.0
  0
SEQEND
  5
2A819
  8
ALPHA
  0
LINE
  5
26E98
  8
ALPHA
 10
1648.518419
 20
366.251881
 30
0.0
 11
1648.973629
 21
366.70709
 31
0.0
  0
LINE
  5
26E99
  8
ALPHA
 10
1647.018646
 20
367.75165
 30
0.0
 11
1647.473857
 21
368.206861
 31
0.0
  0
CIRCLE
  5
26E9A
  8
ALPHA
 10
1658.973629
 20
427.106861
 30
0.0
 40
6.0
  0
LINE
  5
26E9B
  8
ALPHA
 10
1668.973629
 20
408.106861
 30
0.0
 11
1668.973629
 21
439.606861
 31
0.0
  0
LINE
  5
26E9C
  8
ALPHA
 10
1648.973629
 20
439.606861
 30
0.0
 11
1648.973629
 21
408.106861
 31
0.0
  0
LINE
  5
26E9D
  8
ALPHA
 10
1670.473629
 20
408.106861
 30
0.0
 11
1647.473629
 21
408.106861
 31
0.0
  0
LINE
  5
26E9E
  8
ALPHA
 10
1669.273629
 20
406.452955
 30
0.0
 11
1648.673629
 21
406.452955
 31
0.0
  0
LINE
  5
26E9F
  8
ALPHA
 10
1669.273629
 20
397.815888
 30
0.0
 11
1648.673629
 21
397.815888
 31
0.0
  0
LINE
  5
26EA0
  8
ALPHA
 10
1669.273629
 20
396.906861
 30
0.0
 11
1648.673629
 21
396.906861
 31
0.0
  0
LINE
  5
26EA1
  8
ALPHA
 10
1648.673629
 20
396.906861
 30
0.0
 11
1648.673629
 21
406.452955
 31
0.0
  0
LINE
  5
26EA2
  8
ALPHA
 10
1645.695851
 20
396.106861
 30
0.0
 11
1647.473629
 21
408.106861
 31
0.0
  0
LINE
  5
26EA3
  8
ALPHA
 10
1670.473629
 20
408.106861
 30
0.0
 11
1672.251406
 21
396.106861
 31
0.0
  0
LINE
  5
26EA4
  8
ALPHA
 10
1669.273629
 20
396.906861
 30
0.0
 11
1669.273629
 21
406.452955
 31
0.0
  0
LINE
  5
26EA5
  8
ALPHA
 10
1668.973629
 20
439.606861
 30
0.0
 11
1648.973629
 21
439.606861
 31
0.0
  0
CIRCLE
  5
26EA6
  8
ALPHA
 10
1722.223629
 20
362.606861
 30
0.0
 40
4.0
  0
ARC
  5
26EA7
  8
ALPHA
 10
1722.819722
 20
361.507308
 30
0.0
 40
0.225738
 50
64.055271
 51
172.871056
  0
ARC
  5
26EA8
  8
ALPHA
 10
1722.223629
 20
361.581861
 30
0.0
 40
0.375
 50
190.240209
 51
352.871056
  0
ARC
  5
26EA9
  8
ALPHA
 10
1721.562934
 20
361.462505
 30
0.0
 40
0.296389
 50
10.240209
 51
109.759791
  0
ARC
  5
26EAA
  8
ALPHA
 10
1721.553715
 20
363.846854
 30
0.0
 40
0.384385
 50
253.335852
 51
348.196726
  0
ARC
  5
26EAB
  8
ALPHA
 10
1722.223629
 20
363.706861
 30
0.0
 40
0.3
 50
15.033707
 51
168.196726
  0
ARC
  5
26EAC
  8
ALPHA
 10
1722.975266
 20
363.908736
 30
0.0
 40
0.478275
 50
195.033707
 51
284.966293
  0
ARC
  5
26EAD
  8
ALPHA
 10
1723.176257
 20
363.156861
 30
0.0
 40
0.3
 50
315.033707
 51
104.966293
  0
ARC
  5
26EAE
  8
ALPHA
 10
1723.726904
 20
362.606861
 30
0.0
 40
0.478275
 50
135.033707
 51
220.960938
  0
ARC
  5
26EAF
  8
ALPHA
 10
1723.082547
 20
362.047501
 30
0.0
 40
0.375
 50
244.055271
 51
40.960938
  0
ARC
  5
26EB0
  8
ALPHA
 10
1721.335953
 20
363.119361
 30
0.0
 40
0.375
 50
73.335852
 51
229.759791
  0
ARC
  5
26EB1
  8
ALPHA
 10
1721.335953
 20
362.094361
 30
0.0
 40
0.375
 50
130.240209
 51
289.759791
  0
ARC
  5
26EB2
  8
ALPHA
 10
1720.90224
 20
362.606861
 30
0.0
 40
0.296389
 50
310.240209
 51
49.759791
  0
LINE
  5
26EB3
  8
ALPHA
 10
1722.723629
 20
363.50201
 30
0.0
 11
1722.723629
 21
366.575488
 31
0.0
  0
LINE
  5
26EB4
  8
ALPHA
 10
1722.723629
 20
358.638234
 30
0.0
 11
1722.723629
 21
361.711572
 31
0.0
  0
LINE
  5
26EB5
  8
ALPHA
 10
1721.723629
 20
361.711551
 30
0.0
 11
1721.723629
 21
358.638234
 31
0.0
  0
LINE
  5
26EB6
  8
ALPHA
 10
1721.723629
 20
366.575488
 30
0.0
 11
1721.723629
 21
363.502062
 31
0.0
  0
LINE
  5
26EB7
  8
ALPHA
 10
1716.973629
 20
375.306861
 30
0.0
 11
1716.973629
 21
376.106861
 31
0.0
  0
LINE
  5
26EB8
  8
ALPHA
 10
1725.973629
 20
375.306861
 30
0.0
 11
1728.973629
 21
372.306861
 31
0.0
  0
LINE
  5
26EB9
  8
ALPHA
 10
1725.973629
 20
375.306861
 30
0.0
 11
1725.973629
 21
376.106861
 31
0.0
  0
LINE
  5
26EBA
  8
ALPHA
 10
1728.973629
 20
379.106861
 30
0.0
 11
1725.973629
 21
376.106861
 31
0.0
  0
ARC
  5
26EBB
  8
ALPHA
 10
1722.223629
 20
391.206861
 30
0.0
 40
8.0
 50
60.0
 51
82.627033
  0
LINE
  5
26EBC
  8
ALPHA
 10
1722.723629
 20
398.135065
 30
0.0
 11
1726.223629
 21
398.135065
 31
0.0
  0
ARC
  5
26EBD
  8
ALPHA
 10
1693.973629
 20
413.256861
 30
0.0
 40
10.0
 50
116.743684
 51
63.256316
  0
ARC
  5
26EBE
  8
ALPHA
 10
1722.223629
 20
391.206861
 30
0.0
 40
8.0
 50
97.36126
 51
120.0
  0
POLYLINE
  5
26EBF
  8
ALPHA
 66
     1
 10
0.0
 20
0.0
 30
0.0
  0
VERTEX
  5
2A81A
  8
ALPHA
 10
1723.365731
 20
399.118707
 30
0.0
  0
VERTEX
  5
2A81B
  8
ALPHA
 10
1723.418003
 20
399.107495
 30
0.0
  0
VERTEX
  5
2A81C
  8
ALPHA
 10
1723.4495
 20
399.097668
 30
0.0
  0
VERTEX
  5
2A81D
  8
ALPHA
 10
1723.457547
 20
399.091298
 30
0.0
  0
SEQEND
  5
2A81E
  8
ALPHA
  0
LINE
  5
26EC5
  8
ALPHA
 10
1723.365731
 20
399.118707
 30
0.0
 11
1723.248629
 21
399.140924
 31
0.0
  0
POLYLINE
  5
26EC6
  8
ALPHA
 66
     1
 10
0.0
 20
0.0
 30
0.0
  0
VERTEX
  5
2A81F
  8
ALPHA
 10
1723.098781
 20
399.114377
 30
0.0
  0
VERTEX
  5
2A820
  8
ALPHA
 10
1723.176799
 20
399.104264
 30
0.0
  0
VERTEX
  5
2A821
  8
ALPHA
 10
1723.248629
 20
399.096272
 30
0.0
  0
SEQEND
  5
2A822
  8
ALPHA
  0
POLYLINE
  5
26ECB
  8
ALPHA
 66
     1
 10
0.0
 20
0.0
 30
0.0
  0
VERTEX
  5
2A823
  8
ALPHA
 10
1722.918483
 20
399.126037
 30
0.0
  0
VERTEX
  5
2A824
  8
ALPHA
 10
1722.868662
 20
399.132198
 30
0.0
  0
VERTEX
  5
2A825
  8
ALPHA
 10
1722.818378
 20
399.136723
 30
0.0
  0
VERTEX
  5
2A826
  8
ALPHA
 10
1722.769416
 20
399.139617
 30
0.0
  0
VERTEX
  5
2A827
  8
ALPHA
 10
1722.723629
 20
399.140868
 30
0.0
  0
SEQEND
  5
2A828
  8
ALPHA
  0
POLYLINE
  5
26ED2
  8
ALPHA
 66
     1
 10
0.0
 20
0.0
 30
0.0
  0
VERTEX
  5
2A829
  8
ALPHA
 10
1722.930508
 20
399.132676
 30
0.0
  0
VERTEX
  5
2A82A
  8
ALPHA
 10
1723.013087
 20
399.12494
 30
0.0
  0
VERTEX
  5
2A82B
  8
ALPHA
 10
1723.098781
 20
399.114377
 30
0.0
  0
SEQEND
  5
2A82C
  8
ALPHA
  0
POLYLINE
  5
26ED7
  8
ALPHA
 66
     1
 10
0.0
 20
0.0
 30
0.0
  0
VERTEX
  5
2A82D
  8
ALPHA
 10
1723.278816
 20
399.088113
 30
0.0
  0
VERTEX
  5
2A82E
  8
ALPHA
 10
1723.195828
 20
399.094461
 30
0.0
  0
VERTEX
  5
2A82F
  8
ALPHA
 10
1723.102641
 20
399.1034
 30
0.0
  0
VERTEX
  5
2A830
  8
ALPHA
 10
1723.007232
 20
399.114273
 30
0.0
  0
VERTEX
  5
2A831
  8
ALPHA
 10
1722.918483
 20
399.126037
 30
0.0
  0
SEQEND
  5
2A832
  8
ALPHA
  0
LINE
  5
26EDE
  8
ALPHA
 10
1722.854096
 20
399.137703
 30
0.0
 11
1722.930508
 21
399.132676
 31
0.0
  0
LINE
  5
26EDF
  8
ALPHA
 10
1723.365731
 20
399.118707
 30
0.0
 11
1723.365731
 21
399.084117
 31
0.0
  0
LINE
  5
26EE0
  8
ALPHA
 10
1723.248629
 20
399.090422
 30
0.0
 11
1723.248629
 21
399.140717
 31
0.0
  0
LINE
  5
26EE1
  8
ALPHA
 10
1723.098781
 20
399.114377
 30
0.0
 11
1723.098781
 21
399.103839
 31
0.0
  0
LINE
  5
26EE2
  8
ALPHA
 10
1722.723629
 20
397.606861
 30
0.0
 11
1722.723629
 21
399.140868
 31
0.0
  0
LINE
  5
26EE3
  8
ALPHA
 10
1721.723629
 20
399.140865
 30
0.0
 11
1721.723629
 21
397.606861
 31
0.0
  0
LINE
  5
26EE4
  8
ALPHA
 10
1721.198629
 20
399.094147
 30
0.0
 11
1721.198629
 21
399.140926
 31
0.0
  0
LINE
  5
26EE5
  8
ALPHA
 10
1721.093705
 20
399.123432
 30
0.0
 11
1721.093705
 21
399.086405
 31
0.0
  0
POLYLINE
  5
26EE6
  8
ALPHA
 66
     1
 10
0.0
 20
0.0
 30
0.0
  0
VERTEX
  5
2A833
  8
ALPHA
 10
1722.723629
 20
399.140884
 30
0.0
  0
VERTEX
  5
2A834
  8
ALPHA
 10
1722.785233
 20
399.140327
 30
0.0
  0
VERTEX
  5
2A835
  8
ALPHA
 10
1722.854096
 20
399.137703
 30
0.0
  0
SEQEND
  5
2A836
  8
ALPHA
  0
LINE
  5
26EEB
  8
ALPHA
 10
1718.223629
 20
398.135065
 30
0.0
 11
1721.723629
 21
398.135065
 31
0.0
  0
LINE
  5
26EEC
  8
ALPHA
 10
1722.723629
 20
397.606861
 30
0.0
 11
1721.723629
 21
397.606861
 31
0.0
  0
POLYLINE
  5
26EED
  8
ALPHA
 66
     1
 10
0.0
 20
0.0
 30
0.0
  0
VERTEX
  5
2A837
  8
ALPHA
 10
1721.723629
 20
399.140865
 30
0.0
  0
VERTEX
  5
2A838
  8
ALPHA
 10
1721.676976
 20
399.140518
 30
0.0
  0
VERTEX
  5
2A839
  8
ALPHA
 10
1721.625657
 20
399.138567
 30
0.0
  0
VERTEX
  5
2A83A
  8
ALPHA
 10
1721.570942
 20
399.134961
 30
0.0
  0
VERTEX
  5
2A83B
  8
ALPHA
 10
1721.515568
 20
399.129811
 30
0.0
  0
VERTEX
  5
2A83C
  8
ALPHA
 10
1721.462732
 20
399.123432
 30
0.0
  0
SEQEND
  5
2A83D
  8
ALPHA
  0
POLYLINE
  5
26EF5
  8
ALPHA
 66
     1
 10
0.0
 20
0.0
 30
0.0
  0
VERTEX
  5
2A83E
  8
ALPHA
 10
1723.442057
 20
399.08543
 30
0.0
  0
VERTEX
  5
2A83F
  8
ALPHA
 10
1723.405369
 20
399.083455
 30
0.0
  0
VERTEX
  5
2A840
  8
ALPHA
 10
1723.349861
 20
399.084382
 30
0.0
  0
VERTEX
  5
2A841
  8
ALPHA
 10
1723.278816
 20
399.088113
 30
0.0
  0
SEQEND
  5
2A842
  8
ALPHA
  0
LINE
  5
26EFB
  8
ALPHA
 10
1718.223629
 20
398.135065
 30
0.0
 11
1718.223629
 21
396.106861
 31
0.0
  0
POLYLINE
  5
26EFC
  8
ALPHA
 66
     1
 10
0.0
 20
0.0
 30
0.0
  0
VERTEX
  5
2A843
  8
ALPHA
 10
1721.273119
 20
399.101053
 30
0.0
  0
VERTEX
  5
2A844
  8
ALPHA
 10
1721.181919
 20
399.092597
 30
0.0
  0
VERTEX
  5
2A845
  8
ALPHA
 10
1721.103294
 20
399.086852
 30
0.0
  0
VERTEX
  5
2A846
  8
ALPHA
 10
1721.038285
 20
399.083822
 30
0.0
  0
VERTEX
  5
2A847
  8
ALPHA
 10
1720.990466
 20
399.083785
 30
0.0
  0
VERTEX
  5
2A848
  8
ALPHA
 10
1720.965014
 20
399.086823
 30
0.0
  0
VERTEX
  5
2A849
  8
ALPHA
 10
1720.960953
 20
399.089928
 30
0.0
  0
SEQEND
  5
2A84A
  8
ALPHA
  0
POLYLINE
  5
26F05
  8
ALPHA
 66
     1
 10
0.0
 20
0.0
 30
0.0
  0
VERTEX
  5
2A84B
  8
ALPHA
 10
1721.462732
 20
399.123432
 30
0.0
  0
VERTEX
  5
2A84C
  8
ALPHA
 10
1721.369833
 20
399.111676
 30
0.0
  0
VERTEX
  5
2A84D
  8
ALPHA
 10
1721.273119
 20
399.101053
 30
0.0
  0
SEQEND
  5
2A84E
  8
ALPHA
  0
LINE
  5
26F0A
  8
ALPHA
 10
1721.198629
 20
399.140926
 30
0.0
 11
1721.093705
 21
399.123432
 31
0.0
  0
POLYLINE
  5
26F0B
  8
ALPHA
 66
     1
 10
0.0
 20
0.0
 30
0.0
  0
VERTEX
  5
2A84F
  8
ALPHA
 10
1723.457547
 20
399.091298
 30
0.0
  0
VERTEX
  5
2A850
  8
ALPHA
 10
1723.457177
 20
399.090169
 30
0.0
  0
VERTEX
  5
2A851
  8
ALPHA
 10
1723.442057
 20
399.08543
 30
0.0
  0
SEQEND
  5
2A852
  8
ALPHA
  0
POLYLINE
  5
26F10
  8
ALPHA
 66
     1
 10
0.0
 20
0.0
 30
0.0
  0
VERTEX
  5
2A853
  8
ALPHA
 10
1720.960953
 20
399.089928
 30
0.0
  0
VERTEX
  5
2A854
  8
ALPHA
 10
1720.962832
 20
399.092593
 30
0.0
  0
VERTEX
  5
2A855
  8
ALPHA
 10
1720.984547
 20
399.101104
 30
0.0
  0
VERTEX
  5
2A856
  8
ALPHA
 10
1721.029758
 20
399.111737
 30
0.0
  0
VERTEX
  5
2A857
  8
ALPHA
 10
1721.093705
 20
399.123432
 30
0.0
  0
SEQEND
  5
2A858
  8
ALPHA
  0
ARC
  5
26F17
  8
ALPHA
 10
1693.973629
 20
425.256861
 30
0.0
 40
4.5
 50
0.0
 51
180.0
  0
LINE
  5
26F18
  8
ALPHA
 10
1698.473629
 20
422.187147
 30
0.0
 11
1698.473629
 21
425.256861
 31
0.0
  0
LINE
  5
26F19
  8
ALPHA
 10
1689.473629
 20
425.256861
 30
0.0
 11
1689.473629
 21
422.187147
 31
0.0
  0
LINE
  5
26F1A
  8
ALPHA
 10
1727.473629
 20
396.106861
 30
0.0
 11
1727.473629
 21
440.256861
 31
0.0
  0
LINE
  5
26F1B
  8
ALPHA
 10
1725.973629
 20
440.256861
 30
0.0
 11
1725.973629
 21
398.263382
 31
0.0
  0
LINE
  5
26F1C
  8
ALPHA
 10
1726.223629
 20
398.135065
 30
0.0
 11
1726.223629
 21
396.106861
 31
0.0
  0
LINE
  5
26F1D
  8
ALPHA
 10
1727.473629
 20
440.256861
 30
0.0
 11
1728.973629
 21
440.256861
 31
0.0
  0
LINE
  5
26F1E
  8
ALPHA
 10
1727.473629
 20
439.367943
 30
0.0
 11
1728.973629
 21
439.367943
 31
0.0
  0
LINE
  5
29FBA
  8
COTATION1
 10
1382.544958
 20
440.256861
 30
0.0
 11
1382.544958
 21
457.931328
 31
0.0
  0
DIMENSION
  5
29FDB
  8
COTATION1
  2
*D7
 10
1443.973629
 20
425.256861
 30
0.0
 11
1483.938105
 21
451.148017
 31
0.0
 70
   132
  1
4x%%c9
 15
1447.370481
 25
428.208368
 35
0.0
 40
0.0
1001
ACAD
1000
DSTYLE
1002
{
1070
   288
1070
     1
1002
}
  0
ENDSEC
  0
EOF
