  0
SECTION
  2
HEADER
  9
$ACADVER
  1
AC1014
  9
$ACADMAINTVER
 70
     0
  9
$DWGCODEPAGE
  3
ANSI_1252
  9
$INSBASE
 10
93.894301
 20
236.06014
 30
0.0
  9
$EXTMIN
 10
0.13649
 20
-7.289045
 30
0.0
  9
$EXTMAX
 10
252.204169
 20
39.046428
 30
0.0
  9
$LIMMIN
 10
0.0
 20
0.0
  9
$LIMMAX
 10
210.0
 20
297.0
  9
$ORTHOMODE
 70
     0
  9
$REGENMODE
 70
     1
  9
$FILLMODE
 70
     1
  9
$QTEXTMODE
 70
     0
  9
$MIRRTEXT
 70
     0
  9
$DRAGMODE
 70
     1
  9
$LTSCALE
 40
7.0
  9
$OSMODE
 70
  4095
  9
$ATTMODE
 70
     1
  9
$TEXTSIZE
 40
2.5
  9
$TRACEWID
 40
0.05
  9
$TEXTSTYLE
  7
STANDARD
  9
$CLAYER
  8
COTATION1
  9
$CELTYPE
  6
BYLAYER
  9
$CECOLOR
 62
   256
  9
$CELTSCALE
 40
1.0
  9
$DELOBJ
 70
     1
  9
$DISPSILH
 70
     0
  9
$DIMSCALE
 40
1.0
  9
$DIMASZ
 40
3.0
  9
$DIMEXO
 40
0.0625
  9
$DIMDLI
 40
0.38
  9
$DIMRND
 40
0.01
  9
$DIMDLE
 40
0.0
  9
$DIMEXE
 40
0.18
  9
$DIMTP
 40
0.0
  9
$DIMTM
 40
0.0
  9
$DIMTXT
 40
2.5
  9
$DIMCEN
 40
0.09
  9
$DIMTSZ
 40
0.0
  9
$DIMTOL
 70
     0
  9
$DIMLIM
 70
     0
  9
$DIMTIH
 70
     0
  9
$DIMTOH
 70
     0
  9
$DIMSE1
 70
     0
  9
$DIMSE2
 70
     0
  9
$DIMTAD
 70
     1
  9
$DIMZIN
 70
    12
  9
$DIMBLK
  1

  9
$DIMASO
 70
     1
  9
$DIMSHO
 70
     0
  9
$DIMPOST
  1

  9
$DIMAPOST
  1

  9
$DIMALT
 70
     0
  9
$DIMALTD
 70
     2
  9
$DIMALTF
 40
25.4
  9
$DIMLFAC
 40
1.0
  9
$DIMTOFL
 70
     1
  9
$DIMTVP
 40
0.0
  9
$DIMTIX
 70
     0
  9
$DIMSOXD
 70
     0
  9
$DIMSAH
 70
     0
  9
$DIMBLK1
  1

  9
$DIMBLK2
  1

  9
$DIMSTYLE
  2
SC_STAND
  9
$DIMCLRD
 70
     0
  9
$DIMCLRE
 70
     0
  9
$DIMCLRT
 70
     0
  9
$DIMTFAC
 40
1.0
  9
$DIMGAP
 40
1.0
  9
$DIMJUST
 70
     0
  9
$DIMSD1
 70
     0
  9
$DIMSD2
 70
     0
  9
$DIMTOLJ
 70
     1
  9
$DIMTZIN
 70
    12
  9
$DIMALTZ
 70
    12
  9
$DIMALTTZ
 70
    12
  9
$DIMFIT
 70
     5
  9
$DIMUPT
 70
     0
  9
$DIMUNIT
 70
     2
  9
$DIMDEC
 70
     3
  9
$DIMTDEC
 70
     3
  9
$DIMALTU
 70
     2
  9
$DIMALTTD
 70
     2
  9
$DIMTXSTY
  7
STANDARD
  9
$DIMAUNIT
 70
     0
  9
$LUNITS
 70
     2
  9
$LUPREC
 70
     3
  9
$SKETCHINC
 40
0.1
  9
$FILLETRAD
 40
0.0625
  9
$AUNITS
 70
     0
  9
$AUPREC
 70
     0
  9
$MENU
  1
ACAD
  9
$ELEVATION
 40
0.0
  9
$PELEVATION
 40
0.0
  9
$THICKNESS
 40
0.0
  9
$LIMCHECK
 70
     0
  9
$BLIPMODE
 70
     1
  9
$CHAMFERA
 40
0.0
  9
$CHAMFERB
 40
0.0
  9
$CHAMFERC
 40
0.0
  9
$CHAMFERD
 40
0.0
  9
$SKPOLY
 70
     0
  9
$TDCREATE
 40
2450953.590960648
  9
$TDUPDATE
 40
2453880.695991389
  9
$TDINDWG
 40
0.0037802894
  9
$TDUSRTIMER
 40
0.0037802894
  9
$USRTIMER
 70
     1
  9
$ANGBASE
 50
0.0
  9
$ANGDIR
 70
     0
  9
$PDMODE
 70
     0
  9
$PDSIZE
 40
0.0
  9
$PLINEWID
 40
0.0
  9
$COORDS
 70
     0
  9
$SPLFRAME
 70
     0
  9
$SPLINETYPE
 70
     6
  9
$SPLINESEGS
 70
     8
  9
$ATTDIA
 70
     0
  9
$ATTREQ
 70
     1
  9
$HANDLING
 70
     1
  9
$HANDSEED
  5
D8C
  9
$SURFTAB1
 70
     6
  9
$SURFTAB2
 70
     6
  9
$SURFTYPE
 70
     6
  9
$SURFU
 70
     6
  9
$SURFV
 70
     6
  9
$UCSNAME
  2

  9
$UCSORG
 10
0.0
 20
0.0
 30
0.0
  9
$UCSXDIR
 10
1.0
 20
0.0
 30
0.0
  9
$UCSYDIR
 10
0.0
 20
1.0
 30
0.0
  9
$PUCSNAME
  2

  9
$PUCSORG
 10
0.0
 20
0.0
 30
0.0
  9
$PUCSXDIR
 10
1.0
 20
0.0
 30
0.0
  9
$PUCSYDIR
 10
0.0
 20
1.0
 30
0.0
  9
$USERI1
 70
     0
  9
$USERI2
 70
     0
  9
$USERI3
 70
     0
  9
$USERI4
 70
     0
  9
$USERI5
 70
     0
  9
$USERR1
 40
0.0
  9
$USERR2
 40
0.0
  9
$USERR3
 40
0.0
  9
$USERR4
 40
0.0
  9
$USERR5
 40
0.0
  9
$WORLDVIEW
 70
     1
  9
$SHADEDGE
 70
     3
  9
$SHADEDIF
 70
    70
  9
$TILEMODE
 70
     1
  9
$MAXACTVP
 70
    32
  9
$PINSBASE
 10
0.0
 20
0.0
 30
0.0
  9
$PLIMCHECK
 70
     0
  9
$PEXTMIN
 10
-3.174999
 20
-3.175
 30
0.0
  9
$PEXTMAX
 10
203.812116
 20
370.276807
 30
0.0
  9
$PLIMMIN
 10
-3.175
 20
-3.175
  9
$PLIMMAX
 10
203.812115
 20
370.276807
  9
$UNITMODE
 70
     0
  9
$VISRETAIN
 70
     0
  9
$PLINEGEN
 70
     0
  9
$PSLTSCALE
 70
     1
  9
$TREEDEPTH
 70
  3020
  9
$PICKSTYLE
 70
     1
  9
$CMLSTYLE
  2
STANDARD
  9
$CMLJUST
 70
     0
  9
$CMLSCALE
 40
1.0
  9
$PROXYGRAPHICS
 70
     1
  9
$MEASUREMENT
 70
     0
  0
ENDSEC
  0
SECTION
  2
CLASSES
  0
CLASS
  1
DICTIONARYVAR
  2
AcDbDictionaryVar
  3
"AutoCAD"
 90
        0
280
     0
281
     0
  0
CLASS
  1
HATCH
  2
AcDbHatch
  3
"ACAD_SEDONA"
 90
        0
280
     0
281
     1
  0
ENDSEC
  0
SECTION
  2
TABLES
  0
TABLE
  2
VPORT
  5
F4
100
AcDbSymbolTable
 70
     2
  0
VPORT
  5
D8B
100
AcDbSymbolTableRecord
100
AcDbViewportTableRecord
  2
*ACTIVE
 70
     0
 10
0.0
 20
0.0
 11
1.0
 21
1.0
 12
126.164704
 22
15.875107
 13
0.0
 23
0.0
 14
1.0
 24
1.0
 15
10.0
 25
10.0
 16
0.0
 26
0.0
 36
1.0
 17
0.0
 27
0.0
 37
0.0
 40
128.944534
 41
1.966667
 42
50.0
 43
0.0
 44
0.0
 50
0.0
 51
0.0
 71
     0
 72
   100
 73
     1
 74
     1
 75
     0
 76
     1
 77
     0
 78
     0
  0
ENDTAB
  0
TABLE
  2
LTYPE
  5
F1
100
AcDbSymbolTable
 70
     5
  0
LTYPE
  5
FD
100
AcDbSymbolTableRecord
100
AcDbLinetypeTableRecord
  2
BYBLOCK
 70
     0
  3

 72
    65
 73
     0
 40
0.0
  0
LTYPE
  5
FE
100
AcDbSymbolTableRecord
100
AcDbLinetypeTableRecord
  2
BYLAYER
 70
     0
  3

 72
    65
 73
     0
 40
0.0
  0
LTYPE
  5
FF
100
AcDbSymbolTableRecord
100
AcDbLinetypeTableRecord
  2
CONTINUOUS
 70
     0
  3
Solid line
 72
    65
 73
     0
 40
0.0
  0
ENDTAB
  0
TABLE
  2
LAYER
  5
EE
100
AcDbSymbolTable
 70
     5
  0
LAYER
  5
FA
100
AcDbSymbolTableRecord
100
AcDbLayerTableRecord
  2
0
 70
     0
 62
     7
  6
CONTINUOUS
  0
LAYER
  5
12C
100
AcDbSymbolTableRecord
100
AcDbLayerTableRecord
  2
ALPHA
 70
     0
 62
   255
  6
CONTINUOUS
  0
LAYER
  5
12F
100
AcDbSymbolTableRecord
100
AcDbLayerTableRecord
  2
COTATION1
 70
     0
 62
     2
  6
CONTINUOUS
  0
LAYER
  5
13B
100
AcDbSymbolTableRecord
100
AcDbLayerTableRecord
  2
ASHADE
 70
     0
 62
     7
  6
CONTINUOUS
  0
LAYER
  5
13E
100
AcDbSymbolTableRecord
100
AcDbLayerTableRecord
  2
DEFPOINTS
 70
     0
 62
     7
  6
CONTINUOUS
  0
ENDTAB
  0
TABLE
  2
STYLE
  5
EF
100
AcDbSymbolTable
 70
     2
  0
STYLE
  5
FB
100
AcDbSymbolTableRecord
100
AcDbTextStyleTableRecord
  2
STANDARD
 70
     0
 40
0.0
 41
1.0
 50
0.0
 71
     0
 42
2.5
  3
txt
  4

  0
ENDTAB
  0
TABLE
  2
VIEW
  5
F2
100
AcDbSymbolTable
 70
     0
  0
ENDTAB
  0
TABLE
  2
UCS
  5
F3
100
AcDbSymbolTable
 70
     0
  0
ENDTAB
  0
TABLE
  2
APPID
  5
F5
100
AcDbSymbolTable
 70
     3
  0
APPID
  5
FC
100
AcDbSymbolTableRecord
100
AcDbRegAppTableRecord
  2
ACAD
 70
     0
  0
APPID
  5
127
100
AcDbSymbolTableRecord
100
AcDbRegAppTableRecord
  2
AVE_RENDER
 70
     0
  0
APPID
  5
128
100
AcDbSymbolTableRecord
100
AcDbRegAppTableRecord
  2
AVE_MATERIAL
 70
     0
  0
ENDTAB
  0
TABLE
  2
DIMSTYLE
  5
F6
100
AcDbSymbolTable
 70
     2
  0
DIMSTYLE
105
129
100
AcDbSymbolTableRecord
100
AcDbDimStyleTableRecord
  2
STANDARD
 70
     0
  3

  4

  5

  6

  7

 40
1.0
 41
0.18
 42
0.0625
 43
0.38
 44
0.18
 45
0.0
 46
0.0
 47
0.0
 48
0.0
140
0.18
141
0.09
142
0.0
143
25.4
144
1.0
145
0.0
146
1.0
147
0.09
 71
     0
 72
     0
 73
     1
 74
     1
 75
     0
 76
     0
 77
     0
 78
     0
170
     0
171
     2
172
     0
173
     0
174
     0
175
     0
176
     0
177
     0
178
     0
270
     2
271
     3
272
     3
273
     2
274
     2
340
FB
275
     0
280
     0
281
     0
282
     0
283
     1
284
    12
285
    12
286
    12
287
     5
288
     0
  0
DIMSTYLE
105
12A
102
{ACAD_REACTORS
330
D45
330
D54
102
}
100
AcDbSymbolTableRecord
100
AcDbDimStyleTableRecord
  2
SC_STAND
 70
     0
  3

  4

  5

  6

  7

 40
1.0
 41
3.0
 42
0.0625
 43
0.38
 44
0.18
 45
0.01
 46
0.0
 47
0.0
 48
0.0
140
2.5
141
0.09
142
0.0
143
25.4
144
1.0
145
0.0
146
1.0
147
1.0
 71
     0
 72
     0
 73
     0
 74
     0
 75
     0
 76
     0
 77
     1
 78
    12
170
     0
171
     2
172
     1
173
     0
174
     0
175
     0
176
     0
177
     0
178
     0
270
     2
271
     3
272
     3
273
     2
274
     2
340
FB
275
     0
280
     0
281
     0
282
     0
283
     1
284
    12
285
    12
286
    12
287
     5
288
     0
  0
ENDTAB
  0
TABLE
  2
BLOCK_RECORD
  5
ED
100
AcDbSymbolTable
 70
     9
  0
BLOCK_RECORD
  5
103
100
AcDbSymbolTableRecord
100
AcDbBlockTableRecord
  2
*MODEL_SPACE
  0
BLOCK_RECORD
  5
100
100
AcDbSymbolTableRecord
100
AcDbBlockTableRecord
  2
*PAPER_SPACE
  0
BLOCK_RECORD
  5
108
100
AcDbSymbolTableRecord
100
AcDbBlockTableRecord
  2
AVE_RENDER
  0
BLOCK_RECORD
  5
109
100
AcDbSymbolTableRecord
100
AcDbBlockTableRecord
  2
AVE_GLOBAL
  0
BLOCK_RECORD
  5
10A
100
AcDbSymbolTableRecord
100
AcDbBlockTableRecord
  2
SCH_IS
  0
BLOCK_RECORD
  5
D39
100
AcDbSymbolTableRecord
100
AcDbBlockTableRecord
  2
*D7
  0
BLOCK_RECORD
  5
D46
100
AcDbSymbolTableRecord
100
AcDbBlockTableRecord
  2
*D8
  0
ENDTAB
  0
ENDSEC
  0
SECTION
  2
BLOCKS
  0
BLOCK
  5
141
100
AcDbEntity
  8
0
100
AcDbBlockBegin
  2
*MODEL_SPACE
 70
     0
 10
0.0
 20
0.0
 30
0.0
  3
*MODEL_SPACE
  1

  0
ENDBLK
  5
142
100
AcDbEntity
  8
0
100
AcDbBlockEnd
  0
BLOCK
  5
13F
100
AcDbEntity
 67
     1
  8
0
100
AcDbBlockBegin
  2
*PAPER_SPACE
 70
     0
 10
0.0
 20
0.0
 30
0.0
  3
*PAPER_SPACE
  1

  0
ENDBLK
  5
140
100
AcDbEntity
 67
     1
  8
0
100
AcDbBlockEnd
  0
BLOCK
  5
8D
100
AcDbEntity
  8
0
100
AcDbBlockBegin
  2
AVE_RENDER
 70
     0
 10
0.0
 20
0.0
 30
0.0
  3
AVE_RENDER
  1
AVE_RENDER
  0
ENDBLK
  5
8E
100
AcDbEntity
  8
0
100
AcDbBlockEnd
  0
BLOCK
  5
90
100
AcDbEntity
  8
0
100
AcDbBlockBegin
  2
AVE_GLOBAL
 70
     0
 10
0.0
 20
0.0
 30
0.0
  3
AVE_GLOBAL
  1
AVE_GLOBAL
  0
ENDBLK
  5
91
100
AcDbEntity
  8
0
100
AcDbBlockEnd
  0
BLOCK
  5
C9
100
AcDbEntity
  8
0
100
AcDbBlockBegin
  2
SCH_IS
 70
     0
 10
0.0
 20
0.0
 30
0.0
  3
SCH_IS
  1

  0
INSERT
  5
C0
100
AcDbEntity
  8
ASHADE
 62
     1
100
AcDbBlockReference
  2
AVE_RENDER
 10
0.0
 20
0.0
 30
0.0
1001
AVE_RENDER
1002
{
1070
     6
1000
Pref
1070
    50
1070
    20
1070
     1
1070
     0
1000

1070
    10
1070
     1
1070
    30
1040
25.4
1070
     1
1040
0.3
1040
0.7
1040
0.0
1040
10.0
1010
-1.0
1020
-1.0
1030
-1.0
1040
0.3
1070
    49
1070
     0
1070
     0
1010
1.0
1020
1.0
1030
1.0
1040
45.0
1070
     1
1070
     0
1000
WCS
1040
0.0
1002
}
  0
INSERT
  5
C1
100
AcDbEntity
  8
ASHADE
 62
     3
100
AcDbBlockReference
  2
AVE_RENDER
 10
0.0
 20
0.0
 30
0.0
1001
AVE_RENDER
1002
{
1070
     0
1000
Full Opt
1070
     0
1070
     1
1070
     1
1070
     1
1070
     0
1070
     0
1070
     0
1070
     1
1070
     1
1040
0.0001
1040
0.0001
1002
}
  0
INSERT
  5
C2
100
AcDbEntity
  8
ASHADE
 62
     4
100
AcDbBlockReference
  2
AVE_RENDER
 10
0.0
 20
0.0
 30
0.0
1001
AVE_RENDER
1002
{
1070
     0
1000
Quick Opt
1070
     0
1070
     1
1070
     1
1070
     1
1070
     0
1070
     0
1070
     1
1002
}
  0
INSERT
  5
C3
100
AcDbEntity
  8
ASHADE
 62
     5
100
AcDbBlockReference
  2
AVE_RENDER
 10
0.0
 20
0.0
 30
0.0
1001
AVE_RENDER
1002
{
1070
     1
1000
Scanl Opt
1070
     2
1070
     0
1070
     2
1040
2.0
1040
4.0
1070
     0
1070
     1
1070
     0
1040
0.03
1002
}
  0
INSERT
  5
C4
100
AcDbEntity
  8
ASHADE
 62
     6
100
AcDbBlockReference
  2
AVE_RENDER
 10
0.0
 20
0.0
 30
0.0
1001
AVE_RENDER
1002
{
1070
     2
1000
Raytr Opt
1070
     2
1070
     0
1070
     2
1040
2.0
1040
4.0
1070
     0
1070
     1
1070
     1
1040
0.03
1070
     3
1040
0.03
1002
}
  0
INSERT
  5
C5
100
AcDbEntity
  8
ASHADE
 62
     7
100
AcDbBlockReference
  2
AVE_RENDER
 10
0.0
 20
0.0
 30
0.0
1001
AVE_RENDER
1002
{
1070
     0
1000
RFile Opt
1070
     5
1070
   640
1070
   480
1070
 10000
1070
     3
1070
    32
1070
    24
1070
     0
1070
     0
1070
     0
1070
     1
1070
     0
1070
     0
1070
     0
1002
}
  0
INSERT
  5
C6
100
AcDbEntity
  8
ASHADE
 62
     8
100
AcDbBlockReference
  2
AVE_RENDER
 10
0.0
 20
0.0
 30
0.0
1001
AVE_RENDER
1002
{
1070
     0
1000
Fog Opt
1070
     0
1070
     0
1040
0.0
1040
1.0
1040
0.0
1040
1.0
1010
0.5
1020
0.5
1030
0.5
1002
}
  0
INSERT
  5
C7
100
AcDbEntity
  8
ASHADE
 62
     9
100
AcDbBlockReference
  2
AVE_RENDER
 10
0.0
 20
0.0
 30
0.0
1001
AVE_RENDER
1002
{
1070
     0
1000
BG Opt
1070
     0
1070
     1
1010
0.0
1020
0.0
1030
0.0
1010
1.0
1020
0.0
1030
0.0
1010
0.0
1020
1.0
1030
0.0
1010
0.0
1020
0.0
1030
1.0
1040
0.5
1040
0.33
1040
0.0
1000

1070
     1
1000

1070
     1
1070
     1
1040
1.0
1040
1.0
1040
0.0
1040
0.0
1070
     0
1002
}
  0
INSERT
  5
C8
100
AcDbEntity
  8
ASHADE
 62
     1
100
AcDbBlockReference
  2
AVE_GLOBAL
 10
0.0
 20
0.0
 30
0.0
1001
AVE_MATERIAL
1002
{
1000
*GLOBAL*
1000
1
1000
Finition globale.
1002
{
1002
}
1002
{
1070
    63
1002
{
1002
{
1010
-1.0
1020
-1.0
1030
-1.0
1002
}
1040
0.1
1000

1040
0.0
1002
{
1002
}
1040
0.0
1002
{
1002
}
1040
0.0
1002
}
1002
{
1002
{
1010
-1.0
1020
-1.0
1030
-1.0
1002
}
1040
0.7
1000

1040
0.0
1002
{
1002
}
1040
0.0
1002
{
1002
}
1040
0.0
1002
}
1002
{
1002
{
1010
-1.0
1020
-1.0
1030
-1.0
1002
}
1040
0.2
1000

1040
0.0
1002
{
1002
}
1040
0.0
1002
{
1002
}
1040
0.0
1002
}
1002
{
1070
     0
1002
{
1070
     1
1002
{
1040
1.0
1040
1.0
1000

1040
0.0
1002
{
1002
}
1040
0.0
1002
{
1002
}
1040
0.0
1002
}
1002
}
1040
1.0
1040
0.0
1040
0.0
1002
}
1002
{
1040
1.0
1040
1.0
1000

1040
0.0
1002
{
1002
}
1040
0.0
1002
{
1002
}
1040
0.0
1002
}
1002
{
1040
0.5
1040
1.0
1000

1040
0.0
1002
{
1002
}
1040
0.0
1002
{
1002
}
1040
0.0
1002
}
1002
{
1070
     0
1040
0.0
1002
{
1002
}
1040
1.0
1002
{
1002
}
1040
0.0
1002
}
1002
{
1040
0.0
1002
{
1002
{
1010
0.0
1020
0.0
1030
0.0
1002
}
1040
1.0
1000

1040
0.0
1002
{
1002
}
1040
0.0
1002
{
1002
}
1040
0.0
1002
}
1002
}
1002
{
1002
{
1070
     1
1002
{
1040
0.0
1040
1.0
1000

1040
0.0
1002
{
1002
}
1040
0.0
1002
{
1002
}
1040
0.0
1002
}
1002
}
1040
0.0
1002
{
1002
}
1010
1.0
1020
0.0
1030
0.0
1010
0.0
1020
1.0
1030
0.0
1010
0.0
1020
0.0
1030
1.0
1070
     0
1002
}
1002
{
1002
{
1040
1.0
1040
1.0
1002
{
1070
     1
1002
{
1040
1.0
1040
1.0
1000

1040
0.0
1002
{
1002
}
1040
0.0
1002
{
1002
}
1040
0.0
1002
}
1002
}
1002
}
1070
     0
1040
0.0
1002
{
1002
}
1002
}
1002
{
1002
}
1002
}
1002
{
1071
        3
1070
     3
1070
     0
1002
{
1070
     2
1070
     0
1070
     0
1040
0.0
1002
}
1070
     0
1070
     2
1002
{
1002
}
1002
}
1002
{
1040
8030.0
1040
190.300003
1040
0.305
1040
228.0
1040
545.0
1040
14.0
1040
17.4
1040
0.456
1002
}
1002
}
  0
ENDBLK
  5
CA
100
AcDbEntity
  8
0
100
AcDbBlockEnd
  0
BLOCK
  5
D3A
100
AcDbEntity
  8
0
100
AcDbBlockBegin
  2
*D7
 70
     1
 10
0.0
 20
0.0
 30
0.0
  3
*D7
  1

  0
LINE
  5
D3B
100
AcDbEntity
  8
0
  6
BYBLOCK
 62
     0
100
AcDbLine
 10
236.136038
 20
16.983893
 30
0.0
 11
236.136038
 21
-6.969045
 31
0.0
  0
LINE
  5
D3C
100
AcDbEntity
  8
0
  6
BYBLOCK
 62
     0
100
AcDbLine
 10
0.13649
 20
7.484042
 30
0.0
 11
0.13649
 21
-6.969045
 31
0.0
  0
LINE
  5
D3D
100
AcDbEntity
  8
0
  6
BYBLOCK
 62
     0
100
AcDbLine
 10
233.136038
 20
-6.789045
 30
0.0
 11
3.13649
 21
-6.789045
 31
0.0
  0
SOLID
  5
D3E
100
AcDbEntity
  8
0
  6
BYBLOCK
 62
     0
100
AcDbTrace
 10
233.136038
 20
-6.289045
 30
0.0
 11
233.136038
 21
-7.289045
 31
0.0
 12
236.136038
 22
-6.789045
 32
0.0
 13
236.136038
 23
-6.789045
 33
0.0
  0
SOLID
  5
D3F
100
AcDbEntity
  8
0
  6
BYBLOCK
 62
     0
100
AcDbTrace
 10
3.13649
 20
-6.289045
 30
0.0
 11
3.13649
 21
-7.289045
 31
0.0
 12
0.13649
 22
-6.789045
 32
0.0
 13
0.13649
 23
-6.789045
 33
0.0
  0
MTEXT
  5
D40
100
AcDbEntity
  8
0
  6
BYBLOCK
 62
     0
100
AcDbMText
 10
118.136264
 20
-4.539045
 30
0.0
 40
2.5
 41
0.0
 71
     5
 72
     1
  1
\A1;236
  0
POINT
  5
D41
100
AcDbEntity
  8
DEFPOINTS
  6
BYBLOCK
 62
     0
100
AcDbPoint
 10
236.136038
 20
17.046393
 30
0.0
  0
POINT
  5
D42
100
AcDbEntity
  8
DEFPOINTS
  6
BYBLOCK
 62
     0
100
AcDbPoint
 10
0.13649
 20
7.546542
 30
0.0
  0
POINT
  5
D43
100
AcDbEntity
  8
DEFPOINTS
  6
BYBLOCK
 62
     0
100
AcDbPoint
 10
0.13649
 20
-6.789045
 30
0.0
  0
ENDBLK
  5
D44
100
AcDbEntity
  8
0
100
AcDbBlockEnd
  0
BLOCK
  5
D71
100
AcDbEntity
  8
0
100
AcDbBlockBegin
  2
*D8
 70
     1
 10
0.0
 20
0.0
 30
0.0
  3
*D8
  1

  0
LINE
  5
D72
100
AcDbEntity
  8
0
  6
BYBLOCK
 62
     0
100
AcDbLine
 10
233.061999
 20
23.046371
 30
0.0
 11
246.932866
 21
23.046371
 31
0.0
  0
LINE
  5
D73
100
AcDbEntity
  8
0
  6
BYBLOCK
 62
     0
100
AcDbLine
 10
233.061999
 20
17.046393
 30
0.0
 11
246.932866
 21
17.046393
 31
0.0
  0
LINE
  5
D74
100
AcDbEntity
  8
0
  6
BYBLOCK
 62
     0
100
AcDbLine
 10
246.752866
 20
26.046371
 30
0.0
 11
246.752866
 21
29.046371
 31
0.0
  0
LINE
  5
D75
100
AcDbEntity
  8
0
  6
BYBLOCK
 62
     0
100
AcDbLine
 10
246.752866
 20
14.046393
 30
0.0
 11
246.752866
 21
11.046393
 31
0.0
  0
MTEXT
  5
D76
100
AcDbEntity
  8
0
  6
BYBLOCK
 62
     0
100
AcDbMText
 10
250.252866
 20
20.046382
 30
0.0
 40
2.5
 41
0.0
 71
     5
 72
     1
  1
\A1;\fGraphSch|b0|i0|c0|p0;\C256;U\Ftxt.shx;\H2.5;\C0;6
 11
0.0
 21
1.0
 31
0.0
  0
LINE
  5
D77
100
AcDbEntity
  8
0
  6
BYBLOCK
 62
     0
100
AcDbLine
 10
246.752866
 20
23.046371
 30
0.0
 11
246.752866
 21
17.046393
 31
0.0
  0
LINE
  5
D78
100
AcDbEntity
  8
0
  6
BYBLOCK
 62
     0
100
AcDbLine
 10
246.752866
 20
23.046371
 30
0.0
 11
246.752866
 21
17.046393
 31
0.0
  0
SOLID
  5
D79
100
AcDbEntity
  8
0
  6
BYBLOCK
 62
     0
100
AcDbTrace
 10
246.252866
 20
26.046371
 30
0.0
 11
247.252866
 21
26.046371
 31
0.0
 12
246.752866
 22
23.046371
 32
0.0
 13
246.752866
 23
23.046371
 33
0.0
  0
SOLID
  5
D7A
100
AcDbEntity
  8
0
  6
BYBLOCK
 62
     0
100
AcDbTrace
 10
246.252866
 20
14.046393
 30
0.0
 11
247.252866
 21
14.046393
 31
0.0
 12
246.752866
 22
17.046393
 32
0.0
 13
246.752866
 23
17.046393
 33
0.0
  0
POINT
  5
D7B
100
AcDbEntity
  8
DEFPOINTS
  6
BYBLOCK
 62
     0
100
AcDbPoint
 10
232.999499
 20
23.046371
 30
0.0
  0
POINT
  5
D7C
100
AcDbEntity
  8
DEFPOINTS
  6
BYBLOCK
 62
     0
100
AcDbPoint
 10
232.999499
 20
17.046393
 30
0.0
  0
POINT
  5
D7D
100
AcDbEntity
  8
DEFPOINTS
  6
BYBLOCK
 62
     0
100
AcDbPoint
 10
246.752866
 20
17.046393
 30
0.0
  0
ENDBLK
  5
D7E
100
AcDbEntity
  8
0
100
AcDbBlockEnd
  0
ENDSEC
  0
SECTION
  2
ENTITIES
  0
INSERT
  5
CC
100
AcDbEntity
  8
0
100
AcDbBlockReference
  2
SCH_IS
 10
-68.718396
 20
-140.042541
 30
0.0
  0
INSERT
  5
EC
100
AcDbEntity
  8
COTATION1
100
AcDbBlockReference
  2
SCH_IS
 10
0.0
 20
0.0
 30
0.0
  0
LINE
  5
D02
100
AcDbEntity
  8
ALPHA
 62
     7
100
AcDbLine
 10
61.136384
 20
17.046393
 30
0.0
 11
207.88591
 21
17.046393
 31
0.0
  0
LINE
  5
D03
100
AcDbEntity
  8
ALPHA
 62
     7
100
AcDbLine
 10
207.88591
 20
23.046371
 30
0.0
 11
61.136384
 21
23.046371
 31
0.0
  0
CIRCLE
  5
D04
100
AcDbEntity
  8
ALPHA
 62
     7
100
AcDbCircle
 10
57.136542
 20
20.046382
 30
0.0
 40
2.50002
  0
CIRCLE
  5
D05
100
AcDbEntity
  8
ALPHA
 62
     7
100
AcDbCircle
 10
27.136134
 20
20.046382
 30
0.0
 40
1.000025
  0
CIRCLE
  5
D06
100
AcDbEntity
  8
ALPHA
 62
     7
100
AcDbCircle
 10
37.136212
 20
20.046382
 30
0.0
 40
1.000025
  0
CIRCLE
  5
D07
100
AcDbEntity
  8
ALPHA
 62
     7
100
AcDbCircle
 10
47.136291
 20
20.046382
 30
0.0
 40
1.000025
  0
LINE
  5
D08
100
AcDbEntity
  8
ALPHA
 62
     7
100
AcDbLine
 10
58.904306
 20
18.279048
 30
0.0
 11
55.368777
 21
21.814405
 31
0.0
  0
LINE
  5
D09
100
AcDbEntity
  8
ALPHA
 62
     7
100
AcDbLine
 10
61.136384
 20
25.546133
 30
0.0
 11
61.136384
 21
14.546287
 31
0.0
  0
LINE
  5
D0A
100
AcDbEntity
  8
ALPHA
 62
     7
100
AcDbLine
 10
0.13649
 20
7.546542
 30
0.0
 11
0.13649
 21
32.546567
 31
0.0
  0
LINE
  5
D0B
100
AcDbEntity
  8
ALPHA
 62
     7
100
AcDbLine
 10
4.136418
 20
32.546567
 30
0.0
 11
4.136418
 21
7.546542
 31
0.0
  0
LINE
  5
D0C
100
AcDbEntity
  8
ALPHA
 62
     7
100
AcDbLine
 10
61.136384
 20
17.046393
 30
0.0
 11
8.136346
 21
17.046393
 31
0.0
  0
LINE
  5
D0D
100
AcDbEntity
  8
ALPHA
 62
     7
100
AcDbLine
 10
61.136384
 20
14.546287
 30
0.0
 11
8.136346
 21
14.546287
 31
0.0
  0
LINE
  5
D0E
100
AcDbEntity
  8
ALPHA
 62
     7
100
AcDbLine
 10
4.136418
 20
7.546542
 30
0.0
 11
0.13649
 21
7.546542
 31
0.0
  0
LINE
  5
D0F
100
AcDbEntity
  8
ALPHA
 62
     7
100
AcDbLine
 10
8.136346
 20
12.046526
 30
0.0
 11
4.136418
 21
12.046526
 31
0.0
  0
LINE
  5
D10
100
AcDbEntity
  8
ALPHA
 62
     7
100
AcDbLine
 10
4.136418
 20
17.046738
 30
0.0
 11
0.13649
 21
17.046738
 31
0.0
  0
LINE
  5
D11
100
AcDbEntity
  8
ALPHA
 62
     7
100
AcDbLine
 10
8.136346
 20
17.046393
 30
0.0
 11
8.136346
 21
12.046526
 31
0.0
  0
LINE
  5
D12
100
AcDbEntity
  8
ALPHA
 62
     7
100
AcDbLine
 10
8.136346
 20
23.046371
 30
0.0
 11
61.136384
 21
23.046371
 31
0.0
  0
LINE
  5
D13
100
AcDbEntity
  8
ALPHA
 62
     7
100
AcDbLine
 10
8.136346
 20
25.546133
 30
0.0
 11
61.136384
 21
25.546133
 31
0.0
  0
LINE
  5
D14
100
AcDbEntity
  8
ALPHA
 62
     7
100
AcDbLine
 10
4.136418
 20
28.046583
 30
0.0
 11
8.136346
 21
28.046583
 31
0.0
  0
LINE
  5
D15
100
AcDbEntity
  8
ALPHA
 62
     7
100
AcDbLine
 10
4.136418
 20
23.046716
 30
0.0
 11
0.13649
 21
23.046716
 31
0.0
  0
LINE
  5
D16
100
AcDbEntity
  8
ALPHA
 62
     7
100
AcDbLine
 10
8.136346
 20
28.046583
 30
0.0
 11
8.136346
 21
23.046371
 31
0.0
  0
LINE
  5
D17
100
AcDbEntity
  8
ALPHA
 62
     7
100
AcDbLine
 10
0.13649
 20
32.546567
 30
0.0
 11
4.136418
 21
32.546567
 31
0.0
  0
LINE
  5
D18
100
AcDbEntity
  8
ALPHA
 62
     7
100
AcDbLine
 10
207.88591
 20
1.046336
 30
0.0
 11
207.88591
 21
39.046428
 31
0.0
  0
LINE
  5
D19
100
AcDbEntity
  8
ALPHA
 62
     7
100
AcDbLine
 10
208.886022
 20
39.046428
 30
0.0
 11
208.886022
 21
1.046336
 31
0.0
  0
LINE
  5
D1A
100
AcDbEntity
  8
ALPHA
 62
     7
100
AcDbLine
 10
214.386117
 20
11.046415
 30
0.0
 11
214.386117
 21
29.04635
 31
0.0
  0
LINE
  5
D1B
100
AcDbEntity
  8
ALPHA
 62
     7
100
AcDbLine
 10
236.136038
 20
17.046393
 30
0.0
 11
236.136038
 21
23.046371
 31
0.0
  0
LINE
  5
D1C
100
AcDbEntity
  8
ALPHA
 62
     7
100
AcDbLine
 10
221.385862
 20
23.796369
 30
0.0
 11
221.385862
 21
16.296396
 31
0.0
  0
LINE
  5
D1D
100
AcDbEntity
  8
ALPHA
 62
     7
100
AcDbLine
 10
217.386106
 20
25.296363
 30
0.0
 11
217.386106
 21
14.796401
 31
0.0
  0
LINE
  5
D1E
100
AcDbEntity
  8
ALPHA
 62
     7
100
AcDbLine
 10
214.386117
 20
30.046461
 30
0.0
 11
214.386117
 21
10.046304
 31
0.0
  0
LINE
  5
D1F
100
AcDbEntity
  8
ALPHA
 62
     7
100
AcDbLine
 10
210.386016
 20
1.046336
 30
0.0
 11
210.386016
 21
39.046428
 31
0.0
  0
LINE
  5
D20
100
AcDbEntity
  8
ALPHA
 62
     7
100
AcDbLine
 10
211.386128
 20
39.046428
 30
0.0
 11
211.386128
 21
1.046336
 31
0.0
  0
LINE
  5
D21
100
AcDbEntity
  8
ALPHA
 62
     7
100
AcDbLine
 10
211.386128
 20
1.046336
 30
0.0
 11
210.386016
 21
1.046336
 31
0.0
  0
LINE
  5
D22
100
AcDbEntity
  8
ALPHA
 62
     7
100
AcDbLine
 10
208.886022
 20
1.046336
 30
0.0
 11
207.88591
 21
1.046336
 31
0.0
  0
LINE
  5
D23
100
AcDbEntity
  8
ALPHA
 62
     7
100
AcDbLine
 10
221.385862
 20
17.046393
 30
0.0
 11
236.136038
 21
17.046393
 31
0.0
  0
LINE
  5
D24
100
AcDbEntity
  8
ALPHA
 62
     7
100
AcDbLine
 10
220.386095
 20
15.296285
 30
0.0
 11
220.386095
 21
11.046415
 31
0.0
  0
LINE
  5
D25
100
AcDbEntity
  8
ALPHA
 62
     7
100
AcDbLine
 10
210.386016
 20
14.046404
 30
0.0
 11
208.886022
 21
14.046404
 31
0.0
  0
LINE
  5
D26
100
AcDbEntity
  8
ALPHA
 62
     7
100
AcDbLine
 10
220.386095
 20
11.046415
 30
0.0
 11
214.386117
 21
11.046415
 31
0.0
  0
LINE
  5
D27
100
AcDbEntity
  8
ALPHA
 62
     7
100
AcDbLine
 10
214.386117
 20
10.046304
 30
0.0
 11
211.386128
 21
10.046304
 31
0.0
  0
LINE
  5
D28
100
AcDbEntity
  8
ALPHA
 62
     7
100
AcDbLine
 10
221.385862
 20
16.296396
 30
0.0
 11
217.386106
 21
16.296396
 31
0.0
  0
LINE
  5
D29
100
AcDbEntity
  8
ALPHA
 62
     7
100
AcDbLine
 10
217.386106
 20
14.796401
 30
0.0
 11
214.386117
 21
14.796401
 31
0.0
  0
LINE
  5
D2A
100
AcDbEntity
  8
ALPHA
 62
     7
100
AcDbLine
 10
221.136092
 20
14.546287
 30
0.0
 11
221.136092
 21
16.046626
 31
0.0
  0
LINE
  5
D2B
100
AcDbEntity
  8
ALPHA
 62
     7
100
AcDbLine
 10
221.385862
 20
16.296396
 30
0.0
 11
220.386095
 21
15.296285
 31
0.0
  0
LINE
  5
D2C
100
AcDbEntity
  8
ALPHA
 62
     7
100
AcDbLine
 10
220.386095
 20
14.546287
 30
0.0
 11
221.136092
 21
14.546287
 31
0.0
  0
LINE
  5
D2D
100
AcDbEntity
  8
ALPHA
 62
     7
100
AcDbLine
 10
236.136038
 20
23.046371
 30
0.0
 11
221.385862
 21
23.046371
 31
0.0
  0
LINE
  5
D2E
100
AcDbEntity
  8
ALPHA
 62
     7
100
AcDbLine
 10
220.386095
 20
29.04635
 30
0.0
 11
220.386095
 21
24.79648
 31
0.0
  0
LINE
  5
D2F
100
AcDbEntity
  8
ALPHA
 62
     7
100
AcDbLine
 10
217.386106
 20
23.796369
 30
0.0
 11
221.385862
 21
23.796369
 31
0.0
  0
LINE
  5
D30
100
AcDbEntity
  8
ALPHA
 62
     7
100
AcDbLine
 10
214.386117
 20
25.296363
 30
0.0
 11
217.386106
 21
25.296363
 31
0.0
  0
LINE
  5
D31
100
AcDbEntity
  8
ALPHA
 62
     7
100
AcDbLine
 10
221.136092
 20
25.546133
 30
0.0
 11
221.136092
 21
24.046138
 31
0.0
  0
LINE
  5
D32
100
AcDbEntity
  8
ALPHA
 62
     7
100
AcDbLine
 10
220.386095
 20
24.79648
 30
0.0
 11
221.385862
 21
23.796369
 31
0.0
  0
LINE
  5
D33
100
AcDbEntity
  8
ALPHA
 62
     7
100
AcDbLine
 10
220.386095
 20
25.546133
 30
0.0
 11
221.136092
 21
25.546133
 31
0.0
  0
LINE
  5
D34
100
AcDbEntity
  8
ALPHA
 62
     7
100
AcDbLine
 10
208.886022
 20
26.046361
 30
0.0
 11
210.386016
 21
26.046361
 31
0.0
  0
LINE
  5
D35
100
AcDbEntity
  8
ALPHA
 62
     7
100
AcDbLine
 10
214.386117
 20
29.04635
 30
0.0
 11
220.386095
 21
29.04635
 31
0.0
  0
LINE
  5
D36
100
AcDbEntity
  8
ALPHA
 62
     7
100
AcDbLine
 10
211.386128
 20
30.046461
 30
0.0
 11
214.386117
 21
30.046461
 31
0.0
  0
LINE
  5
D37
100
AcDbEntity
  8
ALPHA
 62
     7
100
AcDbLine
 10
210.386016
 20
39.046428
 30
0.0
 11
211.386128
 21
39.046428
 31
0.0
  0
LINE
  5
D38
100
AcDbEntity
  8
ALPHA
 62
     7
100
AcDbLine
 10
207.88591
 20
39.046428
 30
0.0
 11
208.886022
 21
39.046428
 31
0.0
  0
DIMENSION
  5
D45
100
AcDbEntity
  8
COTATION1
100
AcDbDimension
  2
*D7
 10
0.13649
 20
-6.789045
 30
0.0
 11
118.136264
 21
-4.539045
 31
0.0
 70
    32
  3
SC_STAND
100
AcDbAlignedDimension
 13
236.136038
 23
17.046393
 33
0.0
 14
0.13649
 24
7.546542
 34
0.0
100
AcDbRotatedDimension
  0
DIMENSION
  5
D54
100
AcDbEntity
  8
COTATION1
100
AcDbDimension
  2
*D8
 10
246.752866
 20
17.046393
 30
0.0
 11
250.252866
 21
20.046382
 31
0.0
 70
    32
  1
\fGraphSch|b0|i0|c0|p0;\C256;U\Ftxt.shx;\H2.5;\C0;<>
  3
SC_STAND
100
AcDbAlignedDimension
 13
232.999499
 23
23.046371
 33
0.0
 14
232.999499
 24
17.046393
 34
0.0
 50
90.0
100
AcDbRotatedDimension
  0
ENDSEC
  0
SECTION
  2
OBJECTS
  0
DICTIONARY
  5
F8
100
AcDbDictionary
  3
ACAD_GROUP
350
F9
  3
ACAD_MLINESTYLE
350
106
  3
ACDBVARIABLEDICTIONARY
350
143
  0
DICTIONARY
  5
F9
102
{ACAD_REACTORS
330
F8
102
}
100
AcDbDictionary
  0
DICTIONARY
  5
106
102
{ACAD_REACTORS
330
F8
102
}
100
AcDbDictionary
  3
STANDARD
350
107
  0
DICTIONARY
  5
143
102
{ACAD_REACTORS
330
F8
102
}
100
AcDbDictionary
  3
DIMADEC
350
144
  0
MLINESTYLE
  5
107
102
{ACAD_REACTORS
330
106
102
}
100
AcDbMlineStyle
  2
STANDARD
 70
     0
  3

 62
   256
 51
90.0
 52
90.0
 71
     2
 49
0.5
 62
   256
  6
BYLAYER
 49
-0.5
 62
   256
  6
BYLAYER
  0
DICTIONARYVAR
  5
144
102
{ACAD_REACTORS
330
143
102
}
100
DictionaryVariables
280
     0
  1
0
  0
ENDSEC
  0
EOF
