  0
SECTION
  2
HEADER
  9
$ACADVER
  1
AC1012
  9
$DWGCODEPAGE
  3
ANSI_1252
  9
$INSBASE
 10
402.590624
 20
-1.041018
 30
0.0
  9
$EXTMIN
 10
12.834336
 20
11.848595
 30
0.0
  9
$EXTMAX
 10
157.031364
 20
263.232724
 30
0.0
  9
$LIMMIN
 10
-407.970438
 20
-367.832444
  9
$LIMMAX
 10
429.804077
 20
234.370848
  9
$ORTHOMODE
 70
     1
  9
$REGENMODE
 70
     1
  9
$FILLMODE
 70
     1
  9
$QTEXTMODE
 70
     0
  9
$MIRRTEXT
 70
     1
  9
$DRAGMODE
 70
     2
  9
$LTSCALE
 40
10.0
  9
$OSMODE
 70
    39
  9
$ATTMODE
 70
     1
  9
$TEXTSIZE
 40
6.0
  9
$TRACEWID
 40
1.0
  9
$TEXTSTYLE
  7
ROMANS
  9
$CLAYER
  8
ALPHA
  9
$CELTYPE
  6
BYLAYER
  9
$CECOLOR
 62
   256
  9
$CELTSCALE
 40
1.0
  9
$DELOBJ
 70
     1
  9
$DISPSILH
 70
     0
  9
$DIMSCALE
 40
1.0
  9
$DIMASZ
 40
5.0
  9
$DIMEXO
 40
2.0
  9
$DIMDLI
 40
0.38
  9
$DIMRND
 40
0.0
  9
$DIMDLE
 40
0.0
  9
$DIMEXE
 40
2.5
  9
$DIMTP
 40
0.0
  9
$DIMTM
 40
0.0
  9
$DIMTXT
 40
2.5
  9
$DIMCEN
 40
0.0
  9
$DIMTSZ
 40
0.0
  9
$DIMTOL
 70
     0
  9
$DIMLIM
 70
     0
  9
$DIMTIH
 70
     1
  9
$DIMTOH
 70
     1
  9
$DIMSE1
 70
     0
  9
$DIMSE2
 70
     0
  9
$DIMTAD
 70
     1
  9
$DIMZIN
 70
    12
  9
$DIMBLK
  1
OPEN30
  9
$DIMASO
 70
     1
  9
$DIMSHO
 70
     1
  9
$DIMPOST
  1

  9
$DIMAPOST
  1

  9
$DIMALT
 70
     0
  9
$DIMALTD
 70
     2
  9
$DIMALTF
 40
25.4
  9
$DIMLFAC
 40
1.0
  9
$DIMTOFL
 70
     0
  9
$DIMTVP
 40
0.0
  9
$DIMTIX
 70
     0
  9
$DIMSOXD
 70
     0
  9
$DIMSAH
 70
     0
  9
$DIMBLK1
  1

  9
$DIMBLK2
  1

  9
$DIMSTYLE
  2
SC_DEFAUT
  9
$DIMCLRD
 70
     0
  9
$DIMCLRE
 70
     0
  9
$DIMCLRT
 70
     0
  9
$DIMTFAC
 40
1.0
  9
$DIMGAP
 40
2.0
  9
$DIMJUST
 70
     0
  9
$DIMSD1
 70
     0
  9
$DIMSD2
 70
     0
  9
$DIMTOLJ
 70
     1
  9
$DIMTZIN
 70
    12
  9
$DIMALTZ
 70
    12
  9
$DIMALTTZ
 70
    12
  9
$DIMFIT
 70
     5
  9
$DIMUPT
 70
     0
  9
$DIMUNIT
 70
     2
  9
$DIMDEC
 70
     1
  9
$DIMTDEC
 70
     1
  9
$DIMALTU
 70
     2
  9
$DIMALTTD
 70
     2
  9
$DIMTXSTY
  7
ROMANS
  9
$DIMAUNIT
 70
     0
  9
$LUNITS
 70
     2
  9
$LUPREC
 70
     1
  9
$SKETCHINC
 40
0.1
  9
$FILLETRAD
 40
0.0
  9
$AUNITS
 70
     0
  9
$AUPREC
 70
     0
  9
$MENU
  1
acad
  9
$ELEVATION
 40
0.0
  9
$PELEVATION
 40
0.0
  9
$THICKNESS
 40
0.0
  9
$LIMCHECK
 70
     0
  9
$BLIPMODE
 70
     0
  9
$CHAMFERA
 40
0.0
  9
$CHAMFERB
 40
0.0
  9
$CHAMFERC
 40
0.0
  9
$CHAMFERD
 40
0.0
  9
$SKPOLY
 70
     0
  9
$TDCREATE
 40
2450373.687919444
  9
$TDUPDATE
 40
2453511.386261713
  9
$TDINDWG
 40
0.9717335995
  9
$TDUSRTIMER
 40
0.9717335995
  9
$USRTIMER
 70
     1
  9
$ANGBASE
 50
0.0
  9
$ANGDIR
 70
     0
  9
$PDMODE
 70
    32
  9
$PDSIZE
 40
0.0
  9
$PLINEWID
 40
0.0
  9
$COORDS
 70
     0
  9
$SPLFRAME
 70
     0
  9
$SPLINETYPE
 70
     6
  9
$SPLINESEGS
 70
     8
  9
$ATTDIA
 70
     0
  9
$ATTREQ
 70
     1
  9
$HANDLING
 70
     1
  9
$HANDSEED
  5
C2D0
  9
$SURFTAB1
 70
     6
  9
$SURFTAB2
 70
     6
  9
$SURFTYPE
 70
     6
  9
$SURFU
 70
     6
  9
$SURFV
 70
     6
  9
$UCSNAME
  2

  9
$UCSORG
 10
0.0
 20
0.0
 30
0.0
  9
$UCSXDIR
 10
1.0
 20
0.0
 30
0.0
  9
$UCSYDIR
 10
0.0
 20
1.0
 30
0.0
  9
$PUCSNAME
  2

  9
$PUCSORG
 10
0.0
 20
0.0
 30
0.0
  9
$PUCSXDIR
 10
1.0
 20
0.0
 30
0.0
  9
$PUCSYDIR
 10
0.0
 20
1.0
 30
0.0
  9
$USERI1
 70
     0
  9
$USERI2
 70
     0
  9
$USERI3
 70
     0
  9
$USERI4
 70
     0
  9
$USERI5
 70
     0
  9
$USERR1
 40
0.0
  9
$USERR2
 40
0.0
  9
$USERR3
 40
0.0
  9
$USERR4
 40
0.0
  9
$USERR5
 40
0.0
  9
$WORLDVIEW
 70
     1
  9
$SHADEDGE
 70
     3
  9
$SHADEDIF
 70
    70
  9
$TILEMODE
 70
     1
  9
$MAXACTVP
 70
    16
  9
$PINSBASE
 10
0.0
 20
0.0
 30
0.0
  9
$PLIMCHECK
 70
     0
  9
$PEXTMIN
 10
1.000000E+20
 20
1.000000E+20
 30
1.000000E+20
  9
$PEXTMAX
 10
-1.000000E+20
 20
-1.000000E+20
 30
-1.000000E+20
  9
$PLIMMIN
 10
0.0
 20
0.0
  9
$PLIMMAX
 10
12.0
 20
9.0
  9
$UNITMODE
 70
     0
  9
$VISRETAIN
 70
     0
  9
$PLINEGEN
 70
     0
  9
$PSLTSCALE
 70
     0
  9
$TREEDEPTH
 70
  3020
  9
$PICKSTYLE
 70
     1
  9
$CMLSTYLE
  2
STANDARD
  9
$CMLJUST
 70
     0
  9
$CMLSCALE
 40
1.0
  9
$SAVEIMAGES
 70
     1
  0
ENDSEC
  0
SECTION
  2
CLASSES
  0
CLASS
  1
ACDBDICTIONARYWDFLT
  2
AcDbDictionaryWithDefault
  3
AutoCAD 2000
 90
    32768
280
     0
281
     0
  0
CLASS
  1
ACDBPLACEHOLDER
  2
AcDbPlaceHolder
  3
AutoCAD 2000
 90
    32768
280
     0
281
     0
  0
CLASS
  1
LAYOUT
  2
AcDbLayout
  3
AutoCAD 2000
 90
    32768
280
     0
281
     0
  0
CLASS
  1
DICTIONARYVAR
  2
AcDbDictionaryVar
  3
"AutoCAD"
 90
    32768
280
     0
281
     0
  0
CLASS
  1
LONG_TRANSACTION
  2
AcDbLongTransaction
  3
AutoCAD 2000
 90
    32768
280
     0
281
     0
  0
CLASS
  1
LWPOLYLINE
  2
AcDbPolyline
  3
"AutoCAD"
 90
    32768
280
     0
281
     1
  0
CLASS
  1
HATCH
  2
AcDbHatch
  3
"ACAD_SEDONA"
 90
    32768
280
     0
281
     1
  0
CLASS
  1
XRECORD
  2
AcDbXrecord
  3
"<Built In>"
 90
    32768
280
     0
281
     0
  0
CLASS
  1
LONG_TRANSACTION
  2
AcDbLongTransaction
  3
AutoCAD 2000
 90
    32768
280
     0
281
     0
  0
CLASS
  1
LWPOLYLINE
  2
AcDbPolyline
  3
"AutoCAD"
 90
    32768
280
     0
281
     1
  0
CLASS
  1
HATCH
  2
AcDbHatch
  3
"ACAD_SEDONA"
 90
    32768
280
     0
281
     1
  0
CLASS
  1
XRECORD
  2
AcDbXrecord
  3
"<Built In>"
 90
    32768
280
     0
281
     0
  0
CLASS
  1
LONG_TRANSACTION
  2
AcDbLongTransaction
  3
AutoCAD 2000
 90
    32768
280
     0
281
     0
  0
CLASS
  1
LWPOLYLINE
  2
AcDbPolyline
  3
"AutoCAD"
 90
    32768
280
     0
281
     1
  0
CLASS
  1
HATCH
  2
AcDbHatch
  3
"ACAD_SEDONA"
 90
    32768
280
     0
281
     1
  0
CLASS
  1
XRECORD
  2
AcDbXrecord
  3
"<Built In>"
 90
    32768
280
     0
281
     0
  0
CLASS
  1
LONG_TRANSACTION
  2
AcDbLongTransaction
  3
AutoCAD 2000
 90
    32768
280
     0
281
     0
  0
CLASS
  1
LWPOLYLINE
  2
AcDbPolyline
  3
"AutoCAD"
 90
    32768
280
     0
281
     1
  0
CLASS
  1
HATCH
  2
AcDbHatch
  3
"ACAD_SEDONA"
 90
    32768
280
     0
281
     1
  0
CLASS
  1
XRECORD
  2
AcDbXrecord
  3
"<Built In>"
 90
    32768
280
     0
281
     0
  0
CLASS
  1
LONG_TRANSACTION
  2
AcDbLongTransaction
  3
AutoCAD 2000
 90
    32768
280
     0
281
     0
  0
CLASS
  1
LWPOLYLINE
  2
AcDbPolyline
  3
"AutoCAD"
 90
    32768
280
     0
281
     1
  0
CLASS
  1
HATCH
  2
AcDbHatch
  3
"ACAD_SEDONA"
 90
    32768
280
     0
281
     1
  0
CLASS
  1
XRECORD
  2
AcDbXrecord
  3
"<Built In>"
 90
    32768
280
     0
281
     0
  0
CLASS
  1
LONG_TRANSACTION
  2
AcDbLongTransaction
  3
AutoCAD 2000
 90
    32768
280
     0
281
     0
  0
CLASS
  1
LWPOLYLINE
  2
AcDbPolyline
  3
"AutoCAD"
 90
    32768
280
     0
281
     1
  0
CLASS
  1
HATCH
  2
AcDbHatch
  3
"ACAD_SEDONA"
 90
    32768
280
     0
281
     1
  0
CLASS
  1
XRECORD
  2
AcDbXrecord
  3
"<Built In>"
 90
    32768
280
     0
281
     0
  0
CLASS
  1
LONG_TRANSACTION
  2
AcDbLongTransaction
  3
AutoCAD 2000
 90
    32768
280
     0
281
     0
  0
CLASS
  1
LWPOLYLINE
  2
AcDbPolyline
  3
"AutoCAD"
 90
    32768
280
     0
281
     1
  0
CLASS
  1
HATCH
  2
AcDbHatch
  3
"ACAD_SEDONA"
 90
    32768
280
     0
281
     1
  0
CLASS
  1
XRECORD
  2
AcDbXrecord
  3
"<Built In>"
 90
    32768
280
     0
281
     0
  0
CLASS
  1
LONG_TRANSACTION
  2
AcDbLongTransaction
  3
AutoCAD 2000
 90
    32768
280
     0
281
     0
  0
CLASS
  1
LWPOLYLINE
  2
AcDbPolyline
  3
"AutoCAD"
 90
    32768
280
     0
281
     1
  0
CLASS
  1
HATCH
  2
AcDbHatch
  3
"ACAD_SEDONA"
 90
    32768
280
     0
281
     1
  0
CLASS
  1
XRECORD
  2
AcDbXrecord
  3
"<Built In>"
 90
    32768
280
     0
281
     0
  0
CLASS
  1
LONG_TRANSACTION
  2
AcDbLongTransaction
  3
AutoCAD 2000
 90
    32768
280
     0
281
     0
  0
CLASS
  1
LWPOLYLINE
  2
AcDbPolyline
  3
"AutoCAD"
 90
    32768
280
     0
281
     1
  0
CLASS
  1
HATCH
  2
AcDbHatch
  3
"ACAD_SEDONA"
 90
    32768
280
     0
281
     1
  0
CLASS
  1
XRECORD
  2
AcDbXrecord
  3
"<Built In>"
 90
    32768
280
     0
281
     0
  0
CLASS
  1
LONG_TRANSACTION
  2
AcDbLongTransaction
  3
AutoCAD 2000
 90
    32768
280
     0
281
     0
  0
CLASS
  1
LWPOLYLINE
  2
AcDbPolyline
  3
"AutoCAD"
 90
    32768
280
     0
281
     1
  0
CLASS
  1
HATCH
  2
AcDbHatch
  3
"ACAD_SEDONA"
 90
    32768
280
     0
281
     1
  0
CLASS
  1
XRECORD
  2
AcDbXrecord
  3
"<Built In>"
 90
    32768
280
     0
281
     0
  0
CLASS
  1
LONG_TRANSACTION
  2
AcDbLongTransaction
  3
AutoCAD 2000
 90
    32768
280
     0
281
     0
  0
CLASS
  1
LWPOLYLINE
  2
AcDbPolyline
  3
"AutoCAD"
 90
    32768
280
     0
281
     1
  0
CLASS
  1
HATCH
  2
AcDbHatch
  3
"ACAD_SEDONA"
 90
    32768
280
     0
281
     1
  0
CLASS
  1
XRECORD
  2
AcDbXrecord
  3
"<Built In>"
 90
    32768
280
     0
281
     0
  0
CLASS
  1
LONG_TRANSACTION
  2
AcDbLongTransaction
  3
AutoCAD 2000
 90
    32768
280
     0
281
     0
  0
CLASS
  1
LWPOLYLINE
  2
AcDbPolyline
  3
"AutoCAD"
 90
    32768
280
     0
281
     1
  0
CLASS
  1
HATCH
  2
AcDbHatch
  3
"ACAD_SEDONA"
 90
    32768
280
     0
281
     1
  0
CLASS
  1
XRECORD
  2
AcDbXrecord
  3
"<Built In>"
 90
    32768
280
     0
281
     0
  0
CLASS
  1
LONG_TRANSACTION
  2
AcDbLongTransaction
  3
AutoCAD 2000
 90
    32768
280
     0
281
     0
  0
CLASS
  1
LWPOLYLINE
  2
AcDbPolyline
  3
"AutoCAD"
 90
    32768
280
     0
281
     1
  0
CLASS
  1
HATCH
  2
AcDbHatch
  3
"ACAD_SEDONA"
 90
    32768
280
     0
281
     1
  0
CLASS
  1
XRECORD
  2
AcDbXrecord
  3
"<Built In>"
 90
    32768
280
     0
281
     0
  0
CLASS
  1
LONG_TRANSACTION
  2
AcDbLongTransaction
  3
AutoCAD 2000
 90
    32768
280
     0
281
     0
  0
CLASS
  1
LWPOLYLINE
  2
AcDbPolyline
  3
"AutoCAD"
 90
    32768
280
     0
281
     1
  0
CLASS
  1
HATCH
  2
AcDbHatch
  3
"ACAD_SEDONA"
 90
    32768
280
     0
281
     1
  0
CLASS
  1
XRECORD
  2
AcDbXrecord
  3
"<Built In>"
 90
    32768
280
     0
281
     0
  0
ENDSEC
  0
SECTION
  2
TABLES
  0
TABLE
  2
VPORT
  5
7CF0
100
AcDbSymbolTable
 70
     2
  0
VPORT
  5
C2CF
100
AcDbSymbolTableRecord
100
AcDbViewportTableRecord
  2
*ACTIVE
 70
     0
 10
0.0
 20
0.0
 11
1.0
 21
1.0
 12
84.93285
 22
137.540659
 13
0.0
 23
0.0
 14
1.0
 24
1.0
 15
10.0
 25
10.0
 16
0.0
 26
0.0
 36
1.0
 17
0.0
 27
0.0
 37
0.0
 40
253.625295
 41
1.625
 42
50.0
 43
0.0
 44
0.0
 50
0.0
 51
0.0
 71
     0
 72
   100
 73
     1
 74
     0
 75
     0
 76
     0
 77
     0
 78
     0
  0
ENDTAB
  0
TABLE
  2
LTYPE
  5
7CED
100
AcDbSymbolTable
 70
     2
  0
LTYPE
  5
7CFB
102
{ACAD_XDICTIONARY
360
C023
102
}
100
AcDbSymbolTableRecord
100
AcDbLinetypeTableRecord
  2
BYBLOCK
 70
     0
  3

 72
    65
 73
     0
 40
0.0
  0
LTYPE
  5
7CFC
102
{ACAD_XDICTIONARY
360
C025
102
}
100
AcDbSymbolTableRecord
100
AcDbLinetypeTableRecord
  2
BYLAYER
 70
     0
  3

 72
    65
 73
     0
 40
0.0
  0
LTYPE
  5
7CFD
100
AcDbSymbolTableRecord
100
AcDbLinetypeTableRecord
  2
CONTINUOUS
 70
     0
  3
Solid line
 72
    65
 73
     0
 40
0.0
  0
LTYPE
  5
7D15
100
AcDbSymbolTableRecord
100
AcDbLinetypeTableRecord
  2
AXES2
 70
     0
  3
___ _ ___ _ ___ _ ___ _ ___ _ ___ _ ___ _ ___ _
 72
    65
 73
     4
 40
1.125
 49
0.75
 74
     0
 49
-0.125
 74
     0
 49
0.125
 74
     0
 49
-0.125
 74
     0
  0
ENDTAB
  0
TABLE
  2
LAYER
  5
7CEA
100
AcDbSymbolTable
 70
     6
  0
LAYER
  5
7CF8
100
AcDbSymbolTableRecord
100
AcDbLayerTableRecord
  2
0
 70
     0
 62
   255
  6
CONTINUOUS
  0
LAYER
  5
7D1C
100
AcDbSymbolTableRecord
100
AcDbLayerTableRecord
  2
COTATION1
 70
     0
 62
     2
  6
CONTINUOUS
  0
LAYER
  5
7D1D
100
AcDbSymbolTableRecord
100
AcDbLayerTableRecord
  2
AXE
 70
     0
 62
    80
  6
AXES2
  0
LAYER
  5
7D1E
102
{ACAD_XDICTIONARY
360
C058
102
}
100
AcDbSymbolTableRecord
100
AcDbLayerTableRecord
  2
DEFPOINTS
 70
     0
 62
     7
  6
CONTINUOUS
  0
LAYER
  5
7D1F
100
AcDbSymbolTableRecord
100
AcDbLayerTableRecord
  2
ALPHA
 70
     0
 62
   254
  6
CONTINUOUS
  0
LAYER
  5
B56C
100
AcDbSymbolTableRecord
100
AcDbLayerTableRecord
  2
TEXTE
 70
     0
 62
   130
  6
CONTINUOUS
  0
ENDTAB
  0
TABLE
  2
STYLE
  5
7CEB
100
AcDbSymbolTable
 70
     2
  0
STYLE
  5
7CF9
100
AcDbSymbolTableRecord
100
AcDbTextStyleTableRecord
  2
ROMANS
 70
     0
 40
0.0
 41
1.0
 50
0.0
 71
     0
 42
6.0
  3
romans
  4

  0
STYLE
  5
7D14
100
AcDbSymbolTableRecord
100
AcDbTextStyleTableRecord
  2
STANDARD
 70
     0
 40
0.0
 41
1.0
 50
0.0
 71
     0
 42
0.2
  3
txt
  4

  0
ENDTAB
  0
TABLE
  2
VIEW
  5
7CEE
100
AcDbSymbolTable
 70
     0
  0
ENDTAB
  0
TABLE
  2
UCS
  5
7CEF
100
AcDbSymbolTable
 70
     0
  0
ENDTAB
  0
TABLE
  2
APPID
  5
7CF1
100
AcDbSymbolTable
 70
     1
  0
APPID
  5
7CFA
100
AcDbSymbolTableRecord
100
AcDbRegAppTableRecord
  2
ACAD
 70
     0
  0
ENDTAB
  0
TABLE
  2
DIMSTYLE
  5
7CF2
100
AcDbSymbolTable
 70
     2
  0
DIMSTYLE
105
7D18
102
{ACAD_XDICTIONARY
360
C054
102
}
102
{ACAD_REACTORS
330
BF70
102
}
100
AcDbSymbolTableRecord
100
AcDbDimStyleTableRecord
  2
SC_DEFAUT
 70
     0
  3

  4

  5
OPEN30
  6

  7

 40
1.0
 41
5.0
 42
2.0
 43
0.38
 44
2.5
 45
0.0
 46
0.0
 47
0.0
 48
0.0
140
2.5
141
0.0
142
0.0
143
25.4
144
1.0
145
0.0
146
1.0
147
2.0
 71
     0
 72
     0
 73
     1
 74
     1
 75
     0
 76
     0
 77
     1
 78
    12
170
     0
171
     2
172
     0
173
     0
174
     0
175
     0
176
     0
177
     0
178
     0
270
     2
271
     1
272
     1
273
     2
274
     2
340
7CF9
275
     0
280
     0
281
     0
282
     0
283
     1
284
    12
285
    12
286
    12
287
     5
288
     0
  0
DIMSTYLE
105
7D19
102
{ACAD_XDICTIONARY
360
C056
102
}
100
AcDbSymbolTableRecord
100
AcDbDimStyleTableRecord
  2
STANDARD
 70
     0
  3

  4

  5

  6

  7

 40
1.0
 41
0.18
 42
0.0625
 43
0.38
 44
0.18
 45
0.0
 46
0.0
 47
0.0
 48
0.0
140
0.18
141
0.09
142
0.0
143
25.4
144
1.0
145
0.0
146
1.0
147
0.09
 71
     0
 72
     0
 73
     1
 74
     1
 75
     0
 76
     0
 77
     0
 78
     0
170
     0
171
     2
172
     0
173
     0
174
     0
175
     0
176
     0
177
     0
178
     0
270
     2
271
     1
272
     1
273
     2
274
     2
340
7CF9
275
     0
280
     0
281
     0
282
     0
283
     1
284
    12
285
    12
286
    12
287
     5
288
     0
  0
ENDTAB
  0
TABLE
  2
BLOCK_RECORD
  5
7CE9
100
AcDbSymbolTable
 70
     4
  0
BLOCK_RECORD
  5
7D06
102
{ACAD_XDICTIONARY
360
800F
102
}
100
AcDbSymbolTableRecord
100
AcDbBlockTableRecord
  2
*MODEL_SPACE
  0
BLOCK_RECORD
  5
7D02
102
{ACAD_XDICTIONARY
360
8011
102
}
100
AcDbSymbolTableRecord
100
AcDbBlockTableRecord
  2
*PAPER_SPACE
  0
BLOCK_RECORD
  5
7D0A
100
AcDbSymbolTableRecord
100
AcDbBlockTableRecord
  2
COTE
  0
BLOCK_RECORD
  5
7D0B
100
AcDbSymbolTableRecord
100
AcDbBlockTableRecord
  2
FOND
  0
BLOCK_RECORD
  5
7D0C
100
AcDbSymbolTableRecord
100
AcDbBlockTableRecord
  2
_OPEN30
  0
BLOCK_RECORD
  5
BF74
100
AcDbSymbolTableRecord
100
AcDbBlockTableRecord
  2
*D3
  0
ENDTAB
  0
ENDSEC
  0
SECTION
  2
BLOCKS
  0
BLOCK
  5
7D24
100
AcDbEntity
  8
0
100
AcDbBlockBegin
  2
*MODEL_SPACE
 70
     0
 10
0.0
 20
0.0
 30
0.0
  3
*MODEL_SPACE
  1

  0
ENDBLK
  5
7D25
100
AcDbEntity
  8
0
100
AcDbBlockEnd
  0
BLOCK
  5
7D22
100
AcDbEntity
 67
     1
  8
0
100
AcDbBlockBegin
  2
*PAPER_SPACE
 70
     0
 10
0.0
 20
0.0
 30
0.0
  3
*PAPER_SPACE
  1

  0
ENDBLK
  5
7D23
100
AcDbEntity
 67
     1
  8
0
100
AcDbBlockEnd
  0
BLOCK
  5
E
100
AcDbEntity
  8
0
100
AcDbBlockBegin
  2
COTE
 70
     0
 10
0.0
 20
0.0
 30
0.0
  3
COTE
  1

  0
ENDBLK
  5
F
100
AcDbEntity
  8
0
100
AcDbBlockEnd
  0
BLOCK
  5
74
100
AcDbEntity
  8
0
100
AcDbBlockBegin
  2
FOND
 70
     0
 10
0.0
 20
0.0
 30
0.0
  3
FOND
  1

  0
ENDBLK
  5
75
100
AcDbEntity
  8
0
100
AcDbBlockEnd
  0
BLOCK
  5
4B08
100
AcDbEntity
  8
0
100
AcDbBlockBegin
  2
_OPEN30
 70
     0
 10
0.0
 20
0.0
 30
0.0
  3
_OPEN30
  1

  0
LINE
  5
4B05
100
AcDbEntity
  8
COTATION1
 62
     0
100
AcDbLine
 10
-1.0
 20
0.267949
 30
0.0
 11
0.0
 21
0.0
 31
0.0
1001
ACAD
1000
RTLwPs
1070
   158
  0
LINE
  5
4B06
100
AcDbEntity
  8
COTATION1
 62
     0
100
AcDbLine
 10
0.0
 20
0.0
 30
0.0
 11
-1.0
 21
-0.267949
 31
0.0
1001
ACAD
1000
RTLwPs
1070
   158
  0
LINE
  5
4B07
100
AcDbEntity
  8
COTATION1
 62
     0
100
AcDbLine
 10
0.0
 20
0.0
 30
0.0
 11
-1.0
 21
0.0
 31
0.0
1001
ACAD
1000
RTLwPs
1070
   158
  0
ENDBLK
  5
4B09
100
AcDbEntity
  8
0
100
AcDbBlockEnd
  0
BLOCK
  5
BF7E
100
AcDbEntity
  8
0
100
AcDbBlockBegin
  2
*D3
 70
     1
 10
0.0
 20
0.0
 30
0.0
  3
*D3
  1

  0
LINE
  5
C016
100
AcDbEntity
  8
COTATION1
 62
     0
100
AcDbLine
 10
48.966603
 20
46.375663
 30
0.0
 11
14.016603
 21
46.375663
 31
0.0
1001
ACAD
1000
RTLwPs
1070
   158
  0
LINE
  5
C017
100
AcDbEntity
  8
COTATION1
 62
     0
100
AcDbLine
 10
31.516603
 20
26.875663
 30
0.0
 11
14.016603
 21
26.875663
 31
0.0
1001
ACAD
1000
RTLwPs
1070
   158
  0
LINE
  5
C018
100
AcDbEntity
  8
COTATION1
 62
     0
100
AcDbLine
 10
16.516603
 20
41.375663
 30
0.0
 11
16.516603
 21
39.875663
 31
0.0
1001
ACAD
1000
RTLwPs
1070
   158
  0
LINE
  5
C019
100
AcDbEntity
  8
COTATION1
 62
     0
100
AcDbLine
 10
16.516603
 20
31.875663
 30
0.0
 11
16.516603
 21
33.375663
 31
0.0
1001
ACAD
1000
RTLwPs
1070
   158
  0
MTEXT
  5
C01A
100
AcDbEntity
  8
COTATION1
 62
     0
100
AcDbMText
 10
16.516603
 20
36.625663
 30
0.0
 40
2.5
 41
0.0
 71
     5
 72
     1
  1
\A1;19.5
1001
ACAD
1000
MTEXTBEGIN
1070
    73
1070
     1
1070
    44
1040
1.0
1070
    74
1070
     0
1000
MTEXTEND
  0
INSERT
  5
C01B
100
AcDbEntity
  8
COTATION1
 62
     0
100
AcDbBlockReference
  2
_OPEN30
 10
16.516603
 20
46.375663
 30
0.0
 41
5.0
 42
5.0
 43
5.0
 50
90.0
1001
ACAD
1000
RTLwPs
1070
   158
  0
INSERT
  5
C01C
100
AcDbEntity
  8
COTATION1
 62
     0
100
AcDbBlockReference
  2
_OPEN30
 10
16.516603
 20
26.875663
 30
0.0
 41
5.0
 42
5.0
 43
5.0
 50
270.0
1001
ACAD
1000
RTLwPs
1070
   158
  0
POINT
  5
C01D
100
AcDbEntity
  8
DEFPOINTS
 62
     0
100
AcDbPoint
 10
50.966603
 20
46.375663
 30
0.0
  0
POINT
  5
C01E
100
AcDbEntity
  8
DEFPOINTS
 62
     0
100
AcDbPoint
 10
33.516603
 20
26.875663
 30
0.0
  0
POINT
  5
C01F
100
AcDbEntity
  8
DEFPOINTS
 62
     0
100
AcDbPoint
 10
16.516603
 20
26.875663
 30
0.0
  0
ENDBLK
  5
BF7F
100
AcDbEntity
  8
0
100
AcDbBlockEnd
  0
ENDSEC
  0
SECTION
  2
ENTITIES
  0
INSERT
  5
A
100
AcDbEntity
  8
0
100
AcDbBlockReference
  2
COTE
 10
0.0
 20
0.0
 30
0.0
  0
INSERT
  5
17
100
AcDbEntity
  8
0
100
AcDbBlockReference
  2
COTE
 10
284.010391
 20
6.373258
 30
0.0
  0
INSERT
  5
72
100
AcDbEntity
  8
0
100
AcDbBlockReference
  2
FOND
 10
0.0
 20
0.0
 30
0.0
  0
CIRCLE
  5
BDD6
100
AcDbEntity
  8
ALPHA
100
AcDbCircle
 10
66.466603
 20
46.375663
 30
0.0
 40
10.5
  0
LINE
  5
BDD7
100
AcDbEntity
  8
ALPHA
100
AcDbLine
 10
64.717208
 20
258.216123
 30
0.0
 11
68.215997
 21
258.216123
 31
0.0
  0
LINE
  5
BDD8
100
AcDbEntity
  8
ALPHA
100
AcDbLine
 10
64.677449
 20
258.215332
 30
0.0
 11
68.255756
 21
258.215332
 31
0.0
  0
LINE
  5
BDD9
100
AcDbEntity
  8
ALPHA
100
AcDbLine
 10
97.404103
 20
245.929211
 30
0.0
 11
35.529103
 21
245.929211
 31
0.0
  0
LINE
  5
BDDA
100
AcDbEntity
  8
ALPHA
100
AcDbLine
 10
98.966603
 20
242.298289
 30
0.0
 11
33.966603
 21
242.298289
 31
0.0
  0
LINE
  5
BDDB
100
AcDbEntity
  8
ALPHA
100
AcDbLine
 10
103.016603
 20
207.875663
 30
0.0
 11
29.916603
 21
207.875663
 31
0.0
  0
LINE
  5
BDDC
100
AcDbEntity
  8
ALPHA
100
AcDbLine
 10
104.44649
 20
206.184991
 30
0.0
 11
28.486716
 21
206.184991
 31
0.0
  0
LINE
  5
BDDD
100
AcDbEntity
  8
ALPHA
100
AcDbLine
 10
104.44649
 20
194.566335
 30
0.0
 11
28.486716
 21
194.566335
 31
0.0
  0
LINE
  5
BDDE
100
AcDbEntity
  8
ALPHA
100
AcDbLine
 10
103.016603
 20
192.875663
 30
0.0
 11
29.916603
 21
192.875663
 31
0.0
  0
LINE
  5
BDDF
100
AcDbEntity
  8
ALPHA
100
AcDbLine
 10
29.89168
 20
97.675663
 30
0.0
 11
103.041525
 21
97.675663
 31
0.0
  0
LINE
  5
BDE0
100
AcDbEntity
  8
ALPHA
100
AcDbLine
 10
28.469714
 20
96.156551
 30
0.0
 11
104.463491
 21
96.156551
 31
0.0
  0
LINE
  5
BDE1
100
AcDbEntity
  8
ALPHA
100
AcDbLine
 10
82.670143
 20
91.275663
 30
0.0
 11
51.474894
 21
91.275663
 31
0.0
  0
LINE
  5
BDE2
100
AcDbEntity
  8
ALPHA
100
AcDbLine
 10
82.173795
 20
90.775663
 30
0.0
 11
51.978394
 21
90.775663
 31
0.0
  0
LINE
  5
BDE3
100
AcDbEntity
  8
ALPHA
100
AcDbLine
 10
82.173795
 20
83.575663
 30
0.0
 11
51.978394
 21
83.575663
 31
0.0
  0
LINE
  5
BDE4
100
AcDbEntity
  8
ALPHA
100
AcDbLine
 10
82.670143
 20
83.075663
 30
0.0
 11
51.474894
 21
83.075663
 31
0.0
  0
LINE
  5
BDE5
100
AcDbEntity
  8
ALPHA
100
AcDbLine
 10
28.469714
 20
78.194775
 30
0.0
 11
104.463491
 21
78.194775
 31
0.0
  0
LINE
  5
BDE6
100
AcDbEntity
  8
ALPHA
100
AcDbLine
 10
73.736246
 20
76.688065
 30
0.0
 11
65.500003
 21
76.688065
 31
0.0
  0
POLYLINE
  5
BDE7
100
AcDbEntity
  8
ALPHA
100
AcDb2dPolyline
 66
     1
 10
0.0
 20
0.0
 30
0.0
  0
VERTEX
  5
C197
100
AcDbEntity
  8
ALPHA
100
AcDbVertex
100
AcDb2dVertex
 10
65.466603
 20
55.848925
 30
0.0
  0
VERTEX
  5
C198
100
AcDbEntity
  8
ALPHA
100
AcDbVertex
100
AcDb2dVertex
 10
66.133519
 20
55.872696
 30
0.0
  0
VERTEX
  5
C199
100
AcDbEntity
  8
ALPHA
100
AcDbVertex
100
AcDb2dVertex
 10
66.799686
 20
55.872696
 30
0.0
  0
VERTEX
  5
C19A
100
AcDbEntity
  8
ALPHA
100
AcDbVertex
100
AcDb2dVertex
 10
67.466603
 20
55.848925
 30
0.0
  0
SEQEND
  5
C19B
100
AcDbEntity
  8
ALPHA
  0
POLYLINE
  5
BDE8
100
AcDbEntity
  8
ALPHA
100
AcDb2dPolyline
 66
     1
 10
0.0
 20
0.0
 30
0.0
  0
VERTEX
  5
C19C
100
AcDbEntity
  8
ALPHA
100
AcDbVertex
100
AcDb2dVertex
 10
66.466929
 20
47.125657
 30
0.0
  0
VERTEX
  5
C19D
100
AcDbEntity
  8
ALPHA
100
AcDbVertex
100
AcDb2dVertex
 10
66.719328
 20
47.080786
 30
0.0
  0
VERTEX
  5
C19E
100
AcDbEntity
  8
ALPHA
100
AcDbVertex
100
AcDb2dVertex
 10
66.94169
 20
46.951634
 30
0.0
  0
VERTEX
  5
C19F
100
AcDbEntity
  8
ALPHA
100
AcDbVertex
100
AcDb2dVertex
 10
67.106959
 20
46.754195
 30
0.0
  0
VERTEX
  5
C1A0
100
AcDbEntity
  8
ALPHA
100
AcDbVertex
100
AcDb2dVertex
 10
67.19624
 20
46.510772
 30
0.0
  0
VERTEX
  5
C1A1
100
AcDbEntity
  8
ALPHA
100
AcDbVertex
100
AcDb2dVertex
 10
67.198097
 20
46.25124
 30
0.0
  0
VERTEX
  5
C1A2
100
AcDbEntity
  8
ALPHA
100
AcDbVertex
100
AcDb2dVertex
 10
67.112517
 20
46.00691
 30
0.0
  0
VERTEX
  5
C1A3
100
AcDbEntity
  8
ALPHA
100
AcDbVertex
100
AcDb2dVertex
 10
66.948376
 20
45.805398
 30
0.0
  0
VERTEX
  5
C1A4
100
AcDbEntity
  8
ALPHA
100
AcDbVertex
100
AcDb2dVertex
 10
66.719937
 20
45.670763
 30
0.0
  0
VERTEX
  5
C1A5
100
AcDbEntity
  8
ALPHA
100
AcDbVertex
100
AcDb2dVertex
 10
66.466273
 20
45.625666
 30
0.0
  0
SEQEND
  5
C1A6
100
AcDbEntity
  8
ALPHA
  0
LINE
  5
BDE9
100
AcDbEntity
  8
ALPHA
100
AcDbLine
 10
67.346603
 20
46.375663
 30
0.0
 11
65.586603
 21
46.375663
 31
0.0
  0
LINE
  5
BDEA
100
AcDbEntity
  8
ALPHA
100
AcDbLine
 10
69.216603
 20
39.625663
 30
0.0
 11
63.716603
 21
39.625663
 31
0.0
  0
LINE
  5
BDEB
100
AcDbEntity
  8
ALPHA
100
AcDbLine
 10
63.716603
 20
38.125663
 30
0.0
 11
69.216603
 21
38.125663
 31
0.0
  0
POLYLINE
  5
BDEC
100
AcDbEntity
  8
ALPHA
100
AcDb2dPolyline
 66
     1
 10
0.0
 20
0.0
 30
0.0
  0
VERTEX
  5
C1A7
100
AcDbEntity
  8
ALPHA
100
AcDbVertex
100
AcDb2dVertex
 10
67.466603
 20
36.902401
 30
0.0
  0
VERTEX
  5
C1A8
100
AcDbEntity
  8
ALPHA
100
AcDbVertex
100
AcDb2dVertex
 10
66.799686
 20
36.87863
 30
0.0
  0
VERTEX
  5
C1A9
100
AcDbEntity
  8
ALPHA
100
AcDbVertex
100
AcDb2dVertex
 10
66.133519
 20
36.87863
 30
0.0
  0
VERTEX
  5
C1AA
100
AcDbEntity
  8
ALPHA
100
AcDbVertex
100
AcDb2dVertex
 10
65.466603
 20
36.902401
 30
0.0
  0
SEQEND
  5
C1AB
100
AcDbEntity
  8
ALPHA
  0
LINE
  5
BDED
100
AcDbEntity
  8
ALPHA
100
AcDbLine
 10
31.516603
 20
28.875663
 30
0.0
 11
101.416603
 21
28.875663
 31
0.0
  0
LINE
  5
BDEE
100
AcDbEntity
  8
ALPHA
100
AcDbLine
 10
33.516603
 20
26.875663
 30
0.0
 11
99.416603
 21
26.875663
 31
0.0
  0
LINE
  5
BDF0
100
AcDbEntity
  8
ALPHA
100
AcDbLine
 10
31.466603
 20
192.875663
 30
0.0
 11
31.466603
 21
97.675663
 31
0.0
  0
LINE
  5
BDF2
100
AcDbEntity
  8
ALPHA
100
AcDbLine
 10
31.516603
 20
76.675663
 30
0.0
 11
31.516603
 21
28.875663
 31
0.0
  0
POLYLINE
  5
BDF3
100
AcDbEntity
  8
ALPHA
100
AcDb2dPolyline
 66
     1
 10
0.0
 20
0.0
 30
0.0
  0
VERTEX
  5
C1AC
100
AcDbEntity
  8
ALPHA
100
AcDbVertex
100
AcDb2dVertex
 10
65.466603
 20
36.920496
 30
0.0
  0
VERTEX
  5
C1AD
100
AcDbEntity
  8
ALPHA
100
AcDbVertex
100
AcDb2dVertex
 10
63.702318
 20
37.286276
 30
0.0
  0
VERTEX
  5
C1AE
100
AcDbEntity
  8
ALPHA
100
AcDbVertex
100
AcDb2dVertex
 10
62.031478
 20
37.99168
 30
0.0
  0
VERTEX
  5
C1AF
100
AcDbEntity
  8
ALPHA
100
AcDbVertex
100
AcDb2dVertex
 10
60.511576
 20
39.01989
 30
0.0
  0
VERTEX
  5
C1B0
100
AcDbEntity
  8
ALPHA
100
AcDbVertex
100
AcDb2dVertex
 10
59.21015
 20
40.340963
 30
0.0
  0
VERTEX
  5
C1B1
100
AcDbEntity
  8
ALPHA
100
AcDbVertex
100
AcDb2dVertex
 10
58.197312
 20
41.879293
 30
0.0
  0
VERTEX
  5
C1B2
100
AcDbEntity
  8
ALPHA
100
AcDbVertex
100
AcDb2dVertex
 10
57.498368
 20
43.593008
 30
0.0
  0
VERTEX
  5
C1B3
100
AcDbEntity
  8
ALPHA
100
AcDbVertex
100
AcDb2dVertex
 10
57.138626
 20
45.375663
 30
0.0
  0
SEQEND
  5
C1B4
100
AcDbEntity
  8
ALPHA
  0
POLYLINE
  5
BDF4
100
AcDbEntity
  8
ALPHA
100
AcDb2dPolyline
 66
     1
 10
0.0
 20
0.0
 30
0.0
  0
VERTEX
  5
C1B5
100
AcDbEntity
  8
ALPHA
100
AcDbVertex
100
AcDb2dVertex
 10
65.466603
 20
36.42589
 30
0.0
  0
VERTEX
  5
C1B6
100
AcDbEntity
  8
ALPHA
100
AcDbVertex
100
AcDb2dVertex
 10
63.795459
 20
36.739059
 30
0.0
  0
VERTEX
  5
C1B7
100
AcDbEntity
  8
ALPHA
100
AcDbVertex
100
AcDb2dVertex
 10
62.188383
 20
37.336853
 30
0.0
  0
VERTEX
  5
C1B8
100
AcDbEntity
  8
ALPHA
100
AcDbVertex
100
AcDb2dVertex
 10
60.706049
 20
38.201903
 30
0.0
  0
VERTEX
  5
C1B9
100
AcDbEntity
  8
ALPHA
100
AcDbVertex
100
AcDb2dVertex
 10
59.388992
 20
39.310793
 30
0.0
  0
VERTEX
  5
C1BA
100
AcDbEntity
  8
ALPHA
100
AcDbVertex
100
AcDb2dVertex
 10
58.282679
 20
40.629659
 30
0.0
  0
VERTEX
  5
C1BB
100
AcDbEntity
  8
ALPHA
100
AcDbVertex
100
AcDb2dVertex
 10
57.419976
 20
42.113584
 30
0.0
  0
VERTEX
  5
C1BC
100
AcDbEntity
  8
ALPHA
100
AcDbVertex
100
AcDb2dVertex
 10
56.825457
 20
43.722684
 30
0.0
  0
VERTEX
  5
C1BD
100
AcDbEntity
  8
ALPHA
100
AcDbVertex
100
AcDb2dVertex
 10
56.516321
 20
45.375663
 30
0.0
  0
SEQEND
  5
C1BE
100
AcDbEntity
  8
ALPHA
  0
LINE
  5
BDF5
100
AcDbEntity
  8
ALPHA
100
AcDbLine
 10
31.516603
 20
28.875663
 30
0.0
 11
33.516603
 21
26.875663
 31
0.0
  0
LINE
  5
BDF6
100
AcDbEntity
  8
ALPHA
100
AcDbLine
 10
65.466603
 20
35.92339
 30
0.0
 11
65.466603
 21
36.920496
 31
0.0
  0
LINE
  5
BDF7
100
AcDbEntity
  8
ALPHA
100
AcDbLine
 10
29.891668
 20
76.675663
 30
0.0
 11
65.428845
 21
76.675663
 31
0.0
  0
ARC
  5
BDF8
100
AcDbEntity
  8
ALPHA
100
AcDbCircle
 10
-107.217772
 20
87.175663
 30
0.0
 40
135.984375
100
AcDbArc
 50
356.213228
 51
3.786772
  0
ARC
  5
BDF9
100
AcDbEntity
  8
ALPHA
100
AcDbCircle
 10
29.891603
 20
78.100663
 30
0.0
 40
1.425
100
AcDbArc
 50
176.213228
 51
270.0
  0
ARC
  5
BDFA
100
AcDbEntity
  8
ALPHA
100
AcDbCircle
 10
29.891603
 20
96.250663
 30
0.0
 40
1.425
100
AcDbArc
 50
90.0
 51
183.786772
  0
POLYLINE
  5
BDFB
100
AcDbEntity
  8
ALPHA
100
AcDb2dPolyline
 66
     1
 10
0.0
 20
0.0
 30
0.0
  0
VERTEX
  5
C1BF
100
AcDbEntity
  8
ALPHA
100
AcDbVertex
100
AcDb2dVertex
 10
51.978394
 20
90.775663
 30
0.0
  0
VERTEX
  5
C1C0
100
AcDbEntity
  8
ALPHA
100
AcDbVertex
100
AcDb2dVertex
 10
51.977587
 20
88.375651
 30
0.0
  0
VERTEX
  5
C1C1
100
AcDbEntity
  8
ALPHA
100
AcDbVertex
100
AcDb2dVertex
 10
51.977587
 20
85.975675
 30
0.0
  0
VERTEX
  5
C1C2
100
AcDbEntity
  8
ALPHA
100
AcDbVertex
100
AcDb2dVertex
 10
51.978394
 20
83.575663
 30
0.0
  0
SEQEND
  5
C1C3
100
AcDbEntity
  8
ALPHA
  0
POLYLINE
  5
BDFC
100
AcDbEntity
  8
ALPHA
100
AcDb2dPolyline
 66
     1
 10
0.0
 20
0.0
 30
0.0
  0
VERTEX
  5
C1C4
100
AcDbEntity
  8
ALPHA
100
AcDbVertex
100
AcDb2dVertex
 10
51.474894
 20
83.075663
 30
0.0
  0
VERTEX
  5
C1C5
100
AcDbEntity
  8
ALPHA
100
AcDbVertex
100
AcDb2dVertex
 10
51.473841
 20
85.809029
 30
0.0
  0
VERTEX
  5
C1C6
100
AcDbEntity
  8
ALPHA
100
AcDbVertex
100
AcDb2dVertex
 10
51.473841
 20
88.542296
 30
0.0
  0
VERTEX
  5
C1C7
100
AcDbEntity
  8
ALPHA
100
AcDbVertex
100
AcDb2dVertex
 10
51.474894
 20
91.275663
 30
0.0
  0
SEQEND
  5
C1C8
100
AcDbEntity
  8
ALPHA
  0
POLYLINE
  5
BDFD
100
AcDbEntity
  8
TEXTE
100
AcDb2dPolyline
 66
     1
 10
0.0
 20
0.0
 30
0.0
  0
VERTEX
  5
C1C9
100
AcDbEntity
  8
TEXTE
100
AcDbVertex
100
AcDb2dVertex
 10
48.089311
 20
83.453577
 30
0.0
  0
VERTEX
  5
C1CA
100
AcDbEntity
  8
TEXTE
100
AcDbVertex
100
AcDb2dVertex
 10
48.088927
 20
84.231437
 30
0.0
  0
VERTEX
  5
C1CB
100
AcDbEntity
  8
TEXTE
100
AcDbVertex
100
AcDb2dVertex
 10
48.088768
 20
84.620343
 30
0.0
  0
SEQEND
  5
C1CC
100
AcDbEntity
  8
TEXTE
  0
LINE
  5
BDFE
100
AcDbEntity
  8
TEXTE
100
AcDbLine
 10
45.744718
 20
84.984174
 30
0.0
 11
45.745196
 21
83.867152
 31
0.0
  0
LINE
  5
BDFF
100
AcDbEntity
  8
TEXTE
100
AcDbLine
 10
45.479581
 20
83.867152
 30
0.0
 11
45.479101
 21
84.984174
 31
0.0
  0
LINE
  5
BE00
100
AcDbEntity
  8
TEXTE
100
AcDbLine
 10
44.238777
 20
84.984174
 30
0.0
 11
44.239272
 21
83.867152
 31
0.0
  0
LINE
  5
BE01
100
AcDbEntity
  8
TEXTE
100
AcDbLine
 10
43.973319
 20
83.867152
 30
0.0
 11
43.972821
 21
84.984174
 31
0.0
  0
LINE
  5
BE02
100
AcDbEntity
  8
TEXTE
100
AcDbLine
 10
48.353988
 20
84.313961
 30
0.0
 11
48.354597
 21
83.122472
 31
0.0
  0
POLYLINE
  5
BE03
100
AcDbEntity
  8
TEXTE
100
AcDb2dPolyline
 66
     1
 10
0.0
 20
0.0
 30
0.0
  0
VERTEX
  5
C1CD
100
AcDbEntity
  8
TEXTE
100
AcDbVertex
100
AcDb2dVertex
 10
42.020952
 20
83.843036
 30
0.0
  0
VERTEX
  5
C1CE
100
AcDbEntity
  8
TEXTE
100
AcDbVertex
100
AcDb2dVertex
 10
42.02056
 20
84.620935
 30
0.0
  0
VERTEX
  5
C1CF
100
AcDbEntity
  8
TEXTE
100
AcDbVertex
100
AcDb2dVertex
 10
42.020403
 20
85.009759
 30
0.0
  0
SEQEND
  5
C1D0
100
AcDbEntity
  8
TEXTE
  0
POLYLINE
  5
BE04
100
AcDbEntity
  8
TEXTE
100
AcDb2dPolyline
 66
     1
 10
0.0
 20
0.0
 30
0.0
  0
VERTEX
  5
C1D1
100
AcDbEntity
  8
TEXTE
100
AcDbVertex
100
AcDb2dVertex
 10
42.287249
 20
84.140655
 30
0.0
  0
VERTEX
  5
C1D2
100
AcDbEntity
  8
TEXTE
100
AcDbVertex
100
AcDb2dVertex
 10
42.287434
 20
83.801305
 30
0.0
  0
VERTEX
  5
C1D3
100
AcDbEntity
  8
TEXTE
100
AcDbVertex
100
AcDb2dVertex
 10
42.287862
 20
83.122472
 30
0.0
  0
SEQEND
  5
C1D4
100
AcDbEntity
  8
TEXTE
  0
LINE
  5
BE05
100
AcDbEntity
  8
TEXTE
100
AcDbLine
 10
40.197465
 20
84.984174
 30
0.0
 11
40.198024
 21
83.867152
 31
0.0
  0
LINE
  5
BE06
100
AcDbEntity
  8
TEXTE
100
AcDbLine
 10
39.930918
 20
83.867152
 30
0.0
 11
39.930354
 21
84.984174
 31
0.0
  0
LINE
  5
BE07
100
AcDbEntity
  8
TEXTE
100
AcDbLine
 10
47.647019
 20
84.165025
 30
0.0
 11
47.73556
 21
83.867152
 31
0.0
  0
LINE
  5
BE08
100
AcDbEntity
  8
TEXTE
100
AcDbLine
 10
47.470385
 20
83.792684
 30
0.0
 11
47.38186
 21
84.016088
 31
0.0
  0
LINE
  5
BE09
100
AcDbEntity
  8
TEXTE
100
AcDbLine
 10
43.619373
 20
82.675663
 30
0.0
 11
42.021734
 21
82.675663
 31
0.0
  0
LINE
  5
BE0A
100
AcDbEntity
  8
TEXTE
100
AcDbLine
 10
40.198024
 20
83.867152
 30
0.0
 11
40.242718
 21
83.56928
 31
0.0
  0
LINE
  5
BE0B
100
AcDbEntity
  8
TEXTE
100
AcDbLine
 10
40.243198
 20
82.899067
 30
0.0
 11
40.064929
 21
83.196939
 31
0.0
  0
LINE
  5
BE0C
100
AcDbEntity
  8
TEXTE
100
AcDbLine
 10
39.975681
 20
83.494812
 30
0.0
 11
39.930918
 21
83.867152
 31
0.0
  0
LINE
  5
BE0D
100
AcDbEntity
  8
TEXTE
100
AcDbLine
 10
40.064929
 20
83.196939
 30
0.0
 11
39.975681
 21
83.494812
 31
0.0
  0
LINE
  5
BE0E
100
AcDbEntity
  8
TEXTE
100
AcDbLine
 10
41.266317
 20
82.750131
 30
0.0
 11
41.044089
 21
82.675663
 31
0.0
  0
LINE
  5
BE0F
100
AcDbEntity
  8
TEXTE
100
AcDbLine
 10
41.043752
 20
83.122472
 30
0.0
 11
41.221534
 21
83.196939
 31
0.0
  0
LINE
  5
BE10
100
AcDbEntity
  8
TEXTE
100
AcDbLine
 10
41.443992
 20
82.899067
 30
0.0
 11
41.266317
 21
82.750131
 31
0.0
  0
LINE
  5
BE11
100
AcDbEntity
  8
TEXTE
100
AcDbLine
 10
41.221534
 20
83.196939
 30
0.0
 11
41.354786
 21
83.345876
 31
0.0
  0
LINE
  5
BE12
100
AcDbEntity
  8
TEXTE
100
AcDbLine
 10
41.621534
 20
83.196939
 30
0.0
 11
41.443992
 21
82.899067
 31
0.0
  0
LINE
  5
BE13
100
AcDbEntity
  8
TEXTE
100
AcDbLine
 10
41.354786
 20
83.345876
 30
0.0
 11
41.399088
 21
83.56928
 31
0.0
  0
LINE
  5
BE14
100
AcDbEntity
  8
TEXTE
100
AcDbLine
 10
41.665722
 20
83.56928
 30
0.0
 11
41.621534
 21
83.196939
 31
0.0
  0
LINE
  5
BE15
100
AcDbEntity
  8
TEXTE
100
AcDbLine
 10
42.021447
 20
83.064859
 30
0.0
 11
42.020952
 21
83.843036
 31
0.0
  0
LINE
  5
BE16
100
AcDbEntity
  8
TEXTE
100
AcDbLine
 10
42.021734
 20
82.675663
 30
0.0
 11
42.021447
 21
83.064859
 31
0.0
  0
LINE
  5
BE17
100
AcDbEntity
  8
TEXTE
100
AcDbLine
 10
40.242718
 20
83.56928
 30
0.0
 11
40.331877
 21
83.345876
 31
0.0
  0
LINE
  5
BE18
100
AcDbEntity
  8
TEXTE
100
AcDbLine
 10
40.331877
 20
83.345876
 30
0.0
 11
40.465476
 21
83.196939
 31
0.0
  0
LINE
  5
BE19
100
AcDbEntity
  8
TEXTE
100
AcDbLine
 10
40.421321
 20
82.750131
 30
0.0
 11
40.243198
 21
82.899067
 31
0.0
  0
LINE
  5
BE1A
100
AcDbEntity
  8
TEXTE
100
AcDbLine
 10
41.399089
 20
83.56928
 30
0.0
 11
41.665723
 21
83.56928
 31
0.0
  0
LINE
  5
BE1B
100
AcDbEntity
  8
TEXTE
100
AcDbLine
 10
40.643488
 20
83.122472
 30
0.0
 11
41.043752
 21
83.122472
 31
0.0
  0
LINE
  5
BE1C
100
AcDbEntity
  8
TEXTE
100
AcDbLine
 10
41.044089
 20
82.675663
 30
0.0
 11
40.64383
 21
82.675663
 31
0.0
  0
LINE
  5
BE1D
100
AcDbEntity
  8
TEXTE
100
AcDbLine
 10
40.465476
 20
83.196939
 30
0.0
 11
40.643488
 21
83.122472
 31
0.0
  0
LINE
  5
BE1E
100
AcDbEntity
  8
TEXTE
100
AcDbLine
 10
40.64383
 20
82.675663
 30
0.0
 11
40.421321
 21
82.750131
 31
0.0
  0
LINE
  5
BE1F
100
AcDbEntity
  8
TEXTE
100
AcDbLine
 10
46.364859
 20
83.643748
 30
0.0
 11
46.409227
 21
83.420343
 31
0.0
  0
LINE
  5
BE20
100
AcDbEntity
  8
TEXTE
100
AcDbLine
 10
46.498125
 20
82.750131
 30
0.0
 11
46.27677
 21
82.973535
 31
0.0
  0
LINE
  5
BE21
100
AcDbEntity
  8
TEXTE
100
AcDbLine
 10
44.283758
 20
83.56928
 30
0.0
 11
44.372524
 21
83.345876
 31
0.0
  0
LINE
  5
BE22
100
AcDbEntity
  8
TEXTE
100
AcDbLine
 10
44.461544
 20
82.750131
 30
0.0
 11
44.284182
 21
82.899067
 31
0.0
  0
LINE
  5
BE23
100
AcDbEntity
  8
TEXTE
100
AcDbLine
 10
43.619061
 20
83.122472
 30
0.0
 11
43.619373
 21
82.675663
 31
0.0
  0
LINE
  5
BE24
100
AcDbEntity
  8
TEXTE
100
AcDbLine
 10
44.017858
 20
83.494812
 30
0.0
 11
43.973319
 21
83.867152
 31
0.0
  0
LINE
  5
BE25
100
AcDbEntity
  8
TEXTE
100
AcDbLine
 10
44.239272
 20
83.867152
 30
0.0
 11
44.283758
 21
83.56928
 31
0.0
  0
LINE
  5
BE26
100
AcDbEntity
  8
TEXTE
100
AcDbLine
 10
44.106696
 20
83.196939
 30
0.0
 11
44.017858
 21
83.494812
 31
0.0
  0
LINE
  5
BE27
100
AcDbEntity
  8
TEXTE
100
AcDbLine
 10
44.284182
 20
82.899067
 30
0.0
 11
44.106696
 21
83.196939
 31
0.0
  0
LINE
  5
BE28
100
AcDbEntity
  8
TEXTE
100
AcDbLine
 10
42.287861
 20
83.122472
 30
0.0
 11
43.61906
 21
83.122472
 31
0.0
  0
LINE
  5
BE29
100
AcDbEntity
  8
TEXTE
100
AcDbLine
 10
45.258871
 20
82.750131
 30
0.0
 11
45.037497
 21
82.675663
 31
0.0
  0
LINE
  5
BE2A
100
AcDbEntity
  8
TEXTE
100
AcDbLine
 10
45.037196
 20
83.122472
 30
0.0
 11
45.214293
 21
83.196939
 31
0.0
  0
LINE
  5
BE2B
100
AcDbEntity
  8
TEXTE
100
AcDbLine
 10
45.43588
 20
82.899067
 30
0.0
 11
45.258871
 21
82.750131
 31
0.0
  0
LINE
  5
BE2C
100
AcDbEntity
  8
TEXTE
100
AcDbLine
 10
45.214293
 20
83.196939
 30
0.0
 11
45.347044
 21
83.345876
 31
0.0
  0
LINE
  5
BE2D
100
AcDbEntity
  8
TEXTE
100
AcDbLine
 10
45.612776
 20
83.196939
 30
0.0
 11
45.43588
 21
82.899067
 31
0.0
  0
LINE
  5
BE2E
100
AcDbEntity
  8
TEXTE
100
AcDbLine
 10
45.347044
 20
83.345876
 30
0.0
 11
45.435467
 21
83.56928
 31
0.0
  0
LINE
  5
BE2F
100
AcDbEntity
  8
TEXTE
100
AcDbLine
 10
45.701132
 20
83.494812
 30
0.0
 11
45.612776
 21
83.196939
 31
0.0
  0
LINE
  5
BE30
100
AcDbEntity
  8
TEXTE
100
AcDbLine
 10
45.435467
 20
83.56928
 30
0.0
 11
45.479581
 21
83.867152
 31
0.0
  0
LINE
  5
BE31
100
AcDbEntity
  8
TEXTE
100
AcDbLine
 10
45.745196
 20
83.867152
 30
0.0
 11
45.701132
 21
83.494812
 31
0.0
  0
LINE
  5
BE32
100
AcDbEntity
  8
TEXTE
100
AcDbLine
 10
46.143797
 20
83.345876
 30
0.0
 11
46.099376
 21
83.643748
 31
0.0
  0
LINE
  5
BE33
100
AcDbEntity
  8
TEXTE
100
AcDbLine
 10
46.27677
 20
82.973535
 30
0.0
 11
46.143797
 21
83.345876
 31
0.0
  0
LINE
  5
BE34
100
AcDbEntity
  8
TEXTE
100
AcDbLine
 10
44.372524
 20
83.345876
 30
0.0
 11
44.505554
 21
83.196939
 31
0.0
  0
LINE
  5
BE35
100
AcDbEntity
  8
TEXTE
100
AcDbLine
 10
44.505554
 20
83.196939
 30
0.0
 11
44.682826
 21
83.122472
 31
0.0
  0
LINE
  5
BE36
100
AcDbEntity
  8
TEXTE
100
AcDbLine
 10
44.68313
 20
82.675663
 30
0.0
 11
44.461544
 21
82.750131
 31
0.0
  0
LINE
  5
BE37
100
AcDbEntity
  8
TEXTE
100
AcDbLine
 10
46.099376
 20
83.643748
 30
0.0
 11
46.36486
 21
83.643748
 31
0.0
  0
LINE
  5
BE38
100
AcDbEntity
  8
TEXTE
100
AcDbLine
 10
44.682826
 20
83.122472
 30
0.0
 11
45.037196
 21
83.122472
 31
0.0
  0
LINE
  5
BE39
100
AcDbEntity
  8
TEXTE
100
AcDbLine
 10
45.037498
 20
82.675663
 30
0.0
 11
44.683131
 21
82.675663
 31
0.0
  0
LINE
  5
BE3A
100
AcDbEntity
  8
TEXTE
100
AcDbLine
 10
48.354597
 20
83.122472
 30
0.0
 11
49.679349
 21
83.122472
 31
0.0
  0
LINE
  5
BE3B
100
AcDbEntity
  8
TEXTE
100
AcDbLine
 10
49.679626
 20
82.675663
 30
0.0
 11
48.089786
 21
82.675663
 31
0.0
  0
LINE
  5
BE3C
100
AcDbEntity
  8
TEXTE
100
AcDbLine
 10
47.294163
 20
82.750131
 30
0.0
 11
47.073139
 21
82.675663
 31
0.0
  0
LINE
  5
BE3D
100
AcDbEntity
  8
TEXTE
100
AcDbLine
 10
47.07285
 20
83.122472
 30
0.0
 11
47.249667
 21
83.196939
 31
0.0
  0
LINE
  5
BE3E
100
AcDbEntity
  8
TEXTE
100
AcDbLine
 10
47.470899
 20
82.899067
 30
0.0
 11
47.294163
 21
82.750131
 31
0.0
  0
LINE
  5
BE3F
100
AcDbEntity
  8
TEXTE
100
AcDbLine
 10
47.249667
 20
83.196939
 30
0.0
 11
47.382213
 21
83.345876
 31
0.0
  0
LINE
  5
BE40
100
AcDbEntity
  8
TEXTE
100
AcDbLine
 10
47.647525
 20
83.196939
 30
0.0
 11
47.470899
 21
82.899067
 31
0.0
  0
LINE
  5
BE41
100
AcDbEntity
  8
TEXTE
100
AcDbLine
 10
47.382213
 20
83.345876
 30
0.0
 11
47.470502
 21
83.56928
 31
0.0
  0
LINE
  5
BE42
100
AcDbEntity
  8
TEXTE
100
AcDbLine
 10
47.735754
 20
83.494812
 30
0.0
 11
47.647525
 21
83.196939
 31
0.0
  0
POLYLINE
  5
BE43
100
AcDbEntity
  8
TEXTE
100
AcDb2dPolyline
 66
     1
 10
0.0
 20
0.0
 30
0.0
  0
VERTEX
  5
C1D5
100
AcDbEntity
  8
TEXTE
100
AcDbVertex
100
AcDb2dVertex
 10
48.089786
 20
82.675663
 30
0.0
  0
VERTEX
  5
C1D6
100
AcDbEntity
  8
TEXTE
100
AcDbVertex
100
AcDb2dVertex
 10
48.089538
 20
83.064628
 30
0.0
  0
VERTEX
  5
C1D7
100
AcDbEntity
  8
TEXTE
100
AcDbVertex
100
AcDb2dVertex
 10
48.089311
 20
83.453577
 30
0.0
  0
SEQEND
  5
C1D8
100
AcDbEntity
  8
TEXTE
  0
LINE
  5
BE44
100
AcDbEntity
  8
TEXTE
100
AcDbLine
 10
47.73556
 20
83.867152
 30
0.0
 11
47.735754
 21
83.494812
 31
0.0
  0
LINE
  5
BE45
100
AcDbEntity
  8
TEXTE
100
AcDbLine
 10
47.470502
 20
83.56928
 30
0.0
 11
47.470385
 21
83.792684
 31
0.0
  0
LINE
  5
BE46
100
AcDbEntity
  8
TEXTE
100
AcDbLine
 10
46.409227
 20
83.420343
 30
0.0
 11
46.542073
 21
83.196939
 31
0.0
  0
LINE
  5
BE47
100
AcDbEntity
  8
TEXTE
100
AcDbLine
 10
46.542073
 20
83.196939
 30
0.0
 11
46.719054
 21
83.122472
 31
0.0
  0
LINE
  5
BE48
100
AcDbEntity
  8
TEXTE
100
AcDbLine
 10
46.719345
 20
82.675663
 30
0.0
 11
46.498125
 21
82.750131
 31
0.0
  0
LINE
  5
BE49
100
AcDbEntity
  8
TEXTE
100
AcDbLine
 10
46.719054
 20
83.122472
 30
0.0
 11
47.07285
 21
83.122472
 31
0.0
  0
LINE
  5
BE4A
100
AcDbEntity
  8
TEXTE
100
AcDbLine
 10
47.073139
 20
82.675663
 30
0.0
 11
46.719345
 21
82.675663
 31
0.0
  0
LINE
  5
BE4B
100
AcDbEntity
  8
TEXTE
100
AcDbLine
 10
49.679349
 20
83.122472
 30
0.0
 11
49.679626
 21
82.675663
 31
0.0
  0
POLYLINE
  5
BE4C
100
AcDbEntity
  8
ALPHA
100
AcDb2dPolyline
 66
     1
 10
0.0
 20
0.0
 30
0.0
  0
VERTEX
  5
C1D9
100
AcDbEntity
  8
ALPHA
100
AcDbVertex
100
AcDb2dVertex
 10
57.138624
 20
47.375663
 30
0.0
  0
VERTEX
  5
C1DA
100
AcDbEntity
  8
ALPHA
100
AcDbVertex
100
AcDb2dVertex
 10
57.498304
 20
49.158066
 30
0.0
  0
VERTEX
  5
C1DB
100
AcDbEntity
  8
ALPHA
100
AcDbVertex
100
AcDb2dVertex
 10
58.197112
 20
50.871681
 30
0.0
  0
VERTEX
  5
C1DC
100
AcDbEntity
  8
ALPHA
100
AcDbVertex
100
AcDb2dVertex
 10
59.209893
 20
52.410022
 30
0.0
  0
VERTEX
  5
C1DD
100
AcDbEntity
  8
ALPHA
100
AcDbVertex
100
AcDb2dVertex
 10
60.511228
 20
53.731161
 30
0.0
  0
VERTEX
  5
C1DE
100
AcDbEntity
  8
ALPHA
100
AcDbVertex
100
AcDb2dVertex
 10
62.031106
 20
54.759435
 30
0.0
  0
VERTEX
  5
C1DF
100
AcDbEntity
  8
ALPHA
100
AcDbVertex
100
AcDb2dVertex
 10
63.702176
 20
55.46501
 30
0.0
  0
VERTEX
  5
C1E0
100
AcDbEntity
  8
ALPHA
100
AcDbVertex
100
AcDb2dVertex
 10
65.466603
 20
55.830829
 30
0.0
  0
SEQEND
  5
C1E1
100
AcDbEntity
  8
ALPHA
  0
POLYLINE
  5
BE4D
100
AcDbEntity
  8
ALPHA
100
AcDb2dPolyline
 66
     1
 10
0.0
 20
0.0
 30
0.0
  0
VERTEX
  5
C1E2
100
AcDbEntity
  8
ALPHA
100
AcDbVertex
100
AcDb2dVertex
 10
56.516318
 20
47.375663
 30
0.0
  0
VERTEX
  5
C1E3
100
AcDbEntity
  8
ALPHA
100
AcDbVertex
100
AcDb2dVertex
 10
56.825533
 20
49.028884
 30
0.0
  0
VERTEX
  5
C1E4
100
AcDbEntity
  8
ALPHA
100
AcDbVertex
100
AcDb2dVertex
 10
57.420637
 20
50.639172
 30
0.0
  0
VERTEX
  5
C1E5
100
AcDbEntity
  8
ALPHA
100
AcDbVertex
100
AcDb2dVertex
 10
58.284052
 20
52.123596
 30
0.0
  0
VERTEX
  5
C1E6
100
AcDbEntity
  8
ALPHA
100
AcDbVertex
100
AcDb2dVertex
 10
59.390236
 20
53.441796
 30
0.0
  0
VERTEX
  5
C1E7
100
AcDbEntity
  8
ALPHA
100
AcDbVertex
100
AcDb2dVertex
 10
60.707124
 20
54.55017
 30
0.0
  0
VERTEX
  5
C1E8
100
AcDbEntity
  8
ALPHA
100
AcDbVertex
100
AcDb2dVertex
 10
62.189015
 20
55.414776
 30
0.0
  0
VERTEX
  5
C1E9
100
AcDbEntity
  8
ALPHA
100
AcDbVertex
100
AcDb2dVertex
 10
63.795093
 20
56.012166
 30
0.0
  0
VERTEX
  5
C1EA
100
AcDbEntity
  8
ALPHA
100
AcDbVertex
100
AcDb2dVertex
 10
65.466603
 20
56.325435
 30
0.0
  0
SEQEND
  5
C1EB
100
AcDbEntity
  8
ALPHA
  0
LINE
  5
BE4F
100
AcDbEntity
  8
ALPHA
100
AcDbLine
 10
57.145605
 20
47.375663
 30
0.0
 11
56.01433
 21
47.375663
 31
0.0
  0
LINE
  5
BE50
100
AcDbEntity
  8
ALPHA
100
AcDbLine
 10
56.01433
 20
45.375663
 30
0.0
 11
57.145613
 21
45.375663
 31
0.0
  0
POLYLINE
  5
BE51
100
AcDbEntity
  8
ALPHA
100
AcDb2dPolyline
 66
     1
 10
0.0
 20
0.0
 30
0.0
  0
VERTEX
  5
C1EC
100
AcDbEntity
  8
ALPHA
100
AcDbVertex
100
AcDb2dVertex
 10
57.138624
 20
47.375663
 30
0.0
  0
VERTEX
  5
C1ED
100
AcDbEntity
  8
ALPHA
100
AcDbVertex
100
AcDb2dVertex
 10
57.064302
 20
46.711292
 30
0.0
  0
VERTEX
  5
C1EE
100
AcDbEntity
  8
ALPHA
100
AcDbVertex
100
AcDb2dVertex
 10
57.064258
 20
46.040867
 30
0.0
  0
VERTEX
  5
C1EF
100
AcDbEntity
  8
ALPHA
100
AcDbVertex
100
AcDb2dVertex
 10
57.138626
 20
45.375663
 30
0.0
  0
SEQEND
  5
C1F0
100
AcDbEntity
  8
ALPHA
  0
ARC
  5
BE52
100
AcDbEntity
  8
ALPHA
100
AcDbCircle
 10
63.716603
 20
38.875663
 30
0.0
 40
0.75
100
AcDbArc
 50
90.0
 51
270.0
  0
LINE
  5
BE53
100
AcDbEntity
  8
ALPHA
100
AcDbLine
 10
66.466603
 20
47.255663
 30
0.0
 11
66.466603
 21
45.495663
 31
0.0
  0
POLYLINE
  5
BE54
100
AcDbEntity
  8
ALPHA
100
AcDb2dPolyline
 66
     1
 10
0.0
 20
0.0
 30
0.0
  0
VERTEX
  5
C1F1
100
AcDbEntity
  8
ALPHA
100
AcDbVertex
100
AcDb2dVertex
 10
66.466273
 20
45.625666
 30
0.0
  0
VERTEX
  5
C1F2
100
AcDbEntity
  8
ALPHA
100
AcDbVertex
100
AcDb2dVertex
 10
66.21426
 20
45.6704
 30
0.0
  0
VERTEX
  5
C1F3
100
AcDbEntity
  8
ALPHA
100
AcDbVertex
100
AcDb2dVertex
 10
65.991864
 20
45.799398
 30
0.0
  0
VERTEX
  5
C1F4
100
AcDbEntity
  8
ALPHA
100
AcDbVertex
100
AcDb2dVertex
 10
65.826336
 20
45.996977
 30
0.0
  0
VERTEX
  5
C1F5
100
AcDbEntity
  8
ALPHA
100
AcDbVertex
100
AcDb2dVertex
 10
65.736946
 20
46.240659
 30
0.0
  0
VERTEX
  5
C1F6
100
AcDbEntity
  8
ALPHA
100
AcDbVertex
100
AcDb2dVertex
 10
65.735179
 20
46.50051
 30
0.0
  0
VERTEX
  5
C1F7
100
AcDbEntity
  8
ALPHA
100
AcDbVertex
100
AcDb2dVertex
 10
65.821037
 20
46.74504
 30
0.0
  0
VERTEX
  5
C1F8
100
AcDbEntity
  8
ALPHA
100
AcDbVertex
100
AcDb2dVertex
 10
65.985486
 20
46.946494
 30
0.0
  0
VERTEX
  5
C1F9
100
AcDbEntity
  8
ALPHA
100
AcDbVertex
100
AcDb2dVertex
 10
66.213696
 20
47.08072
 30
0.0
  0
VERTEX
  5
C1FA
100
AcDbEntity
  8
ALPHA
100
AcDbVertex
100
AcDb2dVertex
 10
66.466929
 20
47.125657
 30
0.0
  0
SEQEND
  5
C1FB
100
AcDbEntity
  8
ALPHA
  0
LINE
  5
BE55
100
AcDbEntity
  8
ALPHA
100
AcDbLine
 10
65.466603
 20
55.830829
 30
0.0
 11
65.466603
 21
56.827935
 31
0.0
  0
POLYLINE
  5
BE56
100
AcDbEntity
  8
ALPHA
100
AcDb2dPolyline
 66
     1
 10
0.0
 20
0.0
 30
0.0
  0
VERTEX
  5
C1FC
100
AcDbEntity
  8
ALPHA
100
AcDbVertex
100
AcDb2dVertex
 10
65.500003
 20
76.688065
 30
0.0
  0
VERTEX
  5
C1FD
100
AcDbEntity
  8
ALPHA
100
AcDbVertex
100
AcDb2dVertex
 10
65.464565
 20
76.678776
 30
0.0
  0
VERTEX
  5
C1FE
100
AcDbEntity
  8
ALPHA
100
AcDbVertex
100
AcDb2dVertex
 10
65.428845
 20
76.675663
 30
0.0
  0
SEQEND
  5
C1FF
100
AcDbEntity
  8
ALPHA
  0
POLYLINE
  5
BE57
100
AcDbEntity
  8
ALPHA
100
AcDb2dPolyline
 66
     1
 10
0.0
 20
0.0
 30
0.0
  0
VERTEX
  5
C200
100
AcDbEntity
  8
ALPHA
100
AcDbVertex
100
AcDb2dVertex
 10
39.930739
 20
90.175663
 30
0.0
  0
VERTEX
  5
C201
100
AcDbEntity
  8
ALPHA
100
AcDbVertex
100
AcDb2dVertex
 10
41.211954
 20
90.962819
 30
0.0
  0
VERTEX
  5
C202
100
AcDbEntity
  8
ALPHA
100
AcDbVertex
100
AcDb2dVertex
 10
42.566506
 20
91.796244
 30
0.0
  0
VERTEX
  5
C203
100
AcDbEntity
  8
ALPHA
100
AcDbVertex
100
AcDb2dVertex
 10
43.993879
 20
92.675663
 30
0.0
  0
SEQEND
  5
C204
100
AcDbEntity
  8
ALPHA
  0
POLYLINE
  5
BE58
100
AcDbEntity
  8
ALPHA
100
AcDb2dPolyline
 66
     1
 10
0.0
 20
0.0
 30
0.0
  0
VERTEX
  5
C205
100
AcDbEntity
  8
ALPHA
100
AcDbVertex
100
AcDb2dVertex
 10
39.938205
 20
90.175663
 30
0.0
  0
VERTEX
  5
C206
100
AcDbEntity
  8
ALPHA
100
AcDbVertex
100
AcDb2dVertex
 10
41.220947
 20
90.963961
 30
0.0
  0
VERTEX
  5
C207
100
AcDbEntity
  8
ALPHA
100
AcDbVertex
100
AcDb2dVertex
 10
42.575216
 20
91.797393
 30
0.0
  0
VERTEX
  5
C208
100
AcDbEntity
  8
ALPHA
100
AcDbVertex
100
AcDb2dVertex
 10
44.000466
 20
92.675663
 30
0.0
  0
SEQEND
  5
C209
100
AcDbEntity
  8
ALPHA
  0
POLYLINE
  5
BE59
100
AcDbEntity
  8
ALPHA
100
AcDb2dPolyline
 66
     1
 10
0.0
 20
0.0
 30
0.0
  0
VERTEX
  5
C20A
100
AcDbEntity
  8
ALPHA
100
AcDbVertex
100
AcDb2dVertex
 10
43.998043
 20
87.675663
 30
0.0
  0
VERTEX
  5
C20B
100
AcDbEntity
  8
ALPHA
100
AcDbVertex
100
AcDb2dVertex
 10
42.576081
 20
88.552394
 30
0.0
  0
VERTEX
  5
C20C
100
AcDbEntity
  8
ALPHA
100
AcDbVertex
100
AcDb2dVertex
 10
41.222539
 20
89.385877
 30
0.0
  0
VERTEX
  5
C20D
100
AcDbEntity
  8
ALPHA
100
AcDbVertex
100
AcDb2dVertex
 10
39.938205
 20
90.175663
 30
0.0
  0
SEQEND
  5
C20E
100
AcDbEntity
  8
ALPHA
  0
POLYLINE
  5
BE5A
100
AcDbEntity
  8
ALPHA
100
AcDb2dPolyline
 66
     1
 10
0.0
 20
0.0
 30
0.0
  0
VERTEX
  5
C20F
100
AcDbEntity
  8
ALPHA
100
AcDbVertex
100
AcDb2dVertex
 10
43.991451
 20
87.675663
 30
0.0
  0
VERTEX
  5
C210
100
AcDbEntity
  8
ALPHA
100
AcDbVertex
100
AcDb2dVertex
 10
42.567384
 20
88.553533
 30
0.0
  0
VERTEX
  5
C211
100
AcDbEntity
  8
ALPHA
100
AcDbVertex
100
AcDb2dVertex
 10
41.213559
 20
89.387009
 30
0.0
  0
VERTEX
  5
C212
100
AcDbEntity
  8
ALPHA
100
AcDbVertex
100
AcDb2dVertex
 10
39.930739
 20
90.175663
 30
0.0
  0
SEQEND
  5
C213
100
AcDbEntity
  8
ALPHA
  0
LINE
  5
BE5B
100
AcDbEntity
  8
TEXTE
100
AcDbLine
 10
42.020087
 20
86.175663
 30
0.0
 11
42.286552
 21
86.175663
 31
0.0
  0
LINE
  5
BE5C
100
AcDbEntity
  8
TEXTE
100
AcDbLine
 10
40.063693
 20
85.654386
 30
0.0
 11
40.241673
 21
85.952259
 31
0.0
  0
LINE
  5
BE5D
100
AcDbEntity
  8
TEXTE
100
AcDbLine
 10
40.241862
 20
85.282046
 30
0.0
 11
40.197465
 21
84.984174
 31
0.0
  0
LINE
  5
BE5E
100
AcDbEntity
  8
TEXTE
100
AcDbLine
 10
39.974742
 20
85.356514
 30
0.0
 11
40.063693
 21
85.654386
 31
0.0
  0
LINE
  5
BE5F
100
AcDbEntity
  8
TEXTE
100
AcDbLine
 10
39.930354
 20
84.984174
 30
0.0
 11
39.974742
 21
85.356514
 31
0.0
  0
LINE
  5
BE60
100
AcDbEntity
  8
TEXTE
100
AcDbLine
 10
40.419658
 20
86.101195
 30
0.0
 11
40.642107
 21
86.175663
 31
0.0
  0
LINE
  5
BE61
100
AcDbEntity
  8
TEXTE
100
AcDbLine
 10
40.642205
 20
85.728854
 30
0.0
 11
40.464259
 21
85.654386
 31
0.0
  0
LINE
  5
BE62
100
AcDbEntity
  8
TEXTE
100
AcDbLine
 10
40.241673
 20
85.952259
 30
0.0
 11
40.419658
 21
86.101195
 31
0.0
  0
LINE
  5
BE63
100
AcDbEntity
  8
TEXTE
100
AcDbLine
 10
40.464259
 20
85.654386
 30
0.0
 11
40.330802
 21
85.50545
 31
0.0
  0
LINE
  5
BE64
100
AcDbEntity
  8
TEXTE
100
AcDbLine
 10
40.330802
 20
85.50545
 30
0.0
 11
40.241862
 21
85.282046
 31
0.0
  0
POLYLINE
  5
BE65
100
AcDbEntity
  8
TEXTE
100
AcDb2dPolyline
 66
     1
 10
0.0
 20
0.0
 30
0.0
  0
VERTEX
  5
C214
100
AcDbEntity
  8
TEXTE
100
AcDbVertex
100
AcDb2dVertex
 10
42.020403
 20
85.009759
 30
0.0
  0
VERTEX
  5
C215
100
AcDbEntity
  8
TEXTE
100
AcDbVertex
100
AcDb2dVertex
 10
42.020167
 20
85.787121
 30
0.0
  0
VERTEX
  5
C216
100
AcDbEntity
  8
TEXTE
100
AcDbVertex
100
AcDb2dVertex
 10
42.020087
 20
86.175663
 30
0.0
  0
SEQEND
  5
C217
100
AcDbEntity
  8
TEXTE
  0
LINE
  5
BE66
100
AcDbEntity
  8
TEXTE
100
AcDbLine
 10
41.620363
 20
85.654386
 30
0.0
 11
41.664907
 21
85.282046
 31
0.0
  0
LINE
  5
BE67
100
AcDbEntity
  8
TEXTE
100
AcDbLine
 10
41.398266
 20
85.282046
 30
0.0
 11
41.353748
 21
85.50545
 31
0.0
  0
LINE
  5
BE68
100
AcDbEntity
  8
TEXTE
100
AcDbLine
 10
41.442529
 20
85.952259
 30
0.0
 11
41.620363
 21
85.654386
 31
0.0
  0
LINE
  5
BE69
100
AcDbEntity
  8
TEXTE
100
AcDbLine
 10
41.353748
 20
85.50545
 30
0.0
 11
41.220348
 21
85.654386
 31
0.0
  0
LINE
  5
BE6A
100
AcDbEntity
  8
TEXTE
100
AcDbLine
 10
41.264702
 20
86.101195
 30
0.0
 11
41.442529
 21
85.952259
 31
0.0
  0
LINE
  5
BE6B
100
AcDbEntity
  8
TEXTE
100
AcDbLine
 10
41.220348
 20
85.654386
 30
0.0
 11
41.042487
 21
85.728854
 31
0.0
  0
LINE
  5
BE6C
100
AcDbEntity
  8
TEXTE
100
AcDbLine
 10
41.04239
 20
86.175663
 30
0.0
 11
41.264702
 21
86.101195
 31
0.0
  0
LINE
  5
BE6D
100
AcDbEntity
  8
TEXTE
100
AcDbLine
 10
40.642108
 20
86.175663
 30
0.0
 11
41.04239
 21
86.175663
 31
0.0
  0
LINE
  5
BE6E
100
AcDbEntity
  8
TEXTE
100
AcDbLine
 10
41.042487
 20
85.728854
 30
0.0
 11
40.642206
 21
85.728854
 31
0.0
  0
LINE
  5
BE6F
100
AcDbEntity
  8
TEXTE
100
AcDbLine
 10
41.664907
 20
85.282046
 30
0.0
 11
41.398266
 21
85.282046
 31
0.0
  0
LINE
  5
BE70
100
AcDbEntity
  8
ALPHA
100
AcDbLine
 10
39.930739
 20
90.175663
 30
0.0
 11
39.938205
 21
90.175663
 31
0.0
  0
LINE
  5
BE71
100
AcDbEntity
  8
TEXTE
100
AcDbLine
 10
46.275591
 20
85.654386
 30
0.0
 11
46.452501
 21
85.952259
 31
0.0
  0
LINE
  5
BE72
100
AcDbEntity
  8
TEXTE
100
AcDbLine
 10
46.45295
 20
84.462897
 30
0.0
 11
46.275861
 21
84.76077
 31
0.0
  0
LINE
  5
BE73
100
AcDbEntity
  8
ALPHA
100
AcDbLine
 10
50.063328
 20
90.925663
 30
0.0
 11
43.999159
 21
90.925663
 31
0.0
  0
LINE
  5
BE74
100
AcDbEntity
  8
ALPHA
100
AcDbLine
 10
50.062681
 20
89.425663
 30
0.0
 11
43.998432
 21
89.425663
 31
0.0
  0
LINE
  5
BE75
100
AcDbEntity
  8
TEXTE
100
AcDbLine
 10
44.282832
 20
85.952259
 30
0.0
 11
44.460069
 21
86.101195
 31
0.0
  0
LINE
  5
BE76
100
AcDbEntity
  8
TEXTE
100
AcDbLine
 10
44.371571
 20
85.50545
 30
0.0
 11
44.283
 21
85.282046
 31
0.0
  0
LINE
  5
BE77
100
AcDbEntity
  8
TEXTE
100
AcDbLine
 10
44.105605
 20
85.654386
 30
0.0
 11
44.282832
 21
85.952259
 31
0.0
  0
LINE
  5
BE78
100
AcDbEntity
  8
TEXTE
100
AcDbLine
 10
44.01703
 20
85.356514
 30
0.0
 11
44.105605
 21
85.654386
 31
0.0
  0
LINE
  5
BE79
100
AcDbEntity
  8
TEXTE
100
AcDbLine
 10
44.283
 20
85.282046
 30
0.0
 11
44.238777
 21
84.984174
 31
0.0
  0
LINE
  5
BE7A
100
AcDbEntity
  8
TEXTE
100
AcDbLine
 10
43.972821
 20
84.984174
 30
0.0
 11
44.01703
 21
85.356514
 31
0.0
  0
POLYLINE
  5
BE7B
100
AcDbEntity
  8
ALPHA
100
AcDb2dPolyline
 66
     1
 10
0.0
 20
0.0
 30
0.0
  0
VERTEX
  5
C218
100
AcDbEntity
  8
ALPHA
100
AcDbVertex
100
AcDb2dVertex
 10
43.998432
 20
89.425663
 30
0.0
  0
VERTEX
  5
C219
100
AcDbEntity
  8
ALPHA
100
AcDbVertex
100
AcDb2dVertex
 10
43.998247
 20
88.842265
 30
0.0
  0
VERTEX
  5
C21A
100
AcDbEntity
  8
ALPHA
100
AcDbVertex
100
AcDb2dVertex
 10
43.998043
 20
87.675663
 30
0.0
  0
SEQEND
  5
C21B
100
AcDbEntity
  8
ALPHA
  0
POLYLINE
  5
BE7C
100
AcDbEntity
  8
TEXTE
100
AcDb2dPolyline
 66
     1
 10
0.0
 20
0.0
 30
0.0
  0
VERTEX
  5
C21C
100
AcDbEntity
  8
TEXTE
100
AcDbVertex
100
AcDb2dVertex
 10
42.286552
 20
86.175663
 30
0.0
  0
VERTEX
  5
C21D
100
AcDbEntity
  8
TEXTE
100
AcDbVertex
100
AcDb2dVertex
 10
42.28662
 20
85.836642
 30
0.0
  0
VERTEX
  5
C21E
100
AcDbEntity
  8
TEXTE
100
AcDbVertex
100
AcDb2dVertex
 10
42.286813
 20
85.158423
 30
0.0
  0
SEQEND
  5
C21F
100
AcDbEntity
  8
TEXTE
  0
POLYLINE
  5
BE7D
100
AcDbEntity
  8
TEXTE
100
AcDb2dPolyline
 66
     1
 10
0.0
 20
0.0
 30
0.0
  0
VERTEX
  5
C220
100
AcDbEntity
  8
TEXTE
100
AcDbVertex
100
AcDb2dVertex
 10
42.286813
 20
85.158423
 30
0.0
  0
VERTEX
  5
C221
100
AcDbEntity
  8
TEXTE
100
AcDbVertex
100
AcDb2dVertex
 10
42.286939
 20
84.819221
 30
0.0
  0
VERTEX
  5
C222
100
AcDbEntity
  8
TEXTE
100
AcDbVertex
100
AcDb2dVertex
 10
42.287249
 20
84.140655
 30
0.0
  0
SEQEND
  5
C223
100
AcDbEntity
  8
TEXTE
  0
LINE
  5
BE7E
100
AcDbEntity
  8
TEXTE
100
AcDbLine
 10
44.460069
 20
86.101195
 30
0.0
 11
44.681598
 21
86.175663
 31
0.0
  0
LINE
  5
BE7F
100
AcDbEntity
  8
TEXTE
100
AcDbLine
 10
44.681685
 20
85.728854
 30
0.0
 11
44.504474
 21
85.654386
 31
0.0
  0
LINE
  5
BE80
100
AcDbEntity
  8
TEXTE
100
AcDbLine
 10
44.504474
 20
85.654386
 30
0.0
 11
44.371571
 21
85.50545
 31
0.0
  0
LINE
  5
BE81
100
AcDbEntity
  8
TEXTE
100
AcDbLine
 10
46.23142
 20
85.356514
 30
0.0
 11
46.275591
 21
85.654386
 31
0.0
  0
LINE
  5
BE82
100
AcDbEntity
  8
TEXTE
100
AcDbLine
 10
46.23151
 20
85.058641
 30
0.0
 11
46.23142
 21
85.356514
 31
0.0
  0
LINE
  5
BE83
100
AcDbEntity
  8
TEXTE
100
AcDbLine
 10
45.700336
 20
85.356514
 30
0.0
 11
45.744718
 21
84.984174
 31
0.0
  0
LINE
  5
BE84
100
AcDbEntity
  8
TEXTE
100
AcDbLine
 10
46.275861
 20
84.76077
 30
0.0
 11
46.23151
 21
85.058641
 31
0.0
  0
LINE
  5
BE85
100
AcDbEntity
  8
TEXTE
100
AcDbLine
 10
45.479101
 20
84.984174
 30
0.0
 11
45.43473
 21
85.282046
 31
0.0
  0
LINE
  5
BE86
100
AcDbEntity
  8
TEXTE
100
AcDbLine
 10
45.611723
 20
85.654386
 30
0.0
 11
45.700336
 21
85.356514
 31
0.0
  0
LINE
  5
BE87
100
AcDbEntity
  8
TEXTE
100
AcDbLine
 10
45.43473
 20
85.282046
 30
0.0
 11
45.346113
 21
85.50545
 31
0.0
  0
LINE
  5
BE88
100
AcDbEntity
  8
TEXTE
100
AcDbLine
 10
45.434566
 20
85.952259
 30
0.0
 11
45.611723
 21
85.654386
 31
0.0
  0
LINE
  5
BE89
100
AcDbEntity
  8
TEXTE
100
AcDbLine
 10
45.346113
 20
85.50545
 30
0.0
 11
45.21323
 21
85.654386
 31
0.0
  0
LINE
  5
BE8A
100
AcDbEntity
  8
TEXTE
100
AcDbLine
 10
45.257423
 20
86.101195
 30
0.0
 11
45.434566
 21
85.952259
 31
0.0
  0
LINE
  5
BE8B
100
AcDbEntity
  8
TEXTE
100
AcDbLine
 10
45.21323
 20
85.654386
 30
0.0
 11
45.036064
 21
85.728854
 31
0.0
  0
LINE
  5
BE8C
100
AcDbEntity
  8
TEXTE
100
AcDbLine
 10
45.035978
 20
86.175663
 30
0.0
 11
45.257423
 21
86.101195
 31
0.0
  0
LINE
  5
BE8D
100
AcDbEntity
  8
TEXTE
100
AcDbLine
 10
44.681598
 20
86.175663
 30
0.0
 11
45.035978
 21
86.175663
 31
0.0
  0
LINE
  5
BE8E
100
AcDbEntity
  8
TEXTE
100
AcDbLine
 10
45.036064
 20
85.728854
 30
0.0
 11
44.681685
 21
85.728854
 31
0.0
  0
POLYLINE
  5
BE8F
100
AcDbEntity
  8
ALPHA
100
AcDb2dPolyline
 66
     1
 10
0.0
 20
0.0
 30
0.0
  0
VERTEX
  5
C224
100
AcDbEntity
  8
ALPHA
100
AcDbVertex
100
AcDb2dVertex
 10
44.000466
 20
92.675663
 30
0.0
  0
VERTEX
  5
C225
100
AcDbEntity
  8
ALPHA
100
AcDbVertex
100
AcDb2dVertex
 10
43.999975
 20
92.092126
 30
0.0
  0
VERTEX
  5
C226
100
AcDbEntity
  8
ALPHA
100
AcDbVertex
100
AcDb2dVertex
 10
43.999159
 20
90.925663
 30
0.0
  0
SEQEND
  5
C227
100
AcDbEntity
  8
ALPHA
  0
POLYLINE
  5
BE90
100
AcDbEntity
  8
ALPHA
100
AcDb2dPolyline
 66
     1
 10
0.0
 20
0.0
 30
0.0
  0
VERTEX
  5
C228
100
AcDbEntity
  8
ALPHA
100
AcDbVertex
100
AcDb2dVertex
 10
50.063328
 20
90.925663
 30
0.0
  0
VERTEX
  5
C229
100
AcDbEntity
  8
ALPHA
100
AcDbVertex
100
AcDb2dVertex
 10
50.063076
 20
90.425644
 30
0.0
  0
VERTEX
  5
C22A
100
AcDbEntity
  8
ALPHA
100
AcDbVertex
100
AcDb2dVertex
 10
50.062681
 20
89.425663
 30
0.0
  0
SEQEND
  5
C22B
100
AcDbEntity
  8
ALPHA
  0
LINE
  5
BE91
100
AcDbEntity
  8
TEXTE
100
AcDbLine
 10
48.088357
 20
86.175663
 30
0.0
 11
49.678234
 21
86.175663
 31
0.0
  0
LINE
  5
BE92
100
AcDbEntity
  8
TEXTE
100
AcDbLine
 10
49.678313
 20
85.728854
 30
0.0
 11
48.353538
 21
85.728854
 31
0.0
  0
LINE
  5
BE93
100
AcDbEntity
  8
TEXTE
100
AcDbLine
 10
48.353814
 20
84.76077
 30
0.0
 11
49.502016
 21
84.76077
 31
0.0
  0
LINE
  5
BE94
100
AcDbEntity
  8
TEXTE
100
AcDbLine
 10
49.502186
 20
84.313961
 30
0.0
 11
48.353988
 21
84.313961
 31
0.0
  0
LINE
  5
BE95
100
AcDbEntity
  8
TEXTE
100
AcDbLine
 10
46.629425
 20
86.101195
 30
0.0
 11
46.806338
 21
86.175663
 31
0.0
  0
LINE
  5
BE96
100
AcDbEntity
  8
TEXTE
100
AcDbLine
 10
46.806421
 20
85.728854
 30
0.0
 11
46.673746
 21
85.654386
 31
0.0
  0
LINE
  5
BE97
100
AcDbEntity
  8
TEXTE
100
AcDbLine
 10
46.452501
 20
85.952259
 30
0.0
 11
46.629425
 21
86.101195
 31
0.0
  0
LINE
  5
BE98
100
AcDbEntity
  8
TEXTE
100
AcDbLine
 10
46.673746
 20
85.654386
 30
0.0
 11
46.541077
 21
85.50545
 31
0.0
  0
LINE
  5
BE99
100
AcDbEntity
  8
TEXTE
100
AcDbLine
 10
46.541077
 20
85.50545
 30
0.0
 11
46.496901
 21
85.282046
 31
0.0
  0
LINE
  5
BE9A
100
AcDbEntity
  8
TEXTE
100
AcDbLine
 10
48.353538
 20
85.728854
 30
0.0
 11
48.353814
 21
84.76077
 31
0.0
  0
POLYLINE
  5
BE9B
100
AcDbEntity
  8
TEXTE
100
AcDb2dPolyline
 66
     1
 10
0.0
 20
0.0
 30
0.0
  0
VERTEX
  5
C22C
100
AcDbEntity
  8
TEXTE
100
AcDbVertex
100
AcDb2dVertex
 10
48.088768
 20
84.620343
 30
0.0
  0
VERTEX
  5
C22D
100
AcDbEntity
  8
TEXTE
100
AcDbVertex
100
AcDb2dVertex
 10
48.088518
 20
85.398067
 30
0.0
  0
VERTEX
  5
C22E
100
AcDbEntity
  8
TEXTE
100
AcDbVertex
100
AcDb2dVertex
 10
48.088426
 20
85.78688
 30
0.0
  0
VERTEX
  5
C22F
100
AcDbEntity
  8
TEXTE
100
AcDbVertex
100
AcDb2dVertex
 10
48.088357
 20
86.175663
 30
0.0
  0
SEQEND
  5
C230
100
AcDbEntity
  8
TEXTE
  0
LINE
  5
BE9C
100
AcDbEntity
  8
TEXTE
100
AcDbLine
 10
46.496901
 20
85.282046
 30
0.0
 11
46.496946
 21
85.13311
 31
0.0
  0
LINE
  5
BE9D
100
AcDbEntity
  8
TEXTE
100
AcDbLine
 10
47.558127
 20
85.579918
 30
0.0
 11
47.602388
 21
85.356514
 31
0.0
  0
LINE
  5
BE9E
100
AcDbEntity
  8
TEXTE
100
AcDbLine
 10
46.496946
 20
85.13311
 30
0.0
 11
46.541256
 21
84.909705
 31
0.0
  0
LINE
  5
BE9F
100
AcDbEntity
  8
TEXTE
100
AcDbLine
 10
47.337148
 20
85.356514
 30
0.0
 11
47.292898
 21
85.50545
 31
0.0
  0
LINE
  5
BEA0
100
AcDbEntity
  8
TEXTE
100
AcDbLine
 10
47.425444
 20
85.87779
 30
0.0
 11
47.558127
 21
85.579918
 31
0.0
  0
LINE
  5
BEA1
100
AcDbEntity
  8
TEXTE
100
AcDbLine
 10
47.292898
 20
85.50545
 30
0.0
 11
47.204433
 21
85.654386
 31
0.0
  0
LINE
  5
BEA2
100
AcDbEntity
  8
TEXTE
100
AcDbLine
 10
47.470078
 20
84.462897
 30
0.0
 11
47.647019
 21
84.165025
 31
0.0
  0
LINE
  5
BEA3
100
AcDbEntity
  8
TEXTE
100
AcDbLine
 10
47.248561
 20
86.101195
 30
0.0
 11
47.425444
 21
85.87779
 31
0.0
  0
LINE
  5
BEA4
100
AcDbEntity
  8
TEXTE
100
AcDbLine
 10
47.38186
 20
84.016088
 30
0.0
 11
47.249157
 21
84.165025
 31
0.0
  0
LINE
  5
BEA5
100
AcDbEntity
  8
TEXTE
100
AcDbLine
 10
46.541256
 20
84.909705
 30
0.0
 11
46.674014
 21
84.76077
 31
0.0
  0
LINE
  5
BEA6
100
AcDbEntity
  8
TEXTE
100
AcDbLine
 10
47.293183
 20
84.611833
 30
0.0
 11
47.470078
 21
84.462897
 31
0.0
  0
LINE
  5
BEA7
100
AcDbEntity
  8
TEXTE
100
AcDbLine
 10
46.629962
 20
84.313961
 30
0.0
 11
46.45295
 21
84.462897
 31
0.0
  0
LINE
  5
BEA8
100
AcDbEntity
  8
TEXTE
100
AcDbLine
 10
47.204433
 20
85.654386
 30
0.0
 11
47.071766
 21
85.728854
 31
0.0
  0
LINE
  5
BEA9
100
AcDbEntity
  8
TEXTE
100
AcDbLine
 10
46.674014
 20
84.76077
 30
0.0
 11
46.806733
 21
84.686301
 31
0.0
  0
LINE
  5
BEAA
100
AcDbEntity
  8
TEXTE
100
AcDbLine
 10
47.249157
 20
84.165025
 30
0.0
 11
47.072259
 21
84.239492
 31
0.0
  0
LINE
  5
BEAB
100
AcDbEntity
  8
TEXTE
100
AcDbLine
 10
46.806917
 20
84.239492
 30
0.0
 11
46.629962
 21
84.313961
 31
0.0
  0
LINE
  5
BEAC
100
AcDbEntity
  8
TEXTE
100
AcDbLine
 10
47.027462
 20
86.175663
 30
0.0
 11
47.248561
 21
86.101195
 31
0.0
  0
LINE
  5
BEAD
100
AcDbEntity
  8
TEXTE
100
AcDbLine
 10
47.072076
 20
84.686301
 30
0.0
 11
47.293183
 21
84.611833
 31
0.0
  0
LINE
  5
BEAE
100
AcDbEntity
  8
TEXTE
100
AcDbLine
 10
46.806338
 20
86.175663
 30
0.0
 11
47.027462
 21
86.175663
 31
0.0
  0
LINE
  5
BEAF
100
AcDbEntity
  8
TEXTE
100
AcDbLine
 10
47.071766
 20
85.728854
 30
0.0
 11
46.806421
 21
85.728854
 31
0.0
  0
LINE
  5
BEB0
100
AcDbEntity
  8
TEXTE
100
AcDbLine
 10
47.602388
 20
85.356514
 30
0.0
 11
47.337148
 21
85.356514
 31
0.0
  0
LINE
  5
BEB1
100
AcDbEntity
  8
TEXTE
100
AcDbLine
 10
46.806733
 20
84.686301
 30
0.0
 11
47.072076
 21
84.686301
 31
0.0
  0
LINE
  5
BEB2
100
AcDbEntity
  8
TEXTE
100
AcDbLine
 10
47.072259
 20
84.239492
 30
0.0
 11
46.806917
 21
84.239492
 31
0.0
  0
LINE
  5
BEB3
100
AcDbEntity
  8
TEXTE
100
AcDbLine
 10
49.678234
 20
86.175663
 30
0.0
 11
49.678313
 21
85.728854
 31
0.0
  0
LINE
  5
BEB4
100
AcDbEntity
  8
TEXTE
100
AcDbLine
 10
49.502015
 20
84.76077
 30
0.0
 11
49.502186
 21
84.313961
 31
0.0
  0
LINE
  5
BEB5
100
AcDbEntity
  8
ALPHA
100
AcDbLine
 10
33.966603
 20
242.298289
 30
0.0
 11
33.966603
 21
207.875663
 31
0.0
  0
ARC
  5
BEB6
100
AcDbEntity
  8
ALPHA
100
AcDbCircle
 10
-6.027799
 20
200.375663
 30
0.0
 40
35.0
100
AcDbArc
 50
350.445784
 51
9.554216
  0
ARC
  5
BEB7
100
AcDbEntity
  8
ALPHA
100
AcDbCircle
 10
29.916603
 20
194.325663
 30
0.0
 40
1.45
100
AcDbArc
 50
170.445784
 51
270.0
  0
ARC
  5
BEB8
100
AcDbEntity
  8
ALPHA
100
AcDbCircle
 10
29.916603
 20
206.425663
 30
0.0
 40
1.45
100
AcDbArc
 50
90.0
 51
189.554216
  0
ARC
  5
BEB9
100
AcDbEntity
  8
ALPHA
100
AcDbCircle
 10
38.966603
 20
242.298289
 30
0.0
 40
5.0
100
AcDbArc
 50
133.432537
 51
180.0
  0
ARC
  5
BEBA
100
AcDbEntity
  8
ALPHA
100
AcDbCircle
 10
66.466603
 20
213.250914
 30
0.0
 40
45.0
100
AcDbArc
 50
92.278622
 51
133.432537
  0
LINE
  5
BEBB
100
AcDbEntity
  8
ALPHA
100
AcDbLine
 10
64.677449
 20
258.215332
 30
0.0
 11
64.717208
 21
258.216123
 31
0.0
  0
LINE
  5
BEBC
100
AcDbEntity
  8
ALPHA
100
AcDbLine
 10
101.466603
 20
192.875663
 30
0.0
 11
101.466603
 21
97.675663
 31
0.0
  0
LINE
  5
BEBE
100
AcDbEntity
  8
ALPHA
100
AcDbLine
 10
101.416603
 20
76.675663
 30
0.0
 11
101.416603
 21
28.875663
 31
0.0
  0
POLYLINE
  5
BEBF
100
AcDbEntity
  8
ALPHA
100
AcDb2dPolyline
 66
     1
 10
0.0
 20
0.0
 30
0.0
  0
VERTEX
  5
C231
100
AcDbEntity
  8
ALPHA
100
AcDbVertex
100
AcDb2dVertex
 10
75.794579
 20
45.375663
 30
0.0
  0
VERTEX
  5
C232
100
AcDbEntity
  8
ALPHA
100
AcDbVertex
100
AcDb2dVertex
 10
75.434852
 20
43.593097
 30
0.0
  0
VERTEX
  5
C233
100
AcDbEntity
  8
ALPHA
100
AcDbVertex
100
AcDb2dVertex
 10
74.735925
 20
41.879326
 30
0.0
  0
VERTEX
  5
C234
100
AcDbEntity
  8
ALPHA
100
AcDbVertex
100
AcDb2dVertex
 10
73.722962
 20
40.340869
 30
0.0
  0
VERTEX
  5
C235
100
AcDbEntity
  8
ALPHA
100
AcDbVertex
100
AcDb2dVertex
 10
72.421406
 20
39.019691
 30
0.0
  0
VERTEX
  5
C236
100
AcDbEntity
  8
ALPHA
100
AcDbVertex
100
AcDb2dVertex
 10
70.90131
 20
37.991461
 30
0.0
  0
VERTEX
  5
C237
100
AcDbEntity
  8
ALPHA
100
AcDbVertex
100
AcDb2dVertex
 10
69.230311
 20
37.286093
 30
0.0
  0
VERTEX
  5
C238
100
AcDbEntity
  8
ALPHA
100
AcDbVertex
100
AcDb2dVertex
 10
67.466603
 20
36.920497
 30
0.0
  0
SEQEND
  5
C239
100
AcDbEntity
  8
ALPHA
  0
POLYLINE
  5
BEC0
100
AcDbEntity
  8
ALPHA
100
AcDb2dPolyline
 66
     1
 10
0.0
 20
0.0
 30
0.0
  0
VERTEX
  5
C23A
100
AcDbEntity
  8
ALPHA
100
AcDbVertex
100
AcDb2dVertex
 10
76.416888
 20
45.375663
 30
0.0
  0
VERTEX
  5
C23B
100
AcDbEntity
  8
ALPHA
100
AcDbVertex
100
AcDb2dVertex
 10
76.107671
 20
43.722441
 30
0.0
  0
VERTEX
  5
C23C
100
AcDbEntity
  8
ALPHA
100
AcDbVertex
100
AcDb2dVertex
 10
75.512568
 20
42.112153
 30
0.0
  0
VERTEX
  5
C23D
100
AcDbEntity
  8
ALPHA
100
AcDbVertex
100
AcDb2dVertex
 10
74.649152
 20
40.627728
 30
0.0
  0
VERTEX
  5
C23E
100
AcDbEntity
  8
ALPHA
100
AcDbVertex
100
AcDb2dVertex
 10
73.542968
 20
39.309529
 30
0.0
  0
VERTEX
  5
C23F
100
AcDbEntity
  8
ALPHA
100
AcDbVertex
100
AcDb2dVertex
 10
72.22608
 20
38.201156
 30
0.0
  0
VERTEX
  5
C240
100
AcDbEntity
  8
ALPHA
100
AcDbVertex
100
AcDb2dVertex
 10
70.74419
 20
37.33655
 30
0.0
  0
VERTEX
  5
C241
100
AcDbEntity
  8
ALPHA
100
AcDbVertex
100
AcDb2dVertex
 10
69.138112
 20
36.73916
 30
0.0
  0
VERTEX
  5
C242
100
AcDbEntity
  8
ALPHA
100
AcDbVertex
100
AcDb2dVertex
 10
67.466603
 20
36.425891
 30
0.0
  0
SEQEND
  5
C243
100
AcDbEntity
  8
ALPHA
  0
LINE
  5
BEC2
100
AcDbEntity
  8
ALPHA
100
AcDbLine
 10
101.416603
 20
28.875663
 30
0.0
 11
99.416603
 21
26.875663
 31
0.0
  0
LINE
  5
BEC3
100
AcDbEntity
  8
ALPHA
100
AcDbLine
 10
67.466603
 20
35.92339
 30
0.0
 11
67.466603
 21
36.920497
 31
0.0
  0
LINE
  5
BEC4
100
AcDbEntity
  8
ALPHA
100
AcDbLine
 10
73.687133
 20
76.675663
 30
0.0
 11
103.041554
 21
76.675663
 31
0.0
  0
POLYLINE
  5
BEC5
100
AcDbEntity
  8
TEXTE
100
AcDb2dPolyline
 66
     1
 10
0.0
 20
0.0
 30
0.0
  0
VERTEX
  5
C244
100
AcDbEntity
  8
TEXTE
100
AcDbVertex
100
AcDb2dVertex
 10
92.491128
 20
84.232084
 30
0.0
  0
VERTEX
  5
C245
100
AcDbEntity
  8
TEXTE
100
AcDbVertex
100
AcDb2dVertex
 10
92.491341
 20
83.84309
 30
0.0
  0
VERTEX
  5
C246
100
AcDbEntity
  8
TEXTE
100
AcDbVertex
100
AcDb2dVertex
 10
92.491846
 20
83.064882
 30
0.0
  0
SEQEND
  5
C247
100
AcDbEntity
  8
TEXTE
  0
POLYLINE
  5
BEC6
100
AcDbEntity
  8
TEXTE
100
AcDb2dPolyline
 66
     1
 10
0.0
 20
0.0
 30
0.0
  0
VERTEX
  5
C248
100
AcDbEntity
  8
TEXTE
100
AcDbVertex
100
AcDb2dVertex
 10
92.233461
 20
83.196939
 30
0.0
  0
VERTEX
  5
C249
100
AcDbEntity
  8
TEXTE
100
AcDbVertex
100
AcDb2dVertex
 10
92.233043
 20
83.859258
 30
0.0
  0
VERTEX
  5
C24A
100
AcDbEntity
  8
TEXTE
100
AcDbVertex
100
AcDb2dVertex
 10
92.232863
 20
84.190344
 30
0.0
  0
SEQEND
  5
C24B
100
AcDbEntity
  8
TEXTE
  0
POLYLINE
  5
BEC7
100
AcDbEntity
  8
TEXTE
100
AcDb2dPolyline
 66
     1
 10
0.0
 20
0.0
 30
0.0
  0
VERTEX
  5
C24C
100
AcDbEntity
  8
TEXTE
100
AcDbVertex
100
AcDb2dVertex
 10
90.768007
 20
83.842898
 30
0.0
  0
VERTEX
  5
C24D
100
AcDbEntity
  8
TEXTE
100
AcDbVertex
100
AcDb2dVertex
 10
90.767628
 20
84.620778
 30
0.0
  0
VERTEX
  5
C24E
100
AcDbEntity
  8
TEXTE
100
AcDbVertex
100
AcDb2dVertex
 10
90.767477
 20
85.009617
 30
0.0
  0
SEQEND
  5
C24F
100
AcDbEntity
  8
TEXTE
  0
POLYLINE
  5
BEC8
100
AcDbEntity
  8
TEXTE
100
AcDb2dPolyline
 66
     1
 10
0.0
 20
0.0
 30
0.0
  0
VERTEX
  5
C250
100
AcDbEntity
  8
TEXTE
100
AcDbVertex
100
AcDb2dVertex
 10
88.868844
 20
83.842714
 30
0.0
  0
VERTEX
  5
C251
100
AcDbEntity
  8
TEXTE
100
AcDbVertex
100
AcDb2dVertex
 10
88.868483
 20
84.62057
 30
0.0
  0
VERTEX
  5
C252
100
AcDbEntity
  8
TEXTE
100
AcDbVertex
100
AcDb2dVertex
 10
88.868339
 20
85.009428
 30
0.0
  0
SEQEND
  5
C253
100
AcDbEntity
  8
TEXTE
  0
LINE
  5
BEC9
100
AcDbEntity
  8
TEXTE
100
AcDbLine
 10
87.182639
 20
84.239492
 30
0.0
 11
87.182892
 21
83.71829
 31
0.0
  0
POLYLINE
  5
BECA
100
AcDbEntity
  8
TEXTE
100
AcDb2dPolyline
 66
     1
 10
0.0
 20
0.0
 30
0.0
  0
VERTEX
  5
C254
100
AcDbEntity
  8
TEXTE
100
AcDbVertex
100
AcDb2dVertex
 10
86.923444
 20
83.453621
 30
0.0
  0
VERTEX
  5
C255
100
AcDbEntity
  8
TEXTE
100
AcDbVertex
100
AcDb2dVertex
 10
86.923052
 20
84.231501
 30
0.0
  0
VERTEX
  5
C256
100
AcDbEntity
  8
TEXTE
100
AcDbVertex
100
AcDb2dVertex
 10
86.922891
 20
84.620408
 30
0.0
  0
SEQEND
  5
C257
100
AcDbEntity
  8
TEXTE
  0
LINE
  5
BECB
100
AcDbEntity
  8
TEXTE
100
AcDbLine
 10
86.576561
 20
84.984174
 30
0.0
 11
86.577022
 21
83.867152
 31
0.0
  0
LINE
  5
BECC
100
AcDbEntity
  8
TEXTE
100
AcDbLine
 10
86.317312
 20
83.867152
 30
0.0
 11
86.316853
 21
84.984174
 31
0.0
  0
LINE
  5
BECD
100
AcDbEntity
  8
TEXTE
100
AcDbLine
 10
85.104226
 20
84.984174
 30
0.0
 11
85.104675
 21
83.867152
 31
0.0
  0
LINE
  5
BECE
100
AcDbEntity
  8
TEXTE
100
AcDbLine
 10
84.844688
 20
83.867152
 30
0.0
 11
84.844241
 21
84.984174
 31
0.0
  0
POLYLINE
  5
BECF
100
AcDbEntity
  8
TEXTE
100
AcDb2dPolyline
 66
     1
 10
0.0
 20
0.0
 30
0.0
  0
VERTEX
  5
C258
100
AcDbEntity
  8
TEXTE
100
AcDbVertex
100
AcDb2dVertex
 10
91.026608
 20
84.03318
 30
0.0
  0
VERTEX
  5
C259
100
AcDbEntity
  8
TEXTE
100
AcDbVertex
100
AcDb2dVertex
 10
91.026795
 20
83.69387
 30
0.0
  0
VERTEX
  5
C25A
100
AcDbEntity
  8
TEXTE
100
AcDbVertex
100
AcDb2dVertex
 10
91.027228
 20
83.015114
 30
0.0
  0
SEQEND
  5
C25B
100
AcDbEntity
  8
TEXTE
  0
LINE
  5
BED0
100
AcDbEntity
  8
TEXTE
100
AcDbLine
 10
89.127787
 20
84.313961
 30
0.0
 11
89.128439
 21
83.122472
 31
0.0
  0
POLYLINE
  5
BED1
100
AcDbEntity
  8
ALPHA
100
AcDb2dPolyline
 66
     1
 10
0.0
 20
0.0
 30
0.0
  0
VERTEX
  5
C25C
100
AcDbEntity
  8
ALPHA
100
AcDbVertex
100
AcDb2dVertex
 10
82.670143
 20
91.275663
 30
0.0
  0
VERTEX
  5
C25D
100
AcDbEntity
  8
ALPHA
100
AcDbVertex
100
AcDb2dVertex
 10
82.669089
 20
88.542296
 30
0.0
  0
VERTEX
  5
C25E
100
AcDbEntity
  8
ALPHA
100
AcDbVertex
100
AcDb2dVertex
 10
82.669089
 20
85.809029
 30
0.0
  0
VERTEX
  5
C25F
100
AcDbEntity
  8
ALPHA
100
AcDbVertex
100
AcDb2dVertex
 10
82.670143
 20
83.075663
 30
0.0
  0
SEQEND
  5
C260
100
AcDbEntity
  8
ALPHA
  0
POLYLINE
  5
BED2
100
AcDbEntity
  8
ALPHA
100
AcDb2dPolyline
 66
     1
 10
0.0
 20
0.0
 30
0.0
  0
VERTEX
  5
C261
100
AcDbEntity
  8
ALPHA
100
AcDbVertex
100
AcDb2dVertex
 10
82.173795
 20
83.575663
 30
0.0
  0
VERTEX
  5
C262
100
AcDbEntity
  8
ALPHA
100
AcDbVertex
100
AcDb2dVertex
 10
82.172987
 20
85.975675
 30
0.0
  0
VERTEX
  5
C263
100
AcDbEntity
  8
ALPHA
100
AcDbVertex
100
AcDb2dVertex
 10
82.172987
 20
88.375651
 30
0.0
  0
VERTEX
  5
C264
100
AcDbEntity
  8
ALPHA
100
AcDbVertex
100
AcDb2dVertex
 10
82.173795
 20
90.775663
 30
0.0
  0
SEQEND
  5
C265
100
AcDbEntity
  8
ALPHA
  0
POLYLINE
  5
BED3
100
AcDbEntity
  8
TEXTE
100
AcDb2dPolyline
 66
     1
 10
0.0
 20
0.0
 30
0.0
  0
VERTEX
  5
C266
100
AcDbEntity
  8
TEXTE
100
AcDbVertex
100
AcDb2dVertex
 10
92.104666
 20
82.675663
 30
0.0
  0
VERTEX
  5
C267
100
AcDbEntity
  8
TEXTE
100
AcDbVertex
100
AcDb2dVertex
 10
91.926492
 20
83.179889
 30
0.0
  0
VERTEX
  5
C268
100
AcDbEntity
  8
TEXTE
100
AcDbVertex
100
AcDb2dVertex
 10
91.747675
 20
83.685969
 30
0.0
  0
VERTEX
  5
C269
100
AcDbEntity
  8
TEXTE
100
AcDbVertex
100
AcDb2dVertex
 10
91.568213
 20
84.193905
 30
0.0
  0
SEQEND
  5
C26A
100
AcDbEntity
  8
TEXTE
  0
LINE
  5
BED4
100
AcDbEntity
  8
TEXTE
100
AcDbLine
 10
91.155192
 20
86.175663
 30
0.0
 11
92.233461
 21
83.196939
 31
0.0
  0
POLYLINE
  5
BED5
100
AcDbEntity
  8
ALPHA
100
AcDb2dPolyline
 66
     1
 10
0.0
 20
0.0
 30
0.0
  0
VERTEX
  5
C26B
100
AcDbEntity
  8
ALPHA
100
AcDbVertex
100
AcDb2dVertex
 10
67.466603
 20
55.83083
 30
0.0
  0
VERTEX
  5
C26C
100
AcDbEntity
  8
ALPHA
100
AcDbVertex
100
AcDb2dVertex
 10
69.229849
 20
55.465372
 30
0.0
  0
VERTEX
  5
C26D
100
AcDbEntity
  8
ALPHA
100
AcDbVertex
100
AcDb2dVertex
 10
70.900541
 20
54.760291
 30
0.0
  0
VERTEX
  5
C26E
100
AcDbEntity
  8
ALPHA
100
AcDbVertex
100
AcDb2dVertex
 10
72.420747
 20
53.732168
 30
0.0
  0
VERTEX
  5
C26F
100
AcDbEntity
  8
ALPHA
100
AcDbVertex
100
AcDb2dVertex
 10
73.722517
 20
52.411029
 30
0.0
  0
VERTEX
  5
C270
100
AcDbEntity
  8
ALPHA
100
AcDbVertex
100
AcDb2dVertex
 10
74.735643
 20
50.872506
 30
0.0
  0
VERTEX
  5
C271
100
AcDbEntity
  8
ALPHA
100
AcDbVertex
100
AcDb2dVertex
 10
75.43477
 20
49.158542
 30
0.0
  0
VERTEX
  5
C272
100
AcDbEntity
  8
ALPHA
100
AcDbVertex
100
AcDb2dVertex
 10
75.794577
 20
47.375663
 30
0.0
  0
SEQEND
  5
C273
100
AcDbEntity
  8
ALPHA
  0
POLYLINE
  5
BED6
100
AcDbEntity
  8
ALPHA
100
AcDb2dPolyline
 66
     1
 10
0.0
 20
0.0
 30
0.0
  0
VERTEX
  5
C274
100
AcDbEntity
  8
ALPHA
100
AcDbVertex
100
AcDb2dVertex
 10
67.466603
 20
56.325436
 30
0.0
  0
VERTEX
  5
C275
100
AcDbEntity
  8
ALPHA
100
AcDbVertex
100
AcDb2dVertex
 10
69.137746
 20
56.012267
 30
0.0
  0
VERTEX
  5
C276
100
AcDbEntity
  8
ALPHA
100
AcDbVertex
100
AcDb2dVertex
 10
70.744823
 20
55.414472
 30
0.0
  0
VERTEX
  5
C277
100
AcDbEntity
  8
ALPHA
100
AcDbVertex
100
AcDb2dVertex
 10
72.227157
 20
54.549422
 30
0.0
  0
VERTEX
  5
C278
100
AcDbEntity
  8
ALPHA
100
AcDbVertex
100
AcDb2dVertex
 10
73.544214
 20
53.440531
 30
0.0
  0
VERTEX
  5
C279
100
AcDbEntity
  8
ALPHA
100
AcDbVertex
100
AcDb2dVertex
 10
74.650527
 20
52.121664
 30
0.0
  0
VERTEX
  5
C27A
100
AcDbEntity
  8
ALPHA
100
AcDbVertex
100
AcDb2dVertex
 10
75.51323
 20
50.63774
 30
0.0
  0
VERTEX
  5
C27B
100
AcDbEntity
  8
ALPHA
100
AcDbVertex
100
AcDb2dVertex
 10
76.107749
 20
49.02864
 30
0.0
  0
VERTEX
  5
C27C
100
AcDbEntity
  8
ALPHA
100
AcDbVertex
100
AcDb2dVertex
 10
76.416884
 20
47.375663
 30
0.0
  0
SEQEND
  5
C27D
100
AcDbEntity
  8
ALPHA
  0
ARC
  5
BED8
100
AcDbEntity
  8
ALPHA
100
AcDbCircle
 10
69.216603
 20
38.875663
 30
0.0
 40
0.75
100
AcDbArc
 50
270.0
 51
90.000004
  0
LINE
  5
BED9
100
AcDbEntity
  8
ALPHA
100
AcDbLine
 10
67.466603
 20
55.83083
 30
0.0
 11
67.466603
 21
56.827935
 31
0.0
  0
POLYLINE
  5
BEDA
100
AcDbEntity
  8
ALPHA
100
AcDb2dPolyline
 66
     1
 10
0.0
 20
0.0
 30
0.0
  0
VERTEX
  5
C27E
100
AcDbEntity
  8
ALPHA
100
AcDbVertex
100
AcDb2dVertex
 10
75.794579
 20
45.375663
 30
0.0
  0
VERTEX
  5
C27F
100
AcDbEntity
  8
ALPHA
100
AcDbVertex
100
AcDb2dVertex
 10
75.868943
 20
46.040867
 30
0.0
  0
VERTEX
  5
C280
100
AcDbEntity
  8
ALPHA
100
AcDbVertex
100
AcDb2dVertex
 10
75.868898
 20
46.711292
 30
0.0
  0
VERTEX
  5
C281
100
AcDbEntity
  8
ALPHA
100
AcDbVertex
100
AcDb2dVertex
 10
75.794577
 20
47.375663
 30
0.0
  0
SEQEND
  5
C282
100
AcDbEntity
  8
ALPHA
  0
LINE
  5
BEDB
100
AcDbEntity
  8
ALPHA
100
AcDbLine
 10
75.787595
 20
47.375663
 30
0.0
 11
76.918875
 21
47.375663
 31
0.0
  0
LINE
  5
BEDC
100
AcDbEntity
  8
ALPHA
100
AcDbLine
 10
76.918875
 20
45.375663
 30
0.0
 11
75.787603
 21
45.375663
 31
0.0
  0
POLYLINE
  5
BEDD
100
AcDbEntity
  8
ALPHA
100
AcDb2dPolyline
 66
     1
 10
0.0
 20
0.0
 30
0.0
  0
VERTEX
  5
C283
100
AcDbEntity
  8
ALPHA
100
AcDbVertex
100
AcDb2dVertex
 10
73.729609
 20
76.675663
 30
0.0
  0
VERTEX
  5
C284
100
AcDbEntity
  8
ALPHA
100
AcDbVertex
100
AcDb2dVertex
 10
73.73294
 20
76.678776
 30
0.0
  0
VERTEX
  5
C285
100
AcDbEntity
  8
ALPHA
100
AcDbVertex
100
AcDb2dVertex
 10
73.736246
 20
76.688065
 30
0.0
  0
SEQEND
  5
C286
100
AcDbEntity
  8
ALPHA
  0
LINE
  5
BEDE
100
AcDbEntity
  8
ALPHA
100
AcDbLine
 10
73.687133
 20
76.675663
 30
0.0
 11
73.686694
 21
76.688065
 31
0.0
  0
LINE
  5
BEDF
100
AcDbEntity
  8
TEXTE
100
AcDbLine
 10
85.234924
 20
83.345876
 30
0.0
 11
85.364974
 21
83.196939
 31
0.0
  0
LINE
  5
BEE0
100
AcDbEntity
  8
TEXTE
100
AcDbLine
 10
85.538566
 20
82.675663
 30
0.0
 11
85.321928
 21
82.750131
 31
0.0
  0
LINE
  5
BEE1
100
AcDbEntity
  8
TEXTE
100
AcDbLine
 10
84.888213
 20
83.494812
 30
0.0
 11
84.844688
 21
83.867152
 31
0.0
  0
LINE
  5
BEE2
100
AcDbEntity
  8
TEXTE
100
AcDbLine
 10
85.104675
 20
83.867152
 30
0.0
 11
85.148153
 21
83.56928
 31
0.0
  0
LINE
  5
BEE3
100
AcDbEntity
  8
TEXTE
100
AcDbLine
 10
84.975044
 20
83.196939
 30
0.0
 11
84.888213
 21
83.494812
 31
0.0
  0
LINE
  5
BEE4
100
AcDbEntity
  8
TEXTE
100
AcDbLine
 10
85.148153
 20
83.56928
 30
0.0
 11
85.234924
 21
83.345876
 31
0.0
  0
LINE
  5
BEE5
100
AcDbEntity
  8
TEXTE
100
AcDbLine
 10
85.14854
 20
82.899067
 30
0.0
 11
84.975044
 21
83.196939
 31
0.0
  0
LINE
  5
BEE6
100
AcDbEntity
  8
TEXTE
100
AcDbLine
 10
85.321928
 20
82.750131
 30
0.0
 11
85.14854
 21
82.899067
 31
0.0
  0
LINE
  5
BEE7
100
AcDbEntity
  8
TEXTE
100
AcDbLine
 10
86.101491
 20
82.750131
 30
0.0
 11
85.885039
 21
82.675663
 31
0.0
  0
LINE
  5
BEE8
100
AcDbEntity
  8
TEXTE
100
AcDbLine
 10
85.884756
 20
83.122472
 30
0.0
 11
86.057913
 21
83.196939
 31
0.0
  0
LINE
  5
BEE9
100
AcDbEntity
  8
TEXTE
100
AcDbLine
 10
86.274569
 20
82.899067
 30
0.0
 11
86.101491
 21
82.750131
 31
0.0
  0
LINE
  5
BEEA
100
AcDbEntity
  8
TEXTE
100
AcDbLine
 10
86.057913
 20
83.196939
 30
0.0
 11
86.187715
 21
83.345876
 31
0.0
  0
LINE
  5
BEEB
100
AcDbEntity
  8
TEXTE
100
AcDbLine
 10
86.44754
 20
83.196939
 30
0.0
 11
86.274569
 21
82.899067
 31
0.0
  0
LINE
  5
BEEC
100
AcDbEntity
  8
TEXTE
100
AcDbLine
 10
86.187715
 20
83.345876
 30
0.0
 11
86.274175
 21
83.56928
 31
0.0
  0
LINE
  5
BEED
100
AcDbEntity
  8
TEXTE
100
AcDbLine
 10
86.533937
 20
83.494812
 30
0.0
 11
86.44754
 21
83.196939
 31
0.0
  0
LINE
  5
BEEE
100
AcDbEntity
  8
TEXTE
100
AcDbLine
 10
86.274175
 20
83.56928
 30
0.0
 11
86.317312
 21
83.867152
 31
0.0
  0
LINE
  5
BEEF
100
AcDbEntity
  8
TEXTE
100
AcDbLine
 10
86.577022
 20
83.867152
 30
0.0
 11
86.533937
 21
83.494812
 31
0.0
  0
POLYLINE
  5
BEF0
100
AcDbEntity
  8
TEXTE
100
AcDb2dPolyline
 66
     1
 10
0.0
 20
0.0
 30
0.0
  0
VERTEX
  5
C287
100
AcDbEntity
  8
TEXTE
100
AcDbVertex
100
AcDb2dVertex
 10
87.182892
 20
83.71829
 30
0.0
  0
VERTEX
  5
C288
100
AcDbEntity
  8
TEXTE
100
AcDbVertex
100
AcDb2dVertex
 10
87.183034
 20
83.457659
 30
0.0
  0
VERTEX
  5
C289
100
AcDbEntity
  8
TEXTE
100
AcDbVertex
100
AcDb2dVertex
 10
87.183187
 20
83.197009
 30
0.0
  0
VERTEX
  5
C28A
100
AcDbEntity
  8
TEXTE
100
AcDbVertex
100
AcDb2dVertex
 10
87.183522
 20
82.675663
 30
0.0
  0
SEQEND
  5
C28B
100
AcDbEntity
  8
TEXTE
  0
POLYLINE
  5
BEF1
100
AcDbEntity
  8
TEXTE
100
AcDb2dPolyline
 66
     1
 10
0.0
 20
0.0
 30
0.0
  0
VERTEX
  5
C28C
100
AcDbEntity
  8
TEXTE
100
AcDbVertex
100
AcDb2dVertex
 10
86.923927
 20
82.675663
 30
0.0
  0
VERTEX
  5
C28D
100
AcDbEntity
  8
TEXTE
100
AcDbVertex
100
AcDb2dVertex
 10
86.923674
 20
83.064653
 30
0.0
  0
VERTEX
  5
C28E
100
AcDbEntity
  8
TEXTE
100
AcDbVertex
100
AcDb2dVertex
 10
86.923444
 20
83.453621
 30
0.0
  0
SEQEND
  5
C28F
100
AcDbEntity
  8
TEXTE
  0
LINE
  5
BEF2
100
AcDbEntity
  8
TEXTE
100
AcDbLine
 10
85.364974
 20
83.196939
 30
0.0
 11
85.538284
 21
83.122472
 31
0.0
  0
LINE
  5
BEF3
100
AcDbEntity
  8
TEXTE
100
AcDbLine
 10
85.538284
 20
83.122472
 30
0.0
 11
85.884756
 21
83.122472
 31
0.0
  0
LINE
  5
BEF4
100
AcDbEntity
  8
TEXTE
100
AcDbLine
 10
85.885039
 20
82.675663
 30
0.0
 11
85.538566
 21
82.675663
 31
0.0
  0
LINE
  5
BEF5
100
AcDbEntity
  8
TEXTE
100
AcDbLine
 10
87.183522
 20
82.675663
 30
0.0
 11
86.923927
 21
82.675663
 31
0.0
  0
LINE
  5
BEF6
100
AcDbEntity
  8
TEXTE
100
AcDbLine
 10
89.128439
 20
83.122472
 30
0.0
 11
90.423397
 21
83.122472
 31
0.0
  0
LINE
  5
BEF7
100
AcDbEntity
  8
TEXTE
100
AcDbLine
 10
90.42371
 20
82.675663
 30
0.0
 11
88.869563
 21
82.675663
 31
0.0
  0
POLYLINE
  5
BEF8
100
AcDbEntity
  8
TEXTE
100
AcDb2dPolyline
 66
     1
 10
0.0
 20
0.0
 30
0.0
  0
VERTEX
  5
C290
100
AcDbEntity
  8
TEXTE
100
AcDbVertex
100
AcDb2dVertex
 10
88.869564
 20
82.675663
 30
0.0
  0
VERTEX
  5
C291
100
AcDbEntity
  8
TEXTE
100
AcDbVertex
100
AcDb2dVertex
 10
88.86906
 20
83.453732
 30
0.0
  0
VERTEX
  5
C292
100
AcDbEntity
  8
TEXTE
100
AcDbVertex
100
AcDb2dVertex
 10
88.868844
 20
83.842714
 30
0.0
  0
SEQEND
  5
C293
100
AcDbEntity
  8
TEXTE
  0
POLYLINE
  5
BEF9
100
AcDbEntity
  8
TEXTE
100
AcDb2dPolyline
 66
     1
 10
0.0
 20
0.0
 30
0.0
  0
VERTEX
  5
C294
100
AcDbEntity
  8
TEXTE
100
AcDbVertex
100
AcDb2dVertex
 10
90.768763
 20
82.675663
 30
0.0
  0
VERTEX
  5
C295
100
AcDbEntity
  8
TEXTE
100
AcDbVertex
100
AcDb2dVertex
 10
90.768234
 20
83.453875
 30
0.0
  0
VERTEX
  5
C296
100
AcDbEntity
  8
TEXTE
100
AcDbVertex
100
AcDb2dVertex
 10
90.768007
 20
83.842898
 30
0.0
  0
SEQEND
  5
C297
100
AcDbEntity
  8
TEXTE
  0
LINE
  5
BEFA
100
AcDbEntity
  8
TEXTE
100
AcDbLine
 10
91.027228
 20
83.015114
 30
0.0
 11
91.027472
 21
82.675663
 31
0.0
  0
LINE
  5
BEFB
100
AcDbEntity
  8
TEXTE
100
AcDbLine
 10
90.423397
 20
83.122472
 30
0.0
 11
90.42371
 21
82.675663
 31
0.0
  0
LINE
  5
BEFC
100
AcDbEntity
  8
TEXTE
100
AcDbLine
 10
91.027473
 20
82.675663
 30
0.0
 11
90.768764
 21
82.675663
 31
0.0
  0
LINE
  5
BEFD
100
AcDbEntity
  8
TEXTE
100
AcDbLine
 10
92.491846
 20
83.064882
 30
0.0
 11
92.492138
 21
82.675663
 31
0.0
  0
LINE
  5
BEFE
100
AcDbEntity
  8
TEXTE
100
AcDbLine
 10
92.492138
 20
82.675663
 30
0.0
 11
92.104666
 21
82.675663
 31
0.0
  0
POLYLINE
  5
BEFF
100
AcDbEntity
  8
ALPHA
100
AcDb2dPolyline
 66
     1
 10
0.0
 20
0.0
 30
0.0
  0
VERTEX
  5
C298
100
AcDbEntity
  8
ALPHA
100
AcDbVertex
100
AcDb2dVertex
 10
93.929981
 20
90.175663
 30
0.0
  0
VERTEX
  5
C299
100
AcDbEntity
  8
ALPHA
100
AcDbVertex
100
AcDb2dVertex
 10
92.687383
 20
89.385877
 30
0.0
  0
VERTEX
  5
C29A
100
AcDbEntity
  8
ALPHA
100
AcDbVertex
100
AcDb2dVertex
 10
91.374188
 20
88.552394
 30
0.0
  0
VERTEX
  5
C29B
100
AcDbEntity
  8
ALPHA
100
AcDbVertex
100
AcDb2dVertex
 10
89.991037
 20
87.675663
 30
0.0
  0
SEQEND
  5
C29C
100
AcDbEntity
  8
ALPHA
  0
POLYLINE
  5
BF00
100
AcDbEntity
  8
TEXTE
100
AcDb2dPolyline
 66
     1
 10
0.0
 20
0.0
 30
0.0
  0
VERTEX
  5
C29D
100
AcDbEntity
  8
TEXTE
100
AcDbVertex
100
AcDb2dVertex
 10
91.568213
 20
84.193905
 30
0.0
  0
VERTEX
  5
C29E
100
AcDbEntity
  8
TEXTE
100
AcDbVertex
100
AcDb2dVertex
 10
91.207356
 20
85.215347
 30
0.0
  0
VERTEX
  5
C29F
100
AcDbEntity
  8
TEXTE
100
AcDbVertex
100
AcDb2dVertex
 10
91.02596
 20
85.728854
 30
0.0
  0
SEQEND
  5
C2A0
100
AcDbEntity
  8
TEXTE
  0
POLYLINE
  5
BF01
100
AcDbEntity
  8
ALPHA
100
AcDb2dPolyline
 66
     1
 10
0.0
 20
0.0
 30
0.0
  0
VERTEX
  5
C2A1
100
AcDbEntity
  8
ALPHA
100
AcDbVertex
100
AcDb2dVertex
 10
89.99346
 20
92.675663
 30
0.0
  0
VERTEX
  5
C2A2
100
AcDbEntity
  8
ALPHA
100
AcDbVertex
100
AcDb2dVertex
 10
91.378246
 20
91.797393
 30
0.0
  0
VERTEX
  5
C2A3
100
AcDbEntity
  8
ALPHA
100
AcDbVertex
100
AcDb2dVertex
 10
92.690552
 20
90.963961
 30
0.0
  0
VERTEX
  5
C2A4
100
AcDbEntity
  8
ALPHA
100
AcDbVertex
100
AcDb2dVertex
 10
93.929981
 20
90.175663
 30
0.0
  0
SEQEND
  5
C2A5
100
AcDbEntity
  8
ALPHA
  0
LINE
  5
BF02
100
AcDbEntity
  8
ALPHA
100
AcDbLine
 10
89.992153
 20
90.925663
 30
0.0
 11
84.05815
 21
90.925663
 31
0.0
  0
LINE
  5
BF03
100
AcDbEntity
  8
ALPHA
100
AcDbLine
 10
89.991426
 20
89.425663
 30
0.0
 11
84.057503
 21
89.425663
 31
0.0
  0
LINE
  5
BF04
100
AcDbEntity
  8
TEXTE
100
AcDbLine
 10
86.922473
 20
86.175663
 30
0.0
 11
87.960502
 21
86.175663
 31
0.0
  0
LINE
  5
BF05
100
AcDbEntity
  8
TEXTE
100
AcDbLine
 10
88.0038
 20
85.803323
 30
0.0
 11
87.182127
 21
85.803323
 31
0.0
  0
LINE
  5
BF06
100
AcDbEntity
  8
TEXTE
100
AcDbLine
 10
87.182455
 20
84.686301
 30
0.0
 11
88.004134
 21
84.686301
 31
0.0
  0
LINE
  5
BF07
100
AcDbEntity
  8
TEXTE
100
AcDbLine
 10
87.96109
 20
84.239492
 30
0.0
 11
87.182639
 21
84.239492
 31
0.0
  0
POLYLINE
  5
BF08
100
AcDbEntity
  8
ALPHA
100
AcDb2dPolyline
 66
     1
 10
0.0
 20
0.0
 30
0.0
  0
VERTEX
  5
C2A6
100
AcDbEntity
  8
ALPHA
100
AcDbVertex
100
AcDb2dVertex
 10
84.057503
 20
89.425663
 30
0.0
  0
VERTEX
  5
C2A7
100
AcDbEntity
  8
ALPHA
100
AcDbVertex
100
AcDb2dVertex
 10
84.057898
 20
90.425644
 30
0.0
  0
VERTEX
  5
C2A8
100
AcDbEntity
  8
ALPHA
100
AcDbVertex
100
AcDb2dVertex
 10
84.05815
 20
90.925663
 30
0.0
  0
SEQEND
  5
C2A9
100
AcDbEntity
  8
ALPHA
  0
LINE
  5
BF09
100
AcDbEntity
  8
TEXTE
100
AcDbLine
 10
85.320576
 20
86.101195
 30
0.0
 11
85.537148
 21
86.175663
 31
0.0
  0
LINE
  5
BF0A
100
AcDbEntity
  8
TEXTE
100
AcDbLine
 10
85.363981
 20
85.654386
 30
0.0
 11
85.234053
 21
85.50545
 31
0.0
  0
LINE
  5
BF0B
100
AcDbEntity
  8
TEXTE
100
AcDbLine
 10
85.147311
 20
85.952259
 30
0.0
 11
85.320576
 21
86.101195
 31
0.0
  0
LINE
  5
BF0C
100
AcDbEntity
  8
TEXTE
100
AcDbLine
 10
84.974058
 20
85.654386
 30
0.0
 11
85.147311
 21
85.952259
 31
0.0
  0
LINE
  5
BF0D
100
AcDbEntity
  8
TEXTE
100
AcDbLine
 10
85.234053
 20
85.50545
 30
0.0
 11
85.147464
 21
85.282046
 31
0.0
  0
LINE
  5
BF0E
100
AcDbEntity
  8
TEXTE
100
AcDbLine
 10
84.887467
 20
85.356514
 30
0.0
 11
84.974058
 21
85.654386
 31
0.0
  0
LINE
  5
BF0F
100
AcDbEntity
  8
TEXTE
100
AcDbLine
 10
85.147464
 20
85.282046
 30
0.0
 11
85.104226
 21
84.984174
 31
0.0
  0
LINE
  5
BF10
100
AcDbEntity
  8
TEXTE
100
AcDbLine
 10
84.844241
 20
84.984174
 30
0.0
 11
84.887467
 21
85.356514
 31
0.0
  0
LINE
  5
BF11
100
AcDbEntity
  8
TEXTE
100
AcDbLine
 10
85.537229
 20
85.728854
 30
0.0
 11
85.363981
 21
85.654386
 31
0.0
  0
LINE
  5
BF12
100
AcDbEntity
  8
TEXTE
100
AcDbLine
 10
87.182128
 20
85.803323
 30
0.0
 11
87.182455
 21
84.686301
 31
0.0
  0
POLYLINE
  5
BF13
100
AcDbEntity
  8
TEXTE
100
AcDb2dPolyline
 66
     1
 10
0.0
 20
0.0
 30
0.0
  0
VERTEX
  5
C2AA
100
AcDbEntity
  8
TEXTE
100
AcDbVertex
100
AcDb2dVertex
 10
86.922891
 20
84.620408
 30
0.0
  0
VERTEX
  5
C2AB
100
AcDbEntity
  8
TEXTE
100
AcDbVertex
100
AcDb2dVertex
 10
86.922636
 20
85.398113
 30
0.0
  0
VERTEX
  5
C2AC
100
AcDbEntity
  8
TEXTE
100
AcDbVertex
100
AcDb2dVertex
 10
86.922543
 20
85.786906
 30
0.0
  0
VERTEX
  5
C2AD
100
AcDbEntity
  8
TEXTE
100
AcDbVertex
100
AcDb2dVertex
 10
86.922473
 20
86.175663
 30
0.0
  0
SEQEND
  5
C2AE
100
AcDbEntity
  8
TEXTE
  0
LINE
  5
BF14
100
AcDbEntity
  8
TEXTE
100
AcDbLine
 10
86.533169
 20
85.356514
 30
0.0
 11
86.576561
 21
84.984174
 31
0.0
  0
LINE
  5
BF15
100
AcDbEntity
  8
TEXTE
100
AcDbLine
 10
86.316853
 20
84.984174
 30
0.0
 11
86.273472
 21
85.282046
 31
0.0
  0
LINE
  5
BF16
100
AcDbEntity
  8
TEXTE
100
AcDbLine
 10
86.446528
 20
85.654386
 30
0.0
 11
86.533169
 21
85.356514
 31
0.0
  0
LINE
  5
BF17
100
AcDbEntity
  8
TEXTE
100
AcDbLine
 10
86.273472
 20
85.282046
 30
0.0
 11
86.18683
 21
85.50545
 31
0.0
  0
LINE
  5
BF18
100
AcDbEntity
  8
TEXTE
100
AcDbLine
 10
86.273316
 20
85.952259
 30
0.0
 11
86.446528
 21
85.654386
 31
0.0
  0
LINE
  5
BF19
100
AcDbEntity
  8
TEXTE
100
AcDbLine
 10
86.18683
 20
85.50545
 30
0.0
 11
86.056909
 21
85.654386
 31
0.0
  0
LINE
  5
BF1A
100
AcDbEntity
  8
TEXTE
100
AcDbLine
 10
86.10012
 20
86.101195
 30
0.0
 11
86.273316
 21
85.952259
 31
0.0
  0
LINE
  5
BF1B
100
AcDbEntity
  8
TEXTE
100
AcDbLine
 10
86.056909
 20
85.654386
 30
0.0
 11
85.883693
 21
85.728854
 31
0.0
  0
LINE
  5
BF1C
100
AcDbEntity
  8
TEXTE
100
AcDbLine
 10
85.883612
 20
86.175663
 30
0.0
 11
86.10012
 21
86.101195
 31
0.0
  0
LINE
  5
BF1D
100
AcDbEntity
  8
TEXTE
100
AcDbLine
 10
85.537148
 20
86.175663
 30
0.0
 11
85.883613
 21
86.175663
 31
0.0
  0
LINE
  5
BF1E
100
AcDbEntity
  8
TEXTE
100
AcDbLine
 10
85.883694
 20
85.728854
 30
0.0
 11
85.537229
 21
85.728854
 31
0.0
  0
LINE
  5
BF1F
100
AcDbEntity
  8
TEXTE
100
AcDbLine
 10
88.868047
 20
86.175663
 30
0.0
 11
90.422133
 21
86.175663
 31
0.0
  0
LINE
  5
BF20
100
AcDbEntity
  8
TEXTE
100
AcDbLine
 10
90.422224
 20
85.728854
 30
0.0
 11
89.127305
 21
85.728854
 31
0.0
  0
LINE
  5
BF21
100
AcDbEntity
  8
TEXTE
100
AcDbLine
 10
89.127599
 20
84.76077
 30
0.0
 11
90.249962
 21
84.76077
 31
0.0
  0
LINE
  5
BF22
100
AcDbEntity
  8
TEXTE
100
AcDbLine
 10
90.250155
 20
84.313961
 30
0.0
 11
89.127787
 21
84.313961
 31
0.0
  0
LINE
  5
BF23
100
AcDbEntity
  8
TEXTE
100
AcDbLine
 10
88.177205
 20
84.313961
 30
0.0
 11
87.96109
 21
84.239492
 31
0.0
  0
LINE
  5
BF24
100
AcDbEntity
  8
TEXTE
100
AcDbLine
 10
88.004134
 20
84.686301
 30
0.0
 11
88.133795
 21
84.76077
 31
0.0
  0
LINE
  5
BF25
100
AcDbEntity
  8
TEXTE
100
AcDbLine
 10
88.349999
 20
84.537365
 30
0.0
 11
88.177205
 21
84.313961
 31
0.0
  0
LINE
  5
BF26
100
AcDbEntity
  8
TEXTE
100
AcDbLine
 10
88.133795
 20
84.76077
 30
0.0
 11
88.220192
 21
84.909705
 31
0.0
  0
LINE
  5
BF27
100
AcDbEntity
  8
TEXTE
100
AcDbLine
 10
88.479535
 20
84.835237
 30
0.0
 11
88.349999
 21
84.537365
 31
0.0
  0
LINE
  5
BF28
100
AcDbEntity
  8
TEXTE
100
AcDbLine
 10
88.52267
 20
85.058641
 30
0.0
 11
88.479535
 21
84.835237
 31
0.0
  0
LINE
  5
BF29
100
AcDbEntity
  8
TEXTE
100
AcDbLine
 10
88.220192
 20
84.909705
 30
0.0
 11
88.263341
 21
85.13311
 31
0.0
  0
POLYLINE
  5
BF2A
100
AcDbEntity
  8
TEXTE
100
AcDb2dPolyline
 66
     1
 10
0.0
 20
0.0
 30
0.0
  0
VERTEX
  5
C2AF
100
AcDbEntity
  8
TEXTE
100
AcDbVertex
100
AcDb2dVertex
 10
88.868339
 20
85.009428
 30
0.0
  0
VERTEX
  5
C2B0
100
AcDbEntity
  8
TEXTE
100
AcDbVertex
100
AcDb2dVertex
 10
88.868121
 20
85.786972
 30
0.0
  0
VERTEX
  5
C2B1
100
AcDbEntity
  8
TEXTE
100
AcDbVertex
100
AcDb2dVertex
 10
88.868048
 20
86.175663
 30
0.0
  0
SEQEND
  5
C2B2
100
AcDbEntity
  8
TEXTE
  0
LINE
  5
BF2B
100
AcDbEntity
  8
TEXTE
100
AcDbLine
 10
88.263341
 20
85.13311
 30
0.0
 11
88.263274
 21
85.356514
 31
0.0
  0
LINE
  5
BF2C
100
AcDbEntity
  8
TEXTE
100
AcDbLine
 10
89.127303
 20
85.728854
 30
0.0
 11
89.1276
 21
84.76077
 31
0.0
  0
LINE
  5
BF2D
100
AcDbEntity
  8
TEXTE
100
AcDbLine
 10
88.522578
 20
85.356514
 30
0.0
 11
88.52267
 21
85.058641
 31
0.0
  0
LINE
  5
BF2E
100
AcDbEntity
  8
TEXTE
100
AcDbLine
 10
88.479306
 20
85.579918
 30
0.0
 11
88.522578
 21
85.356514
 31
0.0
  0
LINE
  5
BF2F
100
AcDbEntity
  8
TEXTE
100
AcDbLine
 10
88.263274
 20
85.356514
 30
0.0
 11
88.219991
 21
85.579918
 31
0.0
  0
LINE
  5
BF30
100
AcDbEntity
  8
TEXTE
100
AcDbLine
 10
88.349589
 20
85.87779
 30
0.0
 11
88.479306
 21
85.579918
 31
0.0
  0
LINE
  5
BF31
100
AcDbEntity
  8
TEXTE
100
AcDbLine
 10
88.219991
 20
85.579918
 30
0.0
 11
88.133505
 21
85.728854
 31
0.0
  0
LINE
  5
BF32
100
AcDbEntity
  8
TEXTE
100
AcDbLine
 10
88.176659
 20
86.101195
 30
0.0
 11
88.349589
 21
85.87779
 31
0.0
  0
LINE
  5
BF33
100
AcDbEntity
  8
TEXTE
100
AcDbLine
 10
88.133505
 20
85.728854
 30
0.0
 11
88.003801
 21
85.803323
 31
0.0
  0
LINE
  5
BF34
100
AcDbEntity
  8
TEXTE
100
AcDbLine
 10
87.960502
 20
86.175663
 30
0.0
 11
88.176659
 21
86.101195
 31
0.0
  0
POLYLINE
  5
BF35
100
AcDbEntity
  8
ALPHA
100
AcDb2dPolyline
 66
     1
 10
0.0
 20
0.0
 30
0.0
  0
VERTEX
  5
C2B3
100
AcDbEntity
  8
ALPHA
100
AcDbVertex
100
AcDb2dVertex
 10
89.991037
 20
87.675663
 30
0.0
  0
VERTEX
  5
C2B4
100
AcDbEntity
  8
ALPHA
100
AcDbVertex
100
AcDb2dVertex
 10
89.991241
 20
88.842265
 30
0.0
  0
VERTEX
  5
C2B5
100
AcDbEntity
  8
ALPHA
100
AcDbVertex
100
AcDb2dVertex
 10
89.991426
 20
89.425663
 30
0.0
  0
SEQEND
  5
C2B6
100
AcDbEntity
  8
ALPHA
  0
LINE
  5
BF36
100
AcDbEntity
  8
TEXTE
100
AcDbLine
 10
91.02596
 20
85.728854
 30
0.0
 11
91.026162
 21
85.050772
 31
0.0
  0
POLYLINE
  5
BF37
100
AcDbEntity
  8
TEXTE
100
AcDb2dPolyline
 66
     1
 10
0.0
 20
0.0
 30
0.0
  0
VERTEX
  5
C2B7
100
AcDbEntity
  8
TEXTE
100
AcDbVertex
100
AcDb2dVertex
 10
90.767477
 20
85.009617
 30
0.0
  0
VERTEX
  5
C2B8
100
AcDbEntity
  8
TEXTE
100
AcDbVertex
100
AcDb2dVertex
 10
90.767248
 20
85.787057
 30
0.0
  0
VERTEX
  5
C2B9
100
AcDbEntity
  8
TEXTE
100
AcDbVertex
100
AcDb2dVertex
 10
90.767171
 20
86.175663
 30
0.0
  0
SEQEND
  5
C2BA
100
AcDbEntity
  8
TEXTE
  0
LINE
  5
BF38
100
AcDbEntity
  8
TEXTE
100
AcDbLine
 10
90.422133
 20
86.175663
 30
0.0
 11
90.422223
 21
85.728854
 31
0.0
  0
POLYLINE
  5
BF39
100
AcDbEntity
  8
TEXTE
100
AcDb2dPolyline
 66
     1
 10
0.0
 20
0.0
 30
0.0
  0
VERTEX
  5
C2BB
100
AcDbEntity
  8
TEXTE
100
AcDbVertex
100
AcDb2dVertex
 10
91.026162
 20
85.050772
 30
0.0
  0
VERTEX
  5
C2BC
100
AcDbEntity
  8
TEXTE
100
AcDbVertex
100
AcDb2dVertex
 10
91.026291
 20
84.711637
 30
0.0
  0
VERTEX
  5
C2BD
100
AcDbEntity
  8
TEXTE
100
AcDbVertex
100
AcDb2dVertex
 10
91.026608
 20
84.03318
 30
0.0
  0
SEQEND
  5
C2BE
100
AcDbEntity
  8
TEXTE
  0
LINE
  5
BF3A
100
AcDbEntity
  8
TEXTE
100
AcDbLine
 10
90.249963
 20
84.76077
 30
0.0
 11
90.250155
 21
84.313961
 31
0.0
  0
LINE
  5
BF3B
100
AcDbEntity
  8
TEXTE
100
AcDbLine
 10
90.767171
 20
86.175663
 30
0.0
 11
91.155192
 21
86.175663
 31
0.0
  0
POLYLINE
  5
BF3C
100
AcDbEntity
  8
ALPHA
100
AcDb2dPolyline
 66
     1
 10
0.0
 20
0.0
 30
0.0
  0
VERTEX
  5
C2BF
100
AcDbEntity
  8
ALPHA
100
AcDbVertex
100
AcDb2dVertex
 10
89.992153
 20
90.925663
 30
0.0
  0
VERTEX
  5
C2C0
100
AcDbEntity
  8
ALPHA
100
AcDbVertex
100
AcDb2dVertex
 10
89.992969
 20
92.092126
 30
0.0
  0
VERTEX
  5
C2C1
100
AcDbEntity
  8
ALPHA
100
AcDbVertex
100
AcDb2dVertex
 10
89.99346
 20
92.675663
 30
0.0
  0
SEQEND
  5
C2C2
100
AcDbEntity
  8
ALPHA
  0
POLYLINE
  5
BF3D
100
AcDbEntity
  8
TEXTE
100
AcDb2dPolyline
 66
     1
 10
0.0
 20
0.0
 30
0.0
  0
VERTEX
  5
C2C3
100
AcDbEntity
  8
TEXTE
100
AcDbVertex
100
AcDb2dVertex
 10
92.490459
 20
86.175663
 30
0.0
  0
VERTEX
  5
C2C4
100
AcDbEntity
  8
TEXTE
100
AcDbVertex
100
AcDb2dVertex
 10
92.49054
 20
85.787146
 30
0.0
  0
VERTEX
  5
C2C5
100
AcDbEntity
  8
TEXTE
100
AcDbVertex
100
AcDb2dVertex
 10
92.490781
 20
85.009815
 30
0.0
  0
SEQEND
  5
C2C6
100
AcDbEntity
  8
TEXTE
  0
POLYLINE
  5
BF3E
100
AcDbEntity
  8
TEXTE
100
AcDb2dPolyline
 66
     1
 10
0.0
 20
0.0
 30
0.0
  0
VERTEX
  5
C2C7
100
AcDbEntity
  8
TEXTE
100
AcDbVertex
100
AcDb2dVertex
 10
92.232435
 20
85.183288
 30
0.0
  0
VERTEX
  5
C2C8
100
AcDbEntity
  8
TEXTE
100
AcDbVertex
100
AcDb2dVertex
 10
92.232245
 20
85.844935
 30
0.0
  0
VERTEX
  5
C2C9
100
AcDbEntity
  8
TEXTE
100
AcDbVertex
100
AcDb2dVertex
 10
92.232179
 20
86.175663
 30
0.0
  0
SEQEND
  5
C2CA
100
AcDbEntity
  8
TEXTE
  0
LINE
  5
BF3F
100
AcDbEntity
  8
TEXTE
100
AcDbLine
 10
92.490781
 20
85.009815
 30
0.0
 11
92.491128
 21
84.232084
 31
0.0
  0
POLYLINE
  5
BF40
100
AcDbEntity
  8
TEXTE
100
AcDb2dPolyline
 66
     1
 10
0.0
 20
0.0
 30
0.0
  0
VERTEX
  5
C2CB
100
AcDbEntity
  8
TEXTE
100
AcDbVertex
100
AcDb2dVertex
 10
92.232863
 20
84.190344
 30
0.0
  0
VERTEX
  5
C2CC
100
AcDbEntity
  8
TEXTE
100
AcDbVertex
100
AcDb2dVertex
 10
92.232559
 20
84.852365
 30
0.0
  0
VERTEX
  5
C2CD
100
AcDbEntity
  8
TEXTE
100
AcDbVertex
100
AcDb2dVertex
 10
92.232435
 20
85.183288
 30
0.0
  0
SEQEND
  5
C2CE
100
AcDbEntity
  8
TEXTE
  0
LINE
  5
BF41
100
AcDbEntity
  8
TEXTE
100
AcDbLine
 10
92.232179
 20
86.175663
 30
0.0
 11
92.490459
 21
86.175663
 31
0.0
  0
ARC
  5
BF42
100
AcDbEntity
  8
ALPHA
100
AcDbCircle
 10
240.150978
 20
87.175663
 30
0.0
 40
135.984375
100
AcDbArc
 50
176.213228
 51
183.786772
  0
ARC
  5
BF43
100
AcDbEntity
  8
ALPHA
100
AcDbCircle
 10
103.041603
 20
78.100663
 30
0.0
 40
1.425
100
AcDbArc
 50
270.0
 51
3.786772
  0
ARC
  5
BF44
100
AcDbEntity
  8
ALPHA
100
AcDbCircle
 10
103.041603
 20
96.250663
 30
0.0
 40
1.425
100
AcDbArc
 50
356.213228
 51
90.0
  0
LINE
  5
BF45
100
AcDbEntity
  8
ALPHA
100
AcDbLine
 10
98.966603
 20
242.298289
 30
0.0
 11
98.966603
 21
207.875663
 31
0.0
  0
ARC
  5
BF46
100
AcDbEntity
  8
ALPHA
100
AcDbCircle
 10
138.961004
 20
200.375663
 30
0.0
 40
35.0
100
AcDbArc
 50
170.445784
 51
189.554216
  0
ARC
  5
BF47
100
AcDbEntity
  8
ALPHA
100
AcDbCircle
 10
103.016603
 20
194.325663
 30
0.0
 40
1.45
100
AcDbArc
 50
270.0
 51
9.554216
  0
ARC
  5
BF48
100
AcDbEntity
  8
ALPHA
100
AcDbCircle
 10
103.016603
 20
206.425663
 30
0.0
 40
1.45
100
AcDbArc
 50
350.445784
 51
90.0
  0
ARC
  5
BF49
100
AcDbEntity
  8
ALPHA
100
AcDbCircle
 10
66.466603
 20
213.250914
 30
0.0
 40
45.0
100
AcDbArc
 50
46.567463
 51
87.721378
  0
LINE
  5
BF4A
100
AcDbEntity
  8
ALPHA
100
AcDbLine
 10
68.255756
 20
258.215332
 30
0.0
 11
68.215997
 21
258.216123
 31
0.0
  0
ARC
  5
BF4B
100
AcDbEntity
  8
ALPHA
100
AcDbCircle
 10
93.966603
 20
242.298289
 30
0.0
 40
5.0
100
AcDbArc
 50
0.0
 51
46.567463
  0
DIMENSION
  5
BF70
100
AcDbEntity
  8
COTATION1
100
AcDbDimension
  2
*D3
 10
16.516603
 20
26.875663
 30
0.0
 11
16.516603
 21
36.625663
 31
0.0
 70
   160
  3
SC_DEFAUT
100
AcDbAlignedDimension
 13
50.966603
 23
46.375663
 33
0.0
 14
33.516603
 24
26.875663
 34
0.0
 50
90.0
100
AcDbRotatedDimension
  0
LINE
  5
BF71
100
AcDbEntity
  8
AXE
100
AcDbLine
 10
50.966603
 20
46.375663
 30
0.0
 11
81.966603
 21
46.375663
 31
0.0
  0
LEADER
  5
BF72
100
AcDbEntity
  8
COTATION1
100
AcDbLeader
  3
SC_DEFAUT
 73
     0
 74
     0
 75
     1
 40
2.5
 41
42.5
 76
     3
 10
76.275146
 20
50.119942
 30
0.0
 10
107.497464
 20
65.24735
 30
0.0
 10
112.497464
 20
65.24735
 30
0.0
 77
   256
340
BF73
213
0.0
223
-1.25
233
0.0
1001
ACAD
1000
DSTYLE
1002
{
1070
     5
1000
OPEN30
1070
   342
1005
7D0C
1002
}
1000
LEANOF
1010
0.0
1020
-1.25
1030
0.0
  0
MTEXT
  5
BF73
102
{ACAD_REACTORS
330
BF72
102
}
100
AcDbEntity
  8
TEXTE
100
AcDbMText
 10
114.497464
 20
70.99735
 30
0.0
 40
2.5
 41
0.0
 71
     1
 72
     1
  1
1 smashable hole %%c21
1001
ACAD
1000
MTEXTBEGIN
1070
    73
1070
     1
1070
    44
1040
1.0
1070
    74
1070
     0
1000
MTEXTEND
  0
TEXT
  5
BF89
100
AcDbEntity
  8
AXE
100
AcDbText
 10
58.990412
 20
11.883624
 30
0.0
 40
8.0
  1
Y
 72
     2
 11
65.466603
 21
11.883624
 31
0.0
100
AcDbText
  0
LINE
  5
BF8A
100
AcDbEntity
  8
AXE
100
AcDbLine
 10
66.466603
 20
11.883624
 30
0.0
 11
66.466603
 21
263.216123
 31
0.0
  0
LINE
  5
BFCC
100
AcDbEntity
  8
AXE
100
AcDbLine
 10
111.466603
 20
142.525663
 30
0.0
 11
18.177137
 21
142.525663
 31
0.0
  0
TEXT
  5
BFCD
100
AcDbEntity
  8
AXE
100
AcDbText
 10
18.69079
 20
143.525663
 30
0.0
 40
8.0
  1
X
 72
     2
 11
25.166981
 21
143.525663
 31
0.0
100
AcDbText
  0
VIEWPORT
  5
494D
102
{ACAD_XDICTIONARY
360
C04A
102
}
100
AcDbEntity
 67
     1
  8
0
100
AcDbViewport
 10
6.0
 20
4.5
 30
0.0
 40
13.37404
 41
9.064748
 68
    -1
 69
     1
1001
ACAD
1000
MVIEW
1002
{
1070
    16
1010
0.0
1020
0.0
1030
0.0
1010
0.0
1020
0.0
1030
1.0
1040
0.0
1040
9.064748
1040
6.0
1040
4.5
1040
50.0
1040
0.0
1040
0.0
1070
     0
1070
   100
1070
     1
1070
     1
1070
     0
1070
     0
1070
     0
1070
     0
1040
0.0
1040
0.0
1040
0.0
1040
10.0
1040
10.0
1040
10.0
1040
10.0
1070
     0
1002
{
1002
}
1002
}
  0
ENDSEC
  0
SECTION
  2
OBJECTS
  0
DICTIONARY
  5
7CF4
102
{ACAD_XDICTIONARY
360
C04C
102
}
100
AcDbDictionary
  3
ACAD_GROUP
350
7CF5
  3
ACAD_LAYOUT
350
7D01
  3
ACAD_MLINESTYLE
350
7CFE
  3
ACAD_PLOTSETTINGS
350
7D00
  3
ACAD_PLOTSTYLENAME
350
7CF6
  3
ACDBHEADERROUNDTRIPXREC
350
C029
  3
ACDBVARIABLEDICTIONARY
350
8048
  0
DICTIONARY
  5
C023
100
AcDbDictionary
  3
ACAD_XREC_ROUNDTRIP
360
C024
  0
DICTIONARY
  5
C025
100
AcDbDictionary
  3
ACAD_XREC_ROUNDTRIP
360
C026
  0
DICTIONARY
  5
C058
100
AcDbDictionary
  3
ACAD_XREC_ROUNDTRIP
360
C059
  0
DICTIONARY
  5
C054
100
AcDbDictionary
  3
ACAD_XREC_ROUNDTRIP
360
C055
  0
DICTIONARY
  5
C056
100
AcDbDictionary
  3
ACAD_XREC_ROUNDTRIP
360
C057
  0
DICTIONARY
  5
800F
100
AcDbDictionary
  3
ACAD_LAYOUTSELFREF
360
C053
  3
ACAD_XREC_ROUNDTRIP
360
C021
  0
DICTIONARY
  5
8011
100
AcDbDictionary
  3
ACAD_LAYOUTSELFREF
360
C052
  3
ACAD_XREC_ROUNDTRIP
360
C022
  0
DICTIONARY
  5
C04A
100
AcDbDictionary
  3
ACAD_XREC_ROUNDTRIP
360
C04B
  0
DICTIONARY
  5
C04C
100
AcDbDictionary
  3
ACAD_XREC_ROUNDTRIP
360
C04D
  0
DICTIONARY
  5
7CF5
102
{ACAD_REACTORS
330
7CF4
102
}
100
AcDbDictionary
  0
DICTIONARY
  5
7D01
102
{ACAD_XDICTIONARY
360
C050
102
}
102
{ACAD_REACTORS
330
7CF4
102
}
100
AcDbDictionary
  3
MODEL
350
7D09
  3
PRÉSENTATION1
350
7D05
  0
DICTIONARY
  5
7CFE
102
{ACAD_XDICTIONARY
360
C04E
102
}
102
{ACAD_REACTORS
330
7CF4
102
}
100
AcDbDictionary
  3
STANDARD
350
7CFF
  0
DICTIONARY
  5
7D00
102
{ACAD_REACTORS
330
7CF4
102
}
100
AcDbDictionary
  0
ACAD_ZOMBIE_OBJECT
  5
7CF6
102
{ACAD_REACTORS
330
7CF4
102
}
100
AcDbZombieObject
 90
      499
 91
      500
 93
       86
310
405010041939BDC9B585B0
350
7CF7
340
7CF7
 94
        0
  0
DICTIONARY
  5
C029
102
{ACAD_REACTORS
330
7CF4
102
}
100
AcDbDictionary
  3
CEPSNTYPE
350
C033
  3
DIMSTYLEDATA
350
C037
  3
FINGERPRINTGUID
350
C034
  3
HYPERLINKBASE
350
C02C
  3
INSUNITS
350
C032
  3
LAYOUTDICT
350
C02E
  3
LWETCUNION
350
C031
  3
PLOTSETDICT
350
C02F
  3
PLOTSTYLNAMDICT
350
C030
  3
PSVPSCALE
350
C036
  3
PUCSBASE
350
C03A
  3
PUCSORGBACK
350
C040
  3
PUCSORGBOTTOM
350
C03C
  3
PUCSORGFRONT
350
C03F
  3
PUCSORGLEFT
350
C03D
  3
PUCSORGRIGHT
350
C03E
  3
PUCSORGTOP
350
C03B
  3
PUCSORTHOREF
350
C038
  3
PUCSORTHOVIEW
350
C039
  3
STYLESHEET
350
C02D
  3
TSTACKALIGN
350
C02A
  3
TSTACKSIZE
350
C02B
  3
UCSBASE
350
C043
  3
UCSORGBACK
350
C049
  3
UCSORGBOTTOM
350
C045
  3
UCSORGFRONT
350
C048
  3
UCSORGLEFT
350
C046
  3
UCSORGRIGHT
350
C047
  3
UCSORGTOP
350
C044
  3
UCSORTHOREF
350
C041
  3
UCSORTHOVIEW
350
C042
  3
VERSIONGUID
350
C035
  0
DICTIONARY
  5
8048
102
{ACAD_REACTORS
330
7CF4
102
}
100
AcDbDictionary
  3
DIMASSOC
350
804A
  3
HIDETEXT
350
8049
  0
XRECORD
  5
C024
102
{ACAD_REACTORS
330
C023
102
}
100
AcDbXrecord
102
EXTNAMES
  1
BYBLOCK
  2
ByBlock
  0
XRECORD
  5
C026
102
{ACAD_REACTORS
330
C025
102
}
100
AcDbXrecord
102
EXTNAMES
  1
BYLAYER
  2
ByLayer
  0
XRECORD
  5
C059
102
{ACAD_REACTORS
330
C058
102
}
100
AcDbXrecord
102
PLOTBIT
280
     0
  0
XRECORD
  5
C055
102
{ACAD_REACTORS
330
C054
102
}
100
AcDbXrecord
102
ACADR14ROUNDTRIP
1000
DSTYLE
1002
{
1070
   279
 70
     2
1070
   341
340
7D0C
1070
   342
340
7D0C
1002
}
  0
XRECORD
  5
C057
102
{ACAD_REACTORS
330
C056
102
}
100
AcDbXrecord
102
ACADR14ROUNDTRIP
1000
DSTYLE
1002
{
1070
   279
 70
     2
1002
}
  0
XRECORD
  5
C053
102
{ACAD_REACTORS
330
800F
102
}
100
AcDbXrecord
340
7D06
  0
XRECORD
  5
C021
102
{ACAD_REACTORS
330
800F
102
}
100
AcDbXrecord
102
EXTNAMES
  1
*MODEL_SPACE
  2
*Model_Space
  0
XRECORD
  5
C052
102
{ACAD_REACTORS
330
8011
102
}
100
AcDbXrecord
340
7D02
  0
XRECORD
  5
C022
102
{ACAD_REACTORS
330
8011
102
}
100
AcDbXrecord
102
EXTNAMES
  1
*PAPER_SPACE
  2
*Paper_Space
  0
XRECORD
  5
C04B
102
{ACAD_REACTORS
330
C04A
102
}
100
AcDbXrecord
102
UCS
 74
     0
 71
     0
 10
0.0
 20
0.0
 30
0.0
 10
0.0
 20
0.0
 30
0.0
 10
0.0
 20
0.0
 30
0.0
146
0.0
 79
     0
102
VIEW
281
     0
102
NEWVIEWCONTROL
280
     4
  0
XRECORD
  5
C04D
102
{ACAD_REACTORS
330
C04C
102
}
100
AcDbXrecord
102
EXTNAMES
  1
ACDBVARIABLEDICTIONARY
  2
AcDbVariableDictionary
  0
DICTIONARY
  5
C050
100
AcDbDictionary
  3
ACAD_XREC_ROUNDTRIP
360
C051
  0
ACAD_ZOMBIE_OBJECT
  5
7D09
102
{ACAD_REACTORS
330
7D01
102
}
100
AcDbZombieObject
 90
      499
 91
      502
 93
      428
310
A2C01AAAAAAAAA5A69054D6F64656C901A800000000000000000000000000000000000000000000A1000000000000008902A6A6AAAA2
330
7D06
330
0
340
0
340
0
 94
        0
  0
ACAD_ZOMBIE_OBJECT
  5
7D05
102
{ACAD_REACTORS
330
7D01
102
}
100
AcDbZombieObject
 90
      499
 91
      502
 93
     1484
310
9154850204C617365724A65742035303030204E2050532C00800000040B87E17400000003838A84550000000000444F1640000000000611C510000000080253F6A40000000101FA3DC901024134A901416AA5910690D5072E973656E746174696F6E31406A800000000000000000000000000000000000000000000A100000
310
0000000008902A6A6A10232D5E076BC5510408CB5781DAF154410232D5E076BC5510408CB5781DAF15C410232D5E076BC5710408CB5781DAF15C40
330
7D02
330
494D
340
0
340
0
 94
        0
  0
DICTIONARY
  5
C04E
100
AcDbDictionary
  3
ACAD_XREC_ROUNDTRIP
360
C04F
  0
MLINESTYLE
  5
7CFF
102
{ACAD_REACTORS
330
7CFE
102
}
100
AcDbMlineStyle
  2
STANDARD
 70
     0
  3

 62
   256
 51
90.0
 52
90.0
 71
     2
 49
0.5
 62
   256
  6
BYLAYER
 49
-0.5
 62
   256
  6
BYLAYER
  0
ACAD_ZOMBIE_OBJECT
  5
7CF7
102
{ACAD_REACTORS
330
7CF6
102
}
100
AcDbZombieObject
 90
      499
 91
      501
 93
        0
 94
        0
  0
XRECORD
  5
C033
102
{ACAD_REACTORS
330
C029
102
}
100
AcDbXrecord
 90
        0
  0
XRECORD
  5
C037
102
{ACAD_REACTORS
330
C029
102
}
100
AcDbXrecord
1000
DSTYLE
1002
{
1070
   279
 70
     2
1070
   341
340
7D0C
1070
   342
340
7D0C
1002
}
  0
XRECORD
  5
C034
102
{ACAD_REACTORS
330
C029
102
}
100
AcDbXrecord
  1
{20110D97-5561-4CA7-8FED-06A9B97BF164}
  0
XRECORD
  5
C02C
102
{ACAD_REACTORS
330
C029
102
}
100
AcDbXrecord
  1

  0
XRECORD
  5
C032
102
{ACAD_REACTORS
330
C029
102
}
100
AcDbXrecord
 90
        0
  0
XRECORD
  5
C02E
102
{ACAD_REACTORS
330
C029
102
}
100
AcDbXrecord
340
7D01
  0
XRECORD
  5
C031
102
{ACAD_REACTORS
330
C029
102
}
100
AcDbXrecord
 90
    14877
  0
XRECORD
  5
C02F
102
{ACAD_REACTORS
330
C029
102
}
100
AcDbXrecord
340
7D00
  0
XRECORD
  5
C030
102
{ACAD_REACTORS
330
C029
102
}
100
AcDbXrecord
340
7CF6
  0
XRECORD
  5
C036
102
{ACAD_REACTORS
330
C029
102
}
100
AcDbXrecord
 40
0.0
  0
XRECORD
  5
C03A
102
{ACAD_REACTORS
330
C029
102
}
100
AcDbXrecord
340
0
  0
XRECORD
  5
C040
102
{ACAD_REACTORS
330
C029
102
}
100
AcDbXrecord
 10
0.0
 20
0.0
 30
0.0
  0
XRECORD
  5
C03C
102
{ACAD_REACTORS
330
C029
102
}
100
AcDbXrecord
 10
0.0
 20
0.0
 30
0.0
  0
XRECORD
  5
C03F
102
{ACAD_REACTORS
330
C029
102
}
100
AcDbXrecord
 10
0.0
 20
0.0
 30
0.0
  0
XRECORD
  5
C03D
102
{ACAD_REACTORS
330
C029
102
}
100
AcDbXrecord
 10
0.0
 20
0.0
 30
0.0
  0
XRECORD
  5
C03E
102
{ACAD_REACTORS
330
C029
102
}
100
AcDbXrecord
 10
0.0
 20
0.0
 30
0.0
  0
XRECORD
  5
C03B
102
{ACAD_REACTORS
330
C029
102
}
100
AcDbXrecord
 10
0.0
 20
0.0
 30
0.0
  0
XRECORD
  5
C038
102
{ACAD_REACTORS
330
C029
102
}
100
AcDbXrecord
340
0
  0
XRECORD
  5
C039
102
{ACAD_REACTORS
330
C029
102
}
100
AcDbXrecord
 70
     0
  0
XRECORD
  5
C02D
102
{ACAD_REACTORS
330
C029
102
}
100
AcDbXrecord
  1

  0
XRECORD
  5
C02A
102
{ACAD_REACTORS
330
C029
102
}
100
AcDbXrecord
 90
        1
  0
XRECORD
  5
C02B
102
{ACAD_REACTORS
330
C029
102
}
100
AcDbXrecord
 90
       70
  0
XRECORD
  5
C043
102
{ACAD_REACTORS
330
C029
102
}
100
AcDbXrecord
340
0
  0
XRECORD
  5
C049
102
{ACAD_REACTORS
330
C029
102
}
100
AcDbXrecord
 10
0.0
 20
0.0
 30
0.0
  0
XRECORD
  5
C045
102
{ACAD_REACTORS
330
C029
102
}
100
AcDbXrecord
 10
0.0
 20
0.0
 30
0.0
  0
XRECORD
  5
C048
102
{ACAD_REACTORS
330
C029
102
}
100
AcDbXrecord
 10
0.0
 20
0.0
 30
0.0
  0
XRECORD
  5
C046
102
{ACAD_REACTORS
330
C029
102
}
100
AcDbXrecord
 10
0.0
 20
0.0
 30
0.0
  0
XRECORD
  5
C047
102
{ACAD_REACTORS
330
C029
102
}
100
AcDbXrecord
 10
0.0
 20
0.0
 30
0.0
  0
XRECORD
  5
C044
102
{ACAD_REACTORS
330
C029
102
}
100
AcDbXrecord
 10
0.0
 20
0.0
 30
0.0
  0
XRECORD
  5
C041
102
{ACAD_REACTORS
330
C029
102
}
100
AcDbXrecord
340
0
  0
XRECORD
  5
C042
102
{ACAD_REACTORS
330
C029
102
}
100
AcDbXrecord
 70
     0
  0
XRECORD
  5
C035
102
{ACAD_REACTORS
330
C029
102
}
100
AcDbXrecord
  1
{0ADDE9E9-1486-44BD-9E4B-D5FB1E201425}
  0
DICTIONARYVAR
  5
804A
102
{ACAD_REACTORS
330
8048
102
}
100
DictionaryVariables
280
     0
  1
2
  0
DICTIONARYVAR
  5
8049
102
{ACAD_REACTORS
330
8048
102
}
100
DictionaryVariables
280
     0
  1
1
  0
XRECORD
  5
C051
102
{ACAD_REACTORS
330
C050
102
}
100
AcDbXrecord
102
EXTNAMES
  1
MODEL
  2
Model
  1
PRÉSENTATION1
  2
Présentation1
  0
XRECORD
  5
C04F
102
{ACAD_REACTORS
330
C04E
102
}
100
AcDbXrecord
102
EXTNAMES
  1
STANDARD
  2
Standard
  0
ENDSEC
  0
EOF
