  0
SECTION
  2
HEADER
  9
$ACADVER
  1
AC1014
  9
$ACADMAINTVER
 70
     0
  9
$DWGCODEPAGE
  3
ANSI_1252
  9
$INSBASE
 10
76.791089
 20
106.975
 30
0.0
  9
$EXTMIN
 10
44.734504
 20
83.692777
 30
0.0
  9
$EXTMAX
 10
92.812306
 20
117.185265
 30
0.0
  9
$LIMMIN
 10
0.0
 20
0.0
  9
$LIMMAX
 10
210.0
 20
297.0
  9
$ORTHOMODE
 70
     0
  9
$REGENMODE
 70
     1
  9
$FILLMODE
 70
     1
  9
$QTEXTMODE
 70
     0
  9
$MIRRTEXT
 70
     1
  9
$DRAGMODE
 70
     2
  9
$LTSCALE
 40
19.36
  9
$OSMODE
 70
     0
  9
$ATTMODE
 70
     1
  9
$TEXTSIZE
 40
0.2
  9
$TRACEWID
 40
0.05
  9
$TEXTSTYLE
  7
ROMANS
  9
$CLAYER
  8
0
  9
$CELTYPE
  6
BYLAYER
  9
$CECOLOR
 62
   256
  9
$CELTSCALE
 40
1.0
  9
$DELOBJ
 70
     1
  9
$DISPSILH
 70
     0
  9
$DIMSCALE
 40
1.0
  9
$DIMASZ
 40
3.0
  9
$DIMEXO
 40
0.0625
  9
$DIMDLI
 40
0.38
  9
$DIMRND
 40
0.01
  9
$DIMDLE
 40
0.0
  9
$DIMEXE
 40
0.18
  9
$DIMTP
 40
0.0
  9
$DIMTM
 40
0.0
  9
$DIMTXT
 40
2.5
  9
$DIMCEN
 40
0.09
  9
$DIMTSZ
 40
0.0
  9
$DIMTOL
 70
     0
  9
$DIMLIM
 70
     0
  9
$DIMTIH
 70
     0
  9
$DIMTOH
 70
     0
  9
$DIMSE1
 70
     0
  9
$DIMSE2
 70
     0
  9
$DIMTAD
 70
     1
  9
$DIMZIN
 70
    12
  9
$DIMBLK
  1

  9
$DIMASO
 70
     1
  9
$DIMSHO
 70
     1
  9
$DIMPOST
  1

  9
$DIMAPOST
  1

  9
$DIMALT
 70
     0
  9
$DIMALTD
 70
     2
  9
$DIMALTF
 40
25.4
  9
$DIMLFAC
 40
1.0
  9
$DIMTOFL
 70
     1
  9
$DIMTVP
 40
0.0
  9
$DIMTIX
 70
     0
  9
$DIMSOXD
 70
     0
  9
$DIMSAH
 70
     0
  9
$DIMBLK1
  1

  9
$DIMBLK2
  1

  9
$DIMSTYLE
  2
SC_STAND
  9
$DIMCLRD
 70
     0
  9
$DIMCLRE
 70
     0
  9
$DIMCLRT
 70
     0
  9
$DIMTFAC
 40
1.0
  9
$DIMGAP
 40
1.0
  9
$DIMJUST
 70
     0
  9
$DIMSD1
 70
     0
  9
$DIMSD2
 70
     0
  9
$DIMTOLJ
 70
     1
  9
$DIMTZIN
 70
    12
  9
$DIMALTZ
 70
    12
  9
$DIMALTTZ
 70
    12
  9
$DIMFIT
 70
     5
  9
$DIMUPT
 70
     0
  9
$DIMUNIT
 70
     2
  9
$DIMDEC
 70
     4
  9
$DIMTDEC
 70
     4
  9
$DIMALTU
 70
     2
  9
$DIMALTTD
 70
     2
  9
$DIMTXSTY
  7
ROMANS
  9
$DIMAUNIT
 70
     0
  9
$LUNITS
 70
     2
  9
$LUPREC
 70
     4
  9
$SKETCHINC
 40
0.1
  9
$FILLETRAD
 40
0.0
  9
$AUNITS
 70
     0
  9
$AUPREC
 70
     0
  9
$MENU
  1
acad
  9
$ELEVATION
 40
0.0
  9
$PELEVATION
 40
0.0
  9
$THICKNESS
 40
0.0
  9
$LIMCHECK
 70
     0
  9
$BLIPMODE
 70
     1
  9
$CHAMFERA
 40
0.0
  9
$CHAMFERB
 40
0.0
  9
$CHAMFERC
 40
0.0
  9
$CHAMFERD
 40
0.0
  9
$SKPOLY
 70
     0
  9
$TDCREATE
 40
2450574.679535069
  9
$TDUPDATE
 40
2451387.898311782
  9
$TDINDWG
 40
0.0006473380
  9
$TDUSRTIMER
 40
0.0006473380
  9
$USRTIMER
 70
     1
  9
$ANGBASE
 50
0.0
  9
$ANGDIR
 70
     0
  9
$PDMODE
 70
     0
  9
$PDSIZE
 40
0.0
  9
$PLINEWID
 40
0.0
  9
$COORDS
 70
     1
  9
$SPLFRAME
 70
     0
  9
$SPLINETYPE
 70
     6
  9
$SPLINESEGS
 70
     8
  9
$ATTDIA
 70
     0
  9
$ATTREQ
 70
     1
  9
$HANDLING
 70
     1
  9
$HANDSEED
  5
54A
  9
$SURFTAB1
 70
     6
  9
$SURFTAB2
 70
     6
  9
$SURFTYPE
 70
     6
  9
$SURFU
 70
     6
  9
$SURFV
 70
     6
  9
$UCSNAME
  2

  9
$UCSORG
 10
0.0
 20
0.0
 30
0.0
  9
$UCSXDIR
 10
1.0
 20
0.0
 30
0.0
  9
$UCSYDIR
 10
0.0
 20
1.0
 30
0.0
  9
$PUCSNAME
  2

  9
$PUCSORG
 10
0.0
 20
0.0
 30
0.0
  9
$PUCSXDIR
 10
1.0
 20
0.0
 30
0.0
  9
$PUCSYDIR
 10
0.0
 20
1.0
 30
0.0
  9
$USERI1
 70
     0
  9
$USERI2
 70
     0
  9
$USERI3
 70
     0
  9
$USERI4
 70
     0
  9
$USERI5
 70
     0
  9
$USERR1
 40
0.0
  9
$USERR2
 40
0.0
  9
$USERR3
 40
0.0
  9
$USERR4
 40
0.0
  9
$USERR5
 40
0.0
  9
$WORLDVIEW
 70
     1
  9
$SHADEDGE
 70
     3
  9
$SHADEDIF
 70
    70
  9
$TILEMODE
 70
     1
  9
$MAXACTVP
 70
    16
  9
$PINSBASE
 10
0.0
 20
0.0
 30
0.0
  9
$PLIMCHECK
 70
     0
  9
$PEXTMIN
 10
1.000000E+20
 20
1.000000E+20
 30
1.000000E+20
  9
$PEXTMAX
 10
-1.000000E+20
 20
-1.000000E+20
 30
-1.000000E+20
  9
$PLIMMIN
 10
0.0
 20
0.0
  9
$PLIMMAX
 10
12.0
 20
9.0
  9
$UNITMODE
 70
     0
  9
$VISRETAIN
 70
     0
  9
$PLINEGEN
 70
     0
  9
$PSLTSCALE
 70
     1
  9
$TREEDEPTH
 70
  3020
  9
$PICKSTYLE
 70
     1
  9
$CMLSTYLE
  2
STANDARD
  9
$CMLJUST
 70
     0
  9
$CMLSCALE
 40
1.0
  9
$PROXYGRAPHICS
 70
     1
  9
$MEASUREMENT
 70
     0
  0
ENDSEC
  0
SECTION
  2
CLASSES
  0
CLASS
  1
DICTIONARYVAR
  2
AcDbDictionaryVar
  3
"AutoCAD"
 90
        0
280
     0
281
     0
  0
CLASS
  1
LWPOLYLINE
  2
AcDbPolyline
  3
"AutoCAD"
 90
        0
280
     0
281
     1
  0
ENDSEC
  0
SECTION
  2
TABLES
  0
TABLE
  2
VPORT
  5
4EE
100
AcDbSymbolTable
 70
     1
  0
VPORT
  5
545
100
AcDbSymbolTableRecord
100
AcDbViewportTableRecord
  2
*ACTIVE
 70
     0
 10
0.0
 20
0.0
 11
1.0
 21
1.0
 12
283.244621
 22
169.500718
 13
0.0
 23
0.0
 14
1.0
 24
1.0
 15
10.0
 25
10.0
 16
0.0
 26
0.0
 36
1.0
 17
0.0
 27
0.0
 37
0.0
 40
339.001436
 41
1.671053
 42
50.0
 43
0.0
 44
0.0
 50
0.0
 51
0.0
 71
     0
 72
   100
 73
     1
 74
     1
 75
     0
 76
     1
 77
     0
 78
     0
  0
ENDTAB
  0
TABLE
  2
LTYPE
  5
4EB
100
AcDbSymbolTable
 70
    23
  0
LTYPE
  5
4F7
100
AcDbSymbolTableRecord
100
AcDbLinetypeTableRecord
  2
BYBLOCK
 70
     0
  3

 72
    65
 73
     0
 40
0.0
  0
LTYPE
  5
4F8
100
AcDbSymbolTableRecord
100
AcDbLinetypeTableRecord
  2
BYLAYER
 70
     0
  3

 72
    65
 73
     0
 40
0.0
  0
LTYPE
  5
4F9
100
AcDbSymbolTableRecord
100
AcDbLinetypeTableRecord
  2
CONTINUOUS
 70
     0
  3
Solid line
 72
    65
 73
     0
 40
0.0
  0
LTYPE
  5
50C
100
AcDbSymbolTableRecord
100
AcDbLinetypeTableRecord
  2
AXES
 70
     0
  3
____ _ ____ _ ____ _ ____ _ ____ _ ____ _ ____ 
 72
    65
 73
     4
 40
2.0
 49
1.25
 74
     0
 49
-0.25
 74
     0
 49
0.25
 74
     0
 49
-0.25
 74
     0
  0
LTYPE
  5
50D
100
AcDbSymbolTableRecord
100
AcDbLinetypeTableRecord
  2
AXES2
 70
     0
  3
___ _ ___ _ ___ _ ___ _ ___ _ ___ _ ___ _ ___ _
 72
    65
 73
     4
 40
1.125
 49
0.75
 74
     0
 49
-0.125
 74
     0
 49
0.125
 74
     0
 49
-0.125
 74
     0
  0
LTYPE
  5
50E
100
AcDbSymbolTableRecord
100
AcDbLinetypeTableRecord
  2
AXESX2
 70
     0
  3
________  __  ________  __  ________  __  _____
 72
    65
 73
     4
 40
4.0
 49
2.5
 74
     0
 49
-0.5
 74
     0
 49
0.5
 74
     0
 49
-0.5
 74
     0
  0
LTYPE
  5
50F
100
AcDbSymbolTableRecord
100
AcDbLinetypeTableRecord
  2
TIRETPT
 70
     0
  3
__ . __ . __ . __ . __ . __ . __ . __ . __ . __
 72
    65
 73
     4
 40
1.0
 49
0.5
 74
     0
 49
-0.25
 74
     0
 49
0.0
 74
     0
 49
-0.25
 74
     0
  0
LTYPE
  5
510
100
AcDbSymbolTableRecord
100
AcDbLinetypeTableRecord
  2
TIRETPT2
 70
     0
  3
_._._._._._._._._._._._._._._._._._._._._._._._
 72
    65
 73
     4
 40
0.5
 49
0.25
 74
     0
 49
-0.125
 74
     0
 49
0.0
 74
     0
 49
-0.125
 74
     0
  0
LTYPE
  5
511
100
AcDbSymbolTableRecord
100
AcDbLinetypeTableRecord
  2
TIRETPTX2
 70
     0
  3
____  .  ____  .  ____  .  ____  .  ____  .  __
 72
    65
 73
     4
 40
2.0
 49
1.0
 74
     0
 49
-0.5
 74
     0
 49
0.0
 74
     0
 49
-0.5
 74
     0
  0
LTYPE
  5
512
100
AcDbSymbolTableRecord
100
AcDbLinetypeTableRecord
  2
DISCONTINU
 70
     0
  3
__ __ __ __ __ __ __ __ __ __ __ __ __ __ __ __
 72
    65
 73
     2
 40
0.75
 49
0.5
 74
     0
 49
-0.25
 74
     0
  0
LTYPE
  5
513
100
AcDbSymbolTableRecord
100
AcDbLinetypeTableRecord
  2
DISCONTINU2
 70
     0
  3
_ _ _ _ _ _ _ _ _ _ _ _ _ _ _ _ _ _ _ _ _ _ _ _
 72
    65
 73
     2
 40
0.375
 49
0.25
 74
     0
 49
-0.125
 74
     0
  0
LTYPE
  5
514
100
AcDbSymbolTableRecord
100
AcDbLinetypeTableRecord
  2
DISCONTINUX2
 70
     0
  3
____  ____  ____  ____  ____  ____  ____  ____ 
 72
    65
 73
     2
 40
1.5
 49
1.0
 74
     0
 49
-0.5
 74
     0
  0
LTYPE
  5
515
100
AcDbSymbolTableRecord
100
AcDbLinetypeTableRecord
  2
DIVISE
 70
     0
  3
____ . . ____ . . ____ . . ____ . . ____ . . __
 72
    65
 73
     6
 40
1.25
 49
0.5
 74
     0
 49
-0.25
 74
     0
 49
0.0
 74
     0
 49
-0.25
 74
     0
 49
0.0
 74
     0
 49
-0.25
 74
     0
  0
LTYPE
  5
516
100
AcDbSymbolTableRecord
100
AcDbLinetypeTableRecord
  2
DIVISE2
 70
     0
  3
__..__..__..__..__..__..__..__..__..__..__..__.
 72
    65
 73
     6
 40
0.625
 49
0.25
 74
     0
 49
-0.125
 74
     0
 49
0.0
 74
     0
 49
-0.125
 74
     0
 49
0.0
 74
     0
 49
-0.125
 74
     0
  0
LTYPE
  5
517
100
AcDbSymbolTableRecord
100
AcDbLinetypeTableRecord
  2
DIVISEX2
 70
     0
  3
________  .  .  ________  .  .  ________  .  . 
 72
    65
 73
     6
 40
2.5
 49
1.0
 74
     0
 49
-0.5
 74
     0
 49
0.0
 74
     0
 49
-0.5
 74
     0
 49
0.0
 74
     0
 49
-0.5
 74
     0
  0
LTYPE
  5
518
100
AcDbSymbolTableRecord
100
AcDbLinetypeTableRecord
  2
POINTILLE
 70
     0
  3
. . . . . . . . . . . . . . . . . . . . . . . .
 72
    65
 73
     2
 40
0.25
 49
0.0
 74
     0
 49
-0.25
 74
     0
  0
LTYPE
  5
519
100
AcDbSymbolTableRecord
100
AcDbLinetypeTableRecord
  2
POINTILLE2
 70
     0
  3
...............................................
 72
    65
 73
     2
 40
0.125
 49
0.0
 74
     0
 49
-0.125
 74
     0
  0
LTYPE
  5
51A
100
AcDbSymbolTableRecord
100
AcDbLinetypeTableRecord
  2
POINTILLEX2
 70
     0
  3
.  .  .  .  .  .  .  .  .  .  .  .  .  .  .  . 
 72
    65
 73
     2
 40
0.5
 49
0.0
 74
     0
 49
-0.5
 74
     0
  0
LTYPE
  5
51B
100
AcDbSymbolTableRecord
100
AcDbLinetypeTableRecord
  2
CACHE
 70
     0
  3
__ __ __ __ __ __ __ __ __ __ __ __ __ __ __ __
 72
    65
 73
     2
 40
0.375
 49
0.25
 74
     0
 49
-0.125
 74
     0
  0
LTYPE
  5
51C
100
AcDbSymbolTableRecord
100
AcDbLinetypeTableRecord
  2
CACHE2
 70
     0
  3
_ _ _ _ _ _ _ _ _ _ _ _ _ _ _ _ _ _ _ _ _ _ _ _
 72
    65
 73
     2
 40
0.1875
 49
0.125
 74
     0
 49
-0.0625
 74
     0
  0
LTYPE
  5
51D
100
AcDbSymbolTableRecord
100
AcDbLinetypeTableRecord
  2
CACHEX2
 70
     0
  3
____ ____ ____ ____ ____ ____ ____ ____ ____ __
 72
    65
 73
     2
 40
0.75
 49
0.5
 74
     0
 49
-0.25
 74
     0
  0
LTYPE
  5
51E
100
AcDbSymbolTableRecord
100
AcDbLinetypeTableRecord
  2
FANTOME
 70
     0
  3
______  __  __  ______  __  __  ______  __  __ 
 72
    65
 73
     6
 40
2.5
 49
1.25
 74
     0
 49
-0.25
 74
     0
 49
0.25
 74
     0
 49
-0.25
 74
     0
 49
0.25
 74
     0
 49
-0.25
 74
     0
  0
LTYPE
  5
51F
100
AcDbSymbolTableRecord
100
AcDbLinetypeTableRecord
  2
FANTOME2
 70
     0
  3
___ _ _ ___ _ _ ___ _ _ ___ _ _ ___ _ _ ___ _ _
 72
    65
 73
     6
 40
1.25
 49
0.625
 74
     0
 49
-0.125
 74
     0
 49
0.125
 74
     0
 49
-0.125
 74
     0
 49
0.125
 74
     0
 49
-0.125
 74
     0
  0
LTYPE
  5
520
100
AcDbSymbolTableRecord
100
AcDbLinetypeTableRecord
  2
FANTOMEX2
 70
     0
  3
____________    ____    ____    ____________   
 72
    65
 73
     6
 40
5.0
 49
2.5
 74
     0
 49
-0.5
 74
     0
 49
0.5
 74
     0
 49
-0.5
 74
     0
 49
0.5
 74
     0
 49
-0.5
 74
     0
  0
LTYPE
  5
521
100
AcDbSymbolTableRecord
100
AcDbLinetypeTableRecord
  2
0
 70
     0
  3
MEDUSA PEN 0
 72
    65
 73
     0
 40
0.0
  0
ENDTAB
  0
TABLE
  2
LAYER
  5
4E8
100
AcDbSymbolTable
 70
    21
  0
LAYER
  5
4F4
100
AcDbSymbolTableRecord
100
AcDbLayerTableRecord
  2
0
 70
     0
 62
     7
  6
CONTINUOUS
  0
LAYER
  5
528
100
AcDbSymbolTableRecord
100
AcDbLayerTableRecord
  2
AXE
 70
     0
 62
    80
  6
AXES2
  0
LAYER
  5
529
100
AcDbSymbolTableRecord
100
AcDbLayerTableRecord
  2
CONSTRUCTION
 70
     0
 62
     6
  6
CONTINUOUS
  0
LAYER
  5
52A
100
AcDbSymbolTableRecord
100
AcDbLayerTableRecord
  2
COTATION1
 70
     0
 62
     2
  6
CONTINUOUS
  0
LAYER
  5
52B
100
AcDbSymbolTableRecord
100
AcDbLayerTableRecord
  2
HACHURES
 70
     0
 62
     9
  6
CONTINUOUS
  0
LAYER
  5
52C
100
AcDbSymbolTableRecord
100
AcDbLayerTableRecord
  2
FMULT
 70
     0
 62
     6
  6
CONTINUOUS
  0
LAYER
  5
52D
100
AcDbSymbolTableRecord
100
AcDbLayerTableRecord
  2
TEXTE
 70
     0
 62
   131
  6
CONTINUOUS
  0
LAYER
  5
52E
100
AcDbSymbolTableRecord
100
AcDbLayerTableRecord
  2
FDP_CARTOUCHE
 70
     0
 62
     4
  6
CONTINUOUS
  0
LAYER
  5
52F
100
AcDbSymbolTableRecord
100
AcDbLayerTableRecord
  2
FDP_TEXTES
 70
     0
 62
     5
  6
CONTINUOUS
  0
LAYER
  5
530
100
AcDbSymbolTableRecord
100
AcDbLayerTableRecord
  2
FDP_LOGO_MG
 70
     0
 62
    30
  6
CONTINUOUS
  0
LAYER
  5
531
100
AcDbSymbolTableRecord
100
AcDbLayerTableRecord
  2
FDP_LOGO_SCH
 70
     0
 62
     3
  6
CONTINUOUS
  0
LAYER
  5
532
100
AcDbSymbolTableRecord
100
AcDbLayerTableRecord
  2
FDP_FDP
 70
     0
 62
     5
  6
CONTINUOUS
  0
LAYER
  5
533
100
AcDbSymbolTableRecord
100
AcDbLayerTableRecord
  2
COTATION2
 70
     0
 62
     2
  6
CONTINUOUS
  0
LAYER
  5
534
100
AcDbSymbolTableRecord
100
AcDbLayerTableRecord
  2
COTATION3
 70
     0
 62
     2
  6
CONTINUOUS
  0
LAYER
  5
535
100
AcDbSymbolTableRecord
100
AcDbLayerTableRecord
  2
COTATION4
 70
     0
 62
     2
  6
CONTINUOUS
  0
LAYER
  5
536
100
AcDbSymbolTableRecord
100
AcDbLayerTableRecord
  2
ASHADE
 70
     0
 62
     7
  6
CONTINUOUS
  0
LAYER
  5
537
100
AcDbSymbolTableRecord
100
AcDbLayerTableRecord
  2
POINTILLE_COURT
 70
     0
 62
    40
  6
CACHE2
  0
LAYER
  5
538
100
AcDbSymbolTableRecord
100
AcDbLayerTableRecord
  2
POINTILLE_MOYEN
 70
     0
 62
   140
  6
CACHE
  0
LAYER
  5
539
100
AcDbSymbolTableRecord
100
AcDbLayerTableRecord
  2
POINTILLE_LONG
 70
     0
 62
   240
  6
CACHEX2
  0
LAYER
  5
53A
100
AcDbSymbolTableRecord
100
AcDbLayerTableRecord
  2
ALPHA
 70
     0
 62
   255
  6
CONTINUOUS
  0
LAYER
  5
53B
100
AcDbSymbolTableRecord
100
AcDbLayerTableRecord
  2
DEFPOINTS
 70
     0
 62
     7
  6
CONTINUOUS
  0
ENDTAB
  0
TABLE
  2
STYLE
  5
4E9
100
AcDbSymbolTable
 70
     4
  0
STYLE
  5
4F5
100
AcDbSymbolTableRecord
100
AcDbTextStyleTableRecord
  2
STANDARD
 70
     0
 40
0.0
 41
1.0
 50
0.0
 71
     0
 42
0.2
  3
txt
  4

  0
STYLE
  5
509
100
AcDbSymbolTableRecord
100
AcDbTextStyleTableRecord
  2
ROMANS
 70
     0
 40
0.0
 41
1.0
 50
0.0
 71
     0
 42
2.9
  3
romans.shx
  4

  0
STYLE
  5
50A
100
AcDbSymbolTableRecord
100
AcDbTextStyleTableRecord
  2
INFOCAR
 70
     0
 40
0.0
 41
1.34
 50
0.0
 71
     0
 42
2.0
  3
ROMANS.SHX
  4

  0
STYLE
  5
50B
100
AcDbSymbolTableRecord
100
AcDbTextStyleTableRecord
  2
CARTOUCHE
 70
     0
 40
0.0
 41
1.0
 50
0.0
 71
     0
 42
0.2
  3
ROMANS.SHX
  4

  0
ENDTAB
  0
TABLE
  2
VIEW
  5
4EC
100
AcDbSymbolTable
 70
     0
  0
ENDTAB
  0
TABLE
  2
UCS
  5
4ED
100
AcDbSymbolTable
 70
     0
  0
ENDTAB
  0
TABLE
  2
APPID
  5
4EF
100
AcDbSymbolTable
 70
     3
  0
APPID
  5
4F6
100
AcDbSymbolTableRecord
100
AcDbRegAppTableRecord
  2
ACAD
 70
     0
  0
APPID
  5
524
100
AcDbSymbolTableRecord
100
AcDbRegAppTableRecord
  2
AVE_RENDER
 70
     0
  0
APPID
  5
525
100
AcDbSymbolTableRecord
100
AcDbRegAppTableRecord
  2
AVE_MATERIAL
 70
     0
  0
ENDTAB
  0
TABLE
  2
DIMSTYLE
  5
4F0
100
AcDbSymbolTable
 70
     2
  0
DIMSTYLE
105
526
100
AcDbSymbolTableRecord
100
AcDbDimStyleTableRecord
  2
STANDARD
 70
     0
  3

  4

  5

  6

  7

 40
1.0
 41
0.18
 42
0.0625
 43
0.38
 44
0.18
 45
0.0
 46
0.0
 47
0.0
 48
0.0
140
0.18
141
0.09
142
0.0
143
25.4
144
1.0
145
0.0
146
1.0
147
0.09
 71
     0
 72
     0
 73
     1
 74
     1
 75
     0
 76
     0
 77
     0
 78
     0
170
     0
171
     2
172
     0
173
     0
174
     0
175
     0
176
     0
177
     0
178
     0
270
     2
271
     4
272
     4
273
     2
274
     2
340
509
275
     0
280
     0
281
     0
282
     0
283
     1
284
    12
285
    12
286
    12
287
     5
288
     0
  0
DIMSTYLE
105
527
102
{ACAD_REACTORS
330
4B4
330
4C3
102
}
100
AcDbSymbolTableRecord
100
AcDbDimStyleTableRecord
  2
SC_STAND
 70
     0
  3

  4

  5

  6

  7

 40
1.0
 41
3.0
 42
0.0625
 43
0.38
 44
0.18
 45
0.01
 46
0.0
 47
0.0
 48
0.0
140
2.5
141
0.09
142
0.0
143
25.4
144
1.0
145
0.0
146
1.0
147
1.0
 71
     0
 72
     0
 73
     0
 74
     0
 75
     0
 76
     0
 77
     1
 78
    12
170
     0
171
     2
172
     1
173
     0
174
     0
175
     0
176
     0
177
     0
178
     0
270
     2
271
     4
272
     4
273
     2
274
     2
340
509
275
     0
280
     0
281
     0
282
     0
283
     1
284
    12
285
    12
286
    12
287
     5
288
     0
  0
ENDTAB
  0
TABLE
  2
BLOCK_RECORD
  5
4E7
100
AcDbSymbolTable
 70
     7
  0
BLOCK_RECORD
  5
4FD
100
AcDbSymbolTableRecord
100
AcDbBlockTableRecord
  2
*MODEL_SPACE
  0
BLOCK_RECORD
  5
4FA
100
AcDbSymbolTableRecord
100
AcDbBlockTableRecord
  2
*PAPER_SPACE
  0
BLOCK_RECORD
  5
502
100
AcDbSymbolTableRecord
100
AcDbBlockTableRecord
  2
AVE_RENDER
  0
BLOCK_RECORD
  5
503
100
AcDbSymbolTableRecord
100
AcDbBlockTableRecord
  2
AVE_GLOBAL
  0
BLOCK_RECORD
  5
504
100
AcDbSymbolTableRecord
100
AcDbBlockTableRecord
  2
SCH_ISO
  0
BLOCK_RECORD
  5
507
100
AcDbSymbolTableRecord
100
AcDbBlockTableRecord
  2
*D5
  0
BLOCK_RECORD
  5
508
100
AcDbSymbolTableRecord
100
AcDbBlockTableRecord
  2
*D6
  0
ENDTAB
  0
ENDSEC
  0
SECTION
  2
BLOCKS
  0
BLOCK
  5
53E
100
AcDbEntity
  8
0
100
AcDbBlockBegin
  2
*MODEL_SPACE
 70
     0
 10
0.0
 20
0.0
 30
0.0
  3
*MODEL_SPACE
  1

  0
ENDBLK
  5
53F
100
AcDbEntity
  8
0
100
AcDbBlockEnd
  0
BLOCK
  5
53C
100
AcDbEntity
 67
     1
  8
0
100
AcDbBlockBegin
  2
*PAPER_SPACE
 70
     0
 10
0.0
 20
0.0
 30
0.0
  3
*PAPER_SPACE
  1

  0
ENDBLK
  5
53D
100
AcDbEntity
 67
     1
  8
0
100
AcDbBlockEnd
  0
BLOCK
  5
456
100
AcDbEntity
  8
0
100
AcDbBlockBegin
  2
AVE_RENDER
 70
     0
 10
0.0
 20
0.0
 30
0.0
  3
AVE_RENDER
  1
AVE_RENDER
  0
ENDBLK
  5
457
100
AcDbEntity
  8
0
100
AcDbBlockEnd
  0
BLOCK
  5
459
100
AcDbEntity
  8
0
100
AcDbBlockBegin
  2
AVE_GLOBAL
 70
     0
 10
0.0
 20
0.0
 30
0.0
  3
AVE_GLOBAL
  1
AVE_GLOBAL
  0
ENDBLK
  5
45A
100
AcDbEntity
  8
0
100
AcDbBlockEnd
  0
BLOCK
  5
495
100
AcDbEntity
  8
0
100
AcDbBlockBegin
  2
SCH_ISO
 70
     0
 10
0.0
 20
0.0
 30
0.0
  3
SCH_ISO
  1

  0
INSERT
  5
48C
100
AcDbEntity
  8
ASHADE
 62
     1
100
AcDbBlockReference
  2
AVE_RENDER
 10
0.0
 20
0.0
 30
0.0
1001
AVE_RENDER
1002
{
1070
     6
1000
Pref
1070
    50
1070
    20
1070
     1
1070
     0
1000

1070
    10
1070
     1
1070
    30
1040
25.4
1070
     1
1040
0.3
1040
0.7
1040
0.0
1040
10.0
1010
-1.0
1020
-1.0
1030
-1.0
1040
0.3
1070
    49
1070
     0
1070
     0
1010
1.0
1020
1.0
1030
1.0
1040
45.0
1070
     1
1070
     0
1000
WCS
1040
0.0
1002
}
  0
INSERT
  5
48D
100
AcDbEntity
  8
ASHADE
 62
     3
100
AcDbBlockReference
  2
AVE_RENDER
 10
0.0
 20
0.0
 30
0.0
1001
AVE_RENDER
1002
{
1070
     0
1000
Full Opt
1070
     0
1070
     1
1070
     1
1070
     1
1070
     0
1070
     0
1070
     0
1070
     1
1070
     1
1040
0.0001
1040
0.0001
1002
}
  0
INSERT
  5
48E
100
AcDbEntity
  8
ASHADE
 62
     4
100
AcDbBlockReference
  2
AVE_RENDER
 10
0.0
 20
0.0
 30
0.0
1001
AVE_RENDER
1002
{
1070
     0
1000
Quick Opt
1070
     0
1070
     1
1070
     1
1070
     1
1070
     0
1070
     0
1070
     1
1002
}
  0
INSERT
  5
48F
100
AcDbEntity
  8
ASHADE
 62
     5
100
AcDbBlockReference
  2
AVE_RENDER
 10
0.0
 20
0.0
 30
0.0
1001
AVE_RENDER
1002
{
1070
     1
1000
Scanl Opt
1070
     2
1070
     0
1070
     2
1040
2.0
1040
4.0
1070
     0
1070
     1
1070
     0
1040
0.03
1002
}
  0
INSERT
  5
490
100
AcDbEntity
  8
ASHADE
 62
     6
100
AcDbBlockReference
  2
AVE_RENDER
 10
0.0
 20
0.0
 30
0.0
1001
AVE_RENDER
1002
{
1070
     2
1000
Raytr Opt
1070
     2
1070
     0
1070
     2
1040
2.0
1040
4.0
1070
     0
1070
     1
1070
     1
1040
0.03
1070
     3
1040
0.03
1002
}
  0
INSERT
  5
491
100
AcDbEntity
  8
ASHADE
 62
     7
100
AcDbBlockReference
  2
AVE_RENDER
 10
0.0
 20
0.0
 30
0.0
1001
AVE_RENDER
1002
{
1070
     0
1000
RFile Opt
1070
     5
1070
   640
1070
   480
1070
 10000
1070
     3
1070
    32
1070
    24
1070
     0
1070
     0
1070
     0
1070
     1
1070
     0
1070
     0
1070
     0
1002
}
  0
INSERT
  5
492
100
AcDbEntity
  8
ASHADE
 62
     8
100
AcDbBlockReference
  2
AVE_RENDER
 10
0.0
 20
0.0
 30
0.0
1001
AVE_RENDER
1002
{
1070
     0
1000
Fog Opt
1070
     0
1070
     0
1040
0.0
1040
1.0
1040
0.0
1040
1.0
1010
0.5
1020
0.5
1030
0.5
1002
}
  0
INSERT
  5
493
100
AcDbEntity
  8
ASHADE
 62
     9
100
AcDbBlockReference
  2
AVE_RENDER
 10
0.0
 20
0.0
 30
0.0
1001
AVE_RENDER
1002
{
1070
     0
1000
BG Opt
1070
     0
1070
     1
1010
0.0
1020
0.0
1030
0.0
1010
1.0
1020
0.0
1030
0.0
1010
0.0
1020
1.0
1030
0.0
1010
0.0
1020
0.0
1030
1.0
1040
0.5
1040
0.33
1040
0.0
1000

1070
     1
1000

1070
     1
1070
     1
1040
1.0
1040
1.0
1040
0.0
1040
0.0
1070
     0
1002
}
  0
INSERT
  5
494
100
AcDbEntity
  8
ASHADE
 62
     1
100
AcDbBlockReference
  2
AVE_GLOBAL
 10
0.0
 20
0.0
 30
0.0
1001
AVE_MATERIAL
1002
{
1000
*GLOBAL*
1000
1
1000
Finition globale.
1002
{
1002
}
1002
{
1070
    63
1002
{
1002
{
1010
-1.0
1020
-1.0
1030
-1.0
1002
}
1040
0.1
1000

1040
0.0
1002
{
1002
}
1040
0.0
1002
{
1002
}
1040
0.0
1002
}
1002
{
1002
{
1010
-1.0
1020
-1.0
1030
-1.0
1002
}
1040
0.7
1000

1040
0.0
1002
{
1002
}
1040
0.0
1002
{
1002
}
1040
0.0
1002
}
1002
{
1002
{
1010
-1.0
1020
-1.0
1030
-1.0
1002
}
1040
0.2
1000

1040
0.0
1002
{
1002
}
1040
0.0
1002
{
1002
}
1040
0.0
1002
}
1002
{
1070
     0
1002
{
1070
     1
1002
{
1040
1.0
1040
1.0
1000

1040
0.0
1002
{
1002
}
1040
0.0
1002
{
1002
}
1040
0.0
1002
}
1002
}
1040
1.0
1040
0.0
1040
0.0
1002
}
1002
{
1040
1.0
1040
1.0
1000

1040
0.0
1002
{
1002
}
1040
0.0
1002
{
1002
}
1040
0.0
1002
}
1002
{
1040
0.5
1040
1.0
1000

1040
0.0
1002
{
1002
}
1040
0.0
1002
{
1002
}
1040
0.0
1002
}
1002
{
1070
     0
1040
0.0
1002
{
1002
}
1040
1.0
1002
{
1002
}
1040
0.0
1002
}
1002
{
1040
0.0
1002
{
1002
{
1010
0.0
1020
0.0
1030
0.0
1002
}
1040
1.0
1000

1040
0.0
1002
{
1002
}
1040
0.0
1002
{
1002
}
1040
0.0
1002
}
1002
}
1002
{
1002
{
1070
     1
1002
{
1040
0.0
1040
1.0
1000

1040
0.0
1002
{
1002
}
1040
0.0
1002
{
1002
}
1040
0.0
1002
}
1002
}
1040
0.0
1002
{
1002
}
1010
1.0
1020
0.0
1030
0.0
1010
0.0
1020
1.0
1030
0.0
1010
0.0
1020
0.0
1030
1.0
1070
     0
1002
}
1002
{
1002
{
1040
1.0
1040
1.0
1002
{
1070
     1
1002
{
1040
1.0
1040
1.0
1000

1040
0.0
1002
{
1002
}
1040
0.0
1002
{
1002
}
1040
0.0
1002
}
1002
}
1002
}
1070
     0
1040
0.0
1002
{
1002
}
1002
}
1002
{
1002
}
1002
}
1002
{
1071
        3
1070
     3
1070
     0
1002
{
1070
     2
1070
     0
1070
     0
1040
0.0
1002
}
1070
     0
1070
     2
1002
{
1002
}
1002
}
1002
{
1040
8030.0
1040
190.300003
1040
0.305
1040
228.0
1040
545.0
1040
14.0
1040
17.4
1040
0.456
1002
}
1002
}
  0
ENDBLK
  5
496
100
AcDbEntity
  8
0
100
AcDbBlockEnd
  0
BLOCK
  5
4CE
100
AcDbEntity
  8
0
100
AcDbBlockBegin
  2
*D5
 70
     1
 10
0.0
 20
0.0
 30
0.0
  3
*D5
  1

  0
LINE
  5
4CF
100
AcDbEntity
  8
0
  6
BYBLOCK
 62
     0
100
AcDbLine
 10
60.409614
 20
99.531344
 30
0.0
 11
60.409614
 21
84.012777
 31
0.0
  0
LINE
  5
4D0
100
AcDbEntity
  8
0
  6
BYBLOCK
 62
     0
100
AcDbLine
 10
69.012306
 20
99.506344
 30
0.0
 11
69.012306
 21
84.012777
 31
0.0
  0
LINE
  5
4D1
100
AcDbEntity
  8
0
  6
BYBLOCK
 62
     0
100
AcDbLine
 10
57.409614
 20
84.192777
 30
0.0
 11
54.409614
 21
84.192777
 31
0.0
  0
LINE
  5
4D2
100
AcDbEntity
  8
0
  6
BYBLOCK
 62
     0
100
AcDbLine
 10
72.012306
 20
84.192777
 30
0.0
 11
75.012306
 21
84.192777
 31
0.0
  0
LINE
  5
4D3
100
AcDbEntity
  8
0
  6
BYBLOCK
 62
     0
100
AcDbLine
 10
75.012306
 20
84.192777
 30
0.0
 11
81.250402
 21
84.192777
 31
0.0
  0
SOLID
  5
4D4
100
AcDbEntity
  8
0
  6
BYBLOCK
 62
     0
100
AcDbTrace
 10
57.409614
 20
84.692777
 30
0.0
 11
57.409614
 21
83.692777
 31
0.0
 12
60.409614
 22
84.192777
 32
0.0
 13
60.409614
 23
84.192777
 33
0.0
  0
SOLID
  5
4D5
100
AcDbEntity
  8
0
  6
BYBLOCK
 62
     0
100
AcDbTrace
 10
72.012306
 20
84.692777
 30
0.0
 11
72.012306
 21
83.692777
 31
0.0
 12
69.012306
 22
84.192777
 32
0.0
 13
69.012306
 23
84.192777
 33
0.0
  0
LINE
  5
4D6
100
AcDbEntity
  8
0
  6
BYBLOCK
 62
     0
100
AcDbLine
 10
60.409614
 20
84.192777
 30
0.0
 11
69.012306
 21
84.192777
 31
0.0
  0
TEXT
  5
4D7
100
AcDbEntity
  8
0
  6
BYBLOCK
 62
     0
100
AcDbText
 10
75.655164
 20
85.442777
 30
0.0
 40
2.5
  1
8.6
  7
ROMANS
 72
     1
 11
78.631354
 21
86.692777
 31
0.0
100
AcDbText
 73
     2
  0
POINT
  5
4D8
100
AcDbEntity
  8
DEFPOINTS
  6
BYBLOCK
 62
     0
100
AcDbPoint
 10
60.409614
 20
99.593844
 30
0.0
  0
POINT
  5
4D9
100
AcDbEntity
  8
DEFPOINTS
  6
BYBLOCK
 62
     0
100
AcDbPoint
 10
69.012306
 20
99.568844
 30
0.0
  0
POINT
  5
4DA
100
AcDbEntity
  8
DEFPOINTS
  6
BYBLOCK
 62
     0
100
AcDbPoint
 10
69.012306
 20
84.192777
 30
0.0
  0
ENDBLK
  5
4DB
100
AcDbEntity
  8
0
100
AcDbBlockEnd
  0
BLOCK
  5
4DC
100
AcDbEntity
  8
0
100
AcDbBlockBegin
  2
*D6
 70
     1
 10
0.0
 20
0.0
 30
0.0
  3
*D6
  1

  0
LINE
  5
4DD
100
AcDbEntity
  8
0
  6
BYBLOCK
 62
     0
100
AcDbLine
 10
70.649806
 20
100.268844
 30
0.0
 11
48.304504
 21
100.268844
 31
0.0
  0
LINE
  5
4DE
100
AcDbEntity
  8
0
  6
BYBLOCK
 62
     0
100
AcDbLine
 10
70.649806
 20
116.268843
 30
0.0
 11
48.304504
 21
116.268843
 31
0.0
  0
LINE
  5
4DF
100
AcDbEntity
  8
0
  6
BYBLOCK
 62
     0
100
AcDbLine
 10
48.484504
 20
103.268844
 30
0.0
 11
48.484504
 21
113.268843
 31
0.0
  0
SOLID
  5
4E0
100
AcDbEntity
  8
0
  6
BYBLOCK
 62
     0
100
AcDbTrace
 10
47.984504
 20
103.268844
 30
0.0
 11
48.984504
 21
103.268844
 31
0.0
 12
48.484504
 22
100.268844
 32
0.0
 13
48.484504
 23
100.268844
 33
0.0
  0
SOLID
  5
4E1
100
AcDbEntity
  8
0
  6
BYBLOCK
 62
     0
100
AcDbTrace
 10
47.984504
 20
113.268843
 30
0.0
 11
48.984504
 21
113.268843
 31
0.0
 12
48.484504
 22
116.268843
 32
0.0
 13
48.484504
 23
116.268843
 33
0.0
  0
TEXT
  5
4E2
100
AcDbEntity
  8
0
  6
BYBLOCK
 62
     0
100
AcDbText
 10
47.234504
 20
105.70932
 30
0.0
 40
2.5
  1
16
 50
90.0
  7
ROMANS
 72
     1
 11
45.984504
 21
108.268844
 31
0.0
100
AcDbText
 73
     2
  0
POINT
  5
4E3
100
AcDbEntity
  8
DEFPOINTS
  6
BYBLOCK
 62
     0
100
AcDbPoint
 10
70.712306
 20
100.268844
 30
0.0
  0
POINT
  5
4E4
100
AcDbEntity
  8
DEFPOINTS
  6
BYBLOCK
 62
     0
100
AcDbPoint
 10
70.712306
 20
116.268843
 30
0.0
  0
POINT
  5
4E5
100
AcDbEntity
  8
DEFPOINTS
  6
BYBLOCK
 62
     0
100
AcDbPoint
 10
48.484504
 20
116.268843
 30
0.0
  0
ENDBLK
  5
4E6
100
AcDbEntity
  8
0
100
AcDbBlockEnd
  0
ENDSEC
  0
SECTION
  2
ENTITIES
  0
ARC
  5
1D
100
AcDbEntity
  8
ALPHA
100
AcDbCircle
 10
61.770572
 20
102.675695
 30
0.0
 40
0.2
100
AcDbArc
 50
270.0
 51
340.885185
  0
ARC
  5
1E
100
AcDbEntity
  8
ALPHA
100
AcDbCircle
 10
45.632018
 20
108.268844
 30
0.0
 40
17.280288
100
AcDbArc
 50
340.885185
 51
19.114815
  0
ARC
  5
1F
100
AcDbEntity
  8
ALPHA
100
AcDbCircle
 10
61.770572
 20
113.861993
 30
0.0
 40
0.2
100
AcDbArc
 50
19.114815
 51
90.0
  0
ARC
  5
20
100
AcDbEntity
  8
ALPHA
100
AcDbCircle
 10
60.609614
 20
99.593844
 30
0.0
 40
0.2
100
AcDbArc
 50
180.0
 51
270.0
  0
ARC
  5
21
100
AcDbEntity
  8
ALPHA
100
AcDbCircle
 10
60.609614
 20
116.943844
 30
0.0
 40
0.2
100
AcDbArc
 50
90.0
 51
180.0
  0
ARC
  5
22
100
AcDbEntity
  8
ALPHA
100
AcDbCircle
 10
60.612306
 20
113.783372
 30
0.0
 40
0.2
100
AcDbArc
 50
180.364894
 51
187.823799
  0
LINE
  5
23
100
AcDbEntity
  8
ALPHA
100
AcDbLine
 10
92.812306
 20
105.318844
 30
0.0
 11
92.812306
 21
111.218844
 31
0.0
  0
LINE
  5
24
100
AcDbEntity
  8
ALPHA
100
AcDbLine
 10
92.412306
 20
101.493844
 30
0.0
 11
92.412306
 21
104.818844
 31
0.0
  0
LINE
  5
25
100
AcDbEntity
  8
ALPHA
100
AcDbLine
 10
92.412306
 20
115.043844
 30
0.0
 11
92.412306
 21
111.718844
 31
0.0
  0
LINE
  5
26
100
AcDbEntity
  8
ALPHA
100
AcDbLine
 10
91.312306
 20
106.768844
 30
0.0
 11
91.312306
 21
109.768844
 31
0.0
  0
LINE
  5
27
100
AcDbEntity
  8
ALPHA
100
AcDbLine
 10
91.212306
 20
104.818844
 30
0.0
 11
91.212306
 21
104.468844
 31
0.0
  0
LINE
  5
28
100
AcDbEntity
  8
ALPHA
100
AcDbLine
 10
90.612306
 20
104.818844
 30
0.0
 11
90.612306
 21
104.591888
 31
0.0
  0
LINE
  5
29
100
AcDbEntity
  8
ALPHA
100
AcDbLine
 10
88.512306
 20
115.545562
 30
0.0
 11
88.512306
 21
115.643844
 31
0.0
  0
LINE
  5
2A
100
AcDbEntity
  8
ALPHA
100
AcDbLine
 10
88.512306
 20
111.218844
 30
0.0
 11
88.512306
 21
111.718844
 31
0.0
  0
LINE
  5
2B
100
AcDbEntity
  8
ALPHA
100
AcDbLine
 10
88.512306
 20
104.468844
 30
0.0
 11
88.512306
 21
105.318844
 31
0.0
  0
LINE
  5
2C
100
AcDbEntity
  8
ALPHA
100
AcDbLine
 10
88.512306
 20
100.893844
 30
0.0
 11
88.512306
 21
100.992126
 31
0.0
  0
LINE
  5
2D
100
AcDbEntity
  8
ALPHA
100
AcDbLine
 10
88.512306
 20
109.768844
 30
0.0
 11
88.512306
 21
106.768844
 31
0.0
  0
LINE
  5
2E
100
AcDbEntity
  8
ALPHA
100
AcDbLine
 10
88.012306
 20
109.568844
 30
0.0
 11
88.012306
 21
111.968844
 31
0.0
  0
LINE
  5
2F
100
AcDbEntity
  8
ALPHA
100
AcDbLine
 10
87.612307
 20
111.428418
 30
0.0
 11
87.612307
 21
111.768844
 31
0.0
  0
LINE
  5
30
100
AcDbEntity
  8
ALPHA
100
AcDbLine
 10
87.612307
 20
109.768844
 30
0.0
 11
87.612307
 21
109.98161
 31
0.0
  0
LINE
  5
31
100
AcDbEntity
  8
ALPHA
100
AcDbLine
 10
87.412306
 20
114.918844
 30
0.0
 11
87.412306
 21
115.643844
 31
0.0
  0
LINE
  5
32
100
AcDbEntity
  8
ALPHA
100
AcDbLine
 10
87.412306
 20
113.193237
 30
0.0
 11
87.412306
 21
113.758923
 31
0.0
  0
LINE
  5
33
100
AcDbEntity
  8
ALPHA
100
AcDbLine
 10
87.412306
 20
100.893844
 30
0.0
 11
87.412306
 21
101.618844
 31
0.0
  0
LINE
  5
34
100
AcDbEntity
  8
ALPHA
100
AcDbLine
 10
87.012306
 20
106.968844
 30
0.0
 11
87.012306
 21
109.568844
 31
0.0
  0
LINE
  5
35
100
AcDbEntity
  8
ALPHA
100
AcDbLine
 10
85.499806
 20
111.002886
 30
0.0
 11
85.472723
 21
111.130546
 31
0.0
  0
LINE
  5
36
100
AcDbEntity
  8
ALPHA
100
AcDbLine
 10
85.337306
 20
110.960333
 30
0.0
 11
85.310223
 21
111.087993
 31
0.0
  0
LINE
  5
37
100
AcDbEntity
  8
ALPHA
100
AcDbLine
 10
85.499806
 20
110.151822
 30
0.0
 11
85.472723
 21
110.279482
 31
0.0
  0
LINE
  5
38
100
AcDbEntity
  8
ALPHA
100
AcDbLine
 10
85.337306
 20
110.109269
 30
0.0
 11
85.310223
 21
110.236929
 31
0.0
  0
LINE
  5
39
100
AcDbEntity
  8
ALPHA
100
AcDbLine
 10
85.066473
 20
111.215652
 30
0.0
 11
85.012306
 21
111.428418
 31
0.0
  0
LINE
  5
3A
100
AcDbEntity
  8
ALPHA
100
AcDbLine
 10
84.903973
 20
111.300759
 30
0.0
 11
84.849807
 21
111.428418
 31
0.0
  0
LINE
  5
3B
100
AcDbEntity
  8
ALPHA
100
AcDbLine
 10
85.418556
 20
110.79012
 30
0.0
 11
85.337306
 21
110.960333
 31
0.0
  0
LINE
  5
3C
100
AcDbEntity
  8
ALPHA
100
AcDbLine
 10
85.012306
 20
111.428418
 30
0.0
 11
84.931056
 21
111.598631
 31
0.0
  0
LINE
  5
3D
100
AcDbEntity
  8
ALPHA
100
AcDbLine
 10
85.553973
 20
110.91778
 30
0.0
 11
85.499806
 21
111.002886
 31
0.0
  0
LINE
  5
3E
100
AcDbEntity
  8
ALPHA
100
AcDbLine
 10
92.412306
 20
115.043844
 30
0.0
 11
89.910993
 21
115.484893
 31
0.0
  0
LINE
  5
3F
100
AcDbEntity
  8
ALPHA
100
AcDbLine
 10
68.412306
 20
117.143844
 30
0.0
 11
60.609614
 21
117.143844
 31
0.0
  0
LINE
  5
40
100
AcDbEntity
  8
ALPHA
100
AcDbLine
 10
86.528973
 20
111.513525
 30
0.0
 11
86.528973
 21
111.768844
 31
0.0
  0
LINE
  5
41
100
AcDbEntity
  8
ALPHA
100
AcDbLine
 10
86.528973
 20
109.768844
 30
0.0
 11
86.528973
 21
110.066716
 31
0.0
  0
LINE
  5
42
100
AcDbEntity
  8
ALPHA
100
AcDbLine
 10
86.412306
 20
101.618844
 30
0.0
 11
86.412306
 21
100.893844
 31
0.0
  0
LINE
  5
43
100
AcDbEntity
  8
ALPHA
100
AcDbLine
 10
86.412306
 20
115.643844
 30
0.0
 11
86.412306
 21
114.918844
 31
0.0
  0
LINE
  5
44
100
AcDbEntity
  8
ALPHA
100
AcDbLine
 10
86.312306
 20
109.768844
 30
0.0
 11
86.312306
 21
111.768844
 31
0.0
  0
LINE
  5
45
100
AcDbEntity
  8
ALPHA
100
AcDbLine
 10
86.149806
 20
110.875227
 30
0.0
 11
86.149806
 21
111.513525
 31
0.0
  0
LINE
  5
46
100
AcDbEntity
  8
ALPHA
100
AcDbLine
 10
86.149806
 20
110.024163
 30
0.0
 11
86.149806
 21
110.619907
 31
0.0
  0
LINE
  5
47
100
AcDbEntity
  8
ALPHA
100
AcDbLine
 10
85.472723
 20
111.130546
 30
0.0
 11
85.472723
 21
111.258205
 31
0.0
  0
LINE
  5
48
100
AcDbEntity
  8
ALPHA
100
AcDbLine
 10
85.472723
 20
110.279482
 30
0.0
 11
85.472723
 21
110.364588
 31
0.0
  0
LINE
  5
49
100
AcDbEntity
  8
ALPHA
100
AcDbLine
 10
83.90189
 20
111.087993
 30
0.0
 11
83.874806
 21
111.300759
 31
0.0
  0
LINE
  5
4A
100
AcDbEntity
  8
ALPHA
100
AcDbLine
 10
84.931056
 20
111.173099
 30
0.0
 11
84.903973
 21
111.300759
 31
0.0
  0
LINE
  5
4B
100
AcDbEntity
  8
ALPHA
100
AcDbLine
 10
84.281056
 20
110.91778
 30
0.0
 11
84.253973
 21
111.045439
 31
0.0
  0
LINE
  5
4C
100
AcDbEntity
  8
ALPHA
100
AcDbLine
 10
84.199806
 20
110.109269
 30
0.0
 11
84.172723
 21
110.236929
 31
0.0
  0
LINE
  5
4D
100
AcDbEntity
  8
ALPHA
100
AcDbLine
 10
84.172723
 20
110.79012
 30
0.0
 11
84.118556
 21
111.002886
 31
0.0
  0
LINE
  5
4E
100
AcDbEntity
  8
ALPHA
100
AcDbLine
 10
83.874806
 20
111.300759
 30
0.0
 11
83.82064
 21
111.470971
 31
0.0
  0
LINE
  5
4F
100
AcDbEntity
  8
ALPHA
100
AcDbLine
 10
84.362306
 20
110.109269
 30
0.0
 11
84.30814
 21
110.236929
 31
0.0
  0
LINE
  5
50
100
AcDbEntity
  8
ALPHA
100
AcDbLine
 10
83.712306
 20
111.258205
 30
0.0
 11
83.65814
 21
111.385865
 31
0.0
  0
LINE
  5
51
100
AcDbEntity
  8
ALPHA
100
AcDbLine
 10
85.418556
 20
109.939056
 30
0.0
 11
85.337306
 21
110.109269
 31
0.0
  0
LINE
  5
52
100
AcDbEntity
  8
ALPHA
100
AcDbLine
 10
84.281056
 20
109.939056
 30
0.0
 11
84.199806
 21
110.109269
 31
0.0
  0
LINE
  5
53
100
AcDbEntity
  8
ALPHA
100
AcDbLine
 10
85.553973
 20
110.066716
 30
0.0
 11
85.499806
 21
110.151822
 31
0.0
  0
LINE
  5
54
100
AcDbEntity
  8
ALPHA
100
AcDbLine
 10
84.335223
 20
110.832674
 30
0.0
 11
84.281056
 21
110.91778
 31
0.0
  0
LINE
  5
55
100
AcDbEntity
  8
ALPHA
100
AcDbLine
 10
83.82064
 20
111.470971
 30
0.0
 11
83.712306
 21
111.641184
 31
0.0
  0
LINE
  5
56
100
AcDbEntity
  8
ALPHA
100
AcDbLine
 10
84.253973
 20
110.662461
 30
0.0
 11
84.172723
 21
110.79012
 31
0.0
  0
LINE
  5
57
100
AcDbEntity
  8
ALPHA
100
AcDbLine
 10
85.52689
 20
109.811397
 30
0.0
 11
85.418556
 21
109.939056
 31
0.0
  0
LINE
  5
58
100
AcDbEntity
  8
ALPHA
100
AcDbLine
 10
84.849807
 20
111.428418
 30
0.0
 11
84.768556
 21
111.513525
 31
0.0
  0
LINE
  5
59
100
AcDbEntity
  8
ALPHA
100
AcDbLine
 10
84.931056
 20
111.598631
 30
0.0
 11
84.79564
 21
111.72629
 31
0.0
  0
LINE
  5
5A
100
AcDbEntity
  8
ALPHA
100
AcDbLine
 10
80.912306
 20
115.026131
 30
0.0
 11
81.537306
 21
114.572252
 31
0.0
  0
LWPOLYLINE
  5
5B
100
AcDbEntity
  8
ALPHA
100
AcDbPolyline
 90
        4
 70
     0
 43
0.0
 10
89.910993
 20
115.484893
 10
89.446707
 20
115.506685
 10
88.980429
 20
115.526913
 10
88.512306
 20
115.545562
  0
LINE
  5
61
100
AcDbEntity
  8
ALPHA
100
AcDbLine
 10
68.412306
 20
116.968844
 30
0.0
 11
69.012306
 21
116.968844
 31
0.0
  0
LINE
  5
62
100
AcDbEntity
  8
ALPHA
100
AcDbLine
 10
70.712306
 20
116.268844
 30
0.0
 11
69.012306
 21
116.268844
 31
0.0
  0
LINE
  5
63
100
AcDbEntity
  8
ALPHA
100
AcDbLine
 10
60.455114
 20
115.858844
 30
0.0
 11
60.412306
 21
115.858844
 31
0.0
  0
LINE
  5
64
100
AcDbEntity
  8
ALPHA
100
AcDbLine
 10
85.012306
 20
110.109269
 30
0.0
 11
85.066473
 21
110.322035
 31
0.0
  0
LINE
  5
65
100
AcDbEntity
  8
ALPHA
100
AcDbLine
 10
85.472723
 20
110.364588
 30
0.0
 11
85.499806
 21
110.492248
 31
0.0
  0
LINE
  5
66
100
AcDbEntity
  8
ALPHA
100
AcDbLine
 10
85.310223
 20
110.407141
 30
0.0
 11
85.337306
 21
110.534801
 31
0.0
  0
LINE
  5
67
100
AcDbEntity
  8
ALPHA
100
AcDbLine
 10
85.472723
 20
111.258205
 30
0.0
 11
85.499806
 21
111.385865
 31
0.0
  0
LINE
  5
68
100
AcDbEntity
  8
ALPHA
100
AcDbLine
 10
85.310223
 20
111.300759
 30
0.0
 11
85.337306
 21
111.428418
 31
0.0
  0
LINE
  5
69
100
AcDbEntity
  8
ALPHA
100
AcDbLine
 10
84.903973
 20
110.236929
 30
0.0
 11
84.931056
 21
110.364588
 31
0.0
  0
LINE
  5
6A
100
AcDbEntity
  8
ALPHA
100
AcDbLine
 10
84.903973
 20
110.91778
 30
0.0
 11
84.931056
 21
111.045439
 31
0.0
  0
LINE
  5
6B
100
AcDbEntity
  8
ALPHA
100
AcDbLine
 10
84.931056
 20
110.364588
 30
0.0
 11
84.95814
 21
110.619907
 31
0.0
  0
LINE
  5
6C
100
AcDbEntity
  8
ALPHA
100
AcDbLine
 10
85.066473
 20
110.322035
 30
0.0
 11
85.093556
 21
110.619907
 31
0.0
  0
LINE
  5
6D
100
AcDbEntity
  8
ALPHA
100
AcDbLine
 10
85.310223
 20
111.087993
 30
0.0
 11
85.310223
 21
111.300759
 31
0.0
  0
LINE
  5
6E
100
AcDbEntity
  8
ALPHA
100
AcDbLine
 10
85.310223
 20
110.236929
 30
0.0
 11
85.310223
 21
110.407141
 31
0.0
  0
LINE
  5
6F
100
AcDbEntity
  8
ALPHA
100
AcDbLine
 10
85.093556
 20
110.619907
 30
0.0
 11
85.093556
 21
110.91778
 31
0.0
  0
LINE
  5
70
100
AcDbEntity
  8
ALPHA
100
AcDbLine
 10
84.95814
 20
110.619907
 30
0.0
 11
84.95814
 21
110.705014
 31
0.0
  0
LINE
  5
71
100
AcDbEntity
  8
ALPHA
100
AcDbLine
 10
84.931056
 20
111.045439
 30
0.0
 11
84.931056
 21
111.173099
 31
0.0
  0
LINE
  5
72
100
AcDbEntity
  8
ALPHA
100
AcDbLine
 10
84.253973
 20
111.045439
 30
0.0
 11
84.253973
 21
111.173099
 31
0.0
  0
LINE
  5
73
100
AcDbEntity
  8
ALPHA
100
AcDbLine
 10
85.093556
 20
110.91778
 30
0.0
 11
85.066473
 21
111.215652
 31
0.0
  0
LINE
  5
74
100
AcDbEntity
  8
ALPHA
100
AcDbLine
 10
82.872723
 20
110.066716
 30
0.0
 11
82.84564
 21
110.279482
 31
0.0
  0
LINE
  5
75
100
AcDbEntity
  8
ALPHA
100
AcDbLine
 10
83.73939
 20
111.087993
 30
0.0
 11
83.712306
 21
111.258205
 31
0.0
  0
LINE
  5
76
100
AcDbEntity
  8
ALPHA
100
AcDbLine
 10
83.035223
 20
110.151822
 30
0.0
 11
83.00814
 21
110.279482
 31
0.0
  0
LINE
  5
77
100
AcDbEntity
  8
ALPHA
100
AcDbLine
 10
84.416473
 20
110.747567
 30
0.0
 11
84.335223
 21
110.832674
 31
0.0
  0
LINE
  5
78
100
AcDbEntity
  8
ALPHA
100
AcDbLine
 10
83.65814
 20
111.385865
 30
0.0
 11
83.57689
 21
111.470971
 31
0.0
  0
LINE
  5
79
100
AcDbEntity
  8
ALPHA
100
AcDbLine
 10
84.443557
 20
110.024163
 30
0.0
 11
84.362306
 21
110.109269
 31
0.0
  0
LINE
  5
7A
100
AcDbEntity
  8
ALPHA
100
AcDbLine
 10
84.38939
 20
110.534801
 30
0.0
 11
84.253973
 21
110.662461
 31
0.0
  0
LINE
  5
7B
100
AcDbEntity
  8
ALPHA
100
AcDbLine
 10
84.416473
 20
109.811397
 30
0.0
 11
84.281056
 21
109.939056
 31
0.0
  0
LINE
  5
7C
100
AcDbEntity
  8
ALPHA
100
AcDbLine
 10
85.472723
 20
110.747567
 30
0.0
 11
85.418556
 21
110.79012
 31
0.0
  0
LINE
  5
7D
100
AcDbEntity
  8
ALPHA
100
AcDbLine
 10
83.712306
 20
111.641184
 30
0.0
 11
83.603973
 21
111.72629
 31
0.0
  0
LINE
  5
7E
100
AcDbEntity
  8
ALPHA
100
AcDbLine
 10
84.768556
 20
111.513525
 30
0.0
 11
84.687306
 21
111.556078
 31
0.0
  0
LINE
  5
7F
100
AcDbEntity
  8
ALPHA
100
AcDbLine
 10
85.635223
 20
110.875227
 30
0.0
 11
85.553973
 21
110.91778
 31
0.0
  0
LINE
  5
80
100
AcDbEntity
  8
ALPHA
100
AcDbLine
 10
81.537306
 20
115.643844
 30
0.0
 11
70.712306
 21
115.643844
 31
0.0
  0
LINE
  5
81
100
AcDbEntity
  8
ALPHA
100
AcDbLine
 10
86.412306
 20
115.643844
 30
0.0
 11
81.537306
 21
115.643844
 31
0.0
  0
LINE
  5
82
100
AcDbEntity
  8
ALPHA
100
AcDbLine
 10
88.512306
 20
115.643844
 30
0.0
 11
87.412306
 21
115.643844
 31
0.0
  0
LINE
  5
83
100
AcDbEntity
  8
ALPHA
100
AcDbLine
 10
70.712306
 20
115.593844
 30
0.0
 11
81.537306
 21
115.593844
 31
0.0
  0
LINE
  5
84
100
AcDbEntity
  8
ALPHA
100
AcDbLine
 10
72.112306
 20
115.026131
 30
0.0
 11
80.912306
 21
115.026131
 31
0.0
  0
LINE
  5
85
100
AcDbEntity
  8
ALPHA
100
AcDbLine
 10
87.412306
 20
114.918844
 30
0.0
 11
86.412306
 21
114.918844
 31
0.0
  0
LINE
  5
86
100
AcDbEntity
  8
ALPHA
100
AcDbLine
 10
86.66439
 20
109.98161
 30
0.0
 11
87.612307
 21
111.428418
 31
0.0
  0
LINE
  5
87
100
AcDbEntity
  8
ALPHA
100
AcDbLine
 10
86.528973
 20
110.066716
 30
0.0
 11
87.449807
 21
111.513525
 31
0.0
  0
LINE
  5
88
100
AcDbEntity
  8
ALPHA
100
AcDbLine
 10
85.337306
 20
110.534801
 30
0.0
 11
85.418556
 21
110.705014
 31
0.0
  0
LINE
  5
89
100
AcDbEntity
  8
ALPHA
100
AcDbLine
 10
84.931056
 20
109.939056
 30
0.0
 11
85.012306
 21
110.109269
 31
0.0
  0
LINE
  5
8A
100
AcDbEntity
  8
ALPHA
100
AcDbLine
 10
85.337306
 20
111.428418
 30
0.0
 11
85.418556
 21
111.598631
 31
0.0
  0
LINE
  5
8B
100
AcDbEntity
  8
ALPHA
100
AcDbLine
 10
84.849807
 20
110.109269
 30
0.0
 11
84.903973
 21
110.236929
 31
0.0
  0
LINE
  5
8C
100
AcDbEntity
  8
ALPHA
100
AcDbLine
 10
83.82064
 20
110.066716
 30
0.0
 11
83.874806
 21
110.236929
 31
0.0
  0
LINE
  5
8D
100
AcDbEntity
  8
ALPHA
100
AcDbLine
 10
84.118556
 20
111.215652
 30
0.0
 11
84.172723
 21
111.428418
 31
0.0
  0
LINE
  5
8E
100
AcDbEntity
  8
ALPHA
100
AcDbLine
 10
84.253973
 20
111.173099
 30
0.0
 11
84.281056
 21
111.300759
 31
0.0
  0
LINE
  5
8F
100
AcDbEntity
  8
ALPHA
100
AcDbLine
 10
83.712306
 20
110.279482
 30
0.0
 11
83.73939
 21
110.449695
 31
0.0
  0
LINE
  5
90
100
AcDbEntity
  8
ALPHA
100
AcDbLine
 10
83.874806
 20
110.236929
 30
0.0
 11
83.90189
 21
110.449695
 31
0.0
  0
LINE
  5
91
100
AcDbEntity
  8
ALPHA
100
AcDbLine
 10
84.118556
 20
111.002886
 30
0.0
 11
84.118556
 21
111.215652
 31
0.0
  0
LINE
  5
92
100
AcDbEntity
  8
ALPHA
100
AcDbLine
 10
83.90189
 20
110.449695
 30
0.0
 11
83.90189
 21
111.087993
 31
0.0
  0
LINE
  5
93
100
AcDbEntity
  8
ALPHA
100
AcDbLine
 10
83.73939
 20
110.449695
 30
0.0
 11
83.73939
 21
111.087993
 31
0.0
  0
LINE
  5
94
100
AcDbEntity
  8
ALPHA
100
AcDbLine
 10
82.981056
 20
109.896503
 30
0.0
 11
82.872723
 21
110.066716
 31
0.0
  0
LINE
  5
95
100
AcDbEntity
  8
ALPHA
100
AcDbLine
 10
83.116473
 20
110.066716
 30
0.0
 11
83.035223
 21
110.151822
 31
0.0
  0
LINE
  5
96
100
AcDbEntity
  8
ALPHA
100
AcDbLine
 10
83.08939
 20
109.811397
 30
0.0
 11
82.981056
 21
109.896503
 31
0.0
  0
LINE
  5
97
100
AcDbEntity
  8
ALPHA
100
AcDbLine
 10
81.537306
 20
112.097378
 30
0.0
 11
80.912306
 21
112.551257
 31
0.0
  0
LINE
  5
98
100
AcDbEntity
  8
ALPHA
100
AcDbLine
 10
84.497723
 20
110.705014
 30
0.0
 11
84.416473
 21
110.747567
 31
0.0
  0
LINE
  5
99
100
AcDbEntity
  8
ALPHA
100
AcDbLine
 10
85.635223
 20
110.024163
 30
0.0
 11
85.553973
 21
110.066716
 31
0.0
  0
LINE
  5
9A
100
AcDbEntity
  8
ALPHA
100
AcDbLine
 10
84.524806
 20
109.98161
 30
0.0
 11
84.443557
 21
110.024163
 31
0.0
  0
LINE
  5
9B
100
AcDbEntity
  8
ALPHA
100
AcDbLine
 10
83.57689
 20
111.470971
 30
0.0
 11
83.468556
 21
111.513525
 31
0.0
  0
LINE
  5
9C
100
AcDbEntity
  8
ALPHA
100
AcDbLine
 10
84.79564
 20
111.72629
 30
0.0
 11
84.660223
 21
111.768844
 31
0.0
  0
LINE
  5
9D
100
AcDbEntity
  8
ALPHA
100
AcDbLine
 10
83.603973
 20
111.72629
 30
0.0
 11
83.468556
 21
111.768844
 31
0.0
  0
LINE
  5
9E
100
AcDbEntity
  8
ALPHA
100
AcDbLine
 10
73.815093
 20
113.654594
 30
0.0
 11
84.111065
 21
112.949647
 31
0.0
  0
LWPOLYLINE
  5
9F
100
AcDbEntity
  8
ALPHA
100
AcDbPolyline
 90
        5
 70
     0
 43
0.0
 10
87.412306
 20
113.758923
 10
83.878407
 20
113.982085
 10
80.369344
 20
114.192393
 10
76.896431
 20
114.389269
 10
73.470171
 20
114.572252
  0
LWPOLYLINE
  5
A6
100
AcDbEntity
  8
ALPHA
100
AcDbPolyline
 90
       13
 70
     0
 43
0.0
 10
69.812306
 20
114.219632
 10
69.849898
 20
114.217862
 10
69.887085
 20
114.21258
 10
69.922099
 20
114.204269
 10
69.955762
 20
114.193023
 10
69.989482
 20
114.178253
 10
70.018627
 20
114.162315
 10
70.046788
 20
114.143697
 10
70.0748
 20
114.121455
 10
70.100769
 20
114.096741
 10
70.123723
 20
114.07067
 10
70.144896
 20
114.041857
 10
70.152639
 20
114.029807
  0
LWPOLYLINE
  5
B5
100
AcDbEntity
  8
ALPHA
100
AcDbPolyline
 90
       17
 70
     0
 43
0.0
 10
61.365859
 20
114.061993
 10
61.352519
 20
114.062411
 10
61.337697
 20
114.063817
 10
61.321715
 20
114.066385
 10
61.304848
 20
114.070232
 10
61.287222
 20
114.07547
 10
61.269121
 20
114.082138
 10
61.250541
 20
114.090362
 10
61.231524
 20
114.100282
 10
61.212219
 20
114.11201
 10
61.192887
 20
114.125595
 10
61.173548
 20
114.141284
 10
61.154281
 20
114.159411
 10
61.13539
 20
114.180253
 10
61.117349
 20
114.204083
 10
61.100791
 20
114.231258
 10
61.086756
 20
114.261993
  0
LINE
  5
C8
100
AcDbEntity
  8
ALPHA
100
AcDbLine
 10
73.470171
 20
114.572252
 30
0.0
 11
81.537306
 21
114.572252
 31
0.0
  0
LINE
  5
C9
100
AcDbEntity
  8
ALPHA
100
AcDbLine
 10
72.112306
 20
114.572252
 30
0.0
 11
72.71474
 21
114.572252
 31
0.0
  0
LINE
  5
CA
100
AcDbEntity
  8
ALPHA
100
AcDbLine
 10
61.365859
 20
114.061993
 30
0.0
 11
61.770572
 21
114.061993
 31
0.0
  0
LINE
  5
CB
100
AcDbEntity
  8
ALPHA
100
AcDbLine
 10
61.905393
 20
114.009506
 30
0.0
 11
61.139009
 21
114.009506
 31
0.0
  0
LINE
  5
CC
100
AcDbEntity
  8
ALPHA
100
AcDbLine
 10
87.412306
 20
113.758923
 30
0.0
 11
92.412306
 21
113.758923
 31
0.0
  0
LWPOLYLINE
  5
CD
100
AcDbEntity
  8
ALPHA
100
AcDbPolyline
 90
       23
 70
     0
 43
0.0
 10
69.812306
 20
113.654882
 10
69.846295
 20
113.656047
 10
69.880029
 20
113.659537
 10
69.913191
 20
113.665317
 10
69.945541
 20
113.673344
 10
69.97676
 20
113.683535
 10
70.006643
 20
113.695819
 10
70.034874
 20
113.71006
 10
70.061271
 20
113.726163
 10
70.085554
 20
113.743954
 10
70.107607
 20
113.763357
 10
70.127157
 20
113.784155
 10
70.143952
 20
113.806066
 10
70.157864
 20
113.828878
 10
70.168839
 20
113.85249
 10
70.176746
 20
113.876634
 10
70.181521
 20
113.901118
 10
70.183116
 20
113.925708
 10
70.181518
 20
113.950192
 10
70.176741
 20
113.97436
 10
70.168832
 20
113.99799
 10
70.157854
 20
114.020907
 10
70.15264
 20
114.029807
  0
LINE
  5
E6
100
AcDbEntity
  8
ALPHA
100
AcDbLine
 10
85.499806
 20
110.492248
 30
0.0
 11
85.553973
 21
110.577354
 31
0.0
  0
LINE
  5
E7
100
AcDbEntity
  8
ALPHA
100
AcDbLine
 10
85.499806
 20
111.385865
 30
0.0
 11
85.553973
 21
111.470971
 31
0.0
  0
LINE
  5
E8
100
AcDbEntity
  8
ALPHA
100
AcDbLine
 10
84.849807
 20
110.832674
 30
0.0
 11
84.903973
 21
110.91778
 31
0.0
  0
LINE
  5
E9
100
AcDbEntity
  8
ALPHA
100
AcDbLine
 10
83.712306
 20
109.896503
 30
0.0
 11
83.82064
 21
110.066716
 31
0.0
  0
LINE
  5
EA
100
AcDbEntity
  8
ALPHA
100
AcDbLine
 10
84.172723
 20
111.428418
 30
0.0
 11
84.253973
 21
111.598631
 31
0.0
  0
LINE
  5
EB
100
AcDbEntity
  8
ALPHA
100
AcDbLine
 10
84.281056
 20
111.300759
 30
0.0
 11
84.335223
 21
111.428418
 31
0.0
  0
LINE
  5
EC
100
AcDbEntity
  8
ALPHA
100
AcDbLine
 10
83.65814
 20
110.151822
 30
0.0
 11
83.712306
 21
110.279482
 31
0.0
  0
LINE
  5
ED
100
AcDbEntity
  8
ALPHA
100
AcDbLine
 10
83.00814
 20
111.258205
 30
0.0
 11
83.035223
 21
111.385865
 31
0.0
  0
LINE
  5
EE
100
AcDbEntity
  8
ALPHA
100
AcDbLine
 10
82.84564
 20
111.258205
 30
0.0
 11
82.872723
 21
111.470971
 31
0.0
  0
LINE
  5
EF
100
AcDbEntity
  8
ALPHA
100
AcDbLine
 10
82.628973
 20
111.556078
 30
0.0
 11
82.628973
 21
111.768844
 31
0.0
  0
LINE
  5
F0
100
AcDbEntity
  8
ALPHA
100
AcDbLine
 10
82.493556
 20
111.556078
 30
0.0
 11
82.493556
 21
111.768844
 31
0.0
  0
LINE
  5
F1
100
AcDbEntity
  8
ALPHA
100
AcDbLine
 10
82.412306
 20
109.568844
 30
0.0
 11
82.412306
 21
106.968844
 31
0.0
  0
LINE
  5
F2
100
AcDbEntity
  8
ALPHA
100
AcDbLine
 10
82.012306
 20
109.568844
 30
0.0
 11
82.012306
 21
111.968844
 31
0.0
  0
LINE
  5
F3
100
AcDbEntity
  8
ALPHA
100
AcDbLine
 10
83.224806
 20
110.024163
 30
0.0
 11
83.116473
 21
110.066716
 31
0.0
  0
LINE
  5
F4
100
AcDbEntity
  8
ALPHA
100
AcDbLine
 10
84.524806
 20
110.492248
 30
0.0
 11
84.38939
 21
110.534801
 31
0.0
  0
LINE
  5
F5
100
AcDbEntity
  8
ALPHA
100
AcDbLine
 10
85.662307
 20
109.768844
 30
0.0
 11
85.52689
 21
109.811397
 31
0.0
  0
LINE
  5
F6
100
AcDbEntity
  8
ALPHA
100
AcDbLine
 10
72.71474
 20
113.193251
 30
0.0
 11
73.422163
 21
113.193251
 31
0.0
  0
LINE
  5
F7
100
AcDbEntity
  8
ALPHA
100
AcDbLine
 10
92.412306
 20
113.193237
 30
0.0
 11
87.412306
 21
113.193237
 31
0.0
  0
LINE
  5
F8
100
AcDbEntity
  8
ALPHA
100
AcDbLine
 10
72.651136
 20
112.668844
 30
0.0
 11
73.375088
 21
112.668844
 31
0.0
  0
LINE
  5
F9
100
AcDbEntity
  8
ALPHA
100
AcDbLine
 10
80.912306
 20
112.551257
 30
0.0
 11
72.112306
 21
112.551257
 31
0.0
  0
LWPOLYLINE
  5
FA
100
AcDbEntity
  8
ALPHA
100
AcDbPolyline
 90
        4
 70
     0
 43
0.0
 10
78.985984
 20
112.551257
 10
80.369344
 20
112.662269
 10
83.878407
 20
112.932479
 10
87.412306
 20
113.193237
  0
LINE
  5
100
100
AcDbEntity
  8
ALPHA
100
AcDbLine
 10
84.79564
 20
109.811397
 30
0.0
 11
84.931056
 21
109.939056
 31
0.0
  0
LINE
  5
101
100
AcDbEntity
  8
ALPHA
100
AcDbLine
 10
84.768556
 20
110.024163
 30
0.0
 11
84.849807
 21
110.109269
 31
0.0
  0
LINE
  5
102
100
AcDbEntity
  8
ALPHA
100
AcDbLine
 10
84.79564
 20
110.534801
 30
0.0
 11
84.95814
 21
110.705014
 31
0.0
  0
LINE
  5
103
100
AcDbEntity
  8
ALPHA
100
AcDbLine
 10
84.768556
 20
110.747567
 30
0.0
 11
84.849807
 21
110.832674
 31
0.0
  0
LINE
  5
104
100
AcDbEntity
  8
ALPHA
100
AcDbLine
 10
85.418556
 20
111.598631
 30
0.0
 11
85.52689
 21
111.72629
 31
0.0
  0
LINE
  5
105
100
AcDbEntity
  8
ALPHA
100
AcDbLine
 10
81.537306
 20
100.893844
 30
0.0
 11
81.537306
 21
115.643844
 31
0.0
  0
LINE
  5
106
100
AcDbEntity
  8
ALPHA
100
AcDbLine
 10
80.912306
 20
100.943844
 30
0.0
 11
80.912306
 21
112.551257
 31
0.0
  0
LINE
  5
107
100
AcDbEntity
  8
ALPHA
100
AcDbLine
 10
80.912306
 20
115.593844
 30
0.0
 11
80.912306
 21
115.026131
 31
0.0
  0
LINE
  5
108
100
AcDbEntity
  8
ALPHA
100
AcDbLine
 10
84.55189
 20
109.768844
 30
0.0
 11
84.416473
 21
109.811397
 31
0.0
  0
LINE
  5
109
100
AcDbEntity
  8
ALPHA
100
AcDbLine
 10
83.224806
 20
109.768844
 30
0.0
 11
83.08939
 21
109.811397
 31
0.0
  0
LINE
  5
10A
100
AcDbEntity
  8
ALPHA
100
AcDbLine
 10
88.012306
 20
111.968844
 30
0.0
 11
82.012306
 21
111.968844
 31
0.0
  0
LINE
  5
10B
100
AcDbEntity
  8
ALPHA
100
AcDbLine
 10
82.628973
 20
111.768844
 30
0.0
 11
82.493556
 21
111.768844
 31
0.0
  0
LINE
  5
10C
100
AcDbEntity
  8
ALPHA
100
AcDbLine
 10
83.468556
 20
111.768844
 30
0.0
 11
83.224806
 21
111.768844
 31
0.0
  0
LINE
  5
10D
100
AcDbEntity
  8
ALPHA
100
AcDbLine
 10
84.660223
 20
111.768844
 30
0.0
 11
84.524806
 21
111.768844
 31
0.0
  0
LINE
  5
10E
100
AcDbEntity
  8
ALPHA
100
AcDbLine
 10
86.312306
 20
111.768844
 30
0.0
 11
85.662307
 21
111.768844
 31
0.0
  0
LINE
  5
10F
100
AcDbEntity
  8
ALPHA
100
AcDbLine
 10
87.612307
 20
111.768844
 30
0.0
 11
86.528973
 21
111.768844
 31
0.0
  0
LINE
  5
110
100
AcDbEntity
  8
ALPHA
100
AcDbLine
 10
92.412306
 20
111.718844
 30
0.0
 11
88.512306
 21
111.718844
 31
0.0
  0
LINE
  5
111
100
AcDbEntity
  8
ALPHA
100
AcDbLine
 10
82.628973
 20
111.556078
 30
0.0
 11
82.493556
 21
111.556078
 31
0.0
  0
LINE
  5
112
100
AcDbEntity
  8
ALPHA
100
AcDbLine
 10
84.687306
 20
111.556078
 30
0.0
 11
84.497723
 21
111.556078
 31
0.0
  0
LINE
  5
113
100
AcDbEntity
  8
ALPHA
100
AcDbLine
 10
83.468556
 20
111.513525
 30
0.0
 11
83.224806
 21
111.513525
 31
0.0
  0
LINE
  5
114
100
AcDbEntity
  8
ALPHA
100
AcDbLine
 10
86.149806
 20
111.513525
 30
0.0
 11
85.635223
 21
111.513525
 31
0.0
  0
LINE
  5
115
100
AcDbEntity
  8
ALPHA
100
AcDbLine
 10
87.449807
 20
111.513525
 30
0.0
 11
86.528973
 21
111.513525
 31
0.0
  0
LINE
  5
116
100
AcDbEntity
  8
ALPHA
100
AcDbLine
 10
83.00814
 20
111.258205
 30
0.0
 11
82.84564
 21
111.258205
 31
0.0
  0
LINE
  5
117
100
AcDbEntity
  8
ALPHA
100
AcDbLine
 10
88.512306
 20
111.218844
 30
0.0
 11
92.812306
 21
111.218844
 31
0.0
  0
LINE
  5
118
100
AcDbEntity
  8
ALPHA
100
AcDbLine
 10
85.418556
 20
110.705014
 30
0.0
 11
85.472723
 21
110.747567
 31
0.0
  0
LINE
  5
119
100
AcDbEntity
  8
ALPHA
100
AcDbLine
 10
83.603973
 20
109.811397
 30
0.0
 11
83.712306
 21
109.896503
 31
0.0
  0
LINE
  5
11A
100
AcDbEntity
  8
ALPHA
100
AcDbLine
 10
84.253973
 20
111.598631
 30
0.0
 11
84.38939
 21
111.72629
 31
0.0
  0
LINE
  5
11B
100
AcDbEntity
  8
ALPHA
100
AcDbLine
 10
83.57689
 20
110.066716
 30
0.0
 11
83.65814
 21
110.151822
 31
0.0
  0
LINE
  5
11C
100
AcDbEntity
  8
ALPHA
100
AcDbLine
 10
84.335223
 20
111.428418
 30
0.0
 11
84.416473
 21
111.513525
 31
0.0
  0
LINE
  5
11D
100
AcDbEntity
  8
ALPHA
100
AcDbLine
 10
82.872723
 20
111.470971
 30
0.0
 11
82.981056
 21
111.641184
 31
0.0
  0
LINE
  5
11E
100
AcDbEntity
  8
ALPHA
100
AcDbLine
 10
86.149806
 20
110.875227
 30
0.0
 11
85.635223
 21
110.875227
 31
0.0
  0
LINE
  5
11F
100
AcDbEntity
  8
ALPHA
100
AcDbLine
 10
84.687306
 20
110.705014
 30
0.0
 11
84.497723
 21
110.705014
 31
0.0
  0
LINE
  5
120
100
AcDbEntity
  8
ALPHA
100
AcDbLine
 10
86.149806
 20
110.619907
 30
0.0
 11
85.635223
 21
110.619907
 31
0.0
  0
LINE
  5
121
100
AcDbEntity
  8
ALPHA
100
AcDbLine
 10
84.660223
 20
110.492248
 30
0.0
 11
84.524806
 21
110.492248
 31
0.0
  0
LINE
  5
122
100
AcDbEntity
  8
ALPHA
100
AcDbLine
 10
83.00814
 20
110.279482
 30
0.0
 11
82.84564
 21
110.279482
 31
0.0
  0
LINE
  5
123
100
AcDbEntity
  8
ALPHA
100
AcDbLine
 10
62.212306
 20
110.268844
 30
0.0
 11
62.79483
 21
110.268844
 31
0.0
  0
LINE
  5
124
100
AcDbEntity
  8
ALPHA
100
AcDbLine
 10
84.30814
 20
110.236929
 30
0.0
 11
84.172723
 21
110.236929
 31
0.0
  0
LINE
  5
125
100
AcDbEntity
  8
ALPHA
100
AcDbLine
 10
83.468556
 20
110.024163
 30
0.0
 11
83.224806
 21
110.024163
 31
0.0
  0
LINE
  5
126
100
AcDbEntity
  8
ALPHA
100
AcDbLine
 10
86.149806
 20
110.024163
 30
0.0
 11
85.635223
 21
110.024163
 31
0.0
  0
LINE
  5
127
100
AcDbEntity
  8
ALPHA
100
AcDbLine
 10
84.687306
 20
109.98161
 30
0.0
 11
84.524806
 21
109.98161
 31
0.0
  0
LINE
  5
128
100
AcDbEntity
  8
ALPHA
100
AcDbLine
 10
87.612307
 20
109.98161
 30
0.0
 11
86.66439
 21
109.98161
 31
0.0
  0
LINE
  5
129
100
AcDbEntity
  8
ALPHA
100
AcDbLine
 10
83.468556
 20
109.768844
 30
0.0
 11
83.224806
 21
109.768844
 31
0.0
  0
LINE
  5
12A
100
AcDbEntity
  8
ALPHA
100
AcDbLine
 10
84.660223
 20
109.768844
 30
0.0
 11
84.55189
 21
109.768844
 31
0.0
  0
LINE
  5
12B
100
AcDbEntity
  8
ALPHA
100
AcDbLine
 10
86.312306
 20
109.768844
 30
0.0
 11
85.662307
 21
109.768844
 31
0.0
  0
LINE
  5
12C
100
AcDbEntity
  8
ALPHA
100
AcDbLine
 10
87.612307
 20
109.768844
 30
0.0
 11
86.528973
 21
109.768844
 31
0.0
  0
LINE
  5
12D
100
AcDbEntity
  8
ALPHA
100
AcDbLine
 10
91.312306
 20
109.768844
 30
0.0
 11
88.512306
 21
109.768844
 31
0.0
  0
LINE
  5
12E
100
AcDbEntity
  8
ALPHA
100
AcDbLine
 10
84.687306
 20
109.98161
 30
0.0
 11
84.768556
 21
110.024163
 31
0.0
  0
LINE
  5
12F
100
AcDbEntity
  8
ALPHA
100
AcDbLine
 10
85.553973
 20
110.577354
 30
0.0
 11
85.635223
 21
110.619907
 31
0.0
  0
LINE
  5
130
100
AcDbEntity
  8
ALPHA
100
AcDbLine
 10
84.687306
 20
110.705014
 30
0.0
 11
84.768556
 21
110.747567
 31
0.0
  0
LINE
  5
131
100
AcDbEntity
  8
ALPHA
100
AcDbLine
 10
83.035223
 20
111.385865
 30
0.0
 11
83.116473
 21
111.470971
 31
0.0
  0
LINE
  5
132
100
AcDbEntity
  8
ALPHA
100
AcDbLine
 10
88.012306
 20
109.568844
 30
0.0
 11
82.012306
 21
109.568844
 31
0.0
  0
LINE
  5
133
100
AcDbEntity
  8
ALPHA
100
AcDbLine
 10
84.660223
 20
109.768844
 30
0.0
 11
84.79564
 21
109.811397
 31
0.0
  0
LINE
  5
134
100
AcDbEntity
  8
ALPHA
100
AcDbLine
 10
83.468556
 20
109.768844
 30
0.0
 11
83.603973
 21
109.811397
 31
0.0
  0
LINE
  5
135
100
AcDbEntity
  8
ALPHA
100
AcDbLine
 10
84.660223
 20
110.492248
 30
0.0
 11
84.79564
 21
110.534801
 31
0.0
  0
LINE
  5
136
100
AcDbEntity
  8
ALPHA
100
AcDbLine
 10
83.468556
 20
110.024163
 30
0.0
 11
83.57689
 21
110.066716
 31
0.0
  0
LINE
  5
137
100
AcDbEntity
  8
ALPHA
100
AcDbLine
 10
85.553973
 20
111.470971
 30
0.0
 11
85.635223
 21
111.513525
 31
0.0
  0
LINE
  5
138
100
AcDbEntity
  8
ALPHA
100
AcDbLine
 10
84.416473
 20
111.513525
 30
0.0
 11
84.497723
 21
111.556078
 31
0.0
  0
LINE
  5
139
100
AcDbEntity
  8
ALPHA
100
AcDbLine
 10
82.981056
 20
111.641184
 30
0.0
 11
83.08939
 21
111.72629
 31
0.0
  0
LINE
  5
13A
100
AcDbEntity
  8
ALPHA
100
AcDbLine
 10
90.612306
 20
104.591888
 30
0.0
 11
91.212306
 21
104.478207
 31
0.0
  0
LINE
  5
13B
100
AcDbEntity
  8
ALPHA
100
AcDbLine
 10
85.52689
 20
111.72629
 30
0.0
 11
85.662307
 21
111.768844
 31
0.0
  0
LINE
  5
13C
100
AcDbEntity
  8
ALPHA
100
AcDbLine
 10
84.38939
 20
111.72629
 30
0.0
 11
84.524806
 21
111.768844
 31
0.0
  0
LINE
  5
13D
100
AcDbEntity
  8
ALPHA
100
AcDbLine
 10
83.116473
 20
111.470971
 30
0.0
 11
83.224806
 21
111.513525
 31
0.0
  0
LWPOLYLINE
  5
13E
100
AcDbEntity
  8
ALPHA
100
AcDbPolyline
 90
       37
 70
     0
 43
0.0
 10
86.538755
 20
103.034031
 10
86.522293
 20
103.027292
 10
86.505859
 20
103.020791
 10
86.489454
 20
103.014523
 10
86.47308
 20
103.008485
 10
86.456737
 20
103.002673
 10
86.440426
 20
102.997084
 10
86.424148
 20
102.991712
 10
86.407901
 20
102.986556
 10
86.391682
 20
102.98161
 10
86.375488
 20
102.976872
 10
86.359318
 20
102.972337
 10
86.343168
 20
102.968002
 10
86.327043
 20
102.963864
 10
86.310943
 20
102.959923
 10
86.294874
 20
102.956176
 10
86.278837
 20
102.952621
 10
86.262834
 20
102.949257
 10
86.246864
 20
102.946081
 10
86.230924
 20
102.943091
 10
86.21501
 20
102.940283
 10
86.19912
 20
102.937655
 10
86.18325
 20
102.935205
 10
86.167397
 20
102.93293
 10
86.15156
 20
102.93083
 10
86.135735
 20
102.928903
 10
86.119919
 20
102.927147
 10
86.104112
 20
102.925562
 10
86.088313
 20
102.924146
 10
86.072524
 20
102.922899
 10
86.056744
 20
102.92182
 10
86.040976
 20
102.920908
 10
86.025219
 20
102.920163
 10
86.009474
 20
102.919585
 10
85.993741
 20
102.919173
 10
85.978018
 20
102.918926
 10
85.962306
 20
102.918844
  0
LWPOLYLINE
  5
165
100
AcDbEntity
  8
ALPHA
100
AcDbPolyline
 90
      200
 70
     0
 43
0.0
 10
85.962306
 20
105.918844
 10
85.982161
 20
105.918713
 10
86.001997
 20
105.918319
 10
86.021818
 20
105.917664
 10
86.041627
 20
105.916746
 10
86.061426
 20
105.915565
 10
86.081216
 20
105.914122
 10
86.100991
 20
105.912417
 10
86.120743
 20
105.910451
 10
86.140465
 20
105.908225
 10
86.160149
 20
105.905739
 10
86.179789
 20
105.902995
 10
86.199385
 20
105.899991
 10
86.218936
 20
105.896729
 10
86.238445
 20
105.893208
 10
86.257911
 20
105.889428
 10
86.277333
 20
105.885389
 10
86.296707
 20
105.881092
 10
86.316024
 20
105.87654
 10
86.335277
 20
105.871734
 10
86.354459
 20
105.866675
 10
86.373563
 20
105.861366
 10
86.392589
 20
105.855806
 10
86.411536
 20
105.849996
 10
86.430404
 20
105.843935
 10
86.449193
 20
105.837625
 10
86.467902
 20
105.831066
 10
86.486527
 20
105.824259
 10
86.505063
 20
105.817205
 10
86.523506
 20
105.809906
 10
86.54185
 20
105.802364
 10
86.560092
 20
105.794581
 10
86.578228
 20
105.786557
 10
86.596253
 20
105.778296
 10
86.614166
 20
105.769798
 10
86.631961
 20
105.761067
 10
86.649637
 20
105.752102
 10
86.667192
 20
105.742905
 10
86.684626
 20
105.733476
 10
86.701936
 20
105.723815
 10
86.719124
 20
105.713922
 10
86.736187
 20
105.703798
 10
86.75312
 20
105.693446
 10
86.769917
 20
105.682869
 10
86.786573
 20
105.672072
 10
86.803083
 20
105.661058
 10
86.819441
 20
105.649829
 10
86.835646
 20
105.638385
 10
86.851701
 20
105.626727
 10
86.867605
 20
105.614853
 10
86.883359
 20
105.602762
 10
86.898962
 20
105.590456
 10
86.91441
 20
105.577936
 10
86.929698
 20
105.565207
 10
86.944821
 20
105.552273
 10
86.959774
 20
105.539138
 10
86.974551
 20
105.525805
 10
86.989151
 20
105.512275
 10
87.003573
 20
105.49855
 10
87.017817
 20
105.484629
 10
87.031882
 20
105.470512
 10
87.045767
 20
105.456202
 10
87.059469
 20
105.441699
 10
87.072987
 20
105.427005
 10
87.086317
 20
105.412121
 10
87.099458
 20
105.39705
 10
87.112407
 20
105.381792
 10
87.125161
 20
105.36635
 10
87.137718
 20
105.350727
 10
87.150074
 20
105.334926
 10
87.162228
 20
105.318949
 10
87.174176
 20
105.302798
 10
87.185917
 20
105.286472
 10
87.197453
 20
105.26997
 10
87.208781
 20
105.253291
 10
87.219903
 20
105.236432
 10
87.230817
 20
105.219393
 10
87.241519
 20
105.202179
 10
87.252004
 20
105.184792
 10
87.26227
 20
105.167238
 10
87.27231
 20
105.149522
 10
87.282121
 20
105.131648
 10
87.291699
 20
105.11362
 10
87.301042
 20
105.095443
 10
87.310146
 20
105.077122
 10
87.319007
 20
105.058659
 10
87.327623
 20
105.04006
 10
87.335991
 20
105.021329
 10
87.34411
 20
105.002468
 10
87.351976
 20
104.983482
 10
87.359588
 20
104.964374
 10
87.366944
 20
104.945147
 10
87.374043
 20
104.925798
 10
87.380885
 20
104.906326
 10
87.387469
 20
104.886727
 10
87.393794
 20
104.866998
 10
87.399861
 20
104.847138
 10
87.405664
 20
104.827151
 10
87.411202
 20
104.807042
 10
87.416471
 20
104.786815
 10
87.421468
 20
104.766476
 10
87.426188
 20
104.74603
 10
87.43063
 20
104.72548
 10
87.434792
 20
104.704829
 10
87.43867
 20
104.68408
 10
87.442263
 20
104.663238
 10
87.445568
 20
104.642305
 10
87.448583
 20
104.621284
 10
87.451306
 20
104.600176
 10
87.453734
 20
104.578985
 10
87.455865
 20
104.557711
 10
87.457696
 20
104.536358
 10
87.459225
 20
104.514931
 10
87.46045
 20
104.493437
 10
87.461368
 20
104.471882
 10
87.461977
 20
104.450272
 10
87.462275
 20
104.428612
 10
87.46226
 20
104.406906
 10
87.461929
 20
104.385156
 10
87.461281
 20
104.363362
 10
87.460313
 20
104.341527
 10
87.459023
 20
104.319655
 10
87.457409
 20
104.297751
 10
87.455471
 20
104.275822
 10
87.453207
 20
104.253878
 10
87.450615
 20
104.231924
 10
87.447693
 20
104.209968
 10
87.44444
 20
104.188014
 10
87.440855
 20
104.166066
 10
87.436937
 20
104.144129
 10
87.432683
 20
104.122207
 10
87.428092
 20
104.100303
 10
87.423167
 20
104.078431
 10
87.417907
 20
104.0566
 10
87.412315
 20
104.034824
 10
87.406392
 20
104.013115
 10
87.40014
 20
103.991482
 10
87.393558
 20
103.969932
 10
87.386648
 20
103.948467
 10
87.37941
 20
103.927092
 10
87.371844
 20
103.905809
 10
87.363951
 20
103.884624
 10
87.355733
 20
103.863544
 10
87.347194
 20
103.842576
 10
87.338335
 20
103.82173
 10
87.329159
 20
103.801013
 10
87.319669
 20
103.780433
 10
87.309868
 20
103.759997
 10
87.299759
 20
103.739712
 10
87.289346
 20
103.719582
 10
87.278631
 20
103.699615
 10
87.267619
 20
103.679818
 10
87.256314
 20
103.660197
 10
87.244721
 20
103.640761
 10
87.232846
 20
103.621517
 10
87.220693
 20
103.602472
 10
87.20827
 20
103.583636
 10
87.195585
 20
103.565017
 10
87.182649
 20
103.546628
 10
87.169471
 20
103.528477
 10
87.156061
 20
103.510576
 10
87.14243
 20
103.492935
 10
87.128587
 20
103.475558
 10
87.114541
 20
103.45845
 10
87.100299
 20
103.441617
 10
87.085871
 20
103.425062
 10
87.071266
 20
103.40879
 10
87.056491
 20
103.392802
 10
87.041552
 20
103.3771
 10
87.026457
 20
103.361685
 10
87.011212
 20
103.346558
 10
86.995825
 20
103.33172
 10
86.980304
 20
103.317173
 10
86.964659
 20
103.302919
 10
86.948898
 20
103.28896
 10
86.93303
 20
103.275299
 10
86.917065
 20
103.261936
 10
86.901011
 20
103.248872
 10
86.884876
 20
103.236108
 10
86.868671
 20
103.223644
 10
86.852403
 20
103.21148
 10
86.836081
 20
103.199615
 10
86.81971
 20
103.188047
 10
86.803295
 20
103.176772
 10
86.786839
 20
103.165788
 10
86.770347
 20
103.155091
 10
86.753825
 20
103.144679
 10
86.737279
 20
103.134548
 10
86.720716
 20
103.124699
 10
86.704145
 20
103.115128
 10
86.687573
 20
103.105836
 10
86.671006
 20
103.096819
 10
86.654445
 20
103.088074
 10
86.637891
 20
103.079594
 10
86.621344
 20
103.071375
 10
86.604803
 20
103.063411
 10
86.58827
 20
103.055697
 10
86.571748
 20
103.048231
 10
86.555242
 20
103.04101
 10
86.538755
 20
103.034031
  0
LINE
  5
22F
100
AcDbEntity
  8
ALPHA
100
AcDbLine
 10
87.012306
 20
106.968844
 30
0.0
 11
82.412306
 21
106.968844
 31
0.0
  0
LINE
  5
230
100
AcDbEntity
  8
ALPHA
100
AcDbLine
 10
91.312306
 20
106.768844
 30
0.0
 11
88.512306
 21
106.768844
 31
0.0
  0
LINE
  5
231
100
AcDbEntity
  8
ALPHA
100
AcDbLine
 10
62.212306
 20
106.268844
 30
0.0
 11
62.79483
 21
106.268844
 31
0.0
  0
LINE
  5
232
100
AcDbEntity
  8
ALPHA
100
AcDbLine
 10
83.08939
 20
111.72629
 30
0.0
 11
83.224806
 21
111.768844
 31
0.0
  0
LWPOLYLINE
  5
233
100
AcDbEntity
  8
ALPHA
100
AcDbPolyline
 90
       11
 70
     0
 43
0.0
 10
70.152636
 20
102.507875
 10
70.129696
 20
102.474613
 10
70.104077
 20
102.444432
 10
70.073706
 20
102.415285
 10
70.039439
 20
102.388798
 10
70.005236
 20
102.367658
 10
69.967244
 20
102.349281
 10
69.928607
 20
102.335336
 10
69.890282
 20
102.325729
 10
69.850689
 20
102.319901
 10
69.812306
 20
102.318055
  0
LINE
  5
240
100
AcDbEntity
  8
ALPHA
100
AcDbLine
 10
88.512306
 20
105.318844
 30
0.0
 11
92.812306
 21
105.318844
 31
0.0
  0
LINE
  5
241
100
AcDbEntity
  8
ALPHA
100
AcDbLine
 10
88.512306
 20
104.818844
 30
0.0
 11
92.412306
 21
104.818844
 31
0.0
  0
LWPOLYLINE
  5
242
100
AcDbEntity
  8
ALPHA
100
AcDbPolyline
 90
       23
 70
     0
 43
0.0
 10
70.152637
 20
102.507875
 10
70.157864
 20
102.516799
 10
70.168839
 20
102.539717
 10
70.176746
 20
102.563347
 10
70.181521
 20
102.587516
 10
70.183116
 20
102.611999
 10
70.181518
 20
102.63659
 10
70.176741
 20
102.661074
 10
70.168832
 20
102.685217
 10
70.157854
 20
102.708828
 10
70.14394
 20
102.73164
 10
70.127146
 20
102.753546
 10
70.107599
 20
102.774338
 10
70.085553
 20
102.793734
 10
70.061275
 20
102.811521
 10
70.034876
 20
102.827625
 10
70.006648
 20
102.841866
 10
69.976762
 20
102.854151
 10
69.945545
 20
102.864342
 10
69.913193
 20
102.87237
 10
69.880034
 20
102.87815
 10
69.846297
 20
102.88164
 10
69.812306
 20
102.882805
  0
LWPOLYLINE
  5
25B
100
AcDbEntity
  8
ALPHA
100
AcDbPolyline
 90
        4
 70
     0
 43
0.0
 10
73.712977
 20
112.551257
 10
73.712977
 20
112.684134
 10
73.747044
 20
113.170258
 10
73.815093
 20
113.654594
  0
LINE
  5
261
100
AcDbEntity
  8
ALPHA
100
AcDbLine
 10
73.470171
 20
114.572252
 30
0.0
 11
73.470171
 21
113.536789
 31
0.0
  0
LINE
  5
262
100
AcDbEntity
  8
ALPHA
100
AcDbLine
 10
90.612306
 20
104.591888
 30
0.0
 11
88.512306
 21
104.591888
 31
0.0
  0
LINE
  5
263
100
AcDbEntity
  8
ALPHA
100
AcDbLine
 10
92.412306
 20
104.468844
 30
0.0
 11
88.512306
 21
104.468844
 31
0.0
  0
LWPOLYLINE
  5
264
100
AcDbEntity
  8
ALPHA
100
AcDbPolyline
 90
        3
 70
     0
 43
0.0
 10
73.366892
 20
112.551257
 10
73.401169
 20
113.043017
 10
73.470171
 20
113.536789
  0
LINE
  5
269
100
AcDbEntity
  8
ALPHA
100
AcDbLine
 10
72.71474
 20
113.193251
 30
0.0
 11
72.71474
 21
114.572252
 31
0.0
  0
LINE
  5
26A
100
AcDbEntity
  8
ALPHA
100
AcDbLine
 10
72.112306
 20
112.551257
 30
0.0
 11
72.112306
 21
115.026131
 31
0.0
  0
LWPOLYLINE
  5
26B
100
AcDbEntity
  8
ALPHA
100
AcDbPolyline
 90
        6
 70
     0
 43
0.0
 10
72.612306
 20
113.483757
 10
72.613154
 20
113.369805
 10
72.619933
 20
113.134584
 10
72.633488
 20
112.889758
 10
72.653832
 20
112.635095
 10
72.662432
 20
112.551257
  0
LWPOLYLINE
  5
273
100
AcDbEntity
  8
ALPHA
100
AcDbPolyline
 90
       37
 70
     0
 43
0.0
 10
85.27498
 20
105.752104
 10
85.292656
 20
105.761069
 10
85.310451
 20
105.7698
 10
85.328364
 20
105.778298
 10
85.346389
 20
105.786559
 10
85.364524
 20
105.794582
 10
85.382766
 20
105.802366
 10
85.40111
 20
105.809907
 10
85.419553
 20
105.817206
 10
85.43809
 20
105.82426
 10
85.456715
 20
105.831067
 10
85.475424
 20
105.837627
 10
85.494213
 20
105.843937
 10
85.513081
 20
105.849997
 10
85.532028
 20
105.855807
 10
85.551054
 20
105.861367
 10
85.570158
 20
105.866676
 10
85.58934
 20
105.871735
 10
85.608593
 20
105.876541
 10
85.62791
 20
105.881093
 10
85.647283
 20
105.88539
 10
85.666706
 20
105.889429
 10
85.686172
 20
105.893209
 10
85.70568
 20
105.89673
 10
85.725232
 20
105.899992
 10
85.744828
 20
105.902995
 10
85.764468
 20
105.90574
 10
85.784152
 20
105.908225
 10
85.803874
 20
105.910452
 10
85.823626
 20
105.912417
 10
85.8434
 20
105.914122
 10
85.86319
 20
105.915565
 10
85.882988
 20
105.916746
 10
85.902797
 20
105.917664
 10
85.922617
 20
105.918319
 10
85.942453
 20
105.918713
 10
85.962306
 20
105.918844
  0
LWPOLYLINE
  5
29A
100
AcDbEntity
  8
ALPHA
100
AcDbPolyline
 90
      200
 70
     0
 43
0.0
 10
85.962306
 20
102.918844
 10
85.946597
 20
102.918926
 10
85.930876
 20
102.919173
 10
85.915143
 20
102.919585
 10
85.899399
 20
102.920163
 10
85.883643
 20
102.920908
 10
85.867875
 20
102.921819
 10
85.852095
 20
102.922898
 10
85.836305
 20
102.924145
 10
85.820506
 20
102.925561
 10
85.804698
 20
102.927147
 10
85.788882
 20
102.928902
 10
85.773057
 20
102.93083
 10
85.757218
 20
102.93293
 10
85.741365
 20
102.935204
 10
85.725495
 20
102.937655
 10
85.709605
 20
102.940283
 10
85.693691
 20
102.94309
 10
85.677752
 20
102.946081
 10
85.661783
 20
102.949256
 10
85.645781
 20
102.95262
 10
85.629744
 20
102.956175
 10
85.613674
 20
102.959922
 10
85.597574
 20
102.963863
 10
85.581448
 20
102.968001
 10
85.565299
 20
102.972336
 10
85.549128
 20
102.976871
 10
85.532934
 20
102.981609
 10
85.516715
 20
102.986555
 10
85.500468
 20
102.991711
 10
85.48419
 20
102.997082
 10
85.46788
 20
103.002672
 10
85.451537
 20
103.008484
 10
85.435163
 20
103.014521
 10
85.418759
 20
103.020789
 10
85.402324
 20
103.027291
 10
85.385862
 20
103.034029
 10
85.369375
 20
103.041008
 10
85.352869
 20
103.048229
 10
85.336346
 20
103.055696
 10
85.319813
 20
103.063409
 10
85.303273
 20
103.071373
 10
85.286725
 20
103.079592
 10
85.270172
 20
103.088072
 10
85.253611
 20
103.096817
 10
85.237044
 20
103.105834
 10
85.220472
 20
103.115126
 10
85.2039
 20
103.124696
 10
85.187338
 20
103.134546
 10
85.170791
 20
103.144677
 10
85.154269
 20
103.155089
 10
85.137777
 20
103.165786
 10
85.121321
 20
103.17677
 10
85.104906
 20
103.188045
 10
85.088534
 20
103.199613
 10
85.072212
 20
103.211478
 10
85.055945
 20
103.223642
 10
85.039739
 20
103.236107
 10
85.023604
 20
103.248871
 10
85.00755
 20
103.261934
 10
84.991584
 20
103.275298
 10
84.975716
 20
103.288959
 10
84.959955
 20
103.302918
 10
84.944309
 20
103.317173
 10
84.928788
 20
103.33172
 10
84.913401
 20
103.346558
 10
84.898156
 20
103.361685
 10
84.883061
 20
103.3771
 10
84.868122
 20
103.392802
 10
84.853347
 20
103.40879
 10
84.838742
 20
103.425061
 10
84.824315
 20
103.441615
 10
84.810074
 20
103.458448
 10
84.796028
 20
103.475554
 10
84.782185
 20
103.492931
 10
84.768555
 20
103.510572
 10
84.755145
 20
103.528474
 10
84.741966
 20
103.546625
 10
84.729029
 20
103.565016
 10
84.716343
 20
103.583635
 10
84.70392
 20
103.602472
 10
84.691767
 20
103.621517
 10
84.679892
 20
103.640761
 10
84.6683
 20
103.660196
 10
84.656995
 20
103.679816
 10
84.645983
 20
103.699613
 10
84.635269
 20
103.719579
 10
84.624856
 20
103.739707
 10
84.614748
 20
103.759992
 10
84.604947
 20
103.780427
 10
84.595457
 20
103.801006
 10
84.586282
 20
103.821721
 10
84.577423
 20
103.842566
 10
84.568884
 20
103.863532
 10
84.560667
 20
103.884611
 10
84.552775
 20
103.905794
 10
84.545209
 20
103.927075
 10
84.537971
 20
103.948448
 10
84.531061
 20
103.969911
 10
84.52448
 20
103.99146
 10
84.518227
 20
104.013091
 10
84.512304
 20
104.0348
 10
84.506712
 20
104.056575
 10
84.501452
 20
104.078405
 10
84.496526
 20
104.100278
 10
84.491935
 20
104.122181
 10
84.487681
 20
104.144104
 10
84.483762
 20
104.166041
 10
84.480177
 20
104.187988
 10
84.476924
 20
104.209942
 10
84.474002
 20
104.231899
 10
84.471409
 20
104.253853
 10
84.469144
 20
104.275798
 10
84.467206
 20
104.297726
 10
84.465592
 20
104.31963
 10
84.464302
 20
104.341503
 10
84.463333
 20
104.363337
 10
84.462684
 20
104.385131
 10
84.462353
 20
104.406881
 10
84.462338
 20
104.428587
 10
84.462635
 20
104.450246
 10
84.463244
 20
104.471856
 10
84.464162
 20
104.493412
 10
84.465387
 20
104.514906
 10
84.466915
 20
104.536332
 10
84.468746
 20
104.557685
 10
84.470876
 20
104.578959
 10
84.473304
 20
104.600151
 10
84.476026
 20
104.621259
 10
84.479041
 20
104.64228
 10
84.482346
 20
104.663213
 10
84.485938
 20
104.684055
 10
84.489816
 20
104.704803
 10
84.493977
 20
104.725455
 10
84.498419
 20
104.746005
 10
84.503139
 20
104.766452
 10
84.508135
 20
104.786791
 10
84.513404
 20
104.807018
 10
84.518942
 20
104.827128
 10
84.524746
 20
104.847115
 10
84.530811
 20
104.866975
 10
84.537136
 20
104.886703
 10
84.54372
 20
104.906302
 10
84.550561
 20
104.925774
 10
84.55766
 20
104.945123
 10
84.565015
 20
104.964351
 10
84.572628
 20
104.983459
 10
84.580494
 20
105.002446
 10
84.588613
 20
105.021308
 10
84.596981
 20
105.040041
 10
84.605598
 20
105.058641
 10
84.614459
 20
105.077105
 10
84.623563
 20
105.095428
 10
84.632906
 20
105.113607
 10
84.642485
 20
105.131636
 10
84.652297
 20
105.149511
 10
84.662338
 20
105.167229
 10
84.672604
 20
105.184784
 10
84.683091
 20
105.202172
 10
84.693793
 20
105.219389
 10
84.704708
 20
105.236429
 10
84.715831
 20
105.253289
 10
84.72716
 20
105.26997
 10
84.738696
 20
105.286473
 10
84.750439
 20
105.3028
 10
84.762387
 20
105.318951
 10
84.774541
 20
105.334929
 10
84.786898
 20
105.35073
 10
84.799455
 20
105.366353
 10
84.812209
 20
105.381795
 10
84.825158
 20
105.397053
 10
84.838299
 20
105.412125
 10
84.851629
 20
105.427008
 10
84.865147
 20
105.441703
 10
84.878849
 20
105.456206
 10
84.892734
 20
105.470516
 10
84.906799
 20
105.484632
 10
84.921043
 20
105.498553
 10
84.935465
 20
105.512278
 10
84.950066
 20
105.525808
 10
84.964842
 20
105.539141
 10
84.979795
 20
105.552276
 10
84.994917
 20
105.56521
 10
85.010206
 20
105.577938
 10
85.025654
 20
105.590458
 10
85.041257
 20
105.602765
 10
85.057011
 20
105.614855
 10
85.072915
 20
105.626729
 10
85.08897
 20
105.638388
 10
85.105176
 20
105.649831
 10
85.121534
 20
105.66106
 10
85.138043
 20
105.672075
 10
85.154699
 20
105.682872
 10
85.171497
 20
105.693448
 10
85.18843
 20
105.7038
 10
85.205492
 20
105.713924
 10
85.22268
 20
105.723817
 10
85.239991
 20
105.733478
 10
85.257424
 20
105.742907
 10
85.27498
 20
105.752104
  0
LINE
  5
364
100
AcDbEntity
  8
ALPHA
100
AcDbLine
 10
61.905393
 20
102.528182
 30
0.0
 11
61.139009
 21
102.528182
 31
0.0
  0
LINE
  5
365
100
AcDbEntity
  8
ALPHA
100
AcDbLine
 10
61.365859
 20
102.475695
 30
0.0
 11
61.770572
 21
102.475695
 31
0.0
  0
LWPOLYLINE
  5
366
100
AcDbEntity
  8
ALPHA
100
AcDbPolyline
 90
       17
 70
     0
 43
0.0
 10
61.365859
 20
102.475695
 10
61.352519
 20
102.475276
 10
61.337697
 20
102.47387
 10
61.321715
 20
102.471303
 10
61.304848
 20
102.467456
 10
61.287222
 20
102.462217
 10
61.269121
 20
102.455549
 10
61.250541
 20
102.447325
 10
61.231524
 20
102.437405
 10
61.212219
 20
102.425677
 10
61.192887
 20
102.412092
 10
61.173548
 20
102.396403
 10
61.154281
 20
102.378276
 10
61.13539
 20
102.357434
 10
61.117349
 20
102.333604
 10
61.100791
 20
102.306429
 10
61.086756
 20
102.275695
  0
LWPOLYLINE
  5
379
100
AcDbEntity
  8
ALPHA
100
AcDbPolyline
 90
       23
 70
     0
 43
0.0
 10
69.812306
 20
102.882805
 10
69.778318
 20
102.88164
 10
69.744584
 20
102.87815
 10
69.711422
 20
102.87237
 10
69.679072
 20
102.864343
 10
69.647853
 20
102.854152
 10
69.61797
 20
102.841868
 10
69.589739
 20
102.827627
 10
69.563342
 20
102.811524
 10
69.539059
 20
102.793734
 10
69.517006
 20
102.77433
 10
69.497456
 20
102.753532
 10
69.480661
 20
102.731621
 10
69.466749
 20
102.708809
 10
69.455774
 20
102.685197
 10
69.447867
 20
102.661054
 10
69.443092
 20
102.63657
 10
69.441497
 20
102.611979
 10
69.443094
 20
102.587496
 10
69.447872
 20
102.563327
 10
69.455781
 20
102.539698
 10
69.466759
 20
102.516781
 10
69.471973
 20
102.50788
  0
LWPOLYLINE
  5
392
100
AcDbEntity
  8
ALPHA
100
AcDbPolyline
 90
        5
 70
     0
 43
0.0
 10
72.71474
 20
113.193251
 10
72.687982
 20
113.073612
 10
72.665109
 20
112.944096
 10
72.646229
 20
112.804951
 10
72.642918
 20
112.771709
  0
LWPOLYLINE
  5
399
100
AcDbEntity
  8
ALPHA
100
AcDbPolyline
 90
        7
 70
     0
 43
0.0
 10
72.71474
 20
114.572252
 10
72.68094
 20
114.397808
 10
72.653833
 20
114.21246
 10
72.633489
 20
114.016703
 10
72.619934
 20
113.810985
 10
72.613154
 20
113.59528
 10
72.612306
 20
113.483757
  0
LINE
  5
3A2
100
AcDbEntity
  8
ALPHA
100
AcDbLine
 10
70.712306
 20
100.268844
 30
0.0
 11
70.712306
 21
116.268843
 31
0.0
  0
LWPOLYLINE
  5
3A3
100
AcDbEntity
  8
ALPHA
100
AcDbPolyline
 90
       13
 70
     0
 43
0.0
 10
69.812306
 20
102.318055
 10
69.774714
 20
102.319826
 10
69.737528
 20
102.325107
 10
69.702514
 20
102.333418
 10
69.668851
 20
102.344665
 10
69.635131
 20
102.359435
 10
69.605986
 20
102.375372
 10
69.577825
 20
102.39399
 10
69.549813
 20
102.416233
 10
69.523844
 20
102.440946
 10
69.50089
 20
102.467018
 10
69.479717
 20
102.49583
 10
69.471974
 20
102.50788
  0
LINE
  5
3B2
100
AcDbEntity
  8
ALPHA
100
AcDbLine
 10
87.412306
 20
101.618844
 30
0.0
 11
86.412306
 21
101.618844
 31
0.0
  0
LINE
  5
3B3
100
AcDbEntity
  8
ALPHA
100
AcDbLine
 10
73.815093
 20
113.654594
 30
0.0
 11
73.470171
 21
113.536789
 31
0.0
  0
LINE
  5
3B4
100
AcDbEntity
  8
ALPHA
100
AcDbLine
 10
81.537306
 20
100.943844
 30
0.0
 11
70.712306
 21
100.943844
 31
0.0
  0
LINE
  5
3B5
100
AcDbEntity
  8
ALPHA
100
AcDbLine
 10
81.537306
 20
100.893844
 30
0.0
 11
70.712306
 21
100.893844
 31
0.0
  0
LINE
  5
3B6
100
AcDbEntity
  8
ALPHA
100
AcDbLine
 10
86.412306
 20
100.893844
 30
0.0
 11
81.537306
 21
100.893844
 31
0.0
  0
LINE
  5
3B7
100
AcDbEntity
  8
ALPHA
100
AcDbLine
 10
88.512306
 20
100.893844
 30
0.0
 11
87.412306
 21
100.893844
 31
0.0
  0
LINE
  5
3B8
100
AcDbEntity
  8
ALPHA
100
AcDbLine
 10
60.455114
 20
100.678844
 30
0.0
 11
60.412306
 21
100.678844
 31
0.0
  0
LINE
  5
3B9
100
AcDbEntity
  8
ALPHA
100
AcDbLine
 10
70.712306
 20
100.268844
 30
0.0
 11
69.012306
 21
100.268844
 31
0.0
  0
LWPOLYLINE
  5
3BA
100
AcDbEntity
  8
ALPHA
100
AcDbPolyline
 90
        4
 70
     0
 43
0.0
 10
89.910993
 20
101.052795
 10
89.446707
 20
101.031002
 10
88.980429
 20
101.010775
 10
88.512306
 20
100.992126
  0
LINE
  5
3C0
100
AcDbEntity
  8
ALPHA
100
AcDbLine
 10
69.012306
 20
99.568844
 30
0.0
 11
69.012306
 21
116.968844
 31
0.0
  0
LINE
  5
3C1
100
AcDbEntity
  8
ALPHA
100
AcDbLine
 10
68.412306
 20
99.393844
 30
0.0
 11
68.412306
 21
117.143844
 31
0.0
  0
LINE
  5
3C2
100
AcDbEntity
  8
ALPHA
100
AcDbLine
 10
68.412306
 20
99.568844
 30
0.0
 11
69.012306
 21
99.568844
 31
0.0
  0
LINE
  5
3C3
100
AcDbEntity
  8
ALPHA
100
AcDbLine
 10
60.609614
 20
99.393844
 30
0.0
 11
68.412306
 21
99.393844
 31
0.0
  0
LINE
  5
3C4
100
AcDbEntity
  8
ALPHA
100
AcDbLine
 10
89.910993
 20
101.052795
 30
0.0
 11
92.412306
 21
101.493844
 31
0.0
  0
LWPOLYLINE
  5
3C5
100
AcDbEntity
  8
ALPHA
100
AcDbPolyline
 90
       11
 70
     0
 43
0.0
 10
69.471977
 20
114.029812
 10
69.494917
 20
114.063074
 10
69.520536
 20
114.093256
 10
69.550907
 20
114.122403
 10
69.585173
 20
114.14889
 10
69.619377
 20
114.170029
 10
69.657369
 20
114.188406
 10
69.696006
 20
114.202351
 10
69.734331
 20
114.211958
 10
69.773924
 20
114.217786
 10
69.812306
 20
114.219632
  0
LWPOLYLINE
  5
3D2
100
AcDbEntity
  8
ALPHA
100
AcDbPolyline
 90
       23
 70
     0
 43
0.0
 10
69.471976
 20
114.029812
 10
69.466749
 20
114.020889
 10
69.455774
 20
113.997971
 10
69.447867
 20
113.97434
 10
69.443092
 20
113.950172
 10
69.441497
 20
113.925688
 10
69.443094
 20
113.901098
 10
69.447872
 20
113.876614
 10
69.455781
 20
113.85247
 10
69.466759
 20
113.828859
 10
69.480673
 20
113.806048
 10
69.497467
 20
113.784142
 10
69.517014
 20
113.763349
 10
69.53906
 20
113.743953
 10
69.563338
 20
113.726166
 10
69.589736
 20
113.710062
 10
69.617965
 20
113.695821
 10
69.647851
 20
113.683536
 10
69.679067
 20
113.673346
 10
69.71142
 20
113.665318
 10
69.744579
 20
113.659538
 10
69.778316
 20
113.656048
 10
69.812306
 20
113.654882
  0
LINE
  5
3EB
100
AcDbEntity
  8
ALPHA
100
AcDbLine
 10
60.525227
 20
115.68814
 30
0.0
 11
60.623682
 21
115.445868
 31
0.0
  0
LWPOLYLINE
  5
3EC
100
AcDbEntity
  8
ALPHA
100
AcDbPolyline
 90
        3
 70
     0
 43
0.0
 10
60.540829
 20
115.544786
 10
60.50693
 20
115.628111
 10
60.412306
 20
115.858844
  0
LINE
  5
3F1
100
AcDbEntity
  8
ALPHA
100
AcDbLine
 10
60.409614
 20
115.968845
 30
0.0
 11
60.525227
 21
115.68814
 31
0.0
  0
LINE
  5
3F2
100
AcDbEntity
  8
ALPHA
100
AcDbLine
 10
60.487141
 20
100.756634
 30
0.0
 11
60.409614
 21
100.568842
 31
0.0
  0
LINE
  5
3F3
100
AcDbEntity
  8
ALPHA
100
AcDbLine
 10
60.412306
 20
100.678844
 30
0.0
 11
60.422874
 21
100.704478
 31
0.0
  0
LINE
  5
3F4
100
AcDbEntity
  8
ALPHA
100
AcDbLine
 10
60.422874
 20
100.704478
 30
0.0
 11
60.540829
 21
100.992901
 31
0.0
  0
LINE
  5
3F5
100
AcDbEntity
  8
ALPHA
100
AcDbLine
 10
60.623682
 20
101.09182
 30
0.0
 11
60.487141
 21
100.756634
 31
0.0
  0
LWPOLYLINE
  5
3F6
100
AcDbEntity
  8
ALPHA
100
AcDbPolyline
 90
        3
 70
     0
 43
0.0
 10
61.139009
 20
114.009506
 10
61.060016
 20
114.219961
 10
60.913656
 20
114.603299
  0
LINE
  5
3FB
100
AcDbEntity
  8
ALPHA
100
AcDbLine
 10
60.913656
 20
114.603299
 30
0.0
 11
60.78403
 21
114.936079
 31
0.0
  0
LWPOLYLINE
  5
3FC
100
AcDbEntity
  8
ALPHA
100
AcDbPolyline
 90
        4
 70
     0
 43
0.0
 10
60.751046
 20
115.127813
 10
60.906013
 20
114.733327
 10
60.993302
 20
114.507272
 10
61.086756
 20
114.261993
  0
LINE
  5
402
100
AcDbEntity
  8
ALPHA
100
AcDbLine
 10
60.78403
 20
114.936079
 30
0.0
 11
60.672394
 21
115.217931
 31
0.0
  0
LINE
  5
403
100
AcDbEntity
  8
ALPHA
100
AcDbLine
 10
60.623682
 20
115.445868
 30
0.0
 11
60.751046
 21
115.127813
 31
0.0
  0
LINE
  5
404
100
AcDbEntity
  8
ALPHA
100
AcDbLine
 10
60.672394
 20
115.217931
 30
0.0
 11
60.540829
 21
115.544786
 31
0.0
  0
LINE
  5
405
100
AcDbEntity
  8
ALPHA
100
AcDbLine
 10
60.540829
 20
100.992901
 30
0.0
 11
60.623647
 21
101.197999
 31
0.0
  0
LINE
  5
406
100
AcDbEntity
  8
ALPHA
100
AcDbLine
 10
60.623647
 20
101.197999
 30
0.0
 11
60.725895
 21
101.4543
 31
0.0
  0
LWPOLYLINE
  5
407
100
AcDbEntity
  8
ALPHA
100
AcDbPolyline
 90
        3
 70
     0
 43
0.0
 10
60.825171
 20
101.597506
 10
60.683821
 20
101.241332
 10
60.623682
 20
101.09182
  0
LINE
  5
40C
100
AcDbEntity
  8
ALPHA
100
AcDbLine
 10
60.725895
 20
101.4543
 30
0.0
 11
60.846667
 21
101.761651
 31
0.0
  0
LINE
  5
40D
100
AcDbEntity
  8
ALPHA
100
AcDbLine
 10
60.993301
 20
102.030414
 30
0.0
 11
60.825171
 21
101.597506
 31
0.0
  0
LINE
  5
40E
100
AcDbEntity
  8
ALPHA
100
AcDbLine
 10
60.846667
 20
101.761651
 30
0.0
 11
60.984832
 21
102.119769
 31
0.0
  0
LINE
  5
40F
100
AcDbEntity
  8
ALPHA
100
AcDbLine
 10
61.086756
 20
102.275695
 30
0.0
 11
60.993301
 21
102.030414
 31
0.0
  0
LINE
  5
410
100
AcDbEntity
  8
ALPHA
100
AcDbLine
 10
60.984832
 20
102.119769
 30
0.0
 11
61.139009
 21
102.528182
 31
0.0
  0
LINE
  5
411
100
AcDbEntity
  8
ALPHA
100
AcDbLine
 10
62.212306
 20
110.268844
 30
0.0
 11
62.212306
 21
106.268844
 31
0.0
  0
LINE
  5
412
100
AcDbEntity
  8
ALPHA
100
AcDbLine
 10
60.518104
 20
112.938563
 30
0.0
 11
60.547982
 21
112.675987
 31
0.0
  0
LINE
  5
413
100
AcDbEntity
  8
ALPHA
100
AcDbLine
 10
60.490723
 20
113.167002
 30
0.0
 11
60.518104
 21
112.938563
 31
0.0
  0
LINE
  5
414
100
AcDbEntity
  8
ALPHA
100
AcDbLine
 10
60.466602
 20
113.35986
 30
0.0
 11
60.490723
 21
113.167002
 31
0.0
  0
LINE
  5
415
100
AcDbEntity
  8
ALPHA
100
AcDbLine
 10
60.438036
 20
113.579385
 30
0.0
 11
60.466602
 21
113.35986
 31
0.0
  0
LINE
  5
416
100
AcDbEntity
  8
ALPHA
100
AcDbLine
 10
60.414168
 20
113.756147
 30
0.0
 11
60.438036
 21
113.579385
 31
0.0
  0
LINE
  5
417
100
AcDbEntity
  8
ALPHA
100
AcDbLine
 10
60.43804
 20
102.958329
 30
0.0
 11
60.414168
 21
102.78154
 31
0.0
  0
LINE
  5
418
100
AcDbEntity
  8
ALPHA
100
AcDbLine
 10
60.466609
 20
103.177887
 30
0.0
 11
60.43804
 21
102.958329
 31
0.0
  0
LINE
  5
419
100
AcDbEntity
  8
ALPHA
100
AcDbLine
 10
60.490735
 20
103.370776
 30
0.0
 11
60.466609
 21
103.177887
 31
0.0
  0
LINE
  5
41A
100
AcDbEntity
  8
ALPHA
100
AcDbLine
 10
60.518119
 20
103.599251
 30
0.0
 11
60.490735
 21
103.370776
 31
0.0
  0
LINE
  5
41B
100
AcDbEntity
  8
ALPHA
100
AcDbLine
 10
60.548
 20
103.861865
 30
0.0
 11
60.518119
 21
103.599251
 31
0.0
  0
LWPOLYLINE
  5
41C
100
AcDbEntity
  8
ALPHA
100
AcDbPolyline
 90
        4
 70
     0
 43
0.0
 10
60.414168
 20
102.78154
 10
60.413078
 20
102.771869
 10
60.412447
 20
102.761816
 10
60.41233
 20
102.755584
  0
LINE
  5
422
100
AcDbEntity
  8
ALPHA
100
AcDbLine
 10
60.579546
 20
104.156997
 30
0.0
 11
60.548
 21
103.861865
 31
0.0
  0
LINE
  5
423
100
AcDbEntity
  8
ALPHA
100
AcDbLine
 10
60.611818
 20
104.482423
 30
0.0
 11
60.579546
 21
104.156997
 31
0.0
  0
LINE
  5
424
100
AcDbEntity
  8
ALPHA
100
AcDbLine
 10
60.64382
 20
104.835141
 30
0.0
 11
60.611818
 21
104.482423
 31
0.0
  0
LWPOLYLINE
  5
425
100
AcDbEntity
  8
ALPHA
100
AcDbPolyline
 90
       17
 70
     0
 43
0.0
 10
60.792337
 20
108.268844
 10
60.791731
 20
108.050957
 10
60.789852
 20
107.826459
 10
60.786666
 20
107.599351
 10
60.782151
 20
107.370757
 10
60.776306
 20
107.14186
 10
60.769161
 20
106.913828
 10
60.760788
 20
106.687788
 10
60.751272
 20
106.46477
 10
60.74069
 20
106.245297
 10
60.72911
 20
106.029713
 10
60.716617
 20
105.818321
 10
60.703306
 20
105.611414
 10
60.689273
 20
105.409308
 10
60.674613
 20
105.21234
 10
60.659425
 20
105.020843
 10
60.64382
 20
104.835141
  0
LINE
  5
438
100
AcDbEntity
  8
ALPHA
100
AcDbLine
 10
61.139009
 20
102.528182
 30
0.0
 11
61.139009
 21
114.009506
 31
0.0
  0
LWPOLYLINE
  5
439
100
AcDbEntity
  8
ALPHA
100
AcDbPolyline
 90
       18
 70
     0
 43
0.0
 10
60.611794
 20
112.055516
 10
60.643795
 20
111.702842
 10
60.659399
 20
111.517161
 10
60.674587
 20
111.325684
 10
60.689247
 20
111.128737
 10
60.703281
 20
110.926652
 10
60.716592
 20
110.719764
 10
60.729086
 20
110.508391
 10
60.740667
 20
110.292827
 10
60.751251
 20
110.073377
 10
60.760768
 20
109.850387
 10
60.769144
 20
109.62438
 10
60.77629
 20
109.396375
 10
60.782138
 20
109.167491
 10
60.786656
 20
108.938883
 10
60.789847
 20
108.711723
 10
60.791728
 20
108.487127
 10
60.792337
 20
108.268844
  0
LINE
  5
44D
100
AcDbEntity
  8
ALPHA
100
AcDbLine
 10
60.579524
 20
112.380898
 30
0.0
 11
60.611794
 21
112.055516
 31
0.0
  0
LINE
  5
44E
100
AcDbEntity
  8
ALPHA
100
AcDbLine
 10
60.547982
 20
112.675987
 30
0.0
 11
60.579524
 21
112.380898
 31
0.0
  0
LINE
  5
44F
100
AcDbEntity
  8
ALPHA
100
AcDbLine
 10
60.412306
 20
113.782103
 30
0.0
 11
60.412306
 21
115.858844
 31
0.0
  0
LINE
  5
450
100
AcDbEntity
  8
ALPHA
100
AcDbLine
 10
60.412306
 20
100.678844
 30
0.0
 11
60.412306
 21
102.754315
 31
0.0
  0
LINE
  5
451
100
AcDbEntity
  8
ALPHA
100
AcDbLine
 10
60.409614
 20
100.571159
 30
0.0
 11
60.409614
 21
99.593844
 31
0.0
  0
LINE
  5
452
100
AcDbEntity
  8
ALPHA
100
AcDbLine
 10
60.409614
 20
116.943844
 30
0.0
 11
60.409614
 21
115.966528
 31
0.0
  0
INSERT
  5
498
100
AcDbEntity
  8
0
100
AcDbBlockReference
  2
SCH_ISO
 10
0.0
 20
0.0
 30
0.0
  0
DIMENSION
  5
4B4
100
AcDbEntity
  8
COTATION1
100
AcDbDimension
  2
*D6
 10
48.484504
 20
116.268843
 30
0.0
 11
45.984504
 21
108.268844
 31
0.0
  3
SC_STAND
100
AcDbAlignedDimension
 13
70.712306
 23
100.268844
 33
0.0
 14
70.712306
 24
116.268843
 34
0.0
 50
90.0
100
AcDbRotatedDimension
  0
DIMENSION
  5
4C3
100
AcDbEntity
  8
COTATION1
100
AcDbDimension
  2
*D5
 10
69.012306
 20
84.192777
 30
0.0
 11
78.631354
 21
86.692777
 31
0.0
  3
SC_STAND
100
AcDbAlignedDimension
 13
60.409614
 23
99.593844
 33
0.0
 14
69.012306
 24
99.568844
 34
0.0
100
AcDbRotatedDimension
  0
ENDSEC
  0
SECTION
  2
OBJECTS
  0
DICTIONARY
  5
4F2
100
AcDbDictionary
  3
ACAD_GROUP
350
4F3
  3
ACAD_MLINESTYLE
350
500
  3
ACDBVARIABLEDICTIONARY
350
540
  0
DICTIONARY
  5
4F3
102
{ACAD_REACTORS
330
4F2
102
}
100
AcDbDictionary
  0
DICTIONARY
  5
500
102
{ACAD_REACTORS
330
4F2
102
}
100
AcDbDictionary
  3
STANDARD
350
501
  0
DICTIONARY
  5
540
102
{ACAD_REACTORS
330
4F2
102
}
100
AcDbDictionary
  3
DIMADEC
350
541
  0
MLINESTYLE
  5
501
102
{ACAD_REACTORS
330
500
102
}
100
AcDbMlineStyle
  2
STANDARD
 70
     0
  3

 62
   256
 51
90.0
 52
90.0
 71
     2
 49
0.5
 62
   256
  6
BYLAYER
 49
-0.5
 62
   256
  6
BYLAYER
  0
DICTIONARYVAR
  5
541
102
{ACAD_REACTORS
330
540
102
}
100
DictionaryVariables
280
     0
  1
0
  0
ENDSEC
  0
EOF
