  0
SECTION
  2
HEADER
  9
$ACADVER
  1
AC1014
  9
$ACADMAINTVER
 70
     0
  9
$DWGCODEPAGE
  3
ANSI_1252
  9
$INSBASE
 10
0.0
 20
0.0
 30
0.0
  9
$EXTMIN
 10
59.123708
 20
140.031936
 30
0.0
  9
$EXTMAX
 10
114.692755
 20
170.681335
 30
0.0
  9
$LIMMIN
 10
0.0
 20
0.0
  9
$LIMMAX
 10
210.0
 20
297.0
  9
$ORTHOMODE
 70
     1
  9
$REGENMODE
 70
     1
  9
$FILLMODE
 70
     1
  9
$QTEXTMODE
 70
     0
  9
$MIRRTEXT
 70
     1
  9
$DRAGMODE
 70
     2
  9
$LTSCALE
 40
10.0
  9
$OSMODE
 70
     0
  9
$ATTMODE
 70
     1
  9
$TEXTSIZE
 40
2.9
  9
$TRACEWID
 40
0.05
  9
$TEXTSTYLE
  7
ROMANS
  9
$CLAYER
  8
COTATION1
  9
$CELTYPE
  6
BYLAYER
  9
$CECOLOR
 62
   256
  9
$CELTSCALE
 40
1.0
  9
$DELOBJ
 70
     1
  9
$DISPSILH
 70
     0
  9
$DIMSCALE
 40
1.0
  9
$DIMASZ
 40
3.0
  9
$DIMEXO
 40
0.0625
  9
$DIMDLI
 40
0.38
  9
$DIMRND
 40
0.01
  9
$DIMDLE
 40
0.0
  9
$DIMEXE
 40
0.18
  9
$DIMTP
 40
0.0
  9
$DIMTM
 40
0.0
  9
$DIMTXT
 40
2.5
  9
$DIMCEN
 40
0.09
  9
$DIMTSZ
 40
0.0
  9
$DIMTOL
 70
     0
  9
$DIMLIM
 70
     0
  9
$DIMTIH
 70
     0
  9
$DIMTOH
 70
     0
  9
$DIMSE1
 70
     0
  9
$DIMSE2
 70
     0
  9
$DIMTAD
 70
     1
  9
$DIMZIN
 70
    12
  9
$DIMBLK
  1

  9
$DIMASO
 70
     1
  9
$DIMSHO
 70
     1
  9
$DIMPOST
  1

  9
$DIMAPOST
  1

  9
$DIMALT
 70
     0
  9
$DIMALTD
 70
     2
  9
$DIMALTF
 40
25.4
  9
$DIMLFAC
 40
1.0
  9
$DIMTOFL
 70
     1
  9
$DIMTVP
 40
0.0
  9
$DIMTIX
 70
     0
  9
$DIMSOXD
 70
     0
  9
$DIMSAH
 70
     0
  9
$DIMBLK1
  1

  9
$DIMBLK2
  1

  9
$DIMSTYLE
  2
SC_STAND
  9
$DIMCLRD
 70
     0
  9
$DIMCLRE
 70
     0
  9
$DIMCLRT
 70
     0
  9
$DIMTFAC
 40
1.0
  9
$DIMGAP
 40
1.0
  9
$DIMJUST
 70
     0
  9
$DIMSD1
 70
     0
  9
$DIMSD2
 70
     0
  9
$DIMTOLJ
 70
     1
  9
$DIMTZIN
 70
    12
  9
$DIMALTZ
 70
    12
  9
$DIMALTTZ
 70
    12
  9
$DIMFIT
 70
     5
  9
$DIMUPT
 70
     0
  9
$DIMUNIT
 70
     2
  9
$DIMDEC
 70
     4
  9
$DIMTDEC
 70
     4
  9
$DIMALTU
 70
     2
  9
$DIMALTTD
 70
     2
  9
$DIMTXSTY
  7
ROMANS
  9
$DIMAUNIT
 70
     0
  9
$LUNITS
 70
     2
  9
$LUPREC
 70
     4
  9
$SKETCHINC
 40
0.1
  9
$FILLETRAD
 40
0.0
  9
$AUNITS
 70
     0
  9
$AUPREC
 70
     0
  9
$MENU
  1
.
  9
$ELEVATION
 40
0.0
  9
$PELEVATION
 40
0.0
  9
$THICKNESS
 40
0.0
  9
$LIMCHECK
 70
     0
  9
$BLIPMODE
 70
     1
  9
$CHAMFERA
 40
0.0
  9
$CHAMFERB
 40
0.0
  9
$CHAMFERC
 40
0.0
  9
$CHAMFERD
 40
0.0
  9
$SKPOLY
 70
     0
  9
$TDCREATE
 40
2450987.481840856
  9
$TDUPDATE
 40
2451387.898513460
  9
$TDINDWG
 40
0.0032157407
  9
$TDUSRTIMER
 40
0.0032157407
  9
$USRTIMER
 70
     1
  9
$ANGBASE
 50
0.0
  9
$ANGDIR
 70
     0
  9
$PDMODE
 70
     0
  9
$PDSIZE
 40
0.0
  9
$PLINEWID
 40
0.0
  9
$COORDS
 70
     1
  9
$SPLFRAME
 70
     0
  9
$SPLINETYPE
 70
     6
  9
$SPLINESEGS
 70
     8
  9
$ATTDIA
 70
     1
  9
$ATTREQ
 70
     1
  9
$HANDLING
 70
     1
  9
$HANDSEED
  5
1D6B
  9
$SURFTAB1
 70
     6
  9
$SURFTAB2
 70
     6
  9
$SURFTYPE
 70
     6
  9
$SURFU
 70
     6
  9
$SURFV
 70
     6
  9
$UCSNAME
  2

  9
$UCSORG
 10
0.0
 20
0.0
 30
0.0
  9
$UCSXDIR
 10
1.0
 20
0.0
 30
0.0
  9
$UCSYDIR
 10
0.0
 20
1.0
 30
0.0
  9
$PUCSNAME
  2

  9
$PUCSORG
 10
0.0
 20
0.0
 30
0.0
  9
$PUCSXDIR
 10
1.0
 20
0.0
 30
0.0
  9
$PUCSYDIR
 10
0.0
 20
1.0
 30
0.0
  9
$USERI1
 70
     0
  9
$USERI2
 70
     0
  9
$USERI3
 70
     0
  9
$USERI4
 70
     0
  9
$USERI5
 70
     0
  9
$USERR1
 40
0.0
  9
$USERR2
 40
0.0
  9
$USERR3
 40
0.0
  9
$USERR4
 40
0.0
  9
$USERR5
 40
0.0
  9
$WORLDVIEW
 70
     1
  9
$SHADEDGE
 70
     3
  9
$SHADEDIF
 70
    70
  9
$TILEMODE
 70
     1
  9
$MAXACTVP
 70
    16
  9
$PINSBASE
 10
0.0
 20
0.0
 30
0.0
  9
$PLIMCHECK
 70
     0
  9
$PEXTMIN
 10
0.0
 20
0.0
 30
0.0
  9
$PEXTMAX
 10
420.0
 20
297.0
 30
0.0
  9
$PLIMMIN
 10
0.0
 20
0.0
  9
$PLIMMAX
 10
420.0
 20
297.0
  9
$UNITMODE
 70
     0
  9
$VISRETAIN
 70
     0
  9
$PLINEGEN
 70
     0
  9
$PSLTSCALE
 70
     1
  9
$TREEDEPTH
 70
  3020
  9
$PICKSTYLE
 70
     1
  9
$CMLSTYLE
  2
STANDARD
  9
$CMLJUST
 70
     0
  9
$CMLSCALE
 40
1.0
  9
$PROXYGRAPHICS
 70
     1
  9
$MEASUREMENT
 70
     0
  0
ENDSEC
  0
SECTION
  2
CLASSES
  0
CLASS
  1
DICTIONARYVAR
  2
AcDbDictionaryVar
  3
"AutoCAD"
 90
        0
280
     0
281
     0
  0
CLASS
  1
LWPOLYLINE
  2
AcDbPolyline
  3
"AutoCAD"
 90
        0
280
     0
281
     1
  0
ENDSEC
  0
SECTION
  2
TABLES
  0
TABLE
  2
VPORT
  5
1D0F
100
AcDbSymbolTable
 70
     1
  0
VPORT
  5
1D66
100
AcDbSymbolTableRecord
100
AcDbViewportTableRecord
  2
*ACTIVE
 70
     0
 10
0.0
 20
0.0
 11
1.0
 21
1.0
 12
257.127367
 22
153.871495
 13
0.0
 23
0.0
 14
1.0
 24
1.0
 15
10.0
 25
10.0
 16
0.0
 26
0.0
 36
1.0
 17
0.0
 27
0.0
 37
0.0
 40
307.74299
 41
1.671053
 42
50.0
 43
0.0
 44
0.0
 50
0.0
 51
0.0
 71
     0
 72
   100
 73
     1
 74
     1
 75
     0
 76
     1
 77
     0
 78
     0
  0
ENDTAB
  0
TABLE
  2
LTYPE
  5
1D0C
100
AcDbSymbolTable
 70
    23
  0
LTYPE
  5
1D18
100
AcDbSymbolTableRecord
100
AcDbLinetypeTableRecord
  2
BYBLOCK
 70
     0
  3

 72
    65
 73
     0
 40
0.0
  0
LTYPE
  5
1D19
100
AcDbSymbolTableRecord
100
AcDbLinetypeTableRecord
  2
BYLAYER
 70
     0
  3

 72
    65
 73
     0
 40
0.0
  0
LTYPE
  5
1D1A
100
AcDbSymbolTableRecord
100
AcDbLinetypeTableRecord
  2
CONTINUOUS
 70
     0
  3
Solid line
 72
    65
 73
     0
 40
0.0
  0
LTYPE
  5
1D2C
100
AcDbSymbolTableRecord
100
AcDbLinetypeTableRecord
  2
AXES
 70
     0
  3
____ _ ____ _ ____ _ ____ _ ____ _ ____ _ ____ 
 72
    65
 73
     4
 40
2.0
 49
1.25
 74
     0
 49
-0.25
 74
     0
 49
0.25
 74
     0
 49
-0.25
 74
     0
  0
LTYPE
  5
1D2D
100
AcDbSymbolTableRecord
100
AcDbLinetypeTableRecord
  2
AXES2
 70
     0
  3
___ _ ___ _ ___ _ ___ _ ___ _ ___ _ ___ _ ___ _
 72
    65
 73
     4
 40
1.125
 49
0.75
 74
     0
 49
-0.125
 74
     0
 49
0.125
 74
     0
 49
-0.125
 74
     0
  0
LTYPE
  5
1D2E
100
AcDbSymbolTableRecord
100
AcDbLinetypeTableRecord
  2
AXESX2
 70
     0
  3
________  __  ________  __  ________  __  _____
 72
    65
 73
     4
 40
4.0
 49
2.5
 74
     0
 49
-0.5
 74
     0
 49
0.5
 74
     0
 49
-0.5
 74
     0
  0
LTYPE
  5
1D2F
100
AcDbSymbolTableRecord
100
AcDbLinetypeTableRecord
  2
TIRETPT
 70
     0
  3
__ . __ . __ . __ . __ . __ . __ . __ . __ . __
 72
    65
 73
     4
 40
1.0
 49
0.5
 74
     0
 49
-0.25
 74
     0
 49
0.0
 74
     0
 49
-0.25
 74
     0
  0
LTYPE
  5
1D30
100
AcDbSymbolTableRecord
100
AcDbLinetypeTableRecord
  2
TIRETPT2
 70
     0
  3
_._._._._._._._._._._._._._._._._._._._._._._._
 72
    65
 73
     4
 40
0.5
 49
0.25
 74
     0
 49
-0.125
 74
     0
 49
0.0
 74
     0
 49
-0.125
 74
     0
  0
LTYPE
  5
1D31
100
AcDbSymbolTableRecord
100
AcDbLinetypeTableRecord
  2
TIRETPTX2
 70
     0
  3
____  .  ____  .  ____  .  ____  .  ____  .  __
 72
    65
 73
     4
 40
2.0
 49
1.0
 74
     0
 49
-0.5
 74
     0
 49
0.0
 74
     0
 49
-0.5
 74
     0
  0
LTYPE
  5
1D32
100
AcDbSymbolTableRecord
100
AcDbLinetypeTableRecord
  2
DISCONTINU
 70
     0
  3
__ __ __ __ __ __ __ __ __ __ __ __ __ __ __ __
 72
    65
 73
     2
 40
0.75
 49
0.5
 74
     0
 49
-0.25
 74
     0
  0
LTYPE
  5
1D33
100
AcDbSymbolTableRecord
100
AcDbLinetypeTableRecord
  2
DISCONTINU2
 70
     0
  3
_ _ _ _ _ _ _ _ _ _ _ _ _ _ _ _ _ _ _ _ _ _ _ _
 72
    65
 73
     2
 40
0.375
 49
0.25
 74
     0
 49
-0.125
 74
     0
  0
LTYPE
  5
1D34
100
AcDbSymbolTableRecord
100
AcDbLinetypeTableRecord
  2
DISCONTINUX2
 70
     0
  3
____  ____  ____  ____  ____  ____  ____  ____ 
 72
    65
 73
     2
 40
1.5
 49
1.0
 74
     0
 49
-0.5
 74
     0
  0
LTYPE
  5
1D35
100
AcDbSymbolTableRecord
100
AcDbLinetypeTableRecord
  2
DIVISE
 70
     0
  3
____ . . ____ . . ____ . . ____ . . ____ . . __
 72
    65
 73
     6
 40
1.25
 49
0.5
 74
     0
 49
-0.25
 74
     0
 49
0.0
 74
     0
 49
-0.25
 74
     0
 49
0.0
 74
     0
 49
-0.25
 74
     0
  0
LTYPE
  5
1D36
100
AcDbSymbolTableRecord
100
AcDbLinetypeTableRecord
  2
DIVISE2
 70
     0
  3
__..__..__..__..__..__..__..__..__..__..__..__.
 72
    65
 73
     6
 40
0.625
 49
0.25
 74
     0
 49
-0.125
 74
     0
 49
0.0
 74
     0
 49
-0.125
 74
     0
 49
0.0
 74
     0
 49
-0.125
 74
     0
  0
LTYPE
  5
1D37
100
AcDbSymbolTableRecord
100
AcDbLinetypeTableRecord
  2
DIVISEX2
 70
     0
  3
________  .  .  ________  .  .  ________  .  . 
 72
    65
 73
     6
 40
2.5
 49
1.0
 74
     0
 49
-0.5
 74
     0
 49
0.0
 74
     0
 49
-0.5
 74
     0
 49
0.0
 74
     0
 49
-0.5
 74
     0
  0
LTYPE
  5
1D38
100
AcDbSymbolTableRecord
100
AcDbLinetypeTableRecord
  2
POINTILLE
 70
     0
  3
. . . . . . . . . . . . . . . . . . . . . . . .
 72
    65
 73
     2
 40
0.25
 49
0.0
 74
     0
 49
-0.25
 74
     0
  0
LTYPE
  5
1D39
100
AcDbSymbolTableRecord
100
AcDbLinetypeTableRecord
  2
POINTILLE2
 70
     0
  3
...............................................
 72
    65
 73
     2
 40
0.125
 49
0.0
 74
     0
 49
-0.125
 74
     0
  0
LTYPE
  5
1D3A
100
AcDbSymbolTableRecord
100
AcDbLinetypeTableRecord
  2
POINTILLEX2
 70
     0
  3
.  .  .  .  .  .  .  .  .  .  .  .  .  .  .  . 
 72
    65
 73
     2
 40
0.5
 49
0.0
 74
     0
 49
-0.5
 74
     0
  0
LTYPE
  5
1D3B
100
AcDbSymbolTableRecord
100
AcDbLinetypeTableRecord
  2
CACHE
 70
     0
  3
__ __ __ __ __ __ __ __ __ __ __ __ __ __ __ __
 72
    65
 73
     2
 40
0.375
 49
0.25
 74
     0
 49
-0.125
 74
     0
  0
LTYPE
  5
1D3C
100
AcDbSymbolTableRecord
100
AcDbLinetypeTableRecord
  2
CACHE2
 70
     0
  3
_ _ _ _ _ _ _ _ _ _ _ _ _ _ _ _ _ _ _ _ _ _ _ _
 72
    65
 73
     2
 40
0.1875
 49
0.125
 74
     0
 49
-0.0625
 74
     0
  0
LTYPE
  5
1D3D
100
AcDbSymbolTableRecord
100
AcDbLinetypeTableRecord
  2
CACHEX2
 70
     0
  3
____ ____ ____ ____ ____ ____ ____ ____ ____ __
 72
    65
 73
     2
 40
0.75
 49
0.5
 74
     0
 49
-0.25
 74
     0
  0
LTYPE
  5
1D3E
100
AcDbSymbolTableRecord
100
AcDbLinetypeTableRecord
  2
FANTOME
 70
     0
  3
______  __  __  ______  __  __  ______  __  __ 
 72
    65
 73
     6
 40
2.5
 49
1.25
 74
     0
 49
-0.25
 74
     0
 49
0.25
 74
     0
 49
-0.25
 74
     0
 49
0.25
 74
     0
 49
-0.25
 74
     0
  0
LTYPE
  5
1D3F
100
AcDbSymbolTableRecord
100
AcDbLinetypeTableRecord
  2
FANTOME2
 70
     0
  3
___ _ _ ___ _ _ ___ _ _ ___ _ _ ___ _ _ ___ _ _
 72
    65
 73
     6
 40
1.25
 49
0.625
 74
     0
 49
-0.125
 74
     0
 49
0.125
 74
     0
 49
-0.125
 74
     0
 49
0.125
 74
     0
 49
-0.125
 74
     0
  0
LTYPE
  5
1D40
100
AcDbSymbolTableRecord
100
AcDbLinetypeTableRecord
  2
FANTOMEX2
 70
     0
  3
____________    ____    ____    ____________   
 72
    65
 73
     6
 40
5.0
 49
2.5
 74
     0
 49
-0.5
 74
     0
 49
0.5
 74
     0
 49
-0.5
 74
     0
 49
0.5
 74
     0
 49
-0.5
 74
     0
  0
LTYPE
  5
1D41
100
AcDbSymbolTableRecord
100
AcDbLinetypeTableRecord
  2
0
 70
     0
  3
MEDUSA PEN 0
 72
    65
 73
     0
 40
0.0
  0
ENDTAB
  0
TABLE
  2
LAYER
  5
1D09
100
AcDbSymbolTable
 70
    21
  0
LAYER
  5
1D15
100
AcDbSymbolTableRecord
100
AcDbLayerTableRecord
  2
0
 70
     0
 62
   255
  6
CONTINUOUS
  0
LAYER
  5
1D49
100
AcDbSymbolTableRecord
100
AcDbLayerTableRecord
  2
AXE
 70
     0
 62
    80
  6
AXES2
  0
LAYER
  5
1D4A
100
AcDbSymbolTableRecord
100
AcDbLayerTableRecord
  2
CONSTRUCTION
 70
     0
 62
     6
  6
CONTINUOUS
  0
LAYER
  5
1D4B
100
AcDbSymbolTableRecord
100
AcDbLayerTableRecord
  2
COTATION1
 70
     0
 62
     2
  6
CONTINUOUS
  0
LAYER
  5
1D4C
100
AcDbSymbolTableRecord
100
AcDbLayerTableRecord
  2
HACHURES
 70
     0
 62
     9
  6
CONTINUOUS
  0
LAYER
  5
1D4D
100
AcDbSymbolTableRecord
100
AcDbLayerTableRecord
  2
FMULT
 70
     0
 62
     6
  6
CONTINUOUS
  0
LAYER
  5
1D4E
100
AcDbSymbolTableRecord
100
AcDbLayerTableRecord
  2
TEXTE
 70
     0
 62
   131
  6
CONTINUOUS
  0
LAYER
  5
1D4F
100
AcDbSymbolTableRecord
100
AcDbLayerTableRecord
  2
FDP_CARTOUCHE
 70
     0
 62
     4
  6
CONTINUOUS
  0
LAYER
  5
1D50
100
AcDbSymbolTableRecord
100
AcDbLayerTableRecord
  2
FDP_TEXTES
 70
     0
 62
     5
  6
CONTINUOUS
  0
LAYER
  5
1D51
100
AcDbSymbolTableRecord
100
AcDbLayerTableRecord
  2
FDP_LOGO_MG
 70
     0
 62
    30
  6
CONTINUOUS
  0
LAYER
  5
1D52
100
AcDbSymbolTableRecord
100
AcDbLayerTableRecord
  2
FDP_LOGO_SCH
 70
     0
 62
     3
  6
CONTINUOUS
  0
LAYER
  5
1D53
100
AcDbSymbolTableRecord
100
AcDbLayerTableRecord
  2
FDP_FDP
 70
     0
 62
     5
  6
CONTINUOUS
  0
LAYER
  5
1D54
100
AcDbSymbolTableRecord
100
AcDbLayerTableRecord
  2
COTATION2
 70
     0
 62
     2
  6
CONTINUOUS
  0
LAYER
  5
1D55
100
AcDbSymbolTableRecord
100
AcDbLayerTableRecord
  2
COTATION3
 70
     0
 62
     2
  6
CONTINUOUS
  0
LAYER
  5
1D56
100
AcDbSymbolTableRecord
100
AcDbLayerTableRecord
  2
COTATION4
 70
     0
 62
     2
  6
CONTINUOUS
  0
LAYER
  5
1D57
100
AcDbSymbolTableRecord
100
AcDbLayerTableRecord
  2
ASHADE
 70
     0
 62
     7
  6
CONTINUOUS
  0
LAYER
  5
1D58
100
AcDbSymbolTableRecord
100
AcDbLayerTableRecord
  2
POINTILLE_COURT
 70
     0
 62
    40
  6
CACHE2
  0
LAYER
  5
1D59
100
AcDbSymbolTableRecord
100
AcDbLayerTableRecord
  2
POINTILLE_MOYEN
 70
     0
 62
   140
  6
CACHE
  0
LAYER
  5
1D5A
100
AcDbSymbolTableRecord
100
AcDbLayerTableRecord
  2
POINTILLE_LONG
 70
     0
 62
   240
  6
CACHEX2
  0
LAYER
  5
1D5B
100
AcDbSymbolTableRecord
100
AcDbLayerTableRecord
  2
ALPHA
 70
     0
 62
   255
  6
CONTINUOUS
  0
LAYER
  5
1D5C
100
AcDbSymbolTableRecord
100
AcDbLayerTableRecord
  2
DEFPOINTS
 70
     0
 62
     7
  6
CONTINUOUS
  0
ENDTAB
  0
TABLE
  2
STYLE
  5
1D0A
100
AcDbSymbolTable
 70
     4
  0
STYLE
  5
1D16
100
AcDbSymbolTableRecord
100
AcDbTextStyleTableRecord
  2
STANDARD
 70
     0
 40
0.0
 41
1.0
 50
0.0
 71
     0
 42
0.2
  3
txt
  4

  0
STYLE
  5
1D29
100
AcDbSymbolTableRecord
100
AcDbTextStyleTableRecord
  2
ROMANS
 70
     0
 40
0.0
 41
1.0
 50
0.0
 71
     0
 42
2.9
  3
romans.shx
  4

  0
STYLE
  5
1D2A
100
AcDbSymbolTableRecord
100
AcDbTextStyleTableRecord
  2
INFOCAR
 70
     0
 40
0.0
 41
1.34
 50
0.0
 71
     0
 42
2.0
  3
ROMANS.SHX
  4

  0
STYLE
  5
1D2B
100
AcDbSymbolTableRecord
100
AcDbTextStyleTableRecord
  2
CARTOUCHE
 70
     0
 40
0.0
 41
1.0
 50
0.0
 71
     0
 42
0.2
  3
ROMANS.SHX
  4

  0
ENDTAB
  0
TABLE
  2
VIEW
  5
1D0D
100
AcDbSymbolTable
 70
     0
  0
ENDTAB
  0
TABLE
  2
UCS
  5
1D0E
100
AcDbSymbolTable
 70
     0
  0
ENDTAB
  0
TABLE
  2
APPID
  5
1D10
100
AcDbSymbolTable
 70
     3
  0
APPID
  5
1D17
100
AcDbSymbolTableRecord
100
AcDbRegAppTableRecord
  2
ACAD
 70
     0
  0
APPID
  5
1D43
100
AcDbSymbolTableRecord
100
AcDbRegAppTableRecord
  2
AVE_RENDER
 70
     0
  0
APPID
  5
1D44
100
AcDbSymbolTableRecord
100
AcDbRegAppTableRecord
  2
AVE_MATERIAL
 70
     0
  0
ENDTAB
  0
TABLE
  2
DIMSTYLE
  5
1D11
100
AcDbSymbolTable
 70
     2
  0
DIMSTYLE
105
1D45
100
AcDbSymbolTableRecord
100
AcDbDimStyleTableRecord
  2
STANDARD
 70
     0
  3

  4

  5

  6

  7

 40
1.0
 41
0.18
 42
0.0625
 43
0.38
 44
0.18
 45
0.0
 46
0.0
 47
0.0
 48
0.0
140
0.18
141
0.09
142
0.0
143
25.4
144
1.0
145
0.0
146
1.0
147
0.09
 71
     0
 72
     0
 73
     1
 74
     1
 75
     0
 76
     0
 77
     0
 78
     0
170
     0
171
     2
172
     0
173
     0
174
     0
175
     0
176
     0
177
     0
178
     0
270
     2
271
     4
272
     4
273
     2
274
     2
340
1D29
275
     0
280
     0
281
     0
282
     0
283
     1
284
    12
285
    12
286
    12
287
     5
288
     0
  0
DIMSTYLE
105
1D46
102
{ACAD_REACTORS
330
1B68
330
1B77
330
1B84
102
}
100
AcDbSymbolTableRecord
100
AcDbDimStyleTableRecord
  2
SC_STAND
 70
     0
  3

  4

  5

  6

  7

 40
1.0
 41
3.0
 42
0.0625
 43
0.38
 44
0.18
 45
0.01
 46
0.0
 47
0.0
 48
0.0
140
2.5
141
0.09
142
0.0
143
25.4
144
1.0
145
0.0
146
1.0
147
1.0
 71
     0
 72
     0
 73
     0
 74
     0
 75
     0
 76
     0
 77
     1
 78
    12
170
     0
171
     2
172
     1
173
     0
174
     0
175
     0
176
     0
177
     0
178
     0
270
     2
271
     4
272
     4
273
     2
274
     2
340
1D29
275
     0
280
     0
281
     0
282
     0
283
     1
284
    12
285
    12
286
    12
287
     5
288
     0
  0
ENDTAB
  0
TABLE
  2
BLOCK_RECORD
  5
1D08
100
AcDbSymbolTable
 70
     6
  0
BLOCK_RECORD
  5
1D1E
100
AcDbSymbolTableRecord
100
AcDbBlockTableRecord
  2
*MODEL_SPACE
  0
BLOCK_RECORD
  5
1D1B
100
AcDbSymbolTableRecord
100
AcDbBlockTableRecord
  2
*PAPER_SPACE
  0
BLOCK_RECORD
  5
1D23
100
AcDbSymbolTableRecord
100
AcDbBlockTableRecord
  2
AVE_RENDER
  0
BLOCK_RECORD
  5
1D24
100
AcDbSymbolTableRecord
100
AcDbBlockTableRecord
  2
AVE_GLOBAL
  0
BLOCK_RECORD
  5
1D25
100
AcDbSymbolTableRecord
100
AcDbBlockTableRecord
  2
A$C12B0
  0
BLOCK_RECORD
  5
1D26
100
AcDbSymbolTableRecord
100
AcDbBlockTableRecord
  2
*D3
  0
BLOCK_RECORD
  5
1D27
100
AcDbSymbolTableRecord
100
AcDbBlockTableRecord
  2
*D4
  0
BLOCK_RECORD
  5
1D28
100
AcDbSymbolTableRecord
100
AcDbBlockTableRecord
  2
*D5
  0
ENDTAB
  0
ENDSEC
  0
SECTION
  2
BLOCKS
  0
BLOCK
  5
1D5F
100
AcDbEntity
  8
0
100
AcDbBlockBegin
  2
*MODEL_SPACE
 70
     0
 10
0.0
 20
0.0
 30
0.0
  3
*MODEL_SPACE
  1

  0
ENDBLK
  5
1D60
100
AcDbEntity
  8
0
100
AcDbBlockEnd
  0
BLOCK
  5
1D5D
100
AcDbEntity
 67
     1
  8
0
100
AcDbBlockBegin
  2
*PAPER_SPACE
 70
     0
 10
0.0
 20
0.0
 30
0.0
  3
*PAPER_SPACE
  1

  0
ENDBLK
  5
1D5E
100
AcDbEntity
 67
     1
  8
0
100
AcDbBlockEnd
  0
BLOCK
  5
163A
100
AcDbEntity
  8
0
100
AcDbBlockBegin
  2
AVE_RENDER
 70
     0
 10
0.0
 20
0.0
 30
0.0
  3
AVE_RENDER
  1
AVE_RENDER
  0
ENDBLK
  5
163B
100
AcDbEntity
  8
0
100
AcDbBlockEnd
  0
BLOCK
  5
1648
100
AcDbEntity
  8
0
100
AcDbBlockBegin
  2
AVE_GLOBAL
 70
     0
 10
0.0
 20
0.0
 30
0.0
  3
AVE_GLOBAL
  1
AVE_GLOBAL
  0
ENDBLK
  5
1649
100
AcDbEntity
  8
0
100
AcDbBlockEnd
  0
BLOCK
  5
1919
100
AcDbEntity
  8
0
100
AcDbBlockBegin
  2
A$C12B0
 70
     0
 10
0.0
 20
0.0
 30
0.0
  3
A$C12B0
  1

  0
LINE
  5
16DB
100
AcDbEntity
  8
0
 62
     4
100
AcDbLine
 10
18.028648
 20
10.400403
 30
0.0
 11
18.156308
 21
10.450403
 31
0.0
  0
LINE
  5
16DC
100
AcDbEntity
  8
0
 62
     4
100
AcDbLine
 10
18.156308
 20
10.450403
 30
0.0
 11
18.347797
 21
10.475403
 31
0.0
  0
LINE
  5
16DD
100
AcDbEntity
  8
0
 62
     4
100
AcDbLine
 10
17.90099
 20
9.300402
 30
0.0
 11
18.347797
 21
9.300402
 31
0.0
  0
LINE
  5
16DE
100
AcDbEntity
  8
0
 62
     4
100
AcDbLine
 10
18.347797
 20
9.300402
 30
0.0
 11
18.347797
 21
9.350403
 31
0.0
  0
LINE
  5
16DF
100
AcDbEntity
  8
0
 62
     4
100
AcDbLine
 10
18.347797
 20
9.350403
 30
0.0
 11
17.90099
 21
9.350403
 31
0.0
  0
LINE
  5
16E0
100
AcDbEntity
  8
0
 62
     4
100
AcDbLine
 10
17.90099
 20
9.350403
 30
0.0
 11
18.220138
 21
9.475403
 31
0.0
  0
LINE
  5
16E1
100
AcDbEntity
  8
0
 62
     4
100
AcDbLine
 10
18.220138
 20
9.475403
 30
0.0
 11
18.156308
 21
9.500403
 31
0.0
  0
LINE
  5
16E2
100
AcDbEntity
  8
0
 62
     4
100
AcDbLine
 10
18.156308
 20
9.500403
 30
0.0
 11
17.77333
 21
9.350403
 31
0.0
  0
LINE
  5
16E3
100
AcDbEntity
  8
0
 62
     4
100
AcDbLine
 10
17.77333
 20
9.350403
 30
0.0
 11
17.390351
 21
9.500403
 31
0.0
  0
LINE
  5
16E4
100
AcDbEntity
  8
0
 62
     4
100
AcDbLine
 10
17.390351
 20
9.500403
 30
0.0
 11
17.326521
 21
9.475403
 31
0.0
  0
LINE
  5
16E5
100
AcDbEntity
  8
0
 62
     4
100
AcDbLine
 10
17.326521
 20
9.475403
 30
0.0
 11
17.64567
 21
9.350403
 31
0.0
  0
LINE
  5
16E6
100
AcDbEntity
  8
0
 62
     4
100
AcDbLine
 10
17.64567
 20
9.350403
 30
0.0
 11
17.198861
 21
9.350403
 31
0.0
  0
LINE
  5
16E7
100
AcDbEntity
  8
0
 62
     4
100
AcDbLine
 10
17.709499
 20
10.525403
 30
0.0
 11
17.77333
 21
10.475403
 31
0.0
  0
LINE
  5
16E8
100
AcDbEntity
  8
0
 62
     4
100
AcDbLine
 10
16.305244
 20
4.525403
 30
0.0
 11
16.752053
 21
4.525403
 31
0.0
  0
LINE
  5
16E9
100
AcDbEntity
  8
0
 62
     4
100
AcDbLine
 10
16.305244
 20
3.525403
 30
0.0
 11
16.305244
 21
4.525403
 31
0.0
  0
LINE
  5
16EA
100
AcDbEntity
  8
0
 62
     4
100
AcDbLine
 10
16.624393
 20
3.525403
 30
0.0
 11
16.305244
 21
3.525403
 31
0.0
  0
LINE
  5
16EB
100
AcDbEntity
  8
0
 62
     4
100
AcDbLine
 10
16.624393
 20
4.400403
 30
0.0
 11
16.624393
 21
3.525403
 31
0.0
  0
LINE
  5
16EC
100
AcDbEntity
  8
0
 62
     4
100
AcDbLine
 10
18.794606
 20
3.525403
 30
0.0
 11
16.624393
 21
4.400403
 31
0.0
  0
LINE
  5
16ED
100
AcDbEntity
  8
0
 62
     4
100
AcDbLine
 10
19.305244
 20
3.525403
 30
0.0
 11
18.794606
 21
3.525403
 31
0.0
  0
LINE
  5
16EE
100
AcDbEntity
  8
0
 62
     4
100
AcDbLine
 10
19.305244
 20
4.525403
 30
0.0
 11
19.305244
 21
3.525403
 31
0.0
  0
LINE
  5
16EF
100
AcDbEntity
  8
0
 62
     4
100
AcDbLine
 10
18.922266
 20
4.525403
 30
0.0
 11
19.305244
 21
4.525403
 31
0.0
  0
LINE
  5
16F0
100
AcDbEntity
  8
0
 62
     4
100
AcDbLine
 10
18.922266
 20
3.675402
 30
0.0
 11
18.922266
 21
4.525403
 31
0.0
  0
LINE
  5
16F1
100
AcDbEntity
  8
0
 62
     4
100
AcDbLine
 10
16.752053
 20
4.525403
 30
0.0
 11
18.922266
 21
3.675402
 31
0.0
  0
LINE
  5
16F2
100
AcDbEntity
  8
0
 62
     4
100
AcDbLine
 10
17.709499
 20
5.550403
 30
0.0
 11
17.77333
 21
5.500403
 31
0.0
  0
LINE
  5
16F3
100
AcDbEntity
  8
0
 62
     4
100
AcDbLine
 10
17.454181
 20
5.625403
 30
0.0
 11
17.709499
 21
5.550403
 31
0.0
  0
LINE
  5
16F4
100
AcDbEntity
  8
0
 62
     4
100
AcDbLine
 10
17.262692
 20
5.650403
 30
0.0
 11
17.454181
 21
5.625403
 31
0.0
  0
LINE
  5
16F5
100
AcDbEntity
  8
0
 62
     4
100
AcDbLine
 10
17.007372
 20
5.650403
 30
0.0
 11
17.262692
 21
5.650403
 31
0.0
  0
LINE
  5
16F6
100
AcDbEntity
  8
0
 62
     4
100
AcDbLine
 10
16.815883
 20
5.625403
 30
0.0
 11
17.007372
 21
5.650403
 31
0.0
  0
LINE
  5
16F7
100
AcDbEntity
  8
0
 62
     4
100
AcDbLine
 10
16.560564
 20
5.550403
 30
0.0
 11
16.815883
 21
5.625403
 31
0.0
  0
LINE
  5
16F8
100
AcDbEntity
  8
0
 62
     4
100
AcDbLine
 10
16.369074
 20
5.450403
 30
0.0
 11
16.560564
 21
5.550403
 31
0.0
  0
LINE
  5
16F9
100
AcDbEntity
  8
0
 62
     4
100
AcDbLine
 10
16.305244
 20
5.325403
 30
0.0
 11
16.369074
 21
5.450403
 31
0.0
  0
LINE
  5
16FA
100
AcDbEntity
  8
0
 62
     4
100
AcDbLine
 10
16.305244
 20
4.725403
 30
0.0
 11
16.305244
 21
5.325403
 31
0.0
  0
LINE
  5
16FB
100
AcDbEntity
  8
0
 62
     4
100
AcDbLine
 10
19.305244
 20
4.725403
 30
0.0
 11
16.305244
 21
4.725403
 31
0.0
  0
LINE
  5
16FC
100
AcDbEntity
  8
0
 62
     4
100
AcDbLine
 10
19.305244
 20
5.325403
 30
0.0
 11
19.305244
 21
4.725403
 31
0.0
  0
LINE
  5
16FD
100
AcDbEntity
  8
0
 62
     4
100
AcDbLine
 10
19.241415
 20
5.450403
 30
0.0
 11
19.305244
 21
5.325403
 31
0.0
  0
LINE
  5
16FE
100
AcDbEntity
  8
0
 62
     4
100
AcDbLine
 10
19.049925
 20
5.550403
 30
0.0
 11
19.241415
 21
5.450403
 31
0.0
  0
LINE
  5
16FF
100
AcDbEntity
  8
0
 62
     4
100
AcDbLine
 10
18.794606
 20
5.625403
 30
0.0
 11
19.049925
 21
5.550403
 31
0.0
  0
LINE
  5
1700
100
AcDbEntity
  8
0
 62
     4
100
AcDbLine
 10
18.603117
 20
5.650403
 30
0.0
 11
18.794606
 21
5.625403
 31
0.0
  0
LINE
  5
1701
100
AcDbEntity
  8
0
 62
     4
100
AcDbLine
 10
18.283968
 20
5.650403
 30
0.0
 11
18.603117
 21
5.650403
 31
0.0
  0
LINE
  5
1702
100
AcDbEntity
  8
0
 62
     4
100
AcDbLine
 10
18.092479
 20
5.625403
 30
0.0
 11
18.283968
 21
5.650403
 31
0.0
  0
LINE
  5
1703
100
AcDbEntity
  8
0
 62
     4
100
AcDbLine
 10
17.837159
 20
5.550403
 30
0.0
 11
18.092479
 21
5.625403
 31
0.0
  0
LINE
  5
1704
100
AcDbEntity
  8
0
 62
     4
100
AcDbLine
 10
17.77333
 20
5.500403
 30
0.0
 11
17.837159
 21
5.550403
 31
0.0
  0
LINE
  5
1705
100
AcDbEntity
  8
0
 62
     4
100
AcDbLine
 10
16.688223
 20
5.350403
 30
0.0
 11
16.688223
 21
4.875403
 31
0.0
  0
LINE
  5
1706
100
AcDbEntity
  8
0
 62
     4
100
AcDbLine
 10
16.752053
 20
5.425403
 30
0.0
 11
16.688223
 21
5.350403
 31
0.0
  0
LINE
  5
1707
100
AcDbEntity
  8
0
 62
     4
100
AcDbLine
 10
16.879712
 20
5.475403
 30
0.0
 11
16.752053
 21
5.425403
 31
0.0
  0
LINE
  5
1708
100
AcDbEntity
  8
0
 62
     4
100
AcDbLine
 10
17.071202
 20
5.500403
 30
0.0
 11
16.879712
 21
5.475403
 31
0.0
  0
LINE
  5
1709
100
AcDbEntity
  8
0
 62
     4
100
AcDbLine
 10
17.198861
 20
5.500403
 30
0.0
 11
17.071202
 21
5.500403
 31
0.0
  0
LINE
  5
170A
100
AcDbEntity
  8
0
 62
     4
100
AcDbLine
 10
17.390351
 20
5.475403
 30
0.0
 11
17.198861
 21
5.500403
 31
0.0
  0
LINE
  5
170B
100
AcDbEntity
  8
0
 62
     4
100
AcDbLine
 10
17.51801
 20
5.425403
 30
0.0
 11
17.390351
 21
5.475403
 31
0.0
  0
LINE
  5
170C
100
AcDbEntity
  8
0
 62
     4
100
AcDbLine
 10
17.581841
 20
5.350403
 30
0.0
 11
17.51801
 21
5.425403
 31
0.0
  0
LINE
  5
170D
100
AcDbEntity
  8
0
 62
     4
100
AcDbLine
 10
17.454181
 20
10.600403
 30
0.0
 11
17.709499
 21
10.525403
 31
0.0
  0
LINE
  5
170E
100
AcDbEntity
  8
0
 62
     4
100
AcDbLine
 10
17.262692
 20
10.625403
 30
0.0
 11
17.454181
 21
10.600403
 31
0.0
  0
LINE
  5
170F
100
AcDbEntity
  8
0
 62
     4
100
AcDbLine
 10
17.581841
 20
4.875403
 30
0.0
 11
17.581841
 21
5.350403
 31
0.0
  0
LINE
  5
1710
100
AcDbEntity
  8
0
 62
     4
100
AcDbLine
 10
17.007372
 20
10.625403
 30
0.0
 11
17.262692
 21
10.625403
 31
0.0
  0
LINE
  5
1711
100
AcDbEntity
  8
0
 62
     4
100
AcDbLine
 10
16.688223
 20
4.875403
 30
0.0
 11
17.581841
 21
4.875403
 31
0.0
  0
LINE
  5
1712
100
AcDbEntity
  8
0
 62
     4
100
AcDbLine
 10
16.815883
 20
10.600403
 30
0.0
 11
17.007372
 21
10.625403
 31
0.0
  0
LINE
  5
1713
100
AcDbEntity
  8
0
 62
     4
100
AcDbLine
 10
18.347797
 20
5.500403
 30
0.0
 11
18.539287
 21
5.500403
 31
0.0
  0
LINE
  5
1714
100
AcDbEntity
  8
0
 62
     4
100
AcDbLine
 10
18.539287
 20
5.500403
 30
0.0
 11
18.730777
 21
5.475403
 31
0.0
  0
LINE
  5
1715
100
AcDbEntity
  8
0
 62
     4
100
AcDbLine
 10
18.730777
 20
5.475403
 30
0.0
 11
18.858436
 21
5.425403
 31
0.0
  0
LINE
  5
1716
100
AcDbEntity
  8
0
 62
     4
100
AcDbLine
 10
18.858436
 20
5.425403
 30
0.0
 11
18.922266
 21
5.350403
 31
0.0
  0
LINE
  5
1717
100
AcDbEntity
  8
0
 62
     4
100
AcDbLine
 10
18.922266
 20
5.350403
 30
0.0
 11
18.922266
 21
4.875403
 31
0.0
  0
LINE
  5
1718
100
AcDbEntity
  8
0
 62
     4
100
AcDbLine
 10
18.922266
 20
4.875403
 30
0.0
 11
17.964819
 21
4.875403
 31
0.0
  0
LINE
  5
1719
100
AcDbEntity
  8
0
 62
     4
100
AcDbLine
 10
17.964819
 20
4.875403
 30
0.0
 11
17.964819
 21
5.350403
 31
0.0
  0
LINE
  5
171A
100
AcDbEntity
  8
0
 62
     4
100
AcDbLine
 10
17.964819
 20
5.350403
 30
0.0
 11
18.028648
 21
5.425403
 31
0.0
  0
LINE
  5
171B
100
AcDbEntity
  8
0
 62
     4
100
AcDbLine
 10
16.560564
 20
10.525403
 30
0.0
 11
16.815883
 21
10.600403
 31
0.0
  0
LINE
  5
171C
100
AcDbEntity
  8
0
 62
     4
100
AcDbLine
 10
16.369074
 20
10.425402
 30
0.0
 11
16.560564
 21
10.525403
 31
0.0
  0
LINE
  5
171D
100
AcDbEntity
  8
0
 62
     4
100
AcDbLine
 10
16.305244
 20
10.300402
 30
0.0
 11
16.369074
 21
10.425402
 31
0.0
  0
LINE
  5
171E
100
AcDbEntity
  8
0
 62
     4
100
AcDbLine
 10
16.305244
 20
9.700403
 30
0.0
 11
16.305244
 21
10.300402
 31
0.0
  0
LINE
  5
171F
100
AcDbEntity
  8
0
 62
     4
100
AcDbLine
 10
19.305244
 20
9.700403
 30
0.0
 11
16.305244
 21
9.700403
 31
0.0
  0
LINE
  5
1720
100
AcDbEntity
  8
0
 62
     4
100
AcDbLine
 10
19.305244
 20
10.300402
 30
0.0
 11
19.305244
 21
9.700403
 31
0.0
  0
LINE
  5
1721
100
AcDbEntity
  8
0
 62
     4
100
AcDbLine
 10
19.241415
 20
10.425402
 30
0.0
 11
19.305244
 21
10.300402
 31
0.0
  0
LINE
  5
1722
100
AcDbEntity
  8
0
 62
     4
100
AcDbLine
 10
19.049925
 20
10.525403
 30
0.0
 11
19.241415
 21
10.425402
 31
0.0
  0
LINE
  5
1723
100
AcDbEntity
  8
0
 62
     4
100
AcDbLine
 10
18.794606
 20
10.600403
 30
0.0
 11
19.049925
 21
10.525403
 31
0.0
  0
LINE
  5
1724
100
AcDbEntity
  8
0
 62
     4
100
AcDbLine
 10
18.603117
 20
10.625403
 30
0.0
 11
18.794606
 21
10.600403
 31
0.0
  0
LINE
  5
1725
100
AcDbEntity
  8
0
 62
     4
100
AcDbLine
 10
18.283968
 20
10.625403
 30
0.0
 11
18.603117
 21
10.625403
 31
0.0
  0
LINE
  5
1726
100
AcDbEntity
  8
0
 62
     4
100
AcDbLine
 10
18.092479
 20
10.600403
 30
0.0
 11
18.283968
 21
10.625403
 31
0.0
  0
LINE
  5
1727
100
AcDbEntity
  8
0
 62
     4
100
AcDbLine
 10
18.028648
 20
5.425403
 30
0.0
 11
18.156308
 21
5.475403
 31
0.0
  0
LINE
  5
1728
100
AcDbEntity
  8
0
 62
     4
100
AcDbLine
 10
18.156308
 20
5.475403
 30
0.0
 11
18.347797
 21
5.500403
 31
0.0
  0
LINE
  5
1729
100
AcDbEntity
  8
0
 62
     4
100
AcDbLine
 10
17.837159
 20
6.700403
 30
0.0
 11
17.64567
 21
6.625403
 31
0.0
  0
LINE
  5
172A
100
AcDbEntity
  8
0
 62
     4
100
AcDbLine
 10
17.64567
 20
6.625403
 30
0.0
 11
17.454181
 21
6.500403
 31
0.0
  0
LINE
  5
172B
100
AcDbEntity
  8
0
 62
     4
100
AcDbLine
 10
17.454181
 20
6.500403
 30
0.0
 11
17.390351
 21
6.375403
 31
0.0
  0
LINE
  5
172C
100
AcDbEntity
  8
0
 62
     4
100
AcDbLine
 10
17.390351
 20
6.375403
 30
0.0
 11
17.390351
 21
6.250403
 31
0.0
  0
LINE
  5
172D
100
AcDbEntity
  8
0
 62
     4
100
AcDbLine
 10
17.390351
 20
6.250403
 30
0.0
 11
17.454181
 21
6.125403
 31
0.0
  0
LINE
  5
172E
100
AcDbEntity
  8
0
 62
     4
100
AcDbLine
 10
17.454181
 20
6.125403
 30
0.0
 11
17.709499
 21
5.975403
 31
0.0
  0
LINE
  5
172F
100
AcDbEntity
  8
0
 62
     4
100
AcDbLine
 10
17.709499
 20
5.975403
 30
0.0
 11
17.581841
 21
5.975403
 31
0.0
  0
LINE
  5
1730
100
AcDbEntity
  8
0
 62
     4
100
AcDbLine
 10
17.581841
 20
5.975403
 30
0.0
 11
17.198861
 21
6.000403
 31
0.0
  0
LINE
  5
1731
100
AcDbEntity
  8
0
 62
     4
100
AcDbLine
 10
17.198861
 20
6.000403
 30
0.0
 11
17.007372
 21
6.025403
 31
0.0
  0
LINE
  5
1732
100
AcDbEntity
  8
0
 62
     4
100
AcDbLine
 10
17.007372
 20
6.025403
 30
0.0
 11
16.815883
 21
6.075403
 31
0.0
  0
LINE
  5
1733
100
AcDbEntity
  8
0
 62
     4
100
AcDbLine
 10
16.815883
 20
6.075403
 30
0.0
 11
16.688223
 21
6.150403
 31
0.0
  0
LINE
  5
1734
100
AcDbEntity
  8
0
 62
     4
100
AcDbLine
 10
16.688223
 20
6.150403
 30
0.0
 11
16.624393
 21
6.225403
 31
0.0
  0
LINE
  5
1735
100
AcDbEntity
  8
0
 62
     4
100
AcDbLine
 10
16.624393
 20
6.225403
 30
0.0
 11
16.624393
 21
6.375403
 31
0.0
  0
LINE
  5
1736
100
AcDbEntity
  8
0
 62
     4
100
AcDbLine
 10
16.624393
 20
6.375403
 30
0.0
 11
16.688223
 21
6.450403
 31
0.0
  0
LINE
  5
1737
100
AcDbEntity
  8
0
 62
     4
100
AcDbLine
 10
16.688223
 20
6.450403
 30
0.0
 11
16.815883
 21
6.525403
 31
0.0
  0
LINE
  5
1738
100
AcDbEntity
  8
0
 62
     4
100
AcDbLine
 10
16.815883
 20
6.525403
 30
0.0
 11
17.007372
 21
6.575403
 31
0.0
  0
LINE
  5
1739
100
AcDbEntity
  8
0
 62
     4
100
AcDbLine
 10
17.007372
 20
6.575403
 30
0.0
 11
17.007372
 21
6.700403
 31
0.0
  0
LINE
  5
173A
100
AcDbEntity
  8
0
 62
     4
100
AcDbLine
 10
17.007372
 20
6.700403
 30
0.0
 11
16.815883
 21
6.675403
 31
0.0
  0
LINE
  5
173B
100
AcDbEntity
  8
0
 62
     4
100
AcDbLine
 10
16.815883
 20
6.675403
 30
0.0
 11
16.560564
 21
6.600403
 31
0.0
  0
LINE
  5
173C
100
AcDbEntity
  8
0
 62
     4
100
AcDbLine
 10
16.560564
 20
6.600403
 30
0.0
 11
16.369074
 21
6.475403
 31
0.0
  0
LINE
  5
173D
100
AcDbEntity
  8
0
 62
     4
100
AcDbLine
 10
16.369074
 20
6.475403
 30
0.0
 11
16.305244
 21
6.350403
 31
0.0
  0
LINE
  5
173E
100
AcDbEntity
  8
0
 62
     4
100
AcDbLine
 10
16.305244
 20
6.350403
 30
0.0
 11
16.305244
 21
6.250403
 31
0.0
  0
LINE
  5
173F
100
AcDbEntity
  8
0
 62
     4
100
AcDbLine
 10
16.305244
 20
6.250403
 30
0.0
 11
16.369074
 21
6.125403
 31
0.0
  0
LINE
  5
1740
100
AcDbEntity
  8
0
 62
     4
100
AcDbLine
 10
16.369074
 20
6.125403
 30
0.0
 11
16.560564
 21
6.000403
 31
0.0
  0
LINE
  5
1741
100
AcDbEntity
  8
0
 62
     4
100
AcDbLine
 10
16.560564
 20
6.000403
 30
0.0
 11
16.815883
 21
5.925403
 31
0.0
  0
LINE
  5
1742
100
AcDbEntity
  8
0
 62
     4
100
AcDbLine
 10
16.815883
 20
5.925403
 30
0.0
 11
17.135032
 21
5.875403
 31
0.0
  0
LINE
  5
1743
100
AcDbEntity
  8
0
 62
     4
100
AcDbLine
 10
17.135032
 20
5.875403
 30
0.0
 11
17.581841
 21
5.850403
 31
0.0
  0
LINE
  5
1744
100
AcDbEntity
  8
0
 62
     4
100
AcDbLine
 10
17.581841
 20
5.850403
 30
0.0
 11
18.028648
 21
5.850403
 31
0.0
  0
LINE
  5
1745
100
AcDbEntity
  8
0
 62
     4
100
AcDbLine
 10
18.028648
 20
5.850403
 30
0.0
 11
18.475457
 21
5.875403
 31
0.0
  0
LINE
  5
1746
100
AcDbEntity
  8
0
 62
     4
100
AcDbLine
 10
18.475457
 20
5.875403
 30
0.0
 11
18.794606
 21
5.925403
 31
0.0
  0
LINE
  5
1747
100
AcDbEntity
  8
0
 62
     4
100
AcDbLine
 10
18.794606
 20
5.925403
 30
0.0
 11
19.049925
 21
6.000403
 31
0.0
  0
LINE
  5
1748
100
AcDbEntity
  8
0
 62
     4
100
AcDbLine
 10
19.049925
 20
6.000403
 30
0.0
 11
19.241415
 21
6.125403
 31
0.0
  0
LINE
  5
1749
100
AcDbEntity
  8
0
 62
     4
100
AcDbLine
 10
19.241415
 20
6.125403
 30
0.0
 11
19.305244
 21
6.250403
 31
0.0
  0
LINE
  5
174A
100
AcDbEntity
  8
0
 62
     4
100
AcDbLine
 10
19.305244
 20
6.250403
 30
0.0
 11
19.305244
 21
6.375403
 31
0.0
  0
LINE
  5
174B
100
AcDbEntity
  8
0
 62
     4
100
AcDbLine
 10
19.305244
 20
6.375403
 30
0.0
 11
19.241415
 21
6.500403
 31
0.0
  0
LINE
  5
174C
100
AcDbEntity
  8
0
 62
     4
100
AcDbLine
 10
19.241415
 20
6.500403
 30
0.0
 11
19.049925
 21
6.625403
 31
0.0
  0
LINE
  5
174D
100
AcDbEntity
  8
0
 62
     4
100
AcDbLine
 10
19.049925
 20
6.625403
 30
0.0
 11
18.794606
 21
6.700403
 31
0.0
  0
LINE
  5
174E
100
AcDbEntity
  8
0
 62
     4
100
AcDbLine
 10
18.794606
 20
6.700403
 30
0.0
 11
18.475457
 21
6.750403
 31
0.0
  0
LINE
  5
174F
100
AcDbEntity
  8
0
 62
     4
100
AcDbLine
 10
18.475457
 20
6.750403
 30
0.0
 11
18.156308
 21
6.750403
 31
0.0
  0
LINE
  5
1750
100
AcDbEntity
  8
0
 62
     4
100
AcDbLine
 10
18.156308
 20
6.750403
 30
0.0
 11
17.837159
 21
6.700403
 31
0.0
  0
LINE
  5
1751
100
AcDbEntity
  8
0
 62
     4
100
AcDbLine
 10
18.220138
 20
6.625403
 30
0.0
 11
18.028648
 21
6.600403
 31
0.0
  0
LINE
  5
1752
100
AcDbEntity
  8
0
 62
     4
100
AcDbLine
 10
18.411628
 20
6.625403
 30
0.0
 11
18.220138
 21
6.625403
 31
0.0
  0
LINE
  5
1753
100
AcDbEntity
  8
0
 62
     4
100
AcDbLine
 10
18.603117
 20
6.600403
 30
0.0
 11
18.411628
 21
6.625403
 31
0.0
  0
LINE
  5
1754
100
AcDbEntity
  8
0
 62
     4
100
AcDbLine
 10
18.794606
 20
6.550403
 30
0.0
 11
18.603117
 21
6.600403
 31
0.0
  0
LINE
  5
1755
100
AcDbEntity
  8
0
 62
     4
100
AcDbLine
 10
18.922266
 20
6.475403
 30
0.0
 11
18.794606
 21
6.550403
 31
0.0
  0
LINE
  5
1756
100
AcDbEntity
  8
0
 62
     4
100
AcDbLine
 10
18.986095
 20
6.400403
 30
0.0
 11
18.922266
 21
6.475403
 31
0.0
  0
LINE
  5
1757
100
AcDbEntity
  8
0
 62
     4
100
AcDbLine
 10
18.986095
 20
6.225403
 30
0.0
 11
18.986095
 21
6.400403
 31
0.0
  0
LINE
  5
1758
100
AcDbEntity
  8
0
 62
     4
100
AcDbLine
 10
18.922266
 20
6.150403
 30
0.0
 11
18.986095
 21
6.225403
 31
0.0
  0
LINE
  5
1759
100
AcDbEntity
  8
0
 62
     4
100
AcDbLine
 10
18.794606
 20
6.075403
 30
0.0
 11
18.922266
 21
6.150403
 31
0.0
  0
LINE
  5
175A
100
AcDbEntity
  8
0
 62
     4
100
AcDbLine
 10
18.603117
 20
6.025403
 30
0.0
 11
18.794606
 21
6.075403
 31
0.0
  0
LINE
  5
175B
100
AcDbEntity
  8
0
 62
     4
100
AcDbLine
 10
18.411628
 20
6.000403
 30
0.0
 11
18.603117
 21
6.025403
 31
0.0
  0
LINE
  5
175C
100
AcDbEntity
  8
0
 62
     4
100
AcDbLine
 10
18.220138
 20
6.000403
 30
0.0
 11
18.411628
 21
6.000403
 31
0.0
  0
LINE
  5
175D
100
AcDbEntity
  8
0
 62
     4
100
AcDbLine
 10
18.028648
 20
6.025403
 30
0.0
 11
18.220138
 21
6.000403
 31
0.0
  0
LINE
  5
175E
100
AcDbEntity
  8
0
 62
     4
100
AcDbLine
 10
17.90099
 20
6.075403
 30
0.0
 11
18.028648
 21
6.025403
 31
0.0
  0
LINE
  5
175F
100
AcDbEntity
  8
0
 62
     4
100
AcDbLine
 10
17.77333
 20
6.150403
 30
0.0
 11
17.90099
 21
6.075403
 31
0.0
  0
LINE
  5
1760
100
AcDbEntity
  8
0
 62
     4
100
AcDbLine
 10
17.709499
 20
6.225403
 30
0.0
 11
17.77333
 21
6.150403
 31
0.0
  0
LINE
  5
1761
100
AcDbEntity
  8
0
 62
     4
100
AcDbLine
 10
17.709499
 20
6.400403
 30
0.0
 11
17.709499
 21
6.225403
 31
0.0
  0
LINE
  5
1762
100
AcDbEntity
  8
0
 62
     4
100
AcDbLine
 10
17.77333
 20
6.475403
 30
0.0
 11
17.709499
 21
6.400403
 31
0.0
  0
LINE
  5
1763
100
AcDbEntity
  8
0
 62
     4
100
AcDbLine
 10
17.90099
 20
6.550403
 30
0.0
 11
17.77333
 21
6.475403
 31
0.0
  0
LINE
  5
1764
100
AcDbEntity
  8
0
 62
     4
100
AcDbLine
 10
18.028648
 20
6.600403
 30
0.0
 11
17.90099
 21
6.550403
 31
0.0
  0
LINE
  5
1765
100
AcDbEntity
  8
0
 62
     4
100
AcDbLine
 10
17.90099
 20
7.300403
 30
0.0
 11
18.220138
 21
7.300403
 31
0.0
  0
LINE
  5
1766
100
AcDbEntity
  8
0
 62
     4
100
AcDbLine
 10
17.90099
 20
6.950403
 30
0.0
 11
17.90099
 21
7.300403
 31
0.0
  0
LINE
  5
1767
100
AcDbEntity
  8
0
 62
     4
100
AcDbLine
 10
18.220138
 20
6.950403
 30
0.0
 11
17.90099
 21
6.950403
 31
0.0
  0
LINE
  5
1768
100
AcDbEntity
  8
0
 62
     4
100
AcDbLine
 10
18.220138
 20
7.300403
 30
0.0
 11
18.220138
 21
6.950403
 31
0.0
  0
LINE
  5
1769
100
AcDbEntity
  8
0
 62
     4
100
AcDbLine
 10
18.922266
 20
7.650403
 30
0.0
 11
18.922266
 21
8.400403
 31
0.0
  0
LINE
  5
176A
100
AcDbEntity
  8
0
 62
     4
100
AcDbLine
 10
17.90099
 20
7.650403
 30
0.0
 11
18.922266
 21
7.650403
 31
0.0
  0
LINE
  5
176B
100
AcDbEntity
  8
0
 62
     4
100
AcDbLine
 10
17.90099
 20
8.300403
 30
0.0
 11
17.90099
 21
7.650403
 31
0.0
  0
LINE
  5
176C
100
AcDbEntity
  8
0
 62
     4
100
AcDbLine
 10
17.51801
 20
8.300403
 30
0.0
 11
17.90099
 21
8.300403
 31
0.0
  0
LINE
  5
176D
100
AcDbEntity
  8
0
 62
     4
100
AcDbLine
 10
17.51801
 20
7.650403
 30
0.0
 11
17.51801
 21
8.300403
 31
0.0
  0
LINE
  5
176E
100
AcDbEntity
  8
0
 62
     4
100
AcDbLine
 10
16.688223
 20
7.650403
 30
0.0
 11
17.51801
 21
7.650403
 31
0.0
  0
LINE
  5
176F
100
AcDbEntity
  8
0
 62
     4
100
AcDbLine
 10
17.837159
 20
10.525403
 30
0.0
 11
18.092479
 21
10.600403
 31
0.0
  0
LINE
  5
1770
100
AcDbEntity
  8
0
 62
     4
100
AcDbLine
 10
16.688223
 20
8.400403
 30
0.0
 11
16.688223
 21
7.650403
 31
0.0
  0
LINE
  5
1771
100
AcDbEntity
  8
0
 62
     2
100
AcDbLine
 10
16.322967
 20
5.36011
 30
0.0
 11
16.461556
 21
5.498699
 31
0.0
  0
LINE
  5
1772
100
AcDbEntity
  8
0
 62
     4
100
AcDbLine
 10
16.305244
 20
8.400403
 30
0.0
 11
16.688223
 21
8.400403
 31
0.0
  0
LINE
  5
1773
100
AcDbEntity
  8
0
 62
     4
100
AcDbLine
 10
16.305244
 20
7.500403
 30
0.0
 11
16.305244
 21
8.400403
 31
0.0
  0
LINE
  5
1774
100
AcDbEntity
  8
0
 62
     4
100
AcDbLine
 10
19.305244
 20
7.500403
 30
0.0
 11
16.305244
 21
7.500403
 31
0.0
  0
LINE
  5
1775
100
AcDbEntity
  8
0
 62
     4
100
AcDbLine
 10
19.305244
 20
8.400403
 30
0.0
 11
19.305244
 21
7.500403
 31
0.0
  0
LINE
  5
1776
100
AcDbEntity
  8
0
 62
     4
100
AcDbLine
 10
18.922266
 20
8.400403
 30
0.0
 11
19.305244
 21
8.400403
 31
0.0
  0
LINE
  5
1777
100
AcDbEntity
  8
0
 62
     4
100
AcDbLine
 10
17.198861
 20
8.800403
 30
0.0
 11
17.198861
 21
8.750403
 31
0.0
  0
LINE
  5
1778
100
AcDbEntity
  8
0
 62
     2
100
AcDbLine
 10
16.878457
 20
5.915599
 30
0.0
 11
16.992217
 21
6.02936
 31
0.0
  0
LINE
  5
1779
100
AcDbEntity
  8
0
 62
     2
100
AcDbLine
 10
17.444707
 20
6.48185
 30
0.0
 11
17.480329
 21
6.517472
 31
0.0
  0
LINE
  5
177A
100
AcDbEntity
  8
0
 62
     4
100
AcDbLine
 10
17.198861
 20
8.750403
 30
0.0
 11
17.64567
 21
8.750403
 31
0.0
  0
LINE
  5
177B
100
AcDbEntity
  8
0
 62
     4
100
AcDbLine
 10
17.77333
 20
10.475403
 30
0.0
 11
17.837159
 21
10.525403
 31
0.0
  0
LINE
  5
177C
100
AcDbEntity
  8
0
 62
     4
100
AcDbLine
 10
17.64567
 20
8.750403
 30
0.0
 11
17.326521
 21
8.625403
 31
0.0
  0
LINE
  5
177D
100
AcDbEntity
  8
0
 62
     4
100
AcDbLine
 10
16.688223
 20
10.325403
 30
0.0
 11
16.688223
 21
9.850403
 31
0.0
  0
LINE
  5
177E
100
AcDbEntity
  8
0
 62
     4
100
AcDbLine
 10
17.326521
 20
8.625403
 30
0.0
 11
17.390351
 21
8.600403
 31
0.0
  0
LINE
  5
177F
100
AcDbEntity
  8
0
 62
     4
100
AcDbLine
 10
17.390351
 20
8.600403
 30
0.0
 11
17.77333
 21
8.750403
 31
0.0
  0
LINE
  5
1780
100
AcDbEntity
  8
0
 62
     4
100
AcDbLine
 10
17.77333
 20
8.750403
 30
0.0
 11
18.156308
 21
8.600403
 31
0.0
  0
LINE
  5
1781
100
AcDbEntity
  8
0
 62
     4
100
AcDbLine
 10
18.156308
 20
8.600403
 30
0.0
 11
18.220138
 21
8.625403
 31
0.0
  0
LINE
  5
1782
100
AcDbEntity
  8
0
 62
     4
100
AcDbLine
 10
16.752053
 20
10.400403
 30
0.0
 11
16.688223
 21
10.325403
 31
0.0
  0
LINE
  5
1783
100
AcDbEntity
  8
0
 62
     4
100
AcDbLine
 10
18.220138
 20
8.625403
 30
0.0
 11
17.90099
 21
8.750403
 31
0.0
  0
LINE
  5
1784
100
AcDbEntity
  8
0
 62
     4
100
AcDbLine
 10
16.879712
 20
10.450403
 30
0.0
 11
16.752053
 21
10.400403
 31
0.0
  0
LINE
  5
1785
100
AcDbEntity
  8
0
 62
     4
100
AcDbLine
 10
17.071202
 20
10.475403
 30
0.0
 11
16.879712
 21
10.450403
 31
0.0
  0
LINE
  5
1786
100
AcDbEntity
  8
0
 62
     4
100
AcDbLine
 10
17.90099
 20
8.750403
 30
0.0
 11
18.347797
 21
8.750403
 31
0.0
  0
LINE
  5
1787
100
AcDbEntity
  8
0
 62
     4
100
AcDbLine
 10
18.347797
 20
8.750403
 30
0.0
 11
18.347797
 21
8.800403
 31
0.0
  0
LINE
  5
1788
100
AcDbEntity
  8
0
 62
     4
100
AcDbLine
 10
18.347797
 20
8.800403
 30
0.0
 11
17.90099
 21
8.800403
 31
0.0
  0
LINE
  5
1789
100
AcDbEntity
  8
0
 62
     4
100
AcDbLine
 10
17.90099
 20
8.800403
 30
0.0
 11
18.220138
 21
8.925403
 31
0.0
  0
LINE
  5
178A
100
AcDbEntity
  8
0
 62
     4
100
AcDbLine
 10
18.220138
 20
8.925403
 30
0.0
 11
18.156308
 21
8.950403
 31
0.0
  0
LINE
  5
178B
100
AcDbEntity
  8
0
 62
     4
100
AcDbLine
 10
18.156308
 20
8.950403
 30
0.0
 11
17.77333
 21
8.800403
 31
0.0
  0
LINE
  5
178C
100
AcDbEntity
  8
0
 62
     4
100
AcDbLine
 10
17.77333
 20
8.800403
 30
0.0
 11
17.390351
 21
8.950403
 31
0.0
  0
LINE
  5
178D
100
AcDbEntity
  8
0
 62
     4
100
AcDbLine
 10
17.390351
 20
8.950403
 30
0.0
 11
17.326521
 21
8.925403
 31
0.0
  0
LINE
  5
178E
100
AcDbEntity
  8
0
 62
     4
100
AcDbLine
 10
17.326521
 20
8.925403
 30
0.0
 11
17.64567
 21
8.800403
 31
0.0
  0
LINE
  5
178F
100
AcDbEntity
  8
0
 62
     4
100
AcDbLine
 10
17.64567
 20
8.800403
 30
0.0
 11
17.198861
 21
8.800403
 31
0.0
  0
LINE
  5
1790
100
AcDbEntity
  8
0
 62
     4
100
AcDbLine
 10
17.198861
 20
9.350403
 30
0.0
 11
17.198861
 21
9.300402
 31
0.0
  0
LINE
  5
1791
100
AcDbEntity
  8
0
 62
     4
100
AcDbLine
 10
17.198861
 20
9.300402
 30
0.0
 11
17.64567
 21
9.300402
 31
0.0
  0
LINE
  5
1792
100
AcDbEntity
  8
0
 62
     4
100
AcDbLine
 10
17.64567
 20
9.300402
 30
0.0
 11
17.326521
 21
9.175402
 31
0.0
  0
LINE
  5
1793
100
AcDbEntity
  8
0
 62
     4
100
AcDbLine
 10
17.326521
 20
9.175402
 30
0.0
 11
17.390351
 21
9.150403
 31
0.0
  0
LINE
  5
1794
100
AcDbEntity
  8
0
 62
     4
100
AcDbLine
 10
17.390351
 20
9.150403
 30
0.0
 11
17.77333
 21
9.300402
 31
0.0
  0
LINE
  5
1795
100
AcDbEntity
  8
0
 62
     4
100
AcDbLine
 10
17.77333
 20
9.300402
 30
0.0
 11
18.156308
 21
9.150403
 31
0.0
  0
LINE
  5
1796
100
AcDbEntity
  8
0
 62
     4
100
AcDbLine
 10
18.156308
 20
9.150403
 30
0.0
 11
18.220138
 21
9.175402
 31
0.0
  0
LINE
  5
1797
100
AcDbEntity
  8
0
 62
     4
100
AcDbLine
 10
18.220138
 20
9.175402
 30
0.0
 11
17.90099
 21
9.300402
 31
0.0
  0
LINE
  5
1798
100
AcDbEntity
  8
0
 62
     4
100
AcDbLine
 10
17.198861
 20
10.475403
 30
0.0
 11
17.071202
 21
10.475403
 31
0.0
  0
LINE
  5
1799
100
AcDbEntity
  8
0
 62
     2
100
AcDbLine
 10
17.91326
 20
6.950403
 30
0.0
 11
18.220138
 21
7.25728
 31
0.0
  0
LINE
  5
179A
100
AcDbEntity
  8
0
 62
     2
100
AcDbLine
 10
18.46326
 20
7.500403
 30
0.0
 11
18.61326
 21
7.650403
 31
0.0
  0
LINE
  5
179B
100
AcDbEntity
  8
0
 62
     2
100
AcDbLine
 10
18.922266
 20
7.959409
 30
0.0
 11
19.305244
 21
8.342387
 31
0.0
  0
LINE
  5
179C
100
AcDbEntity
  8
0
 62
     4
100
AcDbLine
 10
17.390351
 20
10.450403
 30
0.0
 11
17.198861
 21
10.475403
 31
0.0
  0
LINE
  5
179D
100
AcDbEntity
  8
0
 62
     4
100
AcDbLine
 10
17.51801
 20
10.400403
 30
0.0
 11
17.390351
 21
10.450403
 31
0.0
  0
LINE
  5
179E
100
AcDbEntity
  8
0
 62
     4
100
AcDbLine
 10
17.581841
 20
10.325403
 30
0.0
 11
17.51801
 21
10.400403
 31
0.0
  0
LINE
  5
179F
100
AcDbEntity
  8
0
 62
     4
100
AcDbLine
 10
17.581841
 20
9.850403
 30
0.0
 11
17.581841
 21
10.325403
 31
0.0
  0
LINE
  5
17A0
100
AcDbEntity
  8
0
 62
     4
100
AcDbLine
 10
16.688223
 20
9.850403
 30
0.0
 11
17.581841
 21
9.850403
 31
0.0
  0
LINE
  5
17A1
100
AcDbEntity
  8
0
 62
     4
100
AcDbLine
 10
18.347797
 20
10.475403
 30
0.0
 11
18.539287
 21
10.475403
 31
0.0
  0
LINE
  5
17A2
100
AcDbEntity
  8
0
 62
     4
100
AcDbLine
 10
18.539287
 20
10.475403
 30
0.0
 11
18.730777
 21
10.450403
 31
0.0
  0
LINE
  5
17A3
100
AcDbEntity
  8
0
 62
     4
100
AcDbLine
 10
18.730777
 20
10.450403
 30
0.0
 11
18.858436
 21
10.400403
 31
0.0
  0
LINE
  5
17A4
100
AcDbEntity
  8
0
 62
     4
100
AcDbLine
 10
18.858436
 20
10.400403
 30
0.0
 11
18.922266
 21
10.325403
 31
0.0
  0
LINE
  5
17A5
100
AcDbEntity
  8
0
 62
     4
100
AcDbLine
 10
18.922266
 20
10.325403
 30
0.0
 11
18.922266
 21
9.850403
 31
0.0
  0
LINE
  5
17A6
100
AcDbEntity
  8
0
 62
     4
100
AcDbLine
 10
18.922266
 20
9.850403
 30
0.0
 11
17.964819
 21
9.850403
 31
0.0
  0
LINE
  5
17A7
100
AcDbEntity
  8
0
 62
     4
100
AcDbLine
 10
17.964819
 20
9.850403
 30
0.0
 11
17.964819
 21
10.325403
 31
0.0
  0
LINE
  5
17A8
100
AcDbEntity
  8
0
 62
     4
100
AcDbLine
 10
17.964819
 20
10.325403
 30
0.0
 11
18.028648
 21
10.400403
 31
0.0
  0
LWPOLYLINE
  5
17A9
100
AcDbEntity
  8
0
100
AcDbPolyline
 90
        4
 70
     0
 43
0.0
 10
0.801655
 20
8.864257
 10
0.801655
 20
9.262851
 10
0.801655
 20
9.617619
 10
0.801655
 20
9.921452
  0
LWPOLYLINE
  5
17AF
100
AcDbEntity
  8
0
100
AcDbPolyline
 90
        4
 70
     0
 43
0.0
 10
0.801655
 20
8.864257
 10
0.676257
 20
8.720302
 10
0.560773
 20
8.578644
 10
0.455244
 20
8.439221
  0
LINE
  5
17B5
100
AcDbEntity
  8
0
100
AcDbLine
 10
12.205244
 20
1.965853
 30
0.0
 11
8.905244
 21
1.965853
 31
0.0
  0
LWPOLYLINE
  5
17B6
100
AcDbEntity
  8
0
100
AcDbPolyline
 90
        4
 70
     0
 43
0.0
 10
8.905244
 20
1.804018
 10
8.445259
 20
2.213366
 10
8.011928
 20
2.606362
 10
7.605244
 20
2.983566
  0
LWPOLYLINE
  5
17BC
100
AcDbEntity
  8
0
100
AcDbPolyline
 90
        3
 70
     0
 43
0.0
 10
8.905244
 20
12.64384
 10
8.905244
 20
12.437758
 10
8.905244
 20
12.184952
  0
LWPOLYLINE
  5
17C1
100
AcDbEntity
  8
0
100
AcDbPolyline
 90
        4
 70
     0
 43
0.0
 10
0.801655
 20
4.229353
 10
0.801655
 20
4.533186
 10
0.801655
 20
4.887954
 10
0.801655
 20
5.286548
  0
LINE
  5
17C7
100
AcDbEntity
  8
0
100
AcDbLine
 10
12.205244
 20
12.184952
 30
0.0
 11
8.905244
 21
12.184952
 31
0.0
  0
LWPOLYLINE
  5
17C8
100
AcDbEntity
  8
0
100
AcDbPolyline
 90
        4
 70
     0
 43
0.0
 10
7.605244
 20
10.956527
 10
8.006855
 20
11.347495
 10
8.440117
 20
11.756698
 10
8.905244
 20
12.184952
  0
LINE
  5
17CE
100
AcDbEntity
  8
0
100
AcDbLine
 10
7.605244
 20
8.864257
 30
0.0
 11
0.801655
 21
8.864257
 31
0.0
  0
LWPOLYLINE
  5
17CF
100
AcDbEntity
  8
0
100
AcDbPolyline
 90
        4
 70
     0
 43
0.0
 10
0.801655
 20
5.286548
 10
0.676257
 20
5.430503
 10
0.560773
 20
5.572161
 10
0.455244
 20
5.711584
  0
LINE
  5
17D5
100
AcDbEntity
  8
0
100
AcDbLine
 10
7.605244
 20
5.286548
 30
0.0
 11
0.801655
 21
5.286548
 31
0.0
  0
LINE
  5
17D6
100
AcDbEntity
  8
0
 62
     9
100
AcDbLine
 10
15.105244
 20
1.075403
 30
0.0
 11
25.505244
 21
1.075403
 31
0.0
  0
LWPOLYLINE
  5
17D7
100
AcDbEntity
  8
0
100
AcDbPolyline
 90
        3
 70
     0
 43
0.0
 10
8.905244
 20
1.804018
 10
8.905244
 20
1.644204
 10
8.905244
 20
1.506965
  0
LINE
  5
17DC
100
AcDbEntity
  8
0
 62
     9
100
AcDbLine
 10
25.505244
 20
13.075403
 30
0.0
 11
15.105244
 21
13.075403
 31
0.0
  0
LINE
  5
17DD
100
AcDbEntity
  8
0
100
AcDbLine
 10
0.455244
 20
8.439221
 30
0.0
 11
0.455244
 21
9.755403
 31
0.0
  0
LINE
  5
17DE
100
AcDbEntity
  8
0
100
AcDbLine
 10
0.566698
 20
9.755403
 30
0.0
 11
0.455244
 21
9.755403
 31
0.0
  0
LWPOLYLINE
  5
17DF
100
AcDbEntity
  8
0
100
AcDbPolyline
 90
        3
 70
     0
 43
0.0
 10
0.665223
 20
9.825403
 10
0.643989
 20
9.810397
 10
0.566698
 20
9.755403
  0
LWPOLYLINE
  5
17E4
100
AcDbEntity
  8
0
100
AcDbPolyline
 90
        3
 70
     0
 43
0.0
 10
0.801655
 20
9.921452
 10
0.72231
 20
9.865745
 10
0.665223
 20
9.825403
  0
LWPOLYLINE
  5
17E9
100
AcDbEntity
  8
0
100
AcDbPolyline
 90
        3
 70
     0
 43
0.0
 10
0.665223
 20
4.325403
 10
0.643989
 20
4.340409
 10
0.566698
 20
4.395403
  0
LWPOLYLINE
  5
17EE
100
AcDbEntity
  8
0
100
AcDbPolyline
 90
        3
 70
     0
 43
0.0
 10
0.801655
 20
4.229353
 10
0.72231
 20
4.28506
 10
0.665223
 20
4.325403
  0
LINE
  5
17F3
100
AcDbEntity
  8
0
100
AcDbLine
 10
0.566698
 20
4.395403
 30
0.0
 11
0.455244
 21
4.395403
 31
0.0
  0
LINE
  5
17F4
100
AcDbEntity
  8
0
100
AcDbLine
 10
0.455244
 20
4.395403
 30
0.0
 11
0.455244
 21
5.711584
 31
0.0
  0
LINE
  5
17F5
100
AcDbEntity
  8
0
100
AcDbLine
 10
25.505244
 20
1.075403
 30
0.0
 11
25.505244
 21
0.275403
 31
0.0
  0
LINE
  5
17F6
100
AcDbEntity
  8
0
100
AcDbLine
 10
15.105244
 20
1.075403
 30
0.0
 11
15.105244
 21
0.275403
 31
0.0
  0
LINE
  5
17F7
100
AcDbEntity
  8
0
100
AcDbLine
 10
25.505244
 20
13.075403
 30
0.0
 11
25.505244
 21
13.875403
 31
0.0
  0
LINE
  5
17F8
100
AcDbEntity
  8
0
100
AcDbLine
 10
15.105244
 20
13.075403
 30
0.0
 11
15.105244
 21
13.875403
 31
0.0
  0
LINE
  5
17F9
100
AcDbEntity
  8
0
100
AcDbLine
 10
13.191292
 20
1.075403
 30
0.0
 11
13.191292
 21
1.175403
 31
0.0
  0
LINE
  5
17FA
100
AcDbEntity
  8
0
100
AcDbLine
 10
14.919197
 20
1.175403
 30
0.0
 11
14.919197
 21
1.075403
 31
0.0
  0
LINE
  5
17FB
100
AcDbEntity
  8
0
100
AcDbLine
 10
14.919197
 20
13.075403
 30
0.0
 11
14.919197
 21
12.975403
 31
0.0
  0
LINE
  5
17FC
100
AcDbEntity
  8
0
100
AcDbLine
 10
13.191292
 20
12.975403
 30
0.0
 11
13.191292
 21
13.075403
 31
0.0
  0
LINE
  5
17FD
100
AcDbEntity
  8
0
100
AcDbLine
 10
25.691292
 20
1.075403
 30
0.0
 11
25.691292
 21
1.175403
 31
0.0
  0
LINE
  5
17FE
100
AcDbEntity
  8
0
100
AcDbLine
 10
27.419197
 20
1.175403
 30
0.0
 11
27.419197
 21
1.075403
 31
0.0
  0
LINE
  5
17FF
100
AcDbEntity
  8
0
100
AcDbLine
 10
27.419197
 20
13.075403
 30
0.0
 11
27.419197
 21
12.975403
 31
0.0
  0
LINE
  5
1800
100
AcDbEntity
  8
0
100
AcDbLine
 10
25.691292
 20
12.975403
 30
0.0
 11
25.691292
 21
13.075403
 31
0.0
  0
LINE
  5
1801
100
AcDbEntity
  8
0
100
AcDbLine
 10
8.905244
 20
1.804018
 30
0.0
 11
8.905244
 21
1.965853
 31
0.0
  0
LINE
  5
1802
100
AcDbEntity
  8
0
100
AcDbLine
 10
7.605244
 20
2.983566
 30
0.0
 11
7.605244
 21
4.675403
 31
0.0
  0
LINE
  5
1803
100
AcDbEntity
  8
0
100
AcDbLine
 10
7.605244
 20
2.607391
 30
0.0
 11
7.605244
 21
2.983566
 31
0.0
  0
LINE
  5
1804
100
AcDbEntity
  8
0
100
AcDbLine
 10
7.605244
 20
10.956527
 30
0.0
 11
7.605244
 21
11.543414
 31
0.0
  0
LINE
  5
1805
100
AcDbEntity
  8
0
100
AcDbLine
 10
7.605244
 20
5.286548
 30
0.0
 11
7.605244
 21
4.675403
 31
0.0
  0
LINE
  5
1806
100
AcDbEntity
  8
0
100
AcDbLine
 10
7.605244
 20
10.956527
 30
0.0
 11
7.605244
 21
8.864257
 31
0.0
  0
LINE
  5
1807
100
AcDbEntity
  8
0
100
AcDbLine
 10
0.455244
 20
8.439221
 30
0.0
 11
0.455244
 21
5.711584
 31
0.0
  0
LINE
  5
1808
100
AcDbEntity
  8
0
100
AcDbLine
 10
15.105244
 20
0.275403
 30
0.0
 11
25.505244
 21
0.275403
 31
0.0
  0
LINE
  5
1809
100
AcDbEntity
  8
0
100
AcDbLine
 10
25.505244
 20
13.875403
 30
0.0
 11
15.105244
 21
13.875403
 31
0.0
  0
LINE
  5
180A
100
AcDbEntity
  8
0
100
AcDbLine
 10
15.105244
 20
12.975403
 30
0.0
 11
12.205244
 21
12.975403
 31
0.0
  0
LINE
  5
180B
100
AcDbEntity
  8
0
100
AcDbLine
 10
12.205244
 20
12.975403
 30
0.0
 11
12.205244
 21
12.184952
 31
0.0
  0
LINE
  5
180C
100
AcDbEntity
  8
0
100
AcDbLine
 10
7.605244
 20
4.675403
 30
0.0
 11
12.105244
 21
4.675403
 31
0.0
  0
LINE
  5
180D
100
AcDbEntity
  8
0
100
AcDbLine
 10
12.105244
 20
4.675403
 30
0.0
 11
12.105244
 21
3.175403
 31
0.0
  0
LINE
  5
180E
100
AcDbEntity
  8
0
100
AcDbLine
 10
8.905244
 20
3.175403
 30
0.0
 11
12.105244
 21
3.175403
 31
0.0
  0
LINE
  5
180F
100
AcDbEntity
  8
0
100
AcDbLine
 10
8.905244
 20
3.175403
 30
0.0
 11
8.905244
 21
1.965853
 31
0.0
  0
LINE
  5
1810
100
AcDbEntity
  8
0
100
AcDbLine
 10
12.205244
 20
1.965853
 30
0.0
 11
12.205244
 21
1.175403
 31
0.0
  0
LINE
  5
1811
100
AcDbEntity
  8
0
100
AcDbLine
 10
12.205244
 20
1.175403
 30
0.0
 11
15.105244
 21
1.175403
 31
0.0
  0
LINE
  5
1812
100
AcDbEntity
  8
0
100
AcDbLine
 10
15.105244
 20
1.075403
 30
0.0
 11
15.105244
 21
1.175403
 31
0.0
  0
LINE
  5
1813
100
AcDbEntity
  8
0
100
AcDbLine
 10
25.505244
 20
1.075403
 30
0.0
 11
25.505244
 21
1.175403
 31
0.0
  0
LINE
  5
1814
100
AcDbEntity
  8
0
100
AcDbLine
 10
28.205244
 20
1.175403
 30
0.0
 11
25.505244
 21
1.175403
 31
0.0
  0
LINE
  5
1815
100
AcDbEntity
  8
0
100
AcDbLine
 10
28.205244
 20
1.175403
 30
0.0
 11
28.205244
 21
5.575403
 31
0.0
  0
LINE
  5
1816
100
AcDbEntity
  8
0
100
AcDbLine
 10
28.205244
 20
5.575403
 30
0.0
 11
27.805244
 21
5.575403
 31
0.0
  0
LINE
  5
1817
100
AcDbEntity
  8
0
100
AcDbLine
 10
27.805244
 20
5.575403
 30
0.0
 11
27.805244
 21
8.575403
 31
0.0
  0
LINE
  5
1818
100
AcDbEntity
  8
0
100
AcDbLine
 10
27.805244
 20
8.575403
 30
0.0
 11
28.205244
 21
8.575403
 31
0.0
  0
LINE
  5
1819
100
AcDbEntity
  8
0
100
AcDbLine
 10
28.205244
 20
8.575403
 30
0.0
 11
28.205244
 21
12.975403
 31
0.0
  0
LINE
  5
181A
100
AcDbEntity
  8
0
100
AcDbLine
 10
28.205244
 20
12.975403
 30
0.0
 11
25.505244
 21
12.975403
 31
0.0
  0
LINE
  5
181B
100
AcDbEntity
  8
0
100
AcDbLine
 10
25.505244
 20
13.075403
 30
0.0
 11
25.505244
 21
12.975403
 31
0.0
  0
LINE
  5
181C
100
AcDbEntity
  8
0
100
AcDbLine
 10
15.105244
 20
13.075403
 30
0.0
 11
15.105244
 21
12.975403
 31
0.0
  0
LINE
  5
181D
100
AcDbEntity
  8
0
100
AcDbLine
 10
12.205244
 20
1.506965
 30
0.0
 11
8.905244
 21
1.506965
 31
0.0
  0
LWPOLYLINE
  5
181E
100
AcDbEntity
  8
0
100
AcDbPolyline
 90
        3
 70
     0
 43
0.0
 10
8.205244
 20
2.095936
 10
8.019529
 20
2.253097
 10
7.605244
 20
2.607391
  0
LINE
  5
1823
100
AcDbEntity
  8
0
100
AcDbLine
 10
8.21537
 20
2.087368
 30
0.0
 11
8.205244
 21
2.095936
 31
0.0
  0
LINE
  5
1824
100
AcDbEntity
  8
0
100
AcDbLine
 10
8.229509
 20
2.075403
 30
0.0
 11
8.21537
 21
2.087368
 31
0.0
  0
LWPOLYLINE
  5
1825
100
AcDbEntity
  8
0
100
AcDbPolyline
 90
        3
 70
     0
 43
0.0
 10
8.905244
 20
1.506965
 10
8.452832
 20
1.886418
 10
8.229509
 20
2.075403
  0
LINE
  5
182A
100
AcDbEntity
  8
0
100
AcDbLine
 10
7.605244
 20
4.229353
 30
0.0
 11
0.801655
 21
4.229353
 31
0.0
  0
LINE
  5
182B
100
AcDbEntity
  8
0
100
AcDbLine
 10
7.605244
 20
9.921452
 30
0.0
 11
0.801655
 21
9.921452
 31
0.0
  0
LWPOLYLINE
  5
182C
100
AcDbEntity
  8
0
100
AcDbPolyline
 90
        3
 70
     0
 43
0.0
 10
8.229509
 20
12.075403
 10
8.452208
 20
12.263862
 10
8.905244
 20
12.64384
  0
LINE
  5
1831
100
AcDbEntity
  8
0
100
AcDbLine
 10
8.21537
 20
12.063437
 30
0.0
 11
8.229509
 21
12.075403
 31
0.0
  0
LINE
  5
1832
100
AcDbEntity
  8
0
100
AcDbLine
 10
8.205244
 20
12.054868
 30
0.0
 11
8.21537
 21
12.063437
 31
0.0
  0
LWPOLYLINE
  5
1833
100
AcDbEntity
  8
0
100
AcDbPolyline
 90
        3
 70
     0
 43
0.0
 10
7.605244
 20
11.543414
 10
8.018925
 20
11.897195
 10
8.205244
 20
12.054868
  0
LINE
  5
1838
100
AcDbEntity
  8
0
100
AcDbLine
 10
12.205244
 20
12.64384
 30
0.0
 11
8.905244
 21
12.64384
 31
0.0
  0
LWPOLYLINE
  5
1839
100
AcDbEntity
  8
0
100
AcDbPolyline
 90
        4
 70
     0
 43
0.0
 10
9.069604
 20
13.468917
 10
8.930932
 20
13.456519
 10
8.796279
 20
13.419628
 10
8.669604
 20
13.359154
  0
LWPOLYLINE
  5
183F
100
AcDbEntity
  8
0
100
AcDbPolyline
 90
        3
 70
     0
 43
0.0
 10
10.238829
 20
0.935403
 10
10.238829
 20
0.975971
 10
10.238829
 20
1.097142
  0
LWPOLYLINE
  5
1844
100
AcDbEntity
  8
0
100
AcDbPolyline
 90
        3
 70
     0
 43
0.0
 10
8.153764
 20
13.215403
 10
8.153764
 20
13.174834
 10
8.153764
 20
13.053663
  0
LWPOLYLINE
  5
1849
100
AcDbEntity
  8
0
100
AcDbPolyline
 90
        4
 70
     0
 43
0.0
 10
0.801655
 20
3.8538
 10
0.801655
 20
3.672655
 10
0.801655
 20
3.562421
 10
0.801655
 20
3.525403
  0
LWPOLYLINE
  5
184F
100
AcDbEntity
  8
0
100
AcDbPolyline
 90
        3
 70
     0
 43
0.0
 10
8.153764
 20
1.097142
 10
8.153764
 20
0.975971
 10
8.153764
 20
0.935403
  0
LWPOLYLINE
  5
1854
100
AcDbEntity
  8
0
100
AcDbPolyline
 90
        3
 70
     0
 43
0.0
 10
8.705244
 20
1.253281
 10
8.705244
 20
1.168806
 10
8.705244
 20
1.097142
  0
LWPOLYLINE
  5
1859
100
AcDbEntity
  8
0
100
AcDbPolyline
 90
        3
 70
     0
 43
0.0
 10
8.705244
 20
13.053663
 10
8.705244
 20
12.981999
 10
8.705244
 20
12.897524
  0
LWPOLYLINE
  5
185E
100
AcDbEntity
  8
0
100
AcDbPolyline
 90
        4
 70
     0
 43
0.0
 10
8.153764
 20
13.053663
 10
8.323991
 20
13.154559
 10
8.495937
 20
13.256388
 10
8.669604
 20
13.359154
  0
LWPOLYLINE
  5
1864
100
AcDbEntity
  8
0
100
AcDbPolyline
 90
        4
 70
     0
 43
0.0
 10
7.405244
 20
2.607391
 10
7.810785
 20
2.179852
 10
8.243901
 20
1.728828
 10
8.705244
 20
1.253281
  0
LINE
  5
186A
100
AcDbEntity
  8
0
100
AcDbLine
 10
12.005244
 20
1.253281
 30
0.0
 11
8.705244
 21
1.253281
 31
0.0
  0
LINE
  5
186B
100
AcDbEntity
  8
0
100
AcDbLine
 10
8.153764
 20
13.053663
 30
0.0
 11
7.405244
 21
13.053663
 31
0.0
  0
LWPOLYLINE
  5
186C
100
AcDbEntity
  8
0
100
AcDbPolyline
 90
        4
 70
     0
 43
0.0
 10
8.705244
 20
13.053663
 10
8.249537
 20
12.597252
 10
7.816304
 20
12.161221
 10
7.405244
 20
11.745052
  0
LWPOLYLINE
  5
1872
100
AcDbEntity
  8
0
100
AcDbPolyline
 90
        4
 70
     0
 43
0.0
 10
10.238829
 20
13.053663
 10
10.14561
 20
13.190315
 10
10.051083
 20
13.32873
 10
9.955244
 20
13.468917
  0
LINE
  5
1878
100
AcDbEntity
  8
0
100
AcDbLine
 10
9.955244
 20
13.468917
 30
0.0
 11
9.069604
 21
13.468917
 31
0.0
  0
LINE
  5
1879
100
AcDbEntity
  8
0
100
AcDbLine
 10
8.705244
 20
12.897524
 30
0.0
 11
12.005244
 21
12.897524
 31
0.0
  0
LWPOLYLINE
  5
187A
100
AcDbEntity
  8
0
100
AcDbPolyline
 90
        4
 70
     0
 43
0.0
 10
8.705244
 20
12.897524
 10
8.243903
 20
12.42198
 10
7.810787
 20
11.970956
 10
7.405244
 20
11.543414
  0
LINE
  5
1880
100
AcDbEntity
  8
0
 62
     9
100
AcDbLine
 10
0.455244
 20
10.197005
 30
0.0
 11
7.405244
 21
10.197005
 31
0.0
  0
LINE
  5
1881
100
AcDbEntity
  8
0
100
AcDbLine
 10
9.955244
 20
0.681888
 30
0.0
 11
9.069604
 21
0.681888
 31
0.0
  0
LWPOLYLINE
  5
1882
100
AcDbEntity
  8
0
100
AcDbPolyline
 90
        4
 70
     0
 43
0.0
 10
9.955244
 20
0.681888
 10
10.051071
 20
0.822057
 10
10.145598
 20
0.960472
 10
10.238829
 20
1.097142
  0
LINE
  5
1888
100
AcDbEntity
  8
0
100
AcDbLine
 10
8.705244
 20
1.097142
 30
0.0
 11
10.238829
 21
1.097142
 31
0.0
  0
LWPOLYLINE
  5
1889
100
AcDbEntity
  8
0
100
AcDbPolyline
 90
        4
 70
     0
 43
0.0
 10
7.405244
 20
2.405753
 10
7.8163
 20
1.989589
 10
8.249534
 20
1.553556
 10
8.705244
 20
1.097142
  0
LINE
  5
188F
100
AcDbEntity
  8
0
100
AcDbLine
 10
8.153764
 20
1.097142
 30
0.0
 11
7.405244
 21
1.097142
 31
0.0
  0
LWPOLYLINE
  5
1890
100
AcDbEntity
  8
0
100
AcDbPolyline
 90
        4
 70
     0
 43
0.0
 10
8.669604
 20
0.791651
 10
8.495954
 20
0.894407
 10
8.324008
 20
0.996236
 10
8.153764
 20
1.097142
  0
LWPOLYLINE
  5
1896
100
AcDbEntity
  8
0
100
AcDbPolyline
 90
        3
 70
     0
 43
0.0
 10
9.955244
 20
0.530403
 10
9.955244
 20
0.547294
 10
9.955244
 20
0.681888
  0
LWPOLYLINE
  5
189B
100
AcDbEntity
  8
0
 62
     9
100
AcDbPolyline
 90
        3
 70
     0
 43
0.0
 10
8.669604
 20
13.513223
 10
8.669604
 20
13.474611
 10
8.669604
 20
13.359154
  0
LWPOLYLINE
  5
18A0
100
AcDbEntity
  8
0
100
AcDbPolyline
 90
        4
 70
     0
 43
0.0
 10
0.801655
 20
10.625403
 10
0.801655
 20
10.588401
 10
0.801655
 20
10.478169
 10
0.801655
 20
10.297005
  0
LINE
  5
18A6
100
AcDbEntity
  8
0
 62
     9
100
AcDbLine
 10
0.455244
 20
3.9538
 30
0.0
 11
7.405244
 21
3.9538
 31
0.0
  0
LWPOLYLINE
  5
18A7
100
AcDbEntity
  8
0
 62
     9
100
AcDbPolyline
 90
        3
 70
     0
 43
0.0
 10
9.069604
 20
13.620403
 10
9.069604
 20
13.582441
 10
9.069604
 20
13.468917
  0
LWPOLYLINE
  5
18AC
100
AcDbEntity
  8
0
100
AcDbPolyline
 90
        3
 70
     0
 43
0.0
 10
9.955244
 20
13.468917
 10
9.955244
 20
13.603511
 10
9.955244
 20
13.620403
  0
LWPOLYLINE
  5
18B1
100
AcDbEntity
  8
0
100
AcDbPolyline
 90
        4
 70
     0
 43
0.0
 10
8.669604
 20
0.791651
 10
8.796279
 20
0.731178
 10
8.930932
 20
0.694286
 10
9.069604
 20
0.681888
  0
LWPOLYLINE
  5
18B7
100
AcDbEntity
  8
0
 62
     9
100
AcDbPolyline
 90
        3
 70
     0
 43
0.0
 10
8.669604
 20
0.791651
 10
8.669604
 20
0.676194
 10
8.669604
 20
0.637582
  0
LWPOLYLINE
  5
18BC
100
AcDbEntity
  8
0
100
AcDbPolyline
 90
        3
 70
     0
 43
0.0
 10
10.238829
 20
13.053663
 10
10.238829
 20
13.174834
 10
10.238829
 20
13.215403
  0
LWPOLYLINE
  5
18C1
100
AcDbEntity
  8
0
 62
     9
100
AcDbPolyline
 90
        3
 70
     0
 43
0.0
 10
9.069604
 20
0.681888
 10
9.069604
 20
0.568364
 10
9.069604
 20
0.530403
  0
LINE
  5
18C6
100
AcDbEntity
  8
0
100
AcDbLine
 10
7.405244
 20
3.554039
 30
0.0
 11
3.405244
 21
3.554039
 31
0.0
  0
LINE
  5
18C7
100
AcDbEntity
  8
0
100
AcDbLine
 10
8.705244
 20
13.053663
 30
0.0
 11
10.238829
 21
13.053663
 31
0.0
  0
LINE
  5
18C8
100
AcDbEntity
  8
0
100
AcDbLine
 10
28.605244
 20
9.365403
 30
0.0
 11
28.605244
 21
9.075403
 31
0.0
  0
LINE
  5
18C9
100
AcDbEntity
  8
0
100
AcDbLine
 10
28.605244
 20
10.175403
 30
0.0
 11
28.605244
 21
9.865403
 31
0.0
  0
LINE
  5
18CA
100
AcDbEntity
  8
0
100
AcDbLine
 10
28.605244
 20
4.285403
 30
0.0
 11
28.605244
 21
3.975403
 31
0.0
  0
LINE
  5
18CB
100
AcDbEntity
  8
0
100
AcDbLine
 10
28.605244
 20
5.075403
 30
0.0
 11
28.605244
 21
4.785403
 31
0.0
  0
LINE
  5
18CC
100
AcDbEntity
  8
0
100
AcDbLine
 10
0.455244
 20
10.297005
 30
0.0
 11
7.405244
 21
10.297005
 31
0.0
  0
LINE
  5
18CD
100
AcDbEntity
  8
0
100
AcDbLine
 10
0.455244
 20
3.8538
 30
0.0
 11
7.405244
 21
3.8538
 31
0.0
  0
LINE
  5
18CE
100
AcDbEntity
  8
0
100
AcDbLine
 10
7.405244
 20
2.815403
 30
0.0
 11
3.405244
 21
2.815403
 31
0.0
  0
LINE
  5
18CF
100
AcDbEntity
  8
0
100
AcDbLine
 10
3.405244
 20
2.815403
 30
0.0
 11
3.405244
 21
3.554039
 31
0.0
  0
LINE
  5
18D0
100
AcDbEntity
  8
0
100
AcDbLine
 10
28.605244
 20
0.275403
 30
0.0
 11
25.505244
 21
0.275403
 31
0.0
  0
LINE
  5
18D1
100
AcDbEntity
  8
0
100
AcDbLine
 10
28.605244
 20
3.975403
 30
0.0
 11
28.605244
 21
0.275403
 31
0.0
  0
LINE
  5
18D2
100
AcDbEntity
  8
0
100
AcDbLine
 10
28.605244
 20
3.975403
 30
0.0
 11
28.205244
 21
3.975403
 31
0.0
  0
LINE
  5
18D3
100
AcDbEntity
  8
0
100
AcDbLine
 10
27.805244
 20
1.175403
 30
0.0
 11
27.805244
 21
1.075403
 31
0.0
  0
LINE
  5
18D4
100
AcDbEntity
  8
0
100
AcDbLine
 10
27.805244
 20
1.075403
 30
0.0
 11
25.505244
 21
1.075403
 31
0.0
  0
LINE
  5
18D5
100
AcDbEntity
  8
0
100
AcDbLine
 10
15.105244
 20
1.075403
 30
0.0
 11
12.805244
 21
1.075403
 31
0.0
  0
LINE
  5
18D6
100
AcDbEntity
  8
0
100
AcDbLine
 10
12.805244
 20
1.075403
 30
0.0
 11
12.805244
 21
1.175403
 31
0.0
  0
LINE
  5
18D7
100
AcDbEntity
  8
0
100
AcDbLine
 10
8.229509
 20
2.075403
 30
0.0
 11
8.205244
 21
2.075403
 31
0.0
  0
LINE
  5
18D8
100
AcDbEntity
  8
0
100
AcDbLine
 10
8.205244
 20
2.075403
 30
0.0
 11
8.205244
 21
2.095936
 31
0.0
  0
LINE
  5
18D9
100
AcDbEntity
  8
0
100
AcDbLine
 10
0.455244
 20
4.325403
 30
0.0
 11
0.665223
 21
4.325403
 31
0.0
  0
LINE
  5
18DA
100
AcDbEntity
  8
0
100
AcDbLine
 10
0.455244
 20
3.9538
 30
0.0
 11
0.455244
 21
4.325403
 31
0.0
  0
LINE
  5
18DB
100
AcDbEntity
  8
0
100
AcDbLine
 10
12.005244
 20
0.275403
 30
0.0
 11
12.005244
 21
1.253281
 31
0.0
  0
LINE
  5
18DC
100
AcDbEntity
  8
0
100
AcDbLine
 10
15.105244
 20
0.275403
 30
0.0
 11
12.005244
 21
0.275403
 31
0.0
  0
LINE
  5
18DD
100
AcDbEntity
  8
0
100
AcDbLine
 10
12.005244
 20
13.875403
 30
0.0
 11
15.105244
 21
13.875403
 31
0.0
  0
LINE
  5
18DE
100
AcDbEntity
  8
0
100
AcDbLine
 10
12.005244
 20
12.897524
 30
0.0
 11
12.005244
 21
13.875403
 31
0.0
  0
LINE
  5
18DF
100
AcDbEntity
  8
0
100
AcDbLine
 10
0.455244
 20
9.825403
 30
0.0
 11
0.455244
 21
10.197005
 31
0.0
  0
LINE
  5
18E0
100
AcDbEntity
  8
0
100
AcDbLine
 10
0.455244
 20
9.825403
 30
0.0
 11
0.665223
 21
9.825403
 31
0.0
  0
LINE
  5
18E1
100
AcDbEntity
  8
0
100
AcDbLine
 10
8.205244
 20
12.054868
 30
0.0
 11
8.205244
 21
12.075403
 31
0.0
  0
LINE
  5
18E2
100
AcDbEntity
  8
0
100
AcDbLine
 10
8.205244
 20
12.075403
 30
0.0
 11
8.229509
 21
12.075403
 31
0.0
  0
LINE
  5
18E3
100
AcDbEntity
  8
0
100
AcDbLine
 10
12.805244
 20
12.975403
 30
0.0
 11
12.805244
 21
13.075403
 31
0.0
  0
LINE
  5
18E4
100
AcDbEntity
  8
0
100
AcDbLine
 10
12.805244
 20
13.075403
 30
0.0
 11
15.105244
 21
13.075403
 31
0.0
  0
LINE
  5
18E5
100
AcDbEntity
  8
0
100
AcDbLine
 10
25.505244
 20
13.075403
 30
0.0
 11
27.805244
 21
13.075403
 31
0.0
  0
LINE
  5
18E6
100
AcDbEntity
  8
0
100
AcDbLine
 10
27.805244
 20
13.075403
 30
0.0
 11
27.805244
 21
12.975403
 31
0.0
  0
LINE
  5
18E7
100
AcDbEntity
  8
0
100
AcDbLine
 10
28.605244
 20
10.175403
 30
0.0
 11
28.205244
 21
10.175403
 31
0.0
  0
LINE
  5
18E8
100
AcDbEntity
  8
0
100
AcDbLine
 10
28.605244
 20
13.875403
 30
0.0
 11
28.605244
 21
10.175403
 31
0.0
  0
LINE
  5
18E9
100
AcDbEntity
  8
0
100
AcDbLine
 10
25.505244
 20
13.875403
 30
0.0
 11
28.605244
 21
13.875403
 31
0.0
  0
LINE
  5
18EA
100
AcDbEntity
  8
0
100
AcDbLine
 10
28.605244
 20
5.075403
 30
0.0
 11
28.205244
 21
5.075403
 31
0.0
  0
LINE
  5
18EB
100
AcDbEntity
  8
0
100
AcDbLine
 10
28.605244
 20
9.075403
 30
0.0
 11
28.605244
 21
5.075403
 31
0.0
  0
LINE
  5
18EC
100
AcDbEntity
  8
0
100
AcDbLine
 10
28.605244
 20
9.075403
 30
0.0
 11
28.205244
 21
9.075403
 31
0.0
  0
LINE
  5
18ED
100
AcDbEntity
  8
0
100
AcDbLine
 10
0.455244
 20
10.297005
 30
0.0
 11
0.455244
 21
10.425403
 31
0.0
  0
LINE
  5
18EE
100
AcDbEntity
  8
0
100
AcDbLine
 10
7.405244
 20
2.405753
 30
0.0
 11
7.405244
 21
2.607391
 31
0.0
  0
LINE
  5
18EF
100
AcDbEntity
  8
0
100
AcDbLine
 10
7.405244
 20
11.543414
 30
0.0
 11
7.405244
 21
11.745052
 31
0.0
  0
LINE
  5
18F0
100
AcDbEntity
  8
0
100
AcDbLine
 10
7.405244
 20
13.053663
 30
0.0
 11
7.405244
 21
13.215403
 31
0.0
  0
LINE
  5
18F1
100
AcDbEntity
  8
0
100
AcDbLine
 10
7.405244
 20
11.543414
 30
0.0
 11
7.405244
 21
10.197005
 31
0.0
  0
LINE
  5
18F2
100
AcDbEntity
  8
0
100
AcDbLine
 10
7.405244
 20
13.053663
 30
0.0
 11
7.405244
 21
11.745052
 31
0.0
  0
LINE
  5
18F3
100
AcDbEntity
  8
0
100
AcDbLine
 10
0.455244
 20
4.325403
 30
0.0
 11
0.455244
 21
4.395403
 31
0.0
  0
LINE
  5
18F4
100
AcDbEntity
  8
0
100
AcDbLine
 10
0.455244
 20
9.755403
 30
0.0
 11
0.455244
 21
9.825403
 31
0.0
  0
LINE
  5
18F5
100
AcDbEntity
  8
0
100
AcDbLine
 10
7.405244
 20
2.405753
 30
0.0
 11
7.405244
 21
1.097142
 31
0.0
  0
LINE
  5
18F6
100
AcDbEntity
  8
0
100
AcDbLine
 10
7.405244
 20
3.9538
 30
0.0
 11
7.405244
 21
2.607391
 31
0.0
  0
LINE
  5
18F7
100
AcDbEntity
  8
0
100
AcDbLine
 10
3.405244
 20
3.525403
 30
0.0
 11
0.801655
 21
3.525403
 31
0.0
  0
LINE
  5
18F8
100
AcDbEntity
  8
0
100
AcDbLine
 10
7.405244
 20
10.625403
 30
0.0
 11
0.801655
 21
10.625403
 31
0.0
  0
LINE
  5
18F9
100
AcDbEntity
  8
0
100
AcDbLine
 10
12.005244
 20
0.935403
 30
0.0
 11
10.238829
 21
0.935403
 31
0.0
  0
LINE
  5
18FA
100
AcDbEntity
  8
0
100
AcDbLine
 10
8.153764
 20
0.935403
 30
0.0
 11
7.405244
 21
0.935403
 31
0.0
  0
LINE
  5
18FB
100
AcDbEntity
  8
0
100
AcDbLine
 10
7.405244
 20
0.935403
 30
0.0
 11
7.405244
 21
1.097142
 31
0.0
  0
LINE
  5
18FC
100
AcDbEntity
  8
0
100
AcDbLine
 10
12.005244
 20
13.215403
 30
0.0
 11
10.238829
 21
13.215403
 31
0.0
  0
LINE
  5
18FD
100
AcDbEntity
  8
0
100
AcDbLine
 10
8.153764
 20
13.215403
 30
0.0
 11
7.405244
 21
13.215403
 31
0.0
  0
LINE
  5
18FE
100
AcDbEntity
  8
0
100
AcDbLine
 10
8.669604
 20
0.637582
 30
0.0
 11
8.153764
 21
0.935403
 31
0.0
  0
LINE
  5
18FF
100
AcDbEntity
  8
0
100
AcDbLine
 10
8.669604
 20
13.513223
 30
0.0
 11
8.153764
 21
13.215403
 31
0.0
  0
LINE
  5
1900
100
AcDbEntity
  8
0
100
AcDbLine
 10
9.955244
 20
0.530403
 30
0.0
 11
9.069604
 21
0.530403
 31
0.0
  0
LINE
  5
1901
100
AcDbEntity
  8
0
100
AcDbLine
 10
9.955244
 20
13.620403
 30
0.0
 11
9.069604
 21
13.620403
 31
0.0
  0
LINE
  5
1902
100
AcDbEntity
  8
0
100
AcDbLine
 10
10.026419
 20
0.632051
 30
0.0
 11
9.955244
 21
0.530403
 31
0.0
  0
LINE
  5
1903
100
AcDbEntity
  8
0
100
AcDbLine
 10
10.238829
 20
0.935403
 30
0.0
 11
10.026419
 21
0.632051
 31
0.0
  0
LINE
  5
1904
100
AcDbEntity
  8
0
100
AcDbLine
 10
10.238829
 20
13.215403
 30
0.0
 11
9.955244
 21
13.620403
 31
0.0
  0
LINE
  5
1905
100
AcDbEntity
  8
0
100
AcDbLine
 10
0.801655
 20
3.525403
 30
0.0
 11
0.455244
 21
3.725403
 31
0.0
  0
LINE
  5
1906
100
AcDbEntity
  8
0
100
AcDbLine
 10
0.455244
 20
3.725403
 30
0.0
 11
0.455244
 21
3.8538
 31
0.0
  0
LINE
  5
1907
100
AcDbEntity
  8
0
100
AcDbLine
 10
0.801655
 20
10.625403
 30
0.0
 11
0.455244
 21
10.425403
 31
0.0
  0
ARC
  5
1908
100
AcDbEntity
  8
0
100
AcDbCircle
 10
9.069604
 20
12.820403
 30
0.0
 40
0.8
100
AcDbArc
 50
90.0
 51
120.0
  0
LINE
  5
1909
100
AcDbEntity
  8
0
100
AcDbLine
 10
0.455244
 20
3.9538
 30
0.0
 11
0.455244
 21
3.8538
 31
0.0
  0
ARC
  5
190A
100
AcDbEntity
  8
0
100
AcDbCircle
 10
9.069604
 20
1.330403
 30
0.0
 40
0.8
100
AcDbArc
 50
240.0
 51
270.0
  0
LINE
  5
190B
100
AcDbEntity
  8
0
100
AcDbLine
 10
0.455244
 20
10.297005
 30
0.0
 11
7.405244
 21
10.297005
 31
0.0
  0
LINE
  5
190C
100
AcDbEntity
  8
0
100
AcDbLine
 10
0.455244
 20
10.297005
 30
0.0
 11
0.455244
 21
10.197005
 31
0.0
  0
LINE
  5
190D
100
AcDbEntity
  8
0
100
AcDbLine
 10
35.905244
 20
9.865403
 30
0.0
 11
35.905244
 21
9.365403
 31
0.0
  0
LINE
  5
190E
100
AcDbEntity
  8
0
100
AcDbLine
 10
35.905244
 20
9.365403
 30
0.0
 11
28.205244
 21
9.365403
 31
0.0
  0
LINE
  5
190F
100
AcDbEntity
  8
0
100
AcDbLine
 10
36.405244
 20
9.777239
 30
0.0
 11
36.405244
 21
9.453566
 31
0.0
  0
LINE
  5
1910
100
AcDbEntity
  8
0
100
AcDbLine
 10
36.405244
 20
9.777239
 30
0.0
 11
35.905244
 21
9.865403
 31
0.0
  0
LINE
  5
1911
100
AcDbEntity
  8
0
100
AcDbLine
 10
36.405244
 20
9.453566
 30
0.0
 11
35.905244
 21
9.365403
 31
0.0
  0
LINE
  5
1912
100
AcDbEntity
  8
0
100
AcDbLine
 10
35.905244
 20
9.865403
 30
0.0
 11
28.205244
 21
9.865403
 31
0.0
  0
LINE
  5
1913
100
AcDbEntity
  8
0
100
AcDbLine
 10
35.905244
 20
4.785403
 30
0.0
 11
35.905244
 21
4.285403
 31
0.0
  0
LINE
  5
1914
100
AcDbEntity
  8
0
100
AcDbLine
 10
35.905244
 20
4.285403
 30
0.0
 11
28.205244
 21
4.285403
 31
0.0
  0
LINE
  5
1915
100
AcDbEntity
  8
0
100
AcDbLine
 10
36.405244
 20
4.697239
 30
0.0
 11
36.405244
 21
4.373566
 31
0.0
  0
LINE
  5
1916
100
AcDbEntity
  8
0
100
AcDbLine
 10
36.405244
 20
4.697239
 30
0.0
 11
35.905244
 21
4.785403
 31
0.0
  0
LINE
  5
1917
100
AcDbEntity
  8
0
100
AcDbLine
 10
36.405244
 20
4.373566
 30
0.0
 11
35.905244
 21
4.285403
 31
0.0
  0
LINE
  5
1918
100
AcDbEntity
  8
0
100
AcDbLine
 10
35.905244
 20
4.785403
 30
0.0
 11
28.205244
 21
4.785403
 31
0.0
  0
ENDBLK
  5
191A
100
AcDbEntity
  8
0
100
AcDbBlockEnd
  0
BLOCK
  5
1B92
100
AcDbEntity
  8
0
100
AcDbBlockBegin
  2
*D3
 70
     1
 10
0.0
 20
0.0
 30
0.0
  3
*D3
  1
AVE_RENDER
  0
LINE
  5
1B93
100
AcDbEntity
  8
0
  6
BYBLOCK
 62
     0
100
AcDbLine
 10
72.742755
 20
160.468835
 30
0.0
 11
72.742755
 21
149.143341
 31
0.0
  0
LINE
  5
1B94
100
AcDbEntity
  8
0
  6
BYBLOCK
 62
     0
100
AcDbLine
 10
79.692755
 20
157.840574
 30
0.0
 11
79.692755
 21
149.143341
 31
0.0
  0
LINE
  5
1B95
100
AcDbEntity
  8
0
  6
BYBLOCK
 62
     0
100
AcDbLine
 10
82.692755
 20
149.323341
 30
0.0
 11
85.692755
 21
149.323341
 31
0.0
  0
LINE
  5
1B96
100
AcDbEntity
  8
0
  6
BYBLOCK
 62
     0
100
AcDbLine
 10
69.742755
 20
149.323341
 30
0.0
 11
59.123708
 21
149.323341
 31
0.0
  0
LINE
  5
1B97
100
AcDbEntity
  8
0
  6
BYBLOCK
 62
     0
100
AcDbLine
 10
79.692755
 20
149.323341
 30
0.0
 11
72.742755
 21
149.323341
 31
0.0
  0
SOLID
  5
1B98
100
AcDbEntity
  8
0
  6
BYBLOCK
 62
     0
100
AcDbTrace
 10
82.692755
 20
149.823341
 30
0.0
 11
82.692755
 21
148.823341
 31
0.0
 12
79.692755
 22
149.323341
 32
0.0
 13
79.692755
 23
149.323341
 33
0.0
  0
SOLID
  5
1B99
100
AcDbEntity
  8
0
  6
BYBLOCK
 62
     0
100
AcDbTrace
 10
69.742755
 20
149.823341
 30
0.0
 11
69.742755
 21
148.823341
 31
0.0
 12
72.742755
 22
149.323341
 32
0.0
 13
72.742755
 23
149.323341
 33
0.0
  0
TEXT
  5
1B9A
100
AcDbEntity
  8
0
  6
BYBLOCK
 62
     0
100
AcDbText
 10
59.707041
 20
150.323341
 30
0.0
 40
2.5
  1
6.95
  7
ROMANS
100
AcDbText
  0
POINT
  5
1B9B
100
AcDbEntity
  8
DEFPOINTS
  6
BYBLOCK
 62
     0
100
AcDbPoint
 10
72.742755
 20
160.531335
 30
0.0
  0
POINT
  5
1B9C
100
AcDbEntity
  8
DEFPOINTS
  6
BYBLOCK
 62
     0
100
AcDbPoint
 10
79.692755
 20
157.903074
 30
0.0
  0
POINT
  5
1B9D
100
AcDbEntity
  8
DEFPOINTS
  6
BYBLOCK
 62
     0
100
AcDbPoint
 10
79.692755
 20
149.323341
 30
0.0
  0
ENDBLK
  5
1B9E
100
AcDbEntity
  8
0
100
AcDbBlockEnd
  0
BLOCK
  5
1B6A
100
AcDbEntity
  8
0
100
AcDbBlockBegin
  2
*D4
 70
     1
 10
0.0
 20
0.0
 30
0.0
  3
*D4
  1
AVE_RENDER
  0
LINE
  5
1B6B
100
AcDbEntity
  8
0
  6
BYBLOCK
 62
     0
100
AcDbLine
 10
100.892755
 20
157.018835
 30
0.0
 11
100.892755
 21
149.143341
 31
0.0
  0
LINE
  5
1B6C
100
AcDbEntity
  8
0
  6
BYBLOCK
 62
     0
100
AcDbLine
 10
108.692755
 20
161.116998
 30
0.0
 11
108.692755
 21
149.143341
 31
0.0
  0
LINE
  5
1B6D
100
AcDbEntity
  8
0
  6
BYBLOCK
 62
     0
100
AcDbLine
 10
97.892755
 20
149.323341
 30
0.0
 11
94.892755
 21
149.323341
 31
0.0
  0
LINE
  5
1B6E
100
AcDbEntity
  8
0
  6
BYBLOCK
 62
     0
100
AcDbLine
 10
111.692755
 20
149.323341
 30
0.0
 11
114.692755
 21
149.323341
 31
0.0
  0
LINE
  5
1B6F
100
AcDbEntity
  8
0
  6
BYBLOCK
 62
     0
100
AcDbLine
 10
100.892755
 20
149.323341
 30
0.0
 11
108.692755
 21
149.323341
 31
0.0
  0
SOLID
  5
1B70
100
AcDbEntity
  8
0
  6
BYBLOCK
 62
     0
100
AcDbTrace
 10
97.892755
 20
149.823341
 30
0.0
 11
97.892755
 21
148.823341
 31
0.0
 12
100.892755
 22
149.323341
 32
0.0
 13
100.892755
 23
149.323341
 33
0.0
  0
SOLID
  5
1B71
100
AcDbEntity
  8
0
  6
BYBLOCK
 62
     0
100
AcDbTrace
 10
111.692755
 20
149.823341
 30
0.0
 11
111.692755
 21
148.823341
 31
0.0
 12
108.692755
 22
149.323341
 32
0.0
 13
108.692755
 23
149.323341
 33
0.0
  0
TEXT
  5
1B72
100
AcDbEntity
  8
0
  6
BYBLOCK
 62
     0
100
AcDbText
 10
101.816565
 20
150.323341
 30
0.0
 40
2.5
  1
7.8
  7
ROMANS
100
AcDbText
  0
POINT
  5
1B73
100
AcDbEntity
  8
DEFPOINTS
  6
BYBLOCK
 62
     0
100
AcDbPoint
 10
100.892755
 20
157.081335
 30
0.0
  0
POINT
  5
1B74
100
AcDbEntity
  8
DEFPOINTS
  6
BYBLOCK
 62
     0
100
AcDbPoint
 10
108.692755
 20
161.179498
 30
0.0
  0
POINT
  5
1B75
100
AcDbEntity
  8
DEFPOINTS
  6
BYBLOCK
 62
     0
100
AcDbPoint
 10
108.692755
 20
149.323341
 30
0.0
  0
ENDBLK
  5
1B76
100
AcDbEntity
  8
0
100
AcDbBlockEnd
  0
BLOCK
  5
1B79
100
AcDbEntity
  8
0
100
AcDbBlockBegin
  2
*D5
 70
     1
 10
0.0
 20
0.0
 30
0.0
  3
*D5
  1
AVE_RENDER
  0
LINE
  5
1B7A
100
AcDbEntity
  8
0
  6
BYBLOCK
 62
     0
100
AcDbLine
 10
72.742755
 20
160.406335
 30
0.0
 11
72.742755
 21
140.351936
 31
0.0
  0
LINE
  5
1B7B
100
AcDbEntity
  8
0
  6
BYBLOCK
 62
     0
100
AcDbLine
 10
108.692755
 20
161.054498
 30
0.0
 11
108.692755
 21
140.351936
 31
0.0
  0
LINE
  5
1B7C
100
AcDbEntity
  8
0
  6
BYBLOCK
 62
     0
100
AcDbLine
 10
75.742755
 20
140.531936
 30
0.0
 11
105.692755
 21
140.531936
 31
0.0
  0
SOLID
  5
1B7D
100
AcDbEntity
  8
0
  6
BYBLOCK
 62
     0
100
AcDbTrace
 10
75.742755
 20
141.031936
 30
0.0
 11
75.742755
 21
140.031936
 31
0.0
 12
72.742755
 22
140.531936
 32
0.0
 13
72.742755
 23
140.531936
 33
0.0
  0
SOLID
  5
1B7E
100
AcDbEntity
  8
0
  6
BYBLOCK
 62
     0
100
AcDbTrace
 10
105.692755
 20
141.031936
 30
0.0
 11
105.692755
 21
140.031936
 31
0.0
 12
108.692755
 22
140.531936
 32
0.0
 13
108.692755
 23
140.531936
 33
0.0
  0
TEXT
  5
1B7F
100
AcDbEntity
  8
0
  6
BYBLOCK
 62
     0
100
AcDbText
 10
85.360613
 20
141.531936
 30
0.0
 40
2.5
  1
35.95
  7
ROMANS
100
AcDbText
  0
POINT
  5
1B80
100
AcDbEntity
  8
DEFPOINTS
  6
BYBLOCK
 62
     0
100
AcDbPoint
 10
72.742755
 20
160.468835
 30
0.0
  0
POINT
  5
1B81
100
AcDbEntity
  8
DEFPOINTS
  6
BYBLOCK
 62
     0
100
AcDbPoint
 10
108.692755
 20
161.116998
 30
0.0
  0
POINT
  5
1B82
100
AcDbEntity
  8
DEFPOINTS
  6
BYBLOCK
 62
     0
100
AcDbPoint
 10
108.692755
 20
140.531936
 30
0.0
  0
ENDBLK
  5
1B83
100
AcDbEntity
  8
0
100
AcDbBlockEnd
  0
ENDSEC
  0
SECTION
  2
ENTITIES
  0
INSERT
  5
163C
100
AcDbEntity
  8
ALPHA
100
AcDbBlockReference
  2
AVE_RENDER
 10
0.0
 20
0.0
 30
0.0
1001
AVE_RENDER
1002
{
1070
     6
1000
Pref
1070
    50
1070
    20
1070
     1
1070
     0
1000

1070
    10
1070
     1
1070
    30
1040
25.4
1070
     1
1040
0.3
1040
0.7
1040
0.0
1040
10.0
1010
-1.0
1020
-1.0
1030
-1.0
1040
0.3
1070
    49
1070
     0
1070
     0
1010
1.0
1020
1.0
1030
1.0
1040
45.0
1070
     1
1070
     0
1000
WCS
1040
0.0
1002
}
  0
INSERT
  5
163D
100
AcDbEntity
  8
ALPHA
100
AcDbBlockReference
  2
AVE_RENDER
 10
0.0
 20
0.0
 30
0.0
1001
AVE_RENDER
1002
{
1070
     0
1000
Full Opt
1070
     0
1070
     1
1070
     1
1070
     1
1070
     0
1070
     0
1070
     0
1070
     1
1070
     1
1040
0.0001
1040
0.0001
1002
}
  0
INSERT
  5
163E
100
AcDbEntity
  8
ALPHA
100
AcDbBlockReference
  2
AVE_RENDER
 10
0.0
 20
0.0
 30
0.0
1001
AVE_RENDER
1002
{
1070
     0
1000
Quick Opt
1070
     0
1070
     1
1070
     1
1070
     1
1070
     0
1070
     0
1070
     1
1002
}
  0
INSERT
  5
163F
100
AcDbEntity
  8
ALPHA
100
AcDbBlockReference
  2
AVE_RENDER
 10
0.0
 20
0.0
 30
0.0
1001
AVE_RENDER
1002
{
1070
     1
1000
Scanl Opt
1070
     2
1070
     0
1070
     2
1040
2.0
1040
4.0
1070
     0
1070
     1
1070
     0
1040
0.03
1002
}
  0
INSERT
  5
1640
100
AcDbEntity
  8
ALPHA
100
AcDbBlockReference
  2
AVE_RENDER
 10
0.0
 20
0.0
 30
0.0
1001
AVE_RENDER
1002
{
1070
     2
1000
Raytr Opt
1070
     2
1070
     0
1070
     2
1040
2.0
1040
4.0
1070
     0
1070
     1
1070
     1
1040
0.03
1070
     3
1040
0.03
1002
}
  0
INSERT
  5
1641
100
AcDbEntity
  8
ALPHA
100
AcDbBlockReference
  2
AVE_RENDER
 10
0.0
 20
0.0
 30
0.0
1001
AVE_RENDER
1002
{
1070
     0
1000
RFile Opt
1070
     5
1070
   640
1070
   480
1070
 10000
1070
     3
1070
    32
1070
    24
1070
     0
1070
     0
1070
     0
1070
     1
1070
     0
1070
     0
1070
     0
1002
}
  0
INSERT
  5
1642
100
AcDbEntity
  8
ALPHA
100
AcDbBlockReference
  2
AVE_RENDER
 10
0.0
 20
0.0
 30
0.0
1001
AVE_RENDER
1002
{
1070
     0
1000
Fog Opt
1070
     0
1070
     0
1040
0.0
1040
1.0
1040
0.0
1040
1.0
1010
0.5
1020
0.5
1030
0.5
1002
}
  0
INSERT
  5
1643
100
AcDbEntity
  8
ALPHA
100
AcDbBlockReference
  2
AVE_RENDER
 10
0.0
 20
0.0
 30
0.0
1001
AVE_RENDER
1002
{
1070
     0
1000
BG Opt
1070
     0
1070
     1
1010
0.0
1020
0.0
1030
0.0
1010
1.0
1020
0.0
1030
0.0
1010
0.0
1020
1.0
1030
0.0
1010
0.0
1020
0.0
1030
1.0
1040
0.5
1040
0.33
1040
0.0
1000

1070
     1
1000

1070
     1
1070
     1
1040
1.0
1040
1.0
1040
0.0
1040
0.0
1070
     0
1002
}
  0
INSERT
  5
164A
100
AcDbEntity
  8
ALPHA
100
AcDbBlockReference
  2
AVE_GLOBAL
 10
0.0
 20
0.0
 30
0.0
1001
AVE_MATERIAL
1002
{
1000
*GLOBAL*
1000
1
1000
Finition globale.
1002
{
1002
}
1002
{
1070
    63
1002
{
1002
{
1010
-1.0
1020
-1.0
1030
-1.0
1002
}
1040
0.1
1000

1040
0.0
1002
{
1002
}
1040
0.0
1002
{
1002
}
1040
0.0
1002
}
1002
{
1002
{
1010
-1.0
1020
-1.0
1030
-1.0
1002
}
1040
0.7
1000

1040
0.0
1002
{
1002
}
1040
0.0
1002
{
1002
}
1040
0.0
1002
}
1002
{
1002
{
1010
-1.0
1020
-1.0
1030
-1.0
1002
}
1040
0.2
1000

1040
0.0
1002
{
1002
}
1040
0.0
1002
{
1002
}
1040
0.0
1002
}
1002
{
1070
     0
1002
{
1070
     1
1002
{
1040
1.0
1040
1.0
1000

1040
0.0
1002
{
1002
}
1040
0.0
1002
{
1002
}
1040
0.0
1002
}
1002
}
1040
1.0
1040
0.0
1040
0.0
1002
}
1002
{
1040
1.0
1040
1.0
1000

1040
0.0
1002
{
1002
}
1040
0.0
1002
{
1002
}
1040
0.0
1002
}
1002
{
1040
0.5
1040
1.0
1000

1040
0.0
1002
{
1002
}
1040
0.0
1002
{
1002
}
1040
0.0
1002
}
1002
{
1070
     0
1040
0.0
1002
{
1002
}
1040
1.0
1002
{
1002
}
1040
0.0
1002
}
1002
{
1040
0.0
1002
{
1002
{
1010
0.0
1020
0.0
1030
0.0
1002
}
1040
1.0
1000

1040
0.0
1002
{
1002
}
1040
0.0
1002
{
1002
}
1040
0.0
1002
}
1002
}
1002
{
1002
{
1070
     1
1002
{
1040
0.0
1040
1.0
1000

1040
0.0
1002
{
1002
}
1040
0.0
1002
{
1002
}
1040
0.0
1002
}
1002
}
1040
0.0
1002
{
1002
}
1010
1.0
1020
0.0
1030
0.0
1010
0.0
1020
1.0
1030
0.0
1010
0.0
1020
0.0
1030
1.0
1070
     0
1002
}
1002
{
1002
{
1040
1.0
1040
1.0
1002
{
1070
     1
1002
{
1040
1.0
1040
1.0
1000

1040
0.0
1002
{
1002
}
1040
0.0
1002
{
1002
}
1040
0.0
1002
}
1002
}
1002
}
1070
     0
1040
0.0
1002
{
1002
}
1002
}
1002
{
1002
}
1002
}
1002
{
1071
        3
1070
     3
1070
     0
1002
{
1070
     2
1070
     0
1070
     0
1040
0.0
1002
}
1070
     0
1070
     2
1002
{
1002
}
1002
}
1002
{
1040
8030.0
1040
190.300003
1040
0.305
1040
228.0
1040
545.0
1040
14.0
1040
17.4
1040
0.456
1002
}
1002
}
  0
LINE
  5
191C
100
AcDbEntity
  8
ALPHA
100
AcDbLine
 10
90.316159
 20
167.206335
 30
0.0
 11
90.443819
 21
167.256335
 31
0.0
  0
LINE
  5
191D
100
AcDbEntity
  8
ALPHA
100
AcDbLine
 10
90.443819
 20
167.256335
 30
0.0
 11
90.635308
 21
167.281335
 31
0.0
  0
LINE
  5
191E
100
AcDbEntity
  8
ALPHA
100
AcDbLine
 10
90.188501
 20
166.106335
 30
0.0
 11
90.635308
 21
166.106335
 31
0.0
  0
LINE
  5
191F
100
AcDbEntity
  8
ALPHA
100
AcDbLine
 10
90.635308
 20
166.106335
 30
0.0
 11
90.635308
 21
166.156335
 31
0.0
  0
LINE
  5
1920
100
AcDbEntity
  8
ALPHA
100
AcDbLine
 10
90.635308
 20
166.156335
 30
0.0
 11
90.188501
 21
166.156335
 31
0.0
  0
LINE
  5
1921
100
AcDbEntity
  8
ALPHA
100
AcDbLine
 10
90.188501
 20
166.156335
 30
0.0
 11
90.507649
 21
166.281335
 31
0.0
  0
LINE
  5
1922
100
AcDbEntity
  8
ALPHA
100
AcDbLine
 10
90.507649
 20
166.281335
 30
0.0
 11
90.443819
 21
166.306335
 31
0.0
  0
LINE
  5
1923
100
AcDbEntity
  8
ALPHA
100
AcDbLine
 10
90.443819
 20
166.306335
 30
0.0
 11
90.060841
 21
166.156335
 31
0.0
  0
LINE
  5
1924
100
AcDbEntity
  8
ALPHA
100
AcDbLine
 10
90.060841
 20
166.156335
 30
0.0
 11
89.677862
 21
166.306335
 31
0.0
  0
LINE
  5
1925
100
AcDbEntity
  8
ALPHA
100
AcDbLine
 10
89.677862
 20
166.306335
 30
0.0
 11
89.614032
 21
166.281335
 31
0.0
  0
LINE
  5
1926
100
AcDbEntity
  8
ALPHA
100
AcDbLine
 10
89.614032
 20
166.281335
 30
0.0
 11
89.933181
 21
166.156335
 31
0.0
  0
LINE
  5
1927
100
AcDbEntity
  8
ALPHA
100
AcDbLine
 10
89.933181
 20
166.156335
 30
0.0
 11
89.486372
 21
166.156335
 31
0.0
  0
LINE
  5
1928
100
AcDbEntity
  8
ALPHA
100
AcDbLine
 10
89.99701
 20
167.331335
 30
0.0
 11
90.060841
 21
167.281335
 31
0.0
  0
LINE
  5
1929
100
AcDbEntity
  8
ALPHA
100
AcDbLine
 10
88.592755
 20
161.331335
 30
0.0
 11
89.039564
 21
161.331335
 31
0.0
  0
LINE
  5
192A
100
AcDbEntity
  8
ALPHA
100
AcDbLine
 10
88.592755
 20
160.331335
 30
0.0
 11
88.592755
 21
161.331335
 31
0.0
  0
LINE
  5
192B
100
AcDbEntity
  8
ALPHA
100
AcDbLine
 10
88.911904
 20
160.331335
 30
0.0
 11
88.592755
 21
160.331335
 31
0.0
  0
LINE
  5
192C
100
AcDbEntity
  8
ALPHA
100
AcDbLine
 10
88.911904
 20
161.206335
 30
0.0
 11
88.911904
 21
160.331335
 31
0.0
  0
LINE
  5
192D
100
AcDbEntity
  8
ALPHA
100
AcDbLine
 10
91.082117
 20
160.331335
 30
0.0
 11
88.911904
 21
161.206335
 31
0.0
  0
LINE
  5
192E
100
AcDbEntity
  8
ALPHA
100
AcDbLine
 10
91.592755
 20
160.331335
 30
0.0
 11
91.082117
 21
160.331335
 31
0.0
  0
LINE
  5
192F
100
AcDbEntity
  8
ALPHA
100
AcDbLine
 10
91.592755
 20
161.331335
 30
0.0
 11
91.592755
 21
160.331335
 31
0.0
  0
LINE
  5
1930
100
AcDbEntity
  8
ALPHA
100
AcDbLine
 10
91.209777
 20
161.331335
 30
0.0
 11
91.592755
 21
161.331335
 31
0.0
  0
LINE
  5
1931
100
AcDbEntity
  8
ALPHA
100
AcDbLine
 10
91.209777
 20
160.481335
 30
0.0
 11
91.209777
 21
161.331335
 31
0.0
  0
LINE
  5
1932
100
AcDbEntity
  8
ALPHA
100
AcDbLine
 10
89.039564
 20
161.331335
 30
0.0
 11
91.209777
 21
160.481335
 31
0.0
  0
LINE
  5
1933
100
AcDbEntity
  8
ALPHA
100
AcDbLine
 10
89.99701
 20
162.356335
 30
0.0
 11
90.060841
 21
162.306335
 31
0.0
  0
LINE
  5
1934
100
AcDbEntity
  8
ALPHA
100
AcDbLine
 10
89.741692
 20
162.431335
 30
0.0
 11
89.99701
 21
162.356335
 31
0.0
  0
LINE
  5
1935
100
AcDbEntity
  8
ALPHA
100
AcDbLine
 10
89.550202
 20
162.456335
 30
0.0
 11
89.741692
 21
162.431335
 31
0.0
  0
LINE
  5
1936
100
AcDbEntity
  8
ALPHA
100
AcDbLine
 10
89.294883
 20
162.456335
 30
0.0
 11
89.550202
 21
162.456335
 31
0.0
  0
LINE
  5
1937
100
AcDbEntity
  8
ALPHA
100
AcDbLine
 10
89.103394
 20
162.431335
 30
0.0
 11
89.294883
 21
162.456335
 31
0.0
  0
LINE
  5
1938
100
AcDbEntity
  8
ALPHA
100
AcDbLine
 10
88.848075
 20
162.356335
 30
0.0
 11
89.103394
 21
162.431335
 31
0.0
  0
LINE
  5
1939
100
AcDbEntity
  8
ALPHA
100
AcDbLine
 10
88.656585
 20
162.256335
 30
0.0
 11
88.848075
 21
162.356335
 31
0.0
  0
LINE
  5
193A
100
AcDbEntity
  8
ALPHA
100
AcDbLine
 10
88.592755
 20
162.131335
 30
0.0
 11
88.656585
 21
162.256335
 31
0.0
  0
LINE
  5
193B
100
AcDbEntity
  8
ALPHA
100
AcDbLine
 10
88.592755
 20
161.531335
 30
0.0
 11
88.592755
 21
162.131335
 31
0.0
  0
LINE
  5
193C
100
AcDbEntity
  8
ALPHA
100
AcDbLine
 10
91.592755
 20
161.531335
 30
0.0
 11
88.592755
 21
161.531335
 31
0.0
  0
LINE
  5
193D
100
AcDbEntity
  8
ALPHA
100
AcDbLine
 10
91.592755
 20
162.131335
 30
0.0
 11
91.592755
 21
161.531335
 31
0.0
  0
LINE
  5
193E
100
AcDbEntity
  8
ALPHA
100
AcDbLine
 10
91.528926
 20
162.256335
 30
0.0
 11
91.592755
 21
162.131335
 31
0.0
  0
LINE
  5
193F
100
AcDbEntity
  8
ALPHA
100
AcDbLine
 10
91.337436
 20
162.356335
 30
0.0
 11
91.528926
 21
162.256335
 31
0.0
  0
LINE
  5
1940
100
AcDbEntity
  8
ALPHA
100
AcDbLine
 10
91.082117
 20
162.431335
 30
0.0
 11
91.337436
 21
162.356335
 31
0.0
  0
LINE
  5
1941
100
AcDbEntity
  8
ALPHA
100
AcDbLine
 10
90.890628
 20
162.456335
 30
0.0
 11
91.082117
 21
162.431335
 31
0.0
  0
LINE
  5
1942
100
AcDbEntity
  8
ALPHA
100
AcDbLine
 10
90.571479
 20
162.456335
 30
0.0
 11
90.890628
 21
162.456335
 31
0.0
  0
LINE
  5
1943
100
AcDbEntity
  8
ALPHA
100
AcDbLine
 10
90.37999
 20
162.431335
 30
0.0
 11
90.571479
 21
162.456335
 31
0.0
  0
LINE
  5
1944
100
AcDbEntity
  8
ALPHA
100
AcDbLine
 10
90.12467
 20
162.356335
 30
0.0
 11
90.37999
 21
162.431335
 31
0.0
  0
LINE
  5
1945
100
AcDbEntity
  8
ALPHA
100
AcDbLine
 10
90.060841
 20
162.306335
 30
0.0
 11
90.12467
 21
162.356335
 31
0.0
  0
LINE
  5
1946
100
AcDbEntity
  8
ALPHA
100
AcDbLine
 10
88.975734
 20
162.156335
 30
0.0
 11
88.975734
 21
161.681335
 31
0.0
  0
LINE
  5
1947
100
AcDbEntity
  8
ALPHA
100
AcDbLine
 10
89.039564
 20
162.231335
 30
0.0
 11
88.975734
 21
162.156335
 31
0.0
  0
LINE
  5
1948
100
AcDbEntity
  8
ALPHA
100
AcDbLine
 10
89.167223
 20
162.281335
 30
0.0
 11
89.039564
 21
162.231335
 31
0.0
  0
LINE
  5
1949
100
AcDbEntity
  8
ALPHA
100
AcDbLine
 10
89.358713
 20
162.306335
 30
0.0
 11
89.167223
 21
162.281335
 31
0.0
  0
LINE
  5
194A
100
AcDbEntity
  8
ALPHA
100
AcDbLine
 10
89.486372
 20
162.306335
 30
0.0
 11
89.358713
 21
162.306335
 31
0.0
  0
LINE
  5
194B
100
AcDbEntity
  8
ALPHA
100
AcDbLine
 10
89.677862
 20
162.281335
 30
0.0
 11
89.486372
 21
162.306335
 31
0.0
  0
LINE
  5
194C
100
AcDbEntity
  8
ALPHA
100
AcDbLine
 10
89.805521
 20
162.231335
 30
0.0
 11
89.677862
 21
162.281335
 31
0.0
  0
LINE
  5
194D
100
AcDbEntity
  8
ALPHA
100
AcDbLine
 10
89.869351
 20
162.156335
 30
0.0
 11
89.805521
 21
162.231335
 31
0.0
  0
LINE
  5
194E
100
AcDbEntity
  8
ALPHA
100
AcDbLine
 10
89.741692
 20
167.406335
 30
0.0
 11
89.99701
 21
167.331335
 31
0.0
  0
LINE
  5
194F
100
AcDbEntity
  8
ALPHA
100
AcDbLine
 10
89.550202
 20
167.431335
 30
0.0
 11
89.741692
 21
167.406335
 31
0.0
  0
LINE
  5
1950
100
AcDbEntity
  8
ALPHA
100
AcDbLine
 10
89.869351
 20
161.681335
 30
0.0
 11
89.869351
 21
162.156335
 31
0.0
  0
LINE
  5
1951
100
AcDbEntity
  8
ALPHA
100
AcDbLine
 10
89.294883
 20
167.431335
 30
0.0
 11
89.550202
 21
167.431335
 31
0.0
  0
LINE
  5
1952
100
AcDbEntity
  8
ALPHA
100
AcDbLine
 10
88.975734
 20
161.681335
 30
0.0
 11
89.869351
 21
161.681335
 31
0.0
  0
LINE
  5
1953
100
AcDbEntity
  8
ALPHA
100
AcDbLine
 10
89.103394
 20
167.406335
 30
0.0
 11
89.294883
 21
167.431335
 31
0.0
  0
LINE
  5
1954
100
AcDbEntity
  8
ALPHA
100
AcDbLine
 10
90.635308
 20
162.306335
 30
0.0
 11
90.826798
 21
162.306335
 31
0.0
  0
LINE
  5
1955
100
AcDbEntity
  8
ALPHA
100
AcDbLine
 10
90.826798
 20
162.306335
 30
0.0
 11
91.018288
 21
162.281335
 31
0.0
  0
LINE
  5
1956
100
AcDbEntity
  8
ALPHA
100
AcDbLine
 10
91.018288
 20
162.281335
 30
0.0
 11
91.145947
 21
162.231335
 31
0.0
  0
LINE
  5
1957
100
AcDbEntity
  8
ALPHA
100
AcDbLine
 10
91.145947
 20
162.231335
 30
0.0
 11
91.209777
 21
162.156335
 31
0.0
  0
LINE
  5
1958
100
AcDbEntity
  8
ALPHA
100
AcDbLine
 10
91.209777
 20
162.156335
 30
0.0
 11
91.209777
 21
161.681335
 31
0.0
  0
LINE
  5
1959
100
AcDbEntity
  8
ALPHA
100
AcDbLine
 10
91.209777
 20
161.681335
 30
0.0
 11
90.25233
 21
161.681335
 31
0.0
  0
LINE
  5
195A
100
AcDbEntity
  8
ALPHA
100
AcDbLine
 10
90.25233
 20
161.681335
 30
0.0
 11
90.25233
 21
162.156335
 31
0.0
  0
LINE
  5
195B
100
AcDbEntity
  8
ALPHA
100
AcDbLine
 10
90.25233
 20
162.156335
 30
0.0
 11
90.316159
 21
162.231335
 31
0.0
  0
LINE
  5
195C
100
AcDbEntity
  8
ALPHA
100
AcDbLine
 10
88.848075
 20
167.331335
 30
0.0
 11
89.103394
 21
167.406335
 31
0.0
  0
LINE
  5
195D
100
AcDbEntity
  8
ALPHA
100
AcDbLine
 10
88.656585
 20
167.231335
 30
0.0
 11
88.848075
 21
167.331335
 31
0.0
  0
LINE
  5
195E
100
AcDbEntity
  8
ALPHA
100
AcDbLine
 10
88.592755
 20
167.106335
 30
0.0
 11
88.656585
 21
167.231335
 31
0.0
  0
LINE
  5
195F
100
AcDbEntity
  8
ALPHA
100
AcDbLine
 10
88.592755
 20
166.506335
 30
0.0
 11
88.592755
 21
167.106335
 31
0.0
  0
LINE
  5
1960
100
AcDbEntity
  8
ALPHA
100
AcDbLine
 10
91.592755
 20
166.506335
 30
0.0
 11
88.592755
 21
166.506335
 31
0.0
  0
LINE
  5
1961
100
AcDbEntity
  8
ALPHA
100
AcDbLine
 10
91.592755
 20
167.106335
 30
0.0
 11
91.592755
 21
166.506335
 31
0.0
  0
LINE
  5
1962
100
AcDbEntity
  8
ALPHA
100
AcDbLine
 10
91.528926
 20
167.231335
 30
0.0
 11
91.592755
 21
167.106335
 31
0.0
  0
LINE
  5
1963
100
AcDbEntity
  8
ALPHA
100
AcDbLine
 10
91.337436
 20
167.331335
 30
0.0
 11
91.528926
 21
167.231335
 31
0.0
  0
LINE
  5
1964
100
AcDbEntity
  8
ALPHA
100
AcDbLine
 10
91.082117
 20
167.406335
 30
0.0
 11
91.337436
 21
167.331335
 31
0.0
  0
LINE
  5
1965
100
AcDbEntity
  8
ALPHA
100
AcDbLine
 10
90.890628
 20
167.431335
 30
0.0
 11
91.082117
 21
167.406335
 31
0.0
  0
LINE
  5
1966
100
AcDbEntity
  8
ALPHA
100
AcDbLine
 10
90.571479
 20
167.431335
 30
0.0
 11
90.890628
 21
167.431335
 31
0.0
  0
LINE
  5
1967
100
AcDbEntity
  8
ALPHA
100
AcDbLine
 10
90.37999
 20
167.406335
 30
0.0
 11
90.571479
 21
167.431335
 31
0.0
  0
LINE
  5
1968
100
AcDbEntity
  8
ALPHA
100
AcDbLine
 10
90.316159
 20
162.231335
 30
0.0
 11
90.443819
 21
162.281335
 31
0.0
  0
LINE
  5
1969
100
AcDbEntity
  8
ALPHA
100
AcDbLine
 10
90.443819
 20
162.281335
 30
0.0
 11
90.635308
 21
162.306335
 31
0.0
  0
LINE
  5
196A
100
AcDbEntity
  8
ALPHA
100
AcDbLine
 10
90.12467
 20
163.506335
 30
0.0
 11
89.933181
 21
163.431335
 31
0.0
  0
LINE
  5
196B
100
AcDbEntity
  8
ALPHA
100
AcDbLine
 10
89.933181
 20
163.431335
 30
0.0
 11
89.741692
 21
163.306335
 31
0.0
  0
LINE
  5
196C
100
AcDbEntity
  8
ALPHA
100
AcDbLine
 10
89.741692
 20
163.306335
 30
0.0
 11
89.677862
 21
163.181335
 31
0.0
  0
LINE
  5
196D
100
AcDbEntity
  8
ALPHA
100
AcDbLine
 10
89.677862
 20
163.181335
 30
0.0
 11
89.677862
 21
163.056335
 31
0.0
  0
LINE
  5
196E
100
AcDbEntity
  8
ALPHA
100
AcDbLine
 10
89.677862
 20
163.056335
 30
0.0
 11
89.741692
 21
162.931335
 31
0.0
  0
LINE
  5
196F
100
AcDbEntity
  8
ALPHA
100
AcDbLine
 10
89.741692
 20
162.931335
 30
0.0
 11
89.99701
 21
162.781335
 31
0.0
  0
LINE
  5
1970
100
AcDbEntity
  8
ALPHA
100
AcDbLine
 10
89.99701
 20
162.781335
 30
0.0
 11
89.869351
 21
162.781335
 31
0.0
  0
LINE
  5
1971
100
AcDbEntity
  8
ALPHA
100
AcDbLine
 10
89.869351
 20
162.781335
 30
0.0
 11
89.486372
 21
162.806335
 31
0.0
  0
LINE
  5
1972
100
AcDbEntity
  8
ALPHA
100
AcDbLine
 10
89.486372
 20
162.806335
 30
0.0
 11
89.294883
 21
162.831335
 31
0.0
  0
LINE
  5
1973
100
AcDbEntity
  8
ALPHA
100
AcDbLine
 10
89.294883
 20
162.831335
 30
0.0
 11
89.103394
 21
162.881335
 31
0.0
  0
LINE
  5
1974
100
AcDbEntity
  8
ALPHA
100
AcDbLine
 10
89.103394
 20
162.881335
 30
0.0
 11
88.975734
 21
162.956335
 31
0.0
  0
LINE
  5
1975
100
AcDbEntity
  8
ALPHA
100
AcDbLine
 10
88.975734
 20
162.956335
 30
0.0
 11
88.911904
 21
163.031335
 31
0.0
  0
LINE
  5
1976
100
AcDbEntity
  8
ALPHA
100
AcDbLine
 10
88.911904
 20
163.031335
 30
0.0
 11
88.911904
 21
163.181335
 31
0.0
  0
LINE
  5
1977
100
AcDbEntity
  8
ALPHA
100
AcDbLine
 10
88.911904
 20
163.181335
 30
0.0
 11
88.975734
 21
163.256335
 31
0.0
  0
LINE
  5
1978
100
AcDbEntity
  8
ALPHA
100
AcDbLine
 10
88.975734
 20
163.256335
 30
0.0
 11
89.103394
 21
163.331335
 31
0.0
  0
LINE
  5
1979
100
AcDbEntity
  8
ALPHA
100
AcDbLine
 10
89.103394
 20
163.331335
 30
0.0
 11
89.294883
 21
163.381335
 31
0.0
  0
LINE
  5
197A
100
AcDbEntity
  8
ALPHA
100
AcDbLine
 10
89.294883
 20
163.381335
 30
0.0
 11
89.294883
 21
163.506335
 31
0.0
  0
LINE
  5
197B
100
AcDbEntity
  8
ALPHA
100
AcDbLine
 10
89.294883
 20
163.506335
 30
0.0
 11
89.103394
 21
163.481335
 31
0.0
  0
LINE
  5
197C
100
AcDbEntity
  8
ALPHA
100
AcDbLine
 10
89.103394
 20
163.481335
 30
0.0
 11
88.848075
 21
163.406335
 31
0.0
  0
LINE
  5
197D
100
AcDbEntity
  8
ALPHA
100
AcDbLine
 10
88.848075
 20
163.406335
 30
0.0
 11
88.656585
 21
163.281335
 31
0.0
  0
LINE
  5
197E
100
AcDbEntity
  8
ALPHA
100
AcDbLine
 10
88.656585
 20
163.281335
 30
0.0
 11
88.592755
 21
163.156335
 31
0.0
  0
LINE
  5
197F
100
AcDbEntity
  8
ALPHA
100
AcDbLine
 10
88.592755
 20
163.156335
 30
0.0
 11
88.592755
 21
163.056335
 31
0.0
  0
LINE
  5
1980
100
AcDbEntity
  8
ALPHA
100
AcDbLine
 10
88.592755
 20
163.056335
 30
0.0
 11
88.656585
 21
162.931335
 31
0.0
  0
LINE
  5
1981
100
AcDbEntity
  8
ALPHA
100
AcDbLine
 10
88.656585
 20
162.931335
 30
0.0
 11
88.848075
 21
162.806335
 31
0.0
  0
LINE
  5
1982
100
AcDbEntity
  8
ALPHA
100
AcDbLine
 10
88.848075
 20
162.806335
 30
0.0
 11
89.103394
 21
162.731335
 31
0.0
  0
LINE
  5
1983
100
AcDbEntity
  8
ALPHA
100
AcDbLine
 10
89.103394
 20
162.731335
 30
0.0
 11
89.422543
 21
162.681335
 31
0.0
  0
LINE
  5
1984
100
AcDbEntity
  8
ALPHA
100
AcDbLine
 10
89.422543
 20
162.681335
 30
0.0
 11
89.869351
 21
162.656335
 31
0.0
  0
LINE
  5
1985
100
AcDbEntity
  8
ALPHA
100
AcDbLine
 10
89.869351
 20
162.656335
 30
0.0
 11
90.316159
 21
162.656335
 31
0.0
  0
LINE
  5
1986
100
AcDbEntity
  8
ALPHA
100
AcDbLine
 10
90.316159
 20
162.656335
 30
0.0
 11
90.762968
 21
162.681335
 31
0.0
  0
LINE
  5
1987
100
AcDbEntity
  8
ALPHA
100
AcDbLine
 10
90.762968
 20
162.681335
 30
0.0
 11
91.082117
 21
162.731335
 31
0.0
  0
LINE
  5
1988
100
AcDbEntity
  8
ALPHA
100
AcDbLine
 10
91.082117
 20
162.731335
 30
0.0
 11
91.337436
 21
162.806335
 31
0.0
  0
LINE
  5
1989
100
AcDbEntity
  8
ALPHA
100
AcDbLine
 10
91.337436
 20
162.806335
 30
0.0
 11
91.528926
 21
162.931335
 31
0.0
  0
LINE
  5
198A
100
AcDbEntity
  8
ALPHA
100
AcDbLine
 10
91.528926
 20
162.931335
 30
0.0
 11
91.592755
 21
163.056335
 31
0.0
  0
LINE
  5
198B
100
AcDbEntity
  8
ALPHA
100
AcDbLine
 10
91.592755
 20
163.056335
 30
0.0
 11
91.592755
 21
163.181335
 31
0.0
  0
LINE
  5
198C
100
AcDbEntity
  8
ALPHA
100
AcDbLine
 10
91.592755
 20
163.181335
 30
0.0
 11
91.528926
 21
163.306335
 31
0.0
  0
LINE
  5
198D
100
AcDbEntity
  8
ALPHA
100
AcDbLine
 10
91.528926
 20
163.306335
 30
0.0
 11
91.337436
 21
163.431335
 31
0.0
  0
LINE
  5
198E
100
AcDbEntity
  8
ALPHA
100
AcDbLine
 10
91.337436
 20
163.431335
 30
0.0
 11
91.082117
 21
163.506335
 31
0.0
  0
LINE
  5
198F
100
AcDbEntity
  8
ALPHA
100
AcDbLine
 10
91.082117
 20
163.506335
 30
0.0
 11
90.762968
 21
163.556335
 31
0.0
  0
LINE
  5
1990
100
AcDbEntity
  8
ALPHA
100
AcDbLine
 10
90.762968
 20
163.556335
 30
0.0
 11
90.443819
 21
163.556335
 31
0.0
  0
LINE
  5
1991
100
AcDbEntity
  8
ALPHA
100
AcDbLine
 10
90.443819
 20
163.556335
 30
0.0
 11
90.12467
 21
163.506335
 31
0.0
  0
LINE
  5
1992
100
AcDbEntity
  8
ALPHA
100
AcDbLine
 10
90.507649
 20
163.431335
 30
0.0
 11
90.316159
 21
163.406335
 31
0.0
  0
LINE
  5
1993
100
AcDbEntity
  8
ALPHA
100
AcDbLine
 10
90.699139
 20
163.431335
 30
0.0
 11
90.507649
 21
163.431335
 31
0.0
  0
LINE
  5
1994
100
AcDbEntity
  8
ALPHA
100
AcDbLine
 10
90.890628
 20
163.406335
 30
0.0
 11
90.699139
 21
163.431335
 31
0.0
  0
LINE
  5
1995
100
AcDbEntity
  8
ALPHA
100
AcDbLine
 10
91.082117
 20
163.356335
 30
0.0
 11
90.890628
 21
163.406335
 31
0.0
  0
LINE
  5
1996
100
AcDbEntity
  8
ALPHA
100
AcDbLine
 10
91.209777
 20
163.281335
 30
0.0
 11
91.082117
 21
163.356335
 31
0.0
  0
LINE
  5
1997
100
AcDbEntity
  8
ALPHA
100
AcDbLine
 10
91.273606
 20
163.206335
 30
0.0
 11
91.209777
 21
163.281335
 31
0.0
  0
LINE
  5
1998
100
AcDbEntity
  8
ALPHA
100
AcDbLine
 10
91.273606
 20
163.031335
 30
0.0
 11
91.273606
 21
163.206335
 31
0.0
  0
LINE
  5
1999
100
AcDbEntity
  8
ALPHA
100
AcDbLine
 10
91.209777
 20
162.956335
 30
0.0
 11
91.273606
 21
163.031335
 31
0.0
  0
LINE
  5
199A
100
AcDbEntity
  8
ALPHA
100
AcDbLine
 10
91.082117
 20
162.881335
 30
0.0
 11
91.209777
 21
162.956335
 31
0.0
  0
LINE
  5
199B
100
AcDbEntity
  8
ALPHA
100
AcDbLine
 10
90.890628
 20
162.831335
 30
0.0
 11
91.082117
 21
162.881335
 31
0.0
  0
LINE
  5
199C
100
AcDbEntity
  8
ALPHA
100
AcDbLine
 10
90.699139
 20
162.806335
 30
0.0
 11
90.890628
 21
162.831335
 31
0.0
  0
LINE
  5
199D
100
AcDbEntity
  8
ALPHA
100
AcDbLine
 10
90.507649
 20
162.806335
 30
0.0
 11
90.699139
 21
162.806335
 31
0.0
  0
LINE
  5
199E
100
AcDbEntity
  8
ALPHA
100
AcDbLine
 10
90.316159
 20
162.831335
 30
0.0
 11
90.507649
 21
162.806335
 31
0.0
  0
LINE
  5
199F
100
AcDbEntity
  8
ALPHA
100
AcDbLine
 10
90.188501
 20
162.881335
 30
0.0
 11
90.316159
 21
162.831335
 31
0.0
  0
LINE
  5
19A0
100
AcDbEntity
  8
ALPHA
100
AcDbLine
 10
90.060841
 20
162.956335
 30
0.0
 11
90.188501
 21
162.881335
 31
0.0
  0
LINE
  5
19A1
100
AcDbEntity
  8
ALPHA
100
AcDbLine
 10
89.99701
 20
163.031335
 30
0.0
 11
90.060841
 21
162.956335
 31
0.0
  0
LINE
  5
19A2
100
AcDbEntity
  8
ALPHA
100
AcDbLine
 10
89.99701
 20
163.206335
 30
0.0
 11
89.99701
 21
163.031335
 31
0.0
  0
LINE
  5
19A3
100
AcDbEntity
  8
ALPHA
100
AcDbLine
 10
90.060841
 20
163.281335
 30
0.0
 11
89.99701
 21
163.206335
 31
0.0
  0
LINE
  5
19A4
100
AcDbEntity
  8
ALPHA
100
AcDbLine
 10
90.188501
 20
163.356335
 30
0.0
 11
90.060841
 21
163.281335
 31
0.0
  0
LINE
  5
19A5
100
AcDbEntity
  8
ALPHA
100
AcDbLine
 10
90.316159
 20
163.406335
 30
0.0
 11
90.188501
 21
163.356335
 31
0.0
  0
LINE
  5
19A6
100
AcDbEntity
  8
ALPHA
100
AcDbLine
 10
90.188501
 20
164.106335
 30
0.0
 11
90.507649
 21
164.106335
 31
0.0
  0
LINE
  5
19A7
100
AcDbEntity
  8
ALPHA
100
AcDbLine
 10
90.188501
 20
163.756335
 30
0.0
 11
90.188501
 21
164.106335
 31
0.0
  0
LINE
  5
19A8
100
AcDbEntity
  8
ALPHA
100
AcDbLine
 10
90.507649
 20
163.756335
 30
0.0
 11
90.188501
 21
163.756335
 31
0.0
  0
LINE
  5
19A9
100
AcDbEntity
  8
ALPHA
100
AcDbLine
 10
90.507649
 20
164.106335
 30
0.0
 11
90.507649
 21
163.756335
 31
0.0
  0
LINE
  5
19AA
100
AcDbEntity
  8
ALPHA
100
AcDbLine
 10
91.209777
 20
164.456335
 30
0.0
 11
91.209777
 21
165.206335
 31
0.0
  0
LINE
  5
19AB
100
AcDbEntity
  8
ALPHA
100
AcDbLine
 10
90.188501
 20
164.456335
 30
0.0
 11
91.209777
 21
164.456335
 31
0.0
  0
LINE
  5
19AC
100
AcDbEntity
  8
ALPHA
100
AcDbLine
 10
90.188501
 20
165.106335
 30
0.0
 11
90.188501
 21
164.456335
 31
0.0
  0
LINE
  5
19AD
100
AcDbEntity
  8
ALPHA
100
AcDbLine
 10
89.805521
 20
165.106335
 30
0.0
 11
90.188501
 21
165.106335
 31
0.0
  0
LINE
  5
19AE
100
AcDbEntity
  8
ALPHA
100
AcDbLine
 10
89.805521
 20
164.456335
 30
0.0
 11
89.805521
 21
165.106335
 31
0.0
  0
LINE
  5
19AF
100
AcDbEntity
  8
ALPHA
100
AcDbLine
 10
88.975734
 20
164.456335
 30
0.0
 11
89.805521
 21
164.456335
 31
0.0
  0
LINE
  5
19B0
100
AcDbEntity
  8
ALPHA
100
AcDbLine
 10
90.12467
 20
167.331335
 30
0.0
 11
90.37999
 21
167.406335
 31
0.0
  0
LINE
  5
19B1
100
AcDbEntity
  8
ALPHA
100
AcDbLine
 10
88.975734
 20
165.206335
 30
0.0
 11
88.975734
 21
164.456335
 31
0.0
  0
LINE
  5
19B2
100
AcDbEntity
  8
ALPHA
100
AcDbLine
 10
88.610478
 20
162.166042
 30
0.0
 11
88.749067
 21
162.304631
 31
0.0
  0
LINE
  5
19B3
100
AcDbEntity
  8
ALPHA
100
AcDbLine
 10
88.592755
 20
165.206335
 30
0.0
 11
88.975734
 21
165.206335
 31
0.0
  0
LINE
  5
19B4
100
AcDbEntity
  8
ALPHA
100
AcDbLine
 10
88.592755
 20
164.306335
 30
0.0
 11
88.592755
 21
165.206335
 31
0.0
  0
LINE
  5
19B5
100
AcDbEntity
  8
ALPHA
100
AcDbLine
 10
91.592755
 20
164.306335
 30
0.0
 11
88.592755
 21
164.306335
 31
0.0
  0
LINE
  5
19B6
100
AcDbEntity
  8
ALPHA
100
AcDbLine
 10
91.592755
 20
165.206335
 30
0.0
 11
91.592755
 21
164.306335
 31
0.0
  0
LINE
  5
19B7
100
AcDbEntity
  8
ALPHA
100
AcDbLine
 10
91.209777
 20
165.206335
 30
0.0
 11
91.592755
 21
165.206335
 31
0.0
  0
LINE
  5
19B8
100
AcDbEntity
  8
ALPHA
100
AcDbLine
 10
89.486372
 20
165.606335
 30
0.0
 11
89.486372
 21
165.556335
 31
0.0
  0
LINE
  5
19B9
100
AcDbEntity
  8
ALPHA
100
AcDbLine
 10
89.165968
 20
162.721532
 30
0.0
 11
89.279728
 21
162.835292
 31
0.0
  0
LINE
  5
19BA
100
AcDbEntity
  8
ALPHA
100
AcDbLine
 10
89.732218
 20
163.287782
 30
0.0
 11
89.76784
 21
163.323404
 31
0.0
  0
LINE
  5
19BB
100
AcDbEntity
  8
ALPHA
100
AcDbLine
 10
89.486372
 20
165.556335
 30
0.0
 11
89.933181
 21
165.556335
 31
0.0
  0
LINE
  5
19BC
100
AcDbEntity
  8
ALPHA
100
AcDbLine
 10
90.060841
 20
167.281335
 30
0.0
 11
90.12467
 21
167.331335
 31
0.0
  0
LINE
  5
19BD
100
AcDbEntity
  8
ALPHA
100
AcDbLine
 10
89.933181
 20
165.556335
 30
0.0
 11
89.614032
 21
165.431335
 31
0.0
  0
LINE
  5
19BE
100
AcDbEntity
  8
ALPHA
100
AcDbLine
 10
88.975734
 20
167.131335
 30
0.0
 11
88.975734
 21
166.656335
 31
0.0
  0
LINE
  5
19BF
100
AcDbEntity
  8
ALPHA
100
AcDbLine
 10
89.614032
 20
165.431335
 30
0.0
 11
89.677862
 21
165.406335
 31
0.0
  0
LINE
  5
19C0
100
AcDbEntity
  8
ALPHA
100
AcDbLine
 10
89.677862
 20
165.406335
 30
0.0
 11
90.060841
 21
165.556335
 31
0.0
  0
LINE
  5
19C1
100
AcDbEntity
  8
ALPHA
100
AcDbLine
 10
90.060841
 20
165.556335
 30
0.0
 11
90.443819
 21
165.406335
 31
0.0
  0
LINE
  5
19C2
100
AcDbEntity
  8
ALPHA
100
AcDbLine
 10
90.443819
 20
165.406335
 30
0.0
 11
90.507649
 21
165.431335
 31
0.0
  0
LINE
  5
19C3
100
AcDbEntity
  8
ALPHA
100
AcDbLine
 10
89.039564
 20
167.206335
 30
0.0
 11
88.975734
 21
167.131335
 31
0.0
  0
LINE
  5
19C4
100
AcDbEntity
  8
ALPHA
100
AcDbLine
 10
90.507649
 20
165.431335
 30
0.0
 11
90.188501
 21
165.556335
 31
0.0
  0
LINE
  5
19C5
100
AcDbEntity
  8
ALPHA
100
AcDbLine
 10
89.167223
 20
167.256335
 30
0.0
 11
89.039564
 21
167.206335
 31
0.0
  0
LINE
  5
19C6
100
AcDbEntity
  8
ALPHA
100
AcDbLine
 10
89.358713
 20
167.281335
 30
0.0
 11
89.167223
 21
167.256335
 31
0.0
  0
LINE
  5
19C7
100
AcDbEntity
  8
ALPHA
100
AcDbLine
 10
90.188501
 20
165.556335
 30
0.0
 11
90.635308
 21
165.556335
 31
0.0
  0
LINE
  5
19C8
100
AcDbEntity
  8
ALPHA
100
AcDbLine
 10
90.635308
 20
165.556335
 30
0.0
 11
90.635308
 21
165.606335
 31
0.0
  0
LINE
  5
19C9
100
AcDbEntity
  8
ALPHA
100
AcDbLine
 10
90.635308
 20
165.606335
 30
0.0
 11
90.188501
 21
165.606335
 31
0.0
  0
LINE
  5
19CA
100
AcDbEntity
  8
ALPHA
100
AcDbLine
 10
90.188501
 20
165.606335
 30
0.0
 11
90.507649
 21
165.731335
 31
0.0
  0
LINE
  5
19CB
100
AcDbEntity
  8
ALPHA
100
AcDbLine
 10
90.507649
 20
165.731335
 30
0.0
 11
90.443819
 21
165.756335
 31
0.0
  0
LINE
  5
19CC
100
AcDbEntity
  8
ALPHA
100
AcDbLine
 10
90.443819
 20
165.756335
 30
0.0
 11
90.060841
 21
165.606335
 31
0.0
  0
LINE
  5
19CD
100
AcDbEntity
  8
ALPHA
100
AcDbLine
 10
90.060841
 20
165.606335
 30
0.0
 11
89.677862
 21
165.756335
 31
0.0
  0
LINE
  5
19CE
100
AcDbEntity
  8
ALPHA
100
AcDbLine
 10
89.677862
 20
165.756335
 30
0.0
 11
89.614032
 21
165.731335
 31
0.0
  0
LINE
  5
19CF
100
AcDbEntity
  8
ALPHA
100
AcDbLine
 10
89.614032
 20
165.731335
 30
0.0
 11
89.933181
 21
165.606335
 31
0.0
  0
LINE
  5
19D0
100
AcDbEntity
  8
ALPHA
100
AcDbLine
 10
89.933181
 20
165.606335
 30
0.0
 11
89.486372
 21
165.606335
 31
0.0
  0
LINE
  5
19D1
100
AcDbEntity
  8
ALPHA
100
AcDbLine
 10
89.486372
 20
166.156335
 30
0.0
 11
89.486372
 21
166.106335
 31
0.0
  0
LINE
  5
19D2
100
AcDbEntity
  8
ALPHA
100
AcDbLine
 10
89.486372
 20
166.106335
 30
0.0
 11
89.933181
 21
166.106335
 31
0.0
  0
LINE
  5
19D3
100
AcDbEntity
  8
ALPHA
100
AcDbLine
 10
89.933181
 20
166.106335
 30
0.0
 11
89.614032
 21
165.981335
 31
0.0
  0
LINE
  5
19D4
100
AcDbEntity
  8
ALPHA
100
AcDbLine
 10
89.614032
 20
165.981335
 30
0.0
 11
89.677862
 21
165.956335
 31
0.0
  0
LINE
  5
19D5
100
AcDbEntity
  8
ALPHA
100
AcDbLine
 10
89.677862
 20
165.956335
 30
0.0
 11
90.060841
 21
166.106335
 31
0.0
  0
LINE
  5
19D6
100
AcDbEntity
  8
ALPHA
100
AcDbLine
 10
90.060841
 20
166.106335
 30
0.0
 11
90.443819
 21
165.956335
 31
0.0
  0
LINE
  5
19D7
100
AcDbEntity
  8
ALPHA
100
AcDbLine
 10
90.443819
 20
165.956335
 30
0.0
 11
90.507649
 21
165.981335
 31
0.0
  0
LINE
  5
19D8
100
AcDbEntity
  8
ALPHA
100
AcDbLine
 10
90.507649
 20
165.981335
 30
0.0
 11
90.188501
 21
166.106335
 31
0.0
  0
LINE
  5
19D9
100
AcDbEntity
  8
ALPHA
100
AcDbLine
 10
89.486372
 20
167.281335
 30
0.0
 11
89.358713
 21
167.281335
 31
0.0
  0
LINE
  5
19DA
100
AcDbEntity
  8
ALPHA
100
AcDbLine
 10
90.200771
 20
163.756335
 30
0.0
 11
90.507649
 21
164.063213
 31
0.0
  0
LINE
  5
19DB
100
AcDbEntity
  8
ALPHA
100
AcDbLine
 10
90.750771
 20
164.306335
 30
0.0
 11
90.900771
 21
164.456335
 31
0.0
  0
LINE
  5
19DC
100
AcDbEntity
  8
ALPHA
100
AcDbLine
 10
91.209777
 20
164.765341
 30
0.0
 11
91.592755
 21
165.14832
 31
0.0
  0
LINE
  5
19DD
100
AcDbEntity
  8
ALPHA
100
AcDbLine
 10
89.677862
 20
167.256335
 30
0.0
 11
89.486372
 21
167.281335
 31
0.0
  0
LINE
  5
19DE
100
AcDbEntity
  8
ALPHA
100
AcDbLine
 10
89.805521
 20
167.206335
 30
0.0
 11
89.677862
 21
167.256335
 31
0.0
  0
LINE
  5
19DF
100
AcDbEntity
  8
ALPHA
100
AcDbLine
 10
89.869351
 20
167.131335
 30
0.0
 11
89.805521
 21
167.206335
 31
0.0
  0
LINE
  5
19E0
100
AcDbEntity
  8
ALPHA
100
AcDbLine
 10
89.869351
 20
166.656335
 30
0.0
 11
89.869351
 21
167.131335
 31
0.0
  0
LINE
  5
19E1
100
AcDbEntity
  8
ALPHA
100
AcDbLine
 10
88.975734
 20
166.656335
 30
0.0
 11
89.869351
 21
166.656335
 31
0.0
  0
LINE
  5
19E2
100
AcDbEntity
  8
ALPHA
100
AcDbLine
 10
90.635308
 20
167.281335
 30
0.0
 11
90.826798
 21
167.281335
 31
0.0
  0
LINE
  5
19E3
100
AcDbEntity
  8
ALPHA
100
AcDbLine
 10
90.826798
 20
167.281335
 30
0.0
 11
91.018288
 21
167.256335
 31
0.0
  0
LINE
  5
19E4
100
AcDbEntity
  8
ALPHA
100
AcDbLine
 10
91.018288
 20
167.256335
 30
0.0
 11
91.145947
 21
167.206335
 31
0.0
  0
LINE
  5
19E5
100
AcDbEntity
  8
ALPHA
100
AcDbLine
 10
91.145947
 20
167.206335
 30
0.0
 11
91.209777
 21
167.131335
 31
0.0
  0
LINE
  5
19E6
100
AcDbEntity
  8
ALPHA
100
AcDbLine
 10
91.209777
 20
167.131335
 30
0.0
 11
91.209777
 21
166.656335
 31
0.0
  0
LINE
  5
19E7
100
AcDbEntity
  8
ALPHA
100
AcDbLine
 10
91.209777
 20
166.656335
 30
0.0
 11
90.25233
 21
166.656335
 31
0.0
  0
LINE
  5
19E8
100
AcDbEntity
  8
ALPHA
100
AcDbLine
 10
90.25233
 20
166.656335
 30
0.0
 11
90.25233
 21
167.131335
 31
0.0
  0
LINE
  5
19E9
100
AcDbEntity
  8
ALPHA
100
AcDbLine
 10
90.25233
 20
167.131335
 30
0.0
 11
90.316159
 21
167.206335
 31
0.0
  0
LWPOLYLINE
  5
19EA
100
AcDbEntity
  8
ALPHA
100
AcDbPolyline
 90
        4
 70
     0
 43
0.0
 10
73.089166
 20
165.670189
 10
73.089166
 20
166.068783
 10
73.089166
 20
166.423551
 10
73.089166
 20
166.727385
  0
LWPOLYLINE
  5
19F0
100
AcDbEntity
  8
ALPHA
100
AcDbPolyline
 90
        4
 70
     0
 43
0.0
 10
73.089166
 20
165.670189
 10
72.963768
 20
165.526235
 10
72.848284
 20
165.384577
 10
72.742755
 20
165.245153
  0
LINE
  5
19F6
100
AcDbEntity
  8
ALPHA
100
AcDbLine
 10
84.492755
 20
158.771785
 30
0.0
 11
81.192755
 21
158.771785
 31
0.0
  0
LWPOLYLINE
  5
19F7
100
AcDbEntity
  8
ALPHA
100
AcDbPolyline
 90
        4
 70
     0
 43
0.0
 10
81.192755
 20
158.60995
 10
80.73277
 20
159.019298
 10
80.299439
 20
159.412294
 10
79.892755
 20
159.789499
  0
LWPOLYLINE
  5
19FD
100
AcDbEntity
  8
ALPHA
100
AcDbPolyline
 90
        3
 70
     0
 43
0.0
 10
81.192755
 20
169.449773
 10
81.192755
 20
169.24369
 10
81.192755
 20
168.990885
  0
LWPOLYLINE
  5
1A02
100
AcDbEntity
  8
ALPHA
100
AcDbPolyline
 90
        4
 70
     0
 43
0.0
 10
73.089166
 20
161.035285
 10
73.089166
 20
161.339119
 10
73.089166
 20
161.693887
 10
73.089166
 20
162.092481
  0
LINE
  5
1A08
100
AcDbEntity
  8
ALPHA
100
AcDbLine
 10
84.492755
 20
168.990885
 30
0.0
 11
81.192755
 21
168.990885
 31
0.0
  0
LWPOLYLINE
  5
1A09
100
AcDbEntity
  8
ALPHA
100
AcDbPolyline
 90
        4
 70
     0
 43
0.0
 10
79.892755
 20
167.762459
 10
80.294366
 20
168.153427
 10
80.727628
 20
168.56263
 10
81.192755
 20
168.990885
  0
LINE
  5
1A0F
100
AcDbEntity
  8
ALPHA
100
AcDbLine
 10
79.892755
 20
165.670189
 30
0.0
 11
73.089166
 21
165.670189
 31
0.0
  0
LWPOLYLINE
  5
1A10
100
AcDbEntity
  8
ALPHA
100
AcDbPolyline
 90
        4
 70
     0
 43
0.0
 10
73.089166
 20
162.092481
 10
72.963768
 20
162.236435
 10
72.848284
 20
162.378093
 10
72.742755
 20
162.517517
  0
LINE
  5
1A16
100
AcDbEntity
  8
ALPHA
100
AcDbLine
 10
79.892755
 20
162.092481
 30
0.0
 11
73.089166
 21
162.092481
 31
0.0
  0
LINE
  5
1A17
100
AcDbEntity
  8
ALPHA
100
AcDbLine
 10
87.392755
 20
157.881335
 30
0.0
 11
97.792755
 21
157.881335
 31
0.0
  0
LWPOLYLINE
  5
1A18
100
AcDbEntity
  8
ALPHA
100
AcDbPolyline
 90
        3
 70
     0
 43
0.0
 10
81.192755
 20
158.60995
 10
81.192755
 20
158.450136
 10
81.192755
 20
158.312897
  0
LINE
  5
1A1D
100
AcDbEntity
  8
ALPHA
100
AcDbLine
 10
97.792755
 20
169.881335
 30
0.0
 11
87.392755
 21
169.881335
 31
0.0
  0
LINE
  5
1A1E
100
AcDbEntity
  8
ALPHA
100
AcDbLine
 10
72.742755
 20
165.245153
 30
0.0
 11
72.742755
 21
166.561335
 31
0.0
  0
LINE
  5
1A1F
100
AcDbEntity
  8
ALPHA
100
AcDbLine
 10
72.854209
 20
166.561335
 30
0.0
 11
72.742755
 21
166.561335
 31
0.0
  0
LWPOLYLINE
  5
1A20
100
AcDbEntity
  8
ALPHA
100
AcDbPolyline
 90
        3
 70
     0
 43
0.0
 10
72.952734
 20
166.631335
 10
72.9315
 20
166.616329
 10
72.854209
 20
166.561335
  0
LWPOLYLINE
  5
1A25
100
AcDbEntity
  8
ALPHA
100
AcDbPolyline
 90
        3
 70
     0
 43
0.0
 10
73.089166
 20
166.727385
 10
73.009821
 20
166.671678
 10
72.952734
 20
166.631335
  0
LWPOLYLINE
  5
1A2A
100
AcDbEntity
  8
ALPHA
100
AcDbPolyline
 90
        3
 70
     0
 43
0.0
 10
72.952734
 20
161.131335
 10
72.9315
 20
161.146341
 10
72.854209
 20
161.201335
  0
LWPOLYLINE
  5
1A2F
100
AcDbEntity
  8
ALPHA
100
AcDbPolyline
 90
        3
 70
     0
 43
0.0
 10
73.089166
 20
161.035285
 10
73.009821
 20
161.090992
 10
72.952734
 20
161.131335
  0
LINE
  5
1A34
100
AcDbEntity
  8
ALPHA
100
AcDbLine
 10
72.854209
 20
161.201335
 30
0.0
 11
72.742755
 21
161.201335
 31
0.0
  0
LINE
  5
1A35
100
AcDbEntity
  8
ALPHA
100
AcDbLine
 10
72.742755
 20
161.201335
 30
0.0
 11
72.742755
 21
162.517517
 31
0.0
  0
LINE
  5
1A36
100
AcDbEntity
  8
ALPHA
100
AcDbLine
 10
97.792755
 20
157.881335
 30
0.0
 11
97.792755
 21
157.081335
 31
0.0
  0
LINE
  5
1A37
100
AcDbEntity
  8
ALPHA
100
AcDbLine
 10
87.392755
 20
157.881335
 30
0.0
 11
87.392755
 21
157.081335
 31
0.0
  0
LINE
  5
1A38
100
AcDbEntity
  8
ALPHA
100
AcDbLine
 10
97.792755
 20
169.881335
 30
0.0
 11
97.792755
 21
170.681335
 31
0.0
  0
LINE
  5
1A39
100
AcDbEntity
  8
ALPHA
100
AcDbLine
 10
87.392755
 20
169.881335
 30
0.0
 11
87.392755
 21
170.681335
 31
0.0
  0
LINE
  5
1A3A
100
AcDbEntity
  8
ALPHA
100
AcDbLine
 10
85.478803
 20
157.881335
 30
0.0
 11
85.478803
 21
157.981335
 31
0.0
  0
LINE
  5
1A3B
100
AcDbEntity
  8
ALPHA
100
AcDbLine
 10
87.206708
 20
157.981335
 30
0.0
 11
87.206708
 21
157.881335
 31
0.0
  0
LINE
  5
1A3C
100
AcDbEntity
  8
ALPHA
100
AcDbLine
 10
87.206708
 20
169.881335
 30
0.0
 11
87.206708
 21
169.781335
 31
0.0
  0
LINE
  5
1A3D
100
AcDbEntity
  8
ALPHA
100
AcDbLine
 10
85.478803
 20
169.781335
 30
0.0
 11
85.478803
 21
169.881335
 31
0.0
  0
LINE
  5
1A3E
100
AcDbEntity
  8
ALPHA
100
AcDbLine
 10
97.978803
 20
157.881335
 30
0.0
 11
97.978803
 21
157.981335
 31
0.0
  0
LINE
  5
1A3F
100
AcDbEntity
  8
ALPHA
100
AcDbLine
 10
99.706708
 20
157.981335
 30
0.0
 11
99.706708
 21
157.881335
 31
0.0
  0
LINE
  5
1A40
100
AcDbEntity
  8
ALPHA
100
AcDbLine
 10
99.706708
 20
169.881335
 30
0.0
 11
99.706708
 21
169.781335
 31
0.0
  0
LINE
  5
1A41
100
AcDbEntity
  8
ALPHA
100
AcDbLine
 10
97.978803
 20
169.781335
 30
0.0
 11
97.978803
 21
169.881335
 31
0.0
  0
LINE
  5
1A42
100
AcDbEntity
  8
ALPHA
100
AcDbLine
 10
81.192755
 20
158.60995
 30
0.0
 11
81.192755
 21
158.771785
 31
0.0
  0
LINE
  5
1A43
100
AcDbEntity
  8
ALPHA
100
AcDbLine
 10
79.892755
 20
159.789499
 30
0.0
 11
79.892755
 21
161.481335
 31
0.0
  0
LINE
  5
1A44
100
AcDbEntity
  8
ALPHA
100
AcDbLine
 10
79.892755
 20
159.413324
 30
0.0
 11
79.892755
 21
159.789499
 31
0.0
  0
LINE
  5
1A45
100
AcDbEntity
  8
ALPHA
100
AcDbLine
 10
79.892755
 20
167.762459
 30
0.0
 11
79.892755
 21
168.349346
 31
0.0
  0
LINE
  5
1A46
100
AcDbEntity
  8
ALPHA
100
AcDbLine
 10
79.892755
 20
162.092481
 30
0.0
 11
79.892755
 21
161.481335
 31
0.0
  0
LINE
  5
1A47
100
AcDbEntity
  8
ALPHA
100
AcDbLine
 10
79.892755
 20
167.762459
 30
0.0
 11
79.892755
 21
165.670189
 31
0.0
  0
LINE
  5
1A48
100
AcDbEntity
  8
ALPHA
100
AcDbLine
 10
72.742755
 20
165.245153
 30
0.0
 11
72.742755
 21
162.517517
 31
0.0
  0
LINE
  5
1A49
100
AcDbEntity
  8
ALPHA
100
AcDbLine
 10
87.392755
 20
157.081335
 30
0.0
 11
97.792755
 21
157.081335
 31
0.0
  0
LINE
  5
1A4A
100
AcDbEntity
  8
ALPHA
100
AcDbLine
 10
97.792755
 20
170.681335
 30
0.0
 11
87.392755
 21
170.681335
 31
0.0
  0
LINE
  5
1A4B
100
AcDbEntity
  8
ALPHA
100
AcDbLine
 10
87.392755
 20
169.781335
 30
0.0
 11
84.492755
 21
169.781335
 31
0.0
  0
LINE
  5
1A4C
100
AcDbEntity
  8
ALPHA
100
AcDbLine
 10
84.492755
 20
169.781335
 30
0.0
 11
84.492755
 21
168.990885
 31
0.0
  0
LINE
  5
1A4D
100
AcDbEntity
  8
ALPHA
100
AcDbLine
 10
79.892755
 20
161.481335
 30
0.0
 11
84.392755
 21
161.481335
 31
0.0
  0
LINE
  5
1A4E
100
AcDbEntity
  8
ALPHA
100
AcDbLine
 10
84.392755
 20
161.481335
 30
0.0
 11
84.392755
 21
159.981335
 31
0.0
  0
LINE
  5
1A4F
100
AcDbEntity
  8
ALPHA
100
AcDbLine
 10
81.192755
 20
159.981335
 30
0.0
 11
84.392755
 21
159.981335
 31
0.0
  0
LINE
  5
1A50
100
AcDbEntity
  8
ALPHA
100
AcDbLine
 10
81.192755
 20
159.981335
 30
0.0
 11
81.192755
 21
158.771785
 31
0.0
  0
LINE
  5
1A51
100
AcDbEntity
  8
ALPHA
100
AcDbLine
 10
84.492755
 20
158.771785
 30
0.0
 11
84.492755
 21
157.981335
 31
0.0
  0
LINE
  5
1A52
100
AcDbEntity
  8
ALPHA
100
AcDbLine
 10
84.492755
 20
157.981335
 30
0.0
 11
87.392755
 21
157.981335
 31
0.0
  0
LINE
  5
1A53
100
AcDbEntity
  8
ALPHA
100
AcDbLine
 10
87.392755
 20
157.881335
 30
0.0
 11
87.392755
 21
157.981335
 31
0.0
  0
LINE
  5
1A54
100
AcDbEntity
  8
ALPHA
100
AcDbLine
 10
97.792755
 20
157.881335
 30
0.0
 11
97.792755
 21
157.981335
 31
0.0
  0
LINE
  5
1A55
100
AcDbEntity
  8
ALPHA
100
AcDbLine
 10
100.492755
 20
157.981335
 30
0.0
 11
97.792755
 21
157.981335
 31
0.0
  0
LINE
  5
1A56
100
AcDbEntity
  8
ALPHA
100
AcDbLine
 10
100.492755
 20
157.981335
 30
0.0
 11
100.492755
 21
162.381335
 31
0.0
  0
LINE
  5
1A57
100
AcDbEntity
  8
ALPHA
100
AcDbLine
 10
100.492755
 20
162.381335
 30
0.0
 11
100.092755
 21
162.381335
 31
0.0
  0
LINE
  5
1A58
100
AcDbEntity
  8
ALPHA
100
AcDbLine
 10
100.092755
 20
162.381335
 30
0.0
 11
100.092755
 21
165.381335
 31
0.0
  0
LINE
  5
1A59
100
AcDbEntity
  8
ALPHA
100
AcDbLine
 10
100.092755
 20
165.381335
 30
0.0
 11
100.492755
 21
165.381335
 31
0.0
  0
LINE
  5
1A5A
100
AcDbEntity
  8
ALPHA
100
AcDbLine
 10
100.492755
 20
165.381335
 30
0.0
 11
100.492755
 21
169.781335
 31
0.0
  0
LINE
  5
1A5B
100
AcDbEntity
  8
ALPHA
100
AcDbLine
 10
100.492755
 20
169.781335
 30
0.0
 11
97.792755
 21
169.781335
 31
0.0
  0
LINE
  5
1A5C
100
AcDbEntity
  8
ALPHA
100
AcDbLine
 10
97.792755
 20
169.881335
 30
0.0
 11
97.792755
 21
169.781335
 31
0.0
  0
LINE
  5
1A5D
100
AcDbEntity
  8
ALPHA
100
AcDbLine
 10
87.392755
 20
169.881335
 30
0.0
 11
87.392755
 21
169.781335
 31
0.0
  0
LINE
  5
1A5E
100
AcDbEntity
  8
ALPHA
100
AcDbLine
 10
84.492755
 20
158.312897
 30
0.0
 11
81.192755
 21
158.312897
 31
0.0
  0
LWPOLYLINE
  5
1A5F
100
AcDbEntity
  8
ALPHA
100
AcDbPolyline
 90
        3
 70
     0
 43
0.0
 10
80.492755
 20
158.901869
 10
80.30704
 20
159.059029
 10
79.892755
 20
159.413324
  0
LINE
  5
1A64
100
AcDbEntity
  8
ALPHA
100
AcDbLine
 10
80.502881
 20
158.8933
 30
0.0
 11
80.492755
 21
158.901869
 31
0.0
  0
LINE
  5
1A65
100
AcDbEntity
  8
ALPHA
100
AcDbLine
 10
80.51702
 20
158.881335
 30
0.0
 11
80.502881
 21
158.8933
 31
0.0
  0
LWPOLYLINE
  5
1A66
100
AcDbEntity
  8
ALPHA
100
AcDbPolyline
 90
        3
 70
     0
 43
0.0
 10
81.192755
 20
158.312897
 10
80.740343
 20
158.69235
 10
80.51702
 20
158.881335
  0
LINE
  5
1A6B
100
AcDbEntity
  8
ALPHA
100
AcDbLine
 10
79.892755
 20
161.035285
 30
0.0
 11
73.089166
 21
161.035285
 31
0.0
  0
LINE
  5
1A6C
100
AcDbEntity
  8
ALPHA
100
AcDbLine
 10
79.892755
 20
166.727385
 30
0.0
 11
73.089166
 21
166.727385
 31
0.0
  0
LWPOLYLINE
  5
1A6D
100
AcDbEntity
  8
ALPHA
100
AcDbPolyline
 90
        3
 70
     0
 43
0.0
 10
80.51702
 20
168.881335
 10
80.739719
 20
169.069795
 10
81.192755
 20
169.449773
  0
LINE
  5
1A72
100
AcDbEntity
  8
ALPHA
100
AcDbLine
 10
80.502881
 20
168.86937
 30
0.0
 11
80.51702
 21
168.881335
 31
0.0
  0
LINE
  5
1A73
100
AcDbEntity
  8
ALPHA
100
AcDbLine
 10
80.492755
 20
168.860801
 30
0.0
 11
80.502881
 21
168.86937
 31
0.0
  0
LWPOLYLINE
  5
1A74
100
AcDbEntity
  8
ALPHA
100
AcDbPolyline
 90
        3
 70
     0
 43
0.0
 10
79.892755
 20
168.349346
 10
80.306435
 20
168.703127
 10
80.492755
 20
168.860801
  0
LINE
  5
1A79
100
AcDbEntity
  8
ALPHA
100
AcDbLine
 10
84.492755
 20
169.449773
 30
0.0
 11
81.192755
 21
169.449773
 31
0.0
  0
LWPOLYLINE
  5
1A7A
100
AcDbEntity
  8
ALPHA
100
AcDbPolyline
 90
        4
 70
     0
 43
0.0
 10
81.357115
 20
170.274849
 10
81.218443
 20
170.262451
 10
81.08379
 20
170.22556
 10
80.957115
 20
170.165086
  0
LWPOLYLINE
  5
1A80
100
AcDbEntity
  8
ALPHA
100
AcDbPolyline
 90
        3
 70
     0
 43
0.0
 10
82.526339
 20
157.741335
 10
82.526339
 20
157.781904
 10
82.526339
 20
157.903074
  0
LWPOLYLINE
  5
1A85
100
AcDbEntity
  8
ALPHA
100
AcDbPolyline
 90
        3
 70
     0
 43
0.0
 10
80.441275
 20
170.021335
 10
80.441275
 20
169.980766
 10
80.441275
 20
169.859596
  0
LWPOLYLINE
  5
1A8A
100
AcDbEntity
  8
ALPHA
100
AcDbPolyline
 90
        4
 70
     0
 43
0.0
 10
73.089166
 20
160.659732
 10
73.089166
 20
160.478587
 10
73.089166
 20
160.368353
 10
73.089166
 20
160.331335
  0
LWPOLYLINE
  5
1A90
100
AcDbEntity
  8
ALPHA
100
AcDbPolyline
 90
        3
 70
     0
 43
0.0
 10
80.441275
 20
157.903074
 10
80.441275
 20
157.781904
 10
80.441275
 20
157.741335
  0
LWPOLYLINE
  5
1A95
100
AcDbEntity
  8
ALPHA
100
AcDbPolyline
 90
        3
 70
     0
 43
0.0
 10
80.992755
 20
158.059213
 10
80.992755
 20
157.974739
 10
80.992755
 20
157.903074
  0
LWPOLYLINE
  5
1A9A
100
AcDbEntity
  8
ALPHA
100
AcDbPolyline
 90
        3
 70
     0
 43
0.0
 10
80.992755
 20
169.859596
 10
80.992755
 20
169.787931
 10
80.992755
 20
169.703457
  0
LWPOLYLINE
  5
1A9F
100
AcDbEntity
  8
ALPHA
100
AcDbPolyline
 90
        4
 70
     0
 43
0.0
 10
80.441275
 20
169.859596
 10
80.611502
 20
169.960492
 10
80.783448
 20
170.062321
 10
80.957115
 20
170.165086
  0
LWPOLYLINE
  5
1AA5
100
AcDbEntity
  8
ALPHA
100
AcDbPolyline
 90
        4
 70
     0
 43
0.0
 10
79.692755
 20
159.413324
 10
80.098295
 20
158.985785
 10
80.531412
 20
158.53476
 10
80.992755
 20
158.059213
  0
LINE
  5
1AAB
100
AcDbEntity
  8
ALPHA
100
AcDbLine
 10
84.292755
 20
158.059213
 30
0.0
 11
80.992755
 21
158.059213
 31
0.0
  0
LINE
  5
1AAC
100
AcDbEntity
  8
ALPHA
100
AcDbLine
 10
80.441275
 20
169.859596
 30
0.0
 11
79.692755
 21
169.859596
 31
0.0
  0
LWPOLYLINE
  5
1AAD
100
AcDbEntity
  8
ALPHA
100
AcDbPolyline
 90
        4
 70
     0
 43
0.0
 10
80.992755
 20
169.859596
 10
80.537048
 20
169.403184
 10
80.103815
 20
168.967153
 10
79.692755
 20
168.550984
  0
LWPOLYLINE
  5
1AB3
100
AcDbEntity
  8
ALPHA
100
AcDbPolyline
 90
        4
 70
     0
 43
0.0
 10
82.526339
 20
169.859596
 10
82.433121
 20
169.996248
 10
82.338594
 20
170.134663
 10
82.242755
 20
170.274849
  0
LINE
  5
1AB9
100
AcDbEntity
  8
ALPHA
100
AcDbLine
 10
82.242755
 20
170.274849
 30
0.0
 11
81.357115
 21
170.274849
 31
0.0
  0
LINE
  5
1ABA
100
AcDbEntity
  8
ALPHA
100
AcDbLine
 10
80.992755
 20
169.703457
 30
0.0
 11
84.292755
 21
169.703457
 31
0.0
  0
LWPOLYLINE
  5
1ABB
100
AcDbEntity
  8
ALPHA
100
AcDbPolyline
 90
        4
 70
     0
 43
0.0
 10
80.992755
 20
169.703457
 10
80.531414
 20
169.227912
 10
80.098298
 20
168.776888
 10
79.692755
 20
168.349346
  0
LINE
  5
1AC1
100
AcDbEntity
  8
ALPHA
100
AcDbLine
 10
72.742755
 20
167.002938
 30
0.0
 11
79.692755
 21
167.002938
 31
0.0
  0
LINE
  5
1AC2
100
AcDbEntity
  8
ALPHA
100
AcDbLine
 10
82.242755
 20
157.487821
 30
0.0
 11
81.357115
 21
157.487821
 31
0.0
  0
LWPOLYLINE
  5
1AC3
100
AcDbEntity
  8
ALPHA
100
AcDbPolyline
 90
        4
 70
     0
 43
0.0
 10
82.242755
 20
157.487821
 10
82.338582
 20
157.627989
 10
82.433109
 20
157.766404
 10
82.526339
 20
157.903074
  0
LINE
  5
1AC9
100
AcDbEntity
  8
ALPHA
100
AcDbLine
 10
80.992755
 20
157.903074
 30
0.0
 11
82.526339
 21
157.903074
 31
0.0
  0
LWPOLYLINE
  5
1ACA
100
AcDbEntity
  8
ALPHA
100
AcDbPolyline
 90
        4
 70
     0
 43
0.0
 10
79.692755
 20
159.211686
 10
80.103811
 20
158.795521
 10
80.537045
 20
158.359489
 10
80.992755
 20
157.903074
  0
LINE
  5
1AD0
100
AcDbEntity
  8
ALPHA
100
AcDbLine
 10
80.441275
 20
157.903074
 30
0.0
 11
79.692755
 21
157.903074
 31
0.0
  0
LWPOLYLINE
  5
1AD1
100
AcDbEntity
  8
ALPHA
100
AcDbPolyline
 90
        4
 70
     0
 43
0.0
 10
80.957115
 20
157.597584
 10
80.783465
 20
157.700339
 10
80.611519
 20
157.802168
 10
80.441275
 20
157.903074
  0
LWPOLYLINE
  5
1AD7
100
AcDbEntity
  8
ALPHA
100
AcDbPolyline
 90
        3
 70
     0
 43
0.0
 10
82.242755
 20
157.336335
 10
82.242755
 20
157.353227
 10
82.242755
 20
157.487821
  0
LWPOLYLINE
  5
1ADC
100
AcDbEntity
  8
ALPHA
100
AcDbPolyline
 90
        3
 70
     0
 43
0.0
 10
80.957115
 20
170.319155
 10
80.957115
 20
170.280543
 10
80.957115
 20
170.165086
  0
LWPOLYLINE
  5
1AE1
100
AcDbEntity
  8
ALPHA
100
AcDbPolyline
 90
        4
 70
     0
 43
0.0
 10
73.089166
 20
167.431335
 10
73.089166
 20
167.394333
 10
73.089166
 20
167.284101
 10
73.089166
 20
167.102938
  0
LINE
  5
1AE7
100
AcDbEntity
  8
ALPHA
100
AcDbLine
 10
72.742755
 20
160.759732
 30
0.0
 11
79.692755
 21
160.759732
 31
0.0
  0
LWPOLYLINE
  5
1AE8
100
AcDbEntity
  8
ALPHA
100
AcDbPolyline
 90
        3
 70
     0
 43
0.0
 10
81.357115
 20
170.426335
 10
81.357115
 20
170.388374
 10
81.357115
 20
170.274849
  0
LWPOLYLINE
  5
1AED
100
AcDbEntity
  8
ALPHA
100
AcDbPolyline
 90
        3
 70
     0
 43
0.0
 10
82.242755
 20
170.274849
 10
82.242755
 20
170.409443
 10
82.242755
 20
170.426335
  0
LWPOLYLINE
  5
1AF2
100
AcDbEntity
  8
ALPHA
100
AcDbPolyline
 90
        4
 70
     0
 43
0.0
 10
80.957115
 20
157.597584
 10
81.08379
 20
157.53711
 10
81.218443
 20
157.500219
 10
81.357115
 20
157.487821
  0
LWPOLYLINE
  5
1AF8
100
AcDbEntity
  8
ALPHA
100
AcDbPolyline
 90
        3
 70
     0
 43
0.0
 10
80.957115
 20
157.597584
 10
80.957115
 20
157.482127
 10
80.957115
 20
157.443515
  0
LWPOLYLINE
  5
1AFD
100
AcDbEntity
  8
ALPHA
100
AcDbPolyline
 90
        3
 70
     0
 43
0.0
 10
82.526339
 20
169.859596
 10
82.526339
 20
169.980766
 10
82.526339
 20
170.021335
  0
LWPOLYLINE
  5
1B02
100
AcDbEntity
  8
ALPHA
100
AcDbPolyline
 90
        3
 70
     0
 43
0.0
 10
81.357115
 20
157.487821
 10
81.357115
 20
157.374296
 10
81.357115
 20
157.336335
  0
LINE
  5
1B07
100
AcDbEntity
  8
ALPHA
100
AcDbLine
 10
79.692755
 20
160.359972
 30
0.0
 11
75.692755
 21
160.359972
 31
0.0
  0
LINE
  5
1B08
100
AcDbEntity
  8
ALPHA
100
AcDbLine
 10
80.992755
 20
169.859596
 30
0.0
 11
82.526339
 21
169.859596
 31
0.0
  0
LINE
  5
1B09
100
AcDbEntity
  8
ALPHA
100
AcDbLine
 10
100.892755
 20
166.171335
 30
0.0
 11
100.892755
 21
165.881335
 31
0.0
  0
LINE
  5
1B0A
100
AcDbEntity
  8
ALPHA
100
AcDbLine
 10
100.892755
 20
166.981335
 30
0.0
 11
100.892755
 21
166.671335
 31
0.0
  0
LINE
  5
1B0B
100
AcDbEntity
  8
ALPHA
100
AcDbLine
 10
100.892755
 20
161.091335
 30
0.0
 11
100.892755
 21
160.781335
 31
0.0
  0
LINE
  5
1B0C
100
AcDbEntity
  8
ALPHA
100
AcDbLine
 10
100.892755
 20
161.881335
 30
0.0
 11
100.892755
 21
161.591335
 31
0.0
  0
LINE
  5
1B0D
100
AcDbEntity
  8
ALPHA
100
AcDbLine
 10
72.742755
 20
167.102938
 30
0.0
 11
79.692755
 21
167.102938
 31
0.0
  0
LINE
  5
1B0E
100
AcDbEntity
  8
ALPHA
100
AcDbLine
 10
72.742755
 20
160.659732
 30
0.0
 11
79.692755
 21
160.659732
 31
0.0
  0
LINE
  5
1B0F
100
AcDbEntity
  8
ALPHA
100
AcDbLine
 10
79.692755
 20
159.621335
 30
0.0
 11
75.692755
 21
159.621335
 31
0.0
  0
LINE
  5
1B10
100
AcDbEntity
  8
ALPHA
100
AcDbLine
 10
75.692755
 20
159.621335
 30
0.0
 11
75.692755
 21
160.359972
 31
0.0
  0
LINE
  5
1B11
100
AcDbEntity
  8
ALPHA
100
AcDbLine
 10
100.892755
 20
157.081335
 30
0.0
 11
97.792755
 21
157.081335
 31
0.0
  0
LINE
  5
1B12
100
AcDbEntity
  8
ALPHA
100
AcDbLine
 10
100.892755
 20
160.781335
 30
0.0
 11
100.892755
 21
157.081335
 31
0.0
  0
LINE
  5
1B13
100
AcDbEntity
  8
ALPHA
100
AcDbLine
 10
100.892755
 20
160.781335
 30
0.0
 11
100.492755
 21
160.781335
 31
0.0
  0
LINE
  5
1B14
100
AcDbEntity
  8
ALPHA
100
AcDbLine
 10
100.092755
 20
157.981335
 30
0.0
 11
100.092755
 21
157.881335
 31
0.0
  0
LINE
  5
1B15
100
AcDbEntity
  8
ALPHA
100
AcDbLine
 10
100.092755
 20
157.881335
 30
0.0
 11
97.792755
 21
157.881335
 31
0.0
  0
LINE
  5
1B16
100
AcDbEntity
  8
ALPHA
100
AcDbLine
 10
87.392755
 20
157.881335
 30
0.0
 11
85.092755
 21
157.881335
 31
0.0
  0
LINE
  5
1B17
100
AcDbEntity
  8
ALPHA
100
AcDbLine
 10
85.092755
 20
157.881335
 30
0.0
 11
85.092755
 21
157.981335
 31
0.0
  0
LINE
  5
1B18
100
AcDbEntity
  8
ALPHA
100
AcDbLine
 10
80.51702
 20
158.881335
 30
0.0
 11
80.492755
 21
158.881335
 31
0.0
  0
LINE
  5
1B19
100
AcDbEntity
  8
ALPHA
100
AcDbLine
 10
80.492755
 20
158.881335
 30
0.0
 11
80.492755
 21
158.901869
 31
0.0
  0
LINE
  5
1B1A
100
AcDbEntity
  8
ALPHA
100
AcDbLine
 10
72.742755
 20
161.131335
 30
0.0
 11
72.952734
 21
161.131335
 31
0.0
  0
LINE
  5
1B1B
100
AcDbEntity
  8
ALPHA
100
AcDbLine
 10
72.742755
 20
160.759732
 30
0.0
 11
72.742755
 21
161.131335
 31
0.0
  0
LINE
  5
1B1C
100
AcDbEntity
  8
ALPHA
100
AcDbLine
 10
84.292755
 20
157.081335
 30
0.0
 11
84.292755
 21
158.059213
 31
0.0
  0
LINE
  5
1B1D
100
AcDbEntity
  8
ALPHA
100
AcDbLine
 10
87.392755
 20
157.081335
 30
0.0
 11
84.292755
 21
157.081335
 31
0.0
  0
LINE
  5
1B1E
100
AcDbEntity
  8
ALPHA
100
AcDbLine
 10
84.292755
 20
170.681335
 30
0.0
 11
87.392755
 21
170.681335
 31
0.0
  0
LINE
  5
1B1F
100
AcDbEntity
  8
ALPHA
100
AcDbLine
 10
84.292755
 20
169.703457
 30
0.0
 11
84.292755
 21
170.681335
 31
0.0
  0
LINE
  5
1B20
100
AcDbEntity
  8
ALPHA
100
AcDbLine
 10
72.742755
 20
166.631335
 30
0.0
 11
72.742755
 21
167.002938
 31
0.0
  0
LINE
  5
1B21
100
AcDbEntity
  8
ALPHA
100
AcDbLine
 10
72.742755
 20
166.631335
 30
0.0
 11
72.952734
 21
166.631335
 31
0.0
  0
LINE
  5
1B22
100
AcDbEntity
  8
ALPHA
100
AcDbLine
 10
80.492755
 20
168.860801
 30
0.0
 11
80.492755
 21
168.881335
 31
0.0
  0
LINE
  5
1B23
100
AcDbEntity
  8
ALPHA
100
AcDbLine
 10
80.492755
 20
168.881335
 30
0.0
 11
80.51702
 21
168.881335
 31
0.0
  0
LINE
  5
1B24
100
AcDbEntity
  8
ALPHA
100
AcDbLine
 10
85.092755
 20
169.781335
 30
0.0
 11
85.092755
 21
169.881335
 31
0.0
  0
LINE
  5
1B25
100
AcDbEntity
  8
ALPHA
100
AcDbLine
 10
85.092755
 20
169.881335
 30
0.0
 11
87.392755
 21
169.881335
 31
0.0
  0
LINE
  5
1B26
100
AcDbEntity
  8
ALPHA
100
AcDbLine
 10
97.792755
 20
169.881335
 30
0.0
 11
100.092755
 21
169.881335
 31
0.0
  0
LINE
  5
1B27
100
AcDbEntity
  8
ALPHA
100
AcDbLine
 10
100.092755
 20
169.881335
 30
0.0
 11
100.092755
 21
169.781335
 31
0.0
  0
LINE
  5
1B28
100
AcDbEntity
  8
ALPHA
100
AcDbLine
 10
100.892755
 20
166.981335
 30
0.0
 11
100.492755
 21
166.981335
 31
0.0
  0
LINE
  5
1B29
100
AcDbEntity
  8
ALPHA
100
AcDbLine
 10
100.892755
 20
170.681335
 30
0.0
 11
100.892755
 21
166.981335
 31
0.0
  0
LINE
  5
1B2A
100
AcDbEntity
  8
ALPHA
100
AcDbLine
 10
97.792755
 20
170.681335
 30
0.0
 11
100.892755
 21
170.681335
 31
0.0
  0
LINE
  5
1B2B
100
AcDbEntity
  8
ALPHA
100
AcDbLine
 10
100.892755
 20
161.881335
 30
0.0
 11
100.492755
 21
161.881335
 31
0.0
  0
LINE
  5
1B2C
100
AcDbEntity
  8
ALPHA
100
AcDbLine
 10
100.892755
 20
165.881335
 30
0.0
 11
100.892755
 21
161.881335
 31
0.0
  0
LINE
  5
1B2D
100
AcDbEntity
  8
ALPHA
100
AcDbLine
 10
100.892755
 20
165.881335
 30
0.0
 11
100.492755
 21
165.881335
 31
0.0
  0
LINE
  5
1B2E
100
AcDbEntity
  8
ALPHA
100
AcDbLine
 10
72.742755
 20
167.102938
 30
0.0
 11
72.742755
 21
167.231335
 31
0.0
  0
LINE
  5
1B2F
100
AcDbEntity
  8
ALPHA
100
AcDbLine
 10
79.692755
 20
159.211686
 30
0.0
 11
79.692755
 21
159.413324
 31
0.0
  0
LINE
  5
1B30
100
AcDbEntity
  8
ALPHA
100
AcDbLine
 10
79.692755
 20
168.349346
 30
0.0
 11
79.692755
 21
168.550984
 31
0.0
  0
LINE
  5
1B31
100
AcDbEntity
  8
ALPHA
100
AcDbLine
 10
79.692755
 20
169.859596
 30
0.0
 11
79.692755
 21
170.021335
 31
0.0
  0
LINE
  5
1B32
100
AcDbEntity
  8
ALPHA
100
AcDbLine
 10
79.692755
 20
168.349346
 30
0.0
 11
79.692755
 21
167.002938
 31
0.0
  0
LINE
  5
1B33
100
AcDbEntity
  8
ALPHA
100
AcDbLine
 10
79.692755
 20
169.859596
 30
0.0
 11
79.692755
 21
168.550984
 31
0.0
  0
LINE
  5
1B34
100
AcDbEntity
  8
ALPHA
100
AcDbLine
 10
72.742755
 20
161.131335
 30
0.0
 11
72.742755
 21
161.201335
 31
0.0
  0
LINE
  5
1B35
100
AcDbEntity
  8
ALPHA
100
AcDbLine
 10
72.742755
 20
166.561335
 30
0.0
 11
72.742755
 21
166.631335
 31
0.0
  0
LINE
  5
1B36
100
AcDbEntity
  8
ALPHA
100
AcDbLine
 10
79.692755
 20
159.211686
 30
0.0
 11
79.692755
 21
157.903074
 31
0.0
  0
LINE
  5
1B37
100
AcDbEntity
  8
ALPHA
100
AcDbLine
 10
79.692755
 20
160.759732
 30
0.0
 11
79.692755
 21
159.413324
 31
0.0
  0
LINE
  5
1B38
100
AcDbEntity
  8
ALPHA
100
AcDbLine
 10
75.692755
 20
160.331335
 30
0.0
 11
73.089166
 21
160.331335
 31
0.0
  0
LINE
  5
1B39
100
AcDbEntity
  8
ALPHA
100
AcDbLine
 10
79.692755
 20
167.431335
 30
0.0
 11
73.089166
 21
167.431335
 31
0.0
  0
LINE
  5
1B3A
100
AcDbEntity
  8
ALPHA
100
AcDbLine
 10
84.292755
 20
157.741335
 30
0.0
 11
82.526339
 21
157.741335
 31
0.0
  0
LINE
  5
1B3B
100
AcDbEntity
  8
ALPHA
100
AcDbLine
 10
80.441275
 20
157.741335
 30
0.0
 11
79.692755
 21
157.741335
 31
0.0
  0
LINE
  5
1B3C
100
AcDbEntity
  8
ALPHA
100
AcDbLine
 10
79.692755
 20
157.741335
 30
0.0
 11
79.692755
 21
157.903074
 31
0.0
  0
LINE
  5
1B3D
100
AcDbEntity
  8
ALPHA
100
AcDbLine
 10
84.292755
 20
170.021335
 30
0.0
 11
82.526339
 21
170.021335
 31
0.0
  0
LINE
  5
1B3E
100
AcDbEntity
  8
ALPHA
100
AcDbLine
 10
80.441275
 20
170.021335
 30
0.0
 11
79.692755
 21
170.021335
 31
0.0
  0
LINE
  5
1B3F
100
AcDbEntity
  8
ALPHA
100
AcDbLine
 10
80.957115
 20
157.443515
 30
0.0
 11
80.441275
 21
157.741335
 31
0.0
  0
LINE
  5
1B40
100
AcDbEntity
  8
ALPHA
100
AcDbLine
 10
80.957115
 20
170.319155
 30
0.0
 11
80.441275
 21
170.021335
 31
0.0
  0
LINE
  5
1B41
100
AcDbEntity
  8
ALPHA
100
AcDbLine
 10
82.242755
 20
157.336335
 30
0.0
 11
81.357115
 21
157.336335
 31
0.0
  0
LINE
  5
1B42
100
AcDbEntity
  8
ALPHA
100
AcDbLine
 10
82.242755
 20
170.426335
 30
0.0
 11
81.357115
 21
170.426335
 31
0.0
  0
LINE
  5
1B43
100
AcDbEntity
  8
ALPHA
100
AcDbLine
 10
82.31393
 20
157.437983
 30
0.0
 11
82.242755
 21
157.336335
 31
0.0
  0
LINE
  5
1B44
100
AcDbEntity
  8
ALPHA
100
AcDbLine
 10
82.526339
 20
157.741335
 30
0.0
 11
82.31393
 21
157.437983
 31
0.0
  0
LINE
  5
1B45
100
AcDbEntity
  8
ALPHA
100
AcDbLine
 10
82.526339
 20
170.021335
 30
0.0
 11
82.242755
 21
170.426335
 31
0.0
  0
LINE
  5
1B46
100
AcDbEntity
  8
ALPHA
100
AcDbLine
 10
73.089166
 20
160.331335
 30
0.0
 11
72.742755
 21
160.531335
 31
0.0
  0
LINE
  5
1B47
100
AcDbEntity
  8
ALPHA
100
AcDbLine
 10
72.742755
 20
160.531335
 30
0.0
 11
72.742755
 21
160.659732
 31
0.0
  0
LINE
  5
1B48
100
AcDbEntity
  8
ALPHA
100
AcDbLine
 10
73.089166
 20
167.431335
 30
0.0
 11
72.742755
 21
167.231335
 31
0.0
  0
ARC
  5
1B49
100
AcDbEntity
  8
ALPHA
100
AcDbCircle
 10
81.357115
 20
169.626335
 30
0.0
 40
0.8
100
AcDbArc
 50
90.0
 51
120.0
  0
LINE
  5
1B4A
100
AcDbEntity
  8
ALPHA
100
AcDbLine
 10
72.742755
 20
160.759732
 30
0.0
 11
72.742755
 21
160.659732
 31
0.0
  0
ARC
  5
1B4B
100
AcDbEntity
  8
ALPHA
100
AcDbCircle
 10
81.357115
 20
158.136335
 30
0.0
 40
0.8
100
AcDbArc
 50
240.0
 51
270.0
  0
LINE
  5
1B4C
100
AcDbEntity
  8
ALPHA
100
AcDbLine
 10
72.742755
 20
167.102938
 30
0.0
 11
79.692755
 21
167.102938
 31
0.0
  0
LINE
  5
1B4D
100
AcDbEntity
  8
ALPHA
100
AcDbLine
 10
72.742755
 20
167.102938
 30
0.0
 11
72.742755
 21
167.002938
 31
0.0
  0
LINE
  5
1B4E
100
AcDbEntity
  8
ALPHA
100
AcDbLine
 10
108.192755
 20
166.671335
 30
0.0
 11
108.192755
 21
166.171335
 31
0.0
  0
LINE
  5
1B4F
100
AcDbEntity
  8
ALPHA
100
AcDbLine
 10
108.192755
 20
166.171335
 30
0.0
 11
100.492755
 21
166.171335
 31
0.0
  0
LINE
  5
1B50
100
AcDbEntity
  8
ALPHA
100
AcDbLine
 10
108.692755
 20
166.583171
 30
0.0
 11
108.692755
 21
166.259498
 31
0.0
  0
LINE
  5
1B51
100
AcDbEntity
  8
ALPHA
100
AcDbLine
 10
108.692755
 20
166.583171
 30
0.0
 11
108.192755
 21
166.671335
 31
0.0
  0
LINE
  5
1B52
100
AcDbEntity
  8
ALPHA
100
AcDbLine
 10
108.692755
 20
166.259498
 30
0.0
 11
108.192755
 21
166.171335
 31
0.0
  0
LINE
  5
1B53
100
AcDbEntity
  8
ALPHA
100
AcDbLine
 10
108.192755
 20
166.671335
 30
0.0
 11
100.492755
 21
166.671335
 31
0.0
  0
LINE
  5
1B54
100
AcDbEntity
  8
ALPHA
100
AcDbLine
 10
108.192755
 20
161.591335
 30
0.0
 11
108.192755
 21
161.091335
 31
0.0
  0
LINE
  5
1B55
100
AcDbEntity
  8
ALPHA
100
AcDbLine
 10
108.192755
 20
161.091335
 30
0.0
 11
100.492755
 21
161.091335
 31
0.0
  0
LINE
  5
1B56
100
AcDbEntity
  8
ALPHA
100
AcDbLine
 10
108.692755
 20
161.503171
 30
0.0
 11
108.692755
 21
161.179498
 31
0.0
  0
LINE
  5
1B57
100
AcDbEntity
  8
ALPHA
100
AcDbLine
 10
108.692755
 20
161.503171
 30
0.0
 11
108.192755
 21
161.591335
 31
0.0
  0
LINE
  5
1B58
100
AcDbEntity
  8
ALPHA
100
AcDbLine
 10
108.692755
 20
161.179498
 30
0.0
 11
108.192755
 21
161.091335
 31
0.0
  0
LINE
  5
1B59
100
AcDbEntity
  8
ALPHA
100
AcDbLine
 10
108.192755
 20
161.591335
 30
0.0
 11
100.492755
 21
161.591335
 31
0.0
  0
DIMENSION
  5
1B68
100
AcDbEntity
  8
COTATION1
100
AcDbDimension
  2
*D3
 10
79.692755
 20
149.323341
 30
0.0
 11
63.933232
 21
149.323341
 31
0.0
 70
   128
  3
SC_STAND
100
AcDbAlignedDimension
 13
72.742755
 23
160.531335
 33
0.0
 14
79.692755
 24
157.903074
 34
0.0
100
AcDbRotatedDimension
  0
DIMENSION
  5
1B77
100
AcDbEntity
  8
COTATION1
100
AcDbDimension
  2
*D4
 10
108.692755
 20
149.323341
 30
0.0
 11
104.792755
 21
151.573341
 31
0.0
  3
SC_STAND
100
AcDbAlignedDimension
 13
100.892755
 23
157.081335
 33
0.0
 14
108.692755
 24
161.179498
 34
0.0
100
AcDbRotatedDimension
  0
DIMENSION
  5
1B84
100
AcDbEntity
  8
COTATION1
100
AcDbDimension
  2
*D5
 10
108.692755
 20
140.531936
 30
0.0
 11
90.717755
 21
142.781936
 31
0.0
  3
SC_STAND
100
AcDbAlignedDimension
 13
72.742755
 23
160.468835
 33
0.0
 14
108.692755
 24
161.116998
 34
0.0
100
AcDbRotatedDimension
  0
VIEWPORT
  5
1FE
100
AcDbEntity
 67
     1
  8
0
100
AcDbViewport
 10
251.108558
 20
148.5
 30
0.0
 40
8035.473851
 41
4752.0
 68
    -1
 69
     1
1001
ACAD
1000
MVIEW
1002
{
1070
    16
1010
0.0
1020
0.0
1030
0.0
1010
0.0
1020
0.0
1030
1.0
1040
0.0
1040
4752.0
1040
251.108558
1040
148.5
1040
50.0
1040
0.0
1040
0.0
1070
     0
1070
   100
1070
     1
1070
     1
1070
     0
1070
     0
1070
     0
1070
     0
1040
0.0
1040
0.0
1040
0.0
1040
1.0
1040
1.0
1040
0.0
1040
0.0
1070
     0
1002
{
1002
}
1002
}
  0
ENDSEC
  0
SECTION
  2
OBJECTS
  0
DICTIONARY
  5
1D13
100
AcDbDictionary
  3
ACAD_GROUP
350
1D14
  3
ACAD_MLINESTYLE
350
1D21
  3
ACDBVARIABLEDICTIONARY
350
1D61
  0
DICTIONARY
  5
1D14
102
{ACAD_REACTORS
330
1D13
102
}
100
AcDbDictionary
  0
DICTIONARY
  5
1D21
102
{ACAD_REACTORS
330
1D13
102
}
100
AcDbDictionary
  3
STANDARD
350
1D22
  0
DICTIONARY
  5
1D61
102
{ACAD_REACTORS
330
1D13
102
}
100
AcDbDictionary
  3
DIMADEC
350
1D62
  0
MLINESTYLE
  5
1D22
102
{ACAD_REACTORS
330
1D21
102
}
100
AcDbMlineStyle
  2
STANDARD
 70
     0
  3

 62
   256
 51
90.0
 52
90.0
 71
     2
 49
0.5
 62
   256
  6
BYLAYER
 49
-0.5
 62
   256
  6
BYLAYER
  0
DICTIONARYVAR
  5
1D62
102
{ACAD_REACTORS
330
1D61
102
}
100
DictionaryVariables
280
     0
  1
0
  0
ENDSEC
  0
EOF
