  0
SECTION
  2
HEADER
  9
$ACADVER
  1
AC1014
  9
$ACADMAINTVER
 70
     0
  9
$DWGCODEPAGE
  3
ANSI_1252
  9
$INSBASE
 10
145.973955
 20
106.252361
 30
0.0
  9
$EXTMIN
 10
93.122242
 20
65.258102
 30
0.0
  9
$EXTMAX
 10
200.379777
 20
128.259956
 30
0.0
  9
$LIMMIN
 10
0.0
 20
0.0
  9
$LIMMAX
 10
210.0
 20
297.0
  9
$ORTHOMODE
 70
     1
  9
$REGENMODE
 70
     1
  9
$FILLMODE
 70
     1
  9
$QTEXTMODE
 70
     0
  9
$MIRRTEXT
 70
     1
  9
$DRAGMODE
 70
     2
  9
$LTSCALE
 40
7.0
  9
$OSMODE
 70
     0
  9
$ATTMODE
 70
     1
  9
$TEXTSIZE
 40
0.2
  9
$TRACEWID
 40
0.05
  9
$TEXTSTYLE
  7
STANDARD
  9
$CLAYER
  8
COTATION1
  9
$CELTYPE
  6
BYLAYER
  9
$CECOLOR
 62
   256
  9
$CELTSCALE
 40
1.0
  9
$DELOBJ
 70
     1
  9
$DISPSILH
 70
     0
  9
$DIMSCALE
 40
1.0
  9
$DIMASZ
 40
3.0
  9
$DIMEXO
 40
0.0625
  9
$DIMDLI
 40
0.38
  9
$DIMRND
 40
0.01
  9
$DIMDLE
 40
0.0
  9
$DIMEXE
 40
0.18
  9
$DIMTP
 40
0.0
  9
$DIMTM
 40
0.0
  9
$DIMTXT
 40
2.5
  9
$DIMCEN
 40
0.09
  9
$DIMTSZ
 40
0.0
  9
$DIMTOL
 70
     0
  9
$DIMLIM
 70
     0
  9
$DIMTIH
 70
     0
  9
$DIMTOH
 70
     0
  9
$DIMSE1
 70
     0
  9
$DIMSE2
 70
     0
  9
$DIMTAD
 70
     1
  9
$DIMZIN
 70
    12
  9
$DIMBLK
  1

  9
$DIMASO
 70
     1
  9
$DIMSHO
 70
     1
  9
$DIMPOST
  1

  9
$DIMAPOST
  1

  9
$DIMALT
 70
     0
  9
$DIMALTD
 70
     2
  9
$DIMALTF
 40
25.4
  9
$DIMLFAC
 40
1.0
  9
$DIMTOFL
 70
     1
  9
$DIMTVP
 40
0.0
  9
$DIMTIX
 70
     0
  9
$DIMSOXD
 70
     0
  9
$DIMSAH
 70
     0
  9
$DIMBLK1
  1

  9
$DIMBLK2
  1

  9
$DIMSTYLE
  2
SC_STAND
  9
$DIMCLRD
 70
     0
  9
$DIMCLRE
 70
     0
  9
$DIMCLRT
 70
     0
  9
$DIMTFAC
 40
1.0
  9
$DIMGAP
 40
1.0
  9
$DIMJUST
 70
     0
  9
$DIMSD1
 70
     0
  9
$DIMSD2
 70
     0
  9
$DIMTOLJ
 70
     1
  9
$DIMTZIN
 70
    12
  9
$DIMALTZ
 70
    12
  9
$DIMALTTZ
 70
    12
  9
$DIMFIT
 70
     5
  9
$DIMUPT
 70
     0
  9
$DIMUNIT
 70
     2
  9
$DIMDEC
 70
     4
  9
$DIMTDEC
 70
     4
  9
$DIMALTU
 70
     2
  9
$DIMALTTD
 70
     2
  9
$DIMTXSTY
  7
STANDARD
  9
$DIMAUNIT
 70
     0
  9
$LUNITS
 70
     2
  9
$LUPREC
 70
     4
  9
$SKETCHINC
 40
0.1
  9
$FILLETRAD
 40
0.0
  9
$AUNITS
 70
     0
  9
$AUPREC
 70
     0
  9
$MENU
  1
acad
  9
$ELEVATION
 40
0.0
  9
$PELEVATION
 40
0.0
  9
$THICKNESS
 40
0.0
  9
$LIMCHECK
 70
     0
  9
$BLIPMODE
 70
     1
  9
$CHAMFERA
 40
0.0
  9
$CHAMFERB
 40
0.0
  9
$CHAMFERC
 40
0.0
  9
$CHAMFERD
 40
0.0
  9
$SKPOLY
 70
     0
  9
$TDCREATE
 40
2451086.438795486
  9
$TDUPDATE
 40
2451387.897828912
  9
$TDINDWG
 40
0.0000283565
  9
$TDUSRTIMER
 40
0.0000283565
  9
$USRTIMER
 70
     1
  9
$ANGBASE
 50
0.0
  9
$ANGDIR
 70
     0
  9
$PDMODE
 70
     0
  9
$PDSIZE
 40
0.0
  9
$PLINEWID
 40
0.0
  9
$COORDS
 70
     1
  9
$SPLFRAME
 70
     0
  9
$SPLINETYPE
 70
     6
  9
$SPLINESEGS
 70
     8
  9
$ATTDIA
 70
     0
  9
$ATTREQ
 70
     1
  9
$HANDLING
 70
     1
  9
$HANDSEED
  5
389
  9
$SURFTAB1
 70
     6
  9
$SURFTAB2
 70
     6
  9
$SURFTYPE
 70
     6
  9
$SURFU
 70
     6
  9
$SURFV
 70
     6
  9
$UCSNAME
  2

  9
$UCSORG
 10
0.0
 20
0.0
 30
0.0
  9
$UCSXDIR
 10
1.0
 20
0.0
 30
0.0
  9
$UCSYDIR
 10
0.0
 20
1.0
 30
0.0
  9
$PUCSNAME
  2

  9
$PUCSORG
 10
0.0
 20
0.0
 30
0.0
  9
$PUCSXDIR
 10
1.0
 20
0.0
 30
0.0
  9
$PUCSYDIR
 10
0.0
 20
1.0
 30
0.0
  9
$USERI1
 70
     0
  9
$USERI2
 70
     0
  9
$USERI3
 70
     0
  9
$USERI4
 70
     0
  9
$USERI5
 70
     0
  9
$USERR1
 40
0.0
  9
$USERR2
 40
0.0
  9
$USERR3
 40
0.0
  9
$USERR4
 40
0.0
  9
$USERR5
 40
0.0
  9
$WORLDVIEW
 70
     1
  9
$SHADEDGE
 70
     3
  9
$SHADEDIF
 70
    70
  9
$TILEMODE
 70
     1
  9
$MAXACTVP
 70
    16
  9
$PINSBASE
 10
0.0
 20
0.0
 30
0.0
  9
$PLIMCHECK
 70
     0
  9
$PEXTMIN
 10
1.000000E+20
 20
1.000000E+20
 30
1.000000E+20
  9
$PEXTMAX
 10
-1.000000E+20
 20
-1.000000E+20
 30
-1.000000E+20
  9
$PLIMMIN
 10
0.0
 20
0.0
  9
$PLIMMAX
 10
12.0
 20
9.0
  9
$UNITMODE
 70
     0
  9
$VISRETAIN
 70
     0
  9
$PLINEGEN
 70
     0
  9
$PSLTSCALE
 70
     1
  9
$TREEDEPTH
 70
  3020
  9
$PICKSTYLE
 70
     1
  9
$CMLSTYLE
  2
STANDARD
  9
$CMLJUST
 70
     0
  9
$CMLSCALE
 40
1.0
  9
$PROXYGRAPHICS
 70
     1
  9
$MEASUREMENT
 70
     0
  0
ENDSEC
  0
SECTION
  2
CLASSES
  0
CLASS
  1
DICTIONARYVAR
  2
AcDbDictionaryVar
  3
"AutoCAD"
 90
        0
280
     0
281
     0
  0
CLASS
  1
LWPOLYLINE
  2
AcDbPolyline
  3
"AutoCAD"
 90
        0
280
     0
281
     1
  0
ENDSEC
  0
SECTION
  2
TABLES
  0
TABLE
  2
VPORT
  5
35D
100
AcDbSymbolTable
 70
     1
  0
VPORT
  5
384
100
AcDbSymbolTableRecord
100
AcDbViewportTableRecord
  2
*ACTIVE
 70
     0
 10
0.0
 20
0.0
 11
1.0
 21
1.0
 12
225.654671
 22
135.037441
 13
0.0
 23
0.0
 14
1.0
 24
1.0
 15
0.0
 25
0.0
 16
0.0
 26
0.0
 36
1.0
 17
0.0
 27
0.0
 37
0.0
 40
270.074882
 41
1.671053
 42
50.0
 43
0.0
 44
0.0
 50
0.0
 51
0.0
 71
     0
 72
   100
 73
     1
 74
     1
 75
     0
 76
     0
 77
     0
 78
     0
  0
ENDTAB
  0
TABLE
  2
LTYPE
  5
35A
100
AcDbSymbolTable
 70
     2
  0
LTYPE
  5
366
100
AcDbSymbolTableRecord
100
AcDbLinetypeTableRecord
  2
BYBLOCK
 70
     0
  3

 72
    65
 73
     0
 40
0.0
  0
LTYPE
  5
367
100
AcDbSymbolTableRecord
100
AcDbLinetypeTableRecord
  2
BYLAYER
 70
     0
  3

 72
    65
 73
     0
 40
0.0
  0
LTYPE
  5
368
100
AcDbSymbolTableRecord
100
AcDbLinetypeTableRecord
  2
CONTINUOUS
 70
     0
  3
Solid line
 72
    65
 73
     0
 40
0.0
  0
LTYPE
  5
374
100
AcDbSymbolTableRecord
100
AcDbLinetypeTableRecord
  2
AXES2
 70
     0
  3
___ _ ___ _ ___ _ ___ _ ___ _ ___ _ ___ _ ___ _
 72
    65
 73
     4
 40
1.125
 49
0.75
 74
     0
 49
-0.125
 74
     0
 49
0.125
 74
     0
 49
-0.125
 74
     0
  0
ENDTAB
  0
TABLE
  2
LAYER
  5
357
100
AcDbSymbolTable
 70
     5
  0
LAYER
  5
363
100
AcDbSymbolTableRecord
100
AcDbLayerTableRecord
  2
0
 70
     0
 62
     7
  6
CONTINUOUS
  0
LAYER
  5
377
100
AcDbSymbolTableRecord
100
AcDbLayerTableRecord
  2
AXE
 70
     0
 62
    80
  6
AXES2
  0
LAYER
  5
378
100
AcDbSymbolTableRecord
100
AcDbLayerTableRecord
  2
COTATION1
 70
     0
 62
     2
  6
CONTINUOUS
  0
LAYER
  5
379
100
AcDbSymbolTableRecord
100
AcDbLayerTableRecord
  2
ALPHA
 70
     0
 62
   255
  6
CONTINUOUS
  0
LAYER
  5
37A
100
AcDbSymbolTableRecord
100
AcDbLayerTableRecord
  2
DEFPOINTS
 70
     0
 62
     7
  6
CONTINUOUS
  0
ENDTAB
  0
TABLE
  2
STYLE
  5
358
100
AcDbSymbolTable
 70
     2
  0
STYLE
  5
364
100
AcDbSymbolTableRecord
100
AcDbTextStyleTableRecord
  2
STANDARD
 70
     0
 40
0.0
 41
1.0
 50
0.0
 71
     0
 42
0.2
  3
txt
  4

  0
STYLE
  5
373
100
AcDbSymbolTableRecord
100
AcDbTextStyleTableRecord
  2
ROMANS
 70
     0
 40
0.0
 41
1.0
 50
0.0
 71
     0
 42
2.9
  3
romans.shx
  4

  0
ENDTAB
  0
TABLE
  2
VIEW
  5
35B
100
AcDbSymbolTable
 70
     0
  0
ENDTAB
  0
TABLE
  2
UCS
  5
35C
100
AcDbSymbolTable
 70
     0
  0
ENDTAB
  0
TABLE
  2
APPID
  5
35E
100
AcDbSymbolTable
 70
     1
  0
APPID
  5
365
100
AcDbSymbolTableRecord
100
AcDbRegAppTableRecord
  2
ACAD
 70
     0
  0
ENDTAB
  0
TABLE
  2
DIMSTYLE
  5
35F
100
AcDbSymbolTable
 70
     1
  0
DIMSTYLE
105
376
102
{ACAD_REACTORS
330
1F
330
2D
102
}
100
AcDbSymbolTableRecord
100
AcDbDimStyleTableRecord
  2
SC_STAND
 70
     0
  3

  4

  5

  6

  7

 40
1.0
 41
3.0
 42
0.0625
 43
0.38
 44
0.18
 45
0.01
 46
0.0
 47
0.0
 48
0.0
140
2.5
141
0.09
142
0.0
143
25.4
144
1.0
145
0.0
146
1.0
147
1.0
 71
     0
 72
     0
 73
     0
 74
     0
 75
     0
 76
     0
 77
     1
 78
    12
170
     0
171
     2
172
     1
173
     0
174
     0
175
     0
176
     0
177
     0
178
     0
270
     2
271
     4
272
     4
273
     2
274
     2
340
364
275
     0
280
     0
281
     0
282
     0
283
     1
284
    12
285
    12
286
    12
287
     5
288
     0
  0
ENDTAB
  0
TABLE
  2
BLOCK_RECORD
  5
356
100
AcDbSymbolTable
 70
     2
  0
BLOCK_RECORD
  5
36C
100
AcDbSymbolTableRecord
100
AcDbBlockTableRecord
  2
*MODEL_SPACE
  0
BLOCK_RECORD
  5
369
100
AcDbSymbolTableRecord
100
AcDbBlockTableRecord
  2
*PAPER_SPACE
  0
BLOCK_RECORD
  5
371
100
AcDbSymbolTableRecord
100
AcDbBlockTableRecord
  2
*D0
  0
BLOCK_RECORD
  5
372
100
AcDbSymbolTableRecord
100
AcDbBlockTableRecord
  2
*D1
  0
ENDTAB
  0
ENDSEC
  0
SECTION
  2
BLOCKS
  0
BLOCK
  5
37D
100
AcDbEntity
  8
0
100
AcDbBlockBegin
  2
*MODEL_SPACE
 70
     0
 10
0.0
 20
0.0
 30
0.0
  3
*MODEL_SPACE
  1

  0
ENDBLK
  5
37E
100
AcDbEntity
  8
0
100
AcDbBlockEnd
  0
BLOCK
  5
37B
100
AcDbEntity
 67
     1
  8
0
100
AcDbBlockBegin
  2
*PAPER_SPACE
 70
     0
 10
0.0
 20
0.0
 30
0.0
  3
*PAPER_SPACE
  1

  0
ENDBLK
  5
37C
100
AcDbEntity
 67
     1
  8
0
100
AcDbBlockEnd
  0
BLOCK
  5
38
100
AcDbEntity
  8
0
100
AcDbBlockBegin
  2
*D0
 70
     1
 10
0.0
 20
0.0
 30
0.0
  3
*D0
  1
AVE_GLOBAL
  0
LINE
  5
2F
100
AcDbEntity
  8
0
  6
BYBLOCK
 62
     0
100
AcDbLine
 10
111.057776
 20
87.647456
 30
0.0
 11
111.057776
 21
65.578102
 31
0.0
  0
LINE
  5
30
100
AcDbEntity
  8
0
  6
BYBLOCK
 62
     0
100
AcDbLine
 10
186.857776
 20
90.247456
 30
0.0
 11
186.857776
 21
65.578102
 31
0.0
  0
LINE
  5
31
100
AcDbEntity
  8
0
  6
BYBLOCK
 62
     0
100
AcDbLine
 10
114.057776
 20
65.758102
 30
0.0
 11
183.857776
 21
65.758102
 31
0.0
  0
SOLID
  5
32
100
AcDbEntity
  8
0
  6
BYBLOCK
 62
     0
100
AcDbTrace
 10
114.057776
 20
66.258102
 30
0.0
 11
114.057776
 21
65.258102
 31
0.0
 12
111.057776
 22
65.758102
 32
0.0
 13
111.057776
 23
65.758102
 33
0.0
  0
SOLID
  5
33
100
AcDbEntity
  8
0
  6
BYBLOCK
 62
     0
100
AcDbTrace
 10
183.857776
 20
66.258102
 30
0.0
 11
183.857776
 21
65.258102
 31
0.0
 12
186.857776
 22
65.758102
 32
0.0
 13
186.857776
 23
65.758102
 33
0.0
  0
TEXT
  5
34
100
AcDbEntity
  8
0
  6
BYBLOCK
 62
     0
100
AcDbText
 10
144.79111
 20
66.758102
 30
0.0
 40
2.5
  1
75.8
  7
ROMANS
100
AcDbText
  0
POINT
  5
35
100
AcDbEntity
  8
DEFPOINTS
  6
BYBLOCK
 62
     0
100
AcDbPoint
 10
111.057776
 20
87.709956
 30
0.0
  0
POINT
  5
36
100
AcDbEntity
  8
DEFPOINTS
  6
BYBLOCK
 62
     0
100
AcDbPoint
 10
186.857776
 20
90.309956
 30
0.0
  0
POINT
  5
37
100
AcDbEntity
  8
DEFPOINTS
  6
BYBLOCK
 62
     0
100
AcDbPoint
 10
186.857776
 20
65.758102
 30
0.0
  0
ENDBLK
  5
39
100
AcDbEntity
  8
0
100
AcDbBlockEnd
  0
BLOCK
  5
2B
100
AcDbEntity
  8
0
100
AcDbBlockBegin
  2
*D1
 70
     1
 10
0.0
 20
0.0
 30
0.0
  3
*D1
  1
AVE_GLOBAL
  0
LINE
  5
21
100
AcDbEntity
  8
0
  6
BYBLOCK
 62
     0
100
AcDbLine
 10
182.79906
 20
88.809956
 30
0.0
 11
200.059777
 21
88.809956
 31
0.0
  0
LINE
  5
22
100
AcDbEntity
  8
0
  6
BYBLOCK
 62
     0
100
AcDbLine
 10
182.79906
 20
120.809956
 30
0.0
 11
200.059777
 21
120.809956
 31
0.0
  0
LINE
  5
23
100
AcDbEntity
  8
0
  6
BYBLOCK
 62
     0
100
AcDbLine
 10
199.879777
 20
91.809956
 30
0.0
 11
199.879777
 21
117.809956
 31
0.0
  0
SOLID
  5
24
100
AcDbEntity
  8
0
  6
BYBLOCK
 62
     0
100
AcDbTrace
 10
199.379777
 20
91.809956
 30
0.0
 11
200.379777
 21
91.809956
 31
0.0
 12
199.879777
 22
88.809956
 32
0.0
 13
199.879777
 23
88.809956
 33
0.0
  0
SOLID
  5
25
100
AcDbEntity
  8
0
  6
BYBLOCK
 62
     0
100
AcDbTrace
 10
199.379777
 20
117.809956
 30
0.0
 11
200.379777
 21
117.809956
 31
0.0
 12
199.879777
 22
120.809956
 32
0.0
 13
199.879777
 23
120.809956
 33
0.0
  0
TEXT
  5
26
100
AcDbEntity
  8
0
  6
BYBLOCK
 62
     0
100
AcDbText
 10
198.879777
 20
102.429004
 30
0.0
 40
2.5
  1
32
 50
90.0
  7
ROMANS
100
AcDbText
  0
POINT
  5
27
100
AcDbEntity
  8
DEFPOINTS
  6
BYBLOCK
 62
     0
100
AcDbPoint
 10
182.73656
 20
88.809956
 30
0.0
  0
POINT
  5
29
100
AcDbEntity
  8
DEFPOINTS
  6
BYBLOCK
 62
     0
100
AcDbPoint
 10
182.73656
 20
120.809956
 30
0.0
  0
POINT
  5
2A
100
AcDbEntity
  8
DEFPOINTS
  6
BYBLOCK
 62
     0
100
AcDbPoint
 10
199.879777
 20
120.809956
 30
0.0
  0
ENDBLK
  5
2C
100
AcDbEntity
  8
0
100
AcDbBlockEnd
  0
ENDSEC
  0
SECTION
  2
ENTITIES
  0
DIMENSION
  5
1F
100
AcDbEntity
  8
COTATION1
100
AcDbDimension
  2
*D1
 10
199.879777
 20
120.809956
 30
0.0
 11
197.629777
 21
104.809956
 31
0.0
  3
SC_STAND
100
AcDbAlignedDimension
 13
182.73656
 23
88.809956
 33
0.0
 14
182.73656
 24
120.809956
 34
0.0
 50
90.0
100
AcDbRotatedDimension
  0
DIMENSION
  5
2D
100
AcDbEntity
  8
COTATION1
100
AcDbDimension
  2
*D0
 10
186.857776
 20
65.758102
 30
0.0
 11
148.957776
 21
68.008102
 31
0.0
  3
SC_STAND
100
AcDbAlignedDimension
 13
111.057776
 23
87.709956
 33
0.0
 14
186.857776
 24
90.309956
 34
0.0
100
AcDbRotatedDimension
  0
LINE
  5
3A
100
AcDbEntity
  8
AXE
100
AcDbLine
 10
113.927776
 20
91.143931
 30
0.0
 11
113.927776
 21
87.960605
 31
0.0
  0
LWPOLYLINE
  5
3D
100
AcDbEntity
  8
AXE
100
AcDbPolyline
 90
        7
 70
     0
 43
0.0
 10
113.927776
 20
92.442946
 10
113.927776
 20
92.182475
 10
113.927776
 20
91.929919
 10
113.927776
 20
91.692952
 10
113.927776
 20
91.478776
 10
113.927776
 20
91.293896
 10
113.927776
 20
91.143931
  0
LINE
  5
46
100
AcDbEntity
  8
AXE
100
AcDbLine
 10
113.927776
 20
121.109895
 30
0.0
 11
113.927776
 21
92.442946
 31
0.0
  0
LWPOLYLINE
  5
47
100
AcDbEntity
  8
AXE
100
AcDbPolyline
 90
        9
 70
     0
 43
0.0
 10
113.927776
 20
123.109957
 10
113.927776
 20
123.071867
 10
113.927776
 20
122.959049
 10
113.927776
 20
122.775799
 10
113.927776
 20
122.52417
 10
113.927776
 20
122.222548
 10
113.927776
 20
121.878547
 10
113.927776
 20
121.505271
 10
113.927776
 20
121.109896
  0
LWPOLYLINE
  5
52
100
AcDbEntity
  8
AXE
100
AcDbPolyline
 90
        7
 70
     0
 43
0.0
 10
113.927776
 20
123.143253
 10
113.927776
 20
123.133178
 10
113.927776
 20
123.124902
 10
113.927776
 20
123.118435
 10
113.927776
 20
123.113786
 10
113.927776
 20
123.110959
 10
113.927776
 20
123.109957
  0
LINE
  5
5B
100
AcDbEntity
  8
AXE
100
AcDbLine
 10
113.927776
 20
123.809634
 30
0.0
 11
113.927776
 21
123.143253
 31
0.0
  0
LWPOLYLINE
  5
5C
100
AcDbEntity
  8
AXE
100
AcDbPolyline
 90
        7
 70
     0
 43
0.0
 10
113.927776
 20
123.809633
 10
113.927776
 20
123.827985
 10
113.927776
 20
123.839101
 10
113.927776
 20
123.842928
 10
113.927776
 20
123.839447
 10
113.927776
 20
123.828675
 10
113.927776
 20
123.809633
  0
LINE
  5
65
100
AcDbEntity
  8
AXE
100
AcDbLine
 10
113.927776
 20
123.143253
 30
0.0
 11
113.927776
 21
123.809634
 31
0.0
  0
LWPOLYLINE
  5
66
100
AcDbEntity
  8
AXE
100
AcDbPolyline
 90
        7
 70
     0
 43
0.0
 10
113.927776
 20
123.109957
 10
113.927776
 20
123.11087
 10
113.927776
 20
123.113611
 10
113.927776
 20
123.118174
 10
113.927776
 20
123.124555
 10
113.927776
 20
123.132745
 10
113.927776
 20
123.143253
  0
LWPOLYLINE
  5
6F
100
AcDbEntity
  8
AXE
100
AcDbPolyline
 90
        9
 70
     0
 43
0.0
 10
113.927776
 20
121.109896
 10
113.927776
 20
121.498365
 10
113.927776
 20
121.872041
 10
113.927776
 20
122.216689
 10
113.927776
 20
122.524127
 10
113.927776
 20
122.771892
 10
113.927776
 20
122.956354
 10
113.927776
 20
123.070487
 10
113.927776
 20
123.109957
  0
LINE
  5
7A
100
AcDbEntity
  8
AXE
100
AcDbLine
 10
113.927776
 20
92.442946
 30
0.0
 11
113.927776
 21
121.109895
 31
0.0
  0
LWPOLYLINE
  5
7B
100
AcDbEntity
  8
AXE
100
AcDbPolyline
 90
        7
 70
     0
 43
0.0
 10
113.927776
 20
91.143931
 10
113.927776
 20
91.293896
 10
113.927776
 20
91.478776
 10
113.927776
 20
91.692953
 10
113.927776
 20
91.929919
 10
113.927776
 20
92.182475
 10
113.927776
 20
92.442947
  0
LINE
  5
84
100
AcDbEntity
  8
AXE
100
AcDbLine
 10
113.927776
 20
87.960605
 30
0.0
 11
113.927776
 21
91.143931
 31
0.0
  0
LINE
  5
85
100
AcDbEntity
  8
ALPHA
100
AcDbLine
 10
124.157776
 20
104.709956
 30
0.0
 11
124.157776
 21
116.209956
 31
0.0
  0
LINE
  5
87
100
AcDbEntity
  8
ALPHA
100
AcDbLine
 10
123.157776
 20
117.209956
 30
0.0
 11
121.657776
 21
117.209956
 31
0.0
  0
LINE
  5
88
100
AcDbEntity
  8
ALPHA
100
AcDbLine
 10
120.657776
 20
116.209956
 30
0.0
 11
120.657776
 21
104.709956
 31
0.0
  0
LINE
  5
89
100
AcDbEntity
  8
ALPHA
100
AcDbLine
 10
121.657776
 20
103.709956
 30
0.0
 11
123.157776
 21
103.709956
 31
0.0
  0
LINE
  5
8A
100
AcDbEntity
  8
ALPHA
100
AcDbLine
 10
128.257776
 20
118.909956
 30
0.0
 11
128.257776
 21
93.709956
 31
0.0
  0
LINE
  5
8B
100
AcDbEntity
  8
ALPHA
100
AcDbLine
 10
128.257776
 20
93.709956
 30
0.0
 11
138.257776
 21
93.709956
 31
0.0
  0
LINE
  5
8C
100
AcDbEntity
  8
ALPHA
100
AcDbLine
 10
138.257776
 20
93.709956
 30
0.0
 11
138.257776
 21
118.909956
 31
0.0
  0
LINE
  5
8D
100
AcDbEntity
  8
ALPHA
100
AcDbLine
 10
138.257776
 20
118.909956
 30
0.0
 11
128.257776
 21
118.909956
 31
0.0
  0
LINE
  5
8E
100
AcDbEntity
  8
ALPHA
100
AcDbLine
 10
123.157776
 20
93.595864
 30
0.0
 11
123.157776
 21
102.609956
 31
0.0
  0
LINE
  5
8F
100
AcDbEntity
  8
ALPHA
100
AcDbLine
 10
119.657776
 20
102.609956
 30
0.0
 11
123.157776
 21
102.609956
 31
0.0
  0
LINE
  5
90
100
AcDbEntity
  8
ALPHA
100
AcDbLine
 10
119.657776
 20
104.259956
 30
0.0
 11
119.857776
 21
104.259956
 31
0.0
  0
LINE
  5
91
100
AcDbEntity
  8
ALPHA
100
AcDbLine
 10
119.857776
 20
104.259956
 30
0.0
 11
119.857776
 21
106.759956
 31
0.0
  0
LINE
  5
92
100
AcDbEntity
  8
ALPHA
100
AcDbLine
 10
119.657776
 20
106.759956
 30
0.0
 11
119.857776
 21
106.759956
 31
0.0
  0
LINE
  5
93
100
AcDbEntity
  8
ALPHA
100
AcDbLine
 10
119.657776
 20
118.009956
 30
0.0
 11
119.657776
 21
117.609956
 31
0.0
  0
LINE
  5
94
100
AcDbEntity
  8
ALPHA
100
AcDbLine
 10
119.657776
 20
118.009956
 30
0.0
 11
122.957776
 21
118.009956
 31
0.0
  0
LINE
  5
95
100
AcDbEntity
  8
ALPHA
100
AcDbLine
 10
124.757776
 20
119.389593
 30
0.0
 11
122.957776
 21
118.009956
 31
0.0
  0
LINE
  5
96
100
AcDbEntity
  8
ALPHA
100
AcDbLine
 10
131.657776
 20
121.109956
 30
0.0
 11
124.757776
 21
119.389593
 31
0.0
  0
LINE
  5
97
100
AcDbEntity
  8
ALPHA
100
AcDbLine
 10
159.257776
 20
121.109956
 30
0.0
 11
131.657776
 21
121.109956
 31
0.0
  0
LINE
  5
98
100
AcDbEntity
  8
ALPHA
100
AcDbLine
 10
159.257776
 20
121.109956
 30
0.0
 11
159.257776
 21
117.739922
 31
0.0
  0
LINE
  5
99
100
AcDbEntity
  8
ALPHA
100
AcDbLine
 10
159.257776
 20
117.739922
 30
0.0
 11
161.600661
 21
115.774008
 31
0.0
  0
ARC
  5
9A
100
AcDbEntity
  8
ALPHA
100
AcDbCircle
 10
161.857776
 20
116.080426
 30
0.0
 40
0.4
100
AcDbArc
 50
230.0
 51
0.0
  0
LINE
  5
9B
100
AcDbEntity
  8
ALPHA
100
AcDbLine
 10
162.257776
 20
116.080426
 30
0.0
 11
162.257776
 21
116.923087
 31
0.0
  0
LINE
  5
9C
100
AcDbEntity
  8
ALPHA
100
AcDbLine
 10
163.257776
 20
117.509956
 30
0.0
 11
162.471379
 21
117.509956
 31
0.0
  0
LINE
  5
9D
100
AcDbEntity
  8
ALPHA
100
AcDbLine
 10
163.257776
 20
117.109956
 30
0.0
 11
163.257776
 21
117.509956
 31
0.0
  0
LINE
  5
9E
100
AcDbEntity
  8
ALPHA
100
AcDbLine
 10
163.257776
 20
101.009956
 30
0.0
 11
163.257776
 21
108.609956
 31
0.0
  0
LINE
  5
9F
100
AcDbEntity
  8
ALPHA
100
AcDbLine
 10
163.257776
 20
89.709956
 30
0.0
 11
163.257776
 21
98.609956
 31
0.0
  0
LINE
  5
A0
100
AcDbEntity
  8
ALPHA
100
AcDbLine
 10
152.857776
 20
89.709956
 30
0.0
 11
163.257776
 21
89.709956
 31
0.0
  0
LINE
  5
A1
100
AcDbEntity
  8
ALPHA
100
AcDbLine
 10
152.857776
 20
89.709956
 30
0.0
 11
152.857776
 21
92.609956
 31
0.0
  0
LINE
  5
A2
100
AcDbEntity
  8
ALPHA
100
AcDbLine
 10
123.157776
 20
93.595864
 30
0.0
 11
125.597985
 21
92.609956
 31
0.0
  0
LINE
  5
A3
100
AcDbEntity
  8
ALPHA
100
AcDbLine
 10
122.857776
 20
93.709956
 30
0.0
 11
122.875389
 21
93.709956
 31
0.0
  0
LINE
  5
A4
100
AcDbEntity
  8
ALPHA
100
AcDbLine
 10
126.057776
 20
119.713719
 30
0.0
 11
126.057776
 21
120.950456
 31
0.0
  0
LINE
  5
A5
100
AcDbEntity
  8
ALPHA
100
AcDbLine
 10
126.057776
 20
120.950456
 30
0.0
 11
131.510435
 21
122.309956
 31
0.0
  0
LINE
  5
A6
100
AcDbEntity
  8
ALPHA
100
AcDbLine
 10
131.510435
 20
122.309956
 30
0.0
 11
159.257776
 21
122.309956
 31
0.0
  0
LINE
  5
A7
100
AcDbEntity
  8
ALPHA
100
AcDbLine
 10
159.257776
 20
122.309956
 30
0.0
 11
159.257776
 21
121.109956
 31
0.0
  0
LINE
  5
A8
100
AcDbEntity
  8
ALPHA
100
AcDbLine
 10
154.457776
 20
89.709956
 30
0.0
 11
154.457776
 21
88.509956
 31
0.0
  0
LINE
  5
A9
100
AcDbEntity
  8
ALPHA
100
AcDbLine
 10
154.457776
 20
88.509956
 30
0.0
 11
152.321012
 21
88.509956
 31
0.0
  0
LINE
  5
AA
100
AcDbEntity
  8
ALPHA
100
AcDbLine
 10
152.321012
 20
88.509956
 30
0.0
 11
148.864927
 21
91.409956
 31
0.0
  0
LINE
  5
AB
100
AcDbEntity
  8
ALPHA
100
AcDbLine
 10
148.864927
 20
91.409956
 30
0.0
 11
126.057776
 21
91.409956
 31
0.0
  0
LINE
  5
AC
100
AcDbEntity
  8
ALPHA
100
AcDbLine
 10
126.057776
 20
91.409956
 30
0.0
 11
126.057776
 21
92.609956
 31
0.0
  0
ARC
  5
AD
100
AcDbEntity
  8
ALPHA
100
AcDbCircle
 10
121.657776
 20
116.209956
 30
0.0
 40
1.0
100
AcDbArc
 50
90.0
 51
180.0
  0
ARC
  5
AE
100
AcDbEntity
  8
ALPHA
100
AcDbCircle
 10
123.157776
 20
116.209956
 30
0.0
 40
1.0
100
AcDbArc
 50
0.0
 51
90.0
  0
ARC
  5
AF
100
AcDbEntity
  8
ALPHA
100
AcDbCircle
 10
123.157776
 20
104.709956
 30
0.0
 40
1.0
100
AcDbArc
 50
270.0
 51
0.0
  0
ARC
  5
B0
100
AcDbEntity
  8
ALPHA
100
AcDbCircle
 10
121.657776
 20
104.709956
 30
0.0
 40
1.0
100
AcDbArc
 50
180.0
 51
270.0
  0
LINE
  5
B1
100
AcDbEntity
  8
ALPHA
100
AcDbLine
 10
163.257776
 20
121.109956
 30
0.0
 11
159.257776
 21
121.109956
 31
0.0
  0
LINE
  5
B2
100
AcDbEntity
  8
ALPHA
100
AcDbLine
 10
163.257776
 20
117.609956
 30
0.0
 11
163.257776
 21
117.509956
 31
0.0
  0
LINE
  5
B3
100
AcDbEntity
  8
ALPHA
100
AcDbLine
 10
163.257776
 20
121.109956
 30
0.0
 11
163.257776
 21
120.409956
 31
0.0
  0
LINE
  5
B4
100
AcDbEntity
  8
ALPHA
100
AcDbLine
 10
163.257776
 20
101.509956
 30
0.0
 11
163.757776
 21
101.509956
 31
0.0
  0
LINE
  5
B5
100
AcDbEntity
  8
ALPHA
100
AcDbLine
 10
163.257776
 20
117.509956
 30
0.0
 11
164.257776
 21
117.509956
 31
0.0
  0
LINE
  5
B6
100
AcDbEntity
  8
ALPHA
100
AcDbLine
 10
165.657776
 20
118.643931
 30
0.0
 11
165.557776
 21
118.643931
 31
0.0
  0
LINE
  5
B7
100
AcDbEntity
  8
ALPHA
100
AcDbLine
 10
165.557776
 20
117.509956
 30
0.0
 11
165.657776
 21
117.509956
 31
0.0
  0
LINE
  5
B8
100
AcDbEntity
  8
ALPHA
100
AcDbLine
 10
164.257776
 20
117.109956
 30
0.0
 11
164.257776
 21
117.509956
 31
0.0
  0
LINE
  5
B9
100
AcDbEntity
  8
ALPHA
100
AcDbLine
 10
163.257776
 20
107.509956
 30
0.0
 11
163.757776
 21
107.509956
 31
0.0
  0
LINE
  5
BA
100
AcDbEntity
  8
ALPHA
100
AcDbLine
 10
164.257776
 20
117.509956
 30
0.0
 11
164.757776
 21
117.509956
 31
0.0
  0
LINE
  5
BB
100
AcDbEntity
  8
ALPHA
100
AcDbLine
 10
125.597985
 20
92.609956
 30
0.0
 11
152.857776
 21
92.609956
 31
0.0
  0
LINE
  5
BC
100
AcDbEntity
  8
ALPHA
100
AcDbLine
 10
122.857776
 20
93.717072
 30
0.0
 11
123.157776
 21
93.595864
 31
0.0
  0
LINE
  5
BD
100
AcDbEntity
  8
ALPHA
100
AcDbLine
 10
163.257776
 20
93.009956
 30
0.0
 11
166.475389
 21
93.009956
 31
0.0
  0
LINE
  5
BE
100
AcDbEntity
  8
ALPHA
100
AcDbLine
 10
163.257776
 20
94.309956
 30
0.0
 11
168.757776
 21
92.087812
 31
0.0
  0
ARC
  5
BF
100
AcDbEntity
  8
ALPHA
100
AcDbCircle
 10
168.257776
 20
93.907627
 30
0.0
 40
0.5
100
AcDbArc
 50
248.0
 51
0.0
  0
ARC
  5
C0
100
AcDbEntity
  8
ALPHA
100
AcDbCircle
 10
164.757776
 20
98.109956
 30
0.0
 40
0.5
100
AcDbArc
 50
90.0
 51
180.0
  0
LINE
  5
C1
100
AcDbEntity
  8
ALPHA
100
AcDbLine
 10
164.257776
 20
95.321719
 30
0.0
 11
164.257776
 21
98.109956
 31
0.0
  0
ARC
  5
C2
100
AcDbEntity
  8
ALPHA
100
AcDbCircle
 10
164.757776
 20
95.321719
 30
0.0
 40
0.5
100
AcDbArc
 50
180.0
 51
248.0
  0
LINE
  5
C3
100
AcDbEntity
  8
ALPHA
100
AcDbLine
 10
168.070473
 20
93.444035
 30
0.0
 11
164.570473
 21
94.858127
 31
0.0
  0
LINE
  5
C4
100
AcDbEntity
  8
ALPHA
100
AcDbLine
 10
186.381075
 20
119.483461
 30
0.0
 11
186.381075
 21
117.309956
 31
0.0
  0
LINE
  5
C5
100
AcDbEntity
  8
ALPHA
100
AcDbLine
 10
181.857776
 20
88.809956
 30
0.0
 11
181.857776
 21
90.094973
 31
0.0
  0
ARC
  5
C6
100
AcDbEntity
  8
ALPHA
100
AcDbCircle
 10
180.857776
 20
90.094973
 30
0.0
 40
1.0
100
AcDbArc
 50
0.0
 51
100.0
  0
LINE
  5
C7
100
AcDbEntity
  8
ALPHA
100
AcDbLine
 10
180.684128
 20
91.079781
 30
0.0
 11
174.11825
 21
89.92204
 31
0.0
  0
LINE
  5
C8
100
AcDbEntity
  8
ALPHA
100
AcDbLine
 10
168.757776
 20
92.087812
 30
0.0
 11
174.11825
 21
89.92204
 31
0.0
  0
LINE
  5
C9
100
AcDbEntity
  8
ALPHA
100
AcDbLine
 10
168.757776
 20
97.609956
 30
0.0
 11
168.757776
 21
92.087812
 31
0.0
  0
ARC
  5
CA
100
AcDbEntity
  8
ALPHA
100
AcDbCircle
 10
167.757776
 20
97.609956
 30
0.0
 40
1.0
100
AcDbArc
 50
0.0
 51
90.0
  0
LINE
  5
CB
100
AcDbEntity
  8
ALPHA
100
AcDbLine
 10
163.257776
 20
98.609956
 30
0.0
 11
167.757776
 21
98.609956
 31
0.0
  0
LINE
  5
CC
100
AcDbEntity
  8
ALPHA
100
AcDbLine
 10
163.257776
 20
101.009956
 30
0.0
 11
163.257776
 21
98.609956
 31
0.0
  0
LINE
  5
CD
100
AcDbEntity
  8
ALPHA
100
AcDbLine
 10
163.257776
 20
101.009956
 30
0.0
 11
163.757776
 21
101.009956
 31
0.0
  0
LINE
  5
CE
100
AcDbEntity
  8
ALPHA
100
AcDbLine
 10
163.757776
 20
101.009956
 30
0.0
 11
163.757776
 21
108.609956
 31
0.0
  0
LINE
  5
CF
100
AcDbEntity
  8
ALPHA
100
AcDbLine
 10
163.257776
 20
108.609956
 30
0.0
 11
163.757776
 21
108.609956
 31
0.0
  0
LINE
  5
D0
100
AcDbEntity
  8
ALPHA
100
AcDbLine
 10
163.257776
 20
108.609956
 30
0.0
 11
163.257776
 21
117.109956
 31
0.0
  0
LINE
  5
D1
100
AcDbEntity
  8
ALPHA
100
AcDbLine
 10
165.657776
 20
117.109956
 30
0.0
 11
163.257776
 21
117.109956
 31
0.0
  0
LINE
  5
D2
100
AcDbEntity
  8
ALPHA
100
AcDbLine
 10
173.715671
 20
119.768858
 30
0.0
 11
165.657776
 21
117.109956
 31
0.0
  0
LINE
  5
D3
100
AcDbEntity
  8
ALPHA
100
AcDbLine
 10
173.715671
 20
119.768858
 30
0.0
 11
180.684128
 21
118.540131
 31
0.0
  0
ARC
  5
D4
100
AcDbEntity
  8
ALPHA
100
AcDbCircle
 10
180.857776
 20
119.524939
 30
0.0
 40
1.0
100
AcDbArc
 50
260.0
 51
0.0
  0
LINE
  5
D5
100
AcDbEntity
  8
ALPHA
100
AcDbLine
 10
181.857776
 20
120.809956
 30
0.0
 11
181.857776
 21
119.524939
 31
0.0
  0
LINE
  5
D6
100
AcDbEntity
  8
ALPHA
100
AcDbLine
 10
182.73656
 20
120.809956
 30
0.0
 11
181.857776
 21
120.809956
 31
0.0
  0
LINE
  5
D7
100
AcDbEntity
  8
ALPHA
100
AcDbLine
 10
182.73656
 20
120.809956
 30
0.0
 11
182.857776
 21
120.765837
 31
0.0
  0
LINE
  5
D8
100
AcDbEntity
  8
ALPHA
100
AcDbLine
 10
182.857776
 20
120.765837
 30
0.0
 11
182.857776
 21
115.809956
 31
0.0
  0
LINE
  5
D9
100
AcDbEntity
  8
ALPHA
100
AcDbLine
 10
182.857776
 20
115.809956
 30
0.0
 11
185.311821
 21
115.809956
 31
0.0
  0
LINE
  5
DA
100
AcDbEntity
  8
ALPHA
100
AcDbLine
 10
185.311821
 20
115.809956
 30
0.0
 11
185.857776
 21
117.309956
 31
0.0
  0
LINE
  5
DB
100
AcDbEntity
  8
ALPHA
100
AcDbLine
 10
186.381075
 20
117.309956
 30
0.0
 11
185.857776
 21
117.309956
 31
0.0
  0
LINE
  5
DC
100
AcDbEntity
  8
ALPHA
100
AcDbLine
 10
186.857776
 20
90.309956
 30
0.0
 11
186.857776
 21
116.909956
 31
0.0
  0
LINE
  5
DD
100
AcDbEntity
  8
ALPHA
100
AcDbLine
 10
186.857776
 20
90.309956
 30
0.0
 11
182.73656
 21
88.809956
 31
0.0
  0
LINE
  5
DE
100
AcDbEntity
  8
ALPHA
100
AcDbLine
 10
181.857776
 20
88.809956
 30
0.0
 11
182.73656
 21
88.809956
 31
0.0
  0
LINE
  5
DF
100
AcDbEntity
  8
ALPHA
100
AcDbLine
 10
176.870754
 20
88.809956
 30
0.0
 11
174.11825
 21
89.92204
 31
0.0
  0
LINE
  5
E0
100
AcDbEntity
  8
ALPHA
100
AcDbLine
 10
176.870754
 20
88.809956
 30
0.0
 11
181.857776
 21
88.809956
 31
0.0
  0
LINE
  5
E1
100
AcDbEntity
  8
ALPHA
100
AcDbLine
 10
181.857776
 20
120.809956
 30
0.0
 11
176.870754
 21
120.809956
 31
0.0
  0
LINE
  5
E2
100
AcDbEntity
  8
ALPHA
100
AcDbLine
 10
176.870754
 20
120.809956
 30
0.0
 11
173.715671
 21
119.768858
 31
0.0
  0
LINE
  5
E3
100
AcDbEntity
  8
ALPHA
100
AcDbLine
 10
165.657776
 20
117.109956
 30
0.0
 11
165.657776
 21
120.309956
 31
0.0
  0
LINE
  5
E4
100
AcDbEntity
  8
ALPHA
100
AcDbLine
 10
166.157776
 20
120.809956
 30
0.0
 11
176.870754
 21
120.809956
 31
0.0
  0
LINE
  5
E5
100
AcDbEntity
  8
ALPHA
100
AcDbLine
 10
166.157776
 20
120.809956
 30
0.0
 11
165.657776
 21
120.309956
 31
0.0
  0
LINE
  5
E6
100
AcDbEntity
  8
ALPHA
100
AcDbLine
 10
186.381075
 20
119.483461
 30
0.0
 11
182.857776
 21
120.765837
 31
0.0
  0
LINE
  5
E7
100
AcDbEntity
  8
ALPHA
100
AcDbLine
 10
186.857776
 20
116.909956
 30
0.0
 11
186.381075
 21
117.309956
 31
0.0
  0
LINE
  5
E8
100
AcDbEntity
  8
ALPHA
100
AcDbLine
 10
186.857776
 20
119.309956
 30
0.0
 11
186.857776
 21
116.909956
 31
0.0
  0
LINE
  5
E9
100
AcDbEntity
  8
ALPHA
100
AcDbLine
 10
186.857776
 20
119.309956
 30
0.0
 11
186.381075
 21
119.483461
 31
0.0
  0
LWPOLYLINE
  5
EA
100
AcDbEntity
  8
ALPHA
100
AcDbPolyline
 90
        6
 70
     0
 43
0.0
 10
116.270288
 20
88.009956
 10
116.297268
 20
87.701569
 10
116.32164
 20
87.422991
 10
116.341015
 20
87.201532
 10
116.353476
 20
87.059105
 10
116.357776
 20
87.009956
  0
LINE
  5
F2
100
AcDbEntity
  8
ALPHA
100
AcDbLine
 10
114.677776
 20
88.009956
 30
0.0
 11
116.270288
 21
88.009956
 31
0.0
  0
LINE
  5
F3
100
AcDbEntity
  8
ALPHA
100
AcDbLine
 10
113.057776
 20
92.209956
 30
0.0
 11
111.057776
 21
92.209956
 31
0.0
  0
LINE
  5
F4
100
AcDbEntity
  8
ALPHA
100
AcDbLine
 10
113.057776
 20
90.511371
 30
0.0
 11
111.057776
 21
90.511371
 31
0.0
  0
LWPOLYLINE
  5
F5
100
AcDbEntity
  8
ALPHA
100
AcDbPolyline
 90
        7
 70
     0
 43
0.0
 10
111.862955
 20
125.945741
 10
112.133535
 20
125.957064
 10
112.386794
 20
125.949158
 10
112.607882
 20
125.922065
 10
112.781201
 20
125.877004
 10
112.893529
 20
125.816779
 10
112.936596
 20
125.745058
  0
LINE
  5
FE
100
AcDbEntity
  8
ALPHA
100
AcDbLine
 10
113.057776
 20
91.330523
 30
0.0
 11
111.057776
 21
91.330523
 31
0.0
  0
LINE
  5
FF
100
AcDbEntity
  8
ALPHA
100
AcDbLine
 10
111.787346
 20
126.809956
 30
0.0
 11
111.862955
 21
125.945741
 31
0.0
  0
LWPOLYLINE
  5
100
100
AcDbEntity
  8
ALPHA
100
AcDbPolyline
 90
        7
 70
     0
 43
0.0
 10
111.957776
 20
124.311929
 10
112.242116
 20
124.324344
 10
112.506956
 20
124.335907
 10
112.735311
 20
124.345877
 10
112.91041
 20
124.353522
 10
113.020216
 20
124.358316
 10
113.057776
 20
124.359956
  0
LWPOLYLINE
  5
109
100
AcDbEntity
  8
ALPHA
100
AcDbPolyline
 90
        4
 70
     0
 43
0.0
 10
111.862955
 20
125.945741
 10
111.847032
 20
125.944736
 10
111.831048
 20
125.944133
 10
111.814995
 20
125.943931
  0
LINE
  5
10F
100
AcDbEntity
  8
ALPHA
100
AcDbLine
 10
111.957776
 20
124.311929
 30
0.0
 11
111.814995
 21
125.943931
 31
0.0
  0
LINE
  5
110
100
AcDbEntity
  8
ALPHA
100
AcDbLine
 10
111.957776
 20
123.057323
 30
0.0
 11
111.957776
 21
124.311929
 31
0.0
  0
LWPOLYLINE
  5
111
100
AcDbEntity
  8
ALPHA
100
AcDbPolyline
 90
        8
 70
     0
 43
0.0
 10
111.957776
 20
123.057323
 10
112.000375
 20
122.667362
 10
112.126816
 20
122.294
 10
112.331587
 20
121.955527
 10
112.587916
 20
121.682477
 10
112.856473
 20
121.486917
 10
113.122673
 20
121.351148
 10
113.177776
 20
121.331641
  0
LINE
  5
11B
100
AcDbEntity
  8
ALPHA
100
AcDbLine
 10
114.677776
 20
127.18415
 30
0.0
 11
116.977776
 21
127.18415
 31
0.0
  0
LINE
  5
11C
100
AcDbEntity
  8
ALPHA
100
AcDbLine
 10
114.677776
 20
125.809956
 30
0.0
 11
116.977776
 21
125.809956
 31
0.0
  0
LINE
  5
11D
100
AcDbEntity
  8
ALPHA
100
AcDbLine
 10
119.881075
 20
121.409956
 30
0.0
 11
119.881075
 21
123.133736
 31
0.0
  0
LINE
  5
11E
100
AcDbEntity
  8
ALPHA
100
AcDbLine
 10
113.057776
 20
123.057323
 30
0.0
 11
111.957776
 21
123.057323
 31
0.0
  0
LWPOLYLINE
  5
11F
100
AcDbEntity
  8
ALPHA
100
AcDbPolyline
 90
        3
 70
     0
 43
0.0
 10
113.177776
 20
91.870293
 10
113.092037
 20
91.724564
 10
113.057776
 20
91.537232
  0
LINE
  5
124
100
AcDbEntity
  8
ALPHA
100
AcDbLine
 10
119.181075
 20
118.009956
 30
0.0
 11
119.181075
 21
123.537881
 31
0.0
  0
LINE
  5
125
100
AcDbEntity
  8
ALPHA
100
AcDbLine
 10
111.814995
 20
125.943931
 30
0.0
 11
111.057776
 21
125.943931
 31
0.0
  0
LWPOLYLINE
  5
126
100
AcDbEntity
  8
ALPHA
100
AcDbPolyline
 90
        4
 70
     0
 43
0.0
 10
113.057776
 20
123.057323
 10
113.088711
 20
122.849647
 10
113.174972
 20
122.662918
 10
113.177776
 20
122.659345
  0
LINE
  5
12C
100
AcDbEntity
  8
ALPHA
100
AcDbLine
 10
116.270288
 20
88.009956
 30
0.0
 11
122.857776
 21
89.171508
 31
0.0
  0
LINE
  5
12D
100
AcDbEntity
  8
ALPHA
100
AcDbLine
 10
113.057776
 20
92.792969
 30
0.0
 11
113.177776
 21
92.792969
 31
0.0
  0
ARC
  5
12E
100
AcDbEntity
  8
ALPHA
100
AcDbCircle
 10
117.277776
 20
124.983161
 30
0.0
 40
0.3
100
AcDbArc
 50
180.0
 51
240.0
  0
LINE
  5
12F
100
AcDbEntity
  8
ALPHA
100
AcDbLine
 10
112.843429
 20
126.809956
 30
0.0
 11
112.936596
 21
125.745058
 31
0.0
  0
LINE
  5
130
100
AcDbEntity
  8
ALPHA
100
AcDbLine
 10
111.787346
 20
126.809956
 30
0.0
 11
112.843429
 21
126.809956
 31
0.0
  0
LINE
  5
131
100
AcDbEntity
  8
ALPHA
100
AcDbLine
 10
113.057776
 20
124.359956
 30
0.0
 11
112.936596
 21
125.745058
 31
0.0
  0
LINE
  5
132
100
AcDbEntity
  8
ALPHA
100
AcDbLine
 10
113.057776
 20
123.057323
 30
0.0
 11
113.057776
 21
124.359956
 31
0.0
  0
LINE
  5
133
100
AcDbEntity
  8
ALPHA
100
AcDbLine
 10
114.677776
 20
126.809956
 30
0.0
 11
116.977776
 21
126.809956
 31
0.0
  0
LINE
  5
134
100
AcDbEntity
  8
ALPHA
100
AcDbLine
 10
114.677776
 20
125.809956
 30
0.0
 11
114.677776
 21
126.809956
 31
0.0
  0
LINE
  5
135
100
AcDbEntity
  8
ALPHA
100
AcDbLine
 10
113.177776
 20
92.509956
 30
0.0
 11
113.057776
 21
92.509956
 31
0.0
  0
LINE
  5
136
100
AcDbEntity
  8
ALPHA
100
AcDbLine
 10
113.057776
 20
92.792969
 30
0.0
 11
113.057776
 21
98.009956
 31
0.0
  0
LINE
  5
137
100
AcDbEntity
  8
ALPHA
100
AcDbLine
 10
113.057776
 20
92.792969
 30
0.0
 11
113.057776
 21
92.509956
 31
0.0
  0
LINE
  5
138
100
AcDbEntity
  8
ALPHA
100
AcDbLine
 10
111.057776
 20
126.809956
 30
0.0
 11
111.057776
 21
125.943931
 31
0.0
  0
LINE
  5
139
100
AcDbEntity
  8
ALPHA
100
AcDbLine
 10
111.787346
 20
126.809956
 30
0.0
 11
111.057776
 21
126.809956
 31
0.0
  0
LINE
  5
13A
100
AcDbEntity
  8
ALPHA
100
AcDbLine
 10
113.057776
 20
113.209956
 30
0.0
 11
113.177776
 21
113.089956
 31
0.0
  0
LINE
  5
13B
100
AcDbEntity
  8
ALPHA
100
AcDbLine
 10
113.057776
 20
87.709956
 30
0.0
 11
113.057776
 21
90.511371
 31
0.0
  0
LINE
  5
13C
100
AcDbEntity
  8
ALPHA
100
AcDbLine
 10
113.057776
 20
91.330523
 30
0.0
 11
113.057776
 21
92.209956
 31
0.0
  0
LINE
  5
13D
100
AcDbEntity
  8
ALPHA
100
AcDbLine
 10
113.057776
 20
98.009956
 30
0.0
 11
113.177776
 21
98.129956
 31
0.0
  0
LINE
  5
13E
100
AcDbEntity
  8
ALPHA
100
AcDbLine
 10
120.357776
 20
121.609956
 30
0.0
 11
120.357776
 21
122.858512
 31
0.0
  0
LINE
  5
13F
100
AcDbEntity
  8
ALPHA
100
AcDbLine
 10
119.881075
 20
123.133736
 30
0.0
 11
120.357776
 21
122.858512
 31
0.0
  0
LINE
  5
140
100
AcDbEntity
  8
ALPHA
100
AcDbLine
 10
119.657776
 20
117.609956
 30
0.0
 11
119.181075
 21
118.009956
 31
0.0
  0
LINE
  5
141
100
AcDbEntity
  8
ALPHA
100
AcDbLine
 10
119.657776
 20
118.009956
 30
0.0
 11
119.657776
 21
123.262658
 31
0.0
  0
LINE
  5
142
100
AcDbEntity
  8
ALPHA
100
AcDbLine
 10
119.181075
 20
123.537881
 30
0.0
 11
119.657776
 21
123.262658
 31
0.0
  0
LINE
  5
143
100
AcDbEntity
  8
ALPHA
100
AcDbLine
 10
119.181075
 20
123.537881
 30
0.0
 11
117.127776
 21
124.723354
 31
0.0
  0
LINE
  5
144
100
AcDbEntity
  8
ALPHA
100
AcDbLine
 10
119.881075
 20
123.133736
 30
0.0
 11
119.657776
 21
123.262658
 31
0.0
  0
LINE
  5
145
100
AcDbEntity
  8
ALPHA
100
AcDbLine
 10
118.393286
 20
116.509956
 30
0.0
 11
114.677776
 21
116.509956
 31
0.0
  0
LINE
  5
146
100
AcDbEntity
  8
ALPHA
100
AcDbLine
 10
116.977776
 20
125.809956
 30
0.0
 11
116.977776
 21
124.983161
 31
0.0
  0
ARC
  5
147
100
AcDbEntity
  8
ALPHA
100
AcDbCircle
 10
113.757776
 20
123.059956
 30
0.0
 40
0.7
100
AcDbArc
 50
180.0
 51
195.005433
  0
ARC
  5
148
100
AcDbEntity
  8
ALPHA
100
AcDbCircle
 10
113.757776
 20
123.059956
 30
0.0
 40
0.7
100
AcDbArc
 50
195.005433
 51
209.994567
  0
ARC
  5
149
100
AcDbEntity
  8
ALPHA
100
AcDbCircle
 10
113.757776
 20
123.059956
 30
0.0
 40
0.7
100
AcDbArc
 50
180.0
 51
213.535203
  0
LINE
  5
14A
100
AcDbEntity
  8
ALPHA
100
AcDbLine
 10
111.057776
 20
119.309956
 30
0.0
 11
111.357776
 21
119.009956
 31
0.0
  0
LINE
  5
14B
100
AcDbEntity
  8
ALPHA
100
AcDbLine
 10
111.057776
 20
119.309956
 30
0.0
 11
111.057776
 21
125.943931
 31
0.0
  0
LINE
  5
14C
100
AcDbEntity
  8
ALPHA
100
AcDbLine
 10
113.057776
 20
92.509956
 30
0.0
 11
111.057776
 21
92.509956
 31
0.0
  0
LINE
  5
14D
100
AcDbEntity
  8
ALPHA
100
AcDbLine
 10
111.057776
 20
91.330523
 30
0.0
 11
111.057776
 21
90.511371
 31
0.0
  0
LINE
  5
14E
100
AcDbEntity
  8
ALPHA
100
AcDbLine
 10
113.057776
 20
91.330523
 30
0.0
 11
113.057776
 21
90.511371
 31
0.0
  0
LINE
  5
14F
100
AcDbEntity
  8
ALPHA
100
AcDbLine
 10
113.057776
 20
87.709956
 30
0.0
 11
111.057776
 21
87.709956
 31
0.0
  0
LINE
  5
150
100
AcDbEntity
  8
ALPHA
100
AcDbLine
 10
111.057776
 20
87.709956
 30
0.0
 11
111.057776
 21
90.511371
 31
0.0
  0
LINE
  5
151
100
AcDbEntity
  8
ALPHA
100
AcDbLine
 10
111.057776
 20
91.330523
 30
0.0
 11
111.057776
 21
92.209956
 31
0.0
  0
LINE
  5
152
100
AcDbEntity
  8
ALPHA
100
AcDbLine
 10
120.357776
 20
121.609956
 30
0.0
 11
120.157776
 21
121.409956
 31
0.0
  0
LINE
  5
153
100
AcDbEntity
  8
ALPHA
100
AcDbLine
 10
116.977776
 20
127.181758
 30
0.0
 11
116.977776
 21
126.809956
 31
0.0
  0
LINE
  5
154
100
AcDbEntity
  8
ALPHA
100
AcDbLine
 10
113.057776
 20
119.009956
 30
0.0
 11
111.357776
 21
119.009956
 31
0.0
  0
LINE
  5
155
100
AcDbEntity
  8
ALPHA
100
AcDbLine
 10
113.057776
 20
113.209956
 30
0.0
 11
113.057776
 21
119.009956
 31
0.0
  0
ARC
  5
156
100
AcDbEntity
  8
ALPHA
100
AcDbCircle
 10
122.557776
 20
98.006566
 30
0.0
 40
0.3
100
AcDbArc
 50
0.0
 51
52.5
  0
LINE
  5
157
100
AcDbEntity
  8
ALPHA
100
AcDbLine
 10
122.857776
 20
89.171508
 30
0.0
 11
122.857776
 21
88.156082
 31
0.0
  0
LINE
  5
158
100
AcDbEntity
  8
ALPHA
100
AcDbLine
 10
116.357776
 20
87.009956
 30
0.0
 11
122.857776
 21
88.156082
 31
0.0
  0
LINE
  5
159
100
AcDbEntity
  8
ALPHA
100
AcDbLine
 10
114.677776
 20
87.009956
 30
0.0
 11
116.357776
 21
87.009956
 31
0.0
  0
LINE
  5
15A
100
AcDbEntity
  8
ALPHA
100
AcDbLine
 10
114.677776
 20
87.009956
 30
0.0
 11
114.677776
 21
88.009956
 31
0.0
  0
LINE
  5
15B
100
AcDbEntity
  8
ALPHA
100
AcDbLine
 10
122.857776
 20
89.171508
 30
0.0
 11
122.857776
 21
98.006566
 31
0.0
  0
LINE
  5
15C
100
AcDbEntity
  8
ALPHA
100
AcDbLine
 10
122.740405
 20
98.244572
 30
0.0
 11
119.657776
 21
100.609956
 31
0.0
  0
LINE
  5
15D
100
AcDbEntity
  8
ALPHA
100
AcDbLine
 10
118.657776
 20
118.009956
 30
0.0
 11
119.181075
 21
118.009956
 31
0.0
  0
LINE
  5
15E
100
AcDbEntity
  8
ALPHA
100
AcDbLine
 10
118.393286
 20
116.509956
 30
0.0
 11
118.657776
 21
118.009956
 31
0.0
  0
LINE
  5
15F
100
AcDbEntity
  8
ALPHA
100
AcDbLine
 10
116.977776
 20
128.259956
 30
0.0
 11
114.677776
 21
128.259956
 31
0.0
  0
LINE
  5
160
100
AcDbEntity
  8
ALPHA
100
AcDbLine
 10
116.977776
 20
128.259822
 30
0.0
 11
116.977776
 21
127.181758
 31
0.0
  0
LINE
  5
161
100
AcDbEntity
  8
ALPHA
100
AcDbLine
 10
111.057776
 20
92.509956
 30
0.0
 11
113.057776
 21
92.509956
 31
0.0
  0
LINE
  5
162
100
AcDbEntity
  8
ALPHA
100
AcDbLine
 10
111.057776
 20
92.509956
 30
0.0
 11
111.057776
 21
92.209956
 31
0.0
  0
LINE
  5
163
100
AcDbEntity
  8
ALPHA
100
AcDbLine
 10
114.677776
 20
88.009956
 30
0.0
 11
114.677776
 21
116.509956
 31
0.0
  0
LINE
  5
164
100
AcDbEntity
  8
ALPHA
100
AcDbLine
 10
113.057776
 20
92.509956
 30
0.0
 11
113.057776
 21
92.209956
 31
0.0
  0
LINE
  5
165
100
AcDbEntity
  8
ALPHA
100
AcDbLine
 10
114.677776
 20
116.509956
 30
0.0
 11
114.677776
 21
125.809956
 31
0.0
  0
LINE
  5
166
100
AcDbEntity
  8
ALPHA
100
AcDbLine
 10
114.677776
 20
127.181758
 30
0.0
 11
114.677776
 21
128.259822
 31
0.0
  0
LINE
  5
167
100
AcDbEntity
  8
ALPHA
100
AcDbLine
 10
113.057776
 20
124.359956
 30
0.0
 11
113.057776
 21
123.057323
 31
0.0
  0
LINE
  5
168
100
AcDbEntity
  8
ALPHA
100
AcDbLine
 10
114.677776
 20
126.809956
 30
0.0
 11
116.977776
 21
126.809956
 31
0.0
  0
LINE
  5
169
100
AcDbEntity
  8
ALPHA
100
AcDbLine
 10
116.977776
 20
126.809956
 30
0.0
 11
116.977776
 21
125.809956
 31
0.0
  0
LWPOLYLINE
  5
16A
100
AcDbEntity
  8
ALPHA
100
AcDbPolyline
 90
        4
 70
     0
 43
0.0
 10
113.057776
 20
88.307113
 10
113.078873
 20
88.382923
 10
113.137917
 20
88.447934
 10
113.177776
 20
88.471251
  0
LINE
  5
170
100
AcDbEntity
  8
ALPHA
100
AcDbLine
 10
119.657776
 20
100.609956
 30
0.0
 11
119.657776
 21
117.609956
 31
0.0
  0
LINE
  5
171
100
AcDbEntity
  8
ALPHA
100
AcDbLine
 10
114.677776
 20
126.809956
 30
0.0
 11
114.677776
 21
127.181758
 31
0.0
  0
LWPOLYLINE
  5
172
100
AcDbEntity
  8
ALPHA
100
AcDbPolyline
 90
       10
 70
     0
 43
0.0
 10
110.657776
 20
100.009956
 10
110.657776
 20
100.093514
 10
110.657776
 20
100.341647
 10
110.657776
 20
100.746817
 10
110.657776
 20
101.296712
 10
110.657776
 20
101.974624
 10
110.657776
 20
102.759956
 10
110.657776
 20
103.628845
 10
110.657776
 20
104.554891
 10
110.657776
 20
105.509956
  0
LWPOLYLINE
  5
17E
100
AcDbEntity
  8
ALPHA
100
AcDbPolyline
 90
       10
 70
     0
 43
0.0
 10
99.157776
 20
100.009956
 10
99.157776
 20
100.093514
 10
99.157776
 20
100.341647
 10
99.157776
 20
100.746817
 10
99.157776
 20
101.296712
 10
99.157776
 20
101.974624
 10
99.157776
 20
102.759956
 10
99.157776
 20
103.628845
 10
99.157776
 20
104.554891
 10
99.157776
 20
105.509956
  0
LWPOLYLINE
  5
18A
100
AcDbEntity
  8
ALPHA
100
AcDbPolyline
 90
       10
 70
     0
 43
0.0
 10
110.657776
 20
111.009956
 10
110.657776
 20
110.926399
 10
110.657776
 20
110.678266
 10
110.657776
 20
110.273096
 10
110.657776
 20
109.723201
 10
110.657776
 20
109.045288
 10
110.657776
 20
108.259956
 10
110.657776
 20
107.391067
 10
110.657776
 20
106.465021
 10
110.657776
 20
105.509956
  0
LWPOLYLINE
  5
196
100
AcDbEntity
  8
ALPHA
100
AcDbPolyline
 90
       10
 70
     0
 43
0.0
 10
99.157776
 20
111.009956
 10
99.157776
 20
110.926399
 10
99.157776
 20
110.678266
 10
99.157776
 20
110.273096
 10
99.157776
 20
109.723201
 10
99.157776
 20
109.045288
 10
99.157776
 20
108.259956
 10
99.157776
 20
107.391067
 10
99.157776
 20
106.465021
 10
99.157776
 20
105.509956
  0
LINE
  5
1A2
100
AcDbEntity
  8
ALPHA
100
AcDbLine
 10
94.157776
 20
105.509956
 30
0.0
 11
94.157776
 21
105.009956
 31
0.0
  0
ARC
  5
1A3
100
AcDbEntity
  8
ALPHA
100
AcDbCircle
 10
99.157776
 20
105.009956
 30
0.0
 40
5.0
100
AcDbArc
 50
180.0
 51
270.0
  0
LINE
  5
1A4
100
AcDbEntity
  8
ALPHA
100
AcDbLine
 10
94.157776
 20
105.009956
 30
0.0
 11
94.157776
 21
105.509956
 31
0.0
  0
LINE
  5
1A5
100
AcDbEntity
  8
ALPHA
100
AcDbLine
 10
110.657776
 20
100.009956
 30
0.0
 11
99.157776
 21
100.009956
 31
0.0
  0
LINE
  5
1A6
100
AcDbEntity
  8
ALPHA
100
AcDbLine
 10
111.157776
 20
105.509956
 30
0.0
 11
111.157776
 21
101.000236
 31
0.0
  0
LINE
  5
1A7
100
AcDbEntity
  8
ALPHA
100
AcDbLine
 10
111.157776
 20
100.509956
 30
0.0
 11
111.157776
 21
101.000236
 31
0.0
  0
ARC
  5
1A8
100
AcDbEntity
  8
ALPHA
100
AcDbCircle
 10
110.657776
 20
100.509956
 30
0.0
 40
0.5
100
AcDbArc
 50
270.0
 51
0.0
  0
LINE
  5
1A9
100
AcDbEntity
  8
ALPHA
100
AcDbLine
 10
111.157776
 20
101.009956
 30
0.0
 11
111.157776
 21
105.509956
 31
0.0
  0
LINE
  5
1AA
100
AcDbEntity
  8
ALPHA
100
AcDbLine
 10
111.157776
 20
100.509956
 30
0.0
 11
111.157776
 21
101.009956
 31
0.0
  0
LINE
  5
1AB
100
AcDbEntity
  8
ALPHA
100
AcDbLine
 10
113.177776
 20
101.009956
 30
0.0
 11
111.157776
 21
101.009956
 31
0.0
  0
LINE
  5
1AC
100
AcDbEntity
  8
ALPHA
100
AcDbLine
 10
94.157776
 20
106.009956
 30
0.0
 11
94.157776
 21
105.509956
 31
0.0
  0
ARC
  5
1AD
100
AcDbEntity
  8
ALPHA
100
AcDbCircle
 10
99.157776
 20
106.009956
 30
0.0
 40
5.0
100
AcDbArc
 50
90.0
 51
180.0
  0
LINE
  5
1AE
100
AcDbEntity
  8
ALPHA
100
AcDbLine
 10
94.157776
 20
106.009956
 30
0.0
 11
94.157776
 21
105.509956
 31
0.0
  0
LINE
  5
1AF
100
AcDbEntity
  8
ALPHA
100
AcDbLine
 10
110.657776
 20
111.009956
 30
0.0
 11
99.157776
 21
111.009956
 31
0.0
  0
LINE
  5
1B0
100
AcDbEntity
  8
ALPHA
100
AcDbLine
 10
111.157776
 20
110.019676
 30
0.0
 11
111.157776
 21
110.509956
 31
0.0
  0
LINE
  5
1B1
100
AcDbEntity
  8
ALPHA
100
AcDbLine
 10
111.157776
 20
110.019676
 30
0.0
 11
111.157776
 21
105.509956
 31
0.0
  0
ARC
  5
1B2
100
AcDbEntity
  8
ALPHA
100
AcDbCircle
 10
110.657776
 20
110.509956
 30
0.0
 40
0.5
100
AcDbArc
 50
0.0
 51
90.0
  0
LINE
  5
1B3
100
AcDbEntity
  8
ALPHA
100
AcDbLine
 10
111.157776
 20
110.009956
 30
0.0
 11
111.157776
 21
105.509956
 31
0.0
  0
LINE
  5
1B4
100
AcDbEntity
  8
ALPHA
100
AcDbLine
 10
111.157776
 20
110.509956
 30
0.0
 11
111.157776
 21
110.009956
 31
0.0
  0
LINE
  5
1B5
100
AcDbEntity
  8
ALPHA
100
AcDbLine
 10
113.177776
 20
110.009956
 30
0.0
 11
111.157776
 21
110.009956
 31
0.0
  0
LINE
  5
1B6
100
AcDbEntity
  8
ALPHA
100
AcDbLine
 10
119.657776
 20
104.409956
 30
0.0
 11
119.857776
 21
104.409956
 31
0.0
  0
LINE
  5
1B7
100
AcDbEntity
  8
ALPHA
100
AcDbLine
 10
119.657776
 20
106.609956
 30
0.0
 11
119.857776
 21
106.609956
 31
0.0
  0
LINE
  5
1B8
100
AcDbEntity
  8
ALPHA
100
AcDbLine
 10
163.757776
 20
106.809956
 30
0.0
 11
163.257776
 21
106.809956
 31
0.0
  0
LINE
  5
1B9
100
AcDbEntity
  8
ALPHA
100
AcDbLine
 10
163.257776
 20
102.809956
 30
0.0
 11
163.757776
 21
102.809956
 31
0.0
  0
LINE
  5
1BA
100
AcDbEntity
  8
ALPHA
100
AcDbLine
 10
164.457776
 20
117.609956
 30
0.0
 11
164.457776
 21
120.409956
 31
0.0
  0
LINE
  5
1BB
100
AcDbEntity
  8
ALPHA
100
AcDbLine
 10
164.457776
 20
120.409956
 30
0.0
 11
161.189827
 21
120.409956
 31
0.0
  0
LINE
  5
1BC
100
AcDbEntity
  8
ALPHA
100
AcDbLine
 10
159.457776
 20
119.409956
 30
0.0
 11
159.457776
 21
118.097779
 31
0.0
  0
LINE
  5
1BD
100
AcDbEntity
  8
ALPHA
100
AcDbLine
 10
159.457776
 20
118.097779
 30
0.0
 11
161.71142
 21
116.206747
 31
0.0
  0
ARC
  5
1BE
100
AcDbEntity
  8
ALPHA
100
AcDbCircle
 10
161.839978
 20
116.359956
 30
0.0
 40
0.2
100
AcDbArc
 50
230.0
 51
340.0
  0
LINE
  5
1BF
100
AcDbEntity
  8
ALPHA
100
AcDbLine
 10
162.027916
 20
116.291552
 30
0.0
 11
162.507776
 21
117.609956
 31
0.0
  0
LINE
  5
1C0
100
AcDbEntity
  8
ALPHA
100
AcDbLine
 10
159.457776
 20
119.409956
 30
0.0
 11
161.189827
 21
120.409956
 31
0.0
  0
LINE
  5
1C1
100
AcDbEntity
  8
ALPHA
100
AcDbLine
 10
164.457776
 20
117.609956
 30
0.0
 11
162.507776
 21
117.609956
 31
0.0
  0
LINE
  5
1C2
100
AcDbEntity
  8
ALPHA
100
AcDbLine
 10
165.557776
 20
120.409956
 30
0.0
 11
165.557776
 21
117.609956
 31
0.0
  0
LINE
  5
1C3
100
AcDbEntity
  8
ALPHA
100
AcDbLine
 10
165.557776
 20
117.609956
 30
0.0
 11
165.557776
 21
117.109956
 31
0.0
  0
LINE
  5
1C4
100
AcDbEntity
  8
ALPHA
100
AcDbLine
 10
164.757776
 20
117.609956
 30
0.0
 11
164.757776
 21
117.109956
 31
0.0
  0
LINE
  5
1C5
100
AcDbEntity
  8
ALPHA
100
AcDbLine
 10
165.557776
 20
120.409956
 30
0.0
 11
165.557776
 21
117.609956
 31
0.0
  0
LINE
  5
1C6
100
AcDbEntity
  8
ALPHA
100
AcDbLine
 10
164.757776
 20
120.409956
 30
0.0
 11
164.457776
 21
120.409956
 31
0.0
  0
LINE
  5
1C7
100
AcDbEntity
  8
ALPHA
100
AcDbLine
 10
165.557776
 20
120.409956
 30
0.0
 11
164.757776
 21
120.409956
 31
0.0
  0
LINE
  5
1C8
100
AcDbEntity
  8
ALPHA
100
AcDbLine
 10
164.757776
 20
117.609956
 30
0.0
 11
164.457776
 21
117.609956
 31
0.0
  0
LINE
  5
1C9
100
AcDbEntity
  8
ALPHA
100
AcDbLine
 10
165.557776
 20
117.609956
 30
0.0
 11
164.757776
 21
117.609956
 31
0.0
  0
LINE
  5
1CA
100
AcDbEntity
  8
ALPHA
100
AcDbLine
 10
121.557776
 20
118.009956
 30
0.0
 11
121.557776
 21
121.409956
 31
0.0
  0
LINE
  5
1CB
100
AcDbEntity
  8
ALPHA
100
AcDbLine
 10
121.557776
 20
121.409956
 30
0.0
 11
119.657776
 21
121.409956
 31
0.0
  0
LINE
  5
1CC
100
AcDbEntity
  8
ALPHA
100
AcDbLine
 10
122.857776
 20
121.409956
 30
0.0
 11
122.857776
 21
118.009956
 31
0.0
  0
LINE
  5
1CD
100
AcDbEntity
  8
ALPHA
100
AcDbLine
 10
122.857776
 20
121.409956
 30
0.0
 11
122.857776
 21
118.009956
 31
0.0
  0
LINE
  5
1CE
100
AcDbEntity
  8
ALPHA
100
AcDbLine
 10
122.057776
 20
121.409956
 30
0.0
 11
121.557776
 21
121.409956
 31
0.0
  0
LINE
  5
1CF
100
AcDbEntity
  8
ALPHA
100
AcDbLine
 10
122.857776
 20
121.409956
 30
0.0
 11
122.057776
 21
121.409956
 31
0.0
  0
LWPOLYLINE
  5
1D0
100
AcDbEntity
  8
ALPHA
100
AcDbPolyline
 90
        6
 70
     0
 43
0.0
 10
113.194916
 20
123.249066
 10
113.214484
 20
123.369871
 10
113.321013
 20
123.574306
 10
113.486937
 20
123.736547
 10
113.696013
 20
123.840712
 10
113.927776
 20
123.876604
  0
LINE
  5
1D8
100
AcDbEntity
  8
ALPHA
100
AcDbLine
 10
113.18204
 20
123.169579
 30
0.0
 11
113.194916
 21
123.249066
 31
0.0
  0
LINE
  5
1D9
100
AcDbEntity
  8
ALPHA
100
AcDbLine
 10
113.177776
 20
123.143253
 30
0.0
 11
113.18204
 21
123.169579
 31
0.0
  0
LWPOLYLINE
  5
1DA
100
AcDbEntity
  8
ALPHA
100
AcDbPolyline
 90
        6
 70
     0
 43
0.0
 10
113.182446
 20
123.838462
 10
113.214484
 20
124.036252
 10
113.321013
 20
124.240687
 10
113.486937
 20
124.402928
 10
113.696013
 20
124.507093
 10
113.927776
 20
124.542986
  0
LINE
  5
1E2
100
AcDbEntity
  8
ALPHA
100
AcDbLine
 10
113.177776
 20
123.809634
 30
0.0
 11
113.182446
 21
123.838462
 31
0.0
  0
LWPOLYLINE
  5
1E3
100
AcDbEntity
  8
ALPHA
100
AcDbPolyline
 90
        6
 70
     0
 43
0.0
 10
113.927776
 20
121.109873
 10
114.159539
 20
121.109874
 10
114.368615
 20
121.109877
 10
114.534539
 20
121.109882
 10
114.641069
 20
121.109888
 10
114.677776
 20
121.109895
  0
LWPOLYLINE
  5
1EB
100
AcDbEntity
  8
ALPHA
100
AcDbPolyline
 90
        6
 70
     0
 43
0.0
 10
113.177776
 20
121.109895
 10
113.214484
 20
121.109888
 10
113.321013
 20
121.109882
 10
113.486937
 20
121.109877
 10
113.696013
 20
121.109874
 10
113.927776
 20
121.109873
  0
LWPOLYLINE
  5
1F3
100
AcDbEntity
  8
ALPHA
100
AcDbPolyline
 90
        6
 70
     0
 43
0.0
 10
113.927776
 20
124.542986
 10
114.159539
 20
124.507093
 10
114.368615
 20
124.402928
 10
114.534539
 20
124.240687
 10
114.641069
 20
124.036252
 10
114.677776
 20
123.809634
  0
LWPOLYLINE
  5
1FB
100
AcDbEntity
  8
ALPHA
100
AcDbPolyline
 90
        6
 70
     0
 43
0.0
 10
113.177776
 20
92.442946
 10
113.214484
 20
92.442939
 10
113.321013
 20
92.442933
 10
113.486937
 20
92.442928
 10
113.696013
 20
92.442924
 10
113.927776
 20
92.442923
  0
LINE
  5
203
100
AcDbEntity
  8
ALPHA
100
AcDbLine
 10
114.673512
 20
123.169579
 30
0.0
 11
114.677776
 21
123.143253
 31
0.0
  0
LINE
  5
204
100
AcDbEntity
  8
ALPHA
100
AcDbLine
 10
114.660637
 20
123.249066
 30
0.0
 11
114.673512
 21
123.169579
 31
0.0
  0
LWPOLYLINE
  5
205
100
AcDbEntity
  8
ALPHA
100
AcDbPolyline
 90
        6
 70
     0
 43
0.0
 10
113.927776
 20
123.876604
 10
114.159539
 20
123.840712
 10
114.368615
 20
123.736547
 10
114.534539
 20
123.574306
 10
114.641069
 20
123.369871
 10
114.660637
 20
123.249066
  0
LWPOLYLINE
  5
20D
100
AcDbEntity
  8
ALPHA
100
AcDbPolyline
 90
        6
 70
     0
 43
0.0
 10
113.177776
 20
91.143931
 10
113.214484
 20
90.943215
 10
113.321013
 20
90.762146
 10
113.486937
 20
90.61845
 10
113.696013
 20
90.526191
 10
113.927776
 20
90.4944
  0
LWPOLYLINE
  5
215
100
AcDbEntity
  8
ALPHA
100
AcDbPolyline
 90
        6
 70
     0
 43
0.0
 10
113.927776
 20
92.442923
 10
114.159539
 20
92.442924
 10
114.368615
 20
92.442928
 10
114.534539
 20
92.442933
 10
114.641069
 20
92.442939
 10
114.677776
 20
92.442946
  0
LWPOLYLINE
  5
21D
100
AcDbEntity
  8
ALPHA
100
AcDbPolyline
 90
        6
 70
     0
 43
0.0
 10
113.927776
 20
90.4944
 10
114.159539
 20
90.526191
 10
114.368615
 20
90.61845
 10
114.534539
 20
90.762146
 10
114.641069
 20
90.943215
 10
114.677776
 20
91.143931
  0
LINE
  5
225
100
AcDbEntity
  8
ALPHA
100
AcDbLine
 10
113.177776
 20
123.109956
 30
0.0
 11
113.177776
 21
123.143253
 31
0.0
  0
ARC
  5
226
100
AcDbEntity
  8
AXE
100
AcDbCircle
 10
113.927776
 20
123.109956
 30
0.0
 40
0.75
100
AcDbArc
 50
72.764491
 51
90.0
  0
ARC
  5
227
100
AcDbEntity
  8
AXE
100
AcDbCircle
 10
113.927776
 20
123.109956
 30
0.0
 40
0.75
100
AcDbArc
 50
67.098929
 51
72.764491
  0
ARC
  5
228
100
AcDbEntity
  8
ALPHA
100
AcDbCircle
 10
113.927776
 20
123.109956
 30
0.0
 40
0.75
100
AcDbArc
 50
55.522078
 51
67.098929
  0
ARC
  5
229
100
AcDbEntity
  8
ALPHA
100
AcDbCircle
 10
113.927776
 20
123.109956
 30
0.0
 40
0.75
100
AcDbArc
 50
48.777542
 51
55.522078
  0
ARC
  5
22A
100
AcDbEntity
  8
ALPHA
100
AcDbCircle
 10
113.927776
 20
123.109956
 30
0.0
 40
0.75
100
AcDbArc
 50
38.268355
 51
48.777542
  0
ARC
  5
22B
100
AcDbEntity
  8
ALPHA
100
AcDbCircle
 10
113.927776
 20
123.109956
 30
0.0
 40
0.75
100
AcDbArc
 50
31.109637
 51
38.268355
  0
ARC
  5
22C
100
AcDbEntity
  8
ALPHA
100
AcDbCircle
 10
113.927776
 20
123.109956
 30
0.0
 40
0.75
100
AcDbArc
 50
20.996429
 51
31.109637
  0
ARC
  5
22D
100
AcDbEntity
  8
ALPHA
100
AcDbCircle
 10
113.927776
 20
123.109956
 30
0.0
 40
0.75
100
AcDbArc
 50
13.658673
 51
20.996429
  0
ARC
  5
22E
100
AcDbEntity
  8
ALPHA
100
AcDbCircle
 10
113.927776
 20
123.109956
 30
0.0
 40
0.75
100
AcDbArc
 50
0.0
 51
13.658673
  0
LINE
  5
22F
100
AcDbEntity
  8
ALPHA
100
AcDbLine
 10
113.177776
 20
123.143253
 30
0.0
 11
113.177776
 21
123.809634
 31
0.0
  0
LINE
  5
230
100
AcDbEntity
  8
ALPHA
100
AcDbLine
 10
113.177776
 20
123.809634
 30
0.0
 11
113.177776
 21
123.839218
 31
0.0
  0
LINE
  5
231
100
AcDbEntity
  8
ALPHA
100
AcDbLine
 10
113.177776
 20
123.839218
 30
0.0
 11
113.177776
 21
123.84293
 31
0.0
  0
ARC
  5
232
100
AcDbEntity
  8
ALPHA
100
AcDbCircle
 10
113.927776
 20
123.84293
 30
0.0
 40
0.75
100
AcDbArc
 50
90.0
 51
180.0
  0
ARC
  5
233
100
AcDbEntity
  8
ALPHA
100
AcDbCircle
 10
113.927776
 20
123.109956
 30
0.0
 40
0.75
100
AcDbArc
 50
166.341327
 51
180.0
  0
ARC
  5
234
100
AcDbEntity
  8
ALPHA
100
AcDbCircle
 10
113.927776
 20
123.109956
 30
0.0
 40
0.75
100
AcDbArc
 50
159.003571
 51
166.341327
  0
ARC
  5
235
100
AcDbEntity
  8
ALPHA
100
AcDbCircle
 10
113.927776
 20
123.109956
 30
0.0
 40
0.75
100
AcDbArc
 50
148.890363
 51
159.003571
  0
ARC
  5
236
100
AcDbEntity
  8
ALPHA
100
AcDbCircle
 10
113.927776
 20
123.109956
 30
0.0
 40
0.75
100
AcDbArc
 50
141.731645
 51
148.890363
  0
ARC
  5
237
100
AcDbEntity
  8
ALPHA
100
AcDbCircle
 10
113.927776
 20
123.109956
 30
0.0
 40
0.75
100
AcDbArc
 50
131.222458
 51
141.731645
  0
ARC
  5
238
100
AcDbEntity
  8
ALPHA
100
AcDbCircle
 10
113.927776
 20
123.109956
 30
0.0
 40
0.75
100
AcDbArc
 50
124.477922
 51
131.222458
  0
ARC
  5
239
100
AcDbEntity
  8
ALPHA
100
AcDbCircle
 10
113.927776
 20
123.109956
 30
0.0
 40
0.75
100
AcDbArc
 50
112.901071
 51
124.477922
  0
ARC
  5
23A
100
AcDbEntity
  8
ALPHA
100
AcDbCircle
 10
113.927776
 20
123.109956
 30
0.0
 40
0.75
100
AcDbArc
 50
107.235509
 51
112.901071
  0
ARC
  5
23B
100
AcDbEntity
  8
AXE
100
AcDbCircle
 10
113.927776
 20
123.109956
 30
0.0
 40
0.75
100
AcDbArc
 50
90.0
 51
107.235509
  0
ARC
  5
23C
100
AcDbEntity
  8
AXE
100
AcDbCircle
 10
113.927776
 20
123.109956
 30
0.0
 40
0.75
100
AcDbArc
 50
90.0
 51
107.214246
  0
ARC
  5
23D
100
AcDbEntity
  8
ALPHA
100
AcDbCircle
 10
113.927776
 20
123.109956
 30
0.0
 40
0.75
100
AcDbArc
 50
107.214246
 51
112.917115
  0
ARC
  5
23E
100
AcDbEntity
  8
ALPHA
100
AcDbCircle
 10
113.927776
 20
123.109956
 30
0.0
 40
0.75
100
AcDbArc
 50
112.917115
 51
124.441854
  0
ARC
  5
23F
100
AcDbEntity
  8
ALPHA
100
AcDbCircle
 10
113.927776
 20
123.109956
 30
0.0
 40
0.75
100
AcDbArc
 50
124.441854
 51
131.250277
  0
ARC
  5
240
100
AcDbEntity
  8
ALPHA
100
AcDbCircle
 10
113.927776
 20
123.109956
 30
0.0
 40
0.75
100
AcDbArc
 50
131.250277
 51
141.686524
  0
ARC
  5
241
100
AcDbEntity
  8
ALPHA
100
AcDbCircle
 10
113.927776
 20
123.109956
 30
0.0
 40
0.75
100
AcDbArc
 50
141.686524
 51
148.927829
  0
ARC
  5
242
100
AcDbEntity
  8
ALPHA
100
AcDbCircle
 10
113.927776
 20
123.109956
 30
0.0
 40
0.75
100
AcDbArc
 50
148.927829
 51
158.954457
  0
ARC
  5
243
100
AcDbEntity
  8
ALPHA
100
AcDbCircle
 10
113.927776
 20
123.109956
 30
0.0
 40
0.75
100
AcDbArc
 50
158.954457
 51
166.385959
  0
ARC
  5
244
100
AcDbEntity
  8
ALPHA
100
AcDbCircle
 10
113.927776
 20
123.109956
 30
0.0
 40
0.75
100
AcDbArc
 50
166.385959
 51
180.0
  0
LINE
  5
245
100
AcDbEntity
  8
ALPHA
100
AcDbLine
 10
113.177776
 20
123.109956
 30
0.0
 11
113.177776
 21
121.109895
 31
0.0
  0
LINE
  5
246
100
AcDbEntity
  8
ALPHA
100
AcDbLine
 10
113.177776
 20
92.442946
 30
0.0
 11
113.177776
 21
121.109895
 31
0.0
  0
ARC
  5
247
100
AcDbEntity
  8
ALPHA
100
AcDbCircle
 10
113.927776
 20
123.84293
 30
0.0
 40
0.75
100
AcDbArc
 50
0.0
 51
90.0
  0
LINE
  5
248
100
AcDbEntity
  8
ALPHA
100
AcDbLine
 10
113.177776
 20
92.442946
 30
0.0
 11
113.177776
 21
91.143931
 31
0.0
  0
LWPOLYLINE
  5
249
100
AcDbEntity
  8
ALPHA
100
AcDbPolyline
 90
        6
 70
     0
 43
0.0
 10
113.177776
 20
87.960605
 10
113.214484
 20
87.759889
 10
113.321013
 20
87.578821
 10
113.486937
 20
87.435124
 10
113.696013
 20
87.342865
 10
113.927776
 20
87.311075
  0
LINE
  5
251
100
AcDbEntity
  8
ALPHA
100
AcDbLine
 10
113.177776
 20
87.960605
 30
0.0
 11
113.177776
 21
91.143931
 31
0.0
  0
ARC
  5
252
100
AcDbEntity
  8
ALPHA
100
AcDbCircle
 10
113.927776
 20
123.109956
 30
0.0
 40
0.75
100
AcDbArc
 50
0.0
 51
13.614041
  0
ARC
  5
253
100
AcDbEntity
  8
ALPHA
100
AcDbCircle
 10
113.927776
 20
123.109956
 30
0.0
 40
0.75
100
AcDbArc
 50
13.614041
 51
21.045543
  0
ARC
  5
254
100
AcDbEntity
  8
ALPHA
100
AcDbCircle
 10
113.927776
 20
123.109956
 30
0.0
 40
0.75
100
AcDbArc
 50
21.045543
 51
31.072171
  0
ARC
  5
255
100
AcDbEntity
  8
ALPHA
100
AcDbCircle
 10
113.927776
 20
123.109956
 30
0.0
 40
0.75
100
AcDbArc
 50
31.072171
 51
38.313476
  0
ARC
  5
256
100
AcDbEntity
  8
ALPHA
100
AcDbCircle
 10
113.927776
 20
123.109956
 30
0.0
 40
0.75
100
AcDbArc
 50
38.313476
 51
48.749723
  0
ARC
  5
257
100
AcDbEntity
  8
ALPHA
100
AcDbCircle
 10
113.927776
 20
123.109956
 30
0.0
 40
0.75
100
AcDbArc
 50
48.749723
 51
55.558146
  0
ARC
  5
258
100
AcDbEntity
  8
ALPHA
100
AcDbCircle
 10
113.927776
 20
123.109956
 30
0.0
 40
0.75
100
AcDbArc
 50
55.558146
 51
67.082885
  0
ARC
  5
259
100
AcDbEntity
  8
AXE
100
AcDbCircle
 10
113.927776
 20
123.109956
 30
0.0
 40
0.75
100
AcDbArc
 50
67.082885
 51
72.785754
  0
ARC
  5
25A
100
AcDbEntity
  8
AXE
100
AcDbCircle
 10
113.927776
 20
123.109956
 30
0.0
 40
0.75
100
AcDbArc
 50
72.785754
 51
90.0
  0
LWPOLYLINE
  5
25B
100
AcDbEntity
  8
ALPHA
100
AcDbPolyline
 90
        6
 70
     0
 43
0.0
 10
113.927776
 20
87.311075
 10
114.159539
 20
87.342865
 10
114.368615
 20
87.435124
 10
114.534539
 20
87.578821
 10
114.641069
 20
87.759889
 10
114.677776
 20
87.960605
  0
ENDSEC
  0
SECTION
  2
OBJECTS
  0
DICTIONARY
  5
361
100
AcDbDictionary
  3
ACAD_GROUP
350
362
  3
ACAD_MLINESTYLE
350
36F
  3
ACDBVARIABLEDICTIONARY
350
37F
  0
DICTIONARY
  5
362
102
{ACAD_REACTORS
330
361
102
}
100
AcDbDictionary
  0
DICTIONARY
  5
36F
102
{ACAD_REACTORS
330
361
102
}
100
AcDbDictionary
  3
STANDARD
350
370
  0
DICTIONARY
  5
37F
102
{ACAD_REACTORS
330
361
102
}
100
AcDbDictionary
  3
DIMADEC
350
380
  0
MLINESTYLE
  5
370
102
{ACAD_REACTORS
330
36F
102
}
100
AcDbMlineStyle
  2
STANDARD
 70
     0
  3

 62
   256
 51
90.0
 52
90.0
 71
     2
 49
0.5
 62
   256
  6
BYLAYER
 49
-0.5
 62
   256
  6
BYLAYER
  0
DICTIONARYVAR
  5
380
102
{ACAD_REACTORS
330
37F
102
}
100
DictionaryVariables
280
     0
  1
0
  0
ENDSEC
  0
EOF
