  0
SECTION
  2
HEADER
  9
$ACADVER
  1
AC1014
  9
$ACADMAINTVER
 70
     9
  9
$DWGCODEPAGE
  3
ANSI_1252
  9
$INSBASE
 10
0.0
 20
0.0
 30
0.0
  9
$EXTMIN
 10
0.0
 20
0.0
 30
0.0
  9
$EXTMAX
 10
65.60000400000001
 20
41.0
 30
0.0
  9
$LIMMIN
 10
0.0
 20
0.0
  9
$LIMMAX
 10
16.40000099999999
 20
10.25
  9
$ORTHOMODE
 70
     0
  9
$REGENMODE
 70
     1
  9
$FILLMODE
 70
     1
  9
$QTEXTMODE
 70
     0
  9
$MIRRTEXT
 70
     1
  9
$DRAGMODE
 70
     2
  9
$LTSCALE
 40
1.0
  9
$OSMODE
 70
   237
  9
$ATTMODE
 70
     1
  9
$TEXTSIZE
 40
0.2
  9
$TRACEWID
 40
0.05
  9
$TEXTSTYLE
  7
ROMANS
  9
$CLAYER
  8
0
  9
$CELTYPE
  6
BYLAYER
  9
$CECOLOR
 62
   256
  9
$CELTSCALE
 40
1.0
  9
$DELOBJ
 70
     1
  9
$DISPSILH
 70
     0
  9
$DIMSCALE
 40
0.0
  9
$DIMASZ
 40
0.07
  9
$DIMEXO
 40
0.0625
  9
$DIMDLI
 40
0.38
  9
$DIMRND
 40
0.001
  9
$DIMDLE
 40
0.0
  9
$DIMEXE
 40
0.0625
  9
$DIMTP
 40
0.0
  9
$DIMTM
 40
0.0
  9
$DIMTXT
 40
0.1
  9
$DIMCEN
 40
0.09
  9
$DIMTSZ
 40
0.0
  9
$DIMTOL
 70
     0
  9
$DIMLIM
 70
     0
  9
$DIMTIH
 70
     1
  9
$DIMTOH
 70
     1
  9
$DIMSE1
 70
     0
  9
$DIMSE2
 70
     0
  9
$DIMTAD
 70
     0
  9
$DIMZIN
 70
     4
  9
$DIMBLK
  1
SEARROW
  9
$DIMASO
 70
     1
  9
$DIMSHO
 70
     1
  9
$DIMPOST
  1
\P{\H0.8x;
  9
$DIMAPOST
  1

  9
$DIMALT
 70
     1
  9
$DIMALTD
 70
     0
  9
$DIMALTF
 40
25.4
  9
$DIMLFAC
 40
1.0
  9
$DIMTOFL
 70
     0
  9
$DIMTVP
 40
0.0
  9
$DIMTIX
 70
     0
  9
$DIMSOXD
 70
     0
  9
$DIMSAH
 70
     0
  9
$DIMBLK1
  1

  9
$DIMBLK2
  1

  9
$DIMSTYLE
  2
SCHNEIDERELECTRIC_DUAL_BEL
  9
$DIMCLRD
 70
   256
  9
$DIMCLRE
 70
   256
  9
$DIMCLRT
 70
   256
  9
$DIMTFAC
 40
1.0
  9
$DIMGAP
 40
0.04
  9
$DIMJUST
 70
     0
  9
$DIMSD1
 70
     0
  9
$DIMSD2
 70
     0
  9
$DIMTOLJ
 70
     1
  9
$DIMTZIN
 70
     0
  9
$DIMALTZ
 70
     4
  9
$DIMALTTZ
 70
     0
  9
$DIMFIT
 70
     3
  9
$DIMUPT
 70
     0
  9
$DIMUNIT
 70
     2
  9
$DIMDEC
 70
     2
  9
$DIMTDEC
 70
     2
  9
$DIMALTU
 70
     2
  9
$DIMALTTD
 70
     0
  9
$DIMTXSTY
  7
ROMANS
  9
$DIMAUNIT
 70
     0
  9
$LUNITS
 70
     2
  9
$LUPREC
 70
     4
  9
$SKETCHINC
 40
0.1
  9
$FILLETRAD
 40
0.5
  9
$AUNITS
 70
     0
  9
$AUPREC
 70
     0
  9
$MENU
  1
.
  9
$ELEVATION
 40
0.0
  9
$PELEVATION
 40
0.0
  9
$THICKNESS
 40
0.0
  9
$LIMCHECK
 70
     0
  9
$BLIPMODE
 70
     0
  9
$CHAMFERA
 40
0.5
  9
$CHAMFERB
 40
0.5
  9
$CHAMFERC
 40
1.0
  9
$CHAMFERD
 40
0.0
  9
$SKPOLY
 70
     0
  9
$TDCREATE
 40
2451764.618375243
  9
$TDUPDATE
 40
2453038.342257488
  9
$TDINDWG
 40
0.3717207523
  9
$TDUSRTIMER
 40
0.3717205208
  9
$USRTIMER
 70
     1
  9
$ANGBASE
 50
0.0
  9
$ANGDIR
 70
     0
  9
$PDMODE
 70
     0
  9
$PDSIZE
 40
0.0
  9
$PLINEWID
 40
0.0
  9
$COORDS
 70
     0
  9
$SPLFRAME
 70
     0
  9
$SPLINETYPE
 70
     6
  9
$SPLINESEGS
 70
     8
  9
$ATTDIA
 70
     0
  9
$ATTREQ
 70
     1
  9
$HANDLING
 70
 22529
  9
$HANDSEED
  5
771B
  9
$SURFTAB1
 70
     6
  9
$SURFTAB2
 70
     6
  9
$SURFTYPE
 70
     6
  9
$SURFU
 70
     6
  9
$SURFV
 70
     6
  9
$UCSNAME
  2

  9
$UCSORG
 10
0.0
 20
0.0
 30
0.0
  9
$UCSXDIR
 10
1.0
 20
0.0
 30
0.0
  9
$UCSYDIR
 10
0.0
 20
1.0
 30
0.0
  9
$PUCSNAME
  2

  9
$PUCSORG
 10
0.0
 20
0.0
 30
0.0
  9
$PUCSXDIR
 10
1.0
 20
0.0
 30
0.0
  9
$PUCSYDIR
 10
0.0
 20
1.0
 30
0.0
  9
$USERI1
 70
     0
  9
$USERI2
 70
     0
  9
$USERI3
 70
     0
  9
$USERI4
 70
     0
  9
$USERI5
 70
     0
  9
$USERR1
 40
0.0
  9
$USERR2
 40
0.0
  9
$USERR3
 40
0.0
  9
$USERR4
 40
0.0
  9
$USERR5
 40
0.0
  9
$WORLDVIEW
 70
     1
  9
$SHADEDGE
 70
     3
  9
$SHADEDIF
 70
    70
  9
$TILEMODE
 70
     0
  9
$MAXACTVP
 70
    48
  9
$PINSBASE
 10
0.0
 20
0.0
 30
0.0
  9
$PLIMCHECK
 70
     0
  9
$PEXTMIN
 10
-0.0003731006096999
 20
-0.1508995760936145
 30
-0.0015258207003583
  9
$PEXTMAX
 10
16.40104960743132
 20
10.25019860681946
 30
0.0000000349246037
  9
$PLIMMIN
 10
-0.4423268499965924
 20
-1.629973967074235
  9
$PLIMMAX
 10
16.8430045073166
 20
11.72687290503154
  9
$UNITMODE
 70
     0
  9
$VISRETAIN
 70
     1
  9
$PLINEGEN
 70
     0
  9
$PSLTSCALE
 70
     1
  9
$TREEDEPTH
 70
  3020
  9
$PICKSTYLE
 70
     1
  9
$CMLSTYLE
  2
STANDARD
  9
$CMLJUST
 70
     0
  9
$CMLSCALE
 40
1.0
  9
$PROXYGRAPHICS
 70
     1
  9
$MEASUREMENT
 70
     0
  0
ENDSEC
  0
SECTION
  2
CLASSES
  0
CLASS
  1
ACDBDICTIONARYWDFLT
  2
AcDbDictionaryWithDefault
  3
AutoCAD 2000
 90
        0
280
     0
281
     0
  0
CLASS
  1
ACDBPLACEHOLDER
  2
AcDbPlaceHolder
  3
AutoCAD 2000
 90
        0
280
     0
281
     0
  0
CLASS
  1
LAYOUT
  2
AcDbLayout
  3
AutoCAD 2000
 90
        0
280
     0
281
     0
  0
CLASS
  1
LONG_TRANSACTION
  2
AcDbLongTransaction
  3
AutoCAD 2000
 90
        0
280
     0
281
     0
  0
CLASS
  1
LWPOLYLINE
  2
AcDbPolyline
  3
AutoCAD 2000
 90
        0
280
     0
281
     1
  0
CLASS
  1
HATCH
  2
AcDbHatch
  3
AutoCAD 2000
 90
        0
280
     0
281
     1
  0
CLASS
  1
XRECORD
  2
AcDbXrecord
  3
AutoCAD 2000
 90
        0
280
     0
281
     0
  0
CLASS
  1
LONG_TRANSACTION
  2
AcDbLongTransaction
  3
AutoCAD 2000
 90
        0
280
     0
281
     0
  0
CLASS
  1
LWPOLYLINE
  2
AcDbPolyline
  3
AutoCAD 2000
 90
        0
280
     0
281
     1
  0
CLASS
  1
HATCH
  2
AcDbHatch
  3
AutoCAD 2000
 90
        0
280
     0
281
     1
  0
CLASS
  1
XRECORD
  2
AcDbXrecord
  3
AutoCAD 2000
 90
        0
280
     0
281
     0
  0
CLASS
  1
LONG_TRANSACTION
  2
AcDbLongTransaction
  3
AutoCAD 2000
 90
        0
280
     0
281
     0
  0
CLASS
  1
LWPOLYLINE
  2
AcDbPolyline
  3
AutoCAD 2000
 90
        0
280
     0
281
     1
  0
CLASS
  1
HATCH
  2
AcDbHatch
  3
AutoCAD 2000
 90
        0
280
     0
281
     1
  0
CLASS
  1
XRECORD
  2
AcDbXrecord
  3
AutoCAD 2000
 90
        0
280
     0
281
     0
  0
CLASS
  1
PLOTSETTINGS
  2
AcDbPlotSettings
  3
AutoCAD 2000
 90
        0
280
     0
281
     0
  0
CLASS
  1
ACME_DOCUMENT
  2
AcMeDbDoc
  3
AcMeServices
 90
        0
280
     0
281
     0
  0
CLASS
  1
AMGSETTINGSOBJ
  2
AmgSettingsObj
  3
"AcadM|Product Description: AutoCAD Mechanical 2000|Company: Autodesk"
 90
        0
280
     0
281
     0
  0
CLASS
  1
ACMESCOPE
  2
AcMeScope
  3
AcMeServices
 90
        0
280
     0
281
     0
  0
CLASS
  1
ACMECOMMANDHISTORY
  2
AcMeCommandHistory
  3
AcMeServices
 90
        0
280
     0
281
     0
  0
CLASS
  1
DICTIONARYVAR
  2
AcDbDictionaryVar
  3
AutoCAD 2000
 90
        0
280
     0
281
     0
  0
CLASS
  1
ACIMSYSVARMAN
  2
AcImSysVarManager
  3
AcMeServices
 90
        0
280
     0
281
     0
  0
CLASS
  1
ACIMREALSYSVAR
  2
AcImRealSysVar
  3
AcMeServices
 90
        0
280
     0
281
     0
  0
CLASS
  1
ACIMINTSYSVAR
  2
AcImIntSysVar
  3
AcMeServices
 90
        0
280
     0
281
     0
  0
CLASS
  1
ACMEDRAWINGMAN
  2
AcMeDrawingMan
  3
AcMeServices
 90
        0
280
     0
281
     0
  0
CLASS
  1
ACMEVIEW
  2
AcMeView
  3
AcMeServices
 90
        0
280
     0
281
     0
  0
CLASS
  1
ACDBENTITYCACHE
  2
AcMeEntityCache
  3
AcMeServices
 90
        0
280
     0
281
     0
  0
CLASS
  1
GSMANAGER
  2
AcMeGSManager
  3
AcMeServices
 90
        0
280
     0
281
     0
  0
CLASS
  1
AmdtInternalReactor
  2
AmdtInternalReactor
  3
AcMeServices
 90
        0
280
     0
281
     0
  0
CLASS
  1
ACMESTATEMGR
  2
AcMeStateMgr
  3
AcMeServices
 90
        0
280
     0
281
     0
  0
CLASS
  1
ACME_DATABASE
  2
AcMeDbDatabase
  3
AcMeServices
 90
        0
280
     0
281
     0
  0
CLASS
  1
ACRFINSADJUSTERMGR
  2
AcRfInsAdjusterMgr
  3
AcMeServices
 90
        0
280
     0
281
     0
  0
CLASS
  1
ACMDATADICTIONARY
  2
AcmDataDictionary
  3
"AcmSymBB|Product Description: AutoCAD Mechanical 2000|Company: Autodesk"
 90
        0
280
     0
281
     0
  0
CLASS
  1
ACMDATAENTRYBLOCK
  2
AcmDataEntryBlock
  3
"AcmSymBB|Product Description: AutoCAD Mechanical 2000|Company: Autodesk"
 90
        0
280
     0
281
     0
  0
CLASS
  1
AMGOBJPROPCFG
  2
AmgObjPropCfg
  3
"AmgLay|Product Description: AutoCAD Mechanical 2000|Company: Autodesk"
 90
        1
280
     0
281
     0
  0
CLASS
  1
ACAMGFILTERDAT
  2
AcAmgFilterDat
  3
"AcadM|Product Description: AutoCAD Mechanical 2000|Company: Autodesk"
 90
        0
280
     0
281
     0
  0
CLASS
  1
LAYER_INDEX
  2
AcDbLayerIndex
  3
AutoCAD 2000
 90
        0
280
     0
281
     0
  0
CLASS
  1
IDBUFFER
  2
AcDbIdBuffer
  3
AutoCAD 2000
 90
        0
280
     0
281
     0
  0
CLASS
  1
LONG_TRANSACTION
  2
AcDbLongTransaction
  3
AutoCAD 2000
 90
        0
280
     0
281
     0
  0
CLASS
  1
LWPOLYLINE
  2
AcDbPolyline
  3
AutoCAD 2000
 90
        0
280
     0
281
     1
  0
CLASS
  1
HATCH
  2
AcDbHatch
  3
AutoCAD 2000
 90
        0
280
     0
281
     1
  0
CLASS
  1
XRECORD
  2
AcDbXrecord
  3
AutoCAD 2000
 90
        0
280
     0
281
     0
  0
CLASS
  1
LONG_TRANSACTION
  2
AcDbLongTransaction
  3
AutoCAD 2000
 90
        0
280
     0
281
     0
  0
CLASS
  1
LWPOLYLINE
  2
AcDbPolyline
  3
AutoCAD 2000
 90
        0
280
     0
281
     1
  0
CLASS
  1
HATCH
  2
AcDbHatch
  3
AutoCAD 2000
 90
        0
280
     0
281
     1
  0
CLASS
  1
XRECORD
  2
AcDbXrecord
  3
AutoCAD 2000
 90
        0
280
     0
281
     0
  0
CLASS
  1
LONG_TRANSACTION
  2
AcDbLongTransaction
  3
AutoCAD 2000
 90
        0
280
     0
281
     0
  0
CLASS
  1
LWPOLYLINE
  2
AcDbPolyline
  3
AutoCAD 2000
 90
        0
280
     0
281
     1
  0
CLASS
  1
HATCH
  2
AcDbHatch
  3
AutoCAD 2000
 90
        0
280
     0
281
     1
  0
CLASS
  1
XRECORD
  2
AcDbXrecord
  3
AutoCAD 2000
 90
        0
280
     0
281
     0
  0
CLASS
  1
LONG_TRANSACTION
  2
AcDbLongTransaction
  3
AutoCAD 2000
 90
        0
280
     0
281
     0
  0
CLASS
  1
LWPOLYLINE
  2
AcDbPolyline
  3
AutoCAD 2000
 90
        0
280
     0
281
     1
  0
CLASS
  1
HATCH
  2
AcDbHatch
  3
AutoCAD 2000
 90
        0
280
     0
281
     1
  0
CLASS
  1
XRECORD
  2
AcDbXrecord
  3
AutoCAD 2000
 90
        0
280
     0
281
     0
  0
CLASS
  1
LONG_TRANSACTION
  2
AcDbLongTransaction
  3
AutoCAD 2000
 90
        0
280
     0
281
     0
  0
CLASS
  1
LWPOLYLINE
  2
AcDbPolyline
  3
AutoCAD 2000
 90
        0
280
     0
281
     1
  0
CLASS
  1
HATCH
  2
AcDbHatch
  3
AutoCAD 2000
 90
        0
280
     0
281
     1
  0
CLASS
  1
XRECORD
  2
AcDbXrecord
  3
AutoCAD 2000
 90
        0
280
     0
281
     0
  0
CLASS
  1
LONG_TRANSACTION
  2
AcDbLongTransaction
  3
AutoCAD 2000
 90
        0
280
     0
281
     0
  0
CLASS
  1
LWPOLYLINE
  2
AcDbPolyline
  3
AutoCAD 2000
 90
        0
280
     0
281
     1
  0
CLASS
  1
HATCH
  2
AcDbHatch
  3
AutoCAD 2000
 90
        0
280
     0
281
     1
  0
CLASS
  1
XRECORD
  2
AcDbXrecord
  3
AutoCAD 2000
 90
        0
280
     0
281
     0
  0
CLASS
  1
LONG_TRANSACTION
  2
AcDbLongTransaction
  3
AutoCAD 2000
 90
        0
280
     0
281
     0
  0
CLASS
  1
LWPOLYLINE
  2
AcDbPolyline
  3
AutoCAD 2000
 90
        0
280
     0
281
     1
  0
CLASS
  1
HATCH
  2
AcDbHatch
  3
AutoCAD 2000
 90
        0
280
     0
281
     1
  0
CLASS
  1
XRECORD
  2
AcDbXrecord
  3
AutoCAD 2000
 90
        0
280
     0
281
     0
  0
CLASS
  1
LONG_TRANSACTION
  2
AcDbLongTransaction
  3
AutoCAD 2000
 90
        0
280
     0
281
     0
  0
CLASS
  1
LWPOLYLINE
  2
AcDbPolyline
  3
AutoCAD 2000
 90
        0
280
     0
281
     1
  0
CLASS
  1
HATCH
  2
AcDbHatch
  3
AutoCAD 2000
 90
        0
280
     0
281
     1
  0
CLASS
  1
XRECORD
  2
AcDbXrecord
  3
AutoCAD 2000
 90
        0
280
     0
281
     0
  0
CLASS
  1
LONG_TRANSACTION
  2
AcDbLongTransaction
  3
AutoCAD 2000
 90
        0
280
     0
281
     0
  0
CLASS
  1
LWPOLYLINE
  2
AcDbPolyline
  3
AutoCAD 2000
 90
        0
280
     0
281
     1
  0
CLASS
  1
HATCH
  2
AcDbHatch
  3
AutoCAD 2000
 90
        0
280
     0
281
     1
  0
CLASS
  1
XRECORD
  2
AcDbXrecord
  3
AutoCAD 2000
 90
        0
280
     0
281
     0
  0
CLASS
  1
LONG_TRANSACTION
  2
AcDbLongTransaction
  3
AutoCAD 2000
 90
        0
280
     0
281
     0
  0
CLASS
  1
LWPOLYLINE
  2
AcDbPolyline
  3
AutoCAD 2000
 90
        0
280
     0
281
     1
  0
CLASS
  1
HATCH
  2
AcDbHatch
  3
AutoCAD 2000
 90
        0
280
     0
281
     1
  0
CLASS
  1
XRECORD
  2
AcDbXrecord
  3
AutoCAD 2000
 90
        0
280
     0
281
     0
  0
CLASS
  1
LONG_TRANSACTION
  2
AcDbLongTransaction
  3
AutoCAD 2000
 90
        0
280
     0
281
     0
  0
CLASS
  1
LWPOLYLINE
  2
AcDbPolyline
  3
AutoCAD 2000
 90
        0
280
     0
281
     1
  0
CLASS
  1
HATCH
  2
AcDbHatch
  3
AutoCAD 2000
 90
        0
280
     0
281
     1
  0
CLASS
  1
XRECORD
  2
AcDbXrecord
  3
AutoCAD 2000
 90
        0
280
     0
281
     0
  0
CLASS
  1
LONG_TRANSACTION
  2
AcDbLongTransaction
  3
AutoCAD 2000
 90
        0
280
     0
281
     0
  0
CLASS
  1
LWPOLYLINE
  2
AcDbPolyline
  3
AutoCAD 2000
 90
        0
280
     0
281
     1
  0
CLASS
  1
HATCH
  2
AcDbHatch
  3
AutoCAD 2000
 90
        0
280
     0
281
     1
  0
CLASS
  1
XRECORD
  2
AcDbXrecord
  3
AutoCAD 2000
 90
        0
280
     0
281
     0
  0
CLASS
  1
LONG_TRANSACTION
  2
AcDbLongTransaction
  3
AutoCAD 2000
 90
        0
280
     0
281
     0
  0
CLASS
  1
LWPOLYLINE
  2
AcDbPolyline
  3
AutoCAD 2000
 90
        0
280
     0
281
     1
  0
CLASS
  1
HATCH
  2
AcDbHatch
  3
AutoCAD 2000
 90
        0
280
     0
281
     1
  0
CLASS
  1
XRECORD
  2
AcDbXrecord
  3
AutoCAD 2000
 90
        0
280
     0
281
     0
  0
CLASS
  1
LONG_TRANSACTION
  2
AcDbLongTransaction
  3
AutoCAD 2000
 90
        0
280
     0
281
     0
  0
CLASS
  1
LWPOLYLINE
  2
AcDbPolyline
  3
AutoCAD 2000
 90
        0
280
     0
281
     1
  0
CLASS
  1
HATCH
  2
AcDbHatch
  3
AutoCAD 2000
 90
        0
280
     0
281
     1
  0
CLASS
  1
XRECORD
  2
AcDbXrecord
  3
AutoCAD 2000
 90
        0
280
     0
281
     0
  0
CLASS
  1
LONG_TRANSACTION
  2
AcDbLongTransaction
  3
AutoCAD 2000
 90
        0
280
     0
281
     0
  0
CLASS
  1
LWPOLYLINE
  2
AcDbPolyline
  3
AutoCAD 2000
 90
        0
280
     0
281
     1
  0
CLASS
  1
HATCH
  2
AcDbHatch
  3
AutoCAD 2000
 90
        0
280
     0
281
     1
  0
CLASS
  1
XRECORD
  2
AcDbXrecord
  3
AutoCAD 2000
 90
        0
280
     0
281
     0
  0
CLASS
  1
LONG_TRANSACTION
  2
AcDbLongTransaction
  3
AutoCAD 2000
 90
        0
280
     0
281
     0
  0
CLASS
  1
LWPOLYLINE
  2
AcDbPolyline
  3
AutoCAD 2000
 90
        0
280
     0
281
     1
  0
CLASS
  1
HATCH
  2
AcDbHatch
  3
AutoCAD 2000
 90
        0
280
     0
281
     1
  0
CLASS
  1
XRECORD
  2
AcDbXrecord
  3
AutoCAD 2000
 90
        0
280
     0
281
     0
  0
CLASS
  1
LONG_TRANSACTION
  2
AcDbLongTransaction
  3
AutoCAD 2000
 90
        0
280
     0
281
     0
  0
CLASS
  1
LWPOLYLINE
  2
AcDbPolyline
  3
AutoCAD 2000
 90
        0
280
     0
281
     1
  0
CLASS
  1
HATCH
  2
AcDbHatch
  3
AutoCAD 2000
 90
        0
280
     0
281
     1
  0
CLASS
  1
XRECORD
  2
AcDbXrecord
  3
AutoCAD 2000
 90
        0
280
     0
281
     0
  0
CLASS
  1
LONG_TRANSACTION
  2
AcDbLongTransaction
  3
AutoCAD 2000
 90
        0
280
     0
281
     0
  0
CLASS
  1
LWPOLYLINE
  2
AcDbPolyline
  3
AutoCAD 2000
 90
        0
280
     0
281
     1
  0
CLASS
  1
HATCH
  2
AcDbHatch
  3
AutoCAD 2000
 90
        0
280
     0
281
     1
  0
CLASS
  1
XRECORD
  2
AcDbXrecord
  3
AutoCAD 2000
 90
        0
280
     0
281
     0
  0
CLASS
  1
LONG_TRANSACTION
  2
AcDbLongTransaction
  3
AutoCAD 2000
 90
        0
280
     0
281
     0
  0
CLASS
  1
LWPOLYLINE
  2
AcDbPolyline
  3
AutoCAD 2000
 90
        0
280
     0
281
     1
  0
CLASS
  1
HATCH
  2
AcDbHatch
  3
AutoCAD 2000
 90
        0
280
     0
281
     1
  0
CLASS
  1
XRECORD
  2
AcDbXrecord
  3
AutoCAD 2000
 90
        0
280
     0
281
     0
  0
CLASS
  1
LONG_TRANSACTION
  2
AcDbLongTransaction
  3
AutoCAD 2000
 90
        0
280
     0
281
     0
  0
CLASS
  1
LWPOLYLINE
  2
AcDbPolyline
  3
AutoCAD 2000
 90
        0
280
     0
281
     1
  0
CLASS
  1
HATCH
  2
AcDbHatch
  3
AutoCAD 2000
 90
        0
280
     0
281
     1
  0
CLASS
  1
XRECORD
  2
AcDbXrecord
  3
AutoCAD 2000
 90
        0
280
     0
281
     0
  0
CLASS
  1
LONG_TRANSACTION
  2
AcDbLongTransaction
  3
AutoCAD 2000
 90
        0
280
     0
281
     0
  0
CLASS
  1
LWPOLYLINE
  2
AcDbPolyline
  3
AutoCAD 2000
 90
        0
280
     0
281
     1
  0
CLASS
  1
HATCH
  2
AcDbHatch
  3
AutoCAD 2000
 90
        0
280
     0
281
     1
  0
CLASS
  1
XRECORD
  2
AcDbXrecord
  3
AutoCAD 2000
 90
        0
280
     0
281
     0
  0
CLASS
  1
LONG_TRANSACTION
  2
AcDbLongTransaction
  3
AutoCAD 2000
 90
        0
280
     0
281
     0
  0
CLASS
  1
LWPOLYLINE
  2
AcDbPolyline
  3
AutoCAD 2000
 90
        0
280
     0
281
     1
  0
CLASS
  1
HATCH
  2
AcDbHatch
  3
AutoCAD 2000
 90
        0
280
     0
281
     1
  0
CLASS
  1
XRECORD
  2
AcDbXrecord
  3
AutoCAD 2000
 90
        0
280
     0
281
     0
  0
CLASS
  1
LONG_TRANSACTION
  2
AcDbLongTransaction
  3
AutoCAD 2000
 90
        0
280
     0
281
     0
  0
CLASS
  1
LWPOLYLINE
  2
AcDbPolyline
  3
AutoCAD 2000
 90
        0
280
     0
281
     1
  0
CLASS
  1
HATCH
  2
AcDbHatch
  3
AutoCAD 2000
 90
        0
280
     0
281
     1
  0
CLASS
  1
XRECORD
  2
AcDbXrecord
  3
AutoCAD 2000
 90
        0
280
     0
281
     0
  0
CLASS
  1
LONG_TRANSACTION
  2
AcDbLongTransaction
  3
AutoCAD 2000
 90
        0
280
     0
281
     0
  0
CLASS
  1
LWPOLYLINE
  2
AcDbPolyline
  3
AutoCAD 2000
 90
        0
280
     0
281
     1
  0
CLASS
  1
HATCH
  2
AcDbHatch
  3
AutoCAD 2000
 90
        0
280
     0
281
     1
  0
CLASS
  1
XRECORD
  2
AcDbXrecord
  3
AutoCAD 2000
 90
        0
280
     0
281
     0
  0
CLASS
  1
LONG_TRANSACTION
  2
AcDbLongTransaction
  3
AutoCAD 2000
 90
        0
280
     0
281
     0
  0
CLASS
  1
LWPOLYLINE
  2
AcDbPolyline
  3
AutoCAD 2000
 90
        0
280
     0
281
     1
  0
CLASS
  1
HATCH
  2
AcDbHatch
  3
AutoCAD 2000
 90
        0
280
     0
281
     1
  0
CLASS
  1
XRECORD
  2
AcDbXrecord
  3
AutoCAD 2000
 90
        0
280
     0
281
     0
  0
CLASS
  1
LONG_TRANSACTION
  2
AcDbLongTransaction
  3
AutoCAD 2000
 90
        0
280
     0
281
     0
  0
CLASS
  1
LWPOLYLINE
  2
AcDbPolyline
  3
AutoCAD 2000
 90
        0
280
     0
281
     1
  0
CLASS
  1
HATCH
  2
AcDbHatch
  3
AutoCAD 2000
 90
        0
280
     0
281
     1
  0
CLASS
  1
XRECORD
  2
AcDbXrecord
  3
AutoCAD 2000
 90
        0
280
     0
281
     0
  0
CLASS
  1
LONG_TRANSACTION
  2
AcDbLongTransaction
  3
AutoCAD 2000
 90
        0
280
     0
281
     0
  0
CLASS
  1
LWPOLYLINE
  2
AcDbPolyline
  3
AutoCAD 2000
 90
        0
280
     0
281
     1
  0
CLASS
  1
HATCH
  2
AcDbHatch
  3
AutoCAD 2000
 90
        0
280
     0
281
     1
  0
CLASS
  1
XRECORD
  2
AcDbXrecord
  3
AutoCAD 2000
 90
        0
280
     0
281
     0
  0
CLASS
  1
LONG_TRANSACTION
  2
AcDbLongTransaction
  3
AutoCAD 2000
 90
        0
280
     0
281
     0
  0
CLASS
  1
LWPOLYLINE
  2
AcDbPolyline
  3
AutoCAD 2000
 90
        0
280
     0
281
     1
  0
CLASS
  1
HATCH
  2
AcDbHatch
  3
AutoCAD 2000
 90
        0
280
     0
281
     1
  0
CLASS
  1
XRECORD
  2
AcDbXrecord
  3
AutoCAD 2000
 90
        0
280
     0
281
     0
  0
CLASS
  1
LONG_TRANSACTION
  2
AcDbLongTransaction
  3
AutoCAD 2000
 90
        0
280
     0
281
     0
  0
CLASS
  1
LWPOLYLINE
  2
AcDbPolyline
  3
AutoCAD 2000
 90
        0
280
     0
281
     1
  0
CLASS
  1
HATCH
  2
AcDbHatch
  3
AutoCAD 2000
 90
        0
280
     0
281
     1
  0
CLASS
  1
XRECORD
  2
AcDbXrecord
  3
AutoCAD 2000
 90
        0
280
     0
281
     0
  0
CLASS
  1
LONG_TRANSACTION
  2
AcDbLongTransaction
  3
AutoCAD 2000
 90
        0
280
     0
281
     0
  0
CLASS
  1
LWPOLYLINE
  2
AcDbPolyline
  3
AutoCAD 2000
 90
        0
280
     0
281
     1
  0
CLASS
  1
HATCH
  2
AcDbHatch
  3
AutoCAD 2000
 90
        0
280
     0
281
     1
  0
CLASS
  1
XRECORD
  2
AcDbXrecord
  3
AutoCAD 2000
 90
        0
280
     0
281
     0
  0
CLASS
  1
LONG_TRANSACTION
  2
AcDbLongTransaction
  3
AutoCAD 2000
 90
        0
280
     0
281
     0
  0
CLASS
  1
LWPOLYLINE
  2
AcDbPolyline
  3
AutoCAD 2000
 90
        0
280
     0
281
     1
  0
CLASS
  1
HATCH
  2
AcDbHatch
  3
AutoCAD 2000
 90
        0
280
     0
281
     1
  0
CLASS
  1
XRECORD
  2
AcDbXrecord
  3
AutoCAD 2000
 90
        0
280
     0
281
     0
  0
CLASS
  1
LONG_TRANSACTION
  2
AcDbLongTransaction
  3
AutoCAD 2000
 90
        0
280
     0
281
     0
  0
CLASS
  1
LWPOLYLINE
  2
AcDbPolyline
  3
AutoCAD 2000
 90
        0
280
     0
281
     1
  0
CLASS
  1
HATCH
  2
AcDbHatch
  3
AutoCAD 2000
 90
        0
280
     0
281
     1
  0
CLASS
  1
XRECORD
  2
AcDbXrecord
  3
AutoCAD 2000
 90
        0
280
     0
281
     0
  0
CLASS
  1
LONG_TRANSACTION
  2
AcDbLongTransaction
  3
AutoCAD 2000
 90
        0
280
     0
281
     0
  0
CLASS
  1
LWPOLYLINE
  2
AcDbPolyline
  3
AutoCAD 2000
 90
        0
280
     0
281
     1
  0
CLASS
  1
HATCH
  2
AcDbHatch
  3
AutoCAD 2000
 90
        0
280
     0
281
     1
  0
CLASS
  1
XRECORD
  2
AcDbXrecord
  3
AutoCAD 2000
 90
        0
280
     0
281
     0
  0
CLASS
  1
LONG_TRANSACTION
  2
AcDbLongTransaction
  3
AutoCAD 2000
 90
        0
280
     0
281
     0
  0
CLASS
  1
LWPOLYLINE
  2
AcDbPolyline
  3
AutoCAD 2000
 90
        0
280
     0
281
     1
  0
CLASS
  1
HATCH
  2
AcDbHatch
  3
AutoCAD 2000
 90
        0
280
     0
281
     1
  0
CLASS
  1
XRECORD
  2
AcDbXrecord
  3
AutoCAD 2000
 90
        0
280
     0
281
     0
  0
CLASS
  1
LONG_TRANSACTION
  2
AcDbLongTransaction
  3
AutoCAD 2000
 90
        0
280
     0
281
     0
  0
CLASS
  1
LWPOLYLINE
  2
AcDbPolyline
  3
AutoCAD 2000
 90
        0
280
     0
281
     1
  0
CLASS
  1
HATCH
  2
AcDbHatch
  3
AutoCAD 2000
 90
        0
280
     0
281
     1
  0
CLASS
  1
XRECORD
  2
AcDbXrecord
  3
AutoCAD 2000
 90
        0
280
     0
281
     0
  0
CLASS
  1
LONG_TRANSACTION
  2
AcDbLongTransaction
  3
AutoCAD 2000
 90
        0
280
     0
281
     0
  0
CLASS
  1
LWPOLYLINE
  2
AcDbPolyline
  3
AutoCAD 2000
 90
        0
280
     0
281
     1
  0
CLASS
  1
HATCH
  2
AcDbHatch
  3
AutoCAD 2000
 90
        0
280
     0
281
     1
  0
CLASS
  1
XRECORD
  2
AcDbXrecord
  3
AutoCAD 2000
 90
        0
280
     0
281
     0
  0
ENDSEC
  0
SECTION
  2
TABLES
  0
TABLE
  2
VPORT
  5
8
330
0
100
AcDbSymbolTable
 70
     1
  0
VPORT
  5
7428
330
8
100
AcDbSymbolTableRecord
100
AcDbViewportTableRecord
  2
*ACTIVE
 70
     0
 10
0.0
 20
0.0
 11
1.0
 21
1.0
 12
32.80046411962433
 22
20.5006756772125
 13
0.0
 23
0.0
 14
0.5
 24
0.5
 15
0.5
 25
0.5
 16
0.0
 26
0.0
 36
1.0
 17
0.0
 27
0.0
 37
0.0
 40
41.32241681515165
 41
1.623865110246433
 42
50.0
 43
0.0
 44
0.0
 50
0.0
 51
0.0
 71
     0
 72
   100
 73
     1
 74
     2
 75
     0
 76
     0
 77
     0
 78
     0
  0
ENDTAB
  0
TABLE
  2
LTYPE
  5
5
330
0
100
AcDbSymbolTable
 70
     3
  0
LTYPE
  5
14
330
5
100
AcDbSymbolTableRecord
100
AcDbLinetypeTableRecord
  2
BYBLOCK
 70
     0
  3

 72
    65
 73
     0
 40
0.0
  0
LTYPE
  5
15
330
5
100
AcDbSymbolTableRecord
100
AcDbLinetypeTableRecord
  2
BYLAYER
 70
     0
  3

 72
    65
 73
     0
 40
0.0
  0
LTYPE
  5
16
330
5
100
AcDbSymbolTableRecord
100
AcDbLinetypeTableRecord
  2
CONTINUOUS
 70
     0
  3
Solid line
 72
    65
 73
     0
 40
0.0
  0
LTYPE
  5
1EF6
330
5
100
AcDbSymbolTableRecord
100
AcDbLinetypeTableRecord
  2
HIDDEN2
 70
     0
  3
Hidden (.5x) _ _ _ _ _ _ _ _ _ _ _ _ _ _ _ _ _
 72
    65
 73
     2
 40
0.08
 49
0.035
 74
     0
 49
-0.045
 74
     0
  0
LTYPE
  5
31E7
330
5
100
AcDbSymbolTableRecord
100
AcDbLinetypeTableRecord
  2
CENTER2
 70
     0
  3
Center (.5x) ___ _ ___ _ ___ _ ___ _ ___ _ ___
 72
    65
 73
     4
 40
1.125
 49
0.75
 74
     0
 49
-0.125
 74
     0
 49
0.125
 74
     0
 49
-0.125
 74
     0
  0
ENDTAB
  0
TABLE
  2
LAYER
  5
2
330
0
100
AcDbSymbolTable
 70
    11
  0
LAYER
  5
10
330
2
100
AcDbSymbolTableRecord
100
AcDbLayerTableRecord
  2
0
 70
     0
 62
     7
  6
CONTINUOUS
  0
LAYER
  5
48
330
2
100
AcDbSymbolTableRecord
100
AcDbLayerTableRecord
  2
CONTINUOUS2
 70
     0
 62
   254
  6
CONTINUOUS
  0
LAYER
  5
49
330
2
100
AcDbSymbolTableRecord
100
AcDbLayerTableRecord
  2
CONTINUOUS3
 70
     0
 62
   253
  6
CONTINUOUS
  0
LAYER
  5
55
330
2
100
AcDbSymbolTableRecord
100
AcDbLayerTableRecord
  2
TEXT1
 70
     0
 62
     3
  6
CONTINUOUS
  0
LAYER
  5
58
330
2
100
AcDbSymbolTableRecord
100
AcDbLayerTableRecord
  2
TITLEBLOCK
 70
     0
 62
     9
  6
CONTINUOUS
  0
LAYER
  5
59
330
2
100
AcDbSymbolTableRecord
100
AcDbLayerTableRecord
  2
VIEWPORT
 70
     0
 62
     9
  6
CONTINUOUS
  0
LAYER
  5
1EFC
330
2
100
AcDbSymbolTableRecord
100
AcDbLayerTableRecord
  2
CONTINUOUS1
 70
     0
 62
     7
  6
CONTINUOUS
  0
LAYER
  5
1F00
330
2
100
AcDbSymbolTableRecord
100
AcDbLayerTableRecord
  2
DIM
 70
     0
 62
     2
  6
CONTINUOUS
  0
LAYER
  5
1F01
330
2
100
AcDbSymbolTableRecord
100
AcDbLayerTableRecord
  2
HIDDEN1
 70
     0
 62
     5
  6
HIDDEN2
  0
LAYER
  5
1F0A
330
2
100
AcDbSymbolTableRecord
100
AcDbLayerTableRecord
  2
DEFPOINTS
 70
     0
 62
     7
  6
CONTINUOUS
  0
LAYER
  5
31EC
330
2
100
AcDbSymbolTableRecord
100
AcDbLayerTableRecord
  2
CENTER1
 70
     0
 62
     2
  6
CENTER2
  0
ENDTAB
  0
TABLE
  2
STYLE
  5
3
330
0
100
AcDbSymbolTable
 70
     3
  0
STYLE
  5
11
330
3
100
AcDbSymbolTableRecord
100
AcDbTextStyleTableRecord
  2
STANDARD
 70
     0
 40
0.0
 41
1.0
 50
0.0
 71
     0
 42
0.2
  3
txt
  4

  0
STYLE
  5
36
330
3
100
AcDbSymbolTableRecord
100
AcDbTextStyleTableRecord
  2
ROMANS
 70
     0
 40
0.0
 41
1.0
 50
0.0
 71
     0
 42
0.2
  3
romans.shx
  4

  0
STYLE
  5
6CC
330
3
100
AcDbSymbolTableRecord
100
AcDbTextStyleTableRecord
  2
M_STANDARD
 70
     0
 40
0.0
 41
0.8
 50
0.0
 71
     0
 42
0.0
  3
MEDUSA.SHX
  4

  0
ENDTAB
  0
TABLE
  2
VIEW
  5
6
330
0
100
AcDbSymbolTable
 70
     0
  0
ENDTAB
  0
TABLE
  2
UCS
  5
7
330
0
100
AcDbSymbolTable
 70
     0
  0
ENDTAB
  0
TABLE
  2
APPID
  5
9
330
0
100
AcDbSymbolTable
 70
    11
  0
APPID
  5
12
330
9
100
AcDbSymbolTableRecord
100
AcDbRegAppTableRecord
  2
ACAD
 70
     0
  0
APPID
  5
6B
330
9
100
AcDbSymbolTableRecord
100
AcDbRegAppTableRecord
  2
DCO15
 70
     0
  0
APPID
  5
370
330
9
100
AcDbSymbolTableRecord
100
AcDbRegAppTableRecord
  2
MCAD_NO_VIS
 70
     0
  0
APPID
  5
371
330
9
100
AcDbSymbolTableRecord
100
AcDbRegAppTableRecord
  2
ACAD_TEMP_GRAPHIC
 70
     0
  0
APPID
  5
387
330
9
100
AcDbSymbolTableRecord
100
AcDbRegAppTableRecord
  2
GENIUS_GENSCREG_15
 70
     0
  0
APPID
  5
389
330
9
100
AcDbSymbolTableRecord
100
AcDbRegAppTableRecord
  2
GENIUS_GENODEF_13
 70
     0
  0
APPID
  5
38A
330
9
100
AcDbSymbolTableRecord
100
AcDbRegAppTableRecord
  2
GENIUS_GENOBJ-N-SDF_13
 70
     0
  0
APPID
  5
38B
330
9
100
AcDbSymbolTableRecord
100
AcDbRegAppTableRecord
  2
GENIUS_GENOENT_13
 70
     0
  0
APPID
  5
38C
330
9
100
AcDbSymbolTableRecord
100
AcDbRegAppTableRecord
  2
GENIUS_GENOREF_13
 70
     0
  0
APPID
  5
38D
330
9
100
AcDbSymbolTableRecord
100
AcDbRegAppTableRecord
  2
GENIUS_GENOLIS_13
 70
     0
  0
APPID
  5
6CE
330
9
100
AcDbSymbolTableRecord
100
AcDbRegAppTableRecord
  2
MED_PRIMTYPE
 70
     0
  0
ENDTAB
  0
TABLE
  2
DIMSTYLE
  5
A
330
0
100
AcDbSymbolTable
 70
     1
  0
DIMSTYLE
105
1F0C
102
{ACAD_REACTORS
330
5620
330
562E
330
563C
330
564A
330
5658
330
5666
330
5674
330
5682
102
}
330
A
100
AcDbSymbolTableRecord
100
AcDbDimStyleTableRecord
  2
SCHNEIDERELECTRIC_DUAL_BEL
 70
     0
  3
\P{\H0.8x;
  4

  5
SEARROW
  6

  7

 40
0.0
 41
0.07
 42
0.0625
 43
0.38
 44
0.0625
 45
0.001
 46
0.0
 47
0.0
 48
0.0
140
0.1
141
0.09
142
0.0
143
25.4
144
1.0
145
0.0
146
1.0
147
0.04
 71
     0
 72
     0
 73
     1
 74
     1
 75
     0
 76
     0
 77
     0
 78
     4
170
     1
171
     0
172
     0
173
     0
174
     0
175
     0
176
   256
177
   256
178
   256
270
     2
271
     2
272
     2
273
     2
274
     0
340
36
275
     0
280
     0
281
     0
282
     0
283
     1
284
     0
285
     4
286
     0
287
     3
288
     0
  0
ENDTAB
  0
TABLE
  2
BLOCK_RECORD
  5
1
330
0
100
AcDbSymbolTable
 70
    22
  0
BLOCK_RECORD
  5
1F
102
{ACAD_XDICTIONARY
360
73
102
}
330
1
100
AcDbSymbolTableRecord
100
AcDbBlockTableRecord
  2
*MODEL_SPACE
  0
BLOCK_RECORD
  5
1B
102
{ACAD_XDICTIONARY
360
75
102
}
330
1
100
AcDbSymbolTableRecord
100
AcDbBlockTableRecord
  2
*PAPER_SPACE
  0
BLOCK_RECORD
  5
841
330
1
100
AcDbSymbolTableRecord
100
AcDbBlockTableRecord
  2
LOGO-PAD
1001
ACAD
1000
DesignCenter Data
1002
{
1070
     1
1070
     1
1002
}
  0
BLOCK_RECORD
  5
AE5
330
1
100
AcDbSymbolTableRecord
100
AcDbBlockTableRecord
  2
TITLE-PAD
1001
ACAD
1000
DesignCenter Data
1002
{
1070
     1
1070
     1
1002
}
  0
BLOCK_RECORD
  5
E0D
330
1
100
AcDbSymbolTableRecord
100
AcDbBlockTableRecord
  2
SEARROW
1001
ACAD
1000
DesignCenter Data
1002
{
1070
     1
1070
     1
1002
}
  0
BLOCK_RECORD
  5
E42
330
1
100
AcDbSymbolTableRecord
100
AcDbBlockTableRecord
  2
SETUP
1001
ACAD
1000
DesignCenter Data
1002
{
1070
     1
1070
     1
1002
}
  0
BLOCK_RECORD
  5
F54
330
1
100
AcDbSymbolTableRecord
100
AcDbBlockTableRecord
  2
MEDCLUMP_DIM_1475_
  0
BLOCK_RECORD
  5
F57
330
1
100
AcDbSymbolTableRecord
100
AcDbBlockTableRecord
  2
MEDCLUMP_DMS_1474_
  0
BLOCK_RECORD
  5
F5B
330
1
100
AcDbSymbolTableRecord
100
AcDbBlockTableRecord
  2
MEDCLUMP_DIM_1451_
  0
BLOCK_RECORD
  5
F5E
330
1
100
AcDbSymbolTableRecord
100
AcDbBlockTableRecord
  2
MEDCLUMP_DMS_1450_
  0
BLOCK_RECORD
  5
F62
330
1
100
AcDbSymbolTableRecord
100
AcDbBlockTableRecord
  2
MEDCLUMP_DIM_1143_
  0
BLOCK_RECORD
  5
F65
330
1
100
AcDbSymbolTableRecord
100
AcDbBlockTableRecord
  2
MEDCLUMP_DMS_1142_
  0
BLOCK_RECORD
  5
22A5
330
1
100
AcDbSymbolTableRecord
100
AcDbBlockTableRecord
  2
M_PFN_101
  0
BLOCK_RECORD
  5
22AD
330
1
100
AcDbSymbolTableRecord
100
AcDbBlockTableRecord
  2
M_PFN_2
  0
BLOCK_RECORD
  5
269D
330
1
100
AcDbSymbolTableRecord
100
AcDbBlockTableRecord
  2
0SETUP
1001
ACAD
1000
DesignCenter Data
1002
{
1070
     1
1070
     1
1002
}
  0
BLOCK_RECORD
  5
44AD
330
1
100
AcDbSymbolTableRecord
100
AcDbBlockTableRecord
  2
M_PFN_100
  0
BLOCK_RECORD
  5
5621
330
1
100
AcDbSymbolTableRecord
100
AcDbBlockTableRecord
  2
*D14
  0
BLOCK_RECORD
  5
562F
330
1
100
AcDbSymbolTableRecord
100
AcDbBlockTableRecord
  2
*D15
  0
BLOCK_RECORD
  5
563D
330
1
100
AcDbSymbolTableRecord
100
AcDbBlockTableRecord
  2
*D16
  0
BLOCK_RECORD
  5
564B
330
1
100
AcDbSymbolTableRecord
100
AcDbBlockTableRecord
  2
*D17
  0
BLOCK_RECORD
  5
5659
330
1
100
AcDbSymbolTableRecord
100
AcDbBlockTableRecord
  2
*D18
  0
BLOCK_RECORD
  5
5667
330
1
100
AcDbSymbolTableRecord
100
AcDbBlockTableRecord
  2
*D19
  0
BLOCK_RECORD
  5
5675
330
1
100
AcDbSymbolTableRecord
100
AcDbBlockTableRecord
  2
*D20
  0
BLOCK_RECORD
  5
5683
330
1
100
AcDbSymbolTableRecord
100
AcDbBlockTableRecord
  2
*D21
  0
ENDTAB
  0
ENDSEC
  0
SECTION
  2
BLOCKS
  0
BLOCK
  5
20
330
1F
100
AcDbEntity
  8
0
100
AcDbBlockBegin
  2
*MODEL_SPACE
 70
     0
 10
0.0
 20
0.0
 30
0.0
  3
*MODEL_SPACE
  1

  0
ENDBLK
  5
21
330
1F
100
AcDbEntity
  8
0
100
AcDbBlockEnd
  0
BLOCK
  5
1C
330
1B
100
AcDbEntity
 67
     1
  8
0
100
AcDbBlockBegin
  2
*PAPER_SPACE
 70
     0
 10
0.0
 20
0.0
 30
0.0
  3
*PAPER_SPACE
  1

  0
ENDBLK
  5
1D
330
1B
100
AcDbEntity
 67
     1
  8
0
100
AcDbBlockEnd
  0
BLOCK
  5
852
330
841
100
AcDbEntity
  8
0
100
AcDbBlockBegin
  2
LOGO-PAD
 70
     0
 10
0.0
 20
0.0
 30
0.0
  3
LOGO-PAD
  1

  0
HATCH
  5
842
330
841
100
AcDbEntity
  8
TITLEBLOCK
 62
     0
100
AcDbHatch
 10
0.0
 20
0.0
 30
0.0
210
0.0
220
0.0
230
1.0
  2
SOLID
 70
     1
 71
     0
 91
        2
 92
        1
 93
       11
 72
     2
 10
1.203771209334867
 20
0.3650136751459491
 40
0.021562648149145
 50
90.00000747299615
 51
179.9997683268519
 73
     1
 72
     1
 10
1.182208561185898
 20
0.3650137623336376
 11
1.182208392435807
 21
0.2795138227272444
 72
     2
 10
1.203771079023129
 20
0.2795136821032751
 40
0.0215626865877801
 50
179.9996263378447
 51
269.9998903896797
 73
     1
 72
     1
 10
1.203771037772394
 20
0.2579509955155343
 11
1.330521045577125
 21
0.2579511736405264
 72
     2
 10
1.330521265257171
 20
0.2795136382789064
 40
0.021562464639499
 50
269.9994162661957
 51
311.7040125634689
 73
     1
 72
     1
 10
1.344866398698837
 20
0.2634152834601535
 11
1.352083334663557
 21
0.2579511736405264
 72
     1
 10
1.352083334663557
 20
0.2579511736405264
 11
1.365099386916806
 21
0.2751416404960081
 72
     1
 10
1.365099386916806
 20
0.2751416404960081
 11
1.352083522163621
 21
0.284997066934386
 72
     1
 10
1.352083522163621
 20
0.284997066934386
 11
1.352083690913712
 21
0.3650136723335662
 72
     2
 10
1.330521042764654
 20
0.3650136751460369
 40
0.0215626481490576
 50
359.9999925267666
 51
449.9999925267678
 73
     1
 72
     1
 10
1.330521045577125
 20
0.3865763232950938
 11
1.203771206522485
 21
0.3865763232950938
 97
        0
 92
       16
 93
       10
 72
     2
 10
1.21455271481628
 20
0.3542325202904111
 40
0.0107811520434708
 50
90.00043844291294
 51
179.9999701074038
 73
     1
 72
     1
 10
1.203771562772811
 20
0.3542325259151993
 11
1.203771562772811
 21
0.2902950591455122
 72
     2
 10
1.214552849813946
 20
0.2902948416431456
 40
0.0107812870433294
 50
179.9988441113203
 51
269.9988441346395
 73
     1
 72
     1
 10
1.214552632315967
 20
0.2795135546020104
 11
1.323606134809704
 21
0.2795135546020104
 72
     1
 10
1.323606134809704
 20
0.2795135546020104
 11
1.280867956889135
 21
0.311873265117333
 72
     1
 10
1.280867956889135
 20
0.311873265117333
 11
1.293884009142384
 21
0.3290635557226322
 72
     1
 10
1.293884009142384
 20
0.3290635557226322
 11
1.330521045577125
 21
0.3013240413506308
 72
     1
 10
1.330521045577125
 20
0.3013240413506308
 11
1.330521045577125
 21
0.3542324377902786
 72
     2
 10
1.319739809158772
 20
0.3542324359152127
 40
0.0107812364183532
 50
0.0000099648460607
 51
90.00000996484372
 73
     1
 72
     1
 10
1.319739807283706
 20
0.3650136723335662
 11
1.214552632315967
 21
0.3650136723335662
 97
        0
 75
     0
 76
     1
 98
        1
 10
-7.279586802153931
 20
-0.4081141432880261
  0
HATCH
  5
843
330
841
100
AcDbEntity
  8
TITLEBLOCK
 62
     0
100
AcDbHatch
 10
0.0
 20
0.0
 30
0.0
210
0.0
220
0.0
230
1.0
  2
SOLID
 70
     1
 71
     0
 91
        1
 92
        1
 93
        4
 72
     1
 10
3.703333445713536
 20
0.1990762889281312
 11
1.018147379006204
 21
0.1990762889281312
 72
     1
 10
1.018147379006204
 20
0.1990762889281312
 11
1.018147379006204
 21
0.220706173683743
 72
     1
 10
1.018147379006204
 20
0.220706173683743
 11
3.703333445713536
 21
0.220706173683743
 72
     1
 10
3.703333445713536
 20
0.220706173683743
 11
3.703333445713536
 21
0.1990762889281312
 97
        0
 75
     0
 76
     1
 98
        1
 10
-7.279586802153931
 20
-0.4081141432880261
  0
HATCH
  5
844
330
841
100
AcDbEntity
  8
TITLEBLOCK
 62
     0
100
AcDbHatch
 10
0.0
 20
0.0
 30
0.0
210
0.0
220
0.0
230
1.0
  2
SOLID
 70
     1
 71
     0
 91
        4
 92
        1
 93
        4
 72
     1
 10
0.8306472632318495
 20
0.4814782717956759
 11
0.4556470182475714
 21
0.4814782717956759
 72
     1
 10
0.4556470182475714
 20
0.4814782717956759
 11
0.4556470182475714
 21
0.1064783844396073
 72
     1
 10
0.4556470182475714
 20
0.1064783844396073
 11
0.8306472632318495
 21
0.1064783844396073
 72
     1
 10
0.8306472632318495
 20
0.1064783844396073
 11
0.8306472632318495
 21
0.4814782717956759
 97
        0
 92
        0
 93
       10
 72
     1
 10
0.7368972019857374
 20
0.4177282462416896
 11
0.5193971779121789
 21
0.4177282462416896
 72
     1
 10
0.5193971779121789
 20
0.4177282462416896
 11
0.5193971779121789
 21
0.37460312508514
 72
     1
 10
0.5193971779121789
 20
0.37460312508514
 11
0.5531473465883146
 21
0.37460312508514
 72
     1
 10
0.5531473465883146
 20
0.37460312508514
 11
0.5531473465883146
 21
0.2133535311501431
 72
     1
 10
0.5531473465883146
 20
0.2133535311501431
 11
0.5193971779121789
 21
0.2133535311501431
 72
     1
 10
0.5193971779121789
 20
0.2133535311501431
 11
0.5193971779121789
 21
0.1702282758831428
 72
     1
 10
0.5193971779121789
 20
0.1702282758831428
 11
0.7368972019857374
 21
0.1702282758831428
 72
     1
 10
0.7368972019857374
 20
0.1702282758831428
 11
0.7668970141602749
 21
0.2002283115750982
 72
     1
 10
0.7668970141602749
 20
0.2002283115750982
 11
0.7668970141602749
 21
0.3877281658462506
 72
     1
 10
0.7668970141602749
 20
0.3877281658462506
 11
0.7368972019857374
 21
0.4177282462416896
 97
        0
 92
       16
 93
        4
 72
     1
 10
0.7987720492890098
 20
0.4496031025563197
 11
0.4875220533764768
 21
0.4496031025563197
 72
     1
 10
0.4875220533764768
 20
0.4496031025563197
 11
0.4875220533764768
 21
0.1383533301613751
 72
     1
 10
0.4875220533764768
 20
0.1383533301613751
 11
0.7987720492890098
 21
0.1383533301613751
 72
     1
 10
0.7987720492890098
 20
0.1383533301613751
 11
0.7987720492890098
 21
0.4496031025563197
 97
        0
 92
        0
 93
        4
 72
     1
 10
0.5962724677448641
 20
0.37460312508514
 11
0.5962724677448641
 21
0.2133535311501431
 72
     1
 10
0.5962724677448641
 20
0.2133535311501431
 11
0.7237719824106926
 21
0.2133535311501431
 72
     1
 10
0.7237719824106926
 20
0.2133535311501431
 11
0.7237719824106926
 21
0.37460312508514
 72
     1
 10
0.7237719824106926
 20
0.37460312508514
 11
0.5962724677448641
 21
0.37460312508514
 97
        0
 75
     0
 76
     1
 98
        1
 10
-7.279586802153931
 20
-0.313212194787444
  0
HATCH
  5
845
330
841
100
AcDbEntity
  8
TITLEBLOCK
 62
     0
100
AcDbHatch
 10
0.0
 20
0.0
 30
0.0
210
0.0
220
0.0
230
1.0
  2
SOLID
 70
     1
 71
     0
 91
        1
 92
        1
 93
       26
 72
     1
 10
1.050490193885575
 20
0.3650136723335662
 11
1.138990457951802
 21
0.3650136723335662
 72
     2
 10
1.138990281703138
 20
0.3542326140418093
 40
0.0107810582931976
 50
270.0009366709926
 51
360.0009366862294
 73
     0
 72
     1
 10
1.149771339994895
 20
0.3542324377902786
 11
1.171333797831589
 21
0.3542324377902786
 72
     1
 10
1.171333797831589
 20
0.3542324377902786
 11
1.171333797831589
 21
0.3650136723335662
 72
     2
 10
1.149771243432702
 20
0.365013768896207
 40
0.0215625543991033
 50
359.9997434148255
 51
449.9997434160159
 73
     1
 72
     1
 10
1.149771339994895
 20
0.3865763232950938
 11
1.039708786842066
 21
0.3865763232950938
 72
     2
 10
1.039709408398413
 20
0.3650142939052909
 40
0.0215620293987615
 50
90.00165163282177
 51
180.0014125206716
 73
     1
 72
     1
 10
1.018147379006204
 20
0.3650137623336376
 11
1.018147379006204
 21
0.3334199129435318
 72
     2
 10
1.039709363397143
 20
0.3334193363730153
 40
0.0215619843986475
 50
179.9984679027414
 51
269.9984679437668
 73
     1
 72
     1
 10
1.039708786842066
 20
0.3118573519820755
 11
1.138990457951802
 21
0.311857620107139
 72
     2
 10
1.138990280765661
 20
0.3010765608779043
 40
0.0107810592306907
 50
270.0009416531222
 51
360.0009416684906
 73
     0
 72
     1
 10
1.149771339994895
 20
0.3010763836888712
 11
1.149771508744986
 21
0.2902949691454408
 72
     2
 10
1.138990231076649
 20
0.2902948322713164
 40
0.0107812776692067
 50
359.9992725992319
 51
449.9997907459082
 73
     0
 72
     1
 10
1.138990270451738
 20
0.279513554602181
 11
1.050490193885575
 21
0.2795135546020104
 72
     2
 10
1.05049014888543
 20
0.2902951041454384
 40
0.0107815495435218
 50
89.99976085826782
 51
179.9997608594354
 73
     0
 72
     1
 10
1.039708599342002
 20
0.2902950591455122
 11
1.018147379006204
 21
0.2902950591455122
 72
     1
 10
1.018147379006204
 20
0.2902950591455122
 11
1.018147379006204
 21
0.2795138227272444
 72
     2
 10
1.039709273392517
 20
0.2795130680345569
 40
0.0215618943995203
 50
179.9979945776083
 51
269.9987071039827
 73
     1
 72
     1
 10
1.039708786842066
 20
0.2579511736405264
 11
1.149771339994895
 21
0.2579511736405264
 72
     2
 10
1.149771378432784
 20
0.2795135930396681
 40
0.0215624193991759
 50
269.9998978626289
 51
359.9996636967671
 73
     1
 72
     1
 10
1.171333797831589
 20
0.2795134664769192
 11
1.171333797831589
 21
0.3114825579869829
 72
     2
 10
1.149771333432362
 20
0.3114825645494808
 40
0.0215624643992288
 50
359.9999825621309
 51
449.9999825620359
 73
     1
 72
     1
 10
1.149771339994895
 20
0.3330450289487088
 11
1.050490193885575
 21
0.3330447608234748
 72
     2
 10
1.050490103885701
 20
0.3438262653667981
 40
0.0107815045436989
 50
89.99952171675776
 51
179.9999900368059
 73
     0
 72
     1
 10
1.039708599342002
 20
0.3438262634919964
 11
1.039708786842066
 21
0.3542325259151993
 72
     2
 10
1.050490107634269
 20
0.3542323515402983
 40
0.0107813207936133
 50
180.0009266903443
 51
270.0004583701697
 73
     0
 97
        0
 75
     0
 76
     1
 98
        1
 10
-7.279586802153931
 20
-0.4081141432880261
  0
HATCH
  5
846
330
841
100
AcDbEntity
  8
TITLEBLOCK
 62
     0
100
AcDbHatch
 10
0.0
 20
0.0
 30
0.0
210
0.0
220
0.0
230
1.0
  2
SOLID
 70
     1
 71
     0
 91
        1
 92
        1
 93
       18
 72
     2
 10
2.471082802883087
 20
0.3650137595211706
 40
0.021562563774099
 50
180.0000074732525
 51
269.9997683261728
 73
     0
 72
     1
 10
2.471082715695484
 20
0.3865763232950938
 11
2.586957622645552
 21
0.3865763232950938
 72
     2
 10
2.586957713583391
 20
0.3650135813961111
 40
0.0215627418991744
 50
269.9997583630888
 51
359.999758364108
 73
     0
 72
     1
 10
2.608520455482373
 20
0.3650136723335662
 11
2.608520455482373
 21
0.3542324377902786
 72
     1
 10
2.608520455482373
 20
0.3542324377902786
 11
2.586957622645552
 21
0.3542324377902786
 72
     2
 10
2.576176208103625
 20
0.3542322577916381
 40
0.0107814145434302
 50
0.0009565685814303
 51
90.00095658455173
 73
     1
 72
     1
 10
2.576176028101979
 20
0.3650136723335662
 11
2.481864141488966
 21
0.3650136723335662
 72
     2
 10
2.481864045863444
 20
0.3542323421656055
 40
0.0107813301683848
 50
89.99949181235312
 51
179.9994918168631
 73
     1
 72
     1
 10
2.471082715695484
 20
0.3542324377902786
 11
2.471082715695484
 21
0.2902950591455122
 72
     2
 10
2.481864090863785
 20
0.2902951097704553
 40
0.0107813751684203
 50
180.0002690376259
 51
270.0002690388874
 73
     1
 72
     1
 10
2.481864141488966
 20
0.2795137346021532
 11
2.576176028101979
 21
0.2795135546020104
 72
     2
 10
2.576176073102679
 20
0.2902951041456356
 40
0.010781549543719
 50
269.9997608553225
 51
359.9992825760937
 73
     1
 72
     1
 10
2.586957622645552
 20
0.2902949691454408
 11
2.608520455482373
 21
0.2902950591455122
 72
     1
 10
2.608520455482373
 20
0.2902950591455122
 11
2.608520099232048
 21
0.2795134664769192
 72
     2
 10
2.586957670458414
 20
0.2795136024145366
 40
0.0215624287740632
 50
0.0003612140281018
 51
90.00012704854281
 73
     0
 72
     1
 10
2.586957622645552
 20
0.2579511736405264
 11
2.471082715695484
 21
0.2579511736405264
 72
     2
 10
2.471082667882924
 20
0.2795136024144634
 40
0.02156242877399
 50
89.99987295225965
 51
179.9998729525419
 73
     0
 72
     1
 10
2.449520239108988
 20
0.2795135546020104
 11
2.449520239108988
 21
0.3650137623336376
 97
        0
 75
     0
 76
     1
 98
        1
 10
-7.279586802153931
 20
-0.4081141432880261
  0
HATCH
  5
847
330
841
100
AcDbEntity
  8
TITLEBLOCK
 62
     0
100
AcDbHatch
 10
0.0
 20
0.0
 30
0.0
210
0.0
220
0.0
230
1.0
  2
SOLID
 70
     1
 71
     0
 91
        1
 92
        1
 93
       12
 72
     1
 10
2.026708344139745
 20
0.3865765014202565
 11
1.890208311215626
 21
0.3865765014202565
 72
     1
 10
1.890208311215626
 20
0.3865765014202565
 11
1.890208311215626
 21
0.2579511736405264
 72
     1
 10
1.890208311215626
 20
0.2579511736405264
 11
2.026708344139745
 21
0.2579511736405264
 72
     1
 10
2.026708344139745
 20
0.2579511736405264
 11
2.026708344139745
 21
0.2795135546020104
 72
     1
 10
2.026708344139745
 20
0.2795135546020104
 11
1.911770600302059
 21
0.2795135546020104
 72
     1
 10
1.911770600302059
 20
0.2795135546020104
 11
1.911770600302059
 21
0.3114825579869829
 72
     1
 10
1.911770600302059
 20
0.3114825579869829
 11
2.026708344139745
 21
0.3114825579869829
 72
     1
 10
2.026708344139745
 20
0.3114825579869829
 11
2.026708344139745
 21
0.333044848948566
 72
     1
 10
2.026708344139745
 20
0.333044848948566
 11
1.911770600302059
 21
0.333044848948566
 72
     1
 10
1.911770600302059
 20
0.333044848948566
 11
1.911770600302059
 21
0.3650136723335662
 72
     1
 10
1.911770600302059
 20
0.3650136723335662
 11
2.026708344139745
 21
0.3650136723335662
 72
     1
 10
2.026708344139745
 20
0.3650136723335662
 11
2.026708344139745
 21
0.3865765014202565
 97
        0
 75
     0
 76
     1
 98
        1
 10
-7.279586802153931
 20
-0.4081141432880261
  0
HATCH
  5
848
330
841
100
AcDbEntity
  8
TITLEBLOCK
 62
     0
100
AcDbHatch
 10
0.0
 20
0.0
 30
0.0
210
0.0
220
0.0
230
1.0
  2
SOLID
 70
     1
 71
     0
 91
        2
 92
        1
 93
        8
 72
     1
 10
1.614830743814064
 20
0.3865765014202565
 11
1.531145595393223
 21
0.2579509955155343
 72
     1
 10
1.531145595393223
 20
0.2579509955155343
 11
1.556870855949323
 21
0.2579511736405264
 72
     1
 10
1.556870855949323
 20
0.2579511736405264
 11
1.570898996363819
 21
0.2795135546020104
 72
     1
 10
1.570898996363819
 20
0.2795135546020104
 11
1.673830432358027
 21
0.2795135546020104
 72
     1
 10
1.673830432358027
 20
0.2795135546020104
 11
1.687858760272586
 21
0.2579514417655899
 72
     1
 10
1.687858760272586
 20
0.2579514417655899
 11
1.713583120827973
 21
0.2579514417655899
 72
     1
 10
1.713583120827973
 20
0.2579514417655899
 11
1.629898141157394
 21
0.3865765014202565
 72
     1
 10
1.629898141157394
 20
0.3865765014202565
 11
1.614830743814064
 21
0.3865765014202565
 97
        0
 92
       16
 93
        3
 72
     1
 10
1.622364536235675
 20
0.3586169575295115
 11
1.659801223192726
 21
0.3010763836888712
 72
     1
 10
1.659801223192726
 20
0.3010763836888712
 11
1.584928205528949
 21
0.3010762055637086
 72
     1
 10
1.584928205528949
 20
0.3010762055637086
 11
1.622364348735612
 21
0.3586165994043766
 97
        0
 75
     0
 76
     1
 98
        1
 10
-7.279586802153931
 20
-0.4081141432880261
  0
HATCH
  5
849
330
841
100
AcDbEntity
  8
TITLEBLOCK
 62
     0
100
AcDbHatch
 10
0.0
 20
0.0
 30
0.0
210
0.0
220
0.0
230
1.0
  2
SOLID
 70
     1
 71
     0
 91
        1
 92
        1
 93
       12
 72
     1
 10
1.392021104504447
 20
0.3865765014202565
 11
1.370458815418015
 21
0.3865765014202565
 72
     1
 10
1.370458815418015
 20
0.3865765014202565
 11
1.370458627917951
 21
0.2795138227272444
 72
     2
 10
1.39202114575308
 20
0.2795135133528436
 40
0.0215625178373483
 50
179.999177932392
 51
269.9998903944058
 73
     1
 72
     1
 10
1.392021104504447
 20
0.2579509955155343
 11
1.509583287556818
 21
0.2579511736405264
 72
     2
 10
1.509583335369764
 20
0.2795136024146219
 40
0.0215624287741484
 50
269.9998729512306
 51
359.9996387857453
 73
     1
 72
     1
 10
1.531145764143484
 20
0.2795134664769192
 11
1.531146120393639
 21
0.3865765014202565
 72
     1
 10
1.531146120393639
 20
0.3865765014202565
 11
1.509583287556818
 21
0.3865765014202565
 72
     1
 10
1.509583287556818
 20
0.3865765014202565
 11
1.509583287556818
 21
0.2902950591455122
 72
     2
 10
1.498801916139266
 20
0.290294926019563
 40
0.0107813714183743
 50
359.9992925246018
 51
449.9992925333428
 73
     0
 72
     1
 10
1.49880204926357
 20
0.2795135546020104
 11
1.402802342797695
 21
0.2795135546020104
 72
     2
 10
1.402802382172719
 20
0.2902950197703451
 40
0.0107814651684066
 50
90.00020925010334
 51
180.0002092508632
 73
     0
 72
     1
 10
1.392020917004384
 20
0.2902950591455122
 11
1.392021104504447
 21
0.3865765014202565
 97
        0
 75
     0
 76
     1
 98
        1
 10
-7.279586802153931
 20
-0.4081141432880261
  0
HATCH
  5
84A
330
841
100
AcDbEntity
  8
TITLEBLOCK
 62
     0
100
AcDbHatch
 10
0.0
 20
0.0
 30
0.0
210
0.0
220
0.0
230
1.0
  2
SOLID
 70
     1
 71
     0
 91
        2
 92
        1
 93
       13
 72
     2
 10
1.851958289039648
 20
0.2899198104641797
 40
0.0215625675244637
 50
0.0002565813902296
 51
90.00070498518821
 73
     1
 72
     2
 10
1.851958289040149
 20
0.3330449455099156
 40
0.0215625675245372
 50
269.9992950134807
 51
359.9995092535441
 73
     1
 72
     1
 10
1.873520856563896
 20
0.3330447608234748
 11
1.873520856563896
 21
0.3650136657708798
 72
     2
 10
1.851957894958188
 20
0.3650135398162329
 40
0.0215629616060761
 50
0.0003346789653151
 51
89.99920945081219
 73
     1
 72
     1
 10
1.851958192477166
 20
0.3865765014202565
 11
1.720333350237904
 21
0.3865765014202565
 72
     1
 10
1.720333350237904
 20
0.3865765014202565
 11
1.720333350237904
 21
0.2579511736405264
 72
     1
 10
1.720333350237904
 20
0.2579511736405264
 11
1.741896183074725
 21
0.2579511736405264
 72
     1
 10
1.741896183074725
 20
0.2579511736405264
 11
1.741896183074725
 21
0.3007013215688856
 72
     1
 10
1.741896183074725
 20
0.3007013215688856
 11
1.841176785433827
 21
0.3007013215688856
 72
     2
 10
1.841176693559081
 20
0.2899201789011263
 40
0.0107811426681508
 50
270.0004882631974
 51
360.0004882673548
 73
     0
 72
     1
 10
1.851957836226841
 20
0.289920087025598
 11
1.851958192477166
 21
0.2579511736405264
 72
     1
 10
1.851958192477166
 20
0.2579511736405264
 11
1.873520856563896
 21
0.2579511736405264
 72
     1
 10
1.873520856563896
 20
0.2579511736405264
 11
1.873520856563896
 21
0.2899199070254552
 97
        0
 92
       16
 93
        6
 72
     2
 10
1.841176693559081
 20
0.3542325296658069
 40
0.0107811426681508
 50
270.0004882631974
 51
360.0004882673548
 73
     0
 72
     1
 10
1.851957836226841
 20
0.3542324377902786
 11
1.851958192477166
 21
0.333044848948566
 72
     2
 10
1.841176871684197
 20
0.333044935198247
 40
0.0107813207933138
 50
0.0004583615308307
 51
90.00045836519477
 73
     0
 72
     1
 10
1.841176785433827
 20
0.3222636144052784
 11
1.741896183074725
 21
0.3222638825303419
 72
     1
 10
1.741896183074725
 20
0.3222638825303419
 11
1.741896183074725
 21
0.3650136723335662
 72
     1
 10
1.741896183074725
 20
0.3650136723335662
 11
1.841176785433827
 21
0.3650136723335662
 97
        0
 75
     0
 76
     1
 98
        1
 10
-7.279586802153931
 20
-0.4081141432880261
  0
HATCH
  5
84B
330
841
100
AcDbEntity
  8
TITLEBLOCK
 62
     0
100
AcDbHatch
 10
0.0
 20
0.0
 30
0.0
210
0.0
220
0.0
230
1.0
  2
SOLID
 70
     1
 71
     0
 91
        2
 92
        1
 93
       10
 72
     1
 10
2.168832611988261
 20
0.3650136723335662
 11
2.168832611988261
 21
0.2795135546021492
 72
     1
 10
2.168832611988261
 20
0.2795135546021492
 11
2.148020079641632
 21
0.2795135546021492
 72
     1
 10
2.148020079641632
 20
0.2795135546021492
 11
2.148020079641632
 21
0.2579511736406499
 72
     1
 10
2.148020079641632
 20
0.2579511736406499
 11
2.314895263659607
 21
0.2579511736406499
 72
     2
 10
2.314895311472477
 20
0.2795136024147182
 40
0.0215624287741214
 50
269.9998729514336
 51
359.9996387859474
 73
     1
 72
     1
 10
2.336457740246171
 20
0.2795134664770916
 11
2.336457740246171
 21
0.3650136723335662
 72
     2
 10
2.314895087410214
 20
0.3650138485844006
 40
0.0215626528366775
 50
359.9995316703829
 51
449.999531674211
 73
     1
 72
     1
 10
2.314895263659607
 20
0.386576501420358
 11
2.148020079641632
 21
0.386576501420358
 72
     1
 10
2.148020079641632
 20
0.386576501420358
 11
2.148020079641632
 21
0.3650136723335662
 72
     1
 10
2.148020079641632
 20
0.3650136723335662
 11
2.168832611988261
 21
0.3650136723335662
 97
        0
 92
       16
 93
        6
 72
     1
 10
2.190395257324933
 20
0.3650136723335662
 11
2.304113856616218
 21
0.3650136723335662
 72
     2
 10
2.304113942866619
 20
0.3542323515405775
 40
0.0107813207933337
 50
269.9995416346447
 51
359.9995416383139
 73
     0
 72
     1
 10
2.314895263659607
 20
0.3542324377902877
 11
2.314895263659607
 21
0.2902949691455452
 72
     2
 10
2.304113807866077
 20
0.2902950103956483
 40
0.0107814557936096
 50
0.0002192149982456
 51
89.99974092762393
 73
     0
 72
     1
 10
2.304113856616218
 20
0.2795135546021492
 11
2.190395257324933
 21
0.2795135546021492
 72
     1
 10
2.190395257324933
 20
0.2795135546021492
 11
2.190395257324933
 21
0.3650136723335662
 97
        0
 75
     0
 76
     1
 98
        1
 10
-7.279586802153931
 20
-0.4081141432880261
  0
HATCH
  5
84C
330
841
100
AcDbEntity
  8
TITLEBLOCK
 62
     0
100
AcDbHatch
 10
0.0
 20
0.0
 30
0.0
210
0.0
220
0.0
230
1.0
  2
SOLID
 70
     1
 71
     0
 91
        2
 92
        1
 93
        8
 72
     1
 10
3.241392303571654
 20
0.3865765014202565
 11
3.157707226761072
 21
0.2579509955155343
 72
     1
 10
3.157707226761072
 20
0.2579509955155343
 11
3.183432299816939
 21
0.2579511736405264
 72
     1
 10
3.183432299816939
 20
0.2579511736405264
 11
3.197460983981823
 21
0.2795133764768478
 72
     1
 10
3.197460983981823
 20
0.2795133764768478
 11
3.30039082622498
 21
0.2795135546020104
 72
     1
 10
3.30039082622498
 20
0.2795135546020104
 11
3.314419679139785
 21
0.2579514417655899
 72
     1
 10
3.314419679139785
 20
0.2579514417655899
 11
3.340144583445731
 21
0.2579511736405264
 72
     1
 10
3.340144583445731
 20
0.2579511736405264
 11
3.256459603774981
 21
0.3865765014202565
 72
     1
 10
3.256459603774981
 20
0.3865765014202565
 11
3.241392303571654
 21
0.3865765014202565
 97
        0
 92
       16
 93
        3
 72
     1
 10
3.248925740352245
 20
0.358616778466603
 11
3.211489480646473
 21
0.3010762055637086
 72
     1
 10
3.211489480646473
 20
0.3010762055637086
 11
3.28636178580994
 21
0.3010763836888712
 72
     1
 10
3.28636178580994
 20
0.3010763836888712
 11
3.248925740352245
 21
0.358616778466603
 97
        0
 75
     0
 76
     1
 98
        1
 10
-7.279586802153931
 20
-0.4081141432880261
  0
HATCH
  5
84D
330
841
100
AcDbEntity
  8
TITLEBLOCK
 62
     0
100
AcDbHatch
 10
0.0
 20
0.0
 30
0.0
210
0.0
220
0.0
230
1.0
  2
SOLID
 70
     1
 71
     0
 91
        1
 92
        1
 93
       13
 72
     1
 10
2.838488736968525
 20
0.3865765014202565
 11
2.806145209588674
 21
0.3865765014202565
 72
     1
 10
2.806145209588674
 20
0.3865765014202565
 11
2.806145209588674
 21
0.2579511736405264
 72
     1
 10
2.806145209588674
 20
0.2579511736405264
 11
2.827707667425368
 21
0.2579511736405264
 72
     1
 10
2.827707667425368
 20
0.2579511736405264
 11
2.827707667425368
 21
0.3640633654626753
 72
     1
 10
2.827707667425368
 20
0.3640633654626753
 11
2.899718420719221
 21
0.2579514417655899
 72
     1
 10
2.899718420719221
 20
0.2579514417655899
 11
2.922570860648686
 21
0.2579511736405264
 72
     1
 10
2.922570860648686
 20
0.2579511736405264
 11
2.994582138942956
 21
0.3640642598382782
 72
     1
 10
2.994582138942956
 20
0.3640642598382782
 11
2.994582138942956
 21
0.2579511736405264
 72
     1
 10
2.994582138942956
 20
0.2579511736405264
 11
3.016144596779479
 21
0.2579511736405264
 72
     1
 10
3.016144596779479
 20
0.2579511736405264
 11
3.016144596779479
 21
0.3865765014202565
 72
     1
 10
3.016144596779479
 20
0.3865765014202565
 11
2.983801425649954
 21
0.3865765014202565
 72
     1
 10
2.983801425649954
 20
0.3865765014202565
 11
2.911144640683954
 21
0.2795135546020104
 72
     1
 10
2.911144640683954
 20
0.2795135546020104
 11
2.838488380718199
 21
0.3865765014202565
 97
        0
 75
     0
 76
     1
 98
        1
 10
-7.279586802153931
 20
-0.4081141432880261
  0
HATCH
  5
84E
330
841
100
AcDbEntity
  8
TITLEBLOCK
 62
     0
100
AcDbHatch
 10
0.0
 20
0.0
 30
0.0
210
0.0
220
0.0
230
1.0
  2
SOLID
 70
     1
 71
     0
 91
        2
 92
        1
 93
        8
 72
     1
 10
2.79358243888161
 20
0.2795134664769192
 11
2.793582795131936
 21
0.3650136723335662
 72
     2
 10
2.772020240733041
 20
0.3650137688961994
 40
0.0215625543991104
 50
359.9997434148459
 51
449.999743415997
 73
     1
 72
     1
 10
2.772020337295241
 20
0.3865763232950938
 11
2.640957676673206
 21
0.3865763232950938
 72
     2
 10
2.640957763860811
 20
0.3650137595211699
 40
0.0215625637741002
 50
90.00023167383188
 51
179.9999925267453
 73
     1
 72
     1
 10
2.61939520008671
 20
0.3650137623336376
 11
2.61939520008671
 21
0.2795135546020104
 72
     2
 10
2.640957628860649
 20
0.2795136024144641
 40
0.0215624287739915
 50
180.0001270474597
 51
270.0001270477355
 73
     1
 72
     1
 10
2.640957676673206
 20
0.2579511736405264
 11
2.772020337295241
 21
0.2579511736405264
 72
     2
 10
2.772020197607671
 20
0.2795134149140743
 40
0.0215622412740004
 50
270.000371181646
 51
360.000137014207
 73
     1
 97
        0
 92
       16
 93
        8
 72
     2
 10
2.651738913091431
 20
0.3542324359149649
 40
0.0107812364186015
 50
89.9999900344766
 51
179.999521702949
 73
     1
 72
     1
 10
2.640957676673206
 20
0.3542325259151993
 11
2.640957676673206
 21
0.2902950591455122
 72
     2
 10
2.651738958091508
 20
0.2902950160204556
 40
0.010781281418388
 50
179.9997708172488
 51
269.9997708181704
 73
     1
 72
     1
 10
2.651738914966625
 20
0.2795137346021532
 11
2.761238742751839
 21
0.2795135546020104
 72
     2
 10
2.761238956501978
 20
0.2902951041442614
 40
0.0107815495443698
 50
269.9988640797126
 51
359.9992825833961
 73
     1
 72
     1
 10
2.772020506045503
 20
0.2902949691454408
 11
2.772020337295241
 21
0.3542324377902786
 72
     2
 10
2.761239007127366
 20
0.3542323421656908
 40
0.0107813301682991
 50
0.0005081826837109
 51
90.00050818719378
 73
     1
 72
     1
 10
2.76123891150193
 20
0.3650136723335662
 11
2.651738914966625
 21
0.3650136723335662
 97
        0
 75
     0
 76
     1
 98
        1
 10
-7.279586802153931
 20
-0.4081141432880261
  0
HATCH
  5
84F
330
841
100
AcDbEntity
  8
TITLEBLOCK
 62
     0
100
AcDbHatch
 10
0.0
 20
0.0
 30
0.0
210
0.0
220
0.0
230
1.0
  2
SOLID
 70
     1
 71
     0
 91
        2
 92
        1
 93
        8
 72
     2
 10
3.162769048174736
 20
0.3650134554401196
 40
0.0215630459811904
 50
270.0005663490367
 51
359.9994236862867
 73
     0
 72
     1
 10
3.184332094154836
 20
0.3650136723335662
 11
3.184332094154836
 21
0.3222638825303419
 72
     2
 10
3.162769397256125
 20
0.3222640184675962
 40
0.0215626968991391
 50
0.0003612085718475
 51
90.00036121084693
 73
     0
 72
     1
 10
3.162769261318015
 20
0.3007013215688856
 11
3.052707420665665
 21
0.3007013215688856
 72
     1
 10
3.052707420665665
 20
0.3007013215688856
 11
3.052707420665665
 21
0.2579511736405264
 72
     1
 10
3.052707420665665
 20
0.2579511736405264
 11
3.031144250328662
 21
0.2579511736405264
 72
     1
 10
3.031144250328662
 20
0.2579511736405264
 11
3.031144250328662
 21
0.3865765014202565
 72
     1
 10
3.031144250328662
 20
0.3865765014202565
 11
3.162769261318015
 21
0.3865765014202565
 97
        0
 92
       16
 93
        6
 72
     2
 10
3.151988118650169
 20
0.3542325296657216
 40
0.0107811426682361
 50
270.0004882627443
 51
360.0004882669015
 73
     0
 72
     1
 10
3.162769261318015
 20
0.3542324377902786
 11
3.162769261318015
 21
0.333044848948566
 72
     2
 10
3.151988118650169
 20
0.333044757073123
 40
0.0107811426682367
 50
359.9995117330984
 51
449.9995117372556
 73
     0
 72
     1
 10
3.15198821052483
 20
0.3222636144052784
 11
3.052707420665665
 21
0.3222638825303419
 72
     1
 10
3.052707420665665
 20
0.3222638825303419
 11
3.052707420665665
 21
0.3650136723335662
 72
     1
 10
3.052707420665665
 20
0.3650136723335662
 11
3.15198821052483
 21
0.3650136723335662
 97
        0
 75
     0
 76
     1
 98
        1
 10
-7.279586802153931
 20
-0.4081141432880261
  0
HATCH
  5
850
330
841
100
AcDbEntity
  8
TITLEBLOCK
 62
     0
100
AcDbHatch
 10
0.0
 20
0.0
 30
0.0
210
0.0
220
0.0
230
1.0
  2
SOLID
 70
     1
 71
     0
 91
        1
 92
        1
 93
        9
 72
     1
 10
3.556847887515953
 20
0.3865763232950938
 11
3.525206566844968
 21
0.3865765014202565
 72
     1
 10
3.525206566844968
 20
0.3865765014202565
 11
3.60348814923547
 21
0.3136817019238036
 72
     1
 10
3.60348814923547
 20
0.3136817019238036
 11
3.603486349234383
 21
0.2579511736405264
 72
     1
 10
3.603486349234383
 20
0.2579511736405264
 11
3.625050607072164
 21
0.2579511736405264
 72
     1
 10
3.625050607072164
 20
0.2579511736405264
 11
3.625050607072164
 21
0.3136813437984982
 72
     1
 10
3.625050607072164
 20
0.3136813437984982
 11
3.703331833212512
 21
0.3865766795454191
 72
     1
 10
3.703331833212512
 20
0.3865766795454191
 11
3.671691225042007
 21
0.3865765014202565
 72
     1
 10
3.671691225042007
 20
0.3865765014202565
 11
3.61426955627898
 21
0.3331056458632473
 72
     1
 10
3.61426955627898
 20
0.3331056458632473
 11
3.556847887515953
 21
0.3865763232950938
 97
        0
 75
     0
 76
     1
 98
        1
 10
-7.279586802153931
 20
-0.4081141432880261
  0
HATCH
  5
851
330
841
100
AcDbEntity
  8
TITLEBLOCK
 62
     0
100
AcDbHatch
 10
0.0
 20
0.0
 30
0.0
210
0.0
220
0.0
230
1.0
  2
SOLID
 70
     1
 71
     0
 91
        1
 92
        1
 93
       10
 72
     1
 10
3.376247484495632
 20
0.3865765014202565
 11
3.345207161752892
 21
0.3865765014202565
 72
     1
 10
3.345207161752892
 20
0.3865765014202565
 11
3.345207161752892
 21
0.2579511736405264
 72
     1
 10
3.345207161752892
 20
0.2579511736405264
 11
3.366769638339558
 21
0.2579511736405264
 72
     1
 10
3.366769638339558
 20
0.2579511736405264
 11
3.366769638339558
 21
0.3659393041881229
 72
     1
 10
3.366769638339558
 20
0.3659393041881229
 11
3.48273627034943
 21
0.2579509955155343
 72
     1
 10
3.48273627034943
 20
0.2579509955155343
 11
3.515082122730785
 21
0.2579511736405264
 72
     1
 10
3.515082122730785
 20
0.2579511736405264
 11
3.515082122730785
 21
0.3865765014202565
 72
     1
 10
3.515082122730785
 20
0.3865765014202565
 11
3.49351767739277
 21
0.3865765014202565
 72
     1
 10
3.49351767739277
 20
0.3865765014202565
 11
3.49351767739277
 21
0.277374671329744
 72
     1
 10
3.49351767739277
 20
0.277374671329744
 11
3.376247484495632
 21
0.3865765014202565
 97
        0
 75
     0
 76
     1
 98
        1
 10
-7.279586802153931
 20
-0.4081141432880261
  0
ENDBLK
  5
853
330
841
100
AcDbEntity
  8
0
100
AcDbBlockEnd
  0
BLOCK
  5
AF5
330
AE5
100
AcDbEntity
  8
0
100
AcDbBlockBegin
  2
TITLE-PAD
 70
     2
 10
0.0
 20
0.0
 30
0.0
  3
TITLE-PAD
  1

  0
LWPOLYLINE
  5
B1D
330
AE5
100
AcDbEntity
  8
CONTINUOUS2
 62
     0
100
AcDbPolyline
 90
        7
 70
     1
 43
0.0
 10
16.40000099999999
 20
0.0
 10
16.40000099999999
 20
0.0
 10
16.40000099999999
 20
0.0
 10
8.002461
 20
0.0
 10
8.002461
 20
0.9120019999999993
 10
16.40000099999999
 20
0.9120019999999993
 10
16.40000099999999
 20
0.0
  0
INSERT
  5
B1E
330
AE5
100
AcDbEntity
  8
TITLEBLOCK
 62
     0
100
AcDbBlockReference
  2
LOGO-PAD
 10
12.245701
 20
0.3040000000000003
 30
0.0
  0
LINE
  5
B1F
330
AE5
100
AcDbEntity
  8
CONTINUOUS2
 62
     0
100
AcDbLine
 10
16.40000099999999
 20
0.3040000000000003
 30
0.0
 11
12.245701
 21
0.3040000000000003
 31
0.0
  0
LINE
  5
B20
330
AE5
100
AcDbEntity
  8
CONTINUOUS2
 62
     0
100
AcDbLine
 10
12.245701
 20
0.9120019999999993
 30
0.0
 11
12.245701
 21
0.0
 31
0.0
  0
TEXT
  5
B21
330
AE5
100
AcDbEntity
  8
TEXT1
  6
CONTINUOUS
 62
     0
100
AcDbText
 10
12.36897712113656
 20
0.0611566731182909
 30
0.0
 40
0.0699999951940822
  1
NO.
  7
ROMANS
 11
12.36897712113656
 21
0.096156670715332
 31
0.0
100
AcDbText
 73
     2
  0
TEXT
  5
B22
330
AE5
100
AcDbEntity
  8
TEXT1
  6
CONTINUOUS
 62
     0
100
AcDbText
 10
12.36897712113656
 20
0.1661566731182908
 30
0.0
 40
0.0699999951940822
  1
DWG#
  7
ROMANS
 11
12.36897712113656
 21
0.2011566707153319
 31
0.0
100
AcDbText
 73
     2
  0
ATTDEF
  5
B23
330
AE5
100
AcDbEntity
  8
TEXT1
 62
     0
100
AcDbText
 10
10.10183834893798
 20
0.7474460884590166
 30
0.0
 40
0.1
  1

  7
ROMANS
 72
     4
 11
10.10183834893798
 21
0.7474460884590166
 31
0.0
100
AcDbAttributeDefinition
  3
DESCRIPTION 1
  2
DESCRIPTION 1
 70
     0
  0
ATTDEF
  5
B24
330
AE5
100
AcDbEntity
  8
TEXT1
 62
     0
100
AcDbText
 10
10.10183834893798
 20
0.6017231711406717
 30
0.0
 40
0.1
  1

  7
ROMANS
 72
     4
 11
10.10183834893798
 21
0.6017231711406717
 31
0.0
100
AcDbAttributeDefinition
  3
DESCRIPTION 2
  2
DESCRIPTION 2
 70
     0
  0
ATTDEF
  5
B25
330
AE5
100
AcDbEntity
  8
TEXT1
 62
     0
100
AcDbText
 10
10.10183834893798
 20
0.4560002538223267
 30
0.0
 40
0.08
  1

  7
ROMANS
 72
     4
 11
10.10183834893798
 21
0.4560002538223267
 31
0.0
100
AcDbAttributeDefinition
  3
DESCRIPTION 3
  2
DESCRIPTION 3
 70
     0
  0
ATTDEF
  5
B26
330
AE5
100
AcDbEntity
  8
TEXT1
 62
     0
100
AcDbText
 10
10.10183834893798
 20
0.3202773365039833
 30
0.0
 40
0.08
  1

  7
ROMANS
 72
     4
 11
10.10183834893798
 21
0.3202773365039833
 31
0.0
100
AcDbAttributeDefinition
  3
DESCRIPTION 4
  2
DESCRIPTION 4
 70
     0
  0
ATTDEF
  5
B27
330
AE5
100
AcDbEntity
  8
TEXT1
 62
     0
100
AcDbText
 10
10.10183834893798
 20
0.1845544191856399
 30
0.0
 40
0.08
  1

  7
ROMANS
 72
     4
 11
10.10183834893798
 21
0.1845544191856399
 31
0.0
100
AcDbAttributeDefinition
  3
DESCRIPTION 5
  2
DESCRIPTION 5
 70
     0
  0
ATTDEF
  5
B28
330
AE5
100
AcDbEntity
  8
TEXT1
 62
     0
100
AcDbText
 10
12.74772367103195
 20
0.096540546036505
 30
0.0
 40
0.12
  1

 41
0.9512024731840066
  7
M_STANDARD
 11
12.74772367103195
 21
0.156540546036505
 31
0.0
100
AcDbAttributeDefinition
  3
DRAWING NUMBER
  2
DWGNO
 70
     0
 74
     2
  0
ATTDEF
  5
B29
330
AE5
100
AcDbEntity
  8
TEXT1
 62
     0
100
AcDbText
 10
16.35506454949325
 20
-0.1507193079929352
 30
0.0
 40
0.08
  1

  7
ROMANS
 72
     2
 11
16.35506454949325
 21
-0.1107193079929352
 31
0.0
100
AcDbAttributeDefinition
  3
REF DWG #
  2
REF
 70
     0
 74
     2
  0
ATTDEF
  5
B2A
330
AE5
100
AcDbEntity
  8
TEXT1
 62
     0
100
AcDbText
 10
0.0266402374038712
 20
-0.1507193079929352
 30
0.0
 40
0.08
  1

  7
ROMANS
 11
0.0266402374038712
 21
-0.1107193079929352
 31
0.0
100
AcDbAttributeDefinition
  3
DATE MODIFIED
  2
DATE
 70
     0
 74
     2
  0
LWPOLYLINE
  5
B2B
330
AE5
100
AcDbEntity
  8
CONTINUOUS3
 62
     0
100
AcDbPolyline
 90
        4
 70
   129
 43
0.0
 10
0.0
 20
0.0
 10
16.40000099999999
 20
0.0
 10
16.40000099999999
 20
10.25
 10
0.0
 20
10.25
  0
ENDBLK
  5
AF6
330
AE5
100
AcDbEntity
  8
0
100
AcDbBlockEnd
  0
BLOCK
  5
E0F
330
E0D
100
AcDbEntity
  8
0
100
AcDbBlockBegin
  2
SEARROW
 70
     0
 10
0.0
 20
0.0
 30
0.0
  3
SEARROW
  1

  0
LWPOLYLINE
  5
E0E
330
E0D
100
AcDbEntity
  8
0
  6
BYBLOCK
100
AcDbPolyline
 90
        2
 70
     0
 10
0.0
 20
0.0
 40
0.0
 41
0.5000000001500001
 10
-1.000000000300019
 20
0.0
 40
0.5000000001500001
 41
0.5000000001500001
  0
ENDBLK
  5
E10
330
E0D
100
AcDbEntity
  8
0
100
AcDbBlockEnd
  0
BLOCK
  5
E43
330
E42
100
AcDbEntity
  8
0
100
AcDbBlockBegin
  2
SETUP
 70
     0
 10
0.0
 20
0.0
 30
0.0
  3
SETUP
  1

  0
ENDBLK
  5
E44
330
E42
100
AcDbEntity
  8
0
100
AcDbBlockEnd
  0
BLOCK
  5
F55
330
F54
100
AcDbEntity
  8
0
100
AcDbBlockBegin
  2
MEDCLUMP_DIM_1475_
 70
     0
 10
0.0
 20
0.0
 30
0.0
  3
MEDCLUMP_DIM_1475_
  1

  0
ENDBLK
  5
F56
330
F54
100
AcDbEntity
  8
0
100
AcDbBlockEnd
  0
BLOCK
  5
F59
330
F57
100
AcDbEntity
  8
0
100
AcDbBlockBegin
  2
MEDCLUMP_DMS_1474_
 70
     0
 10
0.0
 20
0.0
 30
0.0
  3
MEDCLUMP_DMS_1474_
  1

  0
INSERT
  5
F58
330
F57
100
AcDbEntity
  8
0
100
AcDbBlockReference
  2
MEDCLUMP_DIM_1475_
 10
0.0
 20
0.0
 30
0.0
  0
ENDBLK
  5
F5A
330
F57
100
AcDbEntity
  8
0
100
AcDbBlockEnd
  0
BLOCK
  5
F5C
330
F5B
100
AcDbEntity
  8
0
100
AcDbBlockBegin
  2
MEDCLUMP_DIM_1451_
 70
     0
 10
0.0
 20
0.0
 30
0.0
  3
MEDCLUMP_DIM_1451_
  1

  0
ENDBLK
  5
F5D
330
F5B
100
AcDbEntity
  8
0
100
AcDbBlockEnd
  0
BLOCK
  5
F60
330
F5E
100
AcDbEntity
  8
0
100
AcDbBlockBegin
  2
MEDCLUMP_DMS_1450_
 70
     0
 10
0.0
 20
0.0
 30
0.0
  3
MEDCLUMP_DMS_1450_
  1

  0
INSERT
  5
F5F
330
F5E
100
AcDbEntity
  8
0
100
AcDbBlockReference
  2
MEDCLUMP_DIM_1451_
 10
0.0
 20
0.0
 30
0.0
  0
ENDBLK
  5
F61
330
F5E
100
AcDbEntity
  8
0
100
AcDbBlockEnd
  0
BLOCK
  5
F63
330
F62
100
AcDbEntity
  8
0
100
AcDbBlockBegin
  2
MEDCLUMP_DIM_1143_
 70
     0
 10
0.0
 20
0.0
 30
0.0
  3
MEDCLUMP_DIM_1143_
  1

  0
ENDBLK
  5
F64
330
F62
100
AcDbEntity
  8
0
100
AcDbBlockEnd
  0
BLOCK
  5
F67
330
F65
100
AcDbEntity
  8
0
100
AcDbBlockBegin
  2
MEDCLUMP_DMS_1142_
 70
     0
 10
0.0
 20
0.0
 30
0.0
  3
MEDCLUMP_DMS_1142_
  1

  0
INSERT
  5
F66
330
F65
100
AcDbEntity
  8
0
100
AcDbBlockReference
  2
MEDCLUMP_DIM_1143_
 10
0.0
 20
0.0
 30
0.0
  0
ENDBLK
  5
F68
330
F65
100
AcDbEntity
  8
0
100
AcDbBlockEnd
  0
BLOCK
  5
22A7
330
22A5
100
AcDbEntity
  8
0
100
AcDbBlockBegin
  2
M_PFN_101
 70
     0
 10
0.0
 20
0.0
 30
0.0
  3
M_PFN_101
  1

  0
SOLID
  5
22A6
330
22A5
100
AcDbEntity
  8
0
  6
BYBLOCK
 62
     0
100
AcDbTrace
 10
0.0688976377952756
 20
0.0162645260088438
 30
0.0
 11
0.0688976377952756
 21
-0.0162645260088438
 31
0.0
 12
0.0
 22
0.0
 32
0.0
 13
0.0
 23
0.0
 33
0.0
  0
ENDBLK
  5
22A8
330
22A5
100
AcDbEntity
  8
0
100
AcDbBlockEnd
  0
BLOCK
  5
22AF
330
22AD
100
AcDbEntity
  8
0
100
AcDbBlockBegin
  2
M_PFN_2
 70
     0
 10
0.0
 20
0.0
 30
0.0
  3
M_PFN_2
  1

  0
POINT
  5
22AE
330
22AD
100
AcDbEntity
  8
0
  6
BYBLOCK
 62
     0
100
AcDbPoint
 10
0.0
 20
0.0
 30
0.0
  0
ENDBLK
  5
22B0
330
22AD
100
AcDbEntity
  8
0
100
AcDbBlockEnd
  0
BLOCK
  5
269E
330
269D
100
AcDbEntity
  8
0
100
AcDbBlockBegin
  2
0SETUP
 70
     0
 10
0.0
 20
0.0
 30
0.0
  3
0SETUP
  1

  0
ENDBLK
  5
269F
330
269D
100
AcDbEntity
  8
0
100
AcDbBlockEnd
  0
BLOCK
  5
44AF
330
44AD
100
AcDbEntity
  8
0
100
AcDbBlockBegin
  2
M_PFN_100
 70
     0
 10
0.0
 20
0.0
 30
0.0
  3
M_PFN_100
  1

  0
SOLID
  5
44AE
330
44AD
100
AcDbEntity
  8
0
  6
BYBLOCK
 62
     0
100
AcDbTrace
 10
-0.0688976377952756
 20
0.0162645260088438
 30
0.0
 11
-0.0688976377952756
 21
-0.0162645260088438
 31
0.0
 12
0.0
 22
0.0
 32
0.0
 13
0.0
 23
0.0
 33
0.0
  0
ENDBLK
  5
44B0
330
44AD
100
AcDbEntity
  8
0
100
AcDbBlockEnd
  0
BLOCK
  5
562C
330
5621
100
AcDbEntity
  8
0
100
AcDbBlockBegin
  2
*D14
 70
     1
 10
0.0
 20
0.0
 30
0.0
  3
*D14
  1

  0
LINE
  5
762D
330
5621
100
AcDbEntity
  8
DIM
100
AcDbLine
 10
34.89589064372819
 20
19.17305854479065
 30
0.0
 11
34.89589064372819
 21
17.72930742847707
 31
0.0
  0
LINE
  5
762E
330
5621
100
AcDbEntity
  8
DIM
100
AcDbLine
 10
29.93641144112459
 20
23.73359518489496
 30
0.0
 11
29.93641144112459
 21
17.72930742847707
 31
0.0
  0
LINE
  5
762F
330
5621
100
AcDbEntity
  8
DIM
100
AcDbLine
 10
34.61589064372819
 20
17.97930742847707
 30
0.0
 11
33.33805580433115
 21
17.97930742847707
 31
0.0
  0
LINE
  5
7630
330
5621
100
AcDbEntity
  8
DIM
100
AcDbLine
 10
30.21641144112459
 20
17.97930742847707
 30
0.0
 11
31.49424628052162
 21
17.97930742847707
 31
0.0
  0
INSERT
  5
7631
330
5621
100
AcDbEntity
  8
DIM
100
AcDbBlockReference
  2
SEARROW
 10
34.89589064372819
 20
17.97930742847707
 30
0.0
 41
0.28
 42
0.28
 43
0.28
  0
INSERT
  5
7632
330
5621
100
AcDbEntity
  8
DIM
100
AcDbBlockReference
  2
SEARROW
 10
29.93641144112459
 20
17.97930742847707
 30
0.0
 41
0.28
 42
0.28
 43
0.28
 50
180.0
  0
MTEXT
  5
7633
330
5621
100
AcDbEntity
  8
DIM
100
AcDbMText
 10
32.41615104242639
 20
17.97930742847707
 30
0.0
 40
0.4
 41
0.0
 71
     5
 72
     1
  1
\A1;4.96\P{\H0.8x; [126]
  7
ROMANS
1001
ACAD
1000
MTEXTBEGIN
1070
    73
1070
     1
1070
    44
1040
1.0
1070
    74
1070
     0
1000
MTEXTEND
  0
POINT
  5
7634
330
5621
100
AcDbEntity
  8
DEFPOINTS
 62
     0
100
AcDbPoint
 10
34.89589064372819
 20
19.42305854479064
 30
0.0
  0
POINT
  5
7635
330
5621
100
AcDbEntity
  8
DEFPOINTS
 62
     0
100
AcDbPoint
 10
29.93641144112459
 20
23.98359518489495
 30
0.0
  0
POINT
  5
7636
330
5621
100
AcDbEntity
  8
DEFPOINTS
 62
     0
100
AcDbPoint
 10
29.93641144112459
 20
17.97930742847707
 30
0.0
  0
ENDBLK
  5
562D
330
5621
100
AcDbEntity
  8
0
100
AcDbBlockEnd
  0
BLOCK
  5
563A
330
562F
100
AcDbEntity
  8
0
100
AcDbBlockBegin
  2
*D15
 70
     1
 10
0.0
 20
0.0
 30
0.0
  3
*D15
  1

  0
LINE
  5
7637
330
562F
100
AcDbEntity
  8
DIM
100
AcDbLine
 10
17.35374655730348
 20
25.32432763280706
 30
0.0
 11
17.35374655730348
 21
17.72930742847696
 31
0.0
  0
LINE
  5
7638
330
562F
100
AcDbEntity
  8
DIM
100
AcDbLine
 10
9.819829621299991
 20
20.2829419953777
 30
0.0
 11
9.819829621299991
 21
17.72930742847696
 31
0.0
  0
LINE
  5
7639
330
562F
100
AcDbEntity
  8
DIM
100
AcDbLine
 10
17.07374655730348
 20
17.97930742847696
 30
0.0
 11
14.5086928512065
 21
17.97930742847696
 31
0.0
  0
LINE
  5
763A
330
562F
100
AcDbEntity
  8
DIM
100
AcDbLine
 10
10.09982962129999
 20
17.97930742847696
 30
0.0
 11
12.66488332739697
 21
17.97930742847696
 31
0.0
  0
INSERT
  5
763B
330
562F
100
AcDbEntity
  8
DIM
100
AcDbBlockReference
  2
SEARROW
 10
17.35374655730348
 20
17.97930742847696
 30
0.0
 41
0.28
 42
0.28
 43
0.28
  0
INSERT
  5
763C
330
562F
100
AcDbEntity
  8
DIM
100
AcDbBlockReference
  2
SEARROW
 10
9.819829621299991
 20
17.97930742847696
 30
0.0
 41
0.28
 42
0.28
 43
0.28
 50
180.0
  0
MTEXT
  5
763D
330
562F
100
AcDbEntity
  8
DIM
100
AcDbMText
 10
13.58678808930173
 20
17.97930742847696
 30
0.0
 40
0.4
 41
0.0
 71
     5
 72
     1
  1
\A1;7.53\P{\H0.8x; [191]
  7
ROMANS
1001
ACAD
1000
MTEXTBEGIN
1070
    73
1070
     1
1070
    44
1040
1.0
1070
    74
1070
     0
1000
MTEXTEND
  0
POINT
  5
763E
330
562F
100
AcDbEntity
  8
DEFPOINTS
 62
     0
100
AcDbPoint
 10
17.35374655730348
 20
25.57432763280706
 30
0.0
  0
POINT
  5
763F
330
562F
100
AcDbEntity
  8
DEFPOINTS
 62
     0
100
AcDbPoint
 10
9.819829621299991
 20
20.5329419953777
 30
0.0
  0
POINT
  5
7640
330
562F
100
AcDbEntity
  8
DEFPOINTS
 62
     0
100
AcDbPoint
 10
9.819829621299991
 20
17.97930742847696
 30
0.0
  0
ENDBLK
  5
563B
330
562F
100
AcDbEntity
  8
0
100
AcDbBlockEnd
  0
BLOCK
  5
5648
330
563D
100
AcDbEntity
  8
0
100
AcDbBlockBegin
  2
*D16
 70
     1
 10
0.0
 20
0.0
 30
0.0
  3
*D16
  1

  0
LINE
  5
7641
330
563D
100
AcDbEntity
  8
DIM
100
AcDbLine
 10
9.412349306339358
 20
20.69042231033833
 30
0.0
 11
8.134301782625085
 21
20.69042231033833
 31
0.0
  0
LINE
  5
7642
330
563D
100
AcDbEntity
  8
DIM
100
AcDbLine
 10
11.11968637081075
 20
19.58053885975127
 30
0.0
 11
8.134301782625083
 21
19.58053885975127
 31
0.0
  0
LINE
  5
7643
330
563D
100
AcDbEntity
  8
DIM
100
AcDbLine
 10
8.384301782625085
 20
20.41042231033833
 30
0.0
 11
8.384301782625083
 21
19.86053885975127
 31
0.0
  0
LINE
  5
7644
330
563D
100
AcDbEntity
  8
DIM
100
AcDbLine
 10
8.384301782625083
 20
19.58053885975127
 30
0.0
 11
8.384301782625083
 21
19.30053885975127
 31
0.0
  0
LINE
  5
7645
330
563D
100
AcDbEntity
  8
DIM
100
AcDbLine
 10
8.384301782625083
 20
19.30053885975127
 30
0.0
 11
8.104301782625084
 21
19.30053885975127
 31
0.0
  0
INSERT
  5
7646
330
563D
100
AcDbEntity
  8
DIM
100
AcDbBlockReference
  2
SEARROW
 10
8.384301782625085
 20
20.69042231033833
 30
0.0
 41
0.28
 42
0.28
 43
0.28
 50
90.0
  0
INSERT
  5
7647
330
563D
100
AcDbEntity
  8
DIM
100
AcDbBlockReference
  2
SEARROW
 10
8.384301782625083
 20
19.58053885975127
 30
0.0
 41
0.28
 42
0.28
 43
0.28
 50
270.0
  0
MTEXT
  5
7648
330
563D
100
AcDbEntity
  8
DIM
100
AcDbMText
 10
7.334777973101271
 20
19.30053885975127
 30
0.0
 40
0.4
 41
0.0
 71
     5
 72
     1
  1
\A1;1.11\P{\H0.8x; [28]
  7
ROMANS
1001
ACAD
1000
MTEXTBEGIN
1070
    73
1070
     1
1070
    44
1040
1.0
1070
    74
1070
     0
1000
MTEXTEND
  0
POINT
  5
7649
330
563D
100
AcDbEntity
  8
DEFPOINTS
 62
     0
100
AcDbPoint
 10
9.662349306339358
 20
20.69042231033833
 30
0.0
  0
POINT
  5
764A
330
563D
100
AcDbEntity
  8
DEFPOINTS
 62
     0
100
AcDbPoint
 10
11.36968637081075
 20
19.58053885975127
 30
0.0
  0
POINT
  5
764B
330
563D
100
AcDbEntity
  8
DEFPOINTS
 62
     0
100
AcDbPoint
 10
8.384301782625083
 20
19.58053885975127
 30
0.0
  0
ENDBLK
  5
5649
330
563D
100
AcDbEntity
  8
0
100
AcDbBlockEnd
  0
BLOCK
  5
5656
330
564B
100
AcDbEntity
  8
0
100
AcDbBlockBegin
  2
*D17
 70
     1
 10
0.0
 20
0.0
 30
0.0
  3
*D17
  1

  0
LINE
  5
764C
330
564B
100
AcDbEntity
  8
DIM
100
AcDbLine
 10
10.8705838335235
 20
20.22971883022471
 30
0.0
 11
5.721506545534273
 21
20.22971883022471
 31
0.0
  0
LINE
  5
764D
330
564B
100
AcDbEntity
  8
DIM
100
AcDbLine
 10
10.8655937325365
 20
35.74951495503645
 30
0.0
 11
5.721506545534277
 21
35.74951495503645
 31
0.0
  0
LINE
  5
764E
330
564B
100
AcDbEntity
  8
DIM
100
AcDbLine
 10
5.971506545534273
 20
20.50971883022471
 30
0.0
 11
5.971506545534275
 21
27.24295022596392
 31
0.0
  0
LINE
  5
764F
330
564B
100
AcDbEntity
  8
DIM
100
AcDbLine
 10
5.971506545534277
 20
35.46951495503645
 30
0.0
 11
5.971506545534275
 21
28.73628355929725
 31
0.0
  0
INSERT
  5
7650
330
564B
100
AcDbEntity
  8
DIM
100
AcDbBlockReference
  2
SEARROW
 10
5.971506545534273
 20
20.22971883022471
 30
0.0
 41
0.28
 42
0.28
 43
0.28
 50
270.0
  0
INSERT
  5
7651
330
564B
100
AcDbEntity
  8
DIM
100
AcDbBlockReference
  2
SEARROW
 10
5.971506545534277
 20
35.74951495503645
 30
0.0
 41
0.28
 42
0.28
 43
0.28
 50
90.0
  0
MTEXT
  5
7652
330
564B
100
AcDbEntity
  8
DIM
100
AcDbMText
 10
5.97150654553427
 20
27.98961689263058
 30
0.0
 40
0.4
 41
0.0
 71
     5
 72
     1
  1
\A1;15.52\P{\H0.8x; [394]
  7
ROMANS
1001
ACAD
1000
MTEXTBEGIN
1070
    73
1070
     1
1070
    44
1040
1.0
1070
    74
1070
     0
1000
MTEXTEND
  0
POINT
  5
7653
330
564B
100
AcDbEntity
  8
DEFPOINTS
 62
     0
100
AcDbPoint
 10
11.1205838335235
 20
20.22971883022471
 30
0.0
  0
POINT
  5
7654
330
564B
100
AcDbEntity
  8
DEFPOINTS
 62
     0
100
AcDbPoint
 10
11.1155937325365
 20
35.74951495503645
 30
0.0
  0
POINT
  5
7655
330
564B
100
AcDbEntity
  8
DEFPOINTS
 62
     0
100
AcDbPoint
 10
5.971506545534277
 20
35.74951495503645
 30
0.0
  0
ENDBLK
  5
5657
330
564B
100
AcDbEntity
  8
0
100
AcDbBlockEnd
  0
BLOCK
  5
5664
330
5659
100
AcDbEntity
  8
0
100
AcDbBlockBegin
  2
*D18
 70
     1
 10
0.0
 20
0.0
 30
0.0
  3
*D18
  1

  0
LINE
  5
7656
330
5659
100
AcDbEntity
  8
DIM
100
AcDbLine
 10
9.412349306339358
 20
35.28888931799852
 30
0.0
 11
8.134301782625053
 21
35.28888931799852
 31
0.0
  0
LINE
  5
7657
330
5659
100
AcDbEntity
  8
DIM
100
AcDbLine
 10
9.349849306339358
 20
20.69042231033833
 30
0.0
 11
8.134301782625051
 21
20.69042231033833
 31
0.0
  0
LINE
  5
7658
330
5659
100
AcDbEntity
  8
DIM
100
AcDbLine
 10
8.384301782625053
 20
35.00888931799852
 30
0.0
 11
8.384301782625053
 21
28.73632248083509
 31
0.0
  0
LINE
  5
7659
330
5659
100
AcDbEntity
  8
DIM
100
AcDbLine
 10
8.384301782625051
 20
20.97042231033833
 30
0.0
 11
8.384301782625051
 21
27.24298914750176
 31
0.0
  0
INSERT
  5
765A
330
5659
100
AcDbEntity
  8
DIM
100
AcDbBlockReference
  2
SEARROW
 10
8.384301782625053
 20
35.28888931799852
 30
0.0
 41
0.28
 42
0.28
 43
0.28
 50
90.0
  0
INSERT
  5
765B
330
5659
100
AcDbEntity
  8
DIM
100
AcDbBlockReference
  2
SEARROW
 10
8.384301782625051
 20
20.69042231033833
 30
0.0
 41
0.28
 42
0.28
 43
0.28
 50
270.0
  0
MTEXT
  5
765C
330
5659
100
AcDbEntity
  8
DIM
100
AcDbMText
 10
8.384301782625048
 20
27.98965581416843
 30
0.0
 40
0.4
 41
0.0
 71
     5
 72
     1
  1
\A1;14.60\P{\H0.8x; [371]
  7
ROMANS
1001
ACAD
1000
MTEXTBEGIN
1070
    73
1070
     1
1070
    44
1040
1.0
1070
    74
1070
     0
1000
MTEXTEND
  0
POINT
  5
765D
330
5659
100
AcDbEntity
  8
DEFPOINTS
 62
     0
100
AcDbPoint
 10
9.662349306339358
 20
35.28888931799852
 30
0.0
  0
POINT
  5
765E
330
5659
100
AcDbEntity
  8
DEFPOINTS
 62
     0
100
AcDbPoint
 10
9.599849306339358
 20
20.69042231033833
 30
0.0
  0
POINT
  5
765F
330
5659
100
AcDbEntity
  8
DEFPOINTS
 62
     0
100
AcDbPoint
 10
8.384301782625051
 20
20.69042231033833
 30
0.0
  0
ENDBLK
  5
5665
330
5659
100
AcDbEntity
  8
0
100
AcDbBlockEnd
  0
BLOCK
  5
5672
330
5667
100
AcDbEntity
  8
0
100
AcDbBlockBegin
  2
*D19
 70
     1
 10
0.0
 20
0.0
 30
0.0
  3
*D19
  1

  0
LINE
  5
7660
330
5667
100
AcDbEntity
  8
DIM
100
AcDbLine
 10
9.819829621299987
 20
35.69636963295915
 30
0.0
 11
9.819829621299987
 21
39.5210087866961
 31
0.0
  0
LINE
  5
7661
330
5667
100
AcDbEntity
  8
DIM
100
AcDbLine
 10
16.45037509557546
 20
35.69636963295915
 30
0.0
 11
16.45037509557546
 21
39.5210087866961
 31
0.0
  0
LINE
  5
7662
330
5667
100
AcDbEntity
  8
DIM
100
AcDbLine
 10
10.09982962129998
 20
39.2710087866961
 30
0.0
 11
12.21319759653296
 21
39.2710087866961
 31
0.0
  0
LINE
  5
7663
330
5667
100
AcDbEntity
  8
DIM
100
AcDbLine
 10
16.17037509557546
 20
39.2710087866961
 30
0.0
 11
14.05700712034248
 21
39.2710087866961
 31
0.0
  0
INSERT
  5
7664
330
5667
100
AcDbEntity
  8
DIM
100
AcDbBlockReference
  2
SEARROW
 10
9.819829621299987
 20
39.2710087866961
 30
0.0
 41
0.28
 42
0.28
 43
0.28
 50
180.0
  0
INSERT
  5
7665
330
5667
100
AcDbEntity
  8
DIM
100
AcDbBlockReference
  2
SEARROW
 10
16.45037509557546
 20
39.2710087866961
 30
0.0
 41
0.28
 42
0.28
 43
0.28
  0
MTEXT
  5
7666
330
5667
100
AcDbEntity
  8
DIM
100
AcDbMText
 10
13.13510235843772
 20
39.2710087866961
 30
0.0
 40
0.4
 41
0.0
 71
     5
 72
     1
  1
\A1;6.63\P{\H0.8x; [168]
  7
ROMANS
1001
ACAD
1000
MTEXTBEGIN
1070
    73
1070
     1
1070
    44
1040
1.0
1070
    74
1070
     0
1000
MTEXTEND
  0
POINT
  5
7667
330
5667
100
AcDbEntity
  8
DEFPOINTS
 62
     0
100
AcDbPoint
 10
9.819829621299987
 20
35.44636963295915
 30
0.0
  0
POINT
  5
7668
330
5667
100
AcDbEntity
  8
DEFPOINTS
 62
     0
100
AcDbPoint
 10
16.45037509557546
 20
35.44636963295915
 30
0.0
  0
POINT
  5
7669
330
5667
100
AcDbEntity
  8
DEFPOINTS
 62
     0
100
AcDbPoint
 10
16.45037509557546
 20
39.2710087866961
 30
0.0
  0
ENDBLK
  5
5673
330
5667
100
AcDbEntity
  8
0
100
AcDbBlockEnd
  0
BLOCK
  5
5680
330
5675
100
AcDbEntity
  8
0
100
AcDbBlockBegin
  2
*D20
 70
     1
 10
0.0
 20
0.0
 30
0.0
  3
*D20
  1

  0
LINE
  5
766A
330
5675
100
AcDbEntity
  8
DIM
100
AcDbLine
 10
15.04379138194764
 20
36.03552750821575
 30
0.0
 11
15.04379138194764
 21
38.004505840954
 31
0.0
  0
LINE
  5
766B
330
5675
100
AcDbEntity
  8
DIM
100
AcDbLine
 10
11.26972040343462
 20
36.03552750821575
 30
0.0
 11
11.26972040343462
 21
38.004505840954
 31
0.0
  0
LINE
  5
766C
330
5675
100
AcDbEntity
  8
DIM
100
AcDbLine
 10
14.76379138194764
 20
37.754505840954
 30
0.0
 11
13.92627970221494
 21
37.754505840954
 31
0.0
  0
LINE
  5
766D
330
5675
100
AcDbEntity
  8
DIM
100
AcDbLine
 10
11.54972040343462
 20
37.754505840954
 30
0.0
 11
12.38723208316732
 21
37.754505840954
 31
0.0
  0
INSERT
  5
766E
330
5675
100
AcDbEntity
  8
DIM
100
AcDbBlockReference
  2
SEARROW
 10
15.04379138194764
 20
37.754505840954
 30
0.0
 41
0.28
 42
0.28
 43
0.28
  0
INSERT
  5
766F
330
5675
100
AcDbEntity
  8
DIM
100
AcDbBlockReference
  2
SEARROW
 10
11.26972040343462
 20
37.754505840954
 30
0.0
 41
0.28
 42
0.28
 43
0.28
 50
180.0
  0
MTEXT
  5
7670
330
5675
100
AcDbEntity
  8
DIM
100
AcDbMText
 10
13.15675589269113
 20
37.754505840954
 30
0.0
 40
0.4
 41
0.0
 71
     5
 72
     1
  1
\A1;3.77\P{\H0.8x; [96]
  7
ROMANS
1001
ACAD
1000
MTEXTBEGIN
1070
    73
1070
     1
1070
    44
1040
1.0
1070
    74
1070
     0
1000
MTEXTEND
  0
POINT
  5
7671
330
5675
100
AcDbEntity
  8
DEFPOINTS
 62
     0
100
AcDbPoint
 10
15.04379138194764
 20
35.78552750821575
 30
0.0
  0
POINT
  5
7672
330
5675
100
AcDbEntity
  8
DEFPOINTS
 62
     0
100
AcDbPoint
 10
11.26972040343462
 20
35.78552750821575
 30
0.0
  0
POINT
  5
7673
330
5675
100
AcDbEntity
  8
DEFPOINTS
 62
     0
100
AcDbPoint
 10
11.26972040343462
 20
37.754505840954
 30
0.0
  0
ENDBLK
  5
5681
330
5675
100
AcDbEntity
  8
0
100
AcDbBlockEnd
  0
BLOCK
  5
568E
330
5683
100
AcDbEntity
  8
0
100
AcDbBlockBegin
  2
*D21
 70
     1
 10
0.0
 20
0.0
 30
0.0
  3
*D21
  1

  0
LINE
  5
7710
330
5683
100
AcDbEntity
  8
DIM
100
AcDbLine
 10
20.87987802537968
 20
35.7678452881225
 30
0.0
 11
19.67165061544125
 21
35.7678452881225
 31
0.0
  0
LINE
  5
7711
330
5683
100
AcDbEntity
  8
DIM
100
AcDbLine
 10
20.87987802537968
 20
36.8277397546921
 30
0.0
 11
19.67165061544125
 21
36.8277397546921
 31
0.0
  0
LINE
  5
7712
330
5683
100
AcDbEntity
  8
DIM
100
AcDbLine
 10
19.92165061544126
 20
36.0478452881225
 30
0.0
 11
19.92165061544126
 21
36.5477397546921
 31
0.0
  0
LINE
  5
7713
330
5683
100
AcDbEntity
  8
DIM
100
AcDbLine
 10
19.64165061544125
 20
37.51440520786709
 30
0.0
 11
19.92165061544126
 21
37.51440520786709
 31
0.0
  0
LINE
  5
7714
330
5683
100
AcDbEntity
  8
DIM
100
AcDbLine
 10
19.92165061544126
 20
37.51440520786709
 30
0.0
 11
19.92165061544126
 21
36.8277397546921
 31
0.0
  0
MTEXT
  5
7715
330
5683
100
AcDbEntity
  8
DIM
100
AcDbMText
 10
19.07212680591744
 20
37.5144052078671
 30
0.0
 40
0.4
 41
0.0
 71
     5
 72
     1
  1
\A1;.25\P{\H0.8x;[6]}
  7
ROMANS
  0
INSERT
  5
7716
330
5683
100
AcDbEntity
  8
DIM
100
AcDbBlockReference
  2
SEARROW
 10
19.92165061544126
 20
35.7678452881225
 30
0.0
 41
0.28
 42
0.28
 43
0.28
 50
270.0
  0
INSERT
  5
7717
330
5683
100
AcDbEntity
  8
DIM
100
AcDbBlockReference
  2
SEARROW
 10
19.92165061544126
 20
36.8277397546921
 30
0.0
 41
0.28
 42
0.28
 43
0.28
 50
90.0
  0
POINT
  5
7718
330
5683
100
AcDbEntity
  8
DEFPOINTS
 62
     0
100
AcDbPoint
 10
21.12987802537968
 20
35.7678452881225
 30
0.0
  0
POINT
  5
7719
330
5683
100
AcDbEntity
  8
DEFPOINTS
 62
     0
100
AcDbPoint
 10
21.12987802537968
 20
36.8277397546921
 30
0.0
  0
POINT
  5
771A
330
5683
100
AcDbEntity
  8
DEFPOINTS
 62
     0
100
AcDbPoint
 10
19.92165061544126
 20
36.8277397546921
 30
0.0
  0
ENDBLK
  5
568F
330
5683
100
AcDbEntity
  8
0
100
AcDbBlockEnd
  0
ENDSEC
  0
SECTION
  2
ENTITIES
  0
INSERT
  5
E46
330
1F
100
AcDbEntity
  8
0
100
AcDbBlockReference
  2
SETUP
 10
6.725780313066863
 20
5.07702380357103
 30
0.0
  0
INSERT
  5
1530
330
1F
100
AcDbEntity
  8
0
100
AcDbBlockReference
  2
MEDCLUMP_DMS_1142_
 10
0.7585923366532589
 20
-1.009653345009568
 30
0.0
  0
INSERT
  5
1531
330
1F
100
AcDbEntity
  8
0
100
AcDbBlockReference
  2
MEDCLUMP_DMS_1450_
 10
0.7585923366532589
 20
-1.009653345009568
 30
0.0
  0
INSERT
  5
1532
330
1F
100
AcDbEntity
  8
0
100
AcDbBlockReference
  2
MEDCLUMP_DMS_1474_
 10
0.7585923366532589
 20
-1.009653345009568
 30
0.0
  0
INSERT
  5
1533
330
1F
100
AcDbEntity
  8
0
  6
CONTINUOUS
100
AcDbBlockReference
  2
SETUP
 10
36.22102307275557
 20
9.463835136766618
 30
0.0
  0
MTEXT
  5
18F0
330
1F
100
AcDbEntity
  8
0
100
AcDbMText
 10
0.7015888475680973
 20
9.890340654990433
 30
0.0
 40
0.2
 41
0.0
 71
     9
 72
     1
  1

  7
ROMANS
1001
ACAD
1000
MTEXTBEGIN
1070
    73
1070
     1
1070
    44
1040
1.0
1070
    74
1070
     0
1000
MTEXTEND
  0
MTEXT
  5
1936
330
1F
100
AcDbEntity
  8
0
100
AcDbMText
 10
189.0712362786796
 20
218.2169687499913
 30
0.0
 40
0.2
 41
81.2324
 71
     1
 72
     5
  1

  7
ROMANS
1001
ACAD
1000
MTEXTBEGIN
1070
    73
1070
     1
1070
    44
1040
1.0
1070
    74
1070
     0
1000
MTEXTEND
  0
MTEXT
  5
193C
330
1F
100
AcDbEntity
  8
0
100
AcDbMText
 10
53.63297733665327
 20
253.4090946549904
 30
0.0
 40
0.2
 41
0.0
 71
     9
 72
     1
  1

  7
ROMANS
1001
ACAD
1000
MTEXTBEGIN
1070
    73
1070
     1
1070
    44
1040
1.0
1070
    74
1070
     0
1000
MTEXTEND
  0
MTEXT
  5
193E
330
1F
100
AcDbEntity
  8
0
100
AcDbMText
 10
118.3282833366532
 20
200.6117216549904
 30
0.0
 40
0.2
 41
0.0
 71
     1
 72
     1
  1

  7
ROMANS
1001
ACAD
1000
MTEXTBEGIN
1070
    73
1070
     1
1070
    44
1040
1.0
1070
    74
1070
     0
1000
MTEXTEND
  0
MTEXT
  5
1940
330
1F
100
AcDbEntity
  8
0
100
AcDbMText
 10
137.7927023366533
 20
240.1654046549904
 30
0.0
 40
0.2
 41
0.0
 71
     1
 72
     1
  1

  7
ROMANS
1001
ACAD
1000
MTEXTBEGIN
1070
    73
1070
     1
1070
    44
1040
1.0
1070
    74
1070
     0
1000
MTEXTEND
  0
MTEXT
  5
1942
330
1F
100
AcDbEntity
  8
0
100
AcDbMText
 10
118.3282833366532
 20
249.3791286549903
 30
0.0
 40
0.2
 41
0.0
 71
     1
 72
     1
  1

  7
ROMANS
1001
ACAD
1000
MTEXTBEGIN
1070
    73
1070
     1
1070
    44
1040
1.0
1070
    74
1070
     0
1000
MTEXTEND
  0
MTEXT
  5
1944
330
1F
100
AcDbEntity
  8
0
100
AcDbMText
 10
137.5565703366532
 20
260.8364576549904
 30
0.0
 40
0.2
 41
0.0
 71
     1
 72
     1
  1

  7
ROMANS
1001
ACAD
1000
MTEXTBEGIN
1070
    73
1070
     1
1070
    44
1040
1.0
1070
    74
1070
     0
1000
MTEXTEND
  0
MTEXT
  5
1946
330
1F
100
AcDbEntity
  8
0
100
AcDbMText
 10
51.03124833665328
 20
95.94974065499044
 30
0.0
 40
0.2
 41
0.0
 71
     9
 72
     1
  1

  7
ROMANS
1001
ACAD
1000
MTEXTBEGIN
1070
    73
1070
     1
1070
    44
1040
1.0
1070
    74
1070
     0
1000
MTEXTEND
  0
MTEXT
  5
1948
330
1F
100
AcDbEntity
  8
0
100
AcDbMText
 10
53.26940633665328
 20
73.81266465499045
 30
0.0
 40
0.2
 41
0.0
 71
     9
 72
     1
  1

  7
ROMANS
1001
ACAD
1000
MTEXTBEGIN
1070
    73
1070
     1
1070
    44
1040
1.0
1070
    74
1070
     0
1000
MTEXTEND
  0
MTEXT
  5
194A
330
1F
100
AcDbEntity
  8
0
100
AcDbMText
 10
113.3234768366532
 20
81.84958465499041
 30
0.0
 40
0.2
 41
0.0
 71
     1
 72
     1
  1

  7
ROMANS
1001
ACAD
1000
MTEXTBEGIN
1070
    73
1070
     1
1070
    44
1040
1.0
1070
    74
1070
     0
1000
MTEXTEND
  0
MTEXT
  5
194C
330
1F
100
AcDbEntity
  8
0
100
AcDbMText
 10
116.3397238366532
 20
110.8464486549904
 30
0.0
 40
0.2
 41
0.0
 71
     1
 72
     1
  1

  7
ROMANS
1001
ACAD
1000
MTEXTBEGIN
1070
    73
1070
     1
1070
    44
1040
1.0
1070
    74
1070
     0
1000
MTEXTEND
  0
MTEXT
  5
194E
330
1F
100
AcDbEntity
  8
0
100
AcDbMText
 10
364.0419983366533
 20
258.0089236549903
 30
0.0
 40
0.2
 41
0.0
 71
     9
 72
     1
  1

  7
ROMANS
1001
ACAD
1000
MTEXTBEGIN
1070
    73
1070
     1
1070
    44
1040
1.0
1070
    74
1070
     0
1000
MTEXTEND
  0
MTEXT
  5
1950
330
1F
100
AcDbEntity
  8
0
100
AcDbMText
 10
374.1704245970126
 20
179.7432640415952
 30
0.0
 40
0.2
 41
0.0
 71
     9
 72
     1
  1

  7
ROMANS
1001
ACAD
1000
MTEXTBEGIN
1070
    73
1070
     1
1070
    44
1040
1.0
1070
    74
1070
     0
1000
MTEXTEND
  0
MTEXT
  5
1952
330
1F
100
AcDbEntity
  8
0
100
AcDbMText
 10
213.6848731135625
 20
114.1031580866561
 30
0.0
 40
0.2
 41
0.0
 71
     9
 72
     1
  1

  7
ROMANS
1001
ACAD
1000
MTEXTBEGIN
1070
    73
1070
     1
1070
    44
1040
1.0
1070
    74
1070
     0
1000
MTEXTEND
  0
MTEXT
  5
1954
330
1F
100
AcDbEntity
  8
0
100
AcDbMText
 10
261.5481263366532
 20
115.8823886549904
 30
0.0
 40
0.2
 41
0.0
 71
     1
 72
     1
  1

  7
ROMANS
1001
ACAD
1000
MTEXTBEGIN
1070
    73
1070
     1
1070
    44
1040
1.0
1070
    74
1070
     0
1000
MTEXTEND
  0
MTEXT
  5
1956
330
1F
100
AcDbEntity
  8
0
100
AcDbMText
 10
259.7213143366532
 20
106.5069966549904
 30
0.0
 40
0.2
 41
0.0
 71
     1
 72
     1
  1

  7
ROMANS
1001
ACAD
1000
MTEXTBEGIN
1070
    73
1070
     1
1070
    44
1040
1.0
1070
    74
1070
     0
1000
MTEXTEND
  0
MTEXT
  5
1958
330
1F
100
AcDbEntity
  8
0
100
AcDbMText
 10
295.7667253366532
 20
94.50920565499044
 30
0.0
 40
0.2
 41
0.0
 71
     1
 72
     1
  1

  7
ROMANS
1001
ACAD
1000
MTEXTBEGIN
1070
    73
1070
     1
1070
    44
1040
1.0
1070
    74
1070
     0
1000
MTEXTEND
  0
MTEXT
  5
195A
330
1F
100
AcDbEntity
  8
0
100
AcDbMText
 10
294.2892032198323
 20
72.69888765499043
 30
0.0
 40
0.2
 41
0.0
 71
     1
 72
     1
  1

  7
ROMANS
1001
ACAD
1000
MTEXTBEGIN
1070
    73
1070
     1
1070
    44
1040
1.0
1070
    74
1070
     0
1000
MTEXTEND
  0
MTEXT
  5
195C
330
1F
100
AcDbEntity
  8
0
100
AcDbMText
 10
255.9529913366533
 20
161.9187166549904
 30
0.0
 40
0.2
 41
0.0
 71
     1
 72
     1
  1

  7
ROMANS
1001
ACAD
1000
MTEXTBEGIN
1070
    73
1070
     1
1070
    44
1040
1.0
1070
    74
1070
     0
1000
MTEXTEND
  0
MTEXT
  5
195E
330
1F
100
AcDbEntity
  8
0
100
AcDbMText
 10
219.0826773366533
 20
140.8776966549904
 30
0.0
 40
0.2
 41
0.0
 71
     1
 72
     1
  1

  7
ROMANS
1001
ACAD
1000
MTEXTBEGIN
1070
    73
1070
     1
1070
    44
1040
1.0
1070
    74
1070
     0
1000
MTEXTEND
  0
MTEXT
  5
1960
330
1F
100
AcDbEntity
  8
0
100
AcDbMText
 10
271.5200623366533
 20
48.93008765499044
 30
0.0
 40
0.2
 41
0.0
 71
     1
 72
     1
  1

  7
ROMANS
1001
ACAD
1000
MTEXTBEGIN
1070
    73
1070
     1
1070
    44
1040
1.0
1070
    74
1070
     0
1000
MTEXTEND
  0
MTEXT
  5
1962
330
1F
100
AcDbEntity
  8
0
100
AcDbMText
 10
269.1739133366532
 20
35.87993365499044
 30
0.0
 40
0.2
 41
0.0
 71
     1
 72
     1
  1

  7
ROMANS
1001
ACAD
1000
MTEXTBEGIN
1070
    73
1070
     1
1070
    44
1040
1.0
1070
    74
1070
     0
1000
MTEXTEND
  0
LWPOLYLINE
  5
1C30
330
1F
100
AcDbEntity
  8
VIEWPORT
100
AcDbPolyline
 90
        6
 70
     1
 43
0.0
 10
65.60000400000001
 20
41.0
 10
65.60000400000001
 20
3.648008000000004
 10
32.00984399999998
 20
3.648008000000004
 10
32.00984399999998
 20
0.0
 10
0.0
 20
0.0
 10
0.0
 20
41.0
1001
GENIUS_GENOREF_13
1005
0
1005
0
1005
0
1005
0
1005
0
1005
0
1005
0
1005
0
  0
VIEWPORT
  5
1C31
330
1F
100
AcDbEntity
  8
VIEWPORT
100
AcDbViewport
 10
32.800002
 20
20.5
 30
0.0
 40
65.60000400000001
 41
41.0
 69
     0
1001
ACAD
1000
MVIEW
1002
{
1070
    16
1010
0.0
1020
0.0
1030
0.0
1010
0.0
1020
0.0
1030
1.0
1040
0.0
1040
133.2499998667499
1040
2683.27431646614
1040
1656.609511129782
1040
50.0
1040
0.0
1040
0.0
1070
     0
1070
   100
1070
     1
1070
     2
1070
     0
1070
     0
1070
     0
1070
     0
1040
0.0
1040
0.0
1040
0.0
1040
0.5
1040
0.5
1040
0.5
1040
0.5
1070
     0
1002
{
1002
}
1002
}
1001
GENIUS_GENOREF_13
1005
0
1005
0
1005
0
1005
0
1005
0
1005
0
1005
0
1005
0
1001
GENIUS_GENSCREG_15
1000
PF
1040
0.0
1000
DF
1040
0.0
1000
MIN
1011
-396.2106177764157
1021
-244.7120732362551
1031
0.0
1000
MAX
1011
-330.6106137764157
1021
-203.7120732362551
1031
0.0
1000
FLAGS
1070
     2
  0
INSERT
  5
31FF
330
1F
100
AcDbEntity
  8
0
100
AcDbBlockReference
  2
0SETUP
 10
6.978999856125817
 20
3.591539568616315
 30
0.0
  0
INSERT
  5
4107
330
1F
100
AcDbEntity
  8
0
100
AcDbBlockReference
  2
0SETUP
 10
0.0
 20
0.0
 30
0.0
  0
TEXT
  5
530F
330
1F
100
AcDbEntity
  8
TEXT1
100
AcDbText
 10
38.99294484147549
 20
17.13528043206046
 30
0.0
 40
0.4
  1
NEMA TYPE 12/3R
  7
ROMANS
 11
38.99294484147549
 21
17.33528043206045
 31
0.0
100
AcDbText
 73
     2
  0
TEXT
  5
5310
330
1F
100
AcDbEntity
  8
TEXT1
100
AcDbText
 10
1.081591002075064
 20
4.402265972491214
 30
0.0
 40
0.32
  1
NOTES:
  7
ROMANS
 72
     1
 11
1.912067192551255
 21
4.562265972491214
 31
0.0
100
AcDbText
 73
     2
  0
TEXT
  5
5312
330
1F
100
AcDbEntity
  8
TEXT1
100
AcDbText
 10
1.06192569803963
 20
1.478293146284601
 30
0.0
 40
0.32
  1
USE BOTH OUTER SWITCHING POLES
  7
ROMANS
 11
1.06192569803963
 21
1.638293146284601
 31
0.0
100
AcDbText
 73
     2
  0
TEXT
  5
5315
330
1F
100
AcDbEntity
  8
TEXT1
100
AcDbText
 10
1.052594626270511
 20
0.8735545701797564
 30
0.0
 40
0.32
  1
SWITCH INCLUDES (2) FACTORY INSTALLED ELECTRICAL INTERLOCKS, CAT. NO. EIK034M.
  7
ROMANS
 11
1.052594626270511
 21
1.033554570179756
 31
0.0
100
AcDbText
 73
     2
  0
TEXT
  5
5317
330
1F
100
AcDbEntity
  8
TEXT1
100
AcDbText
 10
1.147295800360666
 20
3.26175785537187
 30
0.0
 40
0.32
  1
FINISH - GRAY BAKED ENAMEL
  7
ROMANS
 11
1.147295800360666
 21
3.42175785537187
 31
0.0
100
AcDbText
 73
     2
  0
TEXT
  5
5318
330
1F
100
AcDbEntity
  8
TEXT1
100
AcDbText
 10
1.118059211803412
 20
3.861757855371868
 30
0.0
 40
0.32
  1
CULUS LISTED - E2875
  7
ROMANS
 11
1.118059211803412
 21
4.021757855371868
 31
0.0
100
AcDbText
 73
     2
  0
TEXT
  5
531C
330
1F
100
AcDbEntity
  8
TEXT1
100
AcDbText
 10
59.12909280597069
 20
38.65481975784301
 30
0.0
 40
0.4
  1
WIRING DIAGRAMS
  7
ROMANS
 72
     1
 11
61.7481404250183
 21
38.85481975784301
 31
0.0
100
AcDbText
 73
     2
  0
TEXT
  5
531D
330
1F
100
AcDbEntity
  8
TEXT1
100
AcDbText
 10
59.78676154183812
 20
36.96671301116942
 30
0.0
 40
0.4
  1
NOT FUSIBLE
  7
ROMANS
 72
     1
 11
61.7677139227905
 21
37.16671301116942
 31
0.0
100
AcDbText
 73
     2
  0
LINE
  5
5322
330
1F
100
AcDbEntity
  8
CONTINUOUS1
100
AcDbLine
 10
58.8963958685913
 20
37.92571943511962
 30
0.0
 11
58.8963958685913
 21
31.22438791503906
 31
0.0
  0
TEXT
  5
5324
330
1F
100
AcDbEntity
  8
TEXT1
100
AcDbText
 10
56.6069669514785
 20
29.56438791503906
 30
0.0
 40
0.32
  1
TERMINAL LUGS
  7
ROMANS
 72
     1
 11
58.46601457052612
 21
29.72438791503906
 31
0.0
100
AcDbText
 73
     2
  0
LINE
  5
5325
330
1F
100
AcDbEntity
  8
CONTINUOUS1
100
AcDbLine
 10
52.38617070370099
 20
29.22438791503907
 30
0.0
 11
64.59988498144531
 21
29.22438791503907
 31
0.0
  0
TEXT
  5
5326
330
1F
100
AcDbEntity
  8
TEXT1
100
AcDbText
 10
59.42852294524716
 20
27.86438791503906
 30
0.0
 40
0.32
  1
#12 AWG
  7
ROMANS
 72
     1
 11
60.53328485000907
 21
28.02438791503906
 31
0.0
100
AcDbText
 73
     2
  0
TEXT
  5
5327
330
1F
100
AcDbEntity
  8
TEXT1
100
AcDbText
 10
62.99450403703435
 20
27.86438791503907
 30
0.0
 40
0.32
  1
AL
  7
ROMANS
 72
     1
 11
63.26117070370102
 21
28.02438791503907
 31
0.0
100
AcDbText
 73
     2
  0
TEXT
  5
5328
330
1F
100
AcDbEntity
  8
TEXT1
100
AcDbText
 10
62.70498022751055
 20
28.66438791503906
 30
0.0
 40
0.32
  1
TYPE
  7
ROMANS
 72
     1
 11
63.26117070370102
 21
28.82438791503906
 31
0.0
100
AcDbText
 73
     2
  0
TEXT
  5
5329
330
1F
100
AcDbEntity
  8
TEXT1
100
AcDbText
 10
59.19974213227244
 20
28.66438791503906
 30
0.0
 40
0.32
  1
MIN. WIRE
  7
ROMANS
 72
     1
 11
60.41117070370101
 21
28.82438791503906
 31
0.0
100
AcDbText
 73
     2
  0
TEXT
  5
532A
330
1F
100
AcDbEntity
  8
TEXT1
100
AcDbText
 10
55.68878975132007
 20
28.66438791503906
 30
0.0
 40
0.32
  1
MAX. WIRE
  7
ROMANS
 72
     1
 11
56.96117070370102
 21
28.82438791503906
 31
0.0
100
AcDbText
 73
     2
  0
TEXT
  5
532D
330
1F
100
AcDbEntity
  8
TEXT1
100
AcDbText
 10
56.00878975132006
 20
27.86438791503906
 30
0.0
 40
0.32
  1
#6 AWG
  7
ROMANS
 72
     1
 11
56.961170703701
 21
28.02438791503906
 31
0.0
100
AcDbText
 73
     2
  0
TEXT
  5
532E
330
1F
100
AcDbEntity
  8
TEXT1
100
AcDbText
 10
53.40640879893911
 20
27.86438791503906
 30
0.0
 40
0.32
  1
30
  7
ROMANS
 72
     1
 11
53.711170703701
 21
28.02438791503906
 31
0.0
100
AcDbText
 73
     2
  0
TEXT
  5
532F
330
1F
100
AcDbEntity
  8
TEXT1
100
AcDbText
 10
52.64450403703434
 20
28.66438791503906
 30
0.0
 40
0.32
  1
AMPERES
  7
ROMANS
 72
     1
 11
53.711170703701
 21
28.82438791503906
 31
0.0
100
AcDbText
 73
     2
  0
LWPOLYLINE
  5
5330
330
1F
100
AcDbEntity
  8
CONTINUOUS1
100
AcDbPolyline
 90
        4
 70
   129
 43
0.0
 10
52.38617070370099
 20
30.22438791503907
 10
52.38617070370099
 20
27.02438791503907
 10
64.59988498144531
 20
27.02438791503907
 10
64.59988498144531
 20
30.22438791503907
  0
LINE
  5
5331
330
1F
100
AcDbEntity
  8
CONTINUOUS1
100
AcDbLine
 10
52.38617070370099
 20
28.42438791503907
 30
0.0
 11
64.59988498144531
 21
28.42438791503907
 31
0.0
  0
LINE
  5
5332
330
1F
100
AcDbEntity
  8
CONTINUOUS1
100
AcDbLine
 10
55.036170703701
 20
29.22438791503907
 30
0.0
 11
55.036170703701
 21
27.02438791503907
 31
0.0
  0
LINE
  5
5333
330
1F
100
AcDbEntity
  8
CONTINUOUS1
100
AcDbLine
 10
61.93617070370102
 20
29.22438791503907
 30
0.0
 11
61.93617070370102
 21
27.02438791503907
 31
0.0
  0
LINE
  5
5334
330
1F
100
AcDbEntity
  8
CONTINUOUS1
100
AcDbLine
 10
58.886170703701
 20
29.22438791503907
 30
0.0
 11
58.886170703701
 21
27.02438791503907
 31
0.0
  0
LINE
  5
535E
330
1F
100
AcDbEntity
  8
CONTINUOUS1
100
AcDbLine
 10
48.75427697485796
 20
6.882769044938861
 30
0.0
 11
61.69177859204541
 21
6.882769044938861
 31
0.0
  0
LINE
  5
5360
330
1F
100
AcDbEntity
  8
CONTINUOUS1
100
AcDbLine
 10
57.37927772954542
 20
6.882769044938861
 30
0.0
 11
57.37927772954542
 21
5.24800089703365
 31
0.0
  0
TEXT
  5
5363
330
1F
100
AcDbEntity
  8
TEXT1
100
AcDbText
 10
37.4713705508914
 20
4.955544885367363
 30
0.0
 40
0.32
  1
HU361AWKEI4MVW
  7
ROMANS
 11
37.4713705508914
 21
5.115544885367363
 31
0.0
100
AcDbText
 73
     2
  0
LWPOLYLINE
  5
5366
330
1F
100
AcDbEntity
  8
CONTINUOUS1
100
AcDbPolyline
 90
        4
 70
   129
 43
0.0
 10
41.99243160450846
 20
9.470268398063895
 10
37.31043711231107
 20
9.470268398063895
 10
37.31043711231107
 20
4.13823231787849
 10
41.99243160450846
 20
4.13823231787849
  0
LWPOLYLINE
  5
5367
330
1F
100
AcDbEntity
  8
CONTINUOUS1
100
AcDbPolyline
 90
        4
 70
   129
 43
0.0
 10
41.99243160450846
 20
4.13823231787849
 10
46.19060375775812
 20
4.13823231787849
 10
46.19060375775812
 20
9.470268398063899
 10
41.99243160450846
 20
9.470268398063899
  0
LWPOLYLINE
  5
5368
330
1F
100
AcDbEntity
  8
CONTINUOUS1
100
AcDbPolyline
 90
        4
 70
   129
 43
0.0
 10
48.75427697485797
 20
9.470268398063897
 10
46.19060375775812
 20
9.470268398063899
 10
46.19060375775812
 20
4.13823231787849
 10
48.75427697485796
 20
4.13823231787849
  0
LWPOLYLINE
  5
5369
330
1F
100
AcDbEntity
  8
CONTINUOUS1
100
AcDbPolyline
 90
        4
 70
   129
 43
0.0
 10
48.75427697485797
 20
4.13823231787849
 10
48.75427697485796
 20
4.13823231787849
 10
48.75427697485796
 20
9.470268398063906
 10
48.75427697485797
 20
9.470268398063906
  0
LWPOLYLINE
  5
536A
330
1F
100
AcDbEntity
  8
CONTINUOUS1
100
AcDbPolyline
 90
        4
 70
   129
 43
0.0
 10
48.75427697485796
 20
6.882769044938861
 10
48.75427697485796
 20
6.882769044938861
 10
48.75427697485796
 20
4.13823231787849
 10
48.75427697485796
 20
4.13823231787849
  0
LWPOLYLINE
  5
536D
330
1F
100
AcDbEntity
  8
CONTINUOUS1
100
AcDbPolyline
 90
        4
 70
   129
 43
0.0
 10
61.69177729829545
 20
4.13823231787849
 10
59.53552751392044
 20
4.13823231787849
 10
59.53552751392044
 20
6.020268613688859
 10
61.69177729829545
 20
6.020268613688859
  0
LWPOLYLINE
  5
536E
330
1F
100
AcDbEntity
  8
CONTINUOUS1
100
AcDbPolyline
 90
        4
 70
   129
 43
0.0
 10
61.69177729829545
 20
6.020268613688873
 10
63.14583113987038
 20
6.020268613688873
 10
63.14583113987037
 20
4.13823231787849
 10
61.69177729829545
 20
4.13823231787849
  0
LWPOLYLINE
  5
5370
330
1F
100
AcDbEntity
  8
CONTINUOUS1
100
AcDbPolyline
 90
        4
 70
   129
 43
0.0
 10
63.14583113987037
 20
6.020268613688873
 10
64.59988498144531
 20
6.020268613688873
 10
64.59988498144531
 20
4.13823231787849
 10
63.14583113987037
 20
4.13823231787849
  0
LWPOLYLINE
  5
5372
330
1F
100
AcDbEntity
  8
CONTINUOUS1
100
AcDbPolyline
 90
        4
 70
   129
 43
0.0
 10
57.37927902329537
 20
4.13823231787849
 10
59.53552880767038
 20
4.13823231787849
 10
59.53552880767038
 20
6.020268613688859
 10
57.37927902329537
 20
6.020268613688859
  0
LWPOLYLINE
  5
5375
330
1F
100
AcDbEntity
  8
CONTINUOUS1
100
AcDbPolyline
 90
        4
 70
   129
 43
0.0
 10
57.3792783764204
 20
4.13823231787849
 10
55.22302729829544
 20
4.13823231787849
 10
55.22302729829544
 20
6.020268613688859
 10
57.37927708267044
 20
6.020268613688859
  0
LWPOLYLINE
  5
5376
330
1F
100
AcDbEntity
  8
CONTINUOUS1
100
AcDbPolyline
 90
        4
 70
   129
 43
0.0
 10
53.06677751392043
 20
4.13823231787849
 10
55.22302729829544
 20
4.13823231787849
 10
55.22302729829544
 20
6.020268613688859
 10
53.06677751392043
 20
6.020268613688859
  0
LWPOLYLINE
  5
5378
330
1F
100
AcDbEntity
  8
CONTINUOUS1
100
AcDbPolyline
 90
        4
 70
   129
 43
0.0
 10
53.06677654360797
 20
4.13823231787849
 10
50.91052675923297
 20
4.13823231787849
 10
50.91052675923297
 20
6.020268613688859
 10
53.06677654360797
 20
6.020268613688859
  0
LWPOLYLINE
  5
5379
330
1F
100
AcDbEntity
  8
CONTINUOUS1
100
AcDbPolyline
 90
        4
 70
   129
 43
0.0
 10
48.75427697485796
 20
4.13823231787849
 10
50.91052675923297
 20
4.13823231787849
 10
50.91052675923297
 20
6.020268613688859
 10
48.75427697485796
 20
6.020268613688859
  0
TEXT
  5
537D
330
1F
100
AcDbEntity
  8
TEXT1
100
AcDbText
 10
47.24581106636829
 20
4.955544885367363
 30
0.0
 40
0.32
  1
30
  7
ROMANS
 72
     1
 11
47.5505729711302
 21
5.115544885367363
 31
0.0
100
AcDbText
 73
     2
  0
TEXT
  5
5382
330
1F
100
AcDbEntity
  8
TEXT1
100
AcDbText
 10
42.24040779498464
 20
4.955544885367363
 30
0.0
 40
0.32
  1
600VAC;600VDC
  7
ROMANS
 72
     1
 11
44.12993160450844
 21
5.115544885367363
 31
0.0
100
AcDbText
 73
     2
  0
TEXT
  5
5391
330
1F
100
AcDbEntity
  8
TEXT1
100
AcDbText
 10
46.48742411074468
 20
7.236518613688881
 30
0.0
 40
0.32
  1
RATINGS
  7
ROMANS
 72
     1
 11
47.45504315836373
 21
7.396518613688881
 31
0.0
100
AcDbText
 73
     2
  0
TEXT
  5
5392
330
1F
100
AcDbEntity
  8
TEXT1
100
AcDbText
 10
43.1623125568894
 20
7.236518613688881
 30
0.0
 40
0.32
  1
RATINGS
  7
ROMANS
 72
     1
 11
44.12993160450844
 21
7.396518613688881
 31
0.0
100
AcDbText
 73
     2
  0
TEXT
  5
5393
330
1F
100
AcDbEntity
  8
TEXT1
100
AcDbText
 10
38.78170218384603
 20
7.265853578813644
 30
0.0
 40
0.32
  1
NUMBER
  7
ROMANS
 72
     1
 11
39.77217837432222
 21
7.425853578813644
 31
0.0
100
AcDbText
 73
     2
  0
TEXT
  5
5394
330
1F
100
AcDbEntity
  8
TEXT1
100
AcDbText
 10
46.23599553931611
 20
7.77558089806388
 30
0.0
 40
0.32
  1
AMPERAGE
  7
ROMANS
 72
     1
 11
47.45504315836373
 21
7.93558089806388
 31
0.0
100
AcDbText
 73
     2
  0
TEXT
  5
5395
330
1F
100
AcDbEntity
  8
TEXT1
100
AcDbText
 10
43.13945541403225
 20
7.77558089806388
 30
0.0
 40
0.32
  1
VOLTAGE
  7
ROMANS
 72
     1
 11
44.12993160450844
 21
7.93558089806388
 31
0.0
100
AcDbText
 73
     2
  0
TEXT
  5
5396
330
1F
100
AcDbEntity
  8
TEXT1
100
AcDbText
 10
38.75884504098888
 20
7.804915863188643
 30
0.0
 40
0.32
  1
CATALOG
  7
ROMANS
 72
     1
 11
39.77217837432222
 21
7.964915863188643
 31
0.0
100
AcDbText
 73
     2
  0
TEXT
  5
539C
330
1F
100
AcDbEntity
  8
TEXT1
100
AcDbText
 10
50.51142757318897
 20
6.289799757364323
 30
0.0
 40
0.3234381438990835
  1
MAX.
  7
ROMANS
 72
     1
 11
51.06589296273026
 21
6.451518829313865
 31
0.0
100
AcDbText
 73
     2
  0
TEXT
  5
539D
330
1F
100
AcDbEntity
  8
TEXT1
100
AcDbText
 10
59.13642832787644
 20
6.289799757364323
 30
0.0
 40
0.3234381438990835
  1
MAX.
  7
ROMANS
 72
     1
 11
59.69089371741772
 21
6.451518829313865
 31
0.0
100
AcDbText
 73
     2
  0
TEXT
  5
539E
330
1F
100
AcDbEntity
  8
TEXT1
100
AcDbText
 10
54.82392875912642
 20
6.289799757364323
 30
0.0
 40
0.3234381438990835
  1
MAX.
  7
ROMANS
 72
     1
 11
55.37839414866771
 21
6.451518829313865
 31
0.0
100
AcDbText
 73
     2
  0
TEXT
  5
53A6
330
1F
100
AcDbEntity
  8
TEXT1
100
AcDbText
 10
49.76627102247698
 20
4.488000897033655
 30
0.0
 40
0.32
  1
5
  7
ROMANS
 72
     1
 11
49.91865197485793
 21
4.648000897033655
 31
0.0
100
AcDbText
 73
     2
  0
TEXT
  5
53AB
330
1F
100
AcDbEntity
  8
TEXT1
100
AcDbText
 10
49.48568300151272
 20
5.429019044938865
 30
0.0
 40
0.32
  1
1
  7
ROMANS
 72
     1
 11
49.61520681103653
 21
5.589019044938865
 31
0.0
100
AcDbText
 73
     2
  0
TEXT
  5
53AC
330
1F
100
AcDbEntity
  8
TEXT1
100
AcDbText
 10
49.82869203948421
 20
5.389019044938865
 30
0.0
 40
0.4
  1
Ø
  7
ROMANS
 72
     1
 11
50.03821584900802
 21
5.589019044938865
 31
0.0
100
AcDbText
 73
     2
  0
TEXT
  5
53AF
330
1F
100
AcDbEntity
  8
TEXT1
100
AcDbText
 10
51.66103292723891
 20
4.488000897033655
 30
0.0
 40
0.32
  1
10
  7
ROMANS
 72
     1
 11
51.98865197485796
 21
4.648000897033655
 31
0.0
100
AcDbText
 73
     2
  0
TEXT
  5
53B7
330
1F
100
AcDbEntity
  8
TEXT1
100
AcDbText
 10
51.61907628990559
 20
5.429019044938865
 30
0.0
 40
0.32
  1
3
  7
ROMANS
 72
     1
 11
51.77145724228655
 21
5.589019044938865
 31
0.0
100
AcDbText
 73
     2
  0
TEXT
  5
53B8
330
1F
100
AcDbEntity
  8
TEXT1
100
AcDbText
 10
51.98494247073422
 20
5.389019044938865
 30
0.0
 40
0.4
  1
Ø
  7
ROMANS
 72
     1
 11
52.19446628025803
 21
5.589019044938865
 31
0.0
100
AcDbText
 73
     2
  0
TEXT
  5
53C2
330
1F
100
AcDbEntity
  8
TEXT1
100
AcDbText
 10
53.14982357288396
 20
4.472978189978332
 30
0.0
 40
0.32
  1
7 1/2
  7
ROMANS
 72
     1
 11
53.93458547764587
 21
4.632978189978333
 31
0.0
100
AcDbText
 73
     2
  0
TEXT
  5
53C7
330
1F
100
AcDbEntity
  8
TEXT1
100
AcDbText
 10
56.03951647165849
 20
4.488000897033655
 30
0.0
 40
0.32
  1
20
  7
ROMANS
 72
     1
 11
56.34427837642039
 21
4.648000897033655
 31
0.0
100
AcDbText
 73
     2
  0
TEXT
  5
53CC
330
1F
100
AcDbEntity
  8
TEXT1
100
AcDbText
 10
53.75505961870016
 20
5.429019044938865
 30
0.0
 40
0.32
  1
1
  7
ROMANS
 72
     1
 11
53.88458342822397
 21
5.589019044938865
 31
0.0
100
AcDbText
 73
     2
  0
TEXT
  5
53CD
330
1F
100
AcDbEntity
  8
TEXT1
100
AcDbText
 10
54.09806865667166
 20
5.389019044938865
 30
0.0
 40
0.4
  1
Ø
  7
ROMANS
 72
     1
 11
54.30759246619548
 21
5.589019044938865
 31
0.0
100
AcDbText
 73
     2
  0
TEXT
  5
53CE
330
1F
100
AcDbEntity
  8
TEXT1
100
AcDbText
 10
55.93157747584303
 20
5.429019044938865
 30
0.0
 40
0.32
  1
3
  7
ROMANS
 72
     1
 11
56.08395842822398
 21
5.589019044938865
 31
0.0
100
AcDbText
 73
     2
  0
TEXT
  5
53CF
330
1F
100
AcDbEntity
  8
TEXT1
100
AcDbText
 10
56.29744365667165
 20
5.389019044938865
 30
0.0
 40
0.4
  1
Ø
  7
ROMANS
 72
     1
 11
56.50696746619546
 21
5.589019044938865
 31
0.0
100
AcDbText
 73
     2
  0
TEXT
  5
53D7
330
1F
100
AcDbEntity
  8
TEXT1
100
AcDbText
 10
50.17446439130169
 20
7.585268829313862
 30
0.0
 40
0.32
  1
240VAC
  7
ROMANS
 72
     1
 11
51.06589296273026
 21
7.745268829313862
 31
0.0
100
AcDbText
 73
     2
  0
TEXT
  5
53D8
330
1F
100
AcDbEntity
  8
TEXT1
100
AcDbText
 10
58.7918460983701
 20
7.585268829313862
 30
0.0
 40
0.32
  1
600VAC
  7
ROMANS
 72
     1
 11
59.69089371741772
 21
7.745268829313862
 31
0.0
100
AcDbText
 73
     2
  0
TEXT
  5
53D9
330
1F
100
AcDbEntity
  8
TEXT1
100
AcDbText
 10
54.48696557723913
 20
7.604018613688865
 30
0.0
 40
0.32
  1
480VAC
  7
ROMANS
 72
     1
 11
55.3783941486677
 21
7.764018613688865
 31
0.0
100
AcDbText
 73
     2
  0
TEXT
  5
53DA
330
1F
100
AcDbEntity
  8
TEXT1
100
AcDbText
 10
54.64404060461981
 20
8.879018829313874
 30
0.0
 40
0.32
  1
HORSEPOWER RATINGS
  7
ROMANS
 72
     1
 11
57.3792786998579
 21
9.039018829313874
 31
0.0
100
AcDbText
 73
     2
  0
TEXT
  5
53E2
330
1F
100
AcDbEntity
  8
TEXT1
100
AcDbText
 10
58.25915954442636
 20
4.488000897033655
 30
0.0
 40
0.32
  1
10
  7
ROMANS
 72
     1
 11
58.5867785920454
 21
4.648000897033655
 31
0.0
100
AcDbText
 73
     2
  0
TEXT
  5
53E7
330
1F
100
AcDbEntity
  8
TEXT1
100
AcDbText
 10
58.11068440307518
 20
5.429019044938865
 30
0.0
 40
0.32
  1
1
  7
ROMANS
 72
     1
 11
58.24020821259899
 21
5.589019044938865
 31
0.0
100
AcDbText
 73
     2
  0
TEXT
  5
53E8
330
1F
100
AcDbEntity
  8
TEXT1
100
AcDbText
 10
58.45369344104668
 20
5.389019044938865
 30
0.0
 40
0.4
  1
Ø
  7
ROMANS
 72
     1
 11
58.66321725057048
 21
5.589019044938865
 31
0.0
100
AcDbText
 73
     2
  0
TEXT
  5
53EB
330
1F
100
AcDbEntity
  8
TEXT1
100
AcDbText
 10
60.35201668728349
 20
4.488000897033655
 30
0.0
 40
0.32
  1
30
  7
ROMANS
 72
     1
 11
60.6567785920454
 21
4.648000897033655
 31
0.0
100
AcDbText
 73
     2
  0
TEXT
  5
53FB
330
1F
100
AcDbEntity
  8
TEXT1
100
AcDbText
 10
62.23848543964094
 20
4.488000897033655
 30
0.0
 40
0.32
  1
5
  7
ROMANS
 72
     1
 11
62.39086639202189
 21
4.648000897033655
 31
0.0
100
AcDbText
 73
     2
  0
TEXT
  5
53FF
330
1F
100
AcDbEntity
  8
TEXT1
100
AcDbText
 10
63.50840709472006
 20
4.488000897033655
 30
0.0
 40
0.32
  1
15
  7
ROMANS
 72
     1
 11
63.8360261423391
 21
4.648000897033655
 31
0.0
100
AcDbText
 73
     2
  0
TEXT
  5
5404
330
1F
100
AcDbEntity
  8
TEXT1
100
AcDbText
 10
61.95100926936261
 20
5.472143613688862
 30
0.0
 40
0.32
  1
MAX.
  7
ROMANS
 72
     1
 11
62.49958069793404
 21
5.632143613688862
 31
0.0
100
AcDbText
 73
     2
  0
TEXT
  5
5405
330
1F
100
AcDbEntity
  8
TEXT1
100
AcDbText
 10
63.36899044320178
 20
5.472143613688864
 30
0.0
 40
0.32
  1
MAX.
  7
ROMANS
 72
     1
 11
63.91756187177321
 21
5.632143613688864
 31
0.0
100
AcDbText
 73
     2
  0
TEXT
  5
5406
330
1F
100
AcDbEntity
  8
TEXT1
100
AcDbText
 10
60.24407769146804
 20
5.429019044938865
 30
0.0
 40
0.32
  1
3
  7
ROMANS
 72
     1
 11
60.39645864384898
 21
5.589019044938865
 31
0.0
100
AcDbText
 73
     2
  0
TEXT
  5
5407
330
1F
100
AcDbEntity
  8
TEXT1
100
AcDbText
 10
60.60994387229667
 20
5.389019044938865
 30
0.0
 40
0.4
  1
Ø
  7
ROMANS
 72
     1
 11
60.81946768182048
 21
5.589019044938865
 31
0.0
100
AcDbText
 73
     2
  0
TEXT
  5
5408
330
1F
100
AcDbEntity
  8
TEXT1
100
AcDbText
 10
61.96957744668864
 20
7.457394044938869
 30
0.0
 40
0.32
  1
250
  7
ROMANS
 72
     1
 11
62.4267203038315
 21
7.617394044938869
 31
0.0
100
AcDbText
 73
     2
  0
TEXT
  5
5409
330
1F
100
AcDbEntity
  8
TEXT1
100
AcDbText
 10
63.4274678386776
 20
7.457394044938869
 30
0.0
 40
0.32
  1
600
  7
ROMANS
 72
     1
 11
63.89222974343951
 21
7.617394044938869
 31
0.0
100
AcDbText
 73
     2
  0
LWPOLYLINE
  5
540A
330
1F
100
AcDbEntity
  8
CONTINUOUS1
100
AcDbPolyline
 90
        4
 70
   129
 43
0.0
 10
63.14583113987038
 20
8.60776861368887
 10
64.59988498144531
 20
8.607768613688868
 10
64.59988498144531
 20
6.02026861368887
 10
63.14583113987038
 20
6.020268613688871
  0
TEXT
  5
540B
330
1F
100
AcDbEntity
  8
TEXT1
100
AcDbText
 10
61.98481554192674
 20
6.974393829313864
 30
0.0
 40
0.32
  1
VDC
  7
ROMANS
 72
     1
 11
62.4267203038315
 21
7.134393829313864
 31
0.0
100
AcDbText
 73
     2
  0
TEXT
  5
540C
330
1F
100
AcDbEntity
  8
TEXT1
100
AcDbText
 10
63.45032498153475
 20
6.974393829313864
 30
0.0
 40
0.32
  1
VDC
  7
ROMANS
 72
     1
 11
63.89222974343951
 21
7.134393829313864
 31
0.0
100
AcDbText
 73
     2
  0
TEXT
  5
540D
330
1F
100
AcDbEntity
  8
TEXT1
100
AcDbText
 10
56.83491599620999
 20
10.28591040514211
 30
0.0
 40
0.32
  1
DUAL DIMENSIONS:
  7
ROMANS
 11
56.83491599620999
 21
10.44591040514211
 31
0.0
100
AcDbText
 73
     2
  0
TEXT
  5
540E
330
1F
100
AcDbEntity
  8
TEXT1
100
AcDbText
 10
61.54637521804989
 20
10.49632716081838
 30
0.0
 40
0.4
  1
INCHES
  7
ROMANS
 11
61.54637521804989
 21
10.69632716081838
 31
0.0
100
AcDbText
 73
     2
  0
TEXT
  5
540F
330
1F
100
AcDbEntity
  8
TEXT1
100
AcDbText
 10
61.51973521770656
 20
9.936327160818381
 30
0.0
 40
0.32
  1
MILLIMETERS
  7
ROMANS
 11
61.51973521770656
 21
10.09632716081838
 31
0.0
100
AcDbText
 73
     2
  0
LWPOLYLINE
  5
5410
330
1F
100
AcDbEntity
  8
CONTINUOUS1
100
AcDbPolyline
 90
        4
 70
   129
 43
0.0
 10
48.75427697485797
 20
9.470268398063906
 10
64.59988498144531
 20
9.470268398063918
 10
64.59988498144531
 20
6.02026861368887
 10
48.75427697485797
 20
6.020268613688859
  0
LWPOLYLINE
  5
5411
330
1F
100
AcDbEntity
  8
CONTINUOUS1
100
AcDbPolyline
 90
        4
 70
   129
 43
0.0
 10
61.69177794517041
 20
8.607768613688868
 10
63.14583113987038
 20
8.60776861368887
 10
63.14583113987038
 20
6.02026861368887
 10
61.69177794517041
 20
6.020268613688868
  0
LWPOLYLINE
  5
5413
330
1F
100
AcDbEntity
  8
CONTINUOUS1
100
AcDbPolyline
 90
        4
 70
   129
 43
0.0
 10
48.75427697485797
 20
8.607768613688868
 10
53.06677719048295
 20
8.607768613688863
 10
53.06677719048295
 20
6.882769044938861
 10
48.75427697485797
 20
6.882769044938866
  0
LWPOLYLINE
  5
5414
330
1F
100
AcDbEntity
  8
CONTINUOUS1
100
AcDbPolyline
 90
        4
 70
   129
 43
0.0
 10
53.06677719048295
 20
6.882769044938859
 10
48.75427697485796
 20
6.882769044938859
 10
48.75427697485796
 20
4.13823231787849
 10
53.06677783735791
 20
4.13823231787849
  0
LWPOLYLINE
  5
5415
330
1F
100
AcDbEntity
  8
CONTINUOUS1
100
AcDbPolyline
 90
        4
 70
   129
 43
0.0
 10
53.06677816079539
 20
6.882769044938861
 10
53.06677719048295
 20
6.882769044938864
 10
53.06677783735791
 20
4.13823231787849
 10
53.06677751392043
 20
4.13823231787849
  0
LWPOLYLINE
  5
5416
330
1F
100
AcDbEntity
  8
CONTINUOUS1
100
AcDbPolyline
 90
        4
 70
   129
 43
0.0
 10
53.06677816079539
 20
4.13823231787849
 10
57.3792783764204
 20
4.13823231787849
 10
57.3792783764204
 20
6.882769044938861
 10
53.06677816079539
 20
6.882769044938861
  0
LWPOLYLINE
  5
5417
330
1F
100
AcDbEntity
  8
CONTINUOUS1
100
AcDbPolyline
 90
        4
 70
   129
 43
0.0
 10
57.37927772954542
 20
6.882769044938861
 10
57.3792783764204
 20
6.882769044938861
 10
57.3792783764204
 20
4.13823231787849
 10
57.37927772954543
 20
4.13823231787849
  0
LWPOLYLINE
  5
5418
330
1F
100
AcDbEntity
  8
CONTINUOUS1
100
AcDbPolyline
 90
        4
 70
   129
 43
0.0
 10
61.69177859204541
 20
6.882769044938861
 10
57.37927772954542
 20
6.882769044938861
 10
57.37927772954543
 20
4.13823231787849
 10
61.69177729829545
 20
4.13823231787849
  0
LWPOLYLINE
  5
5419
330
1F
100
AcDbEntity
  8
CONTINUOUS1
100
AcDbPolyline
 90
        4
 70
   129
 43
0.0
 10
63.14583113987038
 20
8.60776861368887
 10
61.69177859204541
 20
8.60776861368887
 10
61.69177729829545
 20
4.13823231787849
 10
63.14583113987038
 20
4.13823231787849
  0
LWPOLYLINE
  5
541A
330
1F
100
AcDbEntity
  8
CONTINUOUS1
100
AcDbPolyline
 90
        4
 70
   129
 43
0.0
 10
64.59988498144531
 20
8.607768613688868
 10
63.14583113987038
 20
8.607768613688868
 10
63.14583113987039
 20
4.13823231787849
 10
64.59988498144531
 20
4.13823231787849
  0
LWPOLYLINE
  5
541C
330
1F
100
AcDbEntity
  8
CONTINUOUS1
100
AcDbPolyline
 90
        4
 70
   129
 43
0.0
 10
37.31043711231107
 20
9.470268398063893
 10
48.75427697485796
 20
9.470268398063899
 10
48.75427697485796
 20
6.020268613688859
 10
37.31043711231107
 20
6.020268613688854
  0
LWPOLYLINE
  5
541D
330
1F
100
AcDbEntity
  8
CONTINUOUS1
100
AcDbPolyline
 90
        4
 70
   129
 43
0.0
 10
48.75427697485795
 20
8.607768613688868
 10
53.06677719048295
 20
8.607768613688866
 10
53.06677719048295
 20
6.882769044938861
 10
48.75427697485795
 20
6.882769044938862
  0
LWPOLYLINE
  5
541E
330
1F
100
AcDbEntity
  8
CONTINUOUS1
100
AcDbPolyline
 90
        4
 70
   129
 43
0.0
 10
53.06677719048295
 20
8.607768613688868
 10
57.3792783764204
 20
8.60776861368887
 10
57.3792783764204
 20
6.882769044938861
 10
53.06677719048295
 20
6.882769044938859
  0
LWPOLYLINE
  5
5420
330
1F
100
AcDbEntity
  8
CONTINUOUS1
100
AcDbPolyline
 90
        4
 70
   129
 43
0.0
 10
57.3792783764204
 20
8.607768613688868
 10
61.69177859204541
 20
8.607768613688868
 10
61.69177859204541
 20
6.882769044938861
 10
57.3792783764204
 20
6.882769044938861
  0
LINE
  5
5423
330
1F
100
AcDbEntity
  8
HIDDEN1
100
AcDbLine
 10
61.20440399999999
 20
33.94843999999999
 30
0.0
 11
62.664004
 21
33.94843999999999
 31
0.0
  0
LWPOLYLINE
  5
5424
330
1F
100
AcDbEntity
  8
CONTINUOUS1
100
AcDbPolyline
 90
        3
 70
   128
 43
0.0
 10
61.06253666797866
 20
33.08027990359487
 10
61.06253666797866
 20
33.50240524310162
 10
61.31308293262709
 20
34.29025314349224
  0
LWPOLYLINE
  5
5425
330
1F
100
AcDbEntity
  8
CONTINUOUS1
100
AcDbPolyline
 90
        3
 70
   128
 43
0.0
 10
62.52207493702162
 20
33.08027761477651
 10
62.52207493702162
 20
33.50240295428326
 10
62.77262120167007
 20
34.29025085467388
  0
LINE
  5
5426
330
1F
100
AcDbEntity
  8
CONTINUOUS1
100
AcDbLine
 10
61.06253514209975
 20
34.27358444232037
 30
0.0
 11
61.06253514209975
 21
34.69570978182712
 31
0.0
  0
LINE
  5
5427
330
1F
100
AcDbEntity
  8
CONTINUOUS1
100
AcDbLine
 10
62.52207341114272
 20
34.27358215350201
 30
0.0
 11
62.52207341114272
 21
34.69570749300876
 31
0.0
  0
LINE
  5
5428
330
1F
100
AcDbEntity
  8
CONTINUOUS1
100
AcDbLine
 10
61.79231419483413
 20
34.27358444232037
 30
0.0
 11
61.79231419483413
 21
34.69570978182712
 31
0.0
  0
LWPOLYLINE
  5
5429
330
1F
100
AcDbEntity
  8
CONTINUOUS1
100
AcDbPolyline
 90
        3
 70
   128
 43
0.0
 10
61.79231572071303
 20
33.08027990359487
 10
61.79231572071303
 20
33.50240524310162
 10
62.04286198536148
 20
34.29025314349224
  0
CIRCLE
  5
542A
330
1F
100
AcDbEntity
  8
CONTINUOUS1
100
AcDbCircle
 10
61.07205891529311
 20
34.84813192385593
 30
0.0
 40
0.1527193885415006
  0
CIRCLE
  5
542B
330
1F
100
AcDbEntity
  8
CONTINUOUS1
100
AcDbCircle
 10
61.80183796802749
 20
34.84813192385593
 30
0.0
 40
0.1527193885414864
  0
CIRCLE
  5
542C
330
1F
100
AcDbEntity
  8
CONTINUOUS1
100
AcDbCircle
 10
62.53159718433608
 20
34.84812963503756
 30
0.0
 40
0.152719388541486
  0
CIRCLE
  5
542D
330
1F
100
AcDbEntity
  8
CONTINUOUS1
100
AcDbCircle
 10
62.52207493702162
 20
32.92755822623732
 30
0.0
 40
0.1527193885415002
  0
CIRCLE
  5
542E
330
1F
100
AcDbEntity
  8
CONTINUOUS1
100
AcDbCircle
 10
61.79231572071302
 20
32.92756051505568
 30
0.0
 40
0.1527193885415006
  0
CIRCLE
  5
542F
330
1F
100
AcDbEntity
  8
CONTINUOUS1
100
AcDbCircle
 10
61.06253666797865
 20
32.92756051505568
 30
0.0
 40
0.1527193885415006
  0
LWPOLYLINE
  5
544B
102
{ACAD_REACTORS
330
55F2
102
}
330
1F
100
AcDbEntity
  8
TEXT1
100
AcDbPolyline
 90
        3
 70
   129
 43
0.0
 10
0.4755038924015054
 20
1.439377996577396
 10
0.9075038924015004
 20
1.439377996577396
 10
0.6915038924015207
 20
1.871377996577413
  0
LWPOLYLINE
  5
544C
330
1F
100
AcDbEntity
  8
TEXT1
100
AcDbPolyline
 90
        3
 70
   129
 43
0.0
 10
50.11177815511992
 20
4.423696530152943
 10
50.54377815511991
 20
4.423696530152943
 10
50.32777815511994
 20
4.855696530152959
  0
LWPOLYLINE
  5
544D
330
1F
100
AcDbEntity
  8
TEXT1
100
AcDbPolyline
 90
        3
 70
   129
 43
0.0
 10
54.73658669263047
 20
4.423696530152941
 10
55.16858669263046
 20
4.423696530152941
 10
54.95258669263048
 20
4.855696530152957
  0
LWPOLYLINE
  5
5457
330
1F
100
AcDbEntity
  8
TEXT1
100
AcDbPolyline
 90
        3
 70
   129
 43
0.0
 10
64.14775865129977
 20
4.48376268054951
 10
64.57975865129978
 20
4.48376268054951
 10
64.3637586512998
 20
4.915762680549526
  0
LWPOLYLINE
  5
5458
330
1F
100
AcDbEntity
  8
TEXT1
100
AcDbPolyline
 90
        3
 70
   129
 43
0.0
 10
58.93063554379799
 20
4.433240464986987
 10
59.36263554379799
 20
4.433240464986987
 10
59.146635543798
 20
4.865240464987003
  0
LWPOLYLINE
  5
545A
330
1F
100
AcDbEntity
  8
TEXT1
100
AcDbPolyline
 90
        3
 70
   129
 43
0.0
 10
62.66806061102453
 20
4.500603419070353
 10
63.10006061102452
 20
4.500603419070353
 10
62.88406061102454
 20
4.932603419070369
  0
TEXT
  5
546C
330
1F
100
AcDbEntity
  8
TEXT1
100
AcDbText
 10
1.098153695015277
 20
2.666496431476728
 30
0.0
 40
0.32
  1
WHEN MOUNTING THESE SWITCHES, ALLOW 3.00 IN / 76 MM MIN.
  7
ROMANS
 11
1.098153695015277
 21
2.826496431476728
 31
0.0
100
AcDbText
 73
     2
  0
TEXT
  5
546D
330
1F
100
AcDbEntity
  8
TEXT1
100
AcDbText
 10
2.098153695015277
 20
2.066496431476732
 30
0.0
 40
0.32
  1
CLEARANCE BETWEEN ENCLOSURES FOR OPENING OF SIDE HINGED DOOR.
  7
ROMANS
 11
2.098153695015277
 21
2.226496431476732
 31
0.0
100
AcDbText
 73
     2
  0
LWPOLYLINE
  5
546E
330
1F
100
AcDbEntity
  8
DIM
100
AcDbPolyline
 90
        3
 70
   128
 43
0.0
 10
19.4281683760901
 20
36.47830060762208
 10
19.0115433760901
 20
36.47830060762208
 10
15.29315415824329
 20
35.4571998453835
  0
INSERT
  5
546F
330
1F
100
AcDbEntity
  8
DIM
100
AcDbBlockReference
  2
M_PFN_100
 10
15.29315415824329
 20
35.4571998453835
 30
0.0
 41
3.999999999999998
 42
4.0
 43
4.0
 50
195.355387465431
  0
TEXT
  5
5470
330
1F
100
AcDbEntity
  8
DIM
100
AcDbText
 10
23.97598781688754
 20
34.12623220430851
 30
0.0
 40
0.4
  1
.25 R
  7
ROMANS
 11
23.97598781688754
 21
34.32623220430851
 31
0.0
100
AcDbText
 73
     2
  0
TEXT
  5
5471
330
1F
100
AcDbEntity
  8
DIM
100
AcDbText
 10
24.17595503263537
 20
33.6055757605517
 30
0.0
 40
0.32
  1
[6]
  7
ROMANS
 72
     1
 11
24.53405027073061
 21
33.9255757605517
 31
0.0
100
AcDbText
 73
     3
  0
TEXT
  5
5472
330
1F
100
AcDbEntity
  8
TEXT1
100
AcDbText
 10
19.95495845435803
 20
33.22524409324767
 30
0.0
 40
0.32
  1
(4 HOLES)
  7
ROMANS
 11
19.95495845435803
 21
33.38524409324766
 31
0.0
100
AcDbText
 73
     2
  0
LWPOLYLINE
  5
5473
330
1F
100
AcDbEntity
  8
DIM
100
AcDbPolyline
 90
        3
 70
   128
 43
0.0
 10
22.09091857842892
 20
35.03902467208218
 10
23.21785031517094
 20
34.32623220430851
 10
23.84278781517093
 20
34.32623220430851
  0
INSERT
  5
5474
330
1F
100
AcDbEntity
  8
DIM
100
AcDbBlockReference
  2
M_PFN_101
 10
22.09091857842892
 20
35.03902467208218
 30
0.0
 41
4.0
 42
4.0
 43
4.0
 50
327.6863511685667
  0
TEXT
  5
5475
330
1F
100
AcDbEntity
  8
DIM
100
AcDbText
 10
23.46576988736039
 20
37.88674141403079
 30
0.0
 40
0.4
  1
.16 R
  7
ROMANS
 11
23.46576988736039
 21
38.08674141403079
 31
0.0
100
AcDbText
 73
     2
  0
TEXT
  5
5476
330
1F
100
AcDbEntity
  8
DIM
100
AcDbText
 10
23.73202301265288
 20
37.36608497027398
 30
0.0
 40
0.32
  1
[4]
  7
ROMANS
 72
     1
 11
24.09011825074812
 21
37.68608497027398
 31
0.0
100
AcDbText
 73
     3
  0
LWPOLYLINE
  5
5477
330
1F
100
AcDbEntity
  8
DIM
100
AcDbPolyline
 90
        3
 70
   128
 43
0.0
 10
21.72921753818575
 20
37.18286919010873
 10
22.70763238564377
 20
38.08674141403079
 10
23.33256988564377
 20
38.08674141403079
  0
INSERT
  5
5478
330
1F
100
AcDbEntity
  8
DIM
100
AcDbBlockReference
  2
M_PFN_101
 10
21.72921753818575
 20
37.18286919010873
 30
0.0
 41
4.0
 42
4.0
 43
4.0
 50
42.73214876858452
  0
LINE
  5
5479
330
1F
100
AcDbEntity
  8
CONTINUOUS1
100
AcDbLine
 10
34.74590564372819
 20
19.58053885975127
 30
0.0
 11
34.89589064372819
 21
19.58053885975127
 31
0.0
  0
LINE
  5
547A
330
1F
100
AcDbEntity
  8
CONTINUOUS1
100
AcDbLine
 10
34.64603663162819
 20
20.76542035975127
 30
0.0
 11
34.74590564372819
 21
20.54564933905127
 31
0.0
  0
LINE
  5
547B
330
1F
100
AcDbEntity
  8
CONTINUOUS1
100
AcDbLine
 10
34.74590564372819
 20
20.54564933905127
 30
0.0
 11
34.74590564372819
 21
19.58053885975127
 31
0.0
  0
LINE
  5
547C
330
1F
100
AcDbEntity
  8
CONTINUOUS1
100
AcDbLine
 10
34.64603663162819
 20
21.79269262225127
 30
0.0
 11
34.7960216316282
 21
21.79269262225127
 31
0.0
  0
LINE
  5
547D
330
1F
100
AcDbEntity
  8
CONTINUOUS1
100
AcDbLine
 10
34.7960216316282
 20
20.79790011145127
 30
0.0
 11
34.7960216316282
 21
21.79269262225127
 31
0.0
  0
LINE
  5
547E
330
1F
100
AcDbEntity
  8
CONTINUOUS1
100
AcDbLine
 10
34.7960216316282
 20
20.79790011145127
 30
0.0
 11
34.89589064372819
 21
20.57812909075127
 31
0.0
  0
LINE
  5
547F
330
1F
100
AcDbEntity
  8
CONTINUOUS1
100
AcDbLine
 10
34.89589064372819
 20
20.57812909075127
 30
0.0
 11
34.89589064372819
 21
19.58053885975127
 31
0.0
  0
LINE
  5
5480
330
1F
100
AcDbEntity
  8
CONTINUOUS1
100
AcDbLine
 10
34.89589064372819
 20
35.47618058699901
 30
0.0
 11
34.89589064372819
 21
36.47377081799902
 31
0.0
  0
LINE
  5
5481
330
1F
100
AcDbEntity
  8
CONTINUOUS1
100
AcDbLine
 10
34.7960216316282
 20
35.25640956629901
 30
0.0
 11
34.89589064372819
 21
35.47618058699901
 31
0.0
  0
LINE
  5
5482
330
1F
100
AcDbEntity
  8
CONTINUOUS1
100
AcDbLine
 10
34.7960216316282
 20
35.25640956629901
 30
0.0
 11
34.7960216316282
 21
34.26161705549901
 31
0.0
  0
LINE
  5
5483
330
1F
100
AcDbEntity
  8
CONTINUOUS1
100
AcDbLine
 10
34.64603663162819
 20
34.26161705549901
 30
0.0
 11
34.7960216316282
 21
34.26161705549901
 31
0.0
  0
LINE
  5
5484
330
1F
100
AcDbEntity
  8
CONTINUOUS1
100
AcDbLine
 10
34.74590564372819
 20
35.50866033869901
 30
0.0
 11
34.74590564372819
 21
36.47377081799902
 31
0.0
  0
LINE
  5
5485
330
1F
100
AcDbEntity
  8
CONTINUOUS1
100
AcDbLine
 10
34.64603663162819
 20
35.28888931799901
 30
0.0
 11
34.74590564372819
 21
35.50866033869901
 31
0.0
  0
LINE
  5
5486
330
1F
100
AcDbEntity
  8
CONTINUOUS1
100
AcDbLine
 10
34.74590564372819
 20
36.47377081799902
 30
0.0
 11
34.89589064372819
 21
36.47377081799902
 31
0.0
  0
LINE
  5
5487
330
1F
100
AcDbEntity
  8
CONTINUOUS1
100
AcDbLine
 10
31.4580402630242
 20
20.69042559935354
 30
0.0
 11
30.8114589276242
 21
20.69042559935354
 31
0.0
  0
LINE
  5
5488
330
1F
100
AcDbEntity
  8
CONTINUOUS1
100
AcDbLine
 10
31.4580402630242
 20
35.28888931799851
 30
0.0
 11
30.8114589276242
 21
35.28888931799851
 31
0.0
  0
ARC
  5
5489
330
1F
100
AcDbEntity
  8
CONTINUOUS1
100
AcDbCircle
 10
30.0364014411242
 20
24.14107549985355
 30
0.0
 40
0.0999900000000013
100
AcDbArc
 50
180.0000000000119
 51
240.2587262929251
  0
ARC
  5
548A
330
1F
100
AcDbEntity
  8
CONTINUOUS1
100
AcDbCircle
 10
30.0364014411242
 20
33.39132938195354
 30
0.0
 40
0.0999899999999994
100
AcDbArc
 50
119.7409564887201
 51
180.0000000000119
  0
LINE
  5
548B
330
1F
100
AcDbEntity
  8
CONTINUOUS1
100
AcDbLine
 10
30.8114589276242
 20
33.94931057825354
 30
0.0
 11
29.9867974020242
 21
33.47814869915355
 31
0.0
  0
LINE
  5
548C
330
1F
100
AcDbEntity
  8
CONTINUOUS1
100
AcDbLine
 10
30.8114589276242
 20
23.58309530345354
 30
0.0
 11
29.9867974020242
 21
24.05425718255354
 31
0.0
  0
LINE
  5
548D
330
1F
100
AcDbEntity
  8
CONTINUOUS1
100
AcDbLine
 10
31.83808119411031
 20
34.63557694475355
 30
0.0
 11
31.7325837449103
 21
34.63557694475355
 31
0.0
  0
LINE
  5
548E
330
1F
100
AcDbEntity
  8
CONTINUOUS1
100
AcDbLine
 10
31.83808119411032
 20
21.34373468357954
 30
0.0
 11
31.73258374491031
 21
21.34373468357954
 31
0.0
  0
LINE
  5
548F
330
1F
100
AcDbEntity
  8
CONTINUOUS1
100
AcDbLine
 10
31.83808119411031
 20
32.35435608965355
 30
0.0
 11
31.7325837449103
 21
32.35435608965355
 31
0.0
  0
LINE
  5
5490
330
1F
100
AcDbEntity
  8
CONTINUOUS1
100
AcDbLine
 10
31.83808119411032
 20
23.62495553867952
 30
0.0
 11
31.73258374491031
 21
23.62495553867952
 31
0.0
  0
LINE
  5
5491
330
1F
100
AcDbEntity
  8
CONTINUOUS1
100
AcDbLine
 10
31.83808119411031
 20
34.30598890685355
 30
0.0
 11
31.83808119411031
 21
34.63557694475355
 31
0.0
  0
LINE
  5
5492
330
1F
100
AcDbEntity
  8
CONTINUOUS1
100
AcDbLine
 10
31.83808119411032
 20
21.67332272147953
 30
0.0
 11
31.83808119411032
 21
21.34373468357954
 31
0.0
  0
LINE
  5
5493
330
1F
100
AcDbEntity
  8
CONTINUOUS1
100
AcDbLine
 10
31.83808119411031
 20
32.68394412755355
 30
0.0
 11
31.83808119411031
 21
32.35435608965355
 31
0.0
  0
LINE
  5
5494
330
1F
100
AcDbEntity
  8
CONTINUOUS1
100
AcDbLine
 10
31.83808119411032
 20
23.29536750077952
 30
0.0
 11
31.83808119411032
 21
23.62495553867952
 31
0.0
  0
LWPOLYLINE
  5
5495
330
1F
100
AcDbEntity
  8
CONTINUOUS1
100
AcDbPolyline
 90
        4
 70
   129
 43
0.0
 10
31.55065893921031
 20
32.68394412755354
 10
31.55065893921031
 20
34.30598890685355
 10
33.83367161511031
 20
34.30598890685355
 10
33.83367161511031
 20
32.68394412755354
  0
LWPOLYLINE
  5
5496
330
1F
100
AcDbEntity
  8
CONTINUOUS1
100
AcDbPolyline
 90
        4
 70
   129
 43
0.0
 10
31.55065893921033
 20
23.29536750077954
 10
31.55065893921033
 20
21.67332272147953
 10
33.83367161511032
 20
21.67332272147954
 10
33.83367161511032
 20
23.29536750077954
  0
LINE
  5
5497
330
1F
100
AcDbEntity
  8
CONTINUOUS1
100
AcDbLine
 10
10.60813114848411
 20
33.29929929689901
 30
0.0
 11
10.60813114848411
 21
23.93298402209901
 31
0.0
  0
LINE
  5
5498
330
1F
100
AcDbEntity
  8
CONTINUOUS1
100
AcDbLine
 10
11.10808114848412
 20
23.43303402209901
 30
0.0
 11
15.19767214848412
 21
23.43303402209901
 31
0.0
  0
LINE
  5
5499
330
1F
100
AcDbEntity
  8
CONTINUOUS1
100
AcDbLine
 10
11.10808114848412
 20
33.79924929689901
 30
0.0
 11
15.19767214848412
 21
33.79924929689901
 31
0.0
  0
LINE
  5
549A
330
1F
100
AcDbEntity
  8
CONTINUOUS1
100
AcDbLine
 10
15.69762214848412
 20
33.29929929689901
 30
0.0
 11
15.69762214848412
 21
23.93298402209901
 31
0.0
  0
LINE
  5
549B
330
1F
100
AcDbEntity
  8
CONTINUOUS1
100
AcDbLine
 10
11.60803114848412
 20
23.93298402209901
 30
0.0
 11
14.69772214848412
 21
23.93298402209901
 31
0.0
  0
LINE
  5
549C
330
1F
100
AcDbEntity
  8
CONTINUOUS1
100
AcDbLine
 10
11.10808114848412
 20
32.79934929689901
 30
0.0
 11
11.10808114848412
 21
24.43293402209901
 31
0.0
  0
LINE
  5
549D
330
1F
100
AcDbEntity
  8
CONTINUOUS1
100
AcDbLine
 10
11.60803114848412
 20
33.29929929689901
 30
0.0
 11
14.69772214848412
 21
33.29929929689901
 31
0.0
  0
LINE
  5
549E
330
1F
100
AcDbEntity
  8
CONTINUOUS1
100
AcDbLine
 10
15.19767214848412
 20
32.79934929689901
 30
0.0
 11
15.19767214848412
 21
24.43293402209901
 31
0.0
  0
ARC
  5
549F
330
1F
100
AcDbEntity
  8
CONTINUOUS1
100
AcDbCircle
 10
15.19767214848412
 20
23.93298402209901
 30
0.0
 40
0.4999499999999991
100
AcDbArc
 50
269.9997620862273
 51
0.0
  0
ARC
  5
54A0
330
1F
100
AcDbEntity
  8
CONTINUOUS1
100
AcDbCircle
 10
14.69772214848412
 20
24.43293402209901
 30
0.0
 40
0.4999499999999955
100
AcDbArc
 50
269.9997620862267
 51
0.0
  0
ARC
  5
54A1
330
1F
100
AcDbEntity
  8
CONTINUOUS1
100
AcDbCircle
 10
11.60803114848412
 20
24.43293402209901
 30
0.0
 40
0.4999500000000009
100
AcDbArc
 50
179.9998413908222
 51
269.9997620862272
  0
ARC
  5
54A2
330
1F
100
AcDbEntity
  8
CONTINUOUS1
100
AcDbCircle
 10
11.10808114848412
 20
23.93298402209901
 30
0.0
 40
0.4999500000000009
100
AcDbArc
 50
179.9998413908222
 51
269.9997620862267
  0
ARC
  5
54A3
330
1F
100
AcDbEntity
  8
CONTINUOUS1
100
AcDbCircle
 10
11.10808114848412
 20
33.29929929689901
 30
0.0
 40
0.4999500000000012
100
AcDbArc
 50
89.99992069540491
 51
179.9998413908222
  0
ARC
  5
54A4
330
1F
100
AcDbEntity
  8
CONTINUOUS1
100
AcDbCircle
 10
11.60803114848412
 20
32.79934929689901
 30
0.0
 40
0.4999500000000012
100
AcDbArc
 50
89.99992069540491
 51
179.9998413908222
  0
LINE
  5
54A5
330
1F
100
AcDbEntity
  8
CONTINUOUS1
100
AcDbLine
 10
14.78803411638412
 20
36.47377081799902
 30
0.0
 11
11.51771918058412
 21
36.47377081799902
 31
0.0
  0
ARC
  5
54A6
330
1F
100
AcDbEntity
  8
CONTINUOUS1
100
AcDbCircle
 10
11.60540441118411
 20
35.28888931799901
 30
0.0
 40
1.188121176000005
100
AcDbArc
 50
94.23228096601782
 51
179.9998413908217
  0
ARC
  5
54A7
330
1F
100
AcDbEntity
  8
CONTINUOUS1
100
AcDbCircle
 10
14.70034888578412
 20
35.28888931799901
 30
0.0
 40
1.188121176000001
100
AcDbArc
 50
0.0
 51
85.76756042480411
  0
ARC
  5
54A8
330
1F
100
AcDbEntity
  8
CONTINUOUS1
100
AcDbCircle
 10
14.69772214848412
 20
32.79934929689901
 30
0.0
 40
0.4999499999999966
100
AcDbArc
 50
0.0
 51
89.99992069540532
  0
ARC
  5
54A9
330
1F
100
AcDbEntity
  8
CONTINUOUS1
100
AcDbCircle
 10
15.19767214848412
 20
33.29929929689901
 30
0.0
 40
0.4999500000000019
100
AcDbArc
 50
0.0
 51
89.99992069540471
  0
LWPOLYLINE
  5
54AA
330
1F
100
AcDbEntity
  8
CONTINUOUS1
100
AcDbPolyline
 90
        4
 70
   129
 43
0.0
 10
21.88631197453784
 20
36.64502602789214
 42
-3.910975933074984
 10
20.92640797453784
 20
36.64502602789214
 10
20.92640797453784
 20
36.8277397546921
 42
-1.000000272070264
 10
21.88631197453784
 20
36.8277397546921
  0
LINE
  5
54AB
330
1F
100
AcDbEntity
  8
CENTER1
100
AcDbLine
 10
21.28735834034031
 20
36.8277397546921
 30
0.0
 11
21.50354481984919
 21
36.82773975469209
 31
0.0
  0
LINE
  5
54AC
330
1F
100
AcDbEntity
  8
CENTER1
100
AcDbLine
 10
21.40635997453782
 20
36.71831449916005
 30
0.0
 11
21.40635997453782
 21
36.92099204288961
 31
0.0
  0
LINE
  5
54AD
330
1F
100
AcDbEntity
  8
CENTER1
100
AcDbLine
 10
21.28735834034031
 20
35.7678452881225
 30
0.0
 11
21.50354481984919
 21
35.76784528812249
 31
0.0
  0
LINE
  5
54AE
330
1F
100
AcDbEntity
  8
CENTER1
100
AcDbLine
 10
21.40635997453782
 20
35.65842003259046
 30
0.0
 11
21.40635997453782
 21
35.86109757632
 31
0.0
  0
LWPOLYLINE
  5
54AF
330
1F
100
AcDbEntity
  8
CONTINUOUS1
100
AcDbPolyline
 90
       14
 70
   129
 43
0.0
 10
16.48378483754421
 20
27.86381517753005
 42
0.43464281903185
 10
16.45385986962454
 20
27.83174292252391
 10
16.59955660741223
 20
25.73096248473394
 42
0.3940752175162335
 10
16.77910641493025
 20
25.56343381458177
 10
17.17414011334779
 20
25.56343381458177
 42
0.3954356440068099
 10
17.35374655730348
 20
25.73180794776769
 10
17.48946279759468
 20
27.83188383302953
 42
0.4332441690089726
 10
17.45952839026873
 20
27.86381517753005
 10
17.37396435051499
 20
27.86381517753005
 42
-0.4248185749091363
 10
17.3439870136827
 20
27.89489382572984
 10
17.49152634303771
 20
31.98330535880572
 10
16.45163554249172
 20
31.98330535880572
 10
16.60996865125546
 20
27.89497287655873
 42
-0.4255970622075001
 10
16.57999427152148
 20
27.86381517753005
  0
LWPOLYLINE
  5
54B0
330
1F
100
AcDbEntity
  8
CONTINUOUS1
100
AcDbPolyline
 90
        3
 70
   128
 43
0.0
 10
17.44907785816557
 20
30.80703001668837
 10
16.61612591774283
 20
30.80703001668837
 10
16.47960457975128
 20
31.26111450170528
  0
LWPOLYLINE
  5
54B1
330
1F
100
AcDbEntity
  8
CONTINUOUS1
100
AcDbPolyline
 90
        4
 70
   129
 43
0.0
 10
31.71042478003864
 20
31.91084007721436
 10
31.98227489605209
 20
32.21352769617144
 10
32.59083229950628
 20
31.66696949435302
 10
32.31898218349282
 20
31.36428187539595
  0
CIRCLE
  5
54B2
330
1F
100
AcDbEntity
  8
CONTINUOUS1
100
AcDbCircle
 10
32.14141177082533
 20
31.80167966800908
 30
0.0
 40
0.1125036381003581
  0
CIRCLE
  5
54B3
330
1F
100
AcDbEntity
  8
CONTINUOUS1
100
AcDbCircle
 10
33.22862360474722
 20
29.41511710574151
 30
0.0
 40
0.4269624645792642
  0
LWPOLYLINE
  5
54B4
330
1F
100
AcDbEntity
  8
CONTINUOUS1
100
AcDbPolyline
 90
        4
 70
   129
 43
0.0
 10
32.57291102921547
 20
27.2242578625427
 10
32.87559864817256
 20
26.95240774652924
 10
32.32904044635414
 20
26.34385034307504
 10
32.02635282739707
 20
26.61570045908851
  0
CIRCLE
  5
54B5
330
1F
100
AcDbEntity
  8
CONTINUOUS1
100
AcDbCircle
 10
32.43310275065803
 20
26.80315696814867
 30
0.0
 40
0.1132822192802727
  0
ARC
  5
54B6
330
1F
100
AcDbEntity
  8
CONTINUOUS1
100
AcDbCircle
 10
29.04726355554369
 20
26.51343767477348
 30
0.0
 40
0.0610401453750069
100
AcDbArc
 50
86.33463456385676
 51
197.5228785889037
  0
ARC
  5
54B7
330
1F
100
AcDbEntity
  8
CONTINUOUS1
100
AcDbCircle
 10
30.05791026236423
 20
27.44546300409734
 30
0.0
 40
0.061040145375005
100
AcDbArc
 50
240.1064600658296
 51
327.2967672369762
  0
LINE
  5
54B8
330
1F
100
AcDbEntity
  8
CONTINUOUS1
100
AcDbLine
 10
30.14067378827726
 20
27.46138699111443
 30
0.0
 11
30.10927465484949
 21
27.412483282088
 31
0.0
  0
LINE
  5
54B9
330
1F
100
AcDbEntity
  8
CONTINUOUS1
100
AcDbLine
 10
30.18641262373857
 20
27.53658153531764
 30
0.0
 11
30.14067378827726
 21
27.46138699111443
 31
0.0
  0
LINE
  5
54BA
330
1F
100
AcDbEntity
  8
CONTINUOUS1
100
AcDbLine
 10
30.219024386961
 20
27.59906700811978
 30
0.0
 11
30.18641262373857
 21
27.53658153531764
 31
0.0
  0
LINE
  5
54BB
330
1F
100
AcDbEntity
  8
CONTINUOUS1
100
AcDbLine
 10
30.24060589433822
 20
27.65588509902769
 30
0.0
 11
30.219024386961
 21
27.59906700811978
 31
0.0
  0
LINE
  5
54BC
330
1F
100
AcDbEntity
  8
CONTINUOUS1
100
AcDbLine
 10
30.25325176106317
 20
27.71407796252462
 30
0.0
 11
30.24060589433822
 21
27.65588509902769
 31
0.0
  0
LINE
  5
54BD
330
1F
100
AcDbEntity
  8
CONTINUOUS1
100
AcDbLine
 10
30.25905775981168
 20
27.78068597564238
 30
0.0
 11
30.25325176106317
 21
27.71407796252462
 31
0.0
  0
LINE
  5
54BE
330
1F
100
AcDbEntity
  8
CONTINUOUS1
100
AcDbLine
 10
30.26011997324381
 20
27.86275098287999
 30
0.0
 11
30.25905775981168
 21
27.78068597564238
 31
0.0
  0
ARC
  5
54BF
330
1F
100
AcDbEntity
  8
CONTINUOUS1
100
AcDbCircle
 10
29.73341912536175
 20
27.14239751402883
 30
0.0
 40
0.0610401453750082
100
AcDbArc
 50
249.6391066660033
 51
316.3575248762305
  0
LINE
  5
54C0
330
1F
100
AcDbEntity
  8
CONTINUOUS1
100
AcDbLine
 10
29.8001737426946
 20
27.13612442339867
 30
0.0
 11
29.85209573062511
 21
27.36123735462802
 31
0.0
  0
ARC
  5
54C1
330
1F
100
AcDbEntity
  8
CONTINUOUS1
100
AcDbCircle
 10
29.94101640912214
 20
27.37184592992579
 30
0.0
 40
0.0610401453750106
100
AcDbArc
 50
60.10661867498459
 51
127.9366869056698
  0
ARC
  5
54C2
330
1F
100
AcDbEntity
  8
CONTINUOUS1
100
AcDbCircle
 10
29.91157486240345
 20
27.34751804811798
 30
0.0
 40
0.0610401453750127
100
AcDbArc
 50
129.9559791263683
 51
167.0117574741886
  0
ARC
  5
54C3
330
1F
100
AcDbEntity
  8
CONTINUOUS1
100
AcDbCircle
 10
29.74069518965769
 20
27.14984284118302
 30
0.0
 40
0.0610401453749866
100
AcDbArc
 50
312.7906630192088
 51
347.0115988649943
  0
LINE
  5
54C4
330
1F
100
AcDbEntity
  8
CONTINUOUS1
100
AcDbLine
 10
29.97143810011678
 20
27.4247654860351
 30
0.0
 11
30.0274885713696
 21
27.39254344798801
 31
0.0
  0
ARC
  5
54C5
330
1F
100
AcDbEntity
  8
CONTINUOUS1
100
AcDbCircle
 10
29.5237932900646
 20
27.04068429311144
 30
0.0
 40
0.0610401453750018
100
AcDbArc
 50
139.4886257265347
 51
176.5444040743528
  0
ARC
  5
54C6
330
1F
100
AcDbEntity
  8
CONTINUOUS1
100
AcDbCircle
 10
29.57376131443631
 20
26.89423873834017
 30
0.0
 40
0.2275902387000018
100
AcDbArc
 50
73.14740418394841
 51
107.8978825631273
  0
ARC
  5
54C7
330
1F
100
AcDbEntity
  8
CONTINUOUS1
100
AcDbCircle
 10
29.07767021847916
 20
26.98807433519331
 30
0.0
 40
0.4145735384999826
100
AcDbArc
 50
266.3344759546727
 51
331.4105466120639
  0
LINE
  5
54C8
330
1F
100
AcDbEntity
  8
CONTINUOUS1
100
AcDbLine
 10
29.63974189599947
 20
27.11205445491745
 30
0.0
 11
29.71218208969197
 21
27.08517094223921
 31
0.0
  0
LINE
  5
54C9
330
1F
100
AcDbEntity
  8
CONTINUOUS1
100
AcDbLine
 10
29.44902746225231
 20
26.81522007677926
 30
0.0
 11
29.46286393630838
 21
27.04436331211822
 31
0.0
  0
ARC
  5
54CA
330
1F
100
AcDbEntity
  8
CONTINUOUS1
100
AcDbCircle
 10
31.55828731897273
 20
25.30237181715231
 30
0.0
 40
2.737025270099989
100
AcDbArc
 50
138.3671267147586
 51
139.4886257265356
  0
ARC
  5
54CB
330
1F
100
AcDbEntity
  8
CONTINUOUS1
100
AcDbCircle
 10
29.87227839483955
 20
25.71496883081153
 30
0.0
 40
0.1526007384000094
100
AcDbArc
 50
232.7807897395975
 51
348.0723221489825
  0
LINE
  5
54CC
330
1F
100
AcDbEntity
  8
CONTINUOUS1
100
AcDbLine
 10
31.17469089212485
 20
26.99454340353562
 30
0.0
 11
30.81480762165901
 21
26.76265339642619
 31
0.0
  0
ARC
  5
54CD
330
1F
100
AcDbEntity
  8
CONTINUOUS1
100
AcDbCircle
 10
30.58356709321531
 20
27.09609715986459
 30
0.0
 40
1.704028330124994
100
AcDbArc
 50
200.653520830297
 51
241.862635518352
  0
LINE
  5
54CE
330
1F
100
AcDbEntity
  8
CONTINUOUS1
100
AcDbLine
 10
31.12345783929608
 20
27.04689329895733
 30
0.0
 11
31.17469089212485
 21
26.99454340353562
 31
0.0
  0
LINE
  5
54CF
330
1F
100
AcDbEntity
  8
CONTINUOUS1
100
AcDbLine
 10
30.03314957358555
 20
25.73817952209813
 30
0.0
 11
30.02158437036615
 21
25.68342979099929
 31
0.0
  0
ARC
  5
54D0
330
1F
100
AcDbEntity
  8
CONTINUOUS1
100
AcDbCircle
 10
31.64784396673581
 20
25.31662142053328
 30
0.0
 40
1.668819351375
100
AcDbArc
 50
119.9455699471512
 51
165.3679849226024
  0
LINE
  5
54D1
330
1F
100
AcDbEntity
  8
CONTINUOUS1
100
AcDbLine
 10
31.12345783929608
 20
27.04689329895733
 30
0.0
 11
30.26011997324381
 21
27.86275098287999
 31
0.0
  0
LINE
  5
54D2
330
1F
100
AcDbEntity
  8
CONTINUOUS1
100
AcDbLine
 10
30.26011997324381
 20
27.86275098287999
 30
0.0
 11
30.49413438215124
 21
27.97949842245858
 31
0.0
  0
LINE
  5
54D3
330
1F
100
AcDbEntity
  8
CONTINUOUS1
100
AcDbLine
 10
31.17469089212485
 20
26.99454340353562
 30
0.0
 11
31.24949924372387
 21
26.98769740653972
 31
0.0
  0
LWPOLYLINE
  5
54D4
330
1F
100
AcDbEntity
  8
CONTINUOUS1
100
AcDbPolyline
 90
       13
 70
   129
 43
0.0
 10
31.15599452219022
 20
31.87167293195119
 42
-0.4142135623731117
 10
31.62667441003157
 20
31.89693601136851
 10
31.6661197729087
 20
31.86150930144464
 10
31.71042478003864
 20
31.91084007721436
 10
34.26968470556837
 20
29.61231491764206
 42
-0.4142135623730863
 10
34.29494778498569
 20
29.14163502980069
 10
32.02635282739707
 20
26.61570045908851
 10
31.87250014991383
 20
26.75387878421098
 42
0.414213562373109
 10
31.73129618356141
 20
26.7462998603858
 10
31.72527190220879
 20
26.73959221057755
 42
-0.4142135623731497
 10
31.53699994707224
 20
26.72948697881061
 10
31.24949924372387
 20
26.98769740653972
 42
-0.4142135623730939
 10
30.99686844955069
 20
31.69449628495331
  0
LWPOLYLINE
  5
54D5
330
1F
100
AcDbEntity
  8
CONTINUOUS1
100
AcDbPolyline
 90
        4
 70
   128
 43
0.0
 10
10.41728323518867
 20
20.69042231033403
 42
0.4142135623730998
 10
11.52716668577142
 20
19.58053885975127
 10
14.77858661120136
 20
19.58053885975127
 42
0.4142135623730942
 10
15.88847006178411
 20
20.69042231033401
  0
LWPOLYLINE
  5
54D6
330
1F
100
AcDbEntity
  8
CONTINUOUS1
100
AcDbPolyline
 90
        3
 70
   128
 43
0.0
 10
11.11309084741313
 20
35.58953175495244
 42
-0.4142135623731146
 10
11.27307404749713
 20
35.74951495503645
 42
-0.4142135623730821
 10
11.43305724758113
 20
35.58953175495244
  0
LWPOLYLINE
  5
54D7
330
1F
100
AcDbEntity
  8
CONTINUOUS1
100
AcDbPolyline
 90
        3
 70
   128
 43
0.0
 10
11.11808094840013
 20
20.38970203030871
 42
0.4142135623730951
 10
11.27806414848413
 20
20.22971883022471
 42
0.4142135623730821
 10
11.43804734856813
 20
20.38970203030871
  0
LWPOLYLINE
  5
54D8
330
1F
100
AcDbEntity
  8
CONTINUOUS1
100
AcDbPolyline
 90
        3
 70
   128
 43
0.0
 10
14.88319720802803
 20
35.58960959802435
 42
-0.4142135623730561
 10
15.04318040811203
 20
35.74959279810835
 42
-0.4142135623730691
 10
15.20316360819603
 20
35.58960959802435
  0
LWPOLYLINE
  5
54D9
330
1F
100
AcDbEntity
  8
CONTINUOUS1
100
AcDbPolyline
 90
        3
 70
   128
 43
0.0
 10
11.43305724758088
 20
35.53207753689987
 42
-0.2226478581445186
 10
11.52304779762838
 20
35.34000397951718
 42
-0.051608422784661
 10
11.51774975783349
 20
35.28881147492839
  0
LWPOLYLINE
  5
54DA
330
1F
100
AcDbEntity
  8
CONTINUOUS1
100
AcDbPolyline
 90
        3
 70
   128
 43
0.0
 10
11.0283983371605
 20
35.28881147492962
 42
-0.0516084227833893
 10
11.02310029736587
 20
35.34000397951718
 42
-0.2226478581449301
 10
11.11309084741365
 20
35.5320775369001
  0
LWPOLYLINE
  5
54DB
330
1F
100
AcDbEntity
  8
CONTINUOUS1
100
AcDbPolyline
 90
        3
 70
   128
 43
0.0
 10
11.43804734856789
 20
20.44715624836129
 42
0.2226478581444909
 10
11.52803789861538
 20
20.63922980574397
 42
0.051608422784619
 10
11.5227398588205
 20
20.69042231033277
  0
LWPOLYLINE
  5
54DC
330
1F
100
AcDbEntity
  8
CONTINUOUS1
100
AcDbPolyline
 90
        3
 70
   128
 43
0.0
 10
11.0333884381475
 20
20.69042231033154
 42
0.0516084227833555
 10
11.02809039835288
 20
20.63922980574397
 42
0.2226478581449426
 10
11.11808094840065
 20
20.44715624836106
  0
LWPOLYLINE
  5
54DD
330
1F
100
AcDbEntity
  8
CONTINUOUS1
100
AcDbPolyline
 90
        3
 70
   128
 43
0.0
 10
15.20316360819579
 20
35.53215537997178
 42
-0.2226478581445176
 10
15.29315415824328
 20
35.34008182258908
 42
-0.051608422784695
 10
15.2878561184484
 20
35.2888893180003
  0
LWPOLYLINE
  5
54DE
330
1F
100
AcDbEntity
  8
CONTINUOUS1
100
AcDbPolyline
 90
        3
 70
   128
 43
0.0
 10
14.7985046977754
 20
35.28888931800152
 42
-0.0516084227834092
 10
14.79320665798078
 20
35.34008182258908
 42
-0.2226478581449576
 10
14.88319720802855
 20
35.53215537997201
  0
LINE
  5
54DF
330
1F
100
AcDbEntity
  8
CONTINUOUS1
100
AcDbLine
 10
11.11309084741313
 20
35.58953175495244
 30
0.0
 11
11.11309084741313
 21
35.53207753690012
 31
0.0
  0
LINE
  5
54E0
330
1F
100
AcDbEntity
  8
CONTINUOUS1
100
AcDbLine
 10
11.11808094840013
 20
20.38970203030871
 30
0.0
 11
11.11808094840013
 21
20.44715624836104
 31
0.0
  0
LINE
  5
54E1
330
1F
100
AcDbEntity
  8
CONTINUOUS1
100
AcDbLine
 10
14.88319720802802
 20
35.58960959802435
 30
0.0
 11
14.88319720802802
 21
35.53215537997202
 31
0.0
  0
LINE
  5
54E2
330
1F
100
AcDbEntity
  8
CONTINUOUS1
100
AcDbLine
 10
11.43305724758087
 20
35.58953175495208
 30
0.0
 11
11.43305724758087
 21
35.53207753689987
 31
0.0
  0
LINE
  5
54E3
330
1F
100
AcDbEntity
  8
CONTINUOUS1
100
AcDbLine
 10
11.43804734856787
 20
20.38970203030908
 30
0.0
 11
11.43804734856787
 21
20.44715624836129
 31
0.0
  0
LINE
  5
54E4
330
1F
100
AcDbEntity
  8
CONTINUOUS1
100
AcDbLine
 10
15.20316360819577
 20
35.58960959802399
 30
0.0
 11
15.20316360819577
 21
35.53215537997177
 31
0.0
  0
LINE
  5
54E5
330
1F
100
AcDbEntity
  8
CONTINUOUS1
100
AcDbLine
 10
34.64603663162797
 20
35.28888931799852
 30
0.0
 11
34.64603663162796
 21
20.76542035975129
 31
0.0
  0
LINE
  5
54E6
330
1F
100
AcDbEntity
  8
CONTINUOUS1
100
AcDbLine
 10
29.93641144112458
 20
33.39132965875112
 30
0.0
 11
29.93641144112458
 21
27.43271212429807
 31
0.0
  0
LINE
  5
54E7
330
1F
100
AcDbEntity
  8
CONTINUOUS1
100
AcDbLine
 10
29.93641144112458
 20
24.14107577665112
 30
0.0
 11
29.93641144112458
 21
25.57649884224201
 31
0.0
  0
LINE
  5
54E8
330
1F
100
AcDbEntity
  8
CONTINUOUS1
100
AcDbLine
 10
30.81145892762419
 20
35.28888931799852
 30
0.0
 11
30.81145892762419
 21
31.46891196934401
 31
0.0
  0
LINE
  5
54E9
330
1F
100
AcDbEntity
  8
CONTINUOUS1
100
AcDbLine
 10
30.8114589276242
 20
20.69042559935354
 30
0.0
 11
30.8114589276242
 21
26.76049567266611
 31
0.0
  0
LINE
  5
54EA
330
1F
100
AcDbEntity
  8
CONTINUOUS1
100
AcDbLine
 10
31.45804026302419
 20
35.28888931799852
 30
0.0
 11
31.73258374491031
 21
34.69242950452444
 31
0.0
  0
LINE
  5
54EB
330
1F
100
AcDbEntity
  8
CONTINUOUS1
100
AcDbLine
 10
31.45804026302421
 20
20.69042231033456
 30
0.0
 11
31.73258374491032
 21
21.28688212380864
 31
0.0
  0
LINE
  5
54EC
330
1F
100
AcDbEntity
  8
CONTINUOUS1
100
AcDbLine
 10
31.45804026302419
 20
24.2782679119245
 30
0.0
 11
31.73258374491032
 21
23.68180809845041
 31
0.0
  0
LINE
  5
54ED
330
1F
100
AcDbEntity
  8
CONTINUOUS1
100
AcDbLine
 10
31.7325837449103
 20
34.69242950452446
 30
0.0
 11
31.7325837449103
 21
34.30598890685354
 31
0.0
  0
LINE
  5
54EE
330
1F
100
AcDbEntity
  8
CONTINUOUS1
100
AcDbLine
 10
31.73258374491031
 20
21.28688212380862
 30
0.0
 11
31.73258374491031
 21
21.67332272147954
 31
0.0
  0
LINE
  5
54EF
330
1F
100
AcDbEntity
  8
CONTINUOUS1
100
AcDbLine
 10
31.7325837449103
 20
32.29750352988264
 30
0.0
 11
31.7325837449103
 21
32.68394412755356
 31
0.0
  0
LINE
  5
54F0
330
1F
100
AcDbEntity
  8
CONTINUOUS1
100
AcDbLine
 10
31.73258374491031
 20
23.68180809845044
 30
0.0
 11
31.73258374491031
 21
23.29536750077952
 31
0.0
  0
LINE
  5
54F1
330
1F
100
AcDbEntity
  8
CONTINUOUS1
100
AcDbLine
 10
31.52704149437649
 20
35.13898059935355
 30
0.0
 11
34.64603663162795
 21
35.13898059935355
 31
0.0
  0
LINE
  5
54F2
330
1F
100
AcDbEntity
  8
CONTINUOUS1
100
AcDbLine
 10
31.4580402630242
 20
24.27826791192449
 30
0.0
 11
31.45804026302419
 21
26.80040233155216
 31
0.0
  0
LINE
  5
54F3
330
1F
100
AcDbEntity
  8
CONTINUOUS1
100
AcDbLine
 10
31.7325837449103
 20
32.29750352988267
 30
0.0
 11
31.56769623585107
 21
31.93927694871595
 31
0.0
  0
LINE
  5
54F4
330
1F
100
AcDbEntity
  8
CONTINUOUS1
100
AcDbLine
 10
31.53578014650353
 20
20.85931619949565
 30
0.0
 11
34.64603663162795
 21
20.85931619949565
 31
0.0
  0
LWPOLYLINE
  5
54F5
330
1F
100
AcDbEntity
  8
CONTINUOUS1
100
AcDbPolyline
 90
        9
 70
   128
 43
0.0
 10
31.4580402630242
 20
20.69042559935354
 10
31.4580402630242
 20
20.14134564406121
 10
31.48703721803941
 20
20.14134564406121
 42
0.41421356237311
 10
31.62702251811291
 20
20.2813309441347
 10
31.62702251811291
 20
20.61043071029634
 42
-0.414213562373017
 10
31.70701411815491
 20
20.69042231033833
 10
32.01962493111597
 20
20.69042231033833
 42
0.4142135623730654
 10
32.15961023118946
 20
20.83040761041183
 10
32.15961023118946
 20
20.85931619949566
  0
LWPOLYLINE
  5
54F6
330
1F
100
AcDbEntity
  8
CONTINUOUS1
100
AcDbPolyline
 90
        6
 70
   128
 43
0.0
 10
14.6363046425141
 20
20.69042231033834
 10
14.6363046425141
 20
20.26133304412419
 42
0.4142135623730951
 10
14.75629204257711
 20
20.14134564406119
 10
15.30649927771958
 20
20.14134564406119
 42
0.4142135623730951
 10
15.42648667778258
 20
20.26133304412419
 10
15.42648667778258
 20
20.69042231033833
  0
CIRCLE
  5
54F7
330
1F
100
AcDbEntity
  8
CONTINUOUS1
100
AcDbCircle
 10
15.03593693621311
 20
20.39944966115019
 30
0.0
 40
0.1720757486249234
  0
LWPOLYLINE
  5
54F8
330
1F
100
AcDbEntity
  8
CONTINUOUS1
100
AcDbPolyline
 90
        4
 70
   128
 43
0.0
 10
16.45037509557547
 20
34.30598890685355
 10
16.75444501156387
 20
34.30598890685355
 10
16.75444501156387
 20
32.68394412755355
 10
16.45037509557546
 20
32.68394412755355
  0
LWPOLYLINE
  5
54F9
330
1F
100
AcDbEntity
  8
CONTINUOUS1
100
AcDbPolyline
 90
        4
 70
   128
 43
0.0
 10
16.45037509557548
 20
21.67332272147953
 10
16.75444501156388
 20
21.67332272147953
 10
16.75444501156388
 20
23.29536750077952
 10
16.45037509557547
 20
23.29536750077952
  0
LWPOLYLINE
  5
54FA
330
1F
100
AcDbEntity
  8
CONTINUOUS1
100
AcDbPolyline
 90
        3
 70
   128
 43
0.0
 10
16.45037509557547
 20
34.63557694475355
 10
16.55662710643083
 20
34.63557694475355
 10
16.55662710643083
 20
34.30598890685354
  0
LWPOLYLINE
  5
54FB
330
1F
100
AcDbEntity
  8
CONTINUOUS1
100
AcDbPolyline
 90
        3
 70
   128
 43
0.0
 10
16.45037509557548
 20
21.34373468357952
 10
16.55662710643085
 20
21.34373468357952
 10
16.55662710643085
 20
21.67332272147953
  0
LWPOLYLINE
  5
54FC
330
1F
100
AcDbEntity
  8
CONTINUOUS1
100
AcDbPolyline
 90
        3
 70
   128
 43
0.0
 10
16.45037509557547
 20
32.35435608965355
 10
16.55662710643083
 20
32.35435608965355
 10
16.55662710643083
 20
32.68394412755355
  0
LWPOLYLINE
  5
54FD
330
1F
100
AcDbEntity
  8
CONTINUOUS1
100
AcDbPolyline
 90
        3
 70
   128
 43
0.0
 10
16.45037509557547
 20
23.62495553867952
 10
16.55662710643084
 20
23.62495553867952
 10
16.55662710643084
 20
23.29536750077952
  0
LWPOLYLINE
  5
54FE
330
1F
100
AcDbEntity
  8
CONTINUOUS1
100
AcDbPolyline
 90
        4
 70
   128
 43
0.0
 10
34.64603663162796
 20
31.57082933343019
 10
34.89589064372819
 20
31.23317992711463
 10
34.89589064372819
 20
24.74613170121847
 10
34.64603663162796
 20
24.40848229490289
  0
TEXT
  5
54FF
330
1F
100
AcDbEntity
  8
TEXT1
100
AcDbText
 10
15.04775340258129
 20
34.39826885247128
 30
0.0
 40
0.4
  1
ON
  7
ROMANS
 72
     1
 11
15.4572772121051
 21
34.59826885247129
 31
0.0
100
AcDbText
 73
     2
  0
TEXT
  5
5500
330
1F
100
AcDbEntity
  8
TEXT1
100
AcDbText
 10
14.68294445529533
 20
22.02111354421845
 30
0.0
 40
0.4
  1
OFF
  7
ROMANS
 72
     1
 11
15.2543730267239
 21
22.22111354421845
 31
0.0
100
AcDbText
 73
     2
  0
LWPOLYLINE
  5
5501
330
1F
100
AcDbEntity
  8
CONTINUOUS1
100
AcDbPolyline
 90
        4
 70
   129
 43
0.0
 10
9.819829621299987
 20
35.28888931799852
 10
16.45037509557546
 20
35.28888931799853
 10
16.45037509557546
 20
20.69042231033834
 10
9.819829621299987
 20
20.69042231033833
  0
LWPOLYLINE
  5
5502
330
1F
100
AcDbEntity
  8
CONTINUOUS1
100
AcDbPolyline
 90
        8
 70
   129
 43
0.0
 10
31.07438856204852
 20
28.62152844475687
 42
0.2634471391023572
 10
30.9506501321078
 20
28.58665755757433
 10
30.91111436748597
 20
28.54676613348352
 42
0.4142135623731177
 10
30.91194052653654
 20
28.36226523714546
 10
31.59197263492141
 20
27.4400562930022
 42
0.4142135623730724
 10
31.77647353125946
 20
27.44088245205277
 10
32.38941836401972
 20
28.09557931466621
 42
0.582970856557576
 10
32.3278297385718
 20
28.31412493913624
  0
LINE
  5
5503
330
1F
100
AcDbEntity
  8
CONTINUOUS1
100
AcDbLine
 10
16.6047652693401
 20
12.57277068780281
 30
0.0
 11
16.6047652693401
 21
12.34011216482677
 31
0.0
  0
LWPOLYLINE
  5
5504
330
1F
100
AcDbEntity
  8
CONTINUOUS1
100
AcDbPolyline
 90
        4
 70
   129
 43
0.0
 10
9.819829621299987
 20
12.91288092641151
 10
16.45037509557547
 20
12.91288092641151
 10
16.45037509557547
 20
12.42292992641151
 10
9.819829621299987
 20
12.42292992641151
  0
LWPOLYLINE
  5
5505
330
1F
100
AcDbEntity
  8
CONTINUOUS1
100
AcDbPolyline
 90
        4
 70
   129
 43
0.0
 10
9.919819621299989
 20
12.42292992641151
 10
16.34983355559999
 20
12.42292992641151
 10
16.34983355559999
 20
8.980356218211516
 10
9.919819621299989
 20
8.980356218211513
  0
LWPOLYLINE
  5
5506
330
1F
100
AcDbEntity
  8
CONTINUOUS1
100
AcDbPolyline
 90
        4
 70
   129
 43
0.0
 10
14.6363046425141
 20
12.22804373487963
 10
15.42648667778257
 20
12.22804373487963
 10
15.42648667778257
 20
11.80689970802637
 10
14.6363046425141
 20
11.80689970802637
  0
LINE
  5
5507
330
1F
100
AcDbEntity
  8
CONTINUOUS1
100
AcDbLine
 10
14.6363046425141
 20
12.0776351538606
 30
0.0
 11
15.42648667778257
 21
12.0776351538606
 31
0.0
  0
LWPOLYLINE
  5
5508
330
1F
100
AcDbEntity
  8
CONTINUOUS1
100
AcDbPolyline
 90
        4
 70
   129
 43
0.0
 10
9.919819621299989
 20
8.769824991589215
 10
16.34983355559999
 20
8.769824991589215
 10
16.34983355559999
 20
8.688303876364265
 10
9.919819621299989
 20
8.688303876364265
  0
LWPOLYLINE
  5
5509
330
1F
100
AcDbEntity
  8
CONTINUOUS1
100
AcDbPolyline
 90
        4
 70
   129
 43
0.0
 10
10.04109661793777
 20
8.980356218211513
 10
16.23439229680484
 20
8.980356218211513
 10
16.23439229680484
 20
8.769824991589215
 10
10.04109661793777
 20
8.769824991589215
  0
LWPOLYLINE
  5
550A
330
1F
100
AcDbEntity
  8
CONTINUOUS1
100
AcDbPolyline
 90
        8
 70
   129
 43
0.0
 10
16.34983355559999
 20
10.06594925967829
 42
0.4142135623731081
 10
16.46982095566299
 20
9.945961859615294
 10
16.74046608079287
 20
9.945961859615294
 10
16.74046608079287
 20
12.26012056478477
 42
0.4142135623731341
 10
16.66047448075087
 20
12.34011216482677
 10
16.59748729113871
 20
12.34011216482677
 42
0.3618431793477417
 10
16.51881759759911
 20
12.27460280893625
 10
16.34983355559999
 20
11.35665648389815
  0
LWPOLYLINE
  5
550B
330
1F
100
AcDbEntity
  8
CONTINUOUS1
100
AcDbPolyline
 90
        5
 70
   128
 43
0.0
 10
17.41041570774729
 20
12.64193283327035
 10
17.41041570774729
 20
9.680286218211527
 10
16.5738626705728
 20
9.680286218211527
 42
-0.4142135623730886
 10
16.4938710705308
 20
9.760277818253529
 10
16.4938710705308
 20
9.945961859615287
  0
LWPOLYLINE
  5
550C
330
1F
100
AcDbEntity
  8
CONTINUOUS1
100
AcDbPolyline
 90
        3
 70
   128
 43
0.0
 10
17.343796508388
 20
12.57294090772946
 10
17.17576613628587
 20
11.60672273475738
 10
16.74046608079286
 20
11.60672273475738
  0
CIRCLE
  5
550D
330
1F
100
AcDbEntity
  8
CONTINUOUS1
100
AcDbCircle
 10
16.53087716518514
 20
10.50217859718967
 30
0.0
 40
0.1047944578038701
  0
LWPOLYLINE
  5
550E
330
1F
100
AcDbEntity
  8
CONTINUOUS1
100
AcDbPolyline
 90
        4
 70
   128
 43
0.0
 10
17.41041570774729
 20
11.27604536251056
 10
17.47402728541996
 20
11.19543424112297
 10
17.47402728541996
 20
10.8326841948788
 10
17.41041570774729
 20
10.72788973707493
  0
LWPOLYLINE
  5
550F
330
1F
100
AcDbEntity
  8
CONTINUOUS1
100
AcDbPolyline
 90
        6
 70
   128
 43
0.0
 10
17.343796508388
 20
12.57294090772946
 42
-0.4244992860444468
 10
17.41041570774729
 20
12.64193283327035
 10
17.41914112671109
 20
12.64193283327035
 42
0.433318552207409
 10
17.48566128550244
 20
12.71290839515417
 10
17.35351550187603
 20
14.74980619596301
 42
0.3953632267718629
 10
17.15395502550197
 20
14.93683951031151
  0
LWPOLYLINE
  5
5510
330
1F
100
AcDbEntity
  8
CONTINUOUS1
100
AcDbPolyline
 90
        7
 70
   128
 43
0.0
 10
17.15395502550197
 20
14.93683951031151
 10
16.79413046135489
 20
14.93683951031151
 42
0.3943473106476582
 10
16.59461673282984
 20
14.75050767978708
 10
16.45524632838621
 20
12.71314222309553
 42
0.4343628626293278
 10
16.52175090456123
 20
12.64193283327034
 10
16.53815224607843
 20
12.64193283327034
 42
-0.425253412571495
 10
16.60476526934009
 20
12.57277068780279
  0
LINE
  5
5511
330
1F
100
AcDbEntity
  8
CONTINUOUS1
100
AcDbLine
 10
11.02536605559998
 20
13.64778307896825
 30
0.0
 11
15.17495105559998
 21
13.64778307896825
 31
0.0
  0
LINE
  5
5512
330
1F
100
AcDbEntity
  8
CONTINUOUS1
100
AcDbLine
 10
10.52541605559998
 20
12.91288092641151
 30
0.0
 11
11.02536605559998
 21
13.64778307896825
 31
0.0
  0
LINE
  5
5513
330
1F
100
AcDbEntity
  8
CONTINUOUS1
100
AcDbLine
 10
15.67490105559999
 20
12.91288092641151
 30
0.0
 11
15.17495105559998
 21
13.64778307896825
 31
0.0
  0
INSERT
  5
5515
330
1F
100
AcDbEntity
  8
CONTINUOUS1
100
AcDbBlockReference
  2
M_PFN_2
 10
34.89589064372819
 20
19.58053885975127
 30
0.0
 41
4.0
 42
4.0
 43
4.0
 50
269.9999999999939
  0
INSERT
  5
5517
330
1F
100
AcDbEntity
  8
CONTINUOUS1
100
AcDbBlockReference
  2
M_PFN_2
 10
29.93641144112458
 20
24.14107549985558
 30
0.0
 41
4.0
 42
4.0
 43
4.0
 50
269.9999999999939
  0
INSERT
  5
551F
330
1F
100
AcDbEntity
  8
CONTINUOUS1
100
AcDbBlockReference
  2
M_PFN_2
 10
17.35374655730348
 20
25.73180794776769
 30
0.0
 41
4.0
 42
4.0
 43
4.0
 50
269.9999999999939
  0
INSERT
  5
5521
330
1F
100
AcDbEntity
  8
CONTINUOUS1
100
AcDbBlockReference
  2
M_PFN_2
 10
9.819829621299987
 20
20.69042231033833
 30
0.0
 41
4.0
 42
4.0
 43
4.0
 50
269.9999999999939
  0
INSERT
  5
5529
330
1F
100
AcDbEntity
  8
CONTINUOUS1
100
AcDbBlockReference
  2
M_PFN_2
 10
11.27307404749713
 20
35.74951495503645
 30
0.0
 41
4.0
 42
4.0
 43
4.0
 50
180.0000000000118
  0
INSERT
  5
552B
330
1F
100
AcDbEntity
  8
CONTINUOUS1
100
AcDbBlockReference
  2
M_PFN_2
 10
11.27806414848413
 20
20.22971883022471
 30
0.0
 41
4.0
 42
4.0
 43
4.0
 50
180.0000000000118
  0
INSERT
  5
5533
330
1F
100
AcDbEntity
  8
CONTINUOUS1
100
AcDbBlockReference
  2
M_PFN_2
 10
9.819829621299987
 20
20.69042231033833
 30
0.0
 41
4.0
 42
4.0
 43
4.0
 50
180.0000000000118
  0
INSERT
  5
5535
330
1F
100
AcDbEntity
  8
CONTINUOUS1
100
AcDbBlockReference
  2
M_PFN_2
 10
9.819829621299987
 20
35.28888931799852
 30
0.0
 41
4.0
 42
4.0
 43
4.0
 50
180.0000000000118
  0
INSERT
  5
553D
330
1F
100
AcDbEntity
  8
CONTINUOUS1
100
AcDbBlockReference
  2
M_PFN_2
 10
9.819829621299987
 20
20.69042231033833
 30
0.0
 41
4.0
 42
4.0
 43
4.0
 50
180.0000000000118
  0
INSERT
  5
553F
330
1F
100
AcDbEntity
  8
CONTINUOUS1
100
AcDbBlockReference
  2
M_PFN_2
 10
11.52716668577138
 20
19.58053885975127
 30
0.0
 41
4.0
 42
4.0
 43
4.0
 50
180.0000000000118
  0
INSERT
  5
5547
330
1F
100
AcDbEntity
  8
CONTINUOUS1
100
AcDbBlockReference
  2
M_PFN_2
 10
9.819829621299987
 20
20.69042231033833
 30
0.0
 41
4.0
 42
4.0
 43
4.0
 50
180.0000000000118
  0
INSERT
  5
5549
330
1F
100
AcDbEntity
  8
CONTINUOUS1
100
AcDbBlockReference
  2
M_PFN_2
 10
16.45037509557546
 20
35.28888931799853
 30
0.0
 41
4.0
 42
4.0
 43
4.0
 50
90.00000000000595
  0
INSERT
  5
554B
330
1F
100
AcDbEntity
  8
CONTINUOUS1
100
AcDbBlockReference
  2
M_PFN_2
 10
9.819829621299987
 20
35.28888931799852
 30
0.0
 41
4.0
 42
4.0
 43
4.0
 50
90.00000000000595
  0
INSERT
  5
5553
330
1F
100
AcDbEntity
  8
CONTINUOUS1
100
AcDbBlockReference
  2
M_PFN_2
 10
15.04379138194765
 20
35.62804719325512
 30
0.0
 41
4.0
 42
4.0
 43
4.0
 50
90.00000000000595
  0
INSERT
  5
5555
330
1F
100
AcDbEntity
  8
CONTINUOUS1
100
AcDbBlockReference
  2
M_PFN_2
 10
11.26972040343462
 20
35.62804719325512
 30
0.0
 41
4.0
 42
4.0
 43
4.0
 50
90.00000000000595
  0
HATCH
  5
55F2
330
1F
100
AcDbEntity
  8
TEXT1
100
AcDbHatch
 10
0.0
 20
0.0
 30
0.0
210
0.0
220
0.0
230
1.0
  2
SOLID
 70
     1
 71
     1
 91
        1
 92
        7
 72
     0
 73
     1
 93
        3
 10
0.6915038924015208
 20
1.871377996577413
 10
0.4755038924015054
 20
1.439377996577396
 10
0.9075038924015002
 20
1.439377996577396
 97
        1
330
544B
 75
     0
 76
     1
 47
0.0042333247215677
 98
        1
 10
0.7030582019214151
 20
1.590531144742303
  0
HATCH
  5
560C
330
1F
100
AcDbEntity
  8
TEXT1
100
AcDbHatch
 10
0.0
 20
0.0
 30
0.0
210
0.0
220
0.0
230
1.0
  2
SOLID
 70
     1
 71
     0
 91
        1
 92
        7
 72
     0
 73
     1
 93
        3
 10
50.32777815511994
 20
4.855696530152964
 10
50.11177815511992
 20
4.423696530152942
 10
50.54377815511991
 20
4.423696530152943
 97
        0
 75
     0
 76
     1
 47
0.009351297244042
 98
        1
 10
50.3209875413198
 20
4.605197333168446
  0
HATCH
  5
5611
330
1F
100
AcDbEntity
  8
TEXT1
100
AcDbHatch
 10
0.0
 20
0.0
 30
0.0
210
0.0
220
0.0
230
1.0
  2
SOLID
 70
     1
 71
     0
 91
        1
 92
        7
 72
     0
 73
     1
 93
        3
 10
54.95258669263048
 20
4.855696530152962
 10
54.73658669263046
 20
4.42369653015294
 10
55.16858669263046
 20
4.423696530152941
 97
        0
 75
     0
 76
     1
 47
0.009351297244042
 98
        1
 10
54.94579607883035
 20
4.605197333168444
  0
HATCH
  5
561F
330
1F
100
AcDbEntity
  8
TEXT1
100
AcDbHatch
 10
0.0
 20
0.0
 30
0.0
210
0.0
220
0.0
230
1.0
  2
SOLID
 70
     1
 71
     0
 91
        1
 92
        7
 72
     0
 73
     1
 93
        3
 10
64.3637586512998
 20
4.915762680549519
 10
64.14775865129978
 20
4.48376268054951
 10
64.57975865129978
 20
4.483762680549511
 97
        0
 75
     0
 76
     1
 47
0.008607888594456
 98
        1
 10
64.38726578520991
 20
4.654552407331033
  0
DIMENSION
  5
5620
330
1F
100
AcDbEntity
  8
DIM
100
AcDbDimension
  2
*D14
 10
29.93641144112459
 20
17.97930742847707
 30
0.0
 11
32.41615104242639
 21
17.97930742847707
 31
0.0
 70
    32
  3
SCHNEIDERELECTRIC_DUAL_BEL
100
AcDbAlignedDimension
 13
34.89589064372819
 23
19.42305854479064
 33
0.0
 14
29.93641144112459
 24
23.98359518489495
 34
0.0
100
AcDbRotatedDimension
1001
ACAD
1000
DSTYLE
1002
{
1070
    40
1040
4.0
1002
}
  0
DIMENSION
  5
562E
330
1F
100
AcDbEntity
  8
DIM
100
AcDbDimension
  2
*D15
 10
9.819829621299991
 20
17.97930742847696
 30
0.0
 11
13.58678808930173
 21
17.97930742847696
 31
0.0
 70
    32
  3
SCHNEIDERELECTRIC_DUAL_BEL
100
AcDbAlignedDimension
 13
17.35374655730348
 23
25.57432763280706
 33
0.0
 14
9.819829621299991
 24
20.5329419953777
 34
0.0
100
AcDbRotatedDimension
1001
ACAD
1000
DSTYLE
1002
{
1070
    40
1040
4.0
1002
}
  0
DIMENSION
  5
563C
330
1F
100
AcDbEntity
  8
DIM
100
AcDbDimension
  2
*D16
 10
8.384301782625083
 20
19.58053885975127
 30
0.0
 11
7.334777973101271
 21
19.30053885975127
 31
0.0
 70
    32
  3
SCHNEIDERELECTRIC_DUAL_BEL
100
AcDbAlignedDimension
 13
9.662349306339358
 23
20.69042231033833
 33
0.0
 14
11.36968637081075
 24
19.58053885975127
 34
0.0
 50
90.0
100
AcDbRotatedDimension
1001
ACAD
1000
DSTYLE
1002
{
1070
    40
1040
4.0
1002
}
  0
DIMENSION
  5
564A
330
1F
100
AcDbEntity
  8
DIM
100
AcDbDimension
  2
*D17
 10
5.971506545534277
 20
35.74951495503645
 30
0.0
 11
5.97150654553427
 21
27.98961689263058
 31
0.0
 70
    32
  3
SCHNEIDERELECTRIC_DUAL_BEL
100
AcDbAlignedDimension
 13
11.1205838335235
 23
20.22971883022471
 33
0.0
 14
11.1155937325365
 24
35.74951495503645
 34
0.0
 50
90.0
100
AcDbRotatedDimension
1001
ACAD
1000
DSTYLE
1002
{
1070
    40
1040
4.0
1002
}
  0
DIMENSION
  5
5658
330
1F
100
AcDbEntity
  8
DIM
100
AcDbDimension
  2
*D18
 10
8.384301782625051
 20
20.69042231033833
 30
0.0
 11
8.384301782625048
 21
27.98965581416843
 31
0.0
 70
    32
  3
SCHNEIDERELECTRIC_DUAL_BEL
100
AcDbAlignedDimension
 13
9.662349306339358
 23
35.28888931799852
 33
0.0
 14
9.599849306339358
 24
20.69042231033833
 34
0.0
 50
90.0
100
AcDbRotatedDimension
1001
ACAD
1000
DSTYLE
1002
{
1070
    40
1040
4.0
1002
}
  0
DIMENSION
  5
5666
330
1F
100
AcDbEntity
  8
DIM
100
AcDbDimension
  2
*D19
 10
16.45037509557546
 20
39.2710087866961
 30
0.0
 11
13.13510235843772
 21
39.2710087866961
 31
0.0
 70
    32
  3
SCHNEIDERELECTRIC_DUAL_BEL
100
AcDbAlignedDimension
 13
9.819829621299987
 23
35.44636963295915
 33
0.0
 14
16.45037509557546
 24
35.44636963295915
 34
0.0
100
AcDbRotatedDimension
1001
ACAD
1000
DSTYLE
1002
{
1070
    40
1040
4.0
1002
}
  0
DIMENSION
  5
5674
330
1F
100
AcDbEntity
  8
DIM
100
AcDbDimension
  2
*D20
 10
11.26972040343462
 20
37.754505840954
 30
0.0
 11
13.15675589269113
 21
37.754505840954
 31
0.0
 70
    32
  3
SCHNEIDERELECTRIC_DUAL_BEL
100
AcDbAlignedDimension
 13
15.04379138194764
 23
35.78552750821575
 33
0.0
 14
11.26972040343462
 24
35.78552750821575
 34
0.0
100
AcDbRotatedDimension
1001
ACAD
1000
DSTYLE
1002
{
1070
    40
1040
4.0
1002
}
  0
DIMENSION
  5
5682
330
1F
100
AcDbEntity
  8
DIM
100
AcDbDimension
  2
*D21
 10
19.92165061544126
 20
36.8277397546921
 30
0.0
 11
19.6412635051322
 21
37.5144052078671
 31
0.0
 70
   160
  1
.25\P{\H0.8x;[6]}
  3
SCHNEIDERELECTRIC_DUAL_BEL
100
AcDbAlignedDimension
 13
21.12987802537968
 23
35.7678452881225
 33
0.0
 14
21.12987802537968
 24
36.8277397546921
 34
0.0
 50
90.0
100
AcDbRotatedDimension
1001
ACAD
1000
DSTYLE
1002
{
1070
   287
1070
     4
1070
   287
1070
     4
1070
   287
1070
     4
1070
   287
1070
     4
1070
   287
1070
     4
1070
   287
1070
     4
1070
   287
1070
     4
1070
   287
1070
     4
1070
    40
1040
4.0
1070
   279
1070
     1
1002
}
  0
TEXT
  5
590E
330
1F
100
AcDbEntity
  8
TEXT1
100
AcDbText
 10
53.40640879893911
 20
27.26438791503907
 30
0.0
 40
0.32
  1
30
  7
ROMANS
 72
     1
 11
53.711170703701
 21
27.42438791503907
 31
0.0
100
AcDbText
 73
     2
  0
TEXT
  5
590F
330
1F
100
AcDbEntity
  8
TEXT1
100
AcDbText
 10
56.00878975132006
 20
27.26438791503907
 30
0.0
 40
0.32
  1
#6 AWG
  7
ROMANS
 72
     1
 11
56.961170703701
 21
27.42438791503907
 31
0.0
100
AcDbText
 73
     2
  0
TEXT
  5
5910
330
1F
100
AcDbEntity
  8
TEXT1
100
AcDbText
 10
59.42852294524716
 20
27.26438791503907
 30
0.0
 40
0.32
  1
#14 AWG
  7
ROMANS
 72
     1
 11
60.53328485000907
 21
27.42438791503907
 31
0.0
100
AcDbText
 73
     2
  0
TEXT
  5
5911
330
1F
100
AcDbEntity
  8
TEXT1
100
AcDbText
 10
62.94117070370102
 20
27.26438791503907
 30
0.0
 40
0.32
  1
CU
  7
ROMANS
 72
     1
 11
63.26117070370102
 21
27.42438791503907
 31
0.0
100
AcDbText
 73
     2
  0
LWPOLYLINE
  5
5C7F
330
1F
100
AcDbEntity
  8
CONTINUOUS1
100
AcDbPolyline
 90
        4
 70
     1
 43
0.0
 10
58.8963958685913
 20
31.22438791503906
 10
64.59988498144531
 20
31.22438791503906
 10
64.59988498144531
 20
39.7839200805664
 10
58.8963958685913
 20
39.7839200805664
  0
LWPOLYLINE
  5
5C80
330
1F
100
AcDbEntity
  8
CONTINUOUS1
100
AcDbPolyline
 90
        4
 70
     1
 43
0.0
 10
64.59988498144531
 20
39.7839200805664
 10
58.8963958685913
 20
39.7839200805664
 10
58.8963958685913
 20
37.92571943511962
 10
64.59988498144531
 20
37.92571943511962
  0
LWPOLYLINE
  5
5C81
330
1F
100
AcDbEntity
  8
CONTINUOUS1
100
AcDbPolyline
 90
        4
 70
     1
 43
0.0
 10
64.59988498144531
 20
37.92571943511962
 10
58.8963958685913
 20
37.92571943511962
 10
58.8963958685913
 20
36.40205496063232
 10
64.59988498144531
 20
36.40205496063232
  0
LWPOLYLINE
  5
5C82
330
1F
100
AcDbEntity
  8
CONTINUOUS1
100
AcDbPolyline
 90
        4
 70
     1
 43
0.0
 10
64.59988498144531
 20
36.40205496063232
 10
58.8963958685913
 20
36.40205496063232
 10
58.8963958685913
 20
31.22438791503906
 10
64.59988498144531
 20
31.22438791503906
  0
HATCH
  5
5EF4
330
1F
100
AcDbEntity
  8
TEXT1
100
AcDbHatch
 10
0.0
 20
0.0
 30
0.0
210
0.0
220
0.0
230
1.0
  2
SOLID
 70
     1
 71
     0
 91
        1
 92
        7
 72
     0
 73
     1
 93
        3
 10
59.146635543798
 20
4.865240464987008
 10
58.93063554379798
 20
4.433240464986986
 10
59.36263554379799
 20
4.433240464986987
 97
        0
 75
     0
 76
     1
 47
0.009351297244042
 98
        1
 10
59.13984492999787
 20
4.614741268002489
  0
HATCH
  5
5EF5
330
1F
100
AcDbEntity
  8
TEXT1
100
AcDbHatch
 10
0.0
 20
0.0
 30
0.0
210
0.0
220
0.0
230
1.0
  2
SOLID
 70
     1
 71
     0
 91
        1
 92
        7
 72
     0
 73
     1
 93
        3
 10
62.88406061102454
 20
4.932603419070362
 10
62.66806061102452
 20
4.500603419070353
 10
63.10006061102452
 20
4.500603419070354
 97
        0
 75
     0
 76
     1
 47
0.008607888594456
 98
        1
 10
62.90756774493466
 20
4.671393145851876
  0
LWPOLYLINE
  5
5EF8
330
1F
100
AcDbEntity
  8
CONTINUOUS1
100
AcDbPolyline
 90
        4
 70
     1
 43
0.0
 10
48.75427697485796
 20
5.15776947618886
 10
53.06677654360797
 20
5.15776947618886
 10
53.06677654360797
 20
6.020268613688859
 10
48.75427697485796
 20
6.020268613688859
  0
LWPOLYLINE
  5
5EF9
330
1F
100
AcDbEntity
  8
CONTINUOUS1
100
AcDbPolyline
 90
        4
 70
     1
 43
0.0
 10
53.06677816079539
 20
5.15776947618886
 10
57.37927708267044
 20
5.15776947618886
 10
57.37927708267044
 20
6.020268613688859
 10
53.06677816079539
 20
6.020268613688859
  0
LWPOLYLINE
  5
5EFA
330
1F
100
AcDbEntity
  8
CONTINUOUS1
100
AcDbPolyline
 90
        4
 70
     1
 43
0.0
 10
57.37927902329537
 20
5.15776947618886
 10
61.69177729829545
 20
5.15776947618886
 10
61.69177729829545
 20
6.020268613688859
 10
57.37927902329537
 20
6.020268613688859
  0
LWPOLYLINE
  5
5EFB
330
1F
100
AcDbEntity
  8
CONTINUOUS1
100
AcDbPolyline
 90
        4
 70
     1
 43
0.0
 10
61.69177795072576
 20
5.15776947618886
 10
64.59988498144531
 20
5.15776947618886
 10
64.59988498144531
 20
6.020268613688873
 10
61.69177795072576
 20
6.020268613688873
  0
LWPOLYLINE
  5
5FC1
330
1F
100
AcDbEntity
  8
CONTINUOUS1
100
AcDbPolyline
 90
        4
 70
     1
 43
0.0
 10
14.45934202028011
 20
31.2516159827154
 10
11.84641127668813
 20
31.2516159827154
 10
11.84641127668813
 20
29.34358027862947
 10
14.45934202028011
 20
29.34358027862947
  0
TEXT
  5
5FC2
330
1F
100
AcDbEntity
  8
TEXT1
100
AcDbText
 10
19.95495845435803
 20
28.80459904545422
 30
0.0
 40
0.32
  1
VIEW WINDOW
  7
ROMANS
 11
19.95495845435803
 21
28.96459904545422
 31
0.0
100
AcDbText
 73
     2
  0
INSERT
  5
5FC4
330
1F
100
AcDbEntity
  8
TEXT1
100
AcDbBlockReference
  2
SEARROW
 10
14.45934202028011
 20
30.29759813067243
 30
0.0
 41
0.28
 42
0.28
 43
0.28
 50
165.6670702186564
1001
ACAD
1000
DSTYLE
1002
{
1070
    40
1040
4.0
1002
}
  0
LWPOLYLINE
  5
5FC5
330
1F
100
AcDbEntity
  8
TEXT1
100
AcDbPolyline
 90
        2
 70
     0
 43
0.0
 10
14.73062663188178
 20
30.22828247942299
 10
19.692858859159
 20
28.96038764213779
1001
ACAD
1000
DSTYLE
1002
{
1070
    40
1040
4.0
1002
}
  0
VIEWPORT
  5
32
330
1B
100
AcDbEntity
 67
     1
  8
0
100
AcDbViewport
 10
8.200338828660006
 20
5.048449468978652
 30
0.0
 40
22.95692114100139
 41
14.13154399068791
 68
     1
 69
     1
1001
ACAD
1000
MVIEW
1002
{
1070
    16
1010
0.0
1020
0.0
1030
0.0
1010
0.0
1020
0.0
1030
1.0
1040
0.0
1040
14.13154399068791
1040
8.200338828660006
1040
5.048449468978652
1040
50.0
1040
0.0
1040
0.0
1070
     0
1070
   100
1070
     1
1070
     0
1070
     0
1070
     0
1070
     0
1070
     0
1040
0.0
1040
0.0
1040
0.0
1040
0.5
1040
0.5
1040
0.5
1040
0.5
1070
     0
1002
{
1002
}
1002
}
  0
LWPOLYLINE
  5
175
330
1B
100
AcDbEntity
 67
     1
  8
VIEWPORT
100
AcDbPolyline
 90
        6
 70
     1
 43
0.0
 10
16.40000099999999
 20
10.25
 10
16.40000099999999
 20
0.9120019999999993
 10
8.002461
 20
0.9120019999999993
 10
8.002461
 20
0.0
 10
0.0
 20
0.0
 10
0.0
 20
10.25
1001
GENIUS_GENOREF_13
1005
0
1005
0
1005
0
1005
0
1005
0
1005
0
1005
0
1005
0
  0
VIEWPORT
  5
177
330
1B
100
AcDbEntity
 67
     1
  8
VIEWPORT
100
AcDbViewport
 10
8.200000499999999
 20
5.125
 30
0.0
 40
16.40000099999999
 41
10.25
 68
     2
 69
     2
1001
ACAD
1000
MVIEW
1002
{
1070
    16
1010
0.0
1020
0.0
1030
0.0
1010
0.0
1020
0.0
1030
1.0
1040
0.0
1040
41.0
1040
32.79953364407294
1040
20.49900247100194
1040
50.0
1040
0.0
1040
0.0
1070
     0
1070
   100
1070
     1
1070
     2
1070
     0
1070
     0
1070
     0
1070
     0
1040
0.0
1040
0.0
1040
0.0
1040
0.5
1040
0.5
1040
0.5
1040
0.5
1070
     0
1002
{
1002
}
1002
}
1001
GENIUS_GENOREF_13
1005
0
1005
0
1005
0
1005
0
1005
0
1005
0
1005
0
1005
0
1001
GENIUS_GENSCREG_15
1000
PF
1040
0.0
1000
DF
1040
0.0
1000
MIN
1011
0.0
1021
0.0
1031
0.0
1000
MAX
1011
16.40000099999999
1021
10.25
1031
0.0
1000
FLAGS
1070
     2
  0
INSERT
  5
B2C
330
1B
100
AcDbEntity
 67
     1
  8
TITLEBLOCK
100
AcDbBlockReference
 66
     1
  2
TITLE-PAD
 10
0.0
 20
0.0
 30
0.0
  0
ATTRIB
  5
B2D
330
B2C
100
AcDbEntity
 67
     1
  8
TEXT1
 62
     0
100
AcDbText
 10
8.923266920366559
 20
0.6974460884590165
 30
0.0
 40
0.1
  1
HEAVY DUTY SAFETY SWITCHES
  7
ROMANS
 72
     4
 11
10.10183834893798
 21
0.7474460884590166
 31
0.0
100
AcDbAttribute
  2
DESCRIPTION 1
 70
     0
  0
ATTRIB
  5
B2E
330
B2C
100
AcDbEntity
 67
     1
  8
TEXT1
 62
     0
100
AcDbText
 10
9.335171682271321
 20
0.5517231711406715
 30
0.0
 40
0.1
  1
VISIBLE BLADE TYPE
  7
ROMANS
 72
     4
 11
10.10183834893798
 21
0.6017231711406717
 31
0.0
100
AcDbAttribute
  2
DESCRIPTION 2
 70
     0
  0
ATTRIB
  5
B2F
330
B2C
100
AcDbEntity
 67
     1
  8
TEXT1
 62
     0
100
AcDbText
 10
9.387552634652275
 20
0.4160002538223267
 30
0.0
 40
0.08
  1
30 AMPERE-SERIES F6
  7
ROMANS
 72
     4
 11
10.10183834893798
 21
0.4560002538223267
 31
0.0
100
AcDbAttribute
  2
DESCRIPTION 3
 70
     0
  0
ATTRIB
  5
B30
330
B2C
100
AcDbEntity
 67
     1
  8
TEXT1
 62
     0
100
AcDbText
 10
9.046600253699892
 20
0.2859916222182689
 30
0.0
 40
0.08
  1
ENCLOSURE - NEMA TYPE 12/3R
  7
ROMANS
 72
     4
 11
10.10183834893798
 21
0.3202773365039833
 31
0.0
100
AcDbAttribute
  2
DESCRIPTION 4
 70
     0
  0
ATTRIB
  5
B31
330
B2C
100
AcDbEntity
 67
     1
  8
TEXT1
 62
     0
100
AcDbText
 10
9.549457396557036
 20
0.1502687048999256
 30
0.0
 40
0.08
  1
WITH (2) EIK034M
  7
ROMANS
 72
     4
 11
10.10183834893798
 21
0.1845544191856399
 31
0.0
100
AcDbAttribute
  2
DESCRIPTION 5
 70
     0
  0
ATTRIB
  5
B32
330
B2C
100
AcDbEntity
 67
     1
  8
TEXT1
 62
     0
100
AcDbText
 10
12.74772367103195
 20
0.096540546036505
 30
0.0
 40
0.12
  1
3322
 41
0.9512024731840066
  7
M_STANDARD
 11
12.74772367103195
 21
0.156540546036505
 31
0.0
100
AcDbAttribute
  2
DWGNO
 70
     0
 74
     2
  0
ATTRIB
  5
B33
330
B2C
100
AcDbEntity
 67
     1
  8
TEXT1
 62
     0
100
AcDbText
 10
16.06173121615992
 20
-0.1507193079929352
 30
0.0
 40
0.08
  1
3322
  7
ROMANS
 72
     2
 11
16.35506454949325
 21
-0.1107193079929352
 31
0.0
100
AcDbAttribute
  2
REF
 70
     0
 74
     2
  0
ATTRIB
  5
B34
330
B2C
100
AcDbEntity
 67
     1
  8
TEXT1
 62
     0
100
AcDbText
 10
0.0266402374038712
 20
-0.1507193079929352
 30
0.0
 40
0.08
  1
JANUARY 2004
  7
ROMANS
 11
0.0266402374038712
 21
-0.1107193079929352
 31
0.0
100
AcDbAttribute
  2
DATE
 70
     0
 74
     2
  0
SEQEND
  5
B35
330
B2C
100
AcDbEntity
 67
     1
  8
0
  0
INSERT
  5
1F0F
330
1B
100
AcDbEntity
 67
     1
  8
TEXT1
100
AcDbBlockReference
  2
SETUP
 10
9.58754191651014
 20
7.336334896320199
 30
0.0
  0
INSERT
  5
26A1
330
1B
100
AcDbEntity
 67
     1
  8
0
100
AcDbBlockReference
  2
0SETUP
 10
7.530327858815084
 20
3.737630459158452
 30
0.0
  0
ENDSEC
  0
SECTION
  2
OBJECTS
  0
DICTIONARY
  5
C
330
0
100
AcDbDictionary
  3
ACAD_GROUP
350
D
  3
ACAD_LAYOUT
350
1A
  3
ACAD_MLINESTYLE
350
17
  3
ACAD_PLOTSETTINGS
350
19
  3
ACAD_PLOTSTYLENAME
350
E
  3
ACDBHEADERROUNDTRIPXREC
350
76ED
  3
ACDBVARIABLEDICTIONARY
350
374
  3
ACMDICTIONARY
350
383
  3
AMG
350
36B
  3
AMGSNAPSETTINGS
350
399
  3
ASE_INDEX_DICTIONARY
350
6A
  3
DWGPROPS
350
D65
  0
DICTIONARY
  5
73
330
1F
100
AcDbDictionary
280
     1
  3
ACAD_INDEX
360
1C33
  3
ACAD_LAYOUTSELFREF
360
770F
  0
DICTIONARY
  5
75
330
1B
100
AcDbDictionary
280
     1
  3
ACAD_LAYOUTSELFREF
360
770E
  0
DICTIONARY
  5
D
102
{ACAD_REACTORS
330
C
102
}
330
C
100
AcDbDictionary
  0
DICTIONARY
  5
1A
102
{ACAD_REACTORS
330
C
102
}
330
C
100
AcDbDictionary
  0
DICTIONARY
  5
17
102
{ACAD_REACTORS
330
C
102
}
330
C
100
AcDbDictionary
  3
STANDARD
350
18
  0
DICTIONARY
  5
19
102
{ACAD_REACTORS
330
C
102
}
330
C
100
AcDbDictionary
  3
A_SIZE_PAPER
350
2FF
  3
B_SIZE_PAPER
350
2FD
  3
D_SIZE_PAPER
350
2FE
  0
ACDBDICTIONARYWDFLT
  5
E
102
{ACAD_REACTORS
330
C
102
}
330
C
100
AcDbDictionary
281
     1
  3
Normal
350
F
100
AcDbDictionaryWithDefault
340
F
  0
DICTIONARY
  5
76ED
102
{ACAD_REACTORS
330
C
102
}
330
C
100
AcDbDictionary
  3
CEPSNTYPE
350
76F7
  3
DIMSTYLEDATA
350
76FB
  3
FINGERPRINTGUID
350
76F8
  3
HYPERLINKBASE
350
76F0
  3
INSUNITS
350
76F6
  3
LAYOUTDICT
350
76F2
  3
LWETCUNION
350
76F5
  3
PLOTSETDICT
350
76F3
  3
PLOTSTYLNAMDICT
350
76F4
  3
PSVPSCALE
350
76FA
  3
PUCSBASE
350
76FE
  3
PUCSORGBACK
350
7704
  3
PUCSORGBOTTOM
350
7700
  3
PUCSORGFRONT
350
7703
  3
PUCSORGLEFT
350
7701
  3
PUCSORGRIGHT
350
7702
  3
PUCSORGTOP
350
76FF
  3
PUCSORTHOREF
350
76FC
  3
PUCSORTHOVIEW
350
76FD
  3
STYLESHEET
350
76F1
  3
TSTACKALIGN
350
76EE
  3
TSTACKSIZE
350
76EF
  3
UCSBASE
350
7707
  3
UCSORGBACK
350
770D
  3
UCSORGBOTTOM
350
7709
  3
UCSORGFRONT
350
770C
  3
UCSORGLEFT
350
770A
  3
UCSORGRIGHT
350
770B
  3
UCSORGTOP
350
7708
  3
UCSORTHOREF
350
7705
  3
UCSORTHOVIEW
350
7706
  3
VERSIONGUID
350
76F9
  0
DICTIONARY
  5
374
102
{ACAD_REACTORS
330
C
102
}
330
C
100
AcDbDictionary
  3
DIMASSOC
350
1EEC
  3
INDEXCTL
350
375
  0
DICTIONARY
  5
383
102
{ACAD_REACTORS
330
C
102
}
330
C
100
AcDbDictionary
  0
DICTIONARY
  5
36B
102
{ACAD_REACTORS
330
C
102
}
330
C
100
AcDbDictionary
  3
ACMGSETTINGS
350
36C
  0
DICTIONARY
  5
399
102
{ACAD_REACTORS
330
C
102
}
330
C
100
AcDbDictionary
  0
DICTIONARY
  5
6A
102
{ACAD_REACTORS
330
C
102
}
330
C
100
AcDbDictionary
  3
ASEBLOCKHIERARCHYINDEXRECORD
350
6C
1001
DCO15
1040
1379130883.246999
  0
XRECORD
  5
D65
102
{ACAD_REACTORS
330
C
102
}
330
C
100
AcDbXrecord
  1
DWGPROPS COOKIE
  2

  3

  4

  6

  7

  8
mgp706
  9

300
AmdtFileType=84
301
=
302
=
303
=
304
=
305
=
306
=
307
=
308
=
309
=
 40
0.2109203356481482
 41
2451764.535041909
 42
2451851.599312743
  1

 90
        1
  0
DICTIONARY
  5
1C33
102
{ACAD_REACTORS
330
73
102
}
330
73
100
AcDbDictionary
  3
*A1
350
1C34
  0
XRECORD
  5
770F
102
{ACAD_REACTORS
330
73
102
}
330
73
100
AcDbXrecord
340
1F
  0
XRECORD
  5
770E
102
{ACAD_REACTORS
330
75
102
}
330
75
100
AcDbXrecord
340
1B
  0
MLINESTYLE
  5
18
102
{ACAD_REACTORS
330
17
102
}
330
17
100
AcDbMlineStyle
  2
STANDARD
 70
     0
  3

 62
   256
 51
90.0
 52
90.0
 71
     2
 49
0.5
 62
   256
  6
BYLAYER
 49
-0.5
 62
   256
  6
BYLAYER
  0
PLOTSETTINGS
  5
2FF
102
{ACAD_REACTORS
330
19
102
}
330
19
100
AcDbPlotSettings
  1
A Size Paper
  2
none_device
  4
ANSI_A_(8.50_x_11.00_Inches)
  6

 40
6.349999904632568
 41
19.04999923706054
 42
6.350006103515625
 43
19.04998779296875
 44
215.8999938964843
 45
279.3999938964843
 46
19.04999999999999
 47
-9.651999999999999
 48
0.0
 49
0.0
140
0.0
141
0.0
142
1.0
143
1.6
 70
   740
 72
     0
 73
     1
 74
     1
  7
monochrome.ctb
 75
     0
147
0.625
148
0.0034886547032954
149
0.0199946439100934
  0
PLOTSETTINGS
  5
2FD
102
{ACAD_REACTORS
330
19
102
}
330
19
100
AcDbPlotSettings
  1
B Size Paper
  2
none_device
  4
ANSI_B_(11.00_x_17.00_Inches)
  6

 40
6.349999904632568
 41
19.04999923706054
 42
6.350006103515625
 43
19.04998779296875
 44
279.3999938964843
 45
431.7999877929687
 46
1.27
 47
-11.43
 48
0.0
 49
0.0
140
0.0
141
0.0
142
1.0
143
1.0
 70
   756
 72
     0
 73
     1
 74
     1
  7
monochrome.ctb
 75
    16
147
1.0
148
0.0034886547032954
149
0.0199946439100934
  0
PLOTSETTINGS
  5
2FE
102
{ACAD_REACTORS
330
19
102
}
330
19
100
AcDbPlotSettings
  1
D Size Paper
  2
none_device
  4
ANSI_D_(22.00_x_34.00_Inches)
  6

 40
6.349999904632568
 41
19.04999923706054
 42
6.3499755859375
 43
19.04998779296875
 44
558.7999877929687
 45
863.5999755859375
 46
8.889999999999998
 47
-3.809999999999999
 48
0.0
 49
0.0
140
0.0
141
0.0
142
1.0
143
0.5
 70
   740
 72
     0
 73
     1
 74
     1
  7
monochrome.ctb
 75
     0
147
2.0
148
0.0034886547032954
149
0.0199946439100934
  0
ACDBPLACEHOLDER
  5
F
102
{ACAD_REACTORS
330
E
102
}
330
E
100
AcDbPlaceHolder
280
     0
  0
XRECORD
  5
76F7
102
{ACAD_REACTORS
330
76ED
102
}
330
76ED
100
AcDbXrecord
 90
        0
  0
XRECORD
  5
76FB
102
{ACAD_REACTORS
330
76ED
102
}
330
76ED
100
AcDbXrecord
1000
DSTYLE
1002
{
1070
    79
 70
     1
1070
   148
 40
0.1
1070
   341
340
E0D
1070
   342
340
E0D
1070
   371
 70
    -1
1070
   372
 70
    -1
1002
}
  0
XRECORD
  5
76F8
102
{ACAD_REACTORS
330
76ED
102
}
330
76ED
100
AcDbXrecord
  1
{4E694E3A-6C64-11D4-81E3-0004AC4461C9}
  0
XRECORD
  5
76F0
102
{ACAD_REACTORS
330
76ED
102
}
330
76ED
100
AcDbXrecord
  1

  0
XRECORD
  5
76F6
102
{ACAD_REACTORS
330
76ED
102
}
330
76ED
100
AcDbXrecord
 90
        1
  0
XRECORD
  5
76F2
102
{ACAD_REACTORS
330
76ED
102
}
330
76ED
100
AcDbXrecord
340
1A
  0
XRECORD
  5
76F5
102
{ACAD_REACTORS
330
76ED
102
}
330
76ED
100
AcDbXrecord
 90
    10269
  0
XRECORD
  5
76F3
102
{ACAD_REACTORS
330
76ED
102
}
330
76ED
100
AcDbXrecord
340
19
  0
XRECORD
  5
76F4
102
{ACAD_REACTORS
330
76ED
102
}
330
76ED
100
AcDbXrecord
340
E
  0
XRECORD
  5
76FA
102
{ACAD_REACTORS
330
76ED
102
}
330
76ED
100
AcDbXrecord
 40
0.0
  0
XRECORD
  5
76FE
102
{ACAD_REACTORS
330
76ED
102
}
330
76ED
100
AcDbXrecord
340
0
  0
XRECORD
  5
7704
102
{ACAD_REACTORS
330
76ED
102
}
330
76ED
100
AcDbXrecord
 10
0.0
 20
0.0
 30
0.0
  0
XRECORD
  5
7700
102
{ACAD_REACTORS
330
76ED
102
}
330
76ED
100
AcDbXrecord
 10
0.0
 20
0.0
 30
0.0
  0
XRECORD
  5
7703
102
{ACAD_REACTORS
330
76ED
102
}
330
76ED
100
AcDbXrecord
 10
0.0
 20
0.0
 30
0.0
  0
XRECORD
  5
7701
102
{ACAD_REACTORS
330
76ED
102
}
330
76ED
100
AcDbXrecord
 10
0.0
 20
0.0
 30
0.0
  0
XRECORD
  5
7702
102
{ACAD_REACTORS
330
76ED
102
}
330
76ED
100
AcDbXrecord
 10
0.0
 20
0.0
 30
0.0
  0
XRECORD
  5
76FF
102
{ACAD_REACTORS
330
76ED
102
}
330
76ED
100
AcDbXrecord
 10
0.0
 20
0.0
 30
0.0
  0
XRECORD
  5
76FC
102
{ACAD_REACTORS
330
76ED
102
}
330
76ED
100
AcDbXrecord
340
0
  0
XRECORD
  5
76FD
102
{ACAD_REACTORS
330
76ED
102
}
330
76ED
100
AcDbXrecord
 70
     0
  0
XRECORD
  5
76F1
102
{ACAD_REACTORS
330
76ED
102
}
330
76ED
100
AcDbXrecord
  1

  0
XRECORD
  5
76EE
102
{ACAD_REACTORS
330
76ED
102
}
330
76ED
100
AcDbXrecord
 90
        1
  0
XRECORD
  5
76EF
102
{ACAD_REACTORS
330
76ED
102
}
330
76ED
100
AcDbXrecord
 90
       70
  0
XRECORD
  5
7707
102
{ACAD_REACTORS
330
76ED
102
}
330
76ED
100
AcDbXrecord
340
0
  0
XRECORD
  5
770D
102
{ACAD_REACTORS
330
76ED
102
}
330
76ED
100
AcDbXrecord
 10
0.0
 20
0.0
 30
0.0
  0
XRECORD
  5
7709
102
{ACAD_REACTORS
330
76ED
102
}
330
76ED
100
AcDbXrecord
 10
0.0
 20
0.0
 30
0.0
  0
XRECORD
  5
770C
102
{ACAD_REACTORS
330
76ED
102
}
330
76ED
100
AcDbXrecord
 10
0.0
 20
0.0
 30
0.0
  0
XRECORD
  5
770A
102
{ACAD_REACTORS
330
76ED
102
}
330
76ED
100
AcDbXrecord
 10
0.0
 20
0.0
 30
0.0
  0
XRECORD
  5
770B
102
{ACAD_REACTORS
330
76ED
102
}
330
76ED
100
AcDbXrecord
 10
0.0
 20
0.0
 30
0.0
  0
XRECORD
  5
7708
102
{ACAD_REACTORS
330
76ED
102
}
330
76ED
100
AcDbXrecord
 10
0.0
 20
0.0
 30
0.0
  0
XRECORD
  5
7705
102
{ACAD_REACTORS
330
76ED
102
}
330
76ED
100
AcDbXrecord
340
0
  0
XRECORD
  5
7706
102
{ACAD_REACTORS
330
76ED
102
}
330
76ED
100
AcDbXrecord
 70
     0
  0
XRECORD
  5
76F9
102
{ACAD_REACTORS
330
76ED
102
}
330
76ED
100
AcDbXrecord
  1
{7D1EDE6F-B35E-4156-A845-373924E21E92}
  0
DICTIONARYVAR
  5
1EEC
102
{ACAD_REACTORS
330
374
102
}
330
374
100
DictionaryVariables
280
     0
  1
1
  0
DICTIONARYVAR
  5
375
102
{ACAD_REACTORS
330
374
102
}
330
374
100
DictionaryVariables
280
     0
  1
1
  0
DICTIONARY
  5
36C
102
{ACAD_REACTORS
330
36B
102
}
330
36B
100
AcDbDictionary
  3
DWGSETTINGS
350
D51
  0
XRECORD
  5
6C
102
{ACAD_REACTORS
330
6A
102
}
330
6A
100
AcDbXrecord
  0
LAYER_INDEX
  5
1C34
102
{ACAD_REACTORS
330
1C33
102
}
330
1C33
100
AcDbIndex
 40
2453038.342257488
100
AcDbLayerIndex
  8
0
360
1C35
 90
       29
  8
CONTINUOUS2
360
1C36
 90
        0
  8
CONTINUOUS3
360
1C37
 90
        0
  8
TEXT1
360
1C38
 90
       86
  8
TITLEBLOCK
360
1C39
 90
        0
  8
VIEWPORT
360
1C3A
 90
        2
  8
CONTINUOUS1
360
1C3B
 90
      222
  8
DIM
360
1C3C
 90
       18
  8
HIDDEN1
360
1C3D
 90
        1
  8
Defpoints
360
1C3E
 90
        0
  8
CENTER1
360
3200
 90
        4
  0
XRECORD
  5
D51
102
{ACAD_REACTORS
330
36C
102
}
330
36C
100
AcDbXrecord
  1
VERSION
140
15.0
  1
PRODUCT
  2
AutoCAD Mechanical 2000
  0
IDBUFFER
  5
1C35
330
0
100
AcDbIdBuffer
330
E46
330
1530
330
1531
330
1532
330
1533
330
18F0
330
1936
330
193C
330
193E
330
1940
330
1942
330
1944
330
1946
330
1948
330
194A
330
194C
330
194E
330
1950
330
1952
330
1954
330
1956
330
1958
330
195A
330
195C
330
195E
330
1960
330
1962
330
31FF
330
4107
  0
IDBUFFER
  5
1C36
330
0
100
AcDbIdBuffer
  0
IDBUFFER
  5
1C37
330
0
100
AcDbIdBuffer
  0
IDBUFFER
  5
1C38
330
0
100
AcDbIdBuffer
330
530F
330
5310
330
5312
330
5315
330
5317
330
5318
330
531C
330
531D
330
5324
330
5326
330
5327
330
5328
330
5329
330
532A
330
532D
330
532E
330
532F
330
5363
330
537D
330
5382
330
5391
330
5392
330
5393
330
5394
330
5395
330
5396
330
539C
330
539D
330
539E
330
53A6
330
53AB
330
53AC
330
53AF
330
53B7
330
53B8
330
53C2
330
53C7
330
53CC
330
53CD
330
53CE
330
53CF
330
53D7
330
53D8
330
53D9
330
53DA
330
53E2
330
53E7
330
53E8
330
53EB
330
53FB
330
53FF
330
5404
330
5405
330
5406
330
5407
330
5408
330
5409
330
540B
330
540C
330
540D
330
540E
330
540F
330
544B
330
544C
330
544D
330
5457
330
5458
330
545A
330
546C
330
546D
330
5472
330
54FF
330
5500
330
55F2
330
560C
330
5611
330
561F
330
590E
330
590F
330
5910
330
5911
330
5EF4
330
5EF5
330
5FC2
330
5FC4
330
5FC5
  0
IDBUFFER
  5
1C39
330
0
100
AcDbIdBuffer
  0
IDBUFFER
  5
1C3A
330
0
100
AcDbIdBuffer
330
1C30
330
1C31
  0
IDBUFFER
  5
1C3B
330
0
100
AcDbIdBuffer
330
5322
330
5325
330
5330
330
5331
330
5332
330
5333
330
5334
330
535E
330
5360
330
5366
330
5367
330
5368
330
5369
330
536A
330
536D
330
536E
330
5370
330
5372
330
5375
330
5376
330
5378
330
5379
330
540A
330
5410
330
5411
330
5413
330
5414
330
5415
330
5416
330
5417
330
5418
330
5419
330
541A
330
541C
330
541D
330
541E
330
5420
330
5424
330
5425
330
5426
330
5427
330
5428
330
5429
330
542A
330
542B
330
542C
330
542D
330
542E
330
542F
330
5479
330
547A
330
547B
330
547C
330
547D
330
547E
330
547F
330
5480
330
5481
330
5482
330
5483
330
5484
330
5485
330
5486
330
5487
330
5488
330
5489
330
548A
330
548B
330
548C
330
548D
330
548E
330
548F
330
5490
330
5491
330
5492
330
5493
330
5494
330
5495
330
5496
330
5497
330
5498
330
5499
330
549A
330
549B
330
549C
330
549D
330
549E
330
549F
330
54A0
330
54A1
330
54A2
330
54A3
330
54A4
330
54A5
330
54A6
330
54A7
330
54A8
330
54A9
330
54AA
330
54AF
330
54B0
330
54B1
330
54B2
330
54B3
330
54B4
330
54B5
330
54B6
330
54B7
330
54B8
330
54B9
330
54BA
330
54BB
330
54BC
330
54BD
330
54BE
330
54BF
330
54C0
330
54C1
330
54C2
330
54C3
330
54C4
330
54C5
330
54C6
330
54C7
330
54C8
330
54C9
330
54CA
330
54CB
330
54CC
330
54CD
330
54CE
330
54CF
330
54D0
330
54D1
330
54D2
330
54D3
330
54D4
330
54D5
330
54D6
330
54D7
330
54D8
330
54D9
330
54DA
330
54DB
330
54DC
330
54DD
330
54DE
330
54DF
330
54E0
330
54E1
330
54E2
330
54E3
330
54E4
330
54E5
330
54E6
330
54E7
330
54E8
330
54E9
330
54EA
330
54EB
330
54EC
330
54ED
330
54EE
330
54EF
330
54F0
330
54F1
330
54F2
330
54F3
330
54F4
330
54F5
330
54F6
330
54F7
330
54F8
330
54F9
330
54FA
330
54FB
330
54FC
330
54FD
330
54FE
330
5501
330
5502
330
5503
330
5504
330
5505
330
5506
330
5507
330
5508
330
5509
330
550A
330
550B
330
550C
330
550D
330
550E
330
550F
330
5510
330
5511
330
5512
330
5513
330
5515
330
5517
330
551F
330
5521
330
5529
330
552B
330
5533
330
5535
330
553D
330
553F
330
5547
330
5549
330
554B
330
5553
330
5555
330
5C7F
330
5C80
330
5C81
330
5C82
330
5EF8
330
5EF9
330
5EFA
330
5EFB
330
5FC1
  0
IDBUFFER
  5
1C3C
330
0
100
AcDbIdBuffer
330
546E
330
546F
330
5470
330
5471
330
5473
330
5474
330
5475
330
5476
330
5477
330
5478
330
5620
330
562E
330
563C
330
564A
330
5658
330
5666
330
5674
330
5682
  0
IDBUFFER
  5
1C3D
330
0
100
AcDbIdBuffer
330
5423
  0
IDBUFFER
  5
1C3E
330
0
100
AcDbIdBuffer
  0
IDBUFFER
  5
3200
330
0
100
AcDbIdBuffer
330
54AB
330
54AC
330
54AD
330
54AE
  0
ENDSEC
  0
EOF
