  0
SECTION
  2
HEADER
  9
$ACADVER
  1
AC1014
  9
$ACADMAINTVER
 70
     0
  9
$DWGCODEPAGE
  3
ANSI_1252
  9
$INSBASE
 10
70.185404
 20
103.675
 30
0.0
  9
$EXTMIN
 10
36.008986
 20
76.76736
 30
0.0
  9
$EXTMAX
 10
89.99205
 20
115.591354
 30
0.0
  9
$LIMMIN
 10
0.0
 20
0.0
  9
$LIMMAX
 10
210.0
 20
297.0
  9
$ORTHOMODE
 70
     0
  9
$REGENMODE
 70
     1
  9
$FILLMODE
 70
     1
  9
$QTEXTMODE
 70
     0
  9
$MIRRTEXT
 70
     1
  9
$DRAGMODE
 70
     2
  9
$LTSCALE
 40
19.36
  9
$OSMODE
 70
     0
  9
$ATTMODE
 70
     1
  9
$TEXTSIZE
 40
0.2
  9
$TRACEWID
 40
0.05
  9
$TEXTSTYLE
  7
ROMANS
  9
$CLAYER
  8
0
  9
$CELTYPE
  6
BYLAYER
  9
$CECOLOR
 62
   256
  9
$CELTSCALE
 40
1.0
  9
$DELOBJ
 70
     1
  9
$DISPSILH
 70
     0
  9
$DIMSCALE
 40
1.0
  9
$DIMASZ
 40
3.0
  9
$DIMEXO
 40
0.0625
  9
$DIMDLI
 40
0.38
  9
$DIMRND
 40
0.01
  9
$DIMDLE
 40
0.0
  9
$DIMEXE
 40
0.18
  9
$DIMTP
 40
0.0
  9
$DIMTM
 40
0.0
  9
$DIMTXT
 40
2.5
  9
$DIMCEN
 40
0.09
  9
$DIMTSZ
 40
0.0
  9
$DIMTOL
 70
     0
  9
$DIMLIM
 70
     0
  9
$DIMTIH
 70
     0
  9
$DIMTOH
 70
     0
  9
$DIMSE1
 70
     0
  9
$DIMSE2
 70
     0
  9
$DIMTAD
 70
     1
  9
$DIMZIN
 70
    12
  9
$DIMBLK
  1

  9
$DIMASO
 70
     1
  9
$DIMSHO
 70
     1
  9
$DIMPOST
  1

  9
$DIMAPOST
  1

  9
$DIMALT
 70
     0
  9
$DIMALTD
 70
     2
  9
$DIMALTF
 40
25.4
  9
$DIMLFAC
 40
1.0
  9
$DIMTOFL
 70
     1
  9
$DIMTVP
 40
0.0
  9
$DIMTIX
 70
     0
  9
$DIMSOXD
 70
     0
  9
$DIMSAH
 70
     0
  9
$DIMBLK1
  1

  9
$DIMBLK2
  1

  9
$DIMSTYLE
  2
SC_STAND
  9
$DIMCLRD
 70
     0
  9
$DIMCLRE
 70
     0
  9
$DIMCLRT
 70
     0
  9
$DIMTFAC
 40
1.0
  9
$DIMGAP
 40
1.0
  9
$DIMJUST
 70
     0
  9
$DIMSD1
 70
     0
  9
$DIMSD2
 70
     0
  9
$DIMTOLJ
 70
     1
  9
$DIMTZIN
 70
    12
  9
$DIMALTZ
 70
    12
  9
$DIMALTTZ
 70
    12
  9
$DIMFIT
 70
     5
  9
$DIMUPT
 70
     0
  9
$DIMUNIT
 70
     2
  9
$DIMDEC
 70
     4
  9
$DIMTDEC
 70
     4
  9
$DIMALTU
 70
     2
  9
$DIMALTTD
 70
     2
  9
$DIMTXSTY
  7
ROMANS
  9
$DIMAUNIT
 70
     0
  9
$LUNITS
 70
     2
  9
$LUPREC
 70
     4
  9
$SKETCHINC
 40
0.1
  9
$FILLETRAD
 40
0.0
  9
$AUNITS
 70
     0
  9
$AUPREC
 70
     0
  9
$MENU
  1
acad
  9
$ELEVATION
 40
0.0
  9
$PELEVATION
 40
0.0
  9
$THICKNESS
 40
0.0
  9
$LIMCHECK
 70
     0
  9
$BLIPMODE
 70
     1
  9
$CHAMFERA
 40
0.0
  9
$CHAMFERB
 40
0.0
  9
$CHAMFERC
 40
0.0
  9
$CHAMFERD
 40
0.0
  9
$SKPOLY
 70
     0
  9
$TDCREATE
 40
2450574.682102778
  9
$TDUPDATE
 40
2451387.898407523
  9
$TDINDWG
 40
0.0004195602
  9
$TDUSRTIMER
 40
0.0004195602
  9
$USRTIMER
 70
     1
  9
$ANGBASE
 50
0.0
  9
$ANGDIR
 70
     0
  9
$PDMODE
 70
     0
  9
$PDSIZE
 40
0.0
  9
$PLINEWID
 40
0.0
  9
$COORDS
 70
     1
  9
$SPLFRAME
 70
     0
  9
$SPLINETYPE
 70
     6
  9
$SPLINESEGS
 70
     8
  9
$ATTDIA
 70
     0
  9
$ATTREQ
 70
     1
  9
$HANDLING
 70
     1
  9
$HANDSEED
  5
50F
  9
$SURFTAB1
 70
     6
  9
$SURFTAB2
 70
     6
  9
$SURFTYPE
 70
     6
  9
$SURFU
 70
     6
  9
$SURFV
 70
     6
  9
$UCSNAME
  2

  9
$UCSORG
 10
0.0
 20
0.0
 30
0.0
  9
$UCSXDIR
 10
1.0
 20
0.0
 30
0.0
  9
$UCSYDIR
 10
0.0
 20
1.0
 30
0.0
  9
$PUCSNAME
  2

  9
$PUCSORG
 10
0.0
 20
0.0
 30
0.0
  9
$PUCSXDIR
 10
1.0
 20
0.0
 30
0.0
  9
$PUCSYDIR
 10
0.0
 20
1.0
 30
0.0
  9
$USERI1
 70
     0
  9
$USERI2
 70
     0
  9
$USERI3
 70
     0
  9
$USERI4
 70
     0
  9
$USERI5
 70
     0
  9
$USERR1
 40
0.0
  9
$USERR2
 40
0.0
  9
$USERR3
 40
0.0
  9
$USERR4
 40
0.0
  9
$USERR5
 40
0.0
  9
$WORLDVIEW
 70
     1
  9
$SHADEDGE
 70
     3
  9
$SHADEDIF
 70
    70
  9
$TILEMODE
 70
     1
  9
$MAXACTVP
 70
    16
  9
$PINSBASE
 10
0.0
 20
0.0
 30
0.0
  9
$PLIMCHECK
 70
     0
  9
$PEXTMIN
 10
1.000000E+20
 20
1.000000E+20
 30
1.000000E+20
  9
$PEXTMAX
 10
-1.000000E+20
 20
-1.000000E+20
 30
-1.000000E+20
  9
$PLIMMIN
 10
0.0
 20
0.0
  9
$PLIMMAX
 10
12.0
 20
9.0
  9
$UNITMODE
 70
     0
  9
$VISRETAIN
 70
     0
  9
$PLINEGEN
 70
     0
  9
$PSLTSCALE
 70
     1
  9
$TREEDEPTH
 70
  3020
  9
$PICKSTYLE
 70
     1
  9
$CMLSTYLE
  2
STANDARD
  9
$CMLJUST
 70
     0
  9
$CMLSCALE
 40
1.0
  9
$PROXYGRAPHICS
 70
     1
  9
$MEASUREMENT
 70
     0
  0
ENDSEC
  0
SECTION
  2
CLASSES
  0
CLASS
  1
DICTIONARYVAR
  2
AcDbDictionaryVar
  3
"AutoCAD"
 90
        0
280
     0
281
     0
  0
CLASS
  1
LWPOLYLINE
  2
AcDbPolyline
  3
"AutoCAD"
 90
        0
280
     0
281
     1
  0
ENDSEC
  0
SECTION
  2
TABLES
  0
TABLE
  2
VPORT
  5
4B3
100
AcDbSymbolTable
 70
     1
  0
VPORT
  5
50A
100
AcDbSymbolTableRecord
100
AcDbViewportTableRecord
  2
*ACTIVE
 70
     0
 10
0.0
 20
0.0
 11
1.0
 21
1.0
 12
283.244621
 22
169.500718
 13
0.0
 23
0.0
 14
1.0
 24
1.0
 15
10.0
 25
10.0
 16
0.0
 26
0.0
 36
1.0
 17
0.0
 27
0.0
 37
0.0
 40
339.001436
 41
1.671053
 42
50.0
 43
0.0
 44
0.0
 50
0.0
 51
0.0
 71
     0
 72
   100
 73
     1
 74
     1
 75
     0
 76
     1
 77
     0
 78
     0
  0
ENDTAB
  0
TABLE
  2
LTYPE
  5
4B0
100
AcDbSymbolTable
 70
    23
  0
LTYPE
  5
4BC
100
AcDbSymbolTableRecord
100
AcDbLinetypeTableRecord
  2
BYBLOCK
 70
     0
  3

 72
    65
 73
     0
 40
0.0
  0
LTYPE
  5
4BD
100
AcDbSymbolTableRecord
100
AcDbLinetypeTableRecord
  2
BYLAYER
 70
     0
  3

 72
    65
 73
     0
 40
0.0
  0
LTYPE
  5
4BE
100
AcDbSymbolTableRecord
100
AcDbLinetypeTableRecord
  2
CONTINUOUS
 70
     0
  3
Solid line
 72
    65
 73
     0
 40
0.0
  0
LTYPE
  5
4D1
100
AcDbSymbolTableRecord
100
AcDbLinetypeTableRecord
  2
AXES
 70
     0
  3
____ _ ____ _ ____ _ ____ _ ____ _ ____ _ ____ 
 72
    65
 73
     4
 40
2.0
 49
1.25
 74
     0
 49
-0.25
 74
     0
 49
0.25
 74
     0
 49
-0.25
 74
     0
  0
LTYPE
  5
4D2
100
AcDbSymbolTableRecord
100
AcDbLinetypeTableRecord
  2
AXES2
 70
     0
  3
___ _ ___ _ ___ _ ___ _ ___ _ ___ _ ___ _ ___ _
 72
    65
 73
     4
 40
1.125
 49
0.75
 74
     0
 49
-0.125
 74
     0
 49
0.125
 74
     0
 49
-0.125
 74
     0
  0
LTYPE
  5
4D3
100
AcDbSymbolTableRecord
100
AcDbLinetypeTableRecord
  2
AXESX2
 70
     0
  3
________  __  ________  __  ________  __  _____
 72
    65
 73
     4
 40
4.0
 49
2.5
 74
     0
 49
-0.5
 74
     0
 49
0.5
 74
     0
 49
-0.5
 74
     0
  0
LTYPE
  5
4D4
100
AcDbSymbolTableRecord
100
AcDbLinetypeTableRecord
  2
TIRETPT
 70
     0
  3
__ . __ . __ . __ . __ . __ . __ . __ . __ . __
 72
    65
 73
     4
 40
1.0
 49
0.5
 74
     0
 49
-0.25
 74
     0
 49
0.0
 74
     0
 49
-0.25
 74
     0
  0
LTYPE
  5
4D5
100
AcDbSymbolTableRecord
100
AcDbLinetypeTableRecord
  2
TIRETPT2
 70
     0
  3
_._._._._._._._._._._._._._._._._._._._._._._._
 72
    65
 73
     4
 40
0.5
 49
0.25
 74
     0
 49
-0.125
 74
     0
 49
0.0
 74
     0
 49
-0.125
 74
     0
  0
LTYPE
  5
4D6
100
AcDbSymbolTableRecord
100
AcDbLinetypeTableRecord
  2
TIRETPTX2
 70
     0
  3
____  .  ____  .  ____  .  ____  .  ____  .  __
 72
    65
 73
     4
 40
2.0
 49
1.0
 74
     0
 49
-0.5
 74
     0
 49
0.0
 74
     0
 49
-0.5
 74
     0
  0
LTYPE
  5
4D7
100
AcDbSymbolTableRecord
100
AcDbLinetypeTableRecord
  2
DISCONTINU
 70
     0
  3
__ __ __ __ __ __ __ __ __ __ __ __ __ __ __ __
 72
    65
 73
     2
 40
0.75
 49
0.5
 74
     0
 49
-0.25
 74
     0
  0
LTYPE
  5
4D8
100
AcDbSymbolTableRecord
100
AcDbLinetypeTableRecord
  2
DISCONTINU2
 70
     0
  3
_ _ _ _ _ _ _ _ _ _ _ _ _ _ _ _ _ _ _ _ _ _ _ _
 72
    65
 73
     2
 40
0.375
 49
0.25
 74
     0
 49
-0.125
 74
     0
  0
LTYPE
  5
4D9
100
AcDbSymbolTableRecord
100
AcDbLinetypeTableRecord
  2
DISCONTINUX2
 70
     0
  3
____  ____  ____  ____  ____  ____  ____  ____ 
 72
    65
 73
     2
 40
1.5
 49
1.0
 74
     0
 49
-0.5
 74
     0
  0
LTYPE
  5
4DA
100
AcDbSymbolTableRecord
100
AcDbLinetypeTableRecord
  2
DIVISE
 70
     0
  3
____ . . ____ . . ____ . . ____ . . ____ . . __
 72
    65
 73
     6
 40
1.25
 49
0.5
 74
     0
 49
-0.25
 74
     0
 49
0.0
 74
     0
 49
-0.25
 74
     0
 49
0.0
 74
     0
 49
-0.25
 74
     0
  0
LTYPE
  5
4DB
100
AcDbSymbolTableRecord
100
AcDbLinetypeTableRecord
  2
DIVISE2
 70
     0
  3
__..__..__..__..__..__..__..__..__..__..__..__.
 72
    65
 73
     6
 40
0.625
 49
0.25
 74
     0
 49
-0.125
 74
     0
 49
0.0
 74
     0
 49
-0.125
 74
     0
 49
0.0
 74
     0
 49
-0.125
 74
     0
  0
LTYPE
  5
4DC
100
AcDbSymbolTableRecord
100
AcDbLinetypeTableRecord
  2
DIVISEX2
 70
     0
  3
________  .  .  ________  .  .  ________  .  . 
 72
    65
 73
     6
 40
2.5
 49
1.0
 74
     0
 49
-0.5
 74
     0
 49
0.0
 74
     0
 49
-0.5
 74
     0
 49
0.0
 74
     0
 49
-0.5
 74
     0
  0
LTYPE
  5
4DD
100
AcDbSymbolTableRecord
100
AcDbLinetypeTableRecord
  2
POINTILLE
 70
     0
  3
. . . . . . . . . . . . . . . . . . . . . . . .
 72
    65
 73
     2
 40
0.25
 49
0.0
 74
     0
 49
-0.25
 74
     0
  0
LTYPE
  5
4DE
100
AcDbSymbolTableRecord
100
AcDbLinetypeTableRecord
  2
POINTILLE2
 70
     0
  3
...............................................
 72
    65
 73
     2
 40
0.125
 49
0.0
 74
     0
 49
-0.125
 74
     0
  0
LTYPE
  5
4DF
100
AcDbSymbolTableRecord
100
AcDbLinetypeTableRecord
  2
POINTILLEX2
 70
     0
  3
.  .  .  .  .  .  .  .  .  .  .  .  .  .  .  . 
 72
    65
 73
     2
 40
0.5
 49
0.0
 74
     0
 49
-0.5
 74
     0
  0
LTYPE
  5
4E0
100
AcDbSymbolTableRecord
100
AcDbLinetypeTableRecord
  2
CACHE
 70
     0
  3
__ __ __ __ __ __ __ __ __ __ __ __ __ __ __ __
 72
    65
 73
     2
 40
0.375
 49
0.25
 74
     0
 49
-0.125
 74
     0
  0
LTYPE
  5
4E1
100
AcDbSymbolTableRecord
100
AcDbLinetypeTableRecord
  2
CACHE2
 70
     0
  3
_ _ _ _ _ _ _ _ _ _ _ _ _ _ _ _ _ _ _ _ _ _ _ _
 72
    65
 73
     2
 40
0.1875
 49
0.125
 74
     0
 49
-0.0625
 74
     0
  0
LTYPE
  5
4E2
100
AcDbSymbolTableRecord
100
AcDbLinetypeTableRecord
  2
CACHEX2
 70
     0
  3
____ ____ ____ ____ ____ ____ ____ ____ ____ __
 72
    65
 73
     2
 40
0.75
 49
0.5
 74
     0
 49
-0.25
 74
     0
  0
LTYPE
  5
4E3
100
AcDbSymbolTableRecord
100
AcDbLinetypeTableRecord
  2
FANTOME
 70
     0
  3
______  __  __  ______  __  __  ______  __  __ 
 72
    65
 73
     6
 40
2.5
 49
1.25
 74
     0
 49
-0.25
 74
     0
 49
0.25
 74
     0
 49
-0.25
 74
     0
 49
0.25
 74
     0
 49
-0.25
 74
     0
  0
LTYPE
  5
4E4
100
AcDbSymbolTableRecord
100
AcDbLinetypeTableRecord
  2
FANTOME2
 70
     0
  3
___ _ _ ___ _ _ ___ _ _ ___ _ _ ___ _ _ ___ _ _
 72
    65
 73
     6
 40
1.25
 49
0.625
 74
     0
 49
-0.125
 74
     0
 49
0.125
 74
     0
 49
-0.125
 74
     0
 49
0.125
 74
     0
 49
-0.125
 74
     0
  0
LTYPE
  5
4E5
100
AcDbSymbolTableRecord
100
AcDbLinetypeTableRecord
  2
FANTOMEX2
 70
     0
  3
____________    ____    ____    ____________   
 72
    65
 73
     6
 40
5.0
 49
2.5
 74
     0
 49
-0.5
 74
     0
 49
0.5
 74
     0
 49
-0.5
 74
     0
 49
0.5
 74
     0
 49
-0.5
 74
     0
  0
LTYPE
  5
4E6
100
AcDbSymbolTableRecord
100
AcDbLinetypeTableRecord
  2
0
 70
     0
  3
MEDUSA PEN 0
 72
    65
 73
     0
 40
0.0
  0
ENDTAB
  0
TABLE
  2
LAYER
  5
4AD
100
AcDbSymbolTable
 70
    21
  0
LAYER
  5
4B9
100
AcDbSymbolTableRecord
100
AcDbLayerTableRecord
  2
0
 70
     0
 62
     7
  6
CONTINUOUS
  0
LAYER
  5
4ED
100
AcDbSymbolTableRecord
100
AcDbLayerTableRecord
  2
AXE
 70
     0
 62
    80
  6
AXES2
  0
LAYER
  5
4EE
100
AcDbSymbolTableRecord
100
AcDbLayerTableRecord
  2
CONSTRUCTION
 70
     0
 62
     6
  6
CONTINUOUS
  0
LAYER
  5
4EF
100
AcDbSymbolTableRecord
100
AcDbLayerTableRecord
  2
COTATION1
 70
     0
 62
     2
  6
CONTINUOUS
  0
LAYER
  5
4F0
100
AcDbSymbolTableRecord
100
AcDbLayerTableRecord
  2
HACHURES
 70
     0
 62
     9
  6
CONTINUOUS
  0
LAYER
  5
4F1
100
AcDbSymbolTableRecord
100
AcDbLayerTableRecord
  2
FMULT
 70
     0
 62
     6
  6
CONTINUOUS
  0
LAYER
  5
4F2
100
AcDbSymbolTableRecord
100
AcDbLayerTableRecord
  2
TEXTE
 70
     0
 62
   131
  6
CONTINUOUS
  0
LAYER
  5
4F3
100
AcDbSymbolTableRecord
100
AcDbLayerTableRecord
  2
FDP_CARTOUCHE
 70
     0
 62
     4
  6
CONTINUOUS
  0
LAYER
  5
4F4
100
AcDbSymbolTableRecord
100
AcDbLayerTableRecord
  2
FDP_TEXTES
 70
     0
 62
     5
  6
CONTINUOUS
  0
LAYER
  5
4F5
100
AcDbSymbolTableRecord
100
AcDbLayerTableRecord
  2
FDP_LOGO_MG
 70
     0
 62
    30
  6
CONTINUOUS
  0
LAYER
  5
4F6
100
AcDbSymbolTableRecord
100
AcDbLayerTableRecord
  2
FDP_LOGO_SCH
 70
     0
 62
     3
  6
CONTINUOUS
  0
LAYER
  5
4F7
100
AcDbSymbolTableRecord
100
AcDbLayerTableRecord
  2
FDP_FDP
 70
     0
 62
     5
  6
CONTINUOUS
  0
LAYER
  5
4F8
100
AcDbSymbolTableRecord
100
AcDbLayerTableRecord
  2
COTATION2
 70
     0
 62
     2
  6
CONTINUOUS
  0
LAYER
  5
4F9
100
AcDbSymbolTableRecord
100
AcDbLayerTableRecord
  2
COTATION3
 70
     0
 62
     2
  6
CONTINUOUS
  0
LAYER
  5
4FA
100
AcDbSymbolTableRecord
100
AcDbLayerTableRecord
  2
COTATION4
 70
     0
 62
     2
  6
CONTINUOUS
  0
LAYER
  5
4FB
100
AcDbSymbolTableRecord
100
AcDbLayerTableRecord
  2
ASHADE
 70
     0
 62
     7
  6
CONTINUOUS
  0
LAYER
  5
4FC
100
AcDbSymbolTableRecord
100
AcDbLayerTableRecord
  2
POINTILLE_COURT
 70
     0
 62
    40
  6
CACHE2
  0
LAYER
  5
4FD
100
AcDbSymbolTableRecord
100
AcDbLayerTableRecord
  2
POINTILLE_MOYEN
 70
     0
 62
   140
  6
CACHE
  0
LAYER
  5
4FE
100
AcDbSymbolTableRecord
100
AcDbLayerTableRecord
  2
POINTILLE_LONG
 70
     0
 62
   240
  6
CACHEX2
  0
LAYER
  5
4FF
100
AcDbSymbolTableRecord
100
AcDbLayerTableRecord
  2
ALPHA
 70
     0
 62
   255
  6
CONTINUOUS
  0
LAYER
  5
500
100
AcDbSymbolTableRecord
100
AcDbLayerTableRecord
  2
DEFPOINTS
 70
     0
 62
     7
  6
CONTINUOUS
  0
ENDTAB
  0
TABLE
  2
STYLE
  5
4AE
100
AcDbSymbolTable
 70
     4
  0
STYLE
  5
4BA
100
AcDbSymbolTableRecord
100
AcDbTextStyleTableRecord
  2
STANDARD
 70
     0
 40
0.0
 41
1.0
 50
0.0
 71
     0
 42
0.2
  3
txt
  4

  0
STYLE
  5
4CE
100
AcDbSymbolTableRecord
100
AcDbTextStyleTableRecord
  2
ROMANS
 70
     0
 40
0.0
 41
1.0
 50
0.0
 71
     0
 42
2.9
  3
romans.shx
  4

  0
STYLE
  5
4CF
100
AcDbSymbolTableRecord
100
AcDbTextStyleTableRecord
  2
INFOCAR
 70
     0
 40
0.0
 41
1.34
 50
0.0
 71
     0
 42
2.0
  3
ROMANS.SHX
  4

  0
STYLE
  5
4D0
100
AcDbSymbolTableRecord
100
AcDbTextStyleTableRecord
  2
CARTOUCHE
 70
     0
 40
0.0
 41
1.0
 50
0.0
 71
     0
 42
0.2
  3
ROMANS.SHX
  4

  0
ENDTAB
  0
TABLE
  2
VIEW
  5
4B1
100
AcDbSymbolTable
 70
     0
  0
ENDTAB
  0
TABLE
  2
UCS
  5
4B2
100
AcDbSymbolTable
 70
     0
  0
ENDTAB
  0
TABLE
  2
APPID
  5
4B4
100
AcDbSymbolTable
 70
     3
  0
APPID
  5
4BB
100
AcDbSymbolTableRecord
100
AcDbRegAppTableRecord
  2
ACAD
 70
     0
  0
APPID
  5
4E9
100
AcDbSymbolTableRecord
100
AcDbRegAppTableRecord
  2
AVE_RENDER
 70
     0
  0
APPID
  5
4EA
100
AcDbSymbolTableRecord
100
AcDbRegAppTableRecord
  2
AVE_MATERIAL
 70
     0
  0
ENDTAB
  0
TABLE
  2
DIMSTYLE
  5
4B5
100
AcDbSymbolTable
 70
     2
  0
DIMSTYLE
105
4EB
100
AcDbSymbolTableRecord
100
AcDbDimStyleTableRecord
  2
STANDARD
 70
     0
  3

  4

  5

  6

  7

 40
1.0
 41
0.18
 42
0.0625
 43
0.38
 44
0.18
 45
0.0
 46
0.0
 47
0.0
 48
0.0
140
0.18
141
0.09
142
0.0
143
25.4
144
1.0
145
0.0
146
1.0
147
0.09
 71
     0
 72
     0
 73
     1
 74
     1
 75
     0
 76
     0
 77
     0
 78
     0
170
     0
171
     2
172
     0
173
     0
174
     0
175
     0
176
     0
177
     0
178
     0
270
     2
271
     4
272
     4
273
     2
274
     2
340
4CE
275
     0
280
     0
281
     0
282
     0
283
     1
284
    12
285
    12
286
    12
287
     5
288
     0
  0
DIMSTYLE
105
4EC
102
{ACAD_REACTORS
330
479
330
488
102
}
100
AcDbSymbolTableRecord
100
AcDbDimStyleTableRecord
  2
SC_STAND
 70
     0
  3

  4

  5

  6

  7

 40
1.0
 41
3.0
 42
0.0625
 43
0.38
 44
0.18
 45
0.01
 46
0.0
 47
0.0
 48
0.0
140
2.5
141
0.09
142
0.0
143
25.4
144
1.0
145
0.0
146
1.0
147
1.0
 71
     0
 72
     0
 73
     0
 74
     0
 75
     0
 76
     0
 77
     1
 78
    12
170
     0
171
     2
172
     1
173
     0
174
     0
175
     0
176
     0
177
     0
178
     0
270
     2
271
     4
272
     4
273
     2
274
     2
340
4CE
275
     0
280
     0
281
     0
282
     0
283
     1
284
    12
285
    12
286
    12
287
     5
288
     0
  0
ENDTAB
  0
TABLE
  2
BLOCK_RECORD
  5
4AC
100
AcDbSymbolTable
 70
     7
  0
BLOCK_RECORD
  5
4C2
100
AcDbSymbolTableRecord
100
AcDbBlockTableRecord
  2
*MODEL_SPACE
  0
BLOCK_RECORD
  5
4BF
100
AcDbSymbolTableRecord
100
AcDbBlockTableRecord
  2
*PAPER_SPACE
  0
BLOCK_RECORD
  5
4C7
100
AcDbSymbolTableRecord
100
AcDbBlockTableRecord
  2
AVE_RENDER
  0
BLOCK_RECORD
  5
4C8
100
AcDbSymbolTableRecord
100
AcDbBlockTableRecord
  2
AVE_GLOBAL
  0
BLOCK_RECORD
  5
4C9
100
AcDbSymbolTableRecord
100
AcDbBlockTableRecord
  2
SCH_ISO
  0
BLOCK_RECORD
  5
4CC
100
AcDbSymbolTableRecord
100
AcDbBlockTableRecord
  2
*D5
  0
BLOCK_RECORD
  5
4CD
100
AcDbSymbolTableRecord
100
AcDbBlockTableRecord
  2
*D6
  0
ENDTAB
  0
ENDSEC
  0
SECTION
  2
BLOCKS
  0
BLOCK
  5
503
100
AcDbEntity
  8
0
100
AcDbBlockBegin
  2
*MODEL_SPACE
 70
     0
 10
0.0
 20
0.0
 30
0.0
  3
*MODEL_SPACE
  1

  0
ENDBLK
  5
504
100
AcDbEntity
  8
0
100
AcDbBlockEnd
  0
BLOCK
  5
501
100
AcDbEntity
 67
     1
  8
0
100
AcDbBlockBegin
  2
*PAPER_SPACE
 70
     0
 10
0.0
 20
0.0
 30
0.0
  3
*PAPER_SPACE
  1

  0
ENDBLK
  5
502
100
AcDbEntity
 67
     1
  8
0
100
AcDbBlockEnd
  0
BLOCK
  5
42A
100
AcDbEntity
  8
0
100
AcDbBlockBegin
  2
AVE_RENDER
 70
     0
 10
0.0
 20
0.0
 30
0.0
  3
AVE_RENDER
  1
AVE_RENDER
  0
ENDBLK
  5
42B
100
AcDbEntity
  8
0
100
AcDbBlockEnd
  0
BLOCK
  5
42D
100
AcDbEntity
  8
0
100
AcDbBlockBegin
  2
AVE_GLOBAL
 70
     0
 10
0.0
 20
0.0
 30
0.0
  3
AVE_GLOBAL
  1
AVE_GLOBAL
  0
ENDBLK
  5
42E
100
AcDbEntity
  8
0
100
AcDbBlockEnd
  0
BLOCK
  5
469
100
AcDbEntity
  8
0
100
AcDbBlockBegin
  2
SCH_ISO
 70
     0
 10
0.0
 20
0.0
 30
0.0
  3
SCH_ISO
  1

  0
INSERT
  5
460
100
AcDbEntity
  8
ASHADE
 62
     1
100
AcDbBlockReference
  2
AVE_RENDER
 10
0.0
 20
0.0
 30
0.0
1001
AVE_RENDER
1002
{
1070
     6
1000
Pref
1070
    50
1070
    20
1070
     1
1070
     0
1000

1070
    10
1070
     1
1070
    30
1040
25.4
1070
     1
1040
0.3
1040
0.7
1040
0.0
1040
10.0
1010
-1.0
1020
-1.0
1030
-1.0
1040
0.3
1070
    49
1070
     0
1070
     0
1010
1.0
1020
1.0
1030
1.0
1040
45.0
1070
     1
1070
     0
1000
WCS
1040
0.0
1002
}
  0
INSERT
  5
461
100
AcDbEntity
  8
ASHADE
 62
     3
100
AcDbBlockReference
  2
AVE_RENDER
 10
0.0
 20
0.0
 30
0.0
1001
AVE_RENDER
1002
{
1070
     0
1000
Full Opt
1070
     0
1070
     1
1070
     1
1070
     1
1070
     0
1070
     0
1070
     0
1070
     1
1070
     1
1040
0.0001
1040
0.0001
1002
}
  0
INSERT
  5
462
100
AcDbEntity
  8
ASHADE
 62
     4
100
AcDbBlockReference
  2
AVE_RENDER
 10
0.0
 20
0.0
 30
0.0
1001
AVE_RENDER
1002
{
1070
     0
1000
Quick Opt
1070
     0
1070
     1
1070
     1
1070
     1
1070
     0
1070
     0
1070
     1
1002
}
  0
INSERT
  5
463
100
AcDbEntity
  8
ASHADE
 62
     5
100
AcDbBlockReference
  2
AVE_RENDER
 10
0.0
 20
0.0
 30
0.0
1001
AVE_RENDER
1002
{
1070
     1
1000
Scanl Opt
1070
     2
1070
     0
1070
     2
1040
2.0
1040
4.0
1070
     0
1070
     1
1070
     0
1040
0.03
1002
}
  0
INSERT
  5
464
100
AcDbEntity
  8
ASHADE
 62
     6
100
AcDbBlockReference
  2
AVE_RENDER
 10
0.0
 20
0.0
 30
0.0
1001
AVE_RENDER
1002
{
1070
     2
1000
Raytr Opt
1070
     2
1070
     0
1070
     2
1040
2.0
1040
4.0
1070
     0
1070
     1
1070
     1
1040
0.03
1070
     3
1040
0.03
1002
}
  0
INSERT
  5
465
100
AcDbEntity
  8
ASHADE
 62
     7
100
AcDbBlockReference
  2
AVE_RENDER
 10
0.0
 20
0.0
 30
0.0
1001
AVE_RENDER
1002
{
1070
     0
1000
RFile Opt
1070
     5
1070
   640
1070
   480
1070
 10000
1070
     3
1070
    32
1070
    24
1070
     0
1070
     0
1070
     0
1070
     1
1070
     0
1070
     0
1070
     0
1002
}
  0
INSERT
  5
466
100
AcDbEntity
  8
ASHADE
 62
     8
100
AcDbBlockReference
  2
AVE_RENDER
 10
0.0
 20
0.0
 30
0.0
1001
AVE_RENDER
1002
{
1070
     0
1000
Fog Opt
1070
     0
1070
     0
1040
0.0
1040
1.0
1040
0.0
1040
1.0
1010
0.5
1020
0.5
1030
0.5
1002
}
  0
INSERT
  5
467
100
AcDbEntity
  8
ASHADE
 62
     9
100
AcDbBlockReference
  2
AVE_RENDER
 10
0.0
 20
0.0
 30
0.0
1001
AVE_RENDER
1002
{
1070
     0
1000
BG Opt
1070
     0
1070
     1
1010
0.0
1020
0.0
1030
0.0
1010
1.0
1020
0.0
1030
0.0
1010
0.0
1020
1.0
1030
0.0
1010
0.0
1020
0.0
1030
1.0
1040
0.5
1040
0.33
1040
0.0
1000

1070
     1
1000

1070
     1
1070
     1
1040
1.0
1040
1.0
1040
0.0
1040
0.0
1070
     0
1002
}
  0
INSERT
  5
468
100
AcDbEntity
  8
ASHADE
 62
     1
100
AcDbBlockReference
  2
AVE_GLOBAL
 10
0.0
 20
0.0
 30
0.0
1001
AVE_MATERIAL
1002
{
1000
*GLOBAL*
1000
1
1000
Finition globale.
1002
{
1002
}
1002
{
1070
    63
1002
{
1002
{
1010
-1.0
1020
-1.0
1030
-1.0
1002
}
1040
0.1
1000

1040
0.0
1002
{
1002
}
1040
0.0
1002
{
1002
}
1040
0.0
1002
}
1002
{
1002
{
1010
-1.0
1020
-1.0
1030
-1.0
1002
}
1040
0.7
1000

1040
0.0
1002
{
1002
}
1040
0.0
1002
{
1002
}
1040
0.0
1002
}
1002
{
1002
{
1010
-1.0
1020
-1.0
1030
-1.0
1002
}
1040
0.2
1000

1040
0.0
1002
{
1002
}
1040
0.0
1002
{
1002
}
1040
0.0
1002
}
1002
{
1070
     0
1002
{
1070
     1
1002
{
1040
1.0
1040
1.0
1000

1040
0.0
1002
{
1002
}
1040
0.0
1002
{
1002
}
1040
0.0
1002
}
1002
}
1040
1.0
1040
0.0
1040
0.0
1002
}
1002
{
1040
1.0
1040
1.0
1000

1040
0.0
1002
{
1002
}
1040
0.0
1002
{
1002
}
1040
0.0
1002
}
1002
{
1040
0.5
1040
1.0
1000

1040
0.0
1002
{
1002
}
1040
0.0
1002
{
1002
}
1040
0.0
1002
}
1002
{
1070
     0
1040
0.0
1002
{
1002
}
1040
1.0
1002
{
1002
}
1040
0.0
1002
}
1002
{
1040
0.0
1002
{
1002
{
1010
0.0
1020
0.0
1030
0.0
1002
}
1040
1.0
1000

1040
0.0
1002
{
1002
}
1040
0.0
1002
{
1002
}
1040
0.0
1002
}
1002
}
1002
{
1002
{
1070
     1
1002
{
1040
0.0
1040
1.0
1000

1040
0.0
1002
{
1002
}
1040
0.0
1002
{
1002
}
1040
0.0
1002
}
1002
}
1040
0.0
1002
{
1002
}
1010
1.0
1020
0.0
1030
0.0
1010
0.0
1020
1.0
1030
0.0
1010
0.0
1020
0.0
1030
1.0
1070
     0
1002
}
1002
{
1002
{
1040
1.0
1040
1.0
1002
{
1070
     1
1002
{
1040
1.0
1040
1.0
1000

1040
0.0
1002
{
1002
}
1040
0.0
1002
{
1002
}
1040
0.0
1002
}
1002
}
1002
}
1070
     0
1040
0.0
1002
{
1002
}
1002
}
1002
{
1002
}
1002
}
1002
{
1071
        3
1070
     3
1070
     0
1002
{
1070
     2
1070
     0
1070
     0
1040
0.0
1002
}
1070
     0
1070
     2
1002
{
1002
}
1002
}
1002
{
1040
8030.0
1040
190.300003
1040
0.305
1040
228.0
1040
545.0
1040
14.0
1040
17.4
1040
0.456
1002
}
1002
}
  0
ENDBLK
  5
46A
100
AcDbEntity
  8
0
100
AcDbBlockEnd
  0
BLOCK
  5
493
100
AcDbEntity
  8
0
100
AcDbBlockBegin
  2
*D5
 70
     1
 10
0.0
 20
0.0
 30
0.0
  3
*D5
  1

  0
LINE
  5
494
100
AcDbEntity
  8
0
  6
BYBLOCK
 62
     0
100
AcDbLine
 10
54.09205
 20
93.219359
 30
0.0
 11
54.09205
 21
77.08736
 31
0.0
  0
LINE
  5
495
100
AcDbEntity
  8
0
  6
BYBLOCK
 62
     0
100
AcDbLine
 10
67.89205
 20
95.637433
 30
0.0
 11
67.89205
 21
77.08736
 31
0.0
  0
LINE
  5
496
100
AcDbEntity
  8
0
  6
BYBLOCK
 62
     0
100
AcDbLine
 10
51.09205
 20
77.26736
 30
0.0
 11
48.09205
 21
77.26736
 31
0.0
  0
LINE
  5
497
100
AcDbEntity
  8
0
  6
BYBLOCK
 62
     0
100
AcDbLine
 10
70.89205
 20
77.26736
 30
0.0
 11
73.89205
 21
77.26736
 31
0.0
  0
LINE
  5
498
100
AcDbEntity
  8
0
  6
BYBLOCK
 62
     0
100
AcDbLine
 10
73.89205
 20
77.26736
 30
0.0
 11
82.153954
 21
77.26736
 31
0.0
  0
SOLID
  5
499
100
AcDbEntity
  8
0
  6
BYBLOCK
 62
     0
100
AcDbTrace
 10
51.09205
 20
77.76736
 30
0.0
 11
51.09205
 21
76.76736
 31
0.0
 12
54.09205
 22
77.26736
 32
0.0
 13
54.09205
 23
77.26736
 33
0.0
  0
SOLID
  5
49A
100
AcDbEntity
  8
0
  6
BYBLOCK
 62
     0
100
AcDbTrace
 10
70.89205
 20
77.76736
 30
0.0
 11
70.89205
 21
76.76736
 31
0.0
 12
67.89205
 22
77.26736
 32
0.0
 13
67.89205
 23
77.26736
 33
0.0
  0
LINE
  5
49B
100
AcDbEntity
  8
0
  6
BYBLOCK
 62
     0
100
AcDbLine
 10
54.09205
 20
77.26736
 30
0.0
 11
67.89205
 21
77.26736
 31
0.0
  0
TEXT
  5
49C
100
AcDbEntity
  8
0
  6
BYBLOCK
 62
     0
100
AcDbText
 10
74.177764
 20
78.51736
 30
0.0
 40
2.5
  1
13.8
  7
ROMANS
 72
     1
 11
78.523002
 21
79.76736
 31
0.0
100
AcDbText
 73
     2
  0
POINT
  5
49D
100
AcDbEntity
  8
DEFPOINTS
  6
BYBLOCK
 62
     0
100
AcDbPoint
 10
54.09205
 20
93.281859
 30
0.0
  0
POINT
  5
49E
100
AcDbEntity
  8
DEFPOINTS
  6
BYBLOCK
 62
     0
100
AcDbPoint
 10
67.89205
 20
95.699933
 30
0.0
  0
POINT
  5
49F
100
AcDbEntity
  8
DEFPOINTS
  6
BYBLOCK
 62
     0
100
AcDbPoint
 10
67.89205
 20
77.26736
 30
0.0
  0
ENDBLK
  5
4A0
100
AcDbEntity
  8
0
100
AcDbBlockEnd
  0
BLOCK
  5
4A1
100
AcDbEntity
  8
0
100
AcDbBlockBegin
  2
*D6
 70
     1
 10
0.0
 20
0.0
 30
0.0
  3
*D6
  1

  0
LINE
  5
4A2
100
AcDbEntity
  8
0
  6
BYBLOCK
 62
     0
100
AcDbLine
 10
67.82955
 20
95.699933
 30
0.0
 11
39.578986
 21
95.699933
 31
0.0
  0
LINE
  5
4A3
100
AcDbEntity
  8
0
  6
BYBLOCK
 62
     0
100
AcDbLine
 10
67.82955
 20
111.699933
 30
0.0
 11
39.578986
 21
111.699933
 31
0.0
  0
LINE
  5
4A4
100
AcDbEntity
  8
0
  6
BYBLOCK
 62
     0
100
AcDbLine
 10
39.758986
 20
98.699933
 30
0.0
 11
39.758986
 21
108.699933
 31
0.0
  0
SOLID
  5
4A5
100
AcDbEntity
  8
0
  6
BYBLOCK
 62
     0
100
AcDbTrace
 10
39.258986
 20
98.699933
 30
0.0
 11
40.258986
 21
98.699933
 31
0.0
 12
39.758986
 22
95.699933
 32
0.0
 13
39.758986
 23
95.699933
 33
0.0
  0
SOLID
  5
4A6
100
AcDbEntity
  8
0
  6
BYBLOCK
 62
     0
100
AcDbTrace
 10
39.258986
 20
108.699933
 30
0.0
 11
40.258986
 21
108.699933
 31
0.0
 12
39.758986
 22
111.699933
 32
0.0
 13
39.758986
 23
111.699933
 33
0.0
  0
TEXT
  5
4A7
100
AcDbEntity
  8
0
  6
BYBLOCK
 62
     0
100
AcDbText
 10
38.508986
 20
101.140409
 30
0.0
 40
2.5
  1
16
 50
90.0
  7
ROMANS
 72
     1
 11
37.258986
 21
103.699933
 31
0.0
100
AcDbText
 73
     2
  0
POINT
  5
4A8
100
AcDbEntity
  8
DEFPOINTS
  6
BYBLOCK
 62
     0
100
AcDbPoint
 10
67.89205
 20
95.699933
 30
0.0
  0
POINT
  5
4A9
100
AcDbEntity
  8
DEFPOINTS
  6
BYBLOCK
 62
     0
100
AcDbPoint
 10
67.89205
 20
111.699933
 30
0.0
  0
POINT
  5
4AA
100
AcDbEntity
  8
DEFPOINTS
  6
BYBLOCK
 62
     0
100
AcDbPoint
 10
39.758986
 20
111.699933
 30
0.0
  0
ENDBLK
  5
4AB
100
AcDbEntity
  8
0
100
AcDbBlockEnd
  0
ENDSEC
  0
SECTION
  2
ENTITIES
  0
ARC
  5
1D
100
AcDbEntity
  8
ALPHA
100
AcDbCircle
 10
58.932357
 20
95.056784
 30
0.0
 40
0.2
100
AcDbArc
 50
270.0
 51
347.328221
  0
ARC
  5
1E
100
AcDbEntity
  8
ALPHA
100
AcDbCircle
 10
20.491407
 20
103.699933
 30
0.0
 40
39.600643
100
AcDbArc
 50
347.328221
 51
12.671779
  0
ARC
  5
1F
100
AcDbEntity
  8
ALPHA
100
AcDbCircle
 10
58.932357
 20
112.343082
 30
0.0
 40
0.2
100
AcDbArc
 50
12.671779
 51
90.0
  0
ARC
  5
20
100
AcDbEntity
  8
ALPHA
100
AcDbCircle
 10
57.789357
 20
92.049933
 30
0.0
 40
0.2
100
AcDbArc
 50
180.0
 51
270.0
  0
ARC
  5
21
100
AcDbEntity
  8
ALPHA
100
AcDbCircle
 10
57.789357
 20
115.349933
 30
0.0
 40
0.2
100
AcDbArc
 50
90.0
 51
180.0
  0
ARC
  5
22
100
AcDbEntity
  8
ALPHA
100
AcDbCircle
 10
54.292059
 20
114.139923
 30
0.0
 40
0.2
100
AcDbArc
 50
90.0
 51
180.0
  0
LINE
  5
23
100
AcDbEntity
  8
ALPHA
100
AcDbLine
 10
89.99205
 20
100.749933
 30
0.0
 11
89.99205
 21
106.649933
 31
0.0
  0
LINE
  5
24
100
AcDbEntity
  8
ALPHA
100
AcDbLine
 10
89.59205
 20
96.924933
 30
0.0
 11
89.59205
 21
100.249933
 31
0.0
  0
LINE
  5
25
100
AcDbEntity
  8
ALPHA
100
AcDbLine
 10
89.59205
 20
110.474933
 30
0.0
 11
89.59205
 21
107.149933
 31
0.0
  0
LINE
  5
26
100
AcDbEntity
  8
ALPHA
100
AcDbLine
 10
88.49205
 20
102.199933
 30
0.0
 11
88.49205
 21
105.199933
 31
0.0
  0
LINE
  5
27
100
AcDbEntity
  8
ALPHA
100
AcDbLine
 10
88.39205
 20
100.249933
 30
0.0
 11
88.39205
 21
99.899933
 31
0.0
  0
LINE
  5
28
100
AcDbEntity
  8
ALPHA
100
AcDbLine
 10
87.79205
 20
100.249933
 30
0.0
 11
87.79205
 21
100.022978
 31
0.0
  0
LINE
  5
29
100
AcDbEntity
  8
ALPHA
100
AcDbLine
 10
85.69205
 20
110.976651
 30
0.0
 11
85.69205
 21
111.074933
 31
0.0
  0
LINE
  5
2A
100
AcDbEntity
  8
ALPHA
100
AcDbLine
 10
85.69205
 20
106.649933
 30
0.0
 11
85.69205
 21
107.149933
 31
0.0
  0
LINE
  5
2B
100
AcDbEntity
  8
ALPHA
100
AcDbLine
 10
85.69205
 20
99.899933
 30
0.0
 11
85.69205
 21
100.749933
 31
0.0
  0
LINE
  5
2C
100
AcDbEntity
  8
ALPHA
100
AcDbLine
 10
85.69205
 20
96.324933
 30
0.0
 11
85.69205
 21
96.423215
 31
0.0
  0
LINE
  5
2D
100
AcDbEntity
  8
ALPHA
100
AcDbLine
 10
85.69205
 20
105.199933
 30
0.0
 11
85.69205
 21
102.199933
 31
0.0
  0
LINE
  5
2E
100
AcDbEntity
  8
ALPHA
100
AcDbLine
 10
85.19205
 20
104.999933
 30
0.0
 11
85.19205
 21
107.399933
 31
0.0
  0
LINE
  5
2F
100
AcDbEntity
  8
ALPHA
100
AcDbLine
 10
65.59205
 20
115.549933
 30
0.0
 11
57.789357
 21
115.549933
 31
0.0
  0
LINE
  5
30
100
AcDbEntity
  8
ALPHA
100
AcDbLine
 10
84.79205
 20
106.859507
 30
0.0
 11
84.79205
 21
107.199933
 31
0.0
  0
LINE
  5
31
100
AcDbEntity
  8
ALPHA
100
AcDbLine
 10
84.79205
 20
105.199933
 30
0.0
 11
84.79205
 21
105.412699
 31
0.0
  0
LINE
  5
32
100
AcDbEntity
  8
ALPHA
100
AcDbLine
 10
84.59205
 20
110.349933
 30
0.0
 11
84.59205
 21
111.074933
 31
0.0
  0
LINE
  5
33
100
AcDbEntity
  8
ALPHA
100
AcDbLine
 10
84.59205
 20
108.624327
 30
0.0
 11
84.59205
 21
109.190012
 31
0.0
  0
LINE
  5
34
100
AcDbEntity
  8
ALPHA
100
AcDbLine
 10
84.59205
 20
96.324933
 30
0.0
 11
84.59205
 21
97.049933
 31
0.0
  0
LINE
  5
35
100
AcDbEntity
  8
ALPHA
100
AcDbLine
 10
84.19205
 20
102.399933
 30
0.0
 11
84.19205
 21
104.999933
 31
0.0
  0
LINE
  5
36
100
AcDbEntity
  8
ALPHA
100
AcDbLine
 10
83.708716
 20
106.944614
 30
0.0
 11
83.708716
 21
107.199933
 31
0.0
  0
LINE
  5
37
100
AcDbEntity
  8
ALPHA
100
AcDbLine
 10
83.708716
 20
105.199933
 30
0.0
 11
83.708716
 21
105.497805
 31
0.0
  0
LINE
  5
38
100
AcDbEntity
  8
ALPHA
100
AcDbLine
 10
82.67955
 20
106.433976
 30
0.0
 11
82.652466
 21
106.561635
 31
0.0
  0
LINE
  5
39
100
AcDbEntity
  8
ALPHA
100
AcDbLine
 10
82.51705
 20
106.391422
 30
0.0
 11
82.489966
 21
106.519082
 31
0.0
  0
LINE
  5
3A
100
AcDbEntity
  8
ALPHA
100
AcDbLine
 10
82.67955
 20
105.582912
 30
0.0
 11
82.652466
 21
105.710571
 31
0.0
  0
LINE
  5
3B
100
AcDbEntity
  8
ALPHA
100
AcDbLine
 10
82.51705
 20
105.540358
 30
0.0
 11
82.489966
 21
105.668018
 31
0.0
  0
LINE
  5
3C
100
AcDbEntity
  8
ALPHA
100
AcDbLine
 10
82.1108
 20
106.604188
 30
0.0
 11
82.083716
 21
106.731848
 31
0.0
  0
LINE
  5
3D
100
AcDbEntity
  8
ALPHA
100
AcDbLine
 10
82.246216
 20
106.646742
 30
0.0
 11
82.19205
 21
106.859507
 31
0.0
  0
LINE
  5
3E
100
AcDbEntity
  8
ALPHA
100
AcDbLine
 10
82.083716
 20
106.731848
 30
0.0
 11
82.02955
 21
106.859507
 31
0.0
  0
LINE
  5
3F
100
AcDbEntity
  8
ALPHA
100
AcDbLine
 10
82.5983
 20
106.22121
 30
0.0
 11
82.51705
 21
106.391422
 31
0.0
  0
LINE
  5
40
100
AcDbEntity
  8
ALPHA
100
AcDbLine
 10
82.19205
 20
106.859507
 30
0.0
 11
82.1108
 21
107.02972
 31
0.0
  0
LINE
  5
41
100
AcDbEntity
  8
ALPHA
100
AcDbLine
 10
82.5983
 20
105.370146
 30
0.0
 11
82.51705
 21
105.540358
 31
0.0
  0
LINE
  5
42
100
AcDbEntity
  8
ALPHA
100
AcDbLine
 10
82.733716
 20
106.348869
 30
0.0
 11
82.67955
 21
106.433976
 31
0.0
  0
LINE
  5
43
100
AcDbEntity
  8
ALPHA
100
AcDbLine
 10
57.634848
 20
114.339933
 30
0.0
 11
54.30102
 21
114.339933
 31
0.0
  0
LINE
  5
44
100
AcDbEntity
  8
ALPHA
100
AcDbLine
 10
83.59205
 20
97.049933
 30
0.0
 11
83.59205
 21
96.324933
 31
0.0
  0
LINE
  5
45
100
AcDbEntity
  8
ALPHA
100
AcDbLine
 10
83.59205
 20
111.074933
 30
0.0
 11
83.59205
 21
110.349933
 31
0.0
  0
LINE
  5
46
100
AcDbEntity
  8
ALPHA
100
AcDbLine
 10
83.49205
 20
105.199933
 30
0.0
 11
83.49205
 21
107.199933
 31
0.0
  0
LINE
  5
47
100
AcDbEntity
  8
ALPHA
100
AcDbLine
 10
83.32955
 20
106.306316
 30
0.0
 11
83.32955
 21
106.944614
 31
0.0
  0
LINE
  5
48
100
AcDbEntity
  8
ALPHA
100
AcDbLine
 10
83.32955
 20
105.455252
 30
0.0
 11
83.32955
 21
106.050997
 31
0.0
  0
LINE
  5
49
100
AcDbEntity
  8
ALPHA
100
AcDbLine
 10
82.652466
 20
106.561635
 30
0.0
 11
82.652466
 21
106.689295
 31
0.0
  0
LINE
  5
4A
100
AcDbEntity
  8
ALPHA
100
AcDbLine
 10
82.652466
 20
105.710571
 30
0.0
 11
82.652466
 21
105.795678
 31
0.0
  0
LINE
  5
4B
100
AcDbEntity
  8
ALPHA
100
AcDbLine
 10
82.489966
 20
106.519082
 30
0.0
 11
82.489966
 21
106.731848
 31
0.0
  0
LINE
  5
4C
100
AcDbEntity
  8
ALPHA
100
AcDbLine
 10
82.489966
 20
105.668018
 30
0.0
 11
82.489966
 21
105.838231
 31
0.0
  0
LINE
  5
4D
100
AcDbEntity
  8
ALPHA
100
AcDbLine
 10
82.2733
 20
106.050997
 30
0.0
 11
82.2733
 21
106.348869
 31
0.0
  0
LINE
  5
4E
100
AcDbEntity
  8
ALPHA
100
AcDbLine
 10
82.2733
 20
106.348869
 30
0.0
 11
82.246216
 21
106.646742
 31
0.0
  0
LINE
  5
4F
100
AcDbEntity
  8
ALPHA
100
AcDbLine
 10
81.4608
 20
106.348869
 30
0.0
 11
81.433716
 21
106.476529
 31
0.0
  0
LINE
  5
50
100
AcDbEntity
  8
ALPHA
100
AcDbLine
 10
81.37955
 20
105.540358
 30
0.0
 11
81.352466
 21
105.668018
 31
0.0
  0
LINE
  5
51
100
AcDbEntity
  8
ALPHA
100
AcDbLine
 10
81.352466
 20
106.22121
 30
0.0
 11
81.2983
 21
106.433976
 31
0.0
  0
LINE
  5
52
100
AcDbEntity
  8
ALPHA
100
AcDbLine
 10
81.54205
 20
105.540358
 30
0.0
 11
81.487883
 21
105.668018
 31
0.0
  0
LINE
  5
53
100
AcDbEntity
  8
ALPHA
100
AcDbLine
 10
81.4608
 20
105.370146
 30
0.0
 11
81.37955
 21
105.540358
 31
0.0
  0
LINE
  5
54
100
AcDbEntity
  8
ALPHA
100
AcDbLine
 10
82.733716
 20
105.497805
 30
0.0
 11
82.67955
 21
105.582912
 31
0.0
  0
LINE
  5
55
100
AcDbEntity
  8
ALPHA
100
AcDbLine
 10
81.514966
 20
106.263763
 30
0.0
 11
81.4608
 21
106.348869
 31
0.0
  0
LINE
  5
56
100
AcDbEntity
  8
ALPHA
100
AcDbLine
 10
81.433716
 20
106.09355
 30
0.0
 11
81.352466
 21
106.22121
 31
0.0
  0
LINE
  5
57
100
AcDbEntity
  8
ALPHA
100
AcDbLine
 10
82.706633
 20
105.242486
 30
0.0
 11
82.5983
 21
105.370146
 31
0.0
  0
LINE
  5
58
100
AcDbEntity
  8
ALPHA
100
AcDbLine
 10
82.02955
 20
106.859507
 30
0.0
 11
81.9483
 21
106.944614
 31
0.0
  0
LINE
  5
59
100
AcDbEntity
  8
ALPHA
100
AcDbLine
 10
82.1108
 20
107.02972
 30
0.0
 11
81.975383
 21
107.15738
 31
0.0
  0
LINE
  5
5A
100
AcDbEntity
  8
ALPHA
100
AcDbLine
 10
78.09205
 20
110.45722
 30
0.0
 11
78.71705
 21
110.003341
 31
0.0
  0
LINE
  5
5B
100
AcDbEntity
  8
ALPHA
100
AcDbLine
 10
89.59205
 20
110.474933
 30
0.0
 11
87.090736
 21
110.915982
 31
0.0
  0
LINE
  5
5C
100
AcDbEntity
  8
ALPHA
100
AcDbLine
 10
58.545602
 20
112.543082
 30
0.0
 11
58.932357
 21
112.543082
 31
0.0
  0
LINE
  5
5D
100
AcDbEntity
  8
ALPHA
100
AcDbLine
 10
83.844133
 20
105.412699
 30
0.0
 11
84.79205
 21
106.859507
 31
0.0
  0
LINE
  5
5E
100
AcDbEntity
  8
ALPHA
100
AcDbLine
 10
83.708716
 20
105.497805
 30
0.0
 11
84.62955
 21
106.944614
 31
0.0
  0
LINE
  5
5F
100
AcDbEntity
  8
ALPHA
100
AcDbLine
 10
82.19205
 20
105.540358
 30
0.0
 11
82.246216
 21
105.753124
 31
0.0
  0
LINE
  5
60
100
AcDbEntity
  8
ALPHA
100
AcDbLine
 10
82.652466
 20
105.795678
 30
0.0
 11
82.67955
 21
105.923337
 31
0.0
  0
LINE
  5
61
100
AcDbEntity
  8
ALPHA
100
AcDbLine
 10
82.489966
 20
105.838231
 30
0.0
 11
82.51705
 21
105.96589
 31
0.0
  0
LINE
  5
62
100
AcDbEntity
  8
ALPHA
100
AcDbLine
 10
82.652466
 20
106.689295
 30
0.0
 11
82.67955
 21
106.816954
 31
0.0
  0
LINE
  5
63
100
AcDbEntity
  8
ALPHA
100
AcDbLine
 10
82.489966
 20
106.731848
 30
0.0
 11
82.51705
 21
106.859507
 31
0.0
  0
LINE
  5
64
100
AcDbEntity
  8
ALPHA
100
AcDbLine
 10
82.083716
 20
105.668018
 30
0.0
 11
82.1108
 21
105.795678
 31
0.0
  0
LINE
  5
65
100
AcDbEntity
  8
ALPHA
100
AcDbLine
 10
82.083716
 20
106.348869
 30
0.0
 11
82.1108
 21
106.476529
 31
0.0
  0
LINE
  5
66
100
AcDbEntity
  8
ALPHA
100
AcDbLine
 10
82.1108
 20
105.795678
 30
0.0
 11
82.137883
 21
106.050997
 31
0.0
  0
LINE
  5
67
100
AcDbEntity
  8
ALPHA
100
AcDbLine
 10
82.246216
 20
105.753124
 30
0.0
 11
82.2733
 21
106.050997
 31
0.0
  0
LINE
  5
68
100
AcDbEntity
  8
ALPHA
100
AcDbLine
 10
82.137883
 20
106.050997
 30
0.0
 11
82.137883
 21
106.136103
 31
0.0
  0
LINE
  5
69
100
AcDbEntity
  8
ALPHA
100
AcDbLine
 10
82.1108
 20
106.476529
 30
0.0
 11
82.1108
 21
106.604188
 31
0.0
  0
LINE
  5
6A
100
AcDbEntity
  8
ALPHA
100
AcDbLine
 10
81.433716
 20
106.476529
 30
0.0
 11
81.433716
 21
106.604188
 31
0.0
  0
LINE
  5
6B
100
AcDbEntity
  8
ALPHA
100
AcDbLine
 10
81.2983
 20
106.433976
 30
0.0
 11
81.2983
 21
106.646742
 31
0.0
  0
LINE
  5
6C
100
AcDbEntity
  8
ALPHA
100
AcDbLine
 10
81.081633
 20
105.199933
 30
0.0
 11
81.081633
 21
107.199933
 31
0.0
  0
LINE
  5
6D
100
AcDbEntity
  8
ALPHA
100
AcDbLine
 10
80.919133
 20
105.455252
 30
0.0
 11
80.919133
 21
106.944614
 31
0.0
  0
LINE
  5
6E
100
AcDbEntity
  8
ALPHA
100
AcDbLine
 10
80.025383
 20
105.668018
 30
0.0
 11
79.9983
 21
105.880784
 31
0.0
  0
LINE
  5
6F
100
AcDbEntity
  8
ALPHA
100
AcDbLine
 10
80.187883
 20
105.710571
 30
0.0
 11
80.1608
 21
105.880784
 31
0.0
  0
LINE
  5
70
100
AcDbEntity
  8
ALPHA
100
AcDbLine
 10
80.07955
 20
105.497805
 30
0.0
 11
80.025383
 21
105.668018
 31
0.0
  0
LINE
  5
71
100
AcDbEntity
  8
ALPHA
100
AcDbLine
 10
80.24205
 20
105.582912
 30
0.0
 11
80.187883
 21
105.710571
 31
0.0
  0
LINE
  5
72
100
AcDbEntity
  8
ALPHA
100
AcDbLine
 10
80.187883
 20
105.327593
 30
0.0
 11
80.07955
 21
105.497805
 31
0.0
  0
LINE
  5
73
100
AcDbEntity
  8
ALPHA
100
AcDbLine
 10
81.596216
 20
106.178656
 30
0.0
 11
81.514966
 21
106.263763
 31
0.0
  0
LINE
  5
74
100
AcDbEntity
  8
ALPHA
100
AcDbLine
 10
81.6233
 20
105.455252
 30
0.0
 11
81.54205
 21
105.540358
 31
0.0
  0
LINE
  5
75
100
AcDbEntity
  8
ALPHA
100
AcDbLine
 10
81.569133
 20
105.96589
 30
0.0
 11
81.433716
 21
106.09355
 31
0.0
  0
LINE
  5
76
100
AcDbEntity
  8
ALPHA
100
AcDbLine
 10
81.596216
 20
105.242486
 30
0.0
 11
81.4608
 21
105.370146
 31
0.0
  0
LINE
  5
77
100
AcDbEntity
  8
ALPHA
100
AcDbLine
 10
82.652466
 20
106.178656
 30
0.0
 11
82.5983
 21
106.22121
 31
0.0
  0
LINE
  5
78
100
AcDbEntity
  8
ALPHA
100
AcDbLine
 10
81.9483
 20
106.944614
 30
0.0
 11
81.86705
 21
106.987167
 31
0.0
  0
LWPOLYLINE
  5
79
100
AcDbEntity
  8
ALPHA
100
AcDbPolyline
 90
        4
 70
     0
 43
0.0
 10
87.090736
 20
110.915982
 10
86.62645
 20
110.937775
 10
86.160172
 20
110.958002
 10
85.69205
 20
110.976651
  0
LWPOLYLINE
  5
7F
100
AcDbEntity
  8
ALPHA
100
AcDbPolyline
 90
       17
 70
     0
 43
0.0
 10
58.545602
 20
112.543082
 10
58.532168
 20
112.543506
 10
58.517226
 20
112.544934
 10
58.501121
 20
112.547539
 10
58.484136
 20
112.551441
 10
58.466412
 20
112.556744
 10
58.448238
 20
112.563482
 10
58.429608
 20
112.571778
 10
58.410568
 20
112.581766
 10
58.391273
 20
112.593551
 10
58.371978
 20
112.607177
 10
58.352696
 20
112.622894
 10
58.333513
 20
112.64102
 10
58.314736
 20
112.661821
 10
58.296828
 20
112.685559
 10
58.280411
 20
112.712577
 10
58.266499
 20
112.743082
  0
LINE
  5
92
100
AcDbEntity
  8
ALPHA
100
AcDbLine
 10
65.59205
 20
112.399933
 30
0.0
 11
66.19205
 21
112.399933
 31
0.0
  0
LINE
  5
93
100
AcDbEntity
  8
ALPHA
100
AcDbLine
 10
67.89205
 20
111.699933
 30
0.0
 11
66.19205
 21
111.699933
 31
0.0
  0
LINE
  5
94
100
AcDbEntity
  8
ALPHA
100
AcDbLine
 10
78.71705
 20
111.074933
 30
0.0
 11
67.89205
 21
111.074933
 31
0.0
  0
LINE
  5
95
100
AcDbEntity
  8
ALPHA
100
AcDbLine
 10
83.59205
 20
111.074933
 30
0.0
 11
78.71705
 21
111.074933
 31
0.0
  0
LINE
  5
96
100
AcDbEntity
  8
ALPHA
100
AcDbLine
 10
85.69205
 20
111.074933
 30
0.0
 11
84.59205
 21
111.074933
 31
0.0
  0
LINE
  5
97
100
AcDbEntity
  8
ALPHA
100
AcDbLine
 10
82.67955
 20
105.923337
 30
0.0
 11
82.733716
 21
106.008444
 31
0.0
  0
LINE
  5
98
100
AcDbEntity
  8
ALPHA
100
AcDbLine
 10
82.51705
 20
105.96589
 30
0.0
 11
82.5983
 21
106.136103
 31
0.0
  0
LINE
  5
99
100
AcDbEntity
  8
ALPHA
100
AcDbLine
 10
82.1108
 20
105.370146
 30
0.0
 11
82.19205
 21
105.540358
 31
0.0
  0
LINE
  5
9A
100
AcDbEntity
  8
ALPHA
100
AcDbLine
 10
82.51705
 20
106.859507
 30
0.0
 11
82.5983
 21
107.02972
 31
0.0
  0
LINE
  5
9B
100
AcDbEntity
  8
ALPHA
100
AcDbLine
 10
82.02955
 20
105.540358
 30
0.0
 11
82.083716
 21
105.668018
 31
0.0
  0
LINE
  5
9C
100
AcDbEntity
  8
ALPHA
100
AcDbLine
 10
81.4608
 20
106.731848
 30
0.0
 11
81.514966
 21
106.859507
 31
0.0
  0
LINE
  5
9D
100
AcDbEntity
  8
ALPHA
100
AcDbLine
 10
81.2983
 20
106.646742
 30
0.0
 11
81.352466
 21
106.859507
 31
0.0
  0
LINE
  5
9E
100
AcDbEntity
  8
ALPHA
100
AcDbLine
 10
81.433716
 20
106.604188
 30
0.0
 11
81.4608
 21
106.731848
 31
0.0
  0
LINE
  5
9F
100
AcDbEntity
  8
ALPHA
100
AcDbLine
 10
80.1608
 20
106.519082
 30
0.0
 11
80.187883
 21
106.689295
 31
0.0
  0
LINE
  5
A0
100
AcDbEntity
  8
ALPHA
100
AcDbLine
 10
79.9983
 20
106.519082
 30
0.0
 11
80.025383
 21
106.731848
 31
0.0
  0
LINE
  5
A1
100
AcDbEntity
  8
ALPHA
100
AcDbLine
 10
80.1608
 20
105.880784
 30
0.0
 11
80.1608
 21
106.519082
 31
0.0
  0
LINE
  5
A2
100
AcDbEntity
  8
ALPHA
100
AcDbLine
 10
79.9983
 20
105.880784
 30
0.0
 11
79.9983
 21
106.519082
 31
0.0
  0
LINE
  5
A3
100
AcDbEntity
  8
ALPHA
100
AcDbLine
 10
79.781633
 20
106.987167
 30
0.0
 11
79.781633
 21
107.199933
 31
0.0
  0
LINE
  5
A4
100
AcDbEntity
  8
ALPHA
100
AcDbLine
 10
79.646216
 20
106.987167
 30
0.0
 11
79.646216
 21
107.199933
 31
0.0
  0
LINE
  5
A5
100
AcDbEntity
  8
ALPHA
100
AcDbLine
 10
79.59205
 20
104.999933
 30
0.0
 11
79.59205
 21
102.399933
 31
0.0
  0
LINE
  5
A6
100
AcDbEntity
  8
ALPHA
100
AcDbLine
 10
80.3233
 20
105.497805
 30
0.0
 11
80.24205
 21
105.582912
 31
0.0
  0
LINE
  5
A7
100
AcDbEntity
  8
ALPHA
100
AcDbLine
 10
80.296216
 20
105.242486
 30
0.0
 11
80.187883
 21
105.327593
 31
0.0
  0
LINE
  5
A8
100
AcDbEntity
  8
ALPHA
100
AcDbLine
 10
78.71705
 20
107.528467
 30
0.0
 11
78.09205
 21
107.982347
 31
0.0
  0
LINE
  5
A9
100
AcDbEntity
  8
ALPHA
100
AcDbLine
 10
82.814966
 20
106.306316
 30
0.0
 11
82.733716
 21
106.348869
 31
0.0
  0
LINE
  5
AA
100
AcDbEntity
  8
ALPHA
100
AcDbLine
 10
81.677466
 20
106.136103
 30
0.0
 11
81.596216
 21
106.178656
 31
0.0
  0
LINE
  5
AB
100
AcDbEntity
  8
ALPHA
100
AcDbLine
 10
82.814966
 20
105.455252
 30
0.0
 11
82.733716
 21
105.497805
 31
0.0
  0
LINE
  5
AC
100
AcDbEntity
  8
ALPHA
100
AcDbLine
 10
81.70455
 20
105.412699
 30
0.0
 11
81.6233
 21
105.455252
 31
0.0
  0
LINE
  5
AD
100
AcDbEntity
  8
ALPHA
100
AcDbLine
 10
81.975383
 20
107.15738
 30
0.0
 11
81.839966
 21
107.199933
 31
0.0
  0
LWPOLYLINE
  5
AE
100
AcDbEntity
  8
ALPHA
100
AcDbPolyline
 90
        4
 70
     0
 43
0.0
 10
84.59205
 20
109.190012
 10
79.884491
 20
109.484775
 10
75.228641
 20
109.756284
 10
70.649914
 20
110.003341
  0
LINE
  5
B4
100
AcDbEntity
  8
ALPHA
100
AcDbLine
 10
67.89205
 20
111.024933
 30
0.0
 11
78.71705
 21
111.024933
 31
0.0
  0
LINE
  5
B5
100
AcDbEntity
  8
ALPHA
100
AcDbLine
 10
69.29205
 20
110.45722
 30
0.0
 11
78.09205
 21
110.45722
 31
0.0
  0
LINE
  5
B6
100
AcDbEntity
  8
ALPHA
100
AcDbLine
 10
84.59205
 20
110.349933
 30
0.0
 11
83.59205
 21
110.349933
 31
0.0
  0
LINE
  5
B7
100
AcDbEntity
  8
ALPHA
100
AcDbLine
 10
70.649914
 20
110.003341
 30
0.0
 11
78.71705
 21
110.003341
 31
0.0
  0
LINE
  5
B8
100
AcDbEntity
  8
ALPHA
100
AcDbLine
 10
69.29205
 20
110.003341
 30
0.0
 11
69.894483
 21
110.003341
 31
0.0
  0
LINE
  5
B9
100
AcDbEntity
  8
ALPHA
100
AcDbLine
 10
81.9483
 20
105.455252
 30
0.0
 11
82.02955
 21
105.540358
 31
0.0
  0
LINE
  5
BA
100
AcDbEntity
  8
ALPHA
100
AcDbLine
 10
82.67955
 20
106.816954
 30
0.0
 11
82.733716
 21
106.902061
 31
0.0
  0
LINE
  5
BB
100
AcDbEntity
  8
ALPHA
100
AcDbLine
 10
82.02955
 20
106.263763
 30
0.0
 11
82.083716
 21
106.348869
 31
0.0
  0
LINE
  5
BC
100
AcDbEntity
  8
ALPHA
100
AcDbLine
 10
81.352466
 20
106.859507
 30
0.0
 11
81.433716
 21
107.02972
 31
0.0
  0
LINE
  5
BD
100
AcDbEntity
  8
ALPHA
100
AcDbLine
 10
80.187883
 20
106.689295
 30
0.0
 11
80.24205
 21
106.816954
 31
0.0
  0
LINE
  5
BE
100
AcDbEntity
  8
ALPHA
100
AcDbLine
 10
80.025383
 20
106.731848
 30
0.0
 11
80.07955
 21
106.902061
 31
0.0
  0
LINE
  5
BF
100
AcDbEntity
  8
ALPHA
100
AcDbLine
 10
79.19205
 20
104.999933
 30
0.0
 11
79.19205
 21
107.399933
 31
0.0
  0
LINE
  5
C0
100
AcDbEntity
  8
ALPHA
100
AcDbLine
 10
78.71705
 20
96.324933
 30
0.0
 11
78.71705
 21
111.074933
 31
0.0
  0
LINE
  5
C1
100
AcDbEntity
  8
ALPHA
100
AcDbLine
 10
78.09205
 20
96.374933
 30
0.0
 11
78.09205
 21
107.982347
 31
0.0
  0
LINE
  5
C2
100
AcDbEntity
  8
ALPHA
100
AcDbLine
 10
78.09205
 20
111.024933
 30
0.0
 11
78.09205
 21
110.45722
 31
0.0
  0
LINE
  5
C3
100
AcDbEntity
  8
ALPHA
100
AcDbLine
 10
80.431633
 20
105.455252
 30
0.0
 11
80.3233
 21
105.497805
 31
0.0
  0
LINE
  5
C4
100
AcDbEntity
  8
ALPHA
100
AcDbLine
 10
81.70455
 20
105.923337
 30
0.0
 11
81.569133
 21
105.96589
 31
0.0
  0
LINE
  5
C5
100
AcDbEntity
  8
ALPHA
100
AcDbLine
 10
82.84205
 20
105.199933
 30
0.0
 11
82.706633
 21
105.242486
 31
0.0
  0
LINE
  5
C6
100
AcDbEntity
  8
ALPHA
100
AcDbLine
 10
70.994836
 20
109.085684
 30
0.0
 11
81.303158
 21
108.37989
 31
0.0
  0
LWPOLYLINE
  5
C7
100
AcDbEntity
  8
ALPHA
100
AcDbPolyline
 90
       12
 70
     0
 43
0.0
 10
66.99205
 20
109.650721
 10
67.030808
 20
109.648839
 10
67.069145
 20
109.643221
 10
67.104996
 20
109.634444
 10
67.139717
 20
109.622466
 10
67.174496
 20
109.606689
 10
67.203656
 20
109.590166
 10
67.232676
 20
109.57025
 10
67.261501
 20
109.546349
 10
67.287033
 20
109.520878
 10
67.310476
 20
109.492805
 10
67.33238
 20
109.4609
  0
LINE
  5
D5
100
AcDbEntity
  8
ALPHA
100
AcDbLine
 10
84.59205
 20
109.190012
 30
0.0
 11
89.59205
 21
109.190012
 31
0.0
  0
LINE
  5
D6
100
AcDbEntity
  8
ALPHA
100
AcDbLine
 10
69.894483
 20
108.62434
 30
0.0
 11
70.601907
 21
108.62434
 31
0.0
  0
LINE
  5
D7
100
AcDbEntity
  8
ALPHA
100
AcDbLine
 10
89.59205
 20
108.624327
 30
0.0
 11
84.59205
 21
108.624327
 31
0.0
  0
LWPOLYLINE
  5
D8
100
AcDbEntity
  8
ALPHA
100
AcDbPolyline
 90
       22
 70
     0
 43
0.0
 10
66.99205
 20
109.085971
 10
67.027037
 20
109.087206
 10
67.061746
 20
109.090904
 10
67.095837
 20
109.097028
 10
67.129032
 20
109.105526
 10
67.161007
 20
109.116309
 10
67.191515
 20
109.129292
 10
67.220233
 20
109.144331
 10
67.246949
 20
109.161309
 10
67.271375
 20
109.180041
 10
67.293352
 20
109.200409
 10
67.312575
 20
109.222137
 10
67.328861
 20
109.244989
 10
67.342113
 20
109.26882
 10
67.352228
 20
109.29351
 10
67.359033
 20
109.318734
 10
67.362437
 20
109.344135
 10
67.362436
 20
109.369425
 10
67.359029
 20
109.394609
 10
67.35222
 20
109.419388
 10
67.342106
 20
109.443422
 10
67.33238
 20
109.4609
  0
LINE
  5
F0
100
AcDbEntity
  8
ALPHA
100
AcDbLine
 10
82.5983
 20
106.136103
 30
0.0
 11
82.652466
 21
106.178656
 31
0.0
  0
LINE
  5
F1
100
AcDbEntity
  8
ALPHA
100
AcDbLine
 10
81.975383
 20
105.242486
 30
0.0
 11
82.1108
 21
105.370146
 31
0.0
  0
LINE
  5
F2
100
AcDbEntity
  8
ALPHA
100
AcDbLine
 10
81.975383
 20
105.96589
 30
0.0
 11
82.137883
 21
106.136103
 31
0.0
  0
LINE
  5
F3
100
AcDbEntity
  8
ALPHA
100
AcDbLine
 10
81.9483
 20
106.178656
 30
0.0
 11
82.02955
 21
106.263763
 31
0.0
  0
LINE
  5
F4
100
AcDbEntity
  8
ALPHA
100
AcDbLine
 10
81.514966
 20
106.859507
 30
0.0
 11
81.596216
 21
106.944614
 31
0.0
  0
LINE
  5
F5
100
AcDbEntity
  8
ALPHA
100
AcDbLine
 10
82.5983
 20
107.02972
 30
0.0
 11
82.706633
 21
107.15738
 31
0.0
  0
LINE
  5
F6
100
AcDbEntity
  8
ALPHA
100
AcDbLine
 10
80.07955
 20
106.902061
 30
0.0
 11
80.187883
 21
107.072273
 31
0.0
  0
LINE
  5
F7
100
AcDbEntity
  8
ALPHA
100
AcDbLine
 10
81.731633
 20
105.199933
 30
0.0
 11
81.596216
 21
105.242486
 31
0.0
  0
LINE
  5
F8
100
AcDbEntity
  8
ALPHA
100
AcDbLine
 10
80.431633
 20
105.199933
 30
0.0
 11
80.296216
 21
105.242486
 31
0.0
  0
LINE
  5
F9
100
AcDbEntity
  8
ALPHA
100
AcDbLine
 10
69.830879
 20
108.099933
 30
0.0
 11
70.554831
 21
108.099933
 31
0.0
  0
LINE
  5
FA
100
AcDbEntity
  8
ALPHA
100
AcDbLine
 10
78.09205
 20
107.982347
 30
0.0
 11
69.29205
 21
107.982347
 31
0.0
  0
LINE
  5
FB
100
AcDbEntity
  8
ALPHA
100
AcDbLine
 10
85.19205
 20
107.399933
 30
0.0
 11
79.19205
 21
107.399933
 31
0.0
  0
LINE
  5
FC
100
AcDbEntity
  8
ALPHA
100
AcDbLine
 10
79.781633
 20
107.199933
 30
0.0
 11
79.646216
 21
107.199933
 31
0.0
  0
LINE
  5
FD
100
AcDbEntity
  8
ALPHA
100
AcDbLine
 10
81.081633
 20
107.199933
 30
0.0
 11
80.431633
 21
107.199933
 31
0.0
  0
LINE
  5
FE
100
AcDbEntity
  8
ALPHA
100
AcDbLine
 10
81.839966
 20
107.199933
 30
0.0
 11
81.70455
 21
107.199933
 31
0.0
  0
LINE
  5
FF
100
AcDbEntity
  8
ALPHA
100
AcDbLine
 10
83.49205
 20
107.199933
 30
0.0
 11
82.84205
 21
107.199933
 31
0.0
  0
LINE
  5
100
100
AcDbEntity
  8
ALPHA
100
AcDbLine
 10
84.79205
 20
107.199933
 30
0.0
 11
83.708716
 21
107.199933
 31
0.0
  0
LINE
  5
101
100
AcDbEntity
  8
ALPHA
100
AcDbLine
 10
89.59205
 20
107.149933
 30
0.0
 11
85.69205
 21
107.149933
 31
0.0
  0
LINE
  5
102
100
AcDbEntity
  8
ALPHA
100
AcDbLine
 10
79.781633
 20
106.987167
 30
0.0
 11
79.646216
 21
106.987167
 31
0.0
  0
LINE
  5
103
100
AcDbEntity
  8
ALPHA
100
AcDbLine
 10
81.86705
 20
106.987167
 30
0.0
 11
81.677466
 21
106.987167
 31
0.0
  0
LINE
  5
104
100
AcDbEntity
  8
ALPHA
100
AcDbLine
 10
80.919133
 20
106.944614
 30
0.0
 11
80.431633
 21
106.944614
 31
0.0
  0
LINE
  5
105
100
AcDbEntity
  8
ALPHA
100
AcDbLine
 10
83.32955
 20
106.944614
 30
0.0
 11
82.814966
 21
106.944614
 31
0.0
  0
LINE
  5
106
100
AcDbEntity
  8
ALPHA
100
AcDbLine
 10
84.62955
 20
106.944614
 30
0.0
 11
83.708716
 21
106.944614
 31
0.0
  0
LWPOLYLINE
  5
107
100
AcDbEntity
  8
ALPHA
100
AcDbPolyline
 90
        3
 70
     0
 43
0.0
 10
76.16912
 20
107.982347
 10
79.884491
 20
108.274453
 10
84.59205
 20
108.624327
  0
LINE
  5
10C
100
AcDbEntity
  8
ALPHA
100
AcDbLine
 10
81.433716
 20
107.02972
 30
0.0
 11
81.569133
 21
107.15738
 31
0.0
  0
LINE
  5
10D
100
AcDbEntity
  8
ALPHA
100
AcDbLine
 10
80.24205
 20
106.816954
 30
0.0
 11
80.3233
 21
106.902061
 31
0.0
  0
LINE
  5
10E
100
AcDbEntity
  8
ALPHA
100
AcDbLine
 10
85.69205
 20
106.649933
 30
0.0
 11
89.99205
 21
106.649933
 31
0.0
  0
LINE
  5
10F
100
AcDbEntity
  8
ALPHA
100
AcDbLine
 10
83.32955
 20
106.306316
 30
0.0
 11
82.814966
 21
106.306316
 31
0.0
  0
LINE
  5
110
100
AcDbEntity
  8
ALPHA
100
AcDbLine
 10
81.86705
 20
106.136103
 30
0.0
 11
81.677466
 21
106.136103
 31
0.0
  0
LINE
  5
111
100
AcDbEntity
  8
ALPHA
100
AcDbLine
 10
83.32955
 20
106.050997
 30
0.0
 11
82.814966
 21
106.050997
 31
0.0
  0
LINE
  5
112
100
AcDbEntity
  8
ALPHA
100
AcDbLine
 10
81.839966
 20
105.923337
 30
0.0
 11
81.70455
 21
105.923337
 31
0.0
  0
LINE
  5
113
100
AcDbEntity
  8
ALPHA
100
AcDbLine
 10
59.39205
 20
105.699933
 30
0.0
 11
60.040879
 21
105.699933
 31
0.0
  0
LINE
  5
114
100
AcDbEntity
  8
ALPHA
100
AcDbLine
 10
81.487883
 20
105.668018
 30
0.0
 11
81.352466
 21
105.668018
 31
0.0
  0
LINE
  5
115
100
AcDbEntity
  8
ALPHA
100
AcDbLine
 10
80.919133
 20
105.455252
 30
0.0
 11
80.431633
 21
105.455252
 31
0.0
  0
LINE
  5
116
100
AcDbEntity
  8
ALPHA
100
AcDbLine
 10
83.32955
 20
105.455252
 30
0.0
 11
82.814966
 21
105.455252
 31
0.0
  0
LINE
  5
117
100
AcDbEntity
  8
ALPHA
100
AcDbLine
 10
81.86705
 20
105.412699
 30
0.0
 11
81.70455
 21
105.412699
 31
0.0
  0
LINE
  5
118
100
AcDbEntity
  8
ALPHA
100
AcDbLine
 10
84.79205
 20
105.412699
 30
0.0
 11
83.844133
 21
105.412699
 31
0.0
  0
LINE
  5
119
100
AcDbEntity
  8
ALPHA
100
AcDbLine
 10
81.86705
 20
105.412699
 30
0.0
 11
81.9483
 21
105.455252
 31
0.0
  0
LINE
  5
11A
100
AcDbEntity
  8
ALPHA
100
AcDbLine
 10
82.733716
 20
106.008444
 30
0.0
 11
82.814966
 21
106.050997
 31
0.0
  0
LINE
  5
11B
100
AcDbEntity
  8
ALPHA
100
AcDbLine
 10
81.86705
 20
106.136103
 30
0.0
 11
81.9483
 21
106.178656
 31
0.0
  0
LINE
  5
11C
100
AcDbEntity
  8
ALPHA
100
AcDbLine
 10
82.733716
 20
106.902061
 30
0.0
 11
82.814966
 21
106.944614
 31
0.0
  0
LINE
  5
11D
100
AcDbEntity
  8
ALPHA
100
AcDbLine
 10
80.187883
 20
107.072273
 30
0.0
 11
80.296216
 21
107.15738
 31
0.0
  0
LINE
  5
11E
100
AcDbEntity
  8
ALPHA
100
AcDbLine
 10
81.081633
 20
105.199933
 30
0.0
 11
80.431633
 21
105.199933
 31
0.0
  0
LINE
  5
11F
100
AcDbEntity
  8
ALPHA
100
AcDbLine
 10
81.839966
 20
105.199933
 30
0.0
 11
81.731633
 21
105.199933
 31
0.0
  0
LINE
  5
120
100
AcDbEntity
  8
ALPHA
100
AcDbLine
 10
83.49205
 20
105.199933
 30
0.0
 11
82.84205
 21
105.199933
 31
0.0
  0
LINE
  5
121
100
AcDbEntity
  8
ALPHA
100
AcDbLine
 10
84.79205
 20
105.199933
 30
0.0
 11
83.708716
 21
105.199933
 31
0.0
  0
LINE
  5
122
100
AcDbEntity
  8
ALPHA
100
AcDbLine
 10
88.49205
 20
105.199933
 30
0.0
 11
85.69205
 21
105.199933
 31
0.0
  0
LINE
  5
123
100
AcDbEntity
  8
ALPHA
100
AcDbLine
 10
85.19205
 20
104.999933
 30
0.0
 11
79.19205
 21
104.999933
 31
0.0
  0
LINE
  5
124
100
AcDbEntity
  8
ALPHA
100
AcDbLine
 10
81.839966
 20
105.199933
 30
0.0
 11
81.975383
 21
105.242486
 31
0.0
  0
LINE
  5
125
100
AcDbEntity
  8
ALPHA
100
AcDbLine
 10
81.839966
 20
105.923337
 30
0.0
 11
81.975383
 21
105.96589
 31
0.0
  0
LINE
  5
126
100
AcDbEntity
  8
ALPHA
100
AcDbLine
 10
81.596216
 20
106.944614
 30
0.0
 11
81.677466
 21
106.987167
 31
0.0
  0
LINE
  5
127
100
AcDbEntity
  8
ALPHA
100
AcDbLine
 10
87.79205
 20
100.022978
 30
0.0
 11
88.39205
 21
99.909296
 31
0.0
  0
LINE
  5
128
100
AcDbEntity
  8
ALPHA
100
AcDbLine
 10
82.706633
 20
107.15738
 30
0.0
 11
82.84205
 21
107.199933
 31
0.0
  0
LINE
  5
129
100
AcDbEntity
  8
ALPHA
100
AcDbLine
 10
81.569133
 20
107.15738
 30
0.0
 11
81.70455
 21
107.199933
 31
0.0
  0
LINE
  5
12A
100
AcDbEntity
  8
ALPHA
100
AcDbLine
 10
80.296216
 20
107.15738
 30
0.0
 11
80.431633
 21
107.199933
 31
0.0
  0
LINE
  5
12B
100
AcDbEntity
  8
ALPHA
100
AcDbLine
 10
80.3233
 20
106.902061
 30
0.0
 11
80.431633
 21
106.944614
 31
0.0
  0
LWPOLYLINE
  5
12C
100
AcDbEntity
  8
ALPHA
100
AcDbPolyline
 90
       11
 70
     0
 43
0.0
 10
67.332373
 20
97.938955
 10
67.316297
 20
97.914915
 10
67.290381
 20
97.882689
 10
67.260865
 20
97.852938
 10
67.225627
 20
97.824427
 10
67.19029
 20
97.801724
 10
67.151914
 20
97.782479
 10
67.111913
 20
97.767526
 10
67.072546
 20
97.757328
 10
67.03165
 20
97.75111
 10
66.99205
 20
97.749145
  0
LWPOLYLINE
  5
139
100
AcDbEntity
  8
ALPHA
100
AcDbPolyline
 90
        4
 70
     0
 43
0.0
 10
70.89272
 20
107.982347
 10
70.89272
 20
108.115223
 10
70.926787
 20
108.601347
 10
70.994836
 20
109.085684
  0
LWPOLYLINE
  5
13F
100
AcDbEntity
  8
ALPHA
100
AcDbPolyline
 90
       32
 70
     0
 43
0.0
 10
83.647674
 20
98.437721
 10
83.630978
 20
98.431854
 10
83.614318
 20
98.426218
 10
83.597691
 20
98.420809
 10
83.581094
 20
98.415624
 10
83.564525
 20
98.410657
 10
83.547981
 20
98.405904
 10
83.531459
 20
98.401362
 10
83.514962
 20
98.397028
 10
83.498493
 20
98.3929
 10
83.482054
 20
98.388976
 10
83.465649
 20
98.385254
 10
83.44928
 20
98.381733
 10
83.432945
 20
98.378409
 10
83.416641
 20
98.37528
 10
83.400367
 20
98.372343
 10
83.384118
 20
98.369594
 10
83.367894
 20
98.367032
 10
83.35169
 20
98.364655
 10
83.335504
 20
98.36246
 10
83.319331
 20
98.360446
 10
83.303168
 20
98.358611
 10
83.287012
 20
98.356954
 10
83.270864
 20
98.355475
 10
83.254725
 20
98.354171
 10
83.238595
 20
98.353043
 10
83.222477
 20
98.352091
 10
83.206369
 20
98.351312
 10
83.190273
 20
98.350708
 10
83.174188
 20
98.350277
 10
83.158114
 20
98.350019
 10
83.14205
 20
98.349933
  0
LWPOLYLINE
  5
161
100
AcDbEntity
  8
ALPHA
100
AcDbPolyline
 90
      200
 70
     0
 43
0.0
 10
83.14205
 20
101.349933
 10
83.162339
 20
101.349796
 10
83.182609
 20
101.349385
 10
83.202862
 20
101.348701
 10
83.223101
 20
101.347742
 10
83.243327
 20
101.34651
 10
83.26354
 20
101.345004
 10
83.283738
 20
101.343225
 10
83.303911
 20
101.341173
 10
83.324056
 20
101.338849
 10
83.344164
 20
101.336254
 10
83.364232
 20
101.333387
 10
83.384255
 20
101.33025
 10
83.404232
 20
101.326843
 10
83.424162
 20
101.323166
 10
83.444043
 20
101.319219
 10
83.463872
 20
101.315002
 10
83.483643
 20
101.310518
 10
83.50335
 20
101.305769
 10
83.522986
 20
101.300755
 10
83.542544
 20
101.295479
 10
83.56202
 20
101.289943
 10
83.581413
 20
101.284145
 10
83.600724
 20
101.278087
 10
83.619954
 20
101.271767
 10
83.639104
 20
101.265185
 10
83.658174
 20
101.258341
 10
83.677158
 20
101.251238
 10
83.69605
 20
101.243877
 10
83.714842
 20
101.236261
 10
83.733528
 20
101.228393
 10
83.752101
 20
101.220275
 10
83.770559
 20
101.211908
 10
83.788899
 20
101.203294
 10
83.80712
 20
101.194434
 10
83.825219
 20
101.185328
 10
83.843194
 20
101.175978
 10
83.861043
 20
101.166386
 10
83.878763
 20
101.156552
 10
83.896352
 20
101.146478
 10
83.913808
 20
101.136163
 10
83.931127
 20
101.125611
 10
83.948306
 20
101.114824
 10
83.965339
 20
101.103804
 10
83.982221
 20
101.092555
 10
83.998948
 20
101.081081
 10
84.015516
 20
101.069383
 10
84.031924
 20
101.057463
 10
84.048172
 20
101.045318
 10
84.06426
 20
101.03295
 10
84.080189
 20
101.020358
 10
84.095958
 20
101.007541
 10
84.111561
 20
100.994504
 10
84.126993
 20
100.981251
 10
84.142249
 20
100.967788
 10
84.157321
 20
100.954117
 10
84.172207
 20
100.940244
 10
84.186904
 20
100.926169
 10
84.201413
 20
100.91189
 10
84.215735
 20
100.897407
 10
84.229869
 20
100.88272
 10
84.243815
 20
100.867828
 10
84.25757
 20
100.852734
 10
84.271129
 20
100.837443
 10
84.284487
 20
100.821959
 10
84.29764
 20
100.806285
 10
84.310585
 20
100.790426
 10
84.323319
 20
100.774381
 10
84.335841
 20
100.758153
 10
84.34815
 20
100.741742
 10
84.360244
 20
100.725149
 10
84.372122
 20
100.708375
 10
84.383781
 20
100.691421
 10
84.39522
 20
100.67429
 10
84.406435
 20
100.656984
 10
84.417423
 20
100.639504
 10
84.428183
 20
100.621852
 10
84.438712
 20
100.604032
 10
84.449005
 20
100.586048
 10
84.45906
 20
100.567904
 10
84.468873
 20
100.549603
 10
84.478443
 20
100.531149
 10
84.487766
 20
100.512542
 10
84.496842
 20
100.493781
 10
84.50567
 20
100.474867
 10
84.514248
 20
100.455797
 10
84.522575
 20
100.436574
 10
84.530647
 20
100.417201
 10
84.538461
 20
100.397685
 10
84.546012
 20
100.37803
 10
84.553298
 20
100.358242
 10
84.560314
 20
100.338326
 10
84.567059
 20
100.318283
 10
84.573532
 20
100.29811
 10
84.57973
 20
100.277809
 10
84.585653
 20
100.257377
 10
84.591297
 20
100.236815
 10
84.596661
 20
100.21613
 10
84.601741
 20
100.195326
 10
84.606533
 20
100.174412
 10
84.611033
 20
100.153394
 10
84.615238
 20
100.132278
 10
84.619146
 20
100.111064
 10
84.622755
 20
100.089754
 10
84.626063
 20
100.068348
 10
84.629068
 20
100.046846
 10
84.631768
 20
100.025251
 10
84.634161
 20
100.003565
 10
84.636242
 20
99.981795
 10
84.63801
 20
99.959945
 10
84.639461
 20
99.93802
 10
84.640593
 20
99.916026
 10
84.641403
 20
99.893968
 10
84.641889
 20
99.871851
 10
84.64205
 20
99.849679
 10
84.641881
 20
99.827459
 10
84.641382
 20
99.805194
 10
84.640551
 20
99.782891
 10
84.639384
 20
99.760554
 10
84.637881
 20
99.738188
 10
84.63604
 20
99.715797
 10
84.633858
 20
99.693388
 10
84.631335
 20
99.670967
 10
84.628468
 20
99.648541
 10
84.625258
 20
99.626117
 10
84.621701
 20
99.603701
 10
84.617799
 20
99.5813
 10
84.613549
 20
99.558923
 10
84.608953
 20
99.536578
 10
84.604011
 20
99.514272
 10
84.598722
 20
99.492015
 10
84.593087
 20
99.469812
 10
84.587105
 20
99.447667
 10
84.580775
 20
99.425585
 10
84.574097
 20
99.403567
 10
84.567069
 20
99.381617
 10
84.559691
 20
99.359739
 10
84.551965
 20
99.337942
 10
84.543893
 20
99.316238
 10
84.535478
 20
99.294637
 10
84.526723
 20
99.273149
 10
84.51763
 20
99.251787
 10
84.508203
 20
99.230559
 10
84.498446
 20
99.209475
 10
84.488365
 20
99.188545
 10
84.477963
 20
99.167779
 10
84.467246
 20
99.147186
 10
84.456218
 20
99.126774
 10
84.444887
 20
99.106553
 10
84.433257
 20
99.08653
 10
84.421334
 20
99.066715
 10
84.409126
 20
99.047115
 10
84.396639
 20
99.027738
 10
84.38388
 20
99.008591
 10
84.370856
 20
98.989681
 10
84.357575
 20
98.971014
 10
84.344044
 20
98.952599
 10
84.330272
 20
98.934441
 10
84.316267
 20
98.916545
 10
84.302037
 20
98.898918
 10
84.28759
 20
98.881565
 10
84.272936
 20
98.864492
 10
84.258085
 20
98.847705
 10
84.243047
 20
98.831208
 10
84.227832
 20
98.815006
 10
84.212452
 20
98.799105
 10
84.196915
 20
98.783509
 10
84.181231
 20
98.768219
 10
84.165407
 20
98.753237
 10
84.149452
 20
98.738563
 10
84.133373
 20
98.724199
 10
84.11718
 20
98.710144
 10
84.100883
 20
98.696402
 10
84.084494
 20
98.682974
 10
84.068026
 20
98.669863
 10
84.051488
 20
98.65707
 10
84.034893
 20
98.644598
 10
84.018245
 20
98.632441
 10
84.001546
 20
98.620596
 10
83.984801
 20
98.609058
 10
83.968013
 20
98.597821
 10
83.951186
 20
98.586883
 10
83.934326
 20
98.576239
 10
83.91744
 20
98.565889
 10
83.900534
 20
98.555831
 10
83.883615
 20
98.546062
 10
83.86669
 20
98.53658
 10
83.849762
 20
98.527381
 10
83.832838
 20
98.518464
 10
83.815922
 20
98.509822
 10
83.799017
 20
98.501455
 10
83.782128
 20
98.493356
 10
83.765256
 20
98.485522
 10
83.748401
 20
98.477949
 10
83.731563
 20
98.47063
 10
83.714742
 20
98.463562
 10
83.697939
 20
98.45674
 10
83.681158
 20
98.450162
 10
83.664401
 20
98.443823
 10
83.647674
 20
98.437721
  0
LINE
  5
22B
100
AcDbEntity
  8
ALPHA
100
AcDbLine
 10
84.19205
 20
102.399933
 30
0.0
 11
79.59205
 21
102.399933
 31
0.0
  0
LINE
  5
22C
100
AcDbEntity
  8
ALPHA
100
AcDbLine
 10
88.49205
 20
102.199933
 30
0.0
 11
85.69205
 21
102.199933
 31
0.0
  0
LINE
  5
22D
100
AcDbEntity
  8
ALPHA
100
AcDbLine
 10
59.39205
 20
101.699933
 30
0.0
 11
60.040879
 21
101.699933
 31
0.0
  0
LWPOLYLINE
  5
22E
100
AcDbEntity
  8
ALPHA
100
AcDbPolyline
 90
       22
 70
     0
 43
0.0
 10
67.332373
 20
97.938955
 10
67.342113
 20
97.956459
 10
67.352228
 20
97.980501
 10
67.359033
 20
98.00528
 10
67.362437
 20
98.030455
 10
67.362436
 20
98.055745
 10
67.359029
 20
98.081155
 10
67.35222
 20
98.10638
 10
67.342106
 20
98.131061
 10
67.328856
 20
98.154885
 10
67.312566
 20
98.17774
 10
67.293346
 20
98.199463
 10
67.271374
 20
98.219826
 10
67.246953
 20
98.238554
 10
67.220236
 20
98.255533
 10
67.191519
 20
98.270572
 10
67.16101
 20
98.283556
 10
67.129037
 20
98.294339
 10
67.095839
 20
98.302838
 10
67.06175
 20
98.308961
 10
67.02704
 20
98.312659
 10
66.99205
 20
98.313895
  0
LWPOLYLINE
  5
246
100
AcDbEntity
  8
ALPHA
100
AcDbPolyline
 90
        3
 70
     0
 43
0.0
 10
70.546635
 20
107.982347
 10
70.580912
 20
108.474106
 10
70.649914
 20
108.967878
  0
LINE
  5
24B
100
AcDbEntity
  8
ALPHA
100
AcDbLine
 10
70.649914
 20
110.003341
 30
0.0
 11
70.649914
 21
108.967878
 31
0.0
  0
LINE
  5
24C
100
AcDbEntity
  8
ALPHA
100
AcDbLine
 10
69.894483
 20
108.62434
 30
0.0
 11
69.894483
 21
110.003341
 31
0.0
  0
LWPOLYLINE
  5
24D
100
AcDbEntity
  8
ALPHA
100
AcDbPolyline
 90
        6
 70
     0
 43
0.0
 10
69.79205
 20
108.914847
 10
69.792897
 20
108.800895
 10
69.799677
 20
108.565673
 10
69.813231
 20
108.320848
 10
69.833575
 20
108.066185
 10
69.842175
 20
107.982347
  0
LINE
  5
255
100
AcDbEntity
  8
ALPHA
100
AcDbLine
 10
85.69205
 20
100.749933
 30
0.0
 11
89.99205
 21
100.749933
 31
0.0
  0
LINE
  5
256
100
AcDbEntity
  8
ALPHA
100
AcDbLine
 10
85.69205
 20
100.249933
 30
0.0
 11
89.59205
 21
100.249933
 31
0.0
  0
LINE
  5
257
100
AcDbEntity
  8
ALPHA
100
AcDbLine
 10
87.79205
 20
100.022978
 30
0.0
 11
85.69205
 21
100.022978
 31
0.0
  0
LINE
  5
258
100
AcDbEntity
  8
ALPHA
100
AcDbLine
 10
89.59205
 20
99.899933
 30
0.0
 11
85.69205
 21
99.899933
 31
0.0
  0
LWPOLYLINE
  5
259
100
AcDbEntity
  8
ALPHA
100
AcDbPolyline
 90
        5
 70
     0
 43
0.0
 10
69.894483
 20
108.62434
 10
69.867725
 20
108.504701
 10
69.844852
 20
108.375186
 10
69.825972
 20
108.236041
 10
69.822661
 20
108.202799
  0
LWPOLYLINE
  5
260
100
AcDbEntity
  8
ALPHA
100
AcDbPolyline
 90
        7
 70
     0
 43
0.0
 10
69.894483
 20
110.003341
 10
69.860683
 20
109.828897
 10
69.833576
 20
109.643549
 10
69.813232
 20
109.447793
 10
69.799677
 20
109.242074
 10
69.792897
 20
109.02637
 10
69.79205
 20
108.914847
  0
LINE
  5
269
100
AcDbEntity
  8
ALPHA
100
AcDbLine
 10
69.29205
 20
107.982347
 30
0.0
 11
69.29205
 21
110.45722
 31
0.0
  0
LWPOLYLINE
  5
26A
100
AcDbEntity
  8
ALPHA
100
AcDbPolyline
 90
       32
 70
     0
 43
0.0
 10
82.531993
 20
101.220273
 10
82.550566
 20
101.228391
 10
82.569252
 20
101.236259
 10
82.588044
 20
101.243875
 10
82.606936
 20
101.251236
 10
82.625921
 20
101.258339
 10
82.644991
 20
101.265183
 10
82.664142
 20
101.271765
 10
82.683372
 20
101.278085
 10
82.702683
 20
101.284144
 10
82.722076
 20
101.289942
 10
82.741553
 20
101.295479
 10
82.761112
 20
101.300755
 10
82.780748
 20
101.305768
 10
82.800456
 20
101.310518
 10
82.820227
 20
101.315002
 10
82.840056
 20
101.319219
 10
82.859937
 20
101.323166
 10
82.879867
 20
101.326843
 10
82.899844
 20
101.33025
 10
82.919868
 20
101.333387
 10
82.939935
 20
101.336254
 10
82.960044
 20
101.338849
 10
82.980189
 20
101.341173
 10
83.000364
 20
101.343225
 10
83.020561
 20
101.345004
 10
83.040776
 20
101.34651
 10
83.061001
 20
101.347742
 10
83.08124
 20
101.348701
 10
83.101492
 20
101.349385
 10
83.121762
 20
101.349796
 10
83.14205
 20
101.349933
  0
LWPOLYLINE
  5
28C
100
AcDbEntity
  8
ALPHA
100
AcDbPolyline
 90
      200
 70
     0
 43
0.0
 10
83.14205
 20
98.349933
 10
83.125987
 20
98.350019
 10
83.109914
 20
98.350277
 10
83.09383
 20
98.350708
 10
83.077734
 20
98.351312
 10
83.061627
 20
98.35209
 10
83.045508
 20
98.353043
 10
83.029379
 20
98.354171
 10
83.013239
 20
98.355474
 10
82.99709
 20
98.356954
 10
82.980934
 20
98.358611
 10
82.96477
 20
98.360445
 10
82.948597
 20
98.362459
 10
82.93241
 20
98.364654
 10
82.916206
 20
98.367032
 10
82.899982
 20
98.369594
 10
82.883734
 20
98.372342
 10
82.86746
 20
98.37528
 10
82.851157
 20
98.378409
 10
82.834823
 20
98.381732
 10
82.818454
 20
98.385253
 10
82.802049
 20
98.388975
 10
82.785611
 20
98.392899
 10
82.769141
 20
98.397027
 10
82.752644
 20
98.401361
 10
82.736122
 20
98.405903
 10
82.719577
 20
98.410656
 10
82.703007
 20
98.415623
 10
82.68641
 20
98.420809
 10
82.669783
 20
98.426217
 10
82.653122
 20
98.431853
 10
82.636427
 20
98.437721
 10
82.619699
 20
98.443822
 10
82.602942
 20
98.450161
 10
82.58616
 20
98.45674
 10
82.569358
 20
98.463562
 10
82.552538
 20
98.47063
 10
82.5357
 20
98.477948
 10
82.518846
 20
98.485521
 10
82.501974
 20
98.493355
 10
82.485086
 20
98.501453
 10
82.468182
 20
98.50982
 10
82.451266
 20
98.518461
 10
82.434342
 20
98.527379
 10
82.417415
 20
98.536576
 10
82.400491
 20
98.546058
 10
82.383572
 20
98.555827
 10
82.366667
 20
98.565885
 10
82.349782
 20
98.576234
 10
82.332923
 20
98.586876
 10
82.316097
 20
98.597814
 10
82.29931
 20
98.609049
 10
82.282567
 20
98.620586
 10
82.26587
 20
98.63243
 10
82.249222
 20
98.644586
 10
82.232628
 20
98.657057
 10
82.216091
 20
98.669849
 10
82.199622
 20
98.68296
 10
82.183234
 20
98.696388
 10
82.166936
 20
98.71013
 10
82.150743
 20
98.724184
 10
82.134664
 20
98.738549
 10
82.118708
 20
98.753222
 10
82.102884
 20
98.768204
 10
82.087199
 20
98.783494
 10
82.071662
 20
98.79909
 10
82.056281
 20
98.814991
 10
82.041066
 20
98.831193
 10
82.026027
 20
98.84769
 10
82.011176
 20
98.864477
 10
81.996521
 20
98.88155
 10
81.982075
 20
98.898903
 10
81.967845
 20
98.91653
 10
81.953839
 20
98.934425
 10
81.940067
 20
98.952583
 10
81.926536
 20
98.970998
 10
81.913255
 20
98.989664
 10
81.900231
 20
99.008575
 10
81.887471
 20
99.027722
 10
81.874983
 20
99.047099
 10
81.862775
 20
99.066699
 10
81.850853
 20
99.086514
 10
81.839223
 20
99.106535
 10
81.827891
 20
99.126756
 10
81.816863
 20
99.147167
 10
81.806146
 20
99.16776
 10
81.795744
 20
99.188526
 10
81.785662
 20
99.209455
 10
81.775905
 20
99.230539
 10
81.766478
 20
99.251767
 10
81.757384
 20
99.27313
 10
81.748628
 20
99.294617
 10
81.740213
 20
99.316219
 10
81.732141
 20
99.337924
 10
81.724414
 20
99.359721
 10
81.717036
 20
99.3816
 10
81.710007
 20
99.403551
 10
81.703328
 20
99.42557
 10
81.696998
 20
99.447654
 10
81.691015
 20
99.4698
 10
81.68538
 20
99.492004
 10
81.680091
 20
99.514263
 10
81.675148
 20
99.536569
 10
81.670552
 20
99.558915
 10
81.666302
 20
99.581293
 10
81.662399
 20
99.603693
 10
81.658843
 20
99.62611
 10
81.655632
 20
99.648535
 10
81.652765
 20
99.670961
 10
81.650241
 20
99.693383
 10
81.64806
 20
99.715792
 10
81.646218
 20
99.738182
 10
81.644715
 20
99.760548
 10
81.643549
 20
99.782885
 10
81.642717
 20
99.805188
 10
81.642218
 20
99.827452
 10
81.64205
 20
99.849672
 10
81.64221
 20
99.871844
 10
81.642696
 20
99.893961
 10
81.643506
 20
99.916019
 10
81.644638
 20
99.938013
 10
81.646089
 20
99.959937
 10
81.647857
 20
99.981787
 10
81.649938
 20
100.003558
 10
81.65233
 20
100.025244
 10
81.65503
 20
100.04684
 10
81.658035
 20
100.068341
 10
81.661343
 20
100.089747
 10
81.664952
 20
100.111057
 10
81.66886
 20
100.132271
 10
81.673065
 20
100.153388
 10
81.677565
 20
100.174406
 10
81.682357
 20
100.19532
 10
81.687436
 20
100.216123
 10
81.6928
 20
100.236808
 10
81.698445
 20
100.25737
 10
81.704367
 20
100.277802
 10
81.710565
 20
100.298104
 10
81.717038
 20
100.318276
 10
81.723783
 20
100.33832
 10
81.730799
 20
100.358236
 10
81.738084
 20
100.378023
 10
81.745636
 20
100.397678
 10
81.75345
 20
100.417195
 10
81.761522
 20
100.436568
 10
81.769848
 20
100.455791
 10
81.778426
 20
100.47486
 10
81.787254
 20
100.493775
 10
81.79633
 20
100.512536
 10
81.805654
 20
100.531143
 10
81.815223
 20
100.549597
 10
81.825036
 20
100.567898
 10
81.835091
 20
100.586042
 10
81.845384
 20
100.604026
 10
81.855912
 20
100.621846
 10
81.866672
 20
100.639498
 10
81.877661
 20
100.656978
 10
81.888876
 20
100.674285
 10
81.900314
 20
100.691416
 10
81.911974
 20
100.708369
 10
81.923852
 20
100.725144
 10
81.935946
 20
100.741737
 10
81.948254
 20
100.758148
 10
81.960776
 20
100.774376
 10
81.97351
 20
100.790421
 10
81.986455
 20
100.80628
 10
81.999608
 20
100.821954
 10
82.012966
 20
100.837439
 10
82.026525
 20
100.85273
 10
82.04028
 20
100.867823
 10
82.054226
 20
100.882715
 10
82.06836
 20
100.897403
 10
82.082682
 20
100.911886
 10
82.097191
 20
100.926165
 10
82.111888
 20
100.94024
 10
82.126773
 20
100.954113
 10
82.141846
 20
100.967784
 10
82.157101
 20
100.981247
 10
82.172534
 20
100.9945
 10
82.188137
 20
101.007537
 10
82.203905
 20
101.020354
 10
82.219834
 20
101.032947
 10
82.235923
 20
101.045315
 10
82.252171
 20
101.057459
 10
82.268579
 20
101.06938
 10
82.285147
 20
101.081078
 10
82.301874
 20
101.092552
 10
82.318756
 20
101.103801
 10
82.335788
 20
101.11482
 10
82.352967
 20
101.125608
 10
82.370286
 20
101.13616
 10
82.387742
 20
101.146475
 10
82.405331
 20
101.156549
 10
82.423051
 20
101.166383
 10
82.4409
 20
101.175976
 10
82.458876
 20
101.185326
 10
82.476974
 20
101.194431
 10
82.495195
 20
101.203292
 10
82.513535
 20
101.211906
 10
82.531993
 20
101.220273
  0
LWPOLYLINE
  5
356
100
AcDbEntity
  8
ALPHA
100
AcDbPolyline
 90
       22
 70
     0
 43
0.0
 10
66.99205
 20
98.313895
 10
66.957062
 20
98.312659
 10
66.922353
 20
98.308962
 10
66.888263
 20
98.302838
 10
66.855067
 20
98.29434
 10
66.823092
 20
98.283557
 10
66.792585
 20
98.270574
 10
66.763866
 20
98.255535
 10
66.73715
 20
98.238557
 10
66.712724
 20
98.219825
 10
66.690748
 20
98.199457
 10
66.671525
 20
98.177729
 10
66.655238
 20
98.154877
 10
66.641986
 20
98.131046
 10
66.631871
 20
98.106356
 10
66.625066
 20
98.081132
 10
66.621663
 20
98.055731
 10
66.621664
 20
98.030441
 10
66.62507
 20
98.005257
 10
66.631879
 20
97.980478
 10
66.641993
 20
97.956444
 10
66.651719
 20
97.938966
  0
LINE
  5
36E
100
AcDbEntity
  8
ALPHA
100
AcDbLine
 10
70.994836
 20
109.085684
 30
0.0
 11
70.649914
 21
108.967878
 31
0.0
  0
LINE
  5
36F
100
AcDbEntity
  8
ALPHA
100
AcDbLine
 10
67.89205
 20
95.699934
 30
0.0
 11
67.89205
 21
111.699932
 31
0.0
  0
LWPOLYLINE
  5
370
100
AcDbEntity
  8
ALPHA
100
AcDbPolyline
 90
       12
 70
     0
 43
0.0
 10
66.99205
 20
97.749145
 10
66.953291
 20
97.751027
 10
66.914954
 20
97.756645
 10
66.879103
 20
97.765422
 10
66.844382
 20
97.7774
 10
66.809603
 20
97.793177
 10
66.780443
 20
97.8097
 10
66.751423
 20
97.829616
 10
66.722598
 20
97.853517
 10
66.697066
 20
97.878988
 10
66.673623
 20
97.907061
 10
66.651719
 20
97.938966
  0
LINE
  5
37E
100
AcDbEntity
  8
ALPHA
100
AcDbLine
 10
84.59205
 20
97.049933
 30
0.0
 11
83.59205
 21
97.049933
 31
0.0
  0
LINE
  5
37F
100
AcDbEntity
  8
ALPHA
100
AcDbLine
 10
66.19205
 20
94.999933
 30
0.0
 11
66.19205
 21
112.399933
 31
0.0
  0
LINE
  5
380
100
AcDbEntity
  8
ALPHA
100
AcDbLine
 10
65.59205
 20
91.849933
 30
0.0
 11
65.59205
 21
115.549933
 31
0.0
  0
LINE
  5
381
100
AcDbEntity
  8
ALPHA
100
AcDbLine
 10
78.71705
 20
96.374933
 30
0.0
 11
67.89205
 21
96.374933
 31
0.0
  0
LINE
  5
382
100
AcDbEntity
  8
ALPHA
100
AcDbLine
 10
78.71705
 20
96.324933
 30
0.0
 11
67.89205
 21
96.324933
 31
0.0
  0
LINE
  5
383
100
AcDbEntity
  8
ALPHA
100
AcDbLine
 10
83.59205
 20
96.324933
 30
0.0
 11
78.71705
 21
96.324933
 31
0.0
  0
LINE
  5
384
100
AcDbEntity
  8
ALPHA
100
AcDbLine
 10
85.69205
 20
96.324933
 30
0.0
 11
84.59205
 21
96.324933
 31
0.0
  0
LINE
  5
385
100
AcDbEntity
  8
ALPHA
100
AcDbLine
 10
67.89205
 20
95.699933
 30
0.0
 11
66.19205
 21
95.699933
 31
0.0
  0
LWPOLYLINE
  5
386
100
AcDbEntity
  8
ALPHA
100
AcDbPolyline
 90
        4
 70
     0
 43
0.0
 10
87.090736
 20
96.483884
 10
86.62645
 20
96.462091
 10
86.160172
 20
96.441864
 10
85.69205
 20
96.423215
  0
LWPOLYLINE
  5
38C
100
AcDbEntity
  8
ALPHA
100
AcDbPolyline
 90
       11
 70
     0
 43
0.0
 10
66.651726
 20
109.460911
 10
66.667802
 20
109.484951
 10
66.693719
 20
109.517177
 10
66.723235
 20
109.546928
 10
66.758472
 20
109.575439
 10
66.79381
 20
109.598142
 10
66.832185
 20
109.617387
 10
66.872186
 20
109.63234
 10
66.911554
 20
109.642538
 10
66.95245
 20
109.648756
 10
66.99205
 20
109.650721
  0
LWPOLYLINE
  5
399
100
AcDbEntity
  8
ALPHA
100
AcDbPolyline
 90
       22
 70
     0
 43
0.0
 10
66.651726
 20
109.460911
 10
66.641986
 20
109.443407
 10
66.631871
 20
109.419365
 10
66.625066
 20
109.394586
 10
66.621663
 20
109.369411
 10
66.621664
 20
109.344121
 10
66.62507
 20
109.318711
 10
66.631879
 20
109.293486
 10
66.641993
 20
109.268805
 10
66.655244
 20
109.244981
 10
66.671534
 20
109.222126
 10
66.690753
 20
109.200403
 10
66.712725
 20
109.18004
 10
66.737146
 20
109.161312
 10
66.763863
 20
109.144333
 10
66.79258
 20
109.129294
 10
66.823089
 20
109.11631
 10
66.855062
 20
109.105527
 10
66.88826
 20
109.097028
 10
66.922349
 20
109.090905
 10
66.957059
 20
109.087207
 10
66.99205
 20
109.085971
  0
LWPOLYLINE
  5
3B1
100
AcDbEntity
  8
ALPHA
100
AcDbPolyline
 90
        4
 70
     0
 43
0.0
 10
57.919992
 20
113.636076
 10
58.079308
 20
113.231004
 10
58.169573
 20
112.997409
 10
58.266499
 20
112.743082
  0
LINE
  5
3B7
100
AcDbEntity
  8
ALPHA
100
AcDbLine
 10
57.790577
 20
113.958747
 30
0.0
 11
57.919992
 21
113.636076
 31
0.0
  0
LINE
  5
3B8
100
AcDbEntity
  8
ALPHA
100
AcDbLine
 10
57.692408
 20
114.199924
 30
0.0
 11
57.790577
 21
113.958747
 31
0.0
  0
LINE
  5
3B9
100
AcDbEntity
  8
ALPHA
100
AcDbLine
 10
57.589357
 20
114.449933
 30
0.0
 11
57.692408
 21
114.199924
 31
0.0
  0
LINE
  5
3BA
100
AcDbEntity
  8
ALPHA
100
AcDbLine
 10
65.59205
 20
94.999933
 30
0.0
 11
66.19205
 21
94.999933
 31
0.0
  0
LINE
  5
3BB
100
AcDbEntity
  8
ALPHA
100
AcDbLine
 10
58.932357
 20
94.856784
 30
0.0
 11
58.545602
 21
94.856784
 31
0.0
  0
LWPOLYLINE
  5
3BC
100
AcDbEntity
  8
ALPHA
100
AcDbPolyline
 90
       17
 70
     0
 43
0.0
 10
58.545602
 20
94.856784
 10
58.532168
 20
94.85636
 10
58.517226
 20
94.854932
 10
58.501121
 20
94.852326
 10
58.484136
 20
94.848425
 10
58.466412
 20
94.843122
 10
58.448238
 20
94.836384
 10
58.429608
 20
94.828088
 10
58.410568
 20
94.8181
 10
58.391273
 20
94.806315
 10
58.371978
 20
94.792689
 10
58.352696
 20
94.776972
 10
58.333513
 20
94.758846
 10
58.314736
 20
94.738045
 10
58.296828
 20
94.714307
 10
58.280411
 20
94.687289
 10
58.266499
 20
94.656784
  0
LINE
  5
3CF
100
AcDbEntity
  8
ALPHA
100
AcDbLine
 10
87.090736
 20
96.483884
 30
0.0
 11
89.59205
 21
96.924933
 31
0.0
  0
LINE
  5
3D0
100
AcDbEntity
  8
ALPHA
100
AcDbLine
 10
57.605901
 20
92.989856
 30
0.0
 11
57.589357
 21
92.949933
 31
0.0
  0
LINE
  5
3D1
100
AcDbEntity
  8
ALPHA
100
AcDbLine
 10
57.737499
 20
93.310347
 30
0.0
 11
57.605901
 21
92.989856
 31
0.0
  0
LINE
  5
3D2
100
AcDbEntity
  8
ALPHA
100
AcDbLine
 10
57.851462
 20
93.592239
 30
0.0
 11
57.737499
 21
93.310347
 31
0.0
  0
LINE
  5
3D3
100
AcDbEntity
  8
ALPHA
100
AcDbLine
 10
57.996014
 20
93.955965
 30
0.0
 11
57.851462
 21
93.592239
 31
0.0
  0
LINE
  5
3D4
100
AcDbEntity
  8
ALPHA
100
AcDbLine
 10
58.169572
 20
94.402455
 30
0.0
 11
57.996014
 21
93.955965
 31
0.0
  0
LINE
  5
3D5
100
AcDbEntity
  8
ALPHA
100
AcDbLine
 10
58.266499
 20
94.656784
 30
0.0
 11
58.169572
 21
94.402455
 31
0.0
  0
LINE
  5
3D6
100
AcDbEntity
  8
ALPHA
100
AcDbLine
 10
57.634848
 20
93.059933
 30
0.0
 11
54.30102
 21
93.059933
 31
0.0
  0
LINE
  5
3D7
100
AcDbEntity
  8
ALPHA
100
AcDbLine
 10
57.789357
 20
91.849933
 30
0.0
 11
65.59205
 21
91.849933
 31
0.0
  0
LINE
  5
3D8
100
AcDbEntity
  8
ALPHA
100
AcDbLine
 10
59.39205
 20
105.699933
 30
0.0
 11
59.39205
 21
101.699933
 31
0.0
  0
LINE
  5
3D9
100
AcDbEntity
  8
ALPHA
100
AcDbLine
 10
57.589357
 20
92.949933
 30
0.0
 11
57.589357
 21
92.049933
 31
0.0
  0
LINE
  5
3DA
100
AcDbEntity
  8
ALPHA
100
AcDbLine
 10
57.589357
 20
115.349933
 30
0.0
 11
57.589357
 21
114.449933
 31
0.0
  0
LWPOLYLINE
  5
3DB
100
AcDbEntity
  8
ALPHA
100
AcDbPolyline
 90
       16
 70
     0
 43
0.0
 10
54.094143
 20
109.1856
 10
54.096939
 20
109.165638
 10
54.115256
 20
109.030462
 10
54.145187
 20
108.800172
 10
54.180135
 20
108.51876
 10
54.216008
 20
108.212312
 10
54.250415
 20
107.897333
 10
54.282088
 20
107.584751
 10
54.310482
 20
107.281485
 10
54.335494
 20
106.991692
 10
54.357253
 20
106.717597
 10
54.376002
 20
106.460172
 10
54.392029
 20
106.219594
 10
54.405635
 20
105.995587
 10
54.417112
 20
105.787585
 10
54.426742
 20
105.594874
  0
LINE
  5
3ED
100
AcDbEntity
  8
ALPHA
100
AcDbLine
 10
54.095359
 20
98.222958
 30
0.0
 11
54.094068
 21
98.21375
 31
0.0
  0
LINE
  5
3EE
100
AcDbEntity
  8
ALPHA
100
AcDbLine
 10
54.104576
 20
98.289905
 30
0.0
 11
54.094143
 21
98.214255
 31
0.0
  0
LINE
  5
3EF
100
AcDbEntity
  8
ALPHA
100
AcDbLine
 10
54.129469
 20
98.477502
 30
0.0
 11
54.100952
 21
98.26338
 31
0.0
  0
LWPOLYLINE
  5
3F0
100
AcDbEntity
  8
ALPHA
100
AcDbPolyline
 90
        7
 70
     0
 43
0.0
 10
54.093852
 20
98.212183
 10
54.093753
 20
98.211444
 10
54.093508
 20
98.2095
 10
54.092955
 20
98.204402
 10
54.092354
 20
98.196423
 10
54.092063
 20
98.187679
 10
54.09205
 20
98.185393
  0
LINE
  5
3F9
100
AcDbEntity
  8
ALPHA
100
AcDbLine
 10
54.162181
 20
98.734727
 30
0.0
 11
54.121896
 21
98.41967
 31
0.0
  0
LINE
  5
3FA
100
AcDbEntity
  8
ALPHA
100
AcDbLine
 10
54.197518
 20
99.027094
 30
0.0
 11
54.156992
 21
98.693216
 31
0.0
  0
LINE
  5
3FB
100
AcDbEntity
  8
ALPHA
100
AcDbLine
 10
54.232475
 20
99.335445
 30
0.0
 11
54.194144
 21
98.998457
 31
0.0
  0
LINE
  5
3FC
100
AcDbEntity
  8
ALPHA
100
AcDbLine
 10
54.265302
 20
99.646433
 30
0.0
 11
54.231345
 21
99.325186
 31
0.0
  0
LINE
  5
3FD
100
AcDbEntity
  8
ALPHA
100
AcDbLine
 10
54.295151
 20
99.951613
 30
0.0
 11
54.26196
 21
99.613746
 31
0.0
  0
LINE
  5
3FE
100
AcDbEntity
  8
ALPHA
100
AcDbLine
 10
54.321719
 20
100.245636
 30
0.0
 11
54.291538
 21
99.913434
 31
0.0
  0
LINE
  5
3FF
100
AcDbEntity
  8
ALPHA
100
AcDbLine
 10
54.345027
 20
100.525408
 30
0.0
 11
54.319671
 21
100.222163
 31
0.0
  0
LINE
  5
400
100
AcDbEntity
  8
ALPHA
100
AcDbLine
 10
54.365253
 20
100.789368
 30
0.0
 11
54.342694
 21
100.496401
 31
0.0
  0
LINE
  5
401
100
AcDbEntity
  8
ALPHA
100
AcDbLine
 10
54.382654
 20
101.036918
 30
0.0
 11
54.360065
 21
100.719544
 31
0.0
  0
LINE
  5
402
100
AcDbEntity
  8
ALPHA
100
AcDbLine
 10
54.397514
 20
101.268073
 30
0.0
 11
54.377328
 21
100.958881
 31
0.0
  0
LINE
  5
403
100
AcDbEntity
  8
ALPHA
100
AcDbLine
 10
54.410125
 20
101.483244
 30
0.0
 11
54.394377
 21
101.217555
 31
0.0
  0
LINE
  5
404
100
AcDbEntity
  8
ALPHA
100
AcDbLine
 10
54.42076
 20
101.683056
 30
0.0
 11
54.405598
 21
101.403721
 31
0.0
  0
LINE
  5
405
100
AcDbEntity
  8
ALPHA
100
AcDbLine
 10
54.429694
 20
101.868228
 30
0.0
 11
54.41659
 21
101.602452
 31
0.0
  0
LINE
  5
406
100
AcDbEntity
  8
ALPHA
100
AcDbLine
 10
54.437186
 20
102.039597
 30
0.0
 11
54.424564
 21
101.759799
 31
0.0
  0
LINE
  5
407
100
AcDbEntity
  8
ALPHA
100
AcDbLine
 10
54.444028
 20
102.213339
 30
0.0
 11
54.43468
 21
101.980492
 31
0.0
  0
LINE
  5
408
100
AcDbEntity
  8
ALPHA
100
AcDbLine
 10
54.453087
 20
102.479771
 30
0.0
 11
54.443461
 21
102.198055
 31
0.0
  0
LINE
  5
409
100
AcDbEntity
  8
ALPHA
100
AcDbLine
 10
54.459759
 20
102.720101
 30
0.0
 11
54.452427
 21
102.458624
 31
0.0
  0
LINE
  5
40A
100
AcDbEntity
  8
ALPHA
100
AcDbLine
 10
54.464329
 20
102.925048
 30
0.0
 11
54.459687
 21
102.717418
 31
0.0
  0
LINE
  5
40B
100
AcDbEntity
  8
ALPHA
100
AcDbLine
 10
54.467901
 20
103.133211
 30
0.0
 11
54.464244
 21
102.921027
 31
0.0
  0
LINE
  5
40C
100
AcDbEntity
  8
ALPHA
100
AcDbLine
 10
54.470087
 20
103.309422
 30
0.0
 11
54.467396
 21
103.099237
 31
0.0
  0
LINE
  5
40D
100
AcDbEntity
  8
ALPHA
100
AcDbLine
 10
54.471595
 20
103.507396
 30
0.0
 11
54.469768
 21
103.279617
 31
0.0
  0
LINE
  5
40E
100
AcDbEntity
  8
ALPHA
100
AcDbLine
 10
54.47208
 20
103.68001
 30
0.0
 11
54.471587
 21
103.506964
 31
0.0
  0
LINE
  5
40F
100
AcDbEntity
  8
ALPHA
100
AcDbLine
 10
54.47175
 20
103.85884
 30
0.0
 11
54.472062
 21
103.663845
 31
0.0
  0
LINE
  5
410
100
AcDbEntity
  8
ALPHA
100
AcDbLine
 10
54.09205
 20
109.204126
 30
0.0
 11
54.09205
 21
114.118007
 31
0.0
  0
LINE
  5
411
100
AcDbEntity
  8
ALPHA
100
AcDbLine
 10
54.09205
 20
93.281859
 30
0.0
 11
54.09205
 21
98.195897
 31
0.0
  0
LINE
  5
412
100
AcDbEntity
  8
ALPHA
100
AcDbLine
 10
54.470552
 20
104.041663
 30
0.0
 11
54.47175
 21
103.85884
 31
0.0
  0
LINE
  5
413
100
AcDbEntity
  8
ALPHA
100
AcDbLine
 10
54.468295
 20
104.23941
 30
0.0
 11
54.470552
 21
104.041663
 31
0.0
  0
LINE
  5
414
100
AcDbEntity
  8
ALPHA
100
AcDbLine
 10
54.463852
 20
104.498559
 30
0.0
 11
54.468295
 21
104.23941
 31
0.0
  0
LINE
  5
415
100
AcDbEntity
  8
ALPHA
100
AcDbLine
 10
54.458984
 20
104.710514
 30
0.0
 11
54.463852
 21
104.498559
 31
0.0
  0
LINE
  5
416
100
AcDbEntity
  8
ALPHA
100
AcDbLine
 10
54.451857
 20
104.959514
 30
0.0
 11
54.458984
 21
104.710514
 31
0.0
  0
LWPOLYLINE
  5
417
100
AcDbEntity
  8
ALPHA
100
AcDbPolyline
 90
        3
 70
     0
 43
0.0
 10
54.09205
 20
109.21446
 10
54.092398
 20
109.202657
 10
54.094037
 20
109.186337
  0
LINE
  5
41C
100
AcDbEntity
  8
ALPHA
100
AcDbLine
 10
54.441543
 20
105.251937
 30
0.0
 11
54.451857
 21
104.959514
 31
0.0
  0
LINE
  5
41D
100
AcDbEntity
  8
ALPHA
100
AcDbLine
 10
54.426742
 20
105.594874
 30
0.0
 11
54.441543
 21
105.251937
 31
0.0
  0
LWPOLYLINE
  5
41E
100
AcDbEntity
  8
ALPHA
100
AcDbPolyline
 90
        7
 70
     0
 43
0.0
 10
54.092059
 20
93.259942
 10
54.093299
 20
93.237703
 10
54.111442
 20
93.17405
 10
54.149367
 20
93.119802
 10
54.202923
 20
93.080904
 10
54.266244
 20
93.061615
 10
54.292059
 20
93.059942
  0
INSERT
  5
46C
100
AcDbEntity
  8
0
100
AcDbBlockReference
  2
SCH_ISO
 10
0.0
 20
0.0
 30
0.0
  0
DIMENSION
  5
479
100
AcDbEntity
  8
COTATION1
100
AcDbDimension
  2
*D6
 10
39.758986
 20
111.699933
 30
0.0
 11
37.258986
 21
103.699933
 31
0.0
  3
SC_STAND
100
AcDbAlignedDimension
 13
67.89205
 23
95.699933
 33
0.0
 14
67.89205
 24
111.699933
 34
0.0
 50
90.0
100
AcDbRotatedDimension
  0
DIMENSION
  5
488
100
AcDbEntity
  8
COTATION1
100
AcDbDimension
  2
*D5
 10
67.89205
 20
77.26736
 30
0.0
 11
78.523002
 21
79.76736
 31
0.0
  3
SC_STAND
100
AcDbAlignedDimension
 13
54.09205
 23
93.281859
 33
0.0
 14
67.89205
 24
95.699933
 34
0.0
100
AcDbRotatedDimension
  0
ENDSEC
  0
SECTION
  2
OBJECTS
  0
DICTIONARY
  5
4B7
100
AcDbDictionary
  3
ACAD_GROUP
350
4B8
  3
ACAD_MLINESTYLE
350
4C5
  3
ACDBVARIABLEDICTIONARY
350
505
  0
DICTIONARY
  5
4B8
102
{ACAD_REACTORS
330
4B7
102
}
100
AcDbDictionary
  0
DICTIONARY
  5
4C5
102
{ACAD_REACTORS
330
4B7
102
}
100
AcDbDictionary
  3
STANDARD
350
4C6
  0
DICTIONARY
  5
505
102
{ACAD_REACTORS
330
4B7
102
}
100
AcDbDictionary
  3
DIMADEC
350
506
  0
MLINESTYLE
  5
4C6
102
{ACAD_REACTORS
330
4C5
102
}
100
AcDbMlineStyle
  2
STANDARD
 70
     0
  3

 62
   256
 51
90.0
 52
90.0
 71
     2
 49
0.5
 62
   256
  6
BYLAYER
 49
-0.5
 62
   256
  6
BYLAYER
  0
DICTIONARYVAR
  5
506
102
{ACAD_REACTORS
330
505
102
}
100
DictionaryVariables
280
     0
  1
0
  0
ENDSEC
  0
EOF
