  0
SECTION
  2
HEADER
  9
$ACADVER
  1
AC1014
  9
$ACADMAINTVER
 70
     0
  9
$DWGCODEPAGE
  3
ANSI_1252
  9
$INSBASE
 10
0.0
 20
0.0
 30
0.0
  9
$EXTMIN
 10
23.457674
 20
66.956481
 30
0.0
  9
$EXTMAX
 10
98.131867
 20
105.361218
 30
0.0
  9
$LIMMIN
 10
0.0
 20
0.0
  9
$LIMMAX
 10
210.0
 20
297.0
  9
$ORTHOMODE
 70
     0
  9
$REGENMODE
 70
     1
  9
$FILLMODE
 70
     1
  9
$QTEXTMODE
 70
     0
  9
$MIRRTEXT
 70
     1
  9
$DRAGMODE
 70
     2
  9
$LTSCALE
 40
19.36
  9
$OSMODE
 70
     0
  9
$ATTMODE
 70
     1
  9
$TEXTSIZE
 40
0.2
  9
$TRACEWID
 40
0.05
  9
$TEXTSTYLE
  7
ROMANS
  9
$CLAYER
  8
COTATION1
  9
$CELTYPE
  6
BYLAYER
  9
$CECOLOR
 62
   256
  9
$CELTSCALE
 40
1.0
  9
$DELOBJ
 70
     1
  9
$DISPSILH
 70
     0
  9
$DIMSCALE
 40
1.0
  9
$DIMASZ
 40
3.0
  9
$DIMEXO
 40
0.0625
  9
$DIMDLI
 40
0.38
  9
$DIMRND
 40
0.01
  9
$DIMDLE
 40
0.0
  9
$DIMEXE
 40
0.18
  9
$DIMTP
 40
0.0
  9
$DIMTM
 40
0.0
  9
$DIMTXT
 40
2.5
  9
$DIMCEN
 40
0.09
  9
$DIMTSZ
 40
0.0
  9
$DIMTOL
 70
     0
  9
$DIMLIM
 70
     0
  9
$DIMTIH
 70
     0
  9
$DIMTOH
 70
     0
  9
$DIMSE1
 70
     0
  9
$DIMSE2
 70
     0
  9
$DIMTAD
 70
     1
  9
$DIMZIN
 70
    12
  9
$DIMBLK
  1

  9
$DIMASO
 70
     1
  9
$DIMSHO
 70
     1
  9
$DIMPOST
  1

  9
$DIMAPOST
  1

  9
$DIMALT
 70
     0
  9
$DIMALTD
 70
     2
  9
$DIMALTF
 40
25.4
  9
$DIMLFAC
 40
1.0
  9
$DIMTOFL
 70
     1
  9
$DIMTVP
 40
0.0
  9
$DIMTIX
 70
     0
  9
$DIMSOXD
 70
     0
  9
$DIMSAH
 70
     0
  9
$DIMBLK1
  1

  9
$DIMBLK2
  1

  9
$DIMSTYLE
  2
SC_STAND
  9
$DIMCLRD
 70
     0
  9
$DIMCLRE
 70
     0
  9
$DIMCLRT
 70
     0
  9
$DIMTFAC
 40
1.0
  9
$DIMGAP
 40
1.0
  9
$DIMJUST
 70
     0
  9
$DIMSD1
 70
     0
  9
$DIMSD2
 70
     0
  9
$DIMTOLJ
 70
     1
  9
$DIMTZIN
 70
    12
  9
$DIMALTZ
 70
    12
  9
$DIMALTTZ
 70
    12
  9
$DIMFIT
 70
     5
  9
$DIMUPT
 70
     0
  9
$DIMUNIT
 70
     2
  9
$DIMDEC
 70
     4
  9
$DIMTDEC
 70
     4
  9
$DIMALTU
 70
     2
  9
$DIMALTTD
 70
     2
  9
$DIMTXSTY
  7
ROMANS
  9
$DIMAUNIT
 70
     0
  9
$LUNITS
 70
     2
  9
$LUPREC
 70
     4
  9
$SKETCHINC
 40
0.1
  9
$FILLETRAD
 40
0.0
  9
$AUNITS
 70
     0
  9
$AUPREC
 70
     0
  9
$MENU
  1
acad
  9
$ELEVATION
 40
0.0
  9
$PELEVATION
 40
0.0
  9
$THICKNESS
 40
0.0
  9
$LIMCHECK
 70
     0
  9
$BLIPMODE
 70
     1
  9
$CHAMFERA
 40
0.0
  9
$CHAMFERB
 40
0.0
  9
$CHAMFERC
 40
0.0
  9
$CHAMFERD
 40
0.0
  9
$SKPOLY
 70
     0
  9
$TDCREATE
 40
2450584.711702083
  9
$TDUPDATE
 40
2451387.895478078
  9
$TDINDWG
 40
0.0004959491
  9
$TDUSRTIMER
 40
0.0004959491
  9
$USRTIMER
 70
     1
  9
$ANGBASE
 50
0.0
  9
$ANGDIR
 70
     0
  9
$PDMODE
 70
     0
  9
$PDSIZE
 40
0.0
  9
$PLINEWID
 40
0.0
  9
$COORDS
 70
     1
  9
$SPLFRAME
 70
     0
  9
$SPLINETYPE
 70
     6
  9
$SPLINESEGS
 70
     8
  9
$ATTDIA
 70
     0
  9
$ATTREQ
 70
     1
  9
$HANDLING
 70
     1
  9
$HANDSEED
  5
50F
  9
$SURFTAB1
 70
     6
  9
$SURFTAB2
 70
     6
  9
$SURFTYPE
 70
     6
  9
$SURFU
 70
     6
  9
$SURFV
 70
     6
  9
$UCSNAME
  2

  9
$UCSORG
 10
0.0
 20
0.0
 30
0.0
  9
$UCSXDIR
 10
1.0
 20
0.0
 30
0.0
  9
$UCSYDIR
 10
0.0
 20
1.0
 30
0.0
  9
$PUCSNAME
  2

  9
$PUCSORG
 10
0.0
 20
0.0
 30
0.0
  9
$PUCSXDIR
 10
1.0
 20
0.0
 30
0.0
  9
$PUCSYDIR
 10
0.0
 20
1.0
 30
0.0
  9
$USERI1
 70
     0
  9
$USERI2
 70
     0
  9
$USERI3
 70
     0
  9
$USERI4
 70
     0
  9
$USERI5
 70
     0
  9
$USERR1
 40
0.0
  9
$USERR2
 40
0.0
  9
$USERR3
 40
0.0
  9
$USERR4
 40
0.0
  9
$USERR5
 40
0.0
  9
$WORLDVIEW
 70
     1
  9
$SHADEDGE
 70
     3
  9
$SHADEDIF
 70
    70
  9
$TILEMODE
 70
     1
  9
$MAXACTVP
 70
    16
  9
$PINSBASE
 10
0.0
 20
0.0
 30
0.0
  9
$PLIMCHECK
 70
     0
  9
$PEXTMIN
 10
1.000000E+20
 20
1.000000E+20
 30
1.000000E+20
  9
$PEXTMAX
 10
-1.000000E+20
 20
-1.000000E+20
 30
-1.000000E+20
  9
$PLIMMIN
 10
0.0
 20
0.0
  9
$PLIMMAX
 10
12.0
 20
9.0
  9
$UNITMODE
 70
     0
  9
$VISRETAIN
 70
     0
  9
$PLINEGEN
 70
     0
  9
$PSLTSCALE
 70
     1
  9
$TREEDEPTH
 70
  3020
  9
$PICKSTYLE
 70
     1
  9
$CMLSTYLE
  2
STANDARD
  9
$CMLJUST
 70
     0
  9
$CMLSCALE
 40
1.0
  9
$PROXYGRAPHICS
 70
     1
  9
$MEASUREMENT
 70
     0
  0
ENDSEC
  0
SECTION
  2
CLASSES
  0
CLASS
  1
DICTIONARYVAR
  2
AcDbDictionaryVar
  3
"AutoCAD"
 90
        0
280
     0
281
     0
  0
CLASS
  1
LWPOLYLINE
  2
AcDbPolyline
  3
"AutoCAD"
 90
        0
280
     0
281
     1
  0
ENDSEC
  0
SECTION
  2
TABLES
  0
TABLE
  2
VPORT
  5
4B3
100
AcDbSymbolTable
 70
     1
  0
VPORT
  5
50A
100
AcDbSymbolTableRecord
100
AcDbViewportTableRecord
  2
*ACTIVE
 70
     0
 10
0.0
 20
0.0
 11
1.0
 21
1.0
 12
283.244621
 22
169.500718
 13
0.0
 23
0.0
 14
1.0
 24
1.0
 15
10.0
 25
10.0
 16
0.0
 26
0.0
 36
1.0
 17
0.0
 27
0.0
 37
0.0
 40
339.001436
 41
1.671053
 42
50.0
 43
0.0
 44
0.0
 50
0.0
 51
0.0
 71
     0
 72
   100
 73
     1
 74
     1
 75
     0
 76
     1
 77
     0
 78
     0
  0
ENDTAB
  0
TABLE
  2
LTYPE
  5
4B0
100
AcDbSymbolTable
 70
    23
  0
LTYPE
  5
4BC
100
AcDbSymbolTableRecord
100
AcDbLinetypeTableRecord
  2
BYBLOCK
 70
     0
  3

 72
    65
 73
     0
 40
0.0
  0
LTYPE
  5
4BD
100
AcDbSymbolTableRecord
100
AcDbLinetypeTableRecord
  2
BYLAYER
 70
     0
  3

 72
    65
 73
     0
 40
0.0
  0
LTYPE
  5
4BE
100
AcDbSymbolTableRecord
100
AcDbLinetypeTableRecord
  2
CONTINUOUS
 70
     0
  3
Solid line
 72
    65
 73
     0
 40
0.0
  0
LTYPE
  5
4D1
100
AcDbSymbolTableRecord
100
AcDbLinetypeTableRecord
  2
AXES
 70
     0
  3
____ _ ____ _ ____ _ ____ _ ____ _ ____ _ ____ 
 72
    65
 73
     4
 40
2.0
 49
1.25
 74
     0
 49
-0.25
 74
     0
 49
0.25
 74
     0
 49
-0.25
 74
     0
  0
LTYPE
  5
4D2
100
AcDbSymbolTableRecord
100
AcDbLinetypeTableRecord
  2
AXES2
 70
     0
  3
___ _ ___ _ ___ _ ___ _ ___ _ ___ _ ___ _ ___ _
 72
    65
 73
     4
 40
1.125
 49
0.75
 74
     0
 49
-0.125
 74
     0
 49
0.125
 74
     0
 49
-0.125
 74
     0
  0
LTYPE
  5
4D3
100
AcDbSymbolTableRecord
100
AcDbLinetypeTableRecord
  2
AXESX2
 70
     0
  3
________  __  ________  __  ________  __  _____
 72
    65
 73
     4
 40
4.0
 49
2.5
 74
     0
 49
-0.5
 74
     0
 49
0.5
 74
     0
 49
-0.5
 74
     0
  0
LTYPE
  5
4D4
100
AcDbSymbolTableRecord
100
AcDbLinetypeTableRecord
  2
TIRETPT
 70
     0
  3
__ . __ . __ . __ . __ . __ . __ . __ . __ . __
 72
    65
 73
     4
 40
1.0
 49
0.5
 74
     0
 49
-0.25
 74
     0
 49
0.0
 74
     0
 49
-0.25
 74
     0
  0
LTYPE
  5
4D5
100
AcDbSymbolTableRecord
100
AcDbLinetypeTableRecord
  2
TIRETPT2
 70
     0
  3
_._._._._._._._._._._._._._._._._._._._._._._._
 72
    65
 73
     4
 40
0.5
 49
0.25
 74
     0
 49
-0.125
 74
     0
 49
0.0
 74
     0
 49
-0.125
 74
     0
  0
LTYPE
  5
4D6
100
AcDbSymbolTableRecord
100
AcDbLinetypeTableRecord
  2
TIRETPTX2
 70
     0
  3
____  .  ____  .  ____  .  ____  .  ____  .  __
 72
    65
 73
     4
 40
2.0
 49
1.0
 74
     0
 49
-0.5
 74
     0
 49
0.0
 74
     0
 49
-0.5
 74
     0
  0
LTYPE
  5
4D7
100
AcDbSymbolTableRecord
100
AcDbLinetypeTableRecord
  2
DISCONTINU
 70
     0
  3
__ __ __ __ __ __ __ __ __ __ __ __ __ __ __ __
 72
    65
 73
     2
 40
0.75
 49
0.5
 74
     0
 49
-0.25
 74
     0
  0
LTYPE
  5
4D8
100
AcDbSymbolTableRecord
100
AcDbLinetypeTableRecord
  2
DISCONTINU2
 70
     0
  3
_ _ _ _ _ _ _ _ _ _ _ _ _ _ _ _ _ _ _ _ _ _ _ _
 72
    65
 73
     2
 40
0.375
 49
0.25
 74
     0
 49
-0.125
 74
     0
  0
LTYPE
  5
4D9
100
AcDbSymbolTableRecord
100
AcDbLinetypeTableRecord
  2
DISCONTINUX2
 70
     0
  3
____  ____  ____  ____  ____  ____  ____  ____ 
 72
    65
 73
     2
 40
1.5
 49
1.0
 74
     0
 49
-0.5
 74
     0
  0
LTYPE
  5
4DA
100
AcDbSymbolTableRecord
100
AcDbLinetypeTableRecord
  2
DIVISE
 70
     0
  3
____ . . ____ . . ____ . . ____ . . ____ . . __
 72
    65
 73
     6
 40
1.25
 49
0.5
 74
     0
 49
-0.25
 74
     0
 49
0.0
 74
     0
 49
-0.25
 74
     0
 49
0.0
 74
     0
 49
-0.25
 74
     0
  0
LTYPE
  5
4DB
100
AcDbSymbolTableRecord
100
AcDbLinetypeTableRecord
  2
DIVISE2
 70
     0
  3
__..__..__..__..__..__..__..__..__..__..__..__.
 72
    65
 73
     6
 40
0.625
 49
0.25
 74
     0
 49
-0.125
 74
     0
 49
0.0
 74
     0
 49
-0.125
 74
     0
 49
0.0
 74
     0
 49
-0.125
 74
     0
  0
LTYPE
  5
4DC
100
AcDbSymbolTableRecord
100
AcDbLinetypeTableRecord
  2
DIVISEX2
 70
     0
  3
________  .  .  ________  .  .  ________  .  . 
 72
    65
 73
     6
 40
2.5
 49
1.0
 74
     0
 49
-0.5
 74
     0
 49
0.0
 74
     0
 49
-0.5
 74
     0
 49
0.0
 74
     0
 49
-0.5
 74
     0
  0
LTYPE
  5
4DD
100
AcDbSymbolTableRecord
100
AcDbLinetypeTableRecord
  2
POINTILLE
 70
     0
  3
. . . . . . . . . . . . . . . . . . . . . . . .
 72
    65
 73
     2
 40
0.25
 49
0.0
 74
     0
 49
-0.25
 74
     0
  0
LTYPE
  5
4DE
100
AcDbSymbolTableRecord
100
AcDbLinetypeTableRecord
  2
POINTILLE2
 70
     0
  3
...............................................
 72
    65
 73
     2
 40
0.125
 49
0.0
 74
     0
 49
-0.125
 74
     0
  0
LTYPE
  5
4DF
100
AcDbSymbolTableRecord
100
AcDbLinetypeTableRecord
  2
POINTILLEX2
 70
     0
  3
.  .  .  .  .  .  .  .  .  .  .  .  .  .  .  . 
 72
    65
 73
     2
 40
0.5
 49
0.0
 74
     0
 49
-0.5
 74
     0
  0
LTYPE
  5
4E0
100
AcDbSymbolTableRecord
100
AcDbLinetypeTableRecord
  2
CACHE
 70
     0
  3
__ __ __ __ __ __ __ __ __ __ __ __ __ __ __ __
 72
    65
 73
     2
 40
0.375
 49
0.25
 74
     0
 49
-0.125
 74
     0
  0
LTYPE
  5
4E1
100
AcDbSymbolTableRecord
100
AcDbLinetypeTableRecord
  2
CACHE2
 70
     0
  3
_ _ _ _ _ _ _ _ _ _ _ _ _ _ _ _ _ _ _ _ _ _ _ _
 72
    65
 73
     2
 40
0.1875
 49
0.125
 74
     0
 49
-0.0625
 74
     0
  0
LTYPE
  5
4E2
100
AcDbSymbolTableRecord
100
AcDbLinetypeTableRecord
  2
CACHEX2
 70
     0
  3
____ ____ ____ ____ ____ ____ ____ ____ ____ __
 72
    65
 73
     2
 40
0.75
 49
0.5
 74
     0
 49
-0.25
 74
     0
  0
LTYPE
  5
4E3
100
AcDbSymbolTableRecord
100
AcDbLinetypeTableRecord
  2
FANTOME
 70
     0
  3
______  __  __  ______  __  __  ______  __  __ 
 72
    65
 73
     6
 40
2.5
 49
1.25
 74
     0
 49
-0.25
 74
     0
 49
0.25
 74
     0
 49
-0.25
 74
     0
 49
0.25
 74
     0
 49
-0.25
 74
     0
  0
LTYPE
  5
4E4
100
AcDbSymbolTableRecord
100
AcDbLinetypeTableRecord
  2
FANTOME2
 70
     0
  3
___ _ _ ___ _ _ ___ _ _ ___ _ _ ___ _ _ ___ _ _
 72
    65
 73
     6
 40
1.25
 49
0.625
 74
     0
 49
-0.125
 74
     0
 49
0.125
 74
     0
 49
-0.125
 74
     0
 49
0.125
 74
     0
 49
-0.125
 74
     0
  0
LTYPE
  5
4E5
100
AcDbSymbolTableRecord
100
AcDbLinetypeTableRecord
  2
FANTOMEX2
 70
     0
  3
____________    ____    ____    ____________   
 72
    65
 73
     6
 40
5.0
 49
2.5
 74
     0
 49
-0.5
 74
     0
 49
0.5
 74
     0
 49
-0.5
 74
     0
 49
0.5
 74
     0
 49
-0.5
 74
     0
  0
LTYPE
  5
4E6
100
AcDbSymbolTableRecord
100
AcDbLinetypeTableRecord
  2
0
 70
     0
  3
MEDUSA PEN 0
 72
    65
 73
     0
 40
0.0
  0
ENDTAB
  0
TABLE
  2
LAYER
  5
4AD
100
AcDbSymbolTable
 70
    21
  0
LAYER
  5
4B9
100
AcDbSymbolTableRecord
100
AcDbLayerTableRecord
  2
0
 70
     0
 62
     7
  6
CONTINUOUS
  0
LAYER
  5
4ED
100
AcDbSymbolTableRecord
100
AcDbLayerTableRecord
  2
AXE
 70
     0
 62
    80
  6
AXES2
  0
LAYER
  5
4EE
100
AcDbSymbolTableRecord
100
AcDbLayerTableRecord
  2
CONSTRUCTION
 70
     0
 62
     6
  6
CONTINUOUS
  0
LAYER
  5
4EF
100
AcDbSymbolTableRecord
100
AcDbLayerTableRecord
  2
COTATION1
 70
     0
 62
     2
  6
CONTINUOUS
  0
LAYER
  5
4F0
100
AcDbSymbolTableRecord
100
AcDbLayerTableRecord
  2
HACHURES
 70
     0
 62
     9
  6
CONTINUOUS
  0
LAYER
  5
4F1
100
AcDbSymbolTableRecord
100
AcDbLayerTableRecord
  2
FMULT
 70
     0
 62
     6
  6
CONTINUOUS
  0
LAYER
  5
4F2
100
AcDbSymbolTableRecord
100
AcDbLayerTableRecord
  2
TEXTE
 70
     0
 62
   131
  6
CONTINUOUS
  0
LAYER
  5
4F3
100
AcDbSymbolTableRecord
100
AcDbLayerTableRecord
  2
FDP_CARTOUCHE
 70
     0
 62
     4
  6
CONTINUOUS
  0
LAYER
  5
4F4
100
AcDbSymbolTableRecord
100
AcDbLayerTableRecord
  2
FDP_TEXTES
 70
     0
 62
     5
  6
CONTINUOUS
  0
LAYER
  5
4F5
100
AcDbSymbolTableRecord
100
AcDbLayerTableRecord
  2
FDP_LOGO_MG
 70
     0
 62
    30
  6
CONTINUOUS
  0
LAYER
  5
4F6
100
AcDbSymbolTableRecord
100
AcDbLayerTableRecord
  2
FDP_LOGO_SCH
 70
     0
 62
     3
  6
CONTINUOUS
  0
LAYER
  5
4F7
100
AcDbSymbolTableRecord
100
AcDbLayerTableRecord
  2
FDP_FDP
 70
     0
 62
     5
  6
CONTINUOUS
  0
LAYER
  5
4F8
100
AcDbSymbolTableRecord
100
AcDbLayerTableRecord
  2
COTATION2
 70
     0
 62
     2
  6
CONTINUOUS
  0
LAYER
  5
4F9
100
AcDbSymbolTableRecord
100
AcDbLayerTableRecord
  2
COTATION3
 70
     0
 62
     2
  6
CONTINUOUS
  0
LAYER
  5
4FA
100
AcDbSymbolTableRecord
100
AcDbLayerTableRecord
  2
COTATION4
 70
     0
 62
     2
  6
CONTINUOUS
  0
LAYER
  5
4FB
100
AcDbSymbolTableRecord
100
AcDbLayerTableRecord
  2
ASHADE
 70
     0
 62
     7
  6
CONTINUOUS
  0
LAYER
  5
4FC
100
AcDbSymbolTableRecord
100
AcDbLayerTableRecord
  2
POINTILLE_COURT
 70
     0
 62
    40
  6
CACHE2
  0
LAYER
  5
4FD
100
AcDbSymbolTableRecord
100
AcDbLayerTableRecord
  2
POINTILLE_MOYEN
 70
     0
 62
   140
  6
CACHE
  0
LAYER
  5
4FE
100
AcDbSymbolTableRecord
100
AcDbLayerTableRecord
  2
POINTILLE_LONG
 70
     0
 62
   240
  6
CACHEX2
  0
LAYER
  5
4FF
100
AcDbSymbolTableRecord
100
AcDbLayerTableRecord
  2
ALPHA
 70
     0
 62
   255
  6
CONTINUOUS
  0
LAYER
  5
500
100
AcDbSymbolTableRecord
100
AcDbLayerTableRecord
  2
DEFPOINTS
 70
     0
 62
     7
  6
CONTINUOUS
  0
ENDTAB
  0
TABLE
  2
STYLE
  5
4AE
100
AcDbSymbolTable
 70
     4
  0
STYLE
  5
4BA
100
AcDbSymbolTableRecord
100
AcDbTextStyleTableRecord
  2
STANDARD
 70
     0
 40
0.0
 41
1.0
 50
0.0
 71
     0
 42
0.2
  3
txt
  4

  0
STYLE
  5
4CE
100
AcDbSymbolTableRecord
100
AcDbTextStyleTableRecord
  2
ROMANS
 70
     0
 40
0.0
 41
1.0
 50
0.0
 71
     0
 42
2.9
  3
romans.shx
  4

  0
STYLE
  5
4CF
100
AcDbSymbolTableRecord
100
AcDbTextStyleTableRecord
  2
INFOCAR
 70
     0
 40
0.0
 41
1.34
 50
0.0
 71
     0
 42
2.0
  3
ROMANS.SHX
  4

  0
STYLE
  5
4D0
100
AcDbSymbolTableRecord
100
AcDbTextStyleTableRecord
  2
CARTOUCHE
 70
     0
 40
0.0
 41
1.0
 50
0.0
 71
     0
 42
0.2
  3
ROMANS.SHX
  4

  0
ENDTAB
  0
TABLE
  2
VIEW
  5
4B1
100
AcDbSymbolTable
 70
     0
  0
ENDTAB
  0
TABLE
  2
UCS
  5
4B2
100
AcDbSymbolTable
 70
     0
  0
ENDTAB
  0
TABLE
  2
APPID
  5
4B4
100
AcDbSymbolTable
 70
     3
  0
APPID
  5
4BB
100
AcDbSymbolTableRecord
100
AcDbRegAppTableRecord
  2
ACAD
 70
     0
  0
APPID
  5
4E9
100
AcDbSymbolTableRecord
100
AcDbRegAppTableRecord
  2
AVE_RENDER
 70
     0
  0
APPID
  5
4EA
100
AcDbSymbolTableRecord
100
AcDbRegAppTableRecord
  2
AVE_MATERIAL
 70
     0
  0
ENDTAB
  0
TABLE
  2
DIMSTYLE
  5
4B5
100
AcDbSymbolTable
 70
     2
  0
DIMSTYLE
105
4EB
100
AcDbSymbolTableRecord
100
AcDbDimStyleTableRecord
  2
STANDARD
 70
     0
  3

  4

  5

  6

  7

 40
1.0
 41
0.18
 42
0.0625
 43
0.38
 44
0.18
 45
0.0
 46
0.0
 47
0.0
 48
0.0
140
0.18
141
0.09
142
0.0
143
25.4
144
1.0
145
0.0
146
1.0
147
0.09
 71
     0
 72
     0
 73
     1
 74
     1
 75
     0
 76
     0
 77
     0
 78
     0
170
     0
171
     2
172
     0
173
     0
174
     0
175
     0
176
     0
177
     0
178
     0
270
     2
271
     4
272
     4
273
     2
274
     2
340
4CE
275
     0
280
     0
281
     0
282
     0
283
     1
284
    12
285
    12
286
    12
287
     5
288
     0
  0
DIMSTYLE
105
4EC
102
{ACAD_REACTORS
330
480
330
48D
102
}
100
AcDbSymbolTableRecord
100
AcDbDimStyleTableRecord
  2
SC_STAND
 70
     0
  3

  4

  5

  6

  7

 40
1.0
 41
3.0
 42
0.0625
 43
0.38
 44
0.18
 45
0.01
 46
0.0
 47
0.0
 48
0.0
140
2.5
141
0.09
142
0.0
143
25.4
144
1.0
145
0.0
146
1.0
147
1.0
 71
     0
 72
     0
 73
     0
 74
     0
 75
     0
 76
     0
 77
     1
 78
    12
170
     0
171
     2
172
     1
173
     0
174
     0
175
     0
176
     0
177
     0
178
     0
270
     2
271
     4
272
     4
273
     2
274
     2
340
4CE
275
     0
280
     0
281
     0
282
     0
283
     1
284
    12
285
    12
286
    12
287
     5
288
     0
  0
ENDTAB
  0
TABLE
  2
BLOCK_RECORD
  5
4AC
100
AcDbSymbolTable
 70
     7
  0
BLOCK_RECORD
  5
4C2
100
AcDbSymbolTableRecord
100
AcDbBlockTableRecord
  2
*MODEL_SPACE
  0
BLOCK_RECORD
  5
4BF
100
AcDbSymbolTableRecord
100
AcDbBlockTableRecord
  2
*PAPER_SPACE
  0
BLOCK_RECORD
  5
4C7
100
AcDbSymbolTableRecord
100
AcDbBlockTableRecord
  2
AVE_RENDER
  0
BLOCK_RECORD
  5
4C8
100
AcDbSymbolTableRecord
100
AcDbBlockTableRecord
  2
AVE_GLOBAL
  0
BLOCK_RECORD
  5
4C9
100
AcDbSymbolTableRecord
100
AcDbBlockTableRecord
  2
SCH_ISO
  0
BLOCK_RECORD
  5
4CC
100
AcDbSymbolTableRecord
100
AcDbBlockTableRecord
  2
*D5
  0
BLOCK_RECORD
  5
4CD
100
AcDbSymbolTableRecord
100
AcDbBlockTableRecord
  2
*D6
  0
ENDTAB
  0
ENDSEC
  0
SECTION
  2
BLOCKS
  0
BLOCK
  5
503
100
AcDbEntity
  8
0
100
AcDbBlockBegin
  2
*MODEL_SPACE
 70
     0
 10
0.0
 20
0.0
 30
0.0
  3
*MODEL_SPACE
  1

  0
ENDBLK
  5
504
100
AcDbEntity
  8
0
100
AcDbBlockEnd
  0
BLOCK
  5
501
100
AcDbEntity
 67
     1
  8
0
100
AcDbBlockBegin
  2
*PAPER_SPACE
 70
     0
 10
0.0
 20
0.0
 30
0.0
  3
*PAPER_SPACE
  1

  0
ENDBLK
  5
502
100
AcDbEntity
 67
     1
  8
0
100
AcDbBlockEnd
  0
BLOCK
  5
42C
100
AcDbEntity
  8
0
100
AcDbBlockBegin
  2
AVE_RENDER
 70
     0
 10
0.0
 20
0.0
 30
0.0
  3
AVE_RENDER
  1
AVE_RENDER
  0
ENDBLK
  5
42D
100
AcDbEntity
  8
0
100
AcDbBlockEnd
  0
BLOCK
  5
42F
100
AcDbEntity
  8
0
100
AcDbBlockBegin
  2
AVE_GLOBAL
 70
     0
 10
0.0
 20
0.0
 30
0.0
  3
AVE_GLOBAL
  1
AVE_GLOBAL
  0
ENDBLK
  5
430
100
AcDbEntity
  8
0
100
AcDbBlockEnd
  0
BLOCK
  5
46B
100
AcDbEntity
  8
0
100
AcDbBlockBegin
  2
SCH_ISO
 70
     0
 10
0.0
 20
0.0
 30
0.0
  3
SCH_ISO
  1

  0
INSERT
  5
462
100
AcDbEntity
  8
ASHADE
 62
     1
100
AcDbBlockReference
  2
AVE_RENDER
 10
0.0
 20
0.0
 30
0.0
1001
AVE_RENDER
1002
{
1070
     6
1000
Pref
1070
    50
1070
    20
1070
     1
1070
     0
1000

1070
    10
1070
     1
1070
    30
1040
25.4
1070
     1
1040
0.3
1040
0.7
1040
0.0
1040
10.0
1010
-1.0
1020
-1.0
1030
-1.0
1040
0.3
1070
    49
1070
     0
1070
     0
1010
1.0
1020
1.0
1030
1.0
1040
45.0
1070
     1
1070
     0
1000
WCS
1040
0.0
1002
}
  0
INSERT
  5
463
100
AcDbEntity
  8
ASHADE
 62
     3
100
AcDbBlockReference
  2
AVE_RENDER
 10
0.0
 20
0.0
 30
0.0
1001
AVE_RENDER
1002
{
1070
     0
1000
Full Opt
1070
     0
1070
     1
1070
     1
1070
     1
1070
     0
1070
     0
1070
     0
1070
     1
1070
     1
1040
0.0001
1040
0.0001
1002
}
  0
INSERT
  5
464
100
AcDbEntity
  8
ASHADE
 62
     4
100
AcDbBlockReference
  2
AVE_RENDER
 10
0.0
 20
0.0
 30
0.0
1001
AVE_RENDER
1002
{
1070
     0
1000
Quick Opt
1070
     0
1070
     1
1070
     1
1070
     1
1070
     0
1070
     0
1070
     1
1002
}
  0
INSERT
  5
465
100
AcDbEntity
  8
ASHADE
 62
     5
100
AcDbBlockReference
  2
AVE_RENDER
 10
0.0
 20
0.0
 30
0.0
1001
AVE_RENDER
1002
{
1070
     1
1000
Scanl Opt
1070
     2
1070
     0
1070
     2
1040
2.0
1040
4.0
1070
     0
1070
     1
1070
     0
1040
0.03
1002
}
  0
INSERT
  5
466
100
AcDbEntity
  8
ASHADE
 62
     6
100
AcDbBlockReference
  2
AVE_RENDER
 10
0.0
 20
0.0
 30
0.0
1001
AVE_RENDER
1002
{
1070
     2
1000
Raytr Opt
1070
     2
1070
     0
1070
     2
1040
2.0
1040
4.0
1070
     0
1070
     1
1070
     1
1040
0.03
1070
     3
1040
0.03
1002
}
  0
INSERT
  5
467
100
AcDbEntity
  8
ASHADE
 62
     7
100
AcDbBlockReference
  2
AVE_RENDER
 10
0.0
 20
0.0
 30
0.0
1001
AVE_RENDER
1002
{
1070
     0
1000
RFile Opt
1070
     5
1070
   640
1070
   480
1070
 10000
1070
     3
1070
    32
1070
    24
1070
     0
1070
     0
1070
     0
1070
     1
1070
     0
1070
     0
1070
     0
1002
}
  0
INSERT
  5
468
100
AcDbEntity
  8
ASHADE
 62
     8
100
AcDbBlockReference
  2
AVE_RENDER
 10
0.0
 20
0.0
 30
0.0
1001
AVE_RENDER
1002
{
1070
     0
1000
Fog Opt
1070
     0
1070
     0
1040
0.0
1040
1.0
1040
0.0
1040
1.0
1010
0.5
1020
0.5
1030
0.5
1002
}
  0
INSERT
  5
469
100
AcDbEntity
  8
ASHADE
 62
     9
100
AcDbBlockReference
  2
AVE_RENDER
 10
0.0
 20
0.0
 30
0.0
1001
AVE_RENDER
1002
{
1070
     0
1000
BG Opt
1070
     0
1070
     1
1010
0.0
1020
0.0
1030
0.0
1010
1.0
1020
0.0
1030
0.0
1010
0.0
1020
1.0
1030
0.0
1010
0.0
1020
0.0
1030
1.0
1040
0.5
1040
0.33
1040
0.0
1000

1070
     1
1000

1070
     1
1070
     1
1040
1.0
1040
1.0
1040
0.0
1040
0.0
1070
     0
1002
}
  0
INSERT
  5
46A
100
AcDbEntity
  8
ASHADE
 62
     1
100
AcDbBlockReference
  2
AVE_GLOBAL
 10
0.0
 20
0.0
 30
0.0
1001
AVE_MATERIAL
1002
{
1000
*GLOBAL*
1000
1
1000
Finition globale.
1002
{
1002
}
1002
{
1070
    63
1002
{
1002
{
1010
-1.0
1020
-1.0
1030
-1.0
1002
}
1040
0.1
1000

1040
0.0
1002
{
1002
}
1040
0.0
1002
{
1002
}
1040
0.0
1002
}
1002
{
1002
{
1010
-1.0
1020
-1.0
1030
-1.0
1002
}
1040
0.7
1000

1040
0.0
1002
{
1002
}
1040
0.0
1002
{
1002
}
1040
0.0
1002
}
1002
{
1002
{
1010
-1.0
1020
-1.0
1030
-1.0
1002
}
1040
0.2
1000

1040
0.0
1002
{
1002
}
1040
0.0
1002
{
1002
}
1040
0.0
1002
}
1002
{
1070
     0
1002
{
1070
     1
1002
{
1040
1.0
1040
1.0
1000

1040
0.0
1002
{
1002
}
1040
0.0
1002
{
1002
}
1040
0.0
1002
}
1002
}
1040
1.0
1040
0.0
1040
0.0
1002
}
1002
{
1040
1.0
1040
1.0
1000

1040
0.0
1002
{
1002
}
1040
0.0
1002
{
1002
}
1040
0.0
1002
}
1002
{
1040
0.5
1040
1.0
1000

1040
0.0
1002
{
1002
}
1040
0.0
1002
{
1002
}
1040
0.0
1002
}
1002
{
1070
     0
1040
0.0
1002
{
1002
}
1040
1.0
1002
{
1002
}
1040
0.0
1002
}
1002
{
1040
0.0
1002
{
1002
{
1010
0.0
1020
0.0
1030
0.0
1002
}
1040
1.0
1000

1040
0.0
1002
{
1002
}
1040
0.0
1002
{
1002
}
1040
0.0
1002
}
1002
}
1002
{
1002
{
1070
     1
1002
{
1040
0.0
1040
1.0
1000

1040
0.0
1002
{
1002
}
1040
0.0
1002
{
1002
}
1040
0.0
1002
}
1002
}
1040
0.0
1002
{
1002
}
1010
1.0
1020
0.0
1030
0.0
1010
0.0
1020
1.0
1030
0.0
1010
0.0
1020
0.0
1030
1.0
1070
     0
1002
}
1002
{
1002
{
1040
1.0
1040
1.0
1002
{
1070
     1
1002
{
1040
1.0
1040
1.0
1000

1040
0.0
1002
{
1002
}
1040
0.0
1002
{
1002
}
1040
0.0
1002
}
1002
}
1002
}
1070
     0
1040
0.0
1002
{
1002
}
1002
}
1002
{
1002
}
1002
}
1002
{
1071
        3
1070
     3
1070
     0
1002
{
1070
     2
1070
     0
1070
     0
1040
0.0
1002
}
1070
     0
1070
     2
1002
{
1002
}
1002
}
1002
{
1040
8030.0
1040
190.300003
1040
0.305
1040
228.0
1040
545.0
1040
14.0
1040
17.4
1040
0.456
1002
}
1002
}
  0
ENDBLK
  5
46C
100
AcDbEntity
  8
0
100
AcDbBlockEnd
  0
BLOCK
  5
496
100
AcDbEntity
  8
0
100
AcDbBlockBegin
  2
*D5
 70
     1
 10
0.0
 20
0.0
 30
0.0
  3
*D5
  1

  0
LINE
  5
497
100
AcDbEntity
  8
0
  6
BYBLOCK
 62
     0
100
AcDbLine
 10
56.031867
 20
87.527344
 30
0.0
 11
56.031867
 21
67.276481
 31
0.0
  0
LINE
  5
498
100
AcDbEntity
  8
0
  6
BYBLOCK
 62
     0
100
AcDbLine
 10
41.031867
 20
95.898718
 30
0.0
 11
41.031867
 21
67.276481
 31
0.0
  0
LINE
  5
499
100
AcDbEntity
  8
0
  6
BYBLOCK
 62
     0
100
AcDbLine
 10
53.031867
 20
67.456481
 30
0.0
 11
44.031867
 21
67.456481
 31
0.0
  0
SOLID
  5
49A
100
AcDbEntity
  8
0
  6
BYBLOCK
 62
     0
100
AcDbTrace
 10
53.031867
 20
67.956481
 30
0.0
 11
53.031867
 21
66.956481
 31
0.0
 12
56.031867
 22
67.456481
 32
0.0
 13
56.031867
 23
67.456481
 33
0.0
  0
SOLID
  5
49B
100
AcDbEntity
  8
0
  6
BYBLOCK
 62
     0
100
AcDbTrace
 10
44.031867
 20
67.956481
 30
0.0
 11
44.031867
 21
66.956481
 31
0.0
 12
41.031867
 22
67.456481
 32
0.0
 13
41.031867
 23
67.456481
 33
0.0
  0
TEXT
  5
49C
100
AcDbEntity
  8
0
  6
BYBLOCK
 62
     0
100
AcDbText
 10
45.972343
 20
68.706481
 30
0.0
 40
2.5
  1
15
  7
ROMANS
 72
     1
 11
48.531867
 21
69.956481
 31
0.0
100
AcDbText
 73
     2
  0
POINT
  5
49D
100
AcDbEntity
  8
DEFPOINTS
  6
BYBLOCK
 62
     0
100
AcDbPoint
 10
56.031867
 20
87.589844
 30
0.0
  0
POINT
  5
49E
100
AcDbEntity
  8
DEFPOINTS
  6
BYBLOCK
 62
     0
100
AcDbPoint
 10
41.031867
 20
95.961218
 30
0.0
  0
POINT
  5
49F
100
AcDbEntity
  8
DEFPOINTS
  6
BYBLOCK
 62
     0
100
AcDbPoint
 10
41.031867
 20
67.456481
 30
0.0
  0
ENDBLK
  5
4A0
100
AcDbEntity
  8
0
100
AcDbBlockEnd
  0
BLOCK
  5
4A1
100
AcDbEntity
  8
0
100
AcDbBlockBegin
  2
*D6
 70
     1
 10
0.0
 20
0.0
 30
0.0
  3
*D6
  1

  0
LINE
  5
4A2
100
AcDbEntity
  8
0
  6
BYBLOCK
 62
     0
100
AcDbLine
 10
55.969367
 20
87.961218
 30
0.0
 11
27.027674
 21
87.961218
 31
0.0
  0
LINE
  5
4A3
100
AcDbEntity
  8
0
  6
BYBLOCK
 62
     0
100
AcDbLine
 10
55.969367
 20
103.961218
 30
0.0
 11
27.027674
 21
103.961218
 31
0.0
  0
LINE
  5
4A4
100
AcDbEntity
  8
0
  6
BYBLOCK
 62
     0
100
AcDbLine
 10
27.207674
 20
90.961218
 30
0.0
 11
27.207674
 21
100.961218
 31
0.0
  0
SOLID
  5
4A5
100
AcDbEntity
  8
0
  6
BYBLOCK
 62
     0
100
AcDbTrace
 10
26.707674
 20
90.961218
 30
0.0
 11
27.707674
 21
90.961218
 31
0.0
 12
27.207674
 22
87.961218
 32
0.0
 13
27.207674
 23
87.961218
 33
0.0
  0
SOLID
  5
4A6
100
AcDbEntity
  8
0
  6
BYBLOCK
 62
     0
100
AcDbTrace
 10
26.707674
 20
100.961218
 30
0.0
 11
27.707674
 21
100.961218
 31
0.0
 12
27.207674
 22
103.961218
 32
0.0
 13
27.207674
 23
103.961218
 33
0.0
  0
TEXT
  5
4A7
100
AcDbEntity
  8
0
  6
BYBLOCK
 62
     0
100
AcDbText
 10
25.957674
 20
93.401694
 30
0.0
 40
2.5
  1
16
 50
90.0
  7
ROMANS
 72
     1
 11
24.707674
 21
95.961218
 31
0.0
100
AcDbText
 73
     2
  0
POINT
  5
4A8
100
AcDbEntity
  8
DEFPOINTS
  6
BYBLOCK
 62
     0
100
AcDbPoint
 10
56.031867
 20
87.961218
 30
0.0
  0
POINT
  5
4A9
100
AcDbEntity
  8
DEFPOINTS
  6
BYBLOCK
 62
     0
100
AcDbPoint
 10
56.031867
 20
103.961218
 30
0.0
  0
POINT
  5
4AA
100
AcDbEntity
  8
DEFPOINTS
  6
BYBLOCK
 62
     0
100
AcDbPoint
 10
27.207674
 20
103.961218
 30
0.0
  0
ENDBLK
  5
4AB
100
AcDbEntity
  8
0
100
AcDbBlockEnd
  0
ENDSEC
  0
SECTION
  2
ENTITIES
  0
ARC
  5
1D
100
AcDbEntity
  8
ALPHA
100
AcDbCircle
 10
81.031867
 20
95.961218
 30
0.0
 40
40.0
100
AcDbArc
 50
169.061805
 51
190.938195
  0
ARC
  5
1E
100
AcDbEntity
  8
ALPHA
100
AcDbCircle
 10
43.731867
 20
104.636218
 30
0.0
 40
0.2
100
AcDbArc
 50
90.0
 51
154.212795
  0
ARC
  5
1F
100
AcDbEntity
  8
ALPHA
100
AcDbCircle
 10
43.731867
 20
87.286218
 30
0.0
 40
0.2
100
AcDbArc
 50
205.787205
 51
270.0
  0
ARC
  5
20
100
AcDbEntity
  8
ALPHA
100
AcDbCircle
 10
90.398375
 20
99.061218
 30
0.0
 40
0.3
100
AcDbArc
 50
257.157112
 51
270.0
  0
ARC
  5
21
100
AcDbEntity
  8
ALPHA
100
AcDbCircle
 10
90.398375
 20
92.861218
 30
0.0
 40
0.3
100
AcDbArc
 50
90.0
 51
102.842888
  0
ARC
  5
22
100
AcDbEntity
  8
ALPHA
100
AcDbCircle
 10
67.681867
 20
104.211218
 30
0.0
 40
0.35
100
AcDbArc
 50
0.0
 51
180.0
  0
LINE
  5
23
100
AcDbEntity
  8
ALPHA
100
AcDbLine
 10
98.131867
 20
93.258408
 30
0.0
 11
98.131867
 21
93.564027
 31
0.0
  0
LINE
  5
24
100
AcDbEntity
  8
ALPHA
100
AcDbLine
 10
98.131867
 20
89.458408
 30
0.0
 11
98.131867
 21
89.764027
 31
0.0
  0
LINE
  5
25
100
AcDbEntity
  8
ALPHA
100
AcDbLine
 10
98.131867
 20
98.664027
 30
0.0
 11
98.131867
 21
98.358408
 31
0.0
  0
LINE
  5
26
100
AcDbEntity
  8
ALPHA
100
AcDbLine
 10
98.131867
 20
102.464027
 30
0.0
 11
98.131867
 21
102.158408
 31
0.0
  0
LINE
  5
27
100
AcDbEntity
  8
ALPHA
100
AcDbLine
 10
98.031867
 20
98.339381
 30
0.0
 11
98.031867
 21
98.663054
 31
0.0
  0
LINE
  5
28
100
AcDbEntity
  8
ALPHA
100
AcDbLine
 10
98.031867
 20
93.259381
 30
0.0
 11
98.031867
 21
93.583054
 31
0.0
  0
LINE
  5
29
100
AcDbEntity
  8
ALPHA
100
AcDbLine
 10
97.631867
 20
93.653585
 30
0.0
 11
97.631867
 21
93.661218
 31
0.0
  0
LINE
  5
2A
100
AcDbEntity
  8
ALPHA
100
AcDbLine
 10
97.631867
 20
93.161218
 30
0.0
 11
97.631867
 21
93.18885
 31
0.0
  0
LINE
  5
2B
100
AcDbEntity
  8
ALPHA
100
AcDbLine
 10
97.631867
 20
89.361218
 30
0.0
 11
97.631867
 21
89.861218
 31
0.0
  0
LINE
  5
2C
100
AcDbEntity
  8
ALPHA
100
AcDbLine
 10
97.631867
 20
98.26885
 30
0.0
 11
97.631867
 21
98.261218
 31
0.0
  0
LINE
  5
2D
100
AcDbEntity
  8
ALPHA
100
AcDbLine
 10
97.631867
 20
98.761218
 30
0.0
 11
97.631867
 21
98.733585
 31
0.0
  0
LINE
  5
2E
100
AcDbEntity
  8
ALPHA
100
AcDbLine
 10
97.631867
 20
102.561218
 30
0.0
 11
97.631867
 21
102.061218
 31
0.0
  0
LINE
  5
2F
100
AcDbEntity
  8
ALPHA
100
AcDbLine
 10
97.531867
 20
98.251218
 30
0.0
 11
97.531867
 21
98.751218
 31
0.0
  0
LINE
  5
30
100
AcDbEntity
  8
ALPHA
100
AcDbLine
 10
97.531867
 20
93.171218
 30
0.0
 11
97.531867
 21
93.671218
 31
0.0
  0
LINE
  5
31
100
AcDbEntity
  8
ALPHA
100
AcDbLine
 10
90.447337
 20
98.251218
 30
0.0
 11
90.447337
 21
98.751218
 31
0.0
  0
LINE
  5
32
100
AcDbEntity
  8
ALPHA
100
AcDbLine
 10
90.447337
 20
93.171218
 30
0.0
 11
90.447337
 21
93.671218
 31
0.0
  0
LINE
  5
33
100
AcDbEntity
  8
ALPHA
100
AcDbLine
 10
90.331867
 20
87.861218
 30
0.0
 11
90.331867
 21
104.061218
 31
0.0
  0
LINE
  5
34
100
AcDbEntity
  8
ALPHA
100
AcDbLine
 10
89.931867
 20
89.162782
 30
0.0
 11
89.931867
 21
102.759654
 31
0.0
  0
LWPOLYLINE
  5
35
100
AcDbEntity
  8
ALPHA
100
AcDbPolyline
 90
        7
 70
     0
 43
0.0
 10
89.106514
 20
91.061218
 10
89.099767
 20
91.044363
 10
89.093371
 20
90.993785
 10
89.087981
 20
90.914701
 10
89.083838
 20
90.811806
 10
89.081191
 20
90.689792
 10
89.08031
 20
90.561218
  0
LINE
  5
3E
100
AcDbEntity
  8
ALPHA
100
AcDbLine
 10
89.091484
 20
101.915334
 30
0.0
 11
89.124856
 21
102.361218
 31
0.0
  0
LWPOLYLINE
  5
3F
100
AcDbEntity
  8
ALPHA
100
AcDbPolyline
 90
        5
 70
     0
 43
0.0
 10
89.091484
 20
101.915334
 10
89.086808
 20
101.835339
 10
89.083269
 20
101.736572
 10
89.081061
 20
101.624619
 10
89.08031
 20
101.505758
  0
LINE
  5
46
100
AcDbEntity
  8
ALPHA
100
AcDbLine
 10
89.531867
 20
100.461218
 30
0.0
 11
89.531867
 21
102.761218
 31
0.0
  0
LINE
  5
47
100
AcDbEntity
  8
ALPHA
100
AcDbLine
 10
89.531867
 20
89.161218
 30
0.0
 11
89.531867
 21
91.461218
 31
0.0
  0
LINE
  5
48
100
AcDbEntity
  8
ALPHA
100
AcDbLine
 10
89.331867
 20
91.061218
 30
0.0
 11
89.331867
 21
90.061218
 31
0.0
  0
LINE
  5
49
100
AcDbEntity
  8
ALPHA
100
AcDbLine
 10
89.331867
 20
101.861218
 30
0.0
 11
89.331867
 21
100.861218
 31
0.0
  0
LINE
  5
4A
100
AcDbEntity
  8
ALPHA
100
AcDbLine
 10
89.145819
 20
90.061218
 30
0.0
 11
89.145819
 21
89.561218
 31
0.0
  0
LINE
  5
4B
100
AcDbEntity
  8
ALPHA
100
AcDbLine
 10
89.145819
 20
102.361218
 30
0.0
 11
89.145819
 21
101.861218
 31
0.0
  0
LINE
  5
4C
100
AcDbEntity
  8
ALPHA
100
AcDbLine
 10
89.131867
 20
102.761218
 30
0.0
 11
89.131867
 21
103.661218
 31
0.0
  0
LINE
  5
4D
100
AcDbEntity
  8
ALPHA
100
AcDbLine
 10
89.131867
 20
88.261218
 30
0.0
 11
89.131867
 21
89.161218
 31
0.0
  0
LINE
  5
4E
100
AcDbEntity
  8
ALPHA
100
AcDbLine
 10
89.08031
 20
101.361218
 30
0.0
 11
89.08031
 21
101.505758
 31
0.0
  0
LINE
  5
4F
100
AcDbEntity
  8
ALPHA
100
AcDbLine
 10
89.08031
 20
90.416678
 30
0.0
 11
89.08031
 21
90.561218
 31
0.0
  0
LWPOLYLINE
  5
50
100
AcDbEntity
  8
ALPHA
100
AcDbPolyline
 90
        5
 70
     0
 43
0.0
 10
89.08031
 20
90.416678
 10
89.081061
 20
90.297817
 10
89.083269
 20
90.185864
 10
89.086808
 20
90.087096
 10
89.091484
 20
90.007102
  0
LWPOLYLINE
  5
57
100
AcDbEntity
  8
ALPHA
100
AcDbPolyline
 90
        7
 70
     0
 43
0.0
 10
89.08031
 20
101.361218
 10
89.081191
 20
101.232644
 10
89.083838
 20
101.110629
 10
89.087981
 20
101.007734
 10
89.093371
 20
100.928651
 10
89.099767
 20
100.878073
 10
89.106514
 20
100.861218
  0
LINE
  5
60
100
AcDbEntity
  8
ALPHA
100
AcDbLine
 10
89.124856
 20
89.561218
 30
0.0
 11
89.091484
 21
90.007102
 31
0.0
  0
LINE
  5
61
100
AcDbEntity
  8
ALPHA
100
AcDbLine
 10
87.438878
 20
89.561218
 30
0.0
 11
87.47225
 21
90.007102
 31
0.0
  0
LWPOLYLINE
  5
62
100
AcDbEntity
  8
ALPHA
100
AcDbPolyline
 90
        7
 70
     0
 43
0.0
 10
87.483424
 20
101.361218
 10
87.482543
 20
101.232644
 10
87.479896
 20
101.110629
 10
87.475753
 20
101.007734
 10
87.470363
 20
100.928651
 10
87.463967
 20
100.878073
 10
87.45722
 20
100.861218
  0
LWPOLYLINE
  5
6B
100
AcDbEntity
  8
ALPHA
100
AcDbPolyline
 90
        5
 70
     0
 43
0.0
 10
87.483424
 20
90.416678
 10
87.482673
 20
90.297817
 10
87.480465
 20
90.185864
 10
87.476926
 20
90.087096
 10
87.47225
 20
90.007102
  0
LINE
  5
72
100
AcDbEntity
  8
ALPHA
100
AcDbLine
 10
87.483424
 20
101.361218
 30
0.0
 11
87.483424
 21
101.505758
 31
0.0
  0
LINE
  5
73
100
AcDbEntity
  8
ALPHA
100
AcDbLine
 10
87.483424
 20
90.416678
 30
0.0
 11
87.483424
 21
90.561218
 31
0.0
  0
LINE
  5
74
100
AcDbEntity
  8
ALPHA
100
AcDbLine
 10
87.417915
 20
90.061218
 30
0.0
 11
87.417915
 21
89.561218
 31
0.0
  0
LINE
  5
75
100
AcDbEntity
  8
ALPHA
100
AcDbLine
 10
87.417915
 20
102.361218
 30
0.0
 11
87.417915
 21
101.861218
 31
0.0
  0
LINE
  5
76
100
AcDbEntity
  8
ALPHA
100
AcDbLine
 10
87.231867
 20
89.961218
 30
0.0
 11
87.231867
 21
91.061218
 31
0.0
  0
LINE
  5
77
100
AcDbEntity
  8
ALPHA
100
AcDbLine
 10
87.231867
 20
101.961218
 30
0.0
 11
87.231867
 21
100.861218
 31
0.0
  0
LINE
  5
78
100
AcDbEntity
  8
ALPHA
100
AcDbLine
 10
86.931867
 20
100.461218
 30
0.0
 11
86.931867
 21
102.761218
 31
0.0
  0
LINE
  5
79
100
AcDbEntity
  8
ALPHA
100
AcDbLine
 10
86.931867
 20
89.161218
 30
0.0
 11
86.931867
 21
91.461218
 31
0.0
  0
LINE
  5
7A
100
AcDbEntity
  8
ALPHA
100
AcDbLine
 10
86.131867
 20
87.811218
 30
0.0
 11
86.131867
 21
87.361218
 31
0.0
  0
LINE
  5
7B
100
AcDbEntity
  8
ALPHA
100
AcDbLine
 10
86.131867
 20
104.561218
 30
0.0
 11
86.131867
 21
104.111218
 31
0.0
  0
LWPOLYLINE
  5
7C
100
AcDbEntity
  8
ALPHA
100
AcDbPolyline
 90
        5
 70
     0
 43
0.0
 10
87.47225
 20
101.915334
 10
87.476926
 20
101.835339
 10
87.480465
 20
101.736572
 10
87.482673
 20
101.624619
 10
87.483424
 20
101.505758
  0
LINE
  5
83
100
AcDbEntity
  8
ALPHA
100
AcDbLine
 10
87.47225
 20
101.915334
 30
0.0
 11
87.438878
 21
102.361218
 31
0.0
  0
LWPOLYLINE
  5
84
100
AcDbEntity
  8
ALPHA
100
AcDbPolyline
 90
        7
 70
     0
 43
0.0
 10
87.45722
 20
91.061218
 10
87.463967
 20
91.044363
 10
87.470363
 20
90.993785
 10
87.475753
 20
90.914701
 10
87.479896
 20
90.811806
 10
87.482543
 20
90.689792
 10
87.483424
 20
90.561218
  0
LINE
  5
8D
100
AcDbEntity
  8
ALPHA
100
AcDbLine
 10
84.931867
 20
88.261218
 30
0.0
 11
84.931867
 21
88.211218
 31
0.0
  0
LINE
  5
8E
100
AcDbEntity
  8
ALPHA
100
AcDbLine
 10
84.931867
 20
103.711218
 30
0.0
 11
84.931867
 21
103.661218
 31
0.0
  0
LINE
  5
8F
100
AcDbEntity
  8
ALPHA
100
AcDbLine
 10
88.531867
 20
88.261218
 30
0.0
 11
88.762807
 21
87.861218
 31
0.0
  0
LINE
  5
90
100
AcDbEntity
  8
ALPHA
100
AcDbLine
 10
88.762807
 20
104.061218
 30
0.0
 11
88.531867
 21
103.661218
 31
0.0
  0
LINE
  5
91
100
AcDbEntity
  8
ALPHA
100
AcDbLine
 10
98.131867
 20
102.464027
 30
0.0
 11
97.631867
 21
102.561218
 31
0.0
  0
LINE
  5
92
100
AcDbEntity
  8
ALPHA
100
AcDbLine
 10
67.331867
 20
105.361218
 30
0.0
 11
66.131867
 21
105.361218
 31
0.0
  0
LINE
  5
93
100
AcDbEntity
  8
ALPHA
100
AcDbLine
 10
49.031867
 20
104.861218
 30
0.0
 11
51.531867
 21
104.861218
 31
0.0
  0
LINE
  5
94
100
AcDbEntity
  8
ALPHA
100
AcDbLine
 10
67.331867
 20
104.861218
 30
0.0
 11
66.131867
 21
104.861218
 31
0.0
  0
LINE
  5
95
100
AcDbEntity
  8
ALPHA
100
AcDbLine
 10
43.731867
 20
104.836218
 30
0.0
 11
49.031867
 21
104.836218
 31
0.0
  0
LINE
  5
96
100
AcDbEntity
  8
ALPHA
100
AcDbLine
 10
51.531867
 20
104.733903
 30
0.0
 11
54.831867
 21
104.733903
 31
0.0
  0
LINE
  5
97
100
AcDbEntity
  8
ALPHA
100
AcDbLine
 10
70.131867
 20
104.561218
 30
0.0
 11
86.131867
 21
104.561218
 31
0.0
  0
LINE
  5
98
100
AcDbEntity
  8
ALPHA
100
AcDbLine
 10
54.831867
 20
104.332592
 30
0.0
 11
56.031867
 21
104.332592
 31
0.0
  0
LWPOLYLINE
  5
99
100
AcDbEntity
  8
ALPHA
100
AcDbPolyline
 90
        7
 70
     0
 43
0.0
 10
76.606514
 20
91.061218
 10
76.599767
 20
91.044363
 10
76.593371
 20
90.993785
 10
76.587981
 20
90.914701
 10
76.583838
 20
90.811806
 10
76.581191
 20
90.689792
 10
76.58031
 20
90.561218
  0
LINE
  5
A2
100
AcDbEntity
  8
ALPHA
100
AcDbLine
 10
78.331867
 20
103.661218
 30
0.0
 11
78.331867
 21
103.711218
 31
0.0
  0
LINE
  5
A3
100
AcDbEntity
  8
ALPHA
100
AcDbLine
 10
78.331867
 20
88.211218
 30
0.0
 11
78.331867
 21
88.261218
 31
0.0
  0
LINE
  5
A4
100
AcDbEntity
  8
ALPHA
100
AcDbLine
 10
98.131867
 20
98.664027
 30
0.0
 11
97.631867
 21
98.761218
 31
0.0
  0
LINE
  5
A5
100
AcDbEntity
  8
ALPHA
100
AcDbLine
 10
98.031867
 20
98.663054
 30
0.0
 11
97.531867
 21
98.751218
 31
0.0
  0
LINE
  5
A6
100
AcDbEntity
  8
ALPHA
100
AcDbLine
 10
68.131867
 20
104.236218
 30
0.0
 11
70.131867
 21
104.236218
 31
0.0
  0
LINE
  5
A7
100
AcDbEntity
  8
ALPHA
100
AcDbLine
 10
90.331867
 20
104.061218
 30
0.0
 11
88.762807
 21
104.061218
 31
0.0
  0
LINE
  5
A8
100
AcDbEntity
  8
ALPHA
100
AcDbLine
 10
61.531867
 20
103.961218
 30
0.0
 11
56.031867
 21
103.961218
 31
0.0
  0
LINE
  5
A9
100
AcDbEntity
  8
ALPHA
100
AcDbLine
 10
68.031867
 20
103.861218
 30
0.0
 11
68.131867
 21
103.861218
 31
0.0
  0
LINE
  5
AA
100
AcDbEntity
  8
ALPHA
100
AcDbLine
 10
70.131867
 20
103.711218
 30
0.0
 11
85.439047
 21
103.711218
 31
0.0
  0
LINE
  5
AB
100
AcDbEntity
  8
ALPHA
100
AcDbLine
 10
90.331867
 20
103.661218
 30
0.0
 11
74.331867
 21
103.661218
 31
0.0
  0
LINE
  5
AC
100
AcDbEntity
  8
ALPHA
100
AcDbLine
 10
51.531867
 20
103.655921
 30
0.0
 11
56.031867
 21
103.655921
 31
0.0
  0
LINE
  5
AD
100
AcDbEntity
  8
ALPHA
100
AcDbLine
 10
42.831867
 20
103.551218
 30
0.0
 11
41.758569
 21
103.551218
 31
0.0
  0
LINE
  5
AE
100
AcDbEntity
  8
ALPHA
100
AcDbLine
 10
51.531867
 20
103.491492
 30
0.0
 11
56.031867
 21
103.491492
 31
0.0
  0
LINE
  5
AF
100
AcDbEntity
  8
ALPHA
100
AcDbLine
 10
42.831867
 20
103.351218
 30
0.0
 11
42.930616
 21
103.351218
 31
0.0
  0
LINE
  5
B0
100
AcDbEntity
  8
ALPHA
100
AcDbLine
 10
62.156867
 20
103.336218
 30
0.0
 11
56.031867
 21
103.336218
 31
0.0
  0
LINE
  5
B1
100
AcDbEntity
  8
ALPHA
100
AcDbLine
 10
63.031867
 20
103.336218
 30
0.0
 11
62.156867
 21
103.336218
 31
0.0
  0
LINE
  5
B2
100
AcDbEntity
  8
ALPHA
100
AcDbLine
 10
42.901962
 20
103.282973
 30
0.0
 11
42.831867
 21
103.282973
 31
0.0
  0
LINE
  5
B3
100
AcDbEntity
  8
ALPHA
100
AcDbLine
 10
65.531867
 20
103.220737
 30
0.0
 11
63.031867
 21
103.220737
 31
0.0
  0
LINE
  5
B4
100
AcDbEntity
  8
ALPHA
100
AcDbLine
 10
66.131867
 20
103.205224
 30
0.0
 11
67.331867
 21
103.205224
 31
0.0
  0
LINE
  5
B5
100
AcDbEntity
  8
ALPHA
100
AcDbLine
 10
66.131867
 20
102.911218
 30
0.0
 11
65.531867
 21
102.911218
 31
0.0
  0
LINE
  5
B6
100
AcDbEntity
  8
ALPHA
100
AcDbLine
 10
74.131867
 20
102.911218
 30
0.0
 11
73.731867
 21
102.911218
 31
0.0
  0
LINE
  5
B7
100
AcDbEntity
  8
ALPHA
100
AcDbLine
 10
51.531867
 20
102.795556
 30
0.0
 11
56.031867
 21
102.795556
 31
0.0
  0
LINE
  5
B8
100
AcDbEntity
  8
ALPHA
100
AcDbLine
 10
74.331867
 20
102.786218
 30
0.0
 11
73.831867
 21
102.786218
 31
0.0
  0
LINE
  5
B9
100
AcDbEntity
  8
ALPHA
100
AcDbLine
 10
90.331867
 20
102.759654
 30
0.0
 11
73.731867
 21
102.761218
 31
0.0
  0
LINE
  5
BA
100
AcDbEntity
  8
ALPHA
100
AcDbLine
 10
97.631867
 20
102.561218
 30
0.0
 11
90.331867
 21
102.561218
 31
0.0
  0
LINE
  5
BB
100
AcDbEntity
  8
ALPHA
100
AcDbLine
 10
87.417915
 20
102.361218
 30
0.0
 11
89.145819
 21
102.361218
 31
0.0
  0
LINE
  5
BC
100
AcDbEntity
  8
ALPHA
100
AcDbLine
 10
74.917915
 20
102.361218
 30
0.0
 11
76.645819
 21
102.361218
 31
0.0
  0
LINE
  5
BD
100
AcDbEntity
  8
ALPHA
100
AcDbLine
 10
41.716603
 20
102.353955
 30
0.0
 11
42.389444
 21
102.353955
 31
0.0
  0
LWPOLYLINE
  5
BE
100
AcDbEntity
  8
ALPHA
100
AcDbPolyline
 90
       15
 70
     0
 43
0.0
 10
41.716603
 20
102.353955
 10
41.695343
 20
102.352822
 10
41.674297
 20
102.34943
 10
41.654827
 20
102.344176
 10
41.635223
 20
102.33665
 10
41.618023
 20
102.327973
 10
41.601208
 20
102.317308
 10
41.585133
 20
102.304672
 10
41.571786
 20
102.291898
 10
41.55895
 20
102.277023
 10
41.546957
 20
102.259881
 10
41.537676
 20
102.243315
 10
41.529808
 20
102.225423
 10
41.523478
 20
102.205945
 10
41.519039
 20
102.185075
  0
LINE
  5
CF
100
AcDbEntity
  8
ALPHA
100
AcDbLine
 10
76.624856
 20
102.361218
 30
0.0
 11
76.591484
 21
101.915334
 31
0.0
  0
LWPOLYLINE
  5
D0
100
AcDbEntity
  8
ALPHA
100
AcDbPolyline
 90
        5
 70
     0
 43
0.0
 10
76.591484
 20
101.915334
 10
76.586808
 20
101.835339
 10
76.583269
 20
101.736572
 10
76.581061
 20
101.624619
 10
76.58031
 20
101.505758
  0
LINE
  5
D7
100
AcDbEntity
  8
ALPHA
100
AcDbLine
 10
77.231867
 20
100.461218
 30
0.0
 11
77.231867
 21
102.761218
 31
0.0
  0
LINE
  5
D8
100
AcDbEntity
  8
ALPHA
100
AcDbLine
 10
77.231867
 20
89.161218
 30
0.0
 11
77.231867
 21
91.461218
 31
0.0
  0
LINE
  5
D9
100
AcDbEntity
  8
ALPHA
100
AcDbLine
 10
76.831867
 20
100.861218
 30
0.0
 11
76.831867
 21
101.961218
 31
0.0
  0
LINE
  5
DA
100
AcDbEntity
  8
ALPHA
100
AcDbLine
 10
76.831867
 20
89.961218
 30
0.0
 11
76.831867
 21
91.061218
 31
0.0
  0
LINE
  5
DB
100
AcDbEntity
  8
ALPHA
100
AcDbLine
 10
76.645819
 20
101.861218
 30
0.0
 11
76.645819
 21
102.361218
 31
0.0
  0
LINE
  5
DC
100
AcDbEntity
  8
ALPHA
100
AcDbLine
 10
76.645819
 20
89.561218
 30
0.0
 11
76.645819
 21
90.061218
 31
0.0
  0
LINE
  5
DD
100
AcDbEntity
  8
ALPHA
100
AcDbLine
 10
76.58031
 20
90.561218
 30
0.0
 11
76.58031
 21
90.416678
 31
0.0
  0
LINE
  5
DE
100
AcDbEntity
  8
ALPHA
100
AcDbLine
 10
76.58031
 20
101.505758
 30
0.0
 11
76.58031
 21
101.361218
 31
0.0
  0
LWPOLYLINE
  5
DF
100
AcDbEntity
  8
ALPHA
100
AcDbPolyline
 90
        5
 70
     0
 43
0.0
 10
76.58031
 20
90.416678
 10
76.581061
 20
90.297817
 10
76.583269
 20
90.185864
 10
76.586808
 20
90.087096
 10
76.591484
 20
90.007102
  0
LWPOLYLINE
  5
E6
100
AcDbEntity
  8
ALPHA
100
AcDbPolyline
 90
        7
 70
     0
 43
0.0
 10
76.58031
 20
101.361218
 10
76.581191
 20
101.232644
 10
76.583838
 20
101.110629
 10
76.587981
 20
101.007734
 10
76.593371
 20
100.928651
 10
76.599767
 20
100.878073
 10
76.606514
 20
100.861218
  0
LINE
  5
EF
100
AcDbEntity
  8
ALPHA
100
AcDbLine
 10
76.591484
 20
90.007102
 30
0.0
 11
76.624856
 21
89.561218
 31
0.0
  0
LINE
  5
F0
100
AcDbEntity
  8
ALPHA
100
AcDbLine
 10
97.631867
 20
102.061218
 30
0.0
 11
90.331867
 21
102.061218
 31
0.0
  0
LINE
  5
F1
100
AcDbEntity
  8
ALPHA
100
AcDbLine
 10
74.917915
 20
101.961218
 30
0.0
 11
74.531867
 21
101.961218
 31
0.0
  0
LINE
  5
F2
100
AcDbEntity
  8
ALPHA
100
AcDbLine
 10
77.231867
 20
101.961218
 30
0.0
 11
76.645819
 21
101.961218
 31
0.0
  0
LINE
  5
F3
100
AcDbEntity
  8
ALPHA
100
AcDbLine
 10
87.417915
 20
101.961218
 30
0.0
 11
86.931867
 21
101.961218
 31
0.0
  0
LINE
  5
F4
100
AcDbEntity
  8
ALPHA
100
AcDbLine
 10
89.531867
 20
101.961218
 30
0.0
 11
89.145819
 21
101.961218
 31
0.0
  0
LINE
  5
F5
100
AcDbEntity
  8
ALPHA
100
AcDbLine
 10
89.145819
 20
101.861218
 30
0.0
 11
89.531867
 21
101.861218
 31
0.0
  0
LINE
  5
F6
100
AcDbEntity
  8
ALPHA
100
AcDbLine
 10
74.531867
 20
101.861218
 30
0.0
 11
74.917915
 21
101.861218
 31
0.0
  0
LINE
  5
F7
100
AcDbEntity
  8
ALPHA
100
AcDbLine
 10
76.831867
 20
101.861218
 30
0.0
 11
76.645819
 21
101.861218
 31
0.0
  0
LINE
  5
F8
100
AcDbEntity
  8
ALPHA
100
AcDbLine
 10
87.417915
 20
101.861218
 30
0.0
 11
87.231867
 21
101.861218
 31
0.0
  0
LINE
  5
F9
100
AcDbEntity
  8
ALPHA
100
AcDbLine
 10
51.531867
 20
101.662254
 30
0.0
 11
56.031867
 21
101.662254
 31
0.0
  0
LINE
  5
FA
100
AcDbEntity
  8
ALPHA
100
AcDbLine
 10
67.331867
 20
101.561218
 30
0.0
 11
66.131867
 21
101.561218
 31
0.0
  0
LINE
  5
FB
100
AcDbEntity
  8
ALPHA
100
AcDbLine
 10
51.531867
 20
101.54712
 30
0.0
 11
56.031867
 21
101.54712
 31
0.0
  0
LINE
  5
FC
100
AcDbEntity
  8
ALPHA
100
AcDbLine
 10
67.331867
 20
101.061218
 30
0.0
 11
66.131867
 21
101.061218
 31
0.0
  0
LINE
  5
FD
100
AcDbEntity
  8
ALPHA
100
AcDbLine
 10
68.031867
 20
100.885964
 30
0.0
 11
68.131867
 21
100.885964
 31
0.0
  0
LINE
  5
FE
100
AcDbEntity
  8
ALPHA
100
AcDbLine
 10
87.231867
 20
100.861218
 30
0.0
 11
89.331867
 21
100.861218
 31
0.0
  0
LINE
  5
FF
100
AcDbEntity
  8
ALPHA
100
AcDbLine
 10
74.731867
 20
100.861218
 30
0.0
 11
76.831867
 21
100.861218
 31
0.0
  0
LINE
  5
100
100
AcDbEntity
  8
ALPHA
100
AcDbLine
 10
77.231867
 20
100.461218
 30
0.0
 11
74.531867
 21
100.461218
 31
0.0
  0
LINE
  5
101
100
AcDbEntity
  8
ALPHA
100
AcDbLine
 10
89.531867
 20
100.461218
 30
0.0
 11
86.931867
 21
100.461218
 31
0.0
  0
LINE
  5
102
100
AcDbEntity
  8
ALPHA
100
AcDbLine
 10
51.531867
 20
100.433526
 30
0.0
 11
56.031867
 21
100.433526
 31
0.0
  0
LWPOLYLINE
  5
103
100
AcDbEntity
  8
ALPHA
100
AcDbPolyline
 90
        4
 70
     0
 43
0.0
 10
65.4152
 20
88.942951
 10
65.469597
 20
88.961604
 10
65.523766
 20
88.98069
 10
65.5777
 20
89.000205
  0
LWPOLYLINE
  5
109
100
AcDbEntity
  8
ALPHA
100
AcDbPolyline
 90
        3
 70
     0
 43
0.0
 10
65.388117
 20
89.015244
 10
65.428813
 20
89.030603
 10
65.469367
 20
89.046205
  0
LWPOLYLINE
  5
10E
100
AcDbEntity
  8
ALPHA
100
AcDbPolyline
 90
        4
 70
     0
 43
0.0
 10
65.388117
 20
89.227975
 10
65.415267
 20
89.238513
 10
65.442351
 20
89.249161
 10
65.469367
 20
89.259919
  0
LWPOLYLINE
  5
114
100
AcDbEntity
  8
ALPHA
100
AcDbPolyline
 90
        4
 70
     0
 43
0.0
 10
65.550617
 20
88.777833
 10
65.577764
 20
88.791294
 10
65.604848
 20
88.805199
 10
65.631867
 20
88.819547
  0
LINE
  5
11A
100
AcDbEntity
  8
ALPHA
100
AcDbLine
 10
66.119367
 20
88.929355
 30
0.0
 11
66.131867
 21
88.93563
 31
0.0
  0
LINE
  5
11B
100
AcDbEntity
  8
ALPHA
100
AcDbLine
 10
74.97225
 20
90.007102
 30
0.0
 11
74.938878
 21
89.561218
 31
0.0
  0
LWPOLYLINE
  5
11C
100
AcDbEntity
  8
ALPHA
100
AcDbPolyline
 90
        7
 70
     0
 43
0.0
 10
74.983424
 20
101.361218
 10
74.982543
 20
101.232644
 10
74.979896
 20
101.110629
 10
74.975753
 20
101.007734
 10
74.970363
 20
100.928651
 10
74.963967
 20
100.878073
 10
74.95722
 20
100.861218
  0
LWPOLYLINE
  5
125
100
AcDbEntity
  8
ALPHA
100
AcDbPolyline
 90
        5
 70
     0
 43
0.0
 10
74.983424
 20
90.416678
 10
74.982673
 20
90.297817
 10
74.980465
 20
90.185864
 10
74.976926
 20
90.087096
 10
74.97225
 20
90.007102
  0
LINE
  5
12C
100
AcDbEntity
  8
ALPHA
100
AcDbLine
 10
74.983424
 20
90.561218
 30
0.0
 11
74.983424
 21
90.416678
 31
0.0
  0
LINE
  5
12D
100
AcDbEntity
  8
ALPHA
100
AcDbLine
 10
74.983424
 20
101.505758
 30
0.0
 11
74.983424
 21
101.361218
 31
0.0
  0
LINE
  5
12E
100
AcDbEntity
  8
ALPHA
100
AcDbLine
 10
74.917915
 20
101.861218
 30
0.0
 11
74.917915
 21
102.361218
 31
0.0
  0
LINE
  5
12F
100
AcDbEntity
  8
ALPHA
100
AcDbLine
 10
74.917915
 20
89.561218
 30
0.0
 11
74.917915
 21
90.061218
 31
0.0
  0
LINE
  5
130
100
AcDbEntity
  8
ALPHA
100
AcDbLine
 10
74.731867
 20
100.861218
 30
0.0
 11
74.731867
 21
101.861218
 31
0.0
  0
LINE
  5
131
100
AcDbEntity
  8
ALPHA
100
AcDbLine
 10
74.731867
 20
90.061218
 30
0.0
 11
74.731867
 21
91.061218
 31
0.0
  0
LINE
  5
132
100
AcDbEntity
  8
ALPHA
100
AcDbLine
 10
74.531867
 20
100.461218
 30
0.0
 11
74.531867
 21
102.761218
 31
0.0
  0
LINE
  5
133
100
AcDbEntity
  8
ALPHA
100
AcDbLine
 10
74.531867
 20
89.161218
 30
0.0
 11
74.531867
 21
91.461218
 31
0.0
  0
LINE
  5
134
100
AcDbEntity
  8
ALPHA
100
AcDbLine
 10
74.331867
 20
89.136218
 30
0.0
 11
74.331867
 21
88.261218
 31
0.0
  0
LINE
  5
135
100
AcDbEntity
  8
ALPHA
100
AcDbLine
 10
74.331867
 20
103.661218
 30
0.0
 11
74.331867
 21
102.786218
 31
0.0
  0
LINE
  5
136
100
AcDbEntity
  8
ALPHA
100
AcDbLine
 10
74.131867
 20
102.911218
 30
0.0
 11
74.131867
 21
103.711218
 31
0.0
  0
LINE
  5
137
100
AcDbEntity
  8
ALPHA
100
AcDbLine
 10
74.131867
 20
93.311218
 30
0.0
 11
74.131867
 21
98.611218
 31
0.0
  0
LINE
  5
138
100
AcDbEntity
  8
ALPHA
100
AcDbLine
 10
74.131867
 20
88.211218
 30
0.0
 11
74.131867
 21
89.011218
 31
0.0
  0
LWPOLYLINE
  5
139
100
AcDbEntity
  8
ALPHA
100
AcDbPolyline
 90
        5
 70
     0
 43
0.0
 10
74.97225
 20
101.915334
 10
74.976926
 20
101.835339
 10
74.980465
 20
101.736572
 10
74.982673
 20
101.624619
 10
74.983424
 20
101.505758
  0
LINE
  5
140
100
AcDbEntity
  8
ALPHA
100
AcDbLine
 10
74.938878
 20
102.361218
 30
0.0
 11
74.97225
 21
101.915334
 31
0.0
  0
LWPOLYLINE
  5
141
100
AcDbEntity
  8
ALPHA
100
AcDbPolyline
 90
        7
 70
     0
 43
0.0
 10
74.95722
 20
91.061218
 10
74.963967
 20
91.044363
 10
74.970363
 20
90.993785
 10
74.975753
 20
90.914701
 10
74.979896
 20
90.811806
 10
74.982543
 20
90.689792
 10
74.983424
 20
90.561218
  0
LINE
  5
14A
100
AcDbEntity
  8
ALPHA
100
AcDbLine
 10
98.131867
 20
93.564027
 30
0.0
 11
97.631867
 21
93.661218
 31
0.0
  0
LINE
  5
14B
100
AcDbEntity
  8
ALPHA
100
AcDbLine
 10
98.031867
 20
93.583054
 30
0.0
 11
97.531867
 21
93.671218
 31
0.0
  0
LINE
  5
14C
100
AcDbEntity
  8
ALPHA
100
AcDbLine
 10
67.331867
 20
99.861218
 30
0.0
 11
66.131867
 21
99.861218
 31
0.0
  0
LINE
  5
14D
100
AcDbEntity
  8
ALPHA
100
AcDbLine
 10
68.131867
 20
99.861218
 30
0.0
 11
68.031867
 21
99.861218
 31
0.0
  0
LINE
  5
14E
100
AcDbEntity
  8
ALPHA
100
AcDbLine
 10
61.531867
 20
99.177485
 30
0.0
 11
56.031867
 21
99.177485
 31
0.0
  0
LINE
  5
14F
100
AcDbEntity
  8
ALPHA
100
AcDbLine
 10
67.331867
 20
99.149967
 30
0.0
 11
67.031867
 21
99.149967
 31
0.0
  0
LINE
  5
150
100
AcDbEntity
  8
ALPHA
100
AcDbLine
 10
54.831867
 20
98.982823
 30
0.0
 11
56.031867
 21
98.982823
 31
0.0
  0
LINE
  5
151
100
AcDbEntity
  8
ALPHA
100
AcDbLine
 10
90.398375
 20
98.761218
 30
0.0
 11
97.631867
 21
98.761218
 31
0.0
  0
LINE
  5
152
100
AcDbEntity
  8
ALPHA
100
AcDbLine
 10
97.531867
 20
98.751218
 30
0.0
 11
90.331867
 21
98.751218
 31
0.0
  0
LINE
  5
153
100
AcDbEntity
  8
ALPHA
100
AcDbLine
 10
54.831867
 20
98.711218
 30
0.0
 11
56.031867
 21
98.711218
 31
0.0
  0
LINE
  5
154
100
AcDbEntity
  8
ALPHA
100
AcDbLine
 10
74.131867
 20
98.611218
 30
0.0
 11
73.731867
 21
98.611218
 31
0.0
  0
LINE
  5
155
100
AcDbEntity
  8
ALPHA
100
AcDbLine
 10
97.631867
 20
98.261218
 30
0.0
 11
97.58858
 21
98.261218
 31
0.0
  0
LINE
  5
156
100
AcDbEntity
  8
ALPHA
100
AcDbLine
 10
90.331867
 20
98.251218
 30
0.0
 11
97.531867
 21
98.251218
 31
0.0
  0
LWPOLYLINE
  5
157
100
AcDbEntity
  8
ALPHA
100
AcDbPolyline
 90
        4
 70
     0
 43
0.0
 10
64.873534
 20
89.380705
 10
64.918913
 20
89.402528
 10
64.964053
 20
89.424585
 10
65.00895
 20
89.446873
  0
LWPOLYLINE
  5
15D
100
AcDbEntity
  8
ALPHA
100
AcDbPolyline
 90
        3
 70
     0
 43
0.0
 10
64.954784
 20
89.297306
 10
64.995505
 20
89.317698
 10
65.036034
 20
89.338328
  0
LWPOLYLINE
  5
162
100
AcDbEntity
  8
ALPHA
100
AcDbPolyline
 90
        3
 70
     0
 43
0.0
 10
65.469367
 20
89.046205
 10
65.496492
 20
89.062156
 10
65.523534
 20
89.078358
  0
LWPOLYLINE
  5
167
100
AcDbEntity
  8
ALPHA
100
AcDbPolyline
 90
        4
 70
     0
 43
0.0
 10
66.038117
 20
89.380705
 10
66.074404
 20
89.402518
 10
66.110516
 20
89.424575
 10
66.131867
 20
89.437824
  0
LINE
  5
16D
100
AcDbEntity
  8
ALPHA
100
AcDbLine
 10
65.469367
 20
89.259919
 30
0.0
 11
65.491231
 21
89.273175
 31
0.0
  0
LWPOLYLINE
  5
16E
100
AcDbEntity
  8
ALPHA
100
AcDbPolyline
 90
        3
 70
     0
 43
0.0
 10
65.469367
 20
88.819547
 10
65.496489
 20
88.836325
 10
65.523534
 20
88.853668
  0
LWPOLYLINE
  5
173
100
AcDbEntity
  8
ALPHA
100
AcDbPolyline
 90
        4
 70
     0
 43
0.0
 10
65.956867
 20
88.942951
 10
65.984039
 20
88.961586
 10
66.011124
 20
88.980671
 10
66.038117
 20
89.000205
  0
LINE
  5
179
100
AcDbEntity
  8
ALPHA
100
AcDbLine
 10
66.119367
 20
89.277296
 30
0.0
 11
66.131867
 21
89.286532
 31
0.0
  0
LINE
  5
17A
100
AcDbEntity
  8
ALPHA
100
AcDbLine
 10
73.831867
 20
89.161218
 30
0.0
 11
73.831867
 21
89.136218
 31
0.0
  0
LINE
  5
17B
100
AcDbEntity
  8
ALPHA
100
AcDbLine
 10
73.831867
 20
102.786218
 30
0.0
 11
73.831867
 21
102.761218
 31
0.0
  0
LINE
  5
17C
100
AcDbEntity
  8
ALPHA
100
AcDbLine
 10
73.731867
 20
93.311218
 30
0.0
 11
73.731867
 21
89.011218
 31
0.0
  0
LINE
  5
17D
100
AcDbEntity
  8
ALPHA
100
AcDbLine
 10
73.731867
 20
102.911218
 30
0.0
 11
73.731867
 21
98.611218
 31
0.0
  0
LINE
  5
17E
100
AcDbEntity
  8
ALPHA
100
AcDbLine
 10
85.439047
 20
88.211218
 30
0.0
 11
86.131867
 21
87.811218
 31
0.0
  0
LINE
  5
17F
100
AcDbEntity
  8
ALPHA
100
AcDbLine
 10
51.531867
 20
97.461218
 30
0.0
 11
54.831867
 21
97.461218
 31
0.0
  0
LINE
  5
180
100
AcDbEntity
  8
ALPHA
100
AcDbLine
 10
98.131867
 20
102.158408
 30
0.0
 11
97.631867
 21
102.061218
 31
0.0
  0
LINE
  5
181
100
AcDbEntity
  8
ALPHA
100
AcDbLine
 10
86.131867
 20
104.111218
 30
0.0
 11
85.439047
 21
103.711218
 31
0.0
  0
LINE
  5
182
100
AcDbEntity
  8
ALPHA
100
AcDbLine
 10
62.156867
 20
89.65781
 30
0.0
 11
61.531867
 21
89.20393
 31
0.0
  0
LWPOLYLINE
  5
183
100
AcDbEntity
  8
ALPHA
100
AcDbPolyline
 90
        4
 70
     0
 43
0.0
 10
65.956867
 20
89.297306
 10
65.984085
 20
89.324642
 10
66.01117
 20
89.352443
 10
66.038117
 20
89.380705
  0
LWPOLYLINE
  5
189
100
AcDbEntity
  8
ALPHA
100
AcDbPolyline
 90
        4
 70
     0
 43
0.0
 10
64.792284
 20
89.297306
 10
64.819502
 20
89.324642
 10
64.846587
 20
89.352443
 10
64.873534
 20
89.380705
  0
LWPOLYLINE
  5
18F
100
AcDbEntity
  8
ALPHA
100
AcDbPolyline
 90
        4
 70
     0
 43
0.0
 10
65.631867
 20
88.819547
 10
65.649975
 20
88.838255
 10
65.668031
 20
88.857669
 10
65.686034
 20
88.877784
  0
LWPOLYLINE
  5
195
100
AcDbEntity
  8
ALPHA
100
AcDbPolyline
 90
        4
 70
     0
 43
0.0
 10
65.956867
 20
89.519346
 10
65.984095
 20
89.547637
 10
66.011179
 20
89.576409
 10
66.01588
 20
89.581513
  0
LWPOLYLINE
  5
19B
100
AcDbEntity
  8
ALPHA
100
AcDbPolyline
 90
        4
 70
     0
 43
0.0
 10
64.792284
 20
89.519346
 10
64.819512
 20
89.547637
 10
64.846596
 20
89.576409
 10
64.851297
 20
89.581513
  0
LWPOLYLINE
  5
1A1
100
AcDbEntity
  8
ALPHA
100
AcDbPolyline
 90
        8
 70
     0
 43
0.0
 10
64.088117
 20
88.740371
 10
64.152688
 20
88.808753
 10
64.21656
 20
88.889389
 10
64.279613
 20
88.982107
 10
64.341737
 20
89.086717
 10
64.402823
 20
89.203005
 10
64.462763
 20
89.330734
 10
64.52145
 20
89.469637
  0
LWPOLYLINE
  5
1AB
100
AcDbEntity
  8
ALPHA
100
AcDbPolyline
 90
        3
 70
     0
 43
0.0
 10
64.900617
 20
89.238263
 10
64.92777
 20
89.267491
 10
64.954784
 20
89.297306
  0
LWPOLYLINE
  5
1B0
100
AcDbEntity
  8
ALPHA
100
AcDbPolyline
 90
        5
 70
     0
 43
0.0
 10
63.979784
 20
88.777833
 10
64.041925
 20
88.852295
 10
64.103338
 20
88.938652
 10
64.163911
 20
89.036725
 10
64.223534
 20
89.146306
  0
LWPOLYLINE
  5
1B7
100
AcDbEntity
  8
ALPHA
100
AcDbPolyline
 90
        3
 70
     0
 43
0.0
 10
65.523534
 20
88.853668
 10
65.537094
 20
88.871676
 10
65.550617
 20
88.890257
  0
LWPOLYLINE
  5
1BC
100
AcDbEntity
  8
ALPHA
100
AcDbPolyline
 90
        3
 70
     0
 43
0.0
 10
66.092284
 20
88.890257
 10
66.105845
 20
88.909518
 10
66.119367
 20
88.929355
  0
LWPOLYLINE
  5
1C1
100
AcDbEntity
  8
ALPHA
100
AcDbPolyline
 90
        3
 70
     0
 43
0.0
 10
65.929784
 20
88.903009
 10
65.943345
 20
88.922692
 10
65.956867
 20
88.942951
  0
LINE
  5
1C6
100
AcDbEntity
  8
ALPHA
100
AcDbLine
 10
65.929784
 20
89.112254
 30
0.0
 11
65.939755
 21
89.127119
 31
0.0
  0
LINE
  5
1C7
100
AcDbEntity
  8
ALPHA
100
AcDbLine
 10
70.131867
 20
87.361218
 30
0.0
 11
70.131867
 21
104.561218
 31
0.0
  0
LINE
  5
1C8
100
AcDbEntity
  8
ALPHA
100
AcDbLine
 10
62.156867
 20
103.336218
 30
0.0
 11
61.531867
 21
103.961218
 31
0.0
  0
LINE
  5
1C9
100
AcDbEntity
  8
ALPHA
100
AcDbLine
 10
98.131867
 20
89.764027
 30
0.0
 11
97.631867
 21
89.861218
 31
0.0
  0
LINE
  5
1CA
100
AcDbEntity
  8
ALPHA
100
AcDbLine
 10
51.531867
 20
94.461218
 30
0.0
 11
54.831867
 21
94.461218
 31
0.0
  0
LINE
  5
1CB
100
AcDbEntity
  8
ALPHA
100
AcDbLine
 10
61.531867
 20
91.678804
 30
0.0
 11
62.156867
 21
92.132683
 31
0.0
  0
LINE
  5
1CC
100
AcDbEntity
  8
ALPHA
100
AcDbLine
 10
62.156867
 20
88.586218
 30
0.0
 11
61.531867
 21
87.961218
 31
0.0
  0
LWPOLYLINE
  5
1CD
100
AcDbEntity
  8
ALPHA
100
AcDbPolyline
 90
        3
 70
     0
 43
0.0
 10
63.979784
 20
88.983323
 10
64.042008
 20
89.060113
 10
64.101477
 20
89.146306
  0
LWPOLYLINE
  5
1D2
100
AcDbEntity
  8
ALPHA
100
AcDbPolyline
 90
        4
 70
     0
 43
0.0
 10
64.738117
 20
89.200527
 10
64.756264
 20
89.232046
 10
64.774321
 20
89.264308
 10
64.792284
 20
89.297306
  0
LWPOLYLINE
  5
1D8
100
AcDbEntity
  8
ALPHA
100
AcDbPolyline
 90
        4
 70
     0
 43
0.0
 10
64.738117
 20
89.41928
 10
64.756271
 20
89.451871
 10
64.774327
 20
89.485227
 10
64.792284
 20
89.519346
  0
LWPOLYLINE
  5
1DE
100
AcDbEntity
  8
ALPHA
100
AcDbPolyline
 90
        3
 70
     0
 43
0.0
 10
65.523534
 20
89.078358
 10
65.537101
 20
89.103313
 10
65.550617
 20
89.128858
  0
LWPOLYLINE
  5
1E3
100
AcDbEntity
  8
ALPHA
100
AcDbPolyline
 90
        3
 70
     0
 43
0.0
 10
64.873534
 20
89.182138
 10
64.887105
 20
89.209901
 10
64.900617
 20
89.238263
  0
LWPOLYLINE
  5
1E8
100
AcDbEntity
  8
ALPHA
100
AcDbPolyline
 90
        3
 70
     0
 43
0.0
 10
66.092284
 20
89.219234
 10
66.105856
 20
89.247965
 10
66.119367
 20
89.277296
  0
LWPOLYLINE
  5
1ED
100
AcDbEntity
  8
ALPHA
100
AcDbPolyline
 90
        3
 70
     0
 43
0.0
 10
65.929784
 20
89.238263
 10
65.943356
 20
89.267483
 10
65.956867
 20
89.297306
  0
LWPOLYLINE
  5
1F2
100
AcDbEntity
  8
ALPHA
100
AcDbPolyline
 90
        4
 70
     0
 43
0.0
 10
65.929784
 20
89.458286
 10
65.938841
 20
89.478362
 10
65.947869
 20
89.498716
 10
65.956867
 20
89.519346
  0
LWPOLYLINE
  5
1F8
100
AcDbEntity
  8
ALPHA
100
AcDbPolyline
 90
        4
 70
     0
 43
0.0
 10
65.550617
 20
88.890257
 10
65.559679
 20
88.916142
 10
65.568708
 20
88.943059
 10
65.5777
 20
88.971001
  0
LWPOLYLINE
  5
1FE
100
AcDbEntity
  8
ALPHA
100
AcDbPolyline
 90
        4
 70
     0
 43
0.0
 10
65.686034
 20
88.877784
 10
65.695101
 20
88.907456
 10
65.70413
 20
88.938531
 10
65.713117
 20
88.971001
  0
LINE
  5
204
100
AcDbEntity
  8
ALPHA
100
AcDbLine
 10
68.131867
 20
91.036471
 30
0.0
 11
68.131867
 21
100.885964
 31
0.0
  0
LINE
  5
205
100
AcDbEntity
  8
ALPHA
100
AcDbLine
 10
68.131867
 20
104.236218
 30
0.0
 11
68.131867
 21
103.861218
 31
0.0
  0
LINE
  5
206
100
AcDbEntity
  8
ALPHA
100
AcDbLine
 10
68.031867
 20
86.82213
 30
0.0
 11
68.031867
 21
104.211218
 31
0.0
  0
LINE
  5
207
100
AcDbEntity
  8
ALPHA
100
AcDbLine
 10
97.531867
 20
93.671218
 30
0.0
 11
90.331867
 21
93.671218
 31
0.0
  0
LINE
  5
208
100
AcDbEntity
  8
ALPHA
100
AcDbLine
 10
97.631867
 20
93.661218
 30
0.0
 11
97.58858
 21
93.661218
 31
0.0
  0
LINE
  5
209
100
AcDbEntity
  8
ALPHA
100
AcDbLine
 10
74.131867
 20
93.311218
 30
0.0
 11
73.731867
 21
93.311218
 31
0.0
  0
LINE
  5
20A
100
AcDbEntity
  8
ALPHA
100
AcDbLine
 10
54.831867
 20
93.211218
 30
0.0
 11
56.031867
 21
93.211218
 31
0.0
  0
LINE
  5
20B
100
AcDbEntity
  8
ALPHA
100
AcDbLine
 10
90.331867
 20
93.171218
 30
0.0
 11
97.531867
 21
93.171218
 31
0.0
  0
LINE
  5
20C
100
AcDbEntity
  8
ALPHA
100
AcDbLine
 10
90.398375
 20
93.161218
 30
0.0
 11
97.631867
 21
93.161218
 31
0.0
  0
LINE
  5
20D
100
AcDbEntity
  8
ALPHA
100
AcDbLine
 10
54.831867
 20
92.939613
 30
0.0
 11
56.031867
 21
92.939613
 31
0.0
  0
LINE
  5
20E
100
AcDbEntity
  8
ALPHA
100
AcDbLine
 10
67.331867
 20
92.772468
 30
0.0
 11
67.031867
 21
92.772468
 31
0.0
  0
LINE
  5
20F
100
AcDbEntity
  8
ALPHA
100
AcDbLine
 10
61.531867
 20
92.74495
 30
0.0
 11
56.031867
 21
92.74495
 31
0.0
  0
LINE
  5
210
100
AcDbEntity
  8
ALPHA
100
AcDbLine
 10
98.031867
 20
98.339381
 30
0.0
 11
97.531867
 21
98.251218
 31
0.0
  0
LINE
  5
211
100
AcDbEntity
  8
ALPHA
100
AcDbLine
 10
98.131867
 20
98.358408
 30
0.0
 11
97.631867
 21
98.261218
 31
0.0
  0
LWPOLYLINE
  5
212
100
AcDbEntity
  8
ALPHA
100
AcDbPolyline
 90
        4
 70
     0
 43
0.0
 10
64.250617
 20
89.219234
 10
64.287199
 20
89.298358
 10
64.323319
 20
89.381851
 10
64.35895
 20
89.469637
  0
LWPOLYLINE
  5
218
100
AcDbEntity
  8
ALPHA
100
AcDbPolyline
 90
        3
 70
     0
 43
0.0
 10
64.250617
 20
89.438615
 10
64.287233
 20
89.520513
 10
64.31273
 20
89.581513
  0
LINE
  5
21D
100
AcDbEntity
  8
ALPHA
100
AcDbLine
 10
67.331867
 20
86.82213
 30
0.0
 11
67.331867
 21
105.361218
 31
0.0
  0
LINE
  5
21E
100
AcDbEntity
  8
ALPHA
100
AcDbLine
 10
67.031867
 20
99.149967
 30
0.0
 11
67.031867
 21
92.772468
 31
0.0
  0
LINE
  5
21F
100
AcDbEntity
  8
ALPHA
100
AcDbLine
 10
66.131867
 20
99.861218
 30
0.0
 11
66.131867
 21
105.361218
 31
0.0
  0
LINE
  5
220
100
AcDbEntity
  8
ALPHA
100
AcDbLine
 10
66.131867
 20
87.686218
 30
0.0
 11
66.131867
 21
92.061218
 31
0.0
  0
LINE
  5
221
100
AcDbEntity
  8
ALPHA
100
AcDbLine
 10
66.119367
 20
89.111719
 30
0.0
 11
66.119367
 21
89.277296
 31
0.0
  0
LINE
  5
222
100
AcDbEntity
  8
ALPHA
100
AcDbLine
 10
66.119367
 20
88.830648
 30
0.0
 11
66.119367
 21
88.929355
 31
0.0
  0
LINE
  5
223
100
AcDbEntity
  8
ALPHA
100
AcDbLine
 10
66.092284
 20
89.164065
 30
0.0
 11
66.092284
 21
89.219234
 31
0.0
  0
LINE
  5
224
100
AcDbEntity
  8
ALPHA
100
AcDbLine
 10
66.092284
 20
88.865588
 30
0.0
 11
66.092284
 21
88.890257
 31
0.0
  0
LINE
  5
225
100
AcDbEntity
  8
ALPHA
100
AcDbLine
 10
66.038117
 20
89.380705
 30
0.0
 11
66.038117
 21
89.581513
 31
0.0
  0
LINE
  5
226
100
AcDbEntity
  8
ALPHA
100
AcDbLine
 10
66.038117
 20
89.000205
 30
0.0
 11
66.038117
 21
89.030576
 31
0.0
  0
LINE
  5
227
100
AcDbEntity
  8
ALPHA
100
AcDbLine
 10
65.956867
 20
89.297306
 30
0.0
 11
65.956867
 21
89.519346
 31
0.0
  0
LINE
  5
228
100
AcDbEntity
  8
ALPHA
100
AcDbLine
 10
65.956867
 20
88.942951
 30
0.0
 11
65.956867
 21
89.094886
 31
0.0
  0
LINE
  5
229
100
AcDbEntity
  8
ALPHA
100
AcDbLine
 10
65.929784
 20
89.146306
 30
0.0
 11
65.929784
 21
89.458286
 31
0.0
  0
LINE
  5
22A
100
AcDbEntity
  8
ALPHA
100
AcDbLine
 10
65.929784
 20
88.853668
 30
0.0
 11
65.929784
 21
89.112254
 31
0.0
  0
LWPOLYLINE
  5
22B
100
AcDbEntity
  8
ALPHA
100
AcDbPolyline
 90
        4
 70
     0
 43
0.0
 10
65.686034
 20
89.41928
 10
65.695003
 20
89.375733
 10
65.704032
 20
89.33367
 10
65.713117
 20
89.293102
  0
LWPOLYLINE
  5
231
100
AcDbEntity
  8
ALPHA
100
AcDbPolyline
 90
        6
 70
     0
 43
0.0
 10
67.331867
 20
86.82213
 10
67.348997
 20
86.745653
 10
67.398711
 20
86.676661
 10
67.476142
 20
86.621909
 10
67.573711
 20
86.586756
 10
67.681867
 20
86.574643
  0
LWPOLYLINE
  5
239
100
AcDbEntity
  8
ALPHA
100
AcDbPolyline
 90
        4
 70
     0
 43
0.0
 10
65.713117
 20
89.078358
 10
65.704035
 20
89.117636
 10
65.695007
 20
89.158363
 10
65.686034
 20
89.200527
  0
LWPOLYLINE
  5
23F
100
AcDbEntity
  8
ALPHA
100
AcDbPolyline
 90
        4
 70
     0
 43
0.0
 10
66.131867
 20
91.127937
 10
64.497627
 20
91.254166
 10
60.987602
 20
91.537833
 10
59.317799
 20
91.678804
  0
LINE
  5
245
100
AcDbEntity
  8
ALPHA
100
AcDbLine
 10
67.331867
 20
92.061218
 30
0.0
 11
66.131867
 21
92.061218
 31
0.0
  0
LINE
  5
246
100
AcDbEntity
  8
ALPHA
100
AcDbLine
 10
68.131867
 20
92.061218
 30
0.0
 11
68.031867
 21
92.061218
 31
0.0
  0
LINE
  5
247
100
AcDbEntity
  8
ALPHA
100
AcDbLine
 10
56.031867
 20
91.678804
 30
0.0
 11
61.531867
 21
91.678804
 31
0.0
  0
LINE
  5
248
100
AcDbEntity
  8
ALPHA
100
AcDbLine
 10
51.531867
 20
91.488909
 30
0.0
 11
56.031867
 21
91.488909
 31
0.0
  0
LINE
  5
249
100
AcDbEntity
  8
ALPHA
100
AcDbLine
 10
86.931867
 20
91.461218
 30
0.0
 11
89.531867
 21
91.461218
 31
0.0
  0
LINE
  5
24A
100
AcDbEntity
  8
ALPHA
100
AcDbLine
 10
74.531867
 20
91.461218
 30
0.0
 11
77.231867
 21
91.461218
 31
0.0
  0
LINE
  5
24B
100
AcDbEntity
  8
ALPHA
100
AcDbLine
 10
87.231867
 20
91.061218
 30
0.0
 11
89.331867
 21
91.061218
 31
0.0
  0
LINE
  5
24C
100
AcDbEntity
  8
ALPHA
100
AcDbLine
 10
74.731867
 20
91.061218
 30
0.0
 11
76.831867
 21
91.061218
 31
0.0
  0
LINE
  5
24D
100
AcDbEntity
  8
ALPHA
100
AcDbLine
 10
68.131867
 20
91.036471
 30
0.0
 11
70.131867
 21
91.036471
 31
0.0
  0
LINE
  5
24E
100
AcDbEntity
  8
ALPHA
100
AcDbLine
 10
51.531867
 20
90.375316
 30
0.0
 11
56.031867
 21
90.375316
 31
0.0
  0
LINE
  5
24F
100
AcDbEntity
  8
ALPHA
100
AcDbLine
 10
51.531867
 20
90.260181
 30
0.0
 11
56.031867
 21
90.260181
 31
0.0
  0
LWPOLYLINE
  5
250
100
AcDbEntity
  8
ALPHA
100
AcDbPolyline
 90
        5
 70
     0
 43
0.0
 10
56.031867
 20
89.767479
 10
57.514402
 20
89.851196
 10
60.987602
 20
90.060006
 10
64.497627
 20
90.283693
 10
66.131867
 20
90.393684
  0
LINE
  5
257
100
AcDbEntity
  8
ALPHA
100
AcDbLine
 10
64.171769
 20
91.280501
 30
0.0
 11
56.031867
 21
90.692213
 31
0.0
  0
LINE
  5
258
100
AcDbEntity
  8
ALPHA
100
AcDbLine
 10
65.00895
 20
89.446873
 30
0.0
 11
65.144367
 21
89.469637
 31
0.0
  0
LINE
  5
259
100
AcDbEntity
  8
ALPHA
100
AcDbLine
 10
65.036034
 20
89.338328
 30
0.0
 11
65.117284
 21
89.359345
 31
0.0
  0
LINE
  5
25A
100
AcDbEntity
  8
ALPHA
100
AcDbLine
 10
65.713117
 20
88.971001
 30
0.0
 11
65.713117
 21
89.293102
 31
0.0
  0
LINE
  5
25B
100
AcDbEntity
  8
ALPHA
100
AcDbLine
 10
65.686034
 20
89.200527
 30
0.0
 11
65.686034
 21
89.41928
 31
0.0
  0
LINE
  5
25C
100
AcDbEntity
  8
ALPHA
100
AcDbLine
 10
65.631867
 20
89.297306
 30
0.0
 11
65.631867
 21
89.519346
 31
0.0
  0
LINE
  5
25D
100
AcDbEntity
  8
ALPHA
100
AcDbLine
 10
65.5777
 20
88.971001
 30
0.0
 11
65.5777
 21
89.000205
 31
0.0
  0
LINE
  5
25E
100
AcDbEntity
  8
ALPHA
100
AcDbLine
 10
65.550617
 20
89.380705
 30
0.0
 11
65.550617
 21
89.581513
 31
0.0
  0
LINE
  5
25F
100
AcDbEntity
  8
ALPHA
100
AcDbLine
 10
65.550617
 20
89.128858
 30
0.0
 11
65.550617
 21
89.182138
 31
0.0
  0
LINE
  5
260
100
AcDbEntity
  8
ALPHA
100
AcDbLine
 10
65.550617
 20
88.890257
 30
0.0
 11
65.550617
 21
88.990405
 31
0.0
  0
LINE
  5
261
100
AcDbEntity
  8
ALPHA
100
AcDbLine
 10
65.531867
 20
102.911218
 30
0.0
 11
65.531867
 21
103.220737
 31
0.0
  0
LINE
  5
262
100
AcDbEntity
  8
ALPHA
100
AcDbLine
 10
65.523534
 20
89.078358
 30
0.0
 11
65.523534
 21
89.238263
 31
0.0
  0
LINE
  5
263
100
AcDbEntity
  8
ALPHA
100
AcDbLine
 10
65.523534
 20
88.853668
 30
0.0
 11
65.523534
 21
88.980608
 31
0.0
  0
LINE
  5
264
100
AcDbEntity
  8
ALPHA
100
AcDbLine
 10
65.469367
 20
89.046205
 30
0.0
 11
65.469367
 21
89.259919
 31
0.0
  0
LINE
  5
265
100
AcDbEntity
  8
ALPHA
100
AcDbLine
 10
65.469367
 20
88.819547
 30
0.0
 11
65.469367
 21
88.961525
 31
0.0
  0
LINE
  5
266
100
AcDbEntity
  8
ALPHA
100
AcDbLine
 10
65.4152
 20
89.446873
 30
0.0
 11
65.4152
 21
89.581513
 31
0.0
  0
LINE
  5
267
100
AcDbEntity
  8
ALPHA
100
AcDbLine
 10
65.388117
 20
89.015244
 30
0.0
 11
65.388117
 21
89.227975
 31
0.0
  0
LINE
  5
268
100
AcDbEntity
  8
ALPHA
100
AcDbLine
 10
65.388117
 20
88.798154
 30
0.0
 11
65.388117
 21
88.940218
 31
0.0
  0
LINE
  5
269
100
AcDbEntity
  8
ALPHA
100
AcDbLine
 10
65.306867
 20
89.000205
 30
0.0
 11
65.306867
 21
89.212462
 31
0.0
  0
LINE
  5
26A
100
AcDbEntity
  8
ALPHA
100
AcDbLine
 10
65.306867
 20
88.78786
 30
0.0
 11
65.306867
 21
88.93206
 31
0.0
  0
LINE
  5
26B
100
AcDbEntity
  8
ALPHA
100
AcDbLine
 10
65.279784
 20
89.469637
 30
0.0
 11
65.279784
 21
89.581513
 31
0.0
  0
LINE
  5
26C
100
AcDbEntity
  8
ALPHA
100
AcDbLine
 10
65.144367
 20
89.469637
 30
0.0
 11
65.144367
 21
89.581513
 31
0.0
  0
LINE
  5
26D
100
AcDbEntity
  8
ALPHA
100
AcDbLine
 10
65.144367
 20
88.78786
 30
0.0
 11
65.144367
 21
88.929355
 31
0.0
  0
LINE
  5
26E
100
AcDbEntity
  8
ALPHA
100
AcDbLine
 10
65.117284
 20
89.000205
 30
0.0
 11
65.117284
 21
89.212462
 31
0.0
  0
LINE
  5
26F
100
AcDbEntity
  8
ALPHA
100
AcDbLine
 10
65.063117
 20
88.798154
 30
0.0
 11
65.063117
 21
88.937484
 31
0.0
  0
LINE
  5
270
100
AcDbEntity
  8
ALPHA
100
AcDbLine
 10
65.036034
 20
89.015244
 30
0.0
 11
65.036034
 21
89.227975
 31
0.0
  0
LINE
  5
271
100
AcDbEntity
  8
ALPHA
100
AcDbLine
 10
65.00895
 20
89.446873
 30
0.0
 11
65.00895
 21
89.581513
 31
0.0
  0
LINE
  5
272
100
AcDbEntity
  8
ALPHA
100
AcDbLine
 10
64.981867
 20
88.819547
 30
0.0
 11
64.981867
 21
88.951281
 31
0.0
  0
LINE
  5
273
100
AcDbEntity
  8
ALPHA
100
AcDbLine
 10
64.954784
 20
89.046205
 30
0.0
 11
64.954784
 21
89.259919
 31
0.0
  0
LINE
  5
274
100
AcDbEntity
  8
ALPHA
100
AcDbLine
 10
64.9277
 20
88.853668
 30
0.0
 11
64.9277
 21
88.968168
 31
0.0
  0
LINE
  5
275
100
AcDbEntity
  8
ALPHA
100
AcDbLine
 10
64.900617
 20
89.078358
 30
0.0
 11
64.900617
 21
89.238263
 31
0.0
  0
LINE
  5
276
100
AcDbEntity
  8
ALPHA
100
AcDbLine
 10
64.873534
 20
89.380705
 30
0.0
 11
64.873534
 21
89.581513
 31
0.0
  0
LINE
  5
277
100
AcDbEntity
  8
ALPHA
100
AcDbLine
 10
64.873534
 20
89.128858
 30
0.0
 11
64.873534
 21
89.182138
 31
0.0
  0
LINE
  5
278
100
AcDbEntity
  8
ALPHA
100
AcDbLine
 10
64.792284
 20
89.297306
 30
0.0
 11
64.792284
 21
89.519346
 31
0.0
  0
LINE
  5
279
100
AcDbEntity
  8
ALPHA
100
AcDbLine
 10
64.792284
 20
88.853668
 30
0.0
 11
64.792284
 21
89.030576
 31
0.0
  0
LINE
  5
27A
100
AcDbEntity
  8
ALPHA
100
AcDbLine
 10
64.738117
 20
89.111719
 30
0.0
 11
64.738117
 21
89.41928
 31
0.0
  0
LINE
  5
27B
100
AcDbEntity
  8
ALPHA
100
AcDbLine
 10
64.52145
 20
89.469637
 30
0.0
 11
64.52145
 21
89.581513
 31
0.0
  0
LINE
  5
27C
100
AcDbEntity
  8
ALPHA
100
AcDbLine
 10
64.35895
 20
89.469637
 30
0.0
 11
64.35895
 21
89.581513
 31
0.0
  0
LINE
  5
27D
100
AcDbEntity
  8
ALPHA
100
AcDbLine
 10
64.250617
 20
89.219234
 30
0.0
 11
64.250617
 21
89.438615
 31
0.0
  0
LINE
  5
27E
100
AcDbEntity
  8
ALPHA
100
AcDbLine
 10
63.979784
 20
88.777833
 30
0.0
 11
63.979784
 21
88.983323
 31
0.0
  0
LWPOLYLINE
  5
27F
100
AcDbEntity
  8
ALPHA
100
AcDbPolyline
 90
       10
 70
     0
 43
0.0
 10
62.156867
 20
96.818539
 10
62.122914
 20
97.073406
 10
62.080228
 20
97.329173
 10
62.028801
 20
97.586139
 10
61.968602
 20
97.844658
 10
61.899564
 20
98.105145
 10
61.821574
 20
98.36808
 10
61.734466
 20
98.634014
 10
61.638002
 20
98.903578
 10
61.531867
 20
99.177485
  0
LWPOLYLINE
  5
28B
100
AcDbEntity
  8
ALPHA
100
AcDbPolyline
 90
        3
 70
     0
 43
0.0
 10
65.550617
 20
89.182138
 10
65.537046
 20
89.209901
 10
65.523534
 20
89.238263
  0
LWPOLYLINE
  5
290
100
AcDbEntity
  8
ALPHA
100
AcDbPolyline
 90
        3
 70
     0
 43
0.0
 10
66.119367
 20
89.111719
 10
66.105798
 20
89.137596
 10
66.092284
 20
89.164065
  0
LWPOLYLINE
  5
295
100
AcDbEntity
  8
ALPHA
100
AcDbPolyline
 90
        4
 70
     0
 43
0.0
 10
65.631867
 20
89.519346
 10
65.649824
 20
89.485227
 10
65.66788
 20
89.451871
 10
65.686034
 20
89.41928
  0
LWPOLYLINE
  5
29B
100
AcDbEntity
  8
ALPHA
100
AcDbPolyline
 90
        3
 70
     0
 43
0.0
 10
65.956867
 20
89.094886
 10
65.943299
 20
89.1203
 10
65.929784
 20
89.146306
  0
LWPOLYLINE
  5
2A0
100
AcDbEntity
  8
ALPHA
100
AcDbPolyline
 90
        3
 70
     0
 43
0.0
 10
64.900617
 20
89.078358
 10
64.887049
 20
89.103313
 10
64.873534
 20
89.128858
  0
LWPOLYLINE
  5
2A5
100
AcDbEntity
  8
ALPHA
100
AcDbPolyline
 90
        4
 70
     0
 43
0.0
 10
65.686034
 20
89.200527
 10
65.667886
 20
89.232046
 10
65.64983
 20
89.264308
 10
65.631867
 20
89.297306
  0
LWPOLYLINE
  5
2AB
100
AcDbEntity
  8
ALPHA
100
AcDbPolyline
 90
        3
 70
     0
 43
0.0
 10
66.119367
 20
88.830648
 10
66.105808
 20
88.847833
 10
66.092284
 20
88.865588
  0
LWPOLYLINE
  5
2B0
100
AcDbEntity
  8
ALPHA
100
AcDbPolyline
 90
        3
 70
     0
 43
0.0
 10
65.956867
 20
88.819547
 10
65.943308
 20
88.836322
 10
65.929784
 20
88.853668
  0
LWPOLYLINE
  5
2B5
100
AcDbEntity
  8
ALPHA
100
AcDbPolyline
 90
        4
 70
     0
 43
0.0
 10
65.572854
 20
89.581513
 10
65.577555
 20
89.576409
 10
65.604639
 20
89.547637
 10
65.631867
 20
89.519346
  0
LWPOLYLINE
  5
2BB
100
AcDbEntity
  8
ALPHA
100
AcDbPolyline
 90
        3
 70
     0
 43
0.0
 10
65.523534
 20
89.238263
 10
65.496381
 20
89.267491
 10
65.469367
 20
89.297306
  0
LWPOLYLINE
  5
2C0
100
AcDbEntity
  8
ALPHA
100
AcDbPolyline
 90
        4
 70
     0
 43
0.0
 10
65.631867
 20
89.297306
 10
65.604648
 20
89.324642
 10
65.577564
 20
89.352443
 10
65.550617
 20
89.380705
  0
LWPOLYLINE
  5
2C6
100
AcDbEntity
  8
ALPHA
100
AcDbPolyline
 90
        4
 70
     0
 43
0.0
 10
66.038117
 20
89.030576
 10
66.010932
 20
89.05156
 10
65.983848
 20
89.072997
 10
65.956867
 20
89.094886
  0
LINE
  5
2CC
100
AcDbEntity
  8
ALPHA
100
AcDbLine
 10
66.131867
 20
89.10395
 30
0.0
 11
66.119367
 21
89.111719
 31
0.0
  0
LWPOLYLINE
  5
2CD
100
AcDbEntity
  8
ALPHA
100
AcDbPolyline
 90
        4
 70
     0
 43
0.0
 10
65.550617
 20
89.380705
 10
65.505237
 20
89.402528
 10
65.460097
 20
89.424585
 10
65.4152
 20
89.446873
  0
LINE
  5
2D3
100
AcDbEntity
  8
ALPHA
100
AcDbLine
 10
66.092284
 20
89.015244
 30
0.0
 11
66.038117
 21
89.030576
 31
0.0
  0
LINE
  5
2D4
100
AcDbEntity
  8
ALPHA
100
AcDbLine
 10
65.388117
 20
89.338328
 30
0.0
 11
65.306867
 21
89.359345
 31
0.0
  0
LINE
  5
2D5
100
AcDbEntity
  8
ALPHA
100
AcDbLine
 10
65.036034
 20
89.227975
 30
0.0
 11
65.117284
 21
89.212462
 31
0.0
  0
LINE
  5
2D6
100
AcDbEntity
  8
ALPHA
100
AcDbLine
 10
65.117284
 20
89.000205
 30
0.0
 11
65.036034
 21
89.015244
 31
0.0
  0
LINE
  5
2D7
100
AcDbEntity
  8
ALPHA
100
AcDbLine
 10
65.4152
 20
89.446873
 30
0.0
 11
65.279784
 21
89.469637
 31
0.0
  0
LINE
  5
2D8
100
AcDbEntity
  8
ALPHA
100
AcDbLine
 10
65.144367
 20
88.78786
 30
0.0
 11
65.063117
 21
88.798154
 31
0.0
  0
LINE
  5
2D9
100
AcDbEntity
  8
ALPHA
100
AcDbLine
 10
65.144367
 20
88.929355
 30
0.0
 11
65.00895
 21
88.942951
 31
0.0
  0
LINE
  5
2DA
100
AcDbEntity
  8
ALPHA
100
AcDbLine
 10
65.17145
 20
88.740371
 30
0.0
 11
65.036034
 21
88.749342
 31
0.0
  0
LWPOLYLINE
  5
2DB
100
AcDbEntity
  8
ALPHA
100
AcDbPolyline
 90
       21
 70
     0
 43
0.0
 10
42.389444
 20
89.56848
 10
42.397707
 20
89.568316
 10
42.411069
 20
89.567352
 10
42.424501
 20
89.565505
 10
42.437771
 20
89.562795
 10
42.450691
 20
89.559284
 10
42.463195
 20
89.555027
 10
42.475235
 20
89.550084
 10
42.486776
 20
89.544512
 10
42.497809
 20
89.538358
 10
42.508317
 20
89.531664
 10
42.518293
 20
89.52447
 10
42.527733
 20
89.516804
 10
42.536636
 20
89.508682
 10
42.545004
 20
89.500109
 10
42.552824
 20
89.491086
 10
42.560048
 20
89.481648
 10
42.566622
 20
89.471841
 10
42.57248
 20
89.461727
 10
42.577559
 20
89.451385
 10
42.580977
 20
89.443118
  0
LINE
  5
2F2
100
AcDbEntity
  8
ALPHA
100
AcDbLine
 10
87.231867
 20
90.061218
 30
0.0
 11
87.417915
 21
90.061218
 31
0.0
  0
LINE
  5
2F3
100
AcDbEntity
  8
ALPHA
100
AcDbLine
 10
76.645819
 20
90.061218
 30
0.0
 11
76.831867
 21
90.061218
 31
0.0
  0
LINE
  5
2F4
100
AcDbEntity
  8
ALPHA
100
AcDbLine
 10
74.917915
 20
90.061218
 30
0.0
 11
74.531867
 21
90.061218
 31
0.0
  0
LINE
  5
2F5
100
AcDbEntity
  8
ALPHA
100
AcDbLine
 10
89.531867
 20
90.061218
 30
0.0
 11
89.145819
 21
90.061218
 31
0.0
  0
LINE
  5
2F6
100
AcDbEntity
  8
ALPHA
100
AcDbLine
 10
89.145819
 20
89.961218
 30
0.0
 11
89.531867
 21
89.961218
 31
0.0
  0
LINE
  5
2F7
100
AcDbEntity
  8
ALPHA
100
AcDbLine
 10
86.931867
 20
89.961218
 30
0.0
 11
87.417915
 21
89.961218
 31
0.0
  0
LINE
  5
2F8
100
AcDbEntity
  8
ALPHA
100
AcDbLine
 10
76.645819
 20
89.961218
 30
0.0
 11
77.231867
 21
89.961218
 31
0.0
  0
LINE
  5
2F9
100
AcDbEntity
  8
ALPHA
100
AcDbLine
 10
74.531867
 20
89.961218
 30
0.0
 11
74.917915
 21
89.961218
 31
0.0
  0
LINE
  5
2FA
100
AcDbEntity
  8
ALPHA
100
AcDbLine
 10
67.331867
 20
89.961218
 30
0.0
 11
66.131867
 21
89.961218
 31
0.0
  0
LINE
  5
2FB
100
AcDbEntity
  8
ALPHA
100
AcDbLine
 10
97.631867
 20
89.861218
 30
0.0
 11
90.331867
 21
89.861218
 31
0.0
  0
LINE
  5
2FC
100
AcDbEntity
  8
ALPHA
100
AcDbLine
 10
56.031867
 20
89.65781
 30
0.0
 11
62.156867
 21
89.65781
 31
0.0
  0
LINE
  5
2FD
100
AcDbEntity
  8
ALPHA
100
AcDbLine
 10
66.131867
 20
89.581513
 30
0.0
 11
62.631867
 21
89.581513
 31
0.0
  0
LINE
  5
2FE
100
AcDbEntity
  8
ALPHA
100
AcDbLine
 10
42.389444
 20
89.56848
 30
0.0
 11
41.716603
 21
89.56848
 31
0.0
  0
LINE
  5
2FF
100
AcDbEntity
  8
ALPHA
100
AcDbLine
 10
87.417915
 20
89.561218
 30
0.0
 11
89.145819
 21
89.561218
 31
0.0
  0
LINE
  5
300
100
AcDbEntity
  8
ALPHA
100
AcDbLine
 10
74.917915
 20
89.561218
 30
0.0
 11
76.645819
 21
89.561218
 31
0.0
  0
LINE
  5
301
100
AcDbEntity
  8
ALPHA
100
AcDbLine
 10
63.22145
 20
89.469637
 30
0.0
 11
63.086034
 21
89.469637
 31
0.0
  0
LINE
  5
302
100
AcDbEntity
  8
ALPHA
100
AcDbLine
 10
63.600617
 20
89.469637
 30
0.0
 11
63.438117
 21
89.469637
 31
0.0
  0
LINE
  5
303
100
AcDbEntity
  8
ALPHA
100
AcDbLine
 10
64.52145
 20
89.469637
 30
0.0
 11
64.35895
 21
89.469637
 31
0.0
  0
LINE
  5
304
100
AcDbEntity
  8
ALPHA
100
AcDbLine
 10
65.279784
 20
89.469637
 30
0.0
 11
65.144367
 21
89.469637
 31
0.0
  0
LINE
  5
305
100
AcDbEntity
  8
ALPHA
100
AcDbLine
 10
63.70895
 20
89.438615
 30
0.0
 11
64.250617
 21
89.438615
 31
0.0
  0
LINE
  5
306
100
AcDbEntity
  8
ALPHA
100
AcDbLine
 10
97.631867
 20
89.361218
 30
0.0
 11
90.331867
 21
89.361218
 31
0.0
  0
LINE
  5
307
100
AcDbEntity
  8
ALPHA
100
AcDbLine
 10
63.22145
 20
89.359345
 30
0.0
 11
63.086034
 21
89.359345
 31
0.0
  0
LINE
  5
308
100
AcDbEntity
  8
ALPHA
100
AcDbLine
 10
65.306867
 20
89.359345
 30
0.0
 11
65.117284
 21
89.359345
 31
0.0
  0
LINE
  5
309
100
AcDbEntity
  8
ALPHA
100
AcDbLine
 10
64.250617
 20
89.219234
 30
0.0
 11
63.70895
 21
89.219234
 31
0.0
  0
LINE
  5
30A
100
AcDbEntity
  8
ALPHA
100
AcDbLine
 10
65.117284
 20
89.212462
 30
0.0
 11
65.306867
 21
89.212462
 31
0.0
  0
LINE
  5
30B
100
AcDbEntity
  8
ALPHA
100
AcDbLine
 10
61.531867
 20
89.20393
 30
0.0
 11
56.031867
 21
89.20393
 31
0.0
  0
LINE
  5
30C
100
AcDbEntity
  8
ALPHA
100
AcDbLine
 10
90.331867
 20
89.162782
 30
0.0
 11
73.731867
 21
89.161218
 31
0.0
  0
LINE
  5
30D
100
AcDbEntity
  8
ALPHA
100
AcDbLine
 10
64.223534
 20
89.146306
 30
0.0
 11
63.736034
 21
89.146306
 31
0.0
  0
LINE
  5
30E
100
AcDbEntity
  8
ALPHA
100
AcDbLine
 10
74.331867
 20
89.136218
 30
0.0
 11
73.831867
 21
89.136218
 31
0.0
  0
LINE
  5
30F
100
AcDbEntity
  8
ALPHA
100
AcDbLine
 10
51.531867
 20
89.126879
 30
0.0
 11
56.031867
 21
89.126879
 31
0.0
  0
LINE
  5
310
100
AcDbEntity
  8
ALPHA
100
AcDbLine
 10
74.131867
 20
89.011218
 30
0.0
 11
73.731867
 21
89.011218
 31
0.0
  0
LINE
  5
311
100
AcDbEntity
  8
ALPHA
100
AcDbLine
 10
65.306867
 20
89.000205
 30
0.0
 11
65.117284
 21
89.000205
 31
0.0
  0
LINE
  5
312
100
AcDbEntity
  8
ALPHA
100
AcDbLine
 10
65.279784
 20
88.929355
 30
0.0
 11
65.144367
 21
88.929355
 31
0.0
  0
LINE
  5
313
100
AcDbEntity
  8
ALPHA
100
AcDbLine
 10
62.631867
 20
88.90497
 30
0.0
 11
63.732411
 21
88.90497
 31
0.0
  0
LINE
  5
314
100
AcDbEntity
  8
ALPHA
100
AcDbLine
 10
64.792284
 20
88.90497
 30
0.0
 11
64.227156
 21
88.90497
 31
0.0
  0
LINE
  5
315
100
AcDbEntity
  8
ALPHA
100
AcDbLine
 10
65.929784
 20
88.90497
 30
0.0
 11
65.694342
 21
88.90497
 31
0.0
  0
LINE
  5
316
100
AcDbEntity
  8
ALPHA
100
AcDbLine
 10
64.9277
 20
88.853668
 30
0.0
 11
64.792284
 21
88.853668
 31
0.0
  0
LINE
  5
317
100
AcDbEntity
  8
ALPHA
100
AcDbLine
 10
65.306867
 20
88.78786
 30
0.0
 11
65.144367
 21
88.78786
 31
0.0
  0
LINE
  5
318
100
AcDbEntity
  8
ALPHA
100
AcDbLine
 10
64.088117
 20
88.740371
 30
0.0
 11
63.87145
 21
88.740371
 31
0.0
  0
LINE
  5
319
100
AcDbEntity
  8
ALPHA
100
AcDbLine
 10
65.279784
 20
88.740371
 30
0.0
 11
65.17145
 21
88.740371
 31
0.0
  0
LINE
  5
31A
100
AcDbEntity
  8
ALPHA
100
AcDbLine
 10
66.131867
 20
88.701698
 30
0.0
 11
62.631867
 21
88.701698
 31
0.0
  0
LINE
  5
31B
100
AcDbEntity
  8
ALPHA
100
AcDbLine
 10
42.901963
 20
88.639462
 30
0.0
 11
42.831867
 21
88.639462
 31
0.0
  0
LINE
  5
31C
100
AcDbEntity
  8
ALPHA
100
AcDbLine
 10
62.156867
 20
88.586218
 30
0.0
 11
56.031867
 21
88.586218
 31
0.0
  0
LINE
  5
31D
100
AcDbEntity
  8
ALPHA
100
AcDbLine
 10
63.031867
 20
88.586218
 30
0.0
 11
62.156867
 21
88.586218
 31
0.0
  0
LINE
  5
31E
100
AcDbEntity
  8
ALPHA
100
AcDbLine
 10
42.831867
 20
88.571218
 30
0.0
 11
42.930616
 21
88.571218
 31
0.0
  0
LINE
  5
31F
100
AcDbEntity
  8
ALPHA
100
AcDbLine
 10
51.531867
 20
88.430943
 30
0.0
 11
56.031867
 21
88.430943
 31
0.0
  0
LINE
  5
320
100
AcDbEntity
  8
ALPHA
100
AcDbLine
 10
42.831867
 20
88.371218
 30
0.0
 11
41.758569
 21
88.371218
 31
0.0
  0
LINE
  5
321
100
AcDbEntity
  8
ALPHA
100
AcDbLine
 10
51.531867
 20
88.266514
 30
0.0
 11
56.031867
 21
88.266514
 31
0.0
  0
LINE
  5
322
100
AcDbEntity
  8
ALPHA
100
AcDbLine
 10
74.331867
 20
88.261218
 30
0.0
 11
90.331867
 21
88.261218
 31
0.0
  0
LINE
  5
323
100
AcDbEntity
  8
ALPHA
100
AcDbLine
 10
65.279784
 20
88.740371
 30
0.0
 11
65.4152
 21
88.749342
 31
0.0
  0
LINE
  5
324
100
AcDbEntity
  8
ALPHA
100
AcDbLine
 10
65.279784
 20
88.929355
 30
0.0
 11
65.4152
 21
88.942951
 31
0.0
  0
LINE
  5
325
100
AcDbEntity
  8
ALPHA
100
AcDbLine
 10
65.306867
 20
88.78786
 30
0.0
 11
65.388117
 21
88.798154
 31
0.0
  0
LINE
  5
326
100
AcDbEntity
  8
ALPHA
100
AcDbLine
 10
98.031867
 20
93.259381
 30
0.0
 11
97.531867
 21
93.171218
 31
0.0
  0
LINE
  5
327
100
AcDbEntity
  8
ALPHA
100
AcDbLine
 10
65.306867
 20
89.000205
 30
0.0
 11
65.388117
 21
89.015244
 31
0.0
  0
LINE
  5
328
100
AcDbEntity
  8
ALPHA
100
AcDbLine
 10
65.306867
 20
89.212462
 30
0.0
 11
65.388117
 21
89.227975
 31
0.0
  0
LWPOLYLINE
  5
329
100
AcDbEntity
  8
ALPHA
100
AcDbPolyline
 90
        4
 70
     0
 43
0.0
 10
65.4152
 20
88.749342
 10
65.460437
 20
88.758595
 10
65.505577
 20
88.768093
 10
65.550617
 20
88.777833
  0
LWPOLYLINE
  5
32F
100
AcDbEntity
  8
ALPHA
100
AcDbPolyline
 90
        3
 70
     0
 43
0.0
 10
65.388117
 20
88.798154
 10
65.42879
 20
88.808729
 10
65.469367
 20
88.819547
  0
LINE
  5
334
100
AcDbEntity
  8
ALPHA
100
AcDbLine
 10
66.038117
 20
89.000205
 30
0.0
 11
66.092284
 21
89.015244
 31
0.0
  0
LWPOLYLINE
  5
335
100
AcDbEntity
  8
ALPHA
100
AcDbPolyline
 90
       10
 70
     0
 43
0.0
 10
61.531867
 20
92.74495
 10
61.638163
 20
93.019289
 10
61.734715
 20
93.289148
 10
61.821855
 20
93.555254
 10
61.899833
 20
93.818249
 10
61.968831
 20
94.078697
 10
62.028973
 20
94.33709
 10
62.080336
 20
94.593853
 10
62.122962
 20
94.849351
 10
62.156867
 20
95.103896
  0
LINE
  5
341
100
AcDbEntity
  8
ALPHA
100
AcDbLine
 10
63.70895
 20
89.219234
 30
0.0
 11
63.70895
 21
89.438615
 31
0.0
  0
LINE
  5
342
100
AcDbEntity
  8
ALPHA
100
AcDbLine
 10
63.600617
 20
89.469637
 30
0.0
 11
63.600617
 21
89.581513
 31
0.0
  0
LINE
  5
343
100
AcDbEntity
  8
ALPHA
100
AcDbLine
 10
63.438117
 20
89.469637
 30
0.0
 11
63.438117
 21
89.581513
 31
0.0
  0
LINE
  5
344
100
AcDbEntity
  8
ALPHA
100
AcDbLine
 10
63.22145
 20
89.359345
 30
0.0
 11
63.22145
 21
89.581513
 31
0.0
  0
LINE
  5
345
100
AcDbEntity
  8
ALPHA
100
AcDbLine
 10
63.086034
 20
89.359345
 30
0.0
 11
63.086034
 21
89.581513
 31
0.0
  0
LINE
  5
346
100
AcDbEntity
  8
ALPHA
100
AcDbLine
 10
63.031867
 20
88.586218
 30
0.0
 11
63.031867
 21
88.90497
 31
0.0
  0
LINE
  5
347
100
AcDbEntity
  8
ALPHA
100
AcDbLine
 10
63.031867
 20
103.336218
 30
0.0
 11
63.031867
 21
103.220737
 31
0.0
  0
LINE
  5
348
100
AcDbEntity
  8
ALPHA
100
AcDbLine
 10
62.631867
 20
88.701698
 30
0.0
 11
62.631867
 21
89.581513
 31
0.0
  0
LINE
  5
349
100
AcDbEntity
  8
ALPHA
100
AcDbLine
 10
62.156867
 20
88.586218
 30
0.0
 11
62.156867
 21
103.336218
 31
0.0
  0
LWPOLYLINE
  5
34A
100
AcDbEntity
  8
ALPHA
100
AcDbPolyline
 90
        3
 70
     0
 43
0.0
 10
63.646837
 20
89.581513
 10
63.672335
 20
89.520513
 10
63.70895
 20
89.438615
  0
LWPOLYLINE
  5
34F
100
AcDbEntity
  8
ALPHA
100
AcDbPolyline
 90
        4
 70
     0
 43
0.0
 10
63.70895
 20
89.219234
 10
63.672369
 20
89.298358
 10
63.636248
 20
89.381851
 10
63.600617
 20
89.469637
  0
LWPOLYLINE
  5
355
100
AcDbEntity
  8
ALPHA
100
AcDbPolyline
 90
        4
 70
     0
 43
0.0
 10
64.792284
 20
89.030576
 10
64.774153
 20
89.0569
 10
64.756096
 20
89.083949
 10
64.738117
 20
89.111719
  0
LWPOLYLINE
  5
35B
100
AcDbEntity
  8
ALPHA
100
AcDbPolyline
 90
        3
 70
     0
 43
0.0
 10
63.85809
 20
89.146306
 10
63.917559
 20
89.060113
 10
63.979784
 20
88.983323
  0
LWPOLYLINE
  5
360
100
AcDbEntity
  8
ALPHA
100
AcDbPolyline
 90
        3
 70
     0
 43
0.0
 10
64.819367
 20
88.819547
 10
64.805808
 20
88.836322
 10
64.792284
 20
88.853668
  0
LWPOLYLINE
  5
365
100
AcDbEntity
  8
ALPHA
100
AcDbPolyline
 90
        5
 70
     0
 43
0.0
 10
63.979784
 20
88.777833
 10
63.917642
 20
88.852295
 10
63.856229
 20
88.938652
 10
63.795656
 20
89.036725
 10
63.736034
 20
89.146306
  0
LWPOLYLINE
  5
36C
100
AcDbEntity
  8
ALPHA
100
AcDbPolyline
 90
        8
 70
     0
 43
0.0
 10
63.87145
 20
88.740371
 10
63.80688
 20
88.808753
 10
63.743008
 20
88.889389
 10
63.679954
 20
88.982107
 10
63.61783
 20
89.086717
 10
63.556745
 20
89.203005
 10
63.496804
 20
89.330734
 10
63.438117
 20
89.469637
  0
LWPOLYLINE
  5
376
100
AcDbEntity
  8
ALPHA
100
AcDbPolyline
 90
        3
 70
     0
 43
0.0
 10
64.981867
 20
88.819547
 10
64.954745
 20
88.836325
 10
64.9277
 20
88.853668
  0
LINE
  5
37B
100
AcDbEntity
  8
ALPHA
100
AcDbLine
 10
64.932919
 20
89.273175
 30
0.0
 11
64.954784
 21
89.259919
 31
0.0
  0
LWPOLYLINE
  5
37C
100
AcDbEntity
  8
ALPHA
100
AcDbPolyline
 90
        3
 70
     0
 43
0.0
 10
64.954784
 20
89.046205
 10
64.927658
 20
89.062156
 10
64.900617
 20
89.078358
  0
LWPOLYLINE
  5
381
100
AcDbEntity
  8
ALPHA
100
AcDbPolyline
 90
        4
 70
     0
 43
0.0
 10
64.873534
 20
88.985458
 10
64.846373
 20
89.000247
 10
64.819289
 20
89.015288
 10
64.792284
 20
89.030576
  0
LWPOLYLINE
  5
387
100
AcDbEntity
  8
ALPHA
100
AcDbPolyline
 90
        3
 70
     0
 43
0.0
 10
65.469367
 20
89.297306
 10
65.428646
 20
89.317698
 10
65.388117
 20
89.338328
  0
LWPOLYLINE
  5
38C
100
AcDbEntity
  8
ALPHA
100
AcDbPolyline
 90
        4
 70
     0
 43
0.0
 10
66.038117
 20
88.777833
 10
66.01097
 20
88.791294
 10
65.983886
 20
88.805199
 10
65.956867
 20
88.819547
  0
LWPOLYLINE
  5
392
100
AcDbEntity
  8
ALPHA
100
AcDbPolyline
 90
        4
 70
     0
 43
0.0
 10
64.900617
 20
88.777833
 10
64.87347
 20
88.791294
 10
64.846386
 20
88.805199
 10
64.819367
 20
88.819547
  0
LINE
  5
398
100
AcDbEntity
  8
ALPHA
100
AcDbLine
 10
66.131867
 20
88.825525
 30
0.0
 11
66.119367
 21
88.830648
 31
0.0
  0
LWPOLYLINE
  5
399
100
AcDbEntity
  8
ALPHA
100
AcDbPolyline
 90
        4
 70
     0
 43
0.0
 10
64.954784
 20
89.259919
 10
64.9818
 20
89.249161
 10
65.008884
 20
89.238513
 10
65.036034
 20
89.227975
  0
LWPOLYLINE
  5
39F
100
AcDbEntity
  8
ALPHA
100
AcDbPolyline
 90
        3
 70
     0
 43
0.0
 10
65.036034
 20
89.015244
 10
64.995338
 20
89.030603
 10
64.954784
 20
89.046205
  0
LWPOLYLINE
  5
3A4
100
AcDbEntity
  8
ALPHA
100
AcDbPolyline
 90
        4
 70
     0
 43
0.0
 10
65.00895
 20
88.942951
 10
64.963663
 20
88.956879
 10
64.918523
 20
88.971049
 10
64.873534
 20
88.985458
  0
LWPOLYLINE
  5
3AA
100
AcDbEntity
  8
ALPHA
100
AcDbPolyline
 90
        3
 70
     0
 43
0.0
 10
65.063117
 20
88.798154
 10
65.022444
 20
88.808729
 10
64.981867
 20
88.819547
  0
LWPOLYLINE
  5
3AF
100
AcDbEntity
  8
ALPHA
100
AcDbPolyline
 90
        4
 70
     0
 43
0.0
 10
66.131867
 20
88.753071
 10
66.110268
 20
88.758593
 10
66.074156
 20
88.768091
 10
66.038117
 20
88.777833
  0
LWPOLYLINE
  5
3B5
100
AcDbEntity
  8
ALPHA
100
AcDbPolyline
 90
        4
 70
     0
 43
0.0
 10
65.036034
 20
88.749342
 10
64.990797
 20
88.758595
 10
64.945657
 20
88.768093
 10
64.900617
 20
88.777833
  0
LINE
  5
3BB
100
AcDbEntity
  8
ALPHA
100
AcDbLine
 10
70.131867
 20
88.211218
 30
0.0
 11
85.439047
 21
88.211218
 31
0.0
  0
LINE
  5
3BC
100
AcDbEntity
  8
ALPHA
100
AcDbLine
 10
68.031867
 20
87.961218
 30
0.0
 11
70.131867
 21
87.961218
 31
0.0
  0
LINE
  5
3BD
100
AcDbEntity
  8
ALPHA
100
AcDbLine
 10
61.531867
 20
87.961218
 30
0.0
 11
56.031867
 21
87.961218
 31
0.0
  0
LINE
  5
3BE
100
AcDbEntity
  8
ALPHA
100
AcDbLine
 10
67.331867
 20
87.961218
 30
0.0
 11
66.131867
 21
87.961218
 31
0.0
  0
LINE
  5
3BF
100
AcDbEntity
  8
ALPHA
100
AcDbLine
 10
88.762807
 20
87.861218
 30
0.0
 11
90.331867
 21
87.861218
 31
0.0
  0
LINE
  5
3C0
100
AcDbEntity
  8
ALPHA
100
AcDbLine
 10
68.031867
 20
87.686218
 30
0.0
 11
70.131867
 21
87.686218
 31
0.0
  0
LINE
  5
3C1
100
AcDbEntity
  8
ALPHA
100
AcDbLine
 10
66.131867
 20
87.686218
 30
0.0
 11
67.331867
 21
87.686218
 31
0.0
  0
LINE
  5
3C2
100
AcDbEntity
  8
ALPHA
100
AcDbLine
 10
54.831867
 20
87.589844
 30
0.0
 11
56.031867
 21
87.589844
 31
0.0
  0
LINE
  5
3C3
100
AcDbEntity
  8
ALPHA
100
AcDbLine
 10
70.131867
 20
87.361218
 30
0.0
 11
86.131867
 21
87.361218
 31
0.0
  0
LINE
  5
3C4
100
AcDbEntity
  8
ALPHA
100
AcDbLine
 10
51.531867
 20
87.188533
 30
0.0
 11
54.831867
 21
87.188533
 31
0.0
  0
LINE
  5
3C5
100
AcDbEntity
  8
ALPHA
100
AcDbLine
 10
43.731867
 20
87.086218
 30
0.0
 11
49.031867
 21
87.086218
 31
0.0
  0
LINE
  5
3C6
100
AcDbEntity
  8
ALPHA
100
AcDbLine
 10
49.031867
 20
87.061218
 30
0.0
 11
51.531867
 21
87.061218
 31
0.0
  0
LWPOLYLINE
  5
3C7
100
AcDbEntity
  8
ALPHA
100
AcDbPolyline
 90
        6
 70
     0
 43
0.0
 10
67.681867
 20
86.574643
 10
67.790023
 20
86.586756
 10
67.887592
 20
86.621909
 10
67.965023
 20
86.676661
 10
68.014737
 20
86.745653
 10
68.031867
 20
86.82213
  0
LINE
  5
3CF
100
AcDbEntity
  8
ALPHA
100
AcDbLine
 10
98.131867
 20
93.258408
 30
0.0
 11
97.631867
 21
93.161218
 31
0.0
  0
LINE
  5
3D0
100
AcDbEntity
  8
ALPHA
100
AcDbLine
 10
61.531867
 20
89.20393
 30
0.0
 11
61.531867
 21
87.961218
 31
0.0
  0
LINE
  5
3D1
100
AcDbEntity
  8
ALPHA
100
AcDbLine
 10
61.531867
 20
92.74495
 30
0.0
 11
61.531867
 21
91.678804
 31
0.0
  0
LINE
  5
3D2
100
AcDbEntity
  8
ALPHA
100
AcDbLine
 10
61.531867
 20
103.961218
 30
0.0
 11
61.531867
 21
99.177485
 31
0.0
  0
LINE
  5
3D3
100
AcDbEntity
  8
ALPHA
100
AcDbLine
 10
98.131867
 20
89.458408
 30
0.0
 11
97.631867
 21
89.361218
 31
0.0
  0
LINE
  5
3D4
100
AcDbEntity
  8
ALPHA
100
AcDbLine
 10
56.031867
 20
98.711218
 30
0.0
 11
56.031867
 21
104.332592
 31
0.0
  0
LINE
  5
3D5
100
AcDbEntity
  8
ALPHA
100
AcDbLine
 10
56.031867
 20
87.589844
 30
0.0
 11
56.031867
 21
93.211218
 31
0.0
  0
LINE
  5
3D6
100
AcDbEntity
  8
ALPHA
100
AcDbLine
 10
54.831867
 20
92.939613
 30
0.0
 11
54.831867
 21
98.982823
 31
0.0
  0
LINE
  5
3D7
100
AcDbEntity
  8
ALPHA
100
AcDbLine
 10
54.831867
 20
87.589844
 30
0.0
 11
54.831867
 21
87.188533
 31
0.0
  0
LINE
  5
3D8
100
AcDbEntity
  8
ALPHA
100
AcDbLine
 10
54.831867
 20
104.733903
 30
0.0
 11
54.831867
 21
104.332592
 31
0.0
  0
LINE
  5
3D9
100
AcDbEntity
  8
ALPHA
100
AcDbLine
 10
51.531867
 20
87.188533
 30
0.0
 11
51.531867
 21
87.061218
 31
0.0
  0
LINE
  5
3DA
100
AcDbEntity
  8
ALPHA
100
AcDbLine
 10
51.531867
 20
89.126879
 30
0.0
 11
51.531867
 21
88.266514
 31
0.0
  0
LINE
  5
3DB
100
AcDbEntity
  8
ALPHA
100
AcDbLine
 10
51.531867
 20
91.488909
 30
0.0
 11
51.531867
 21
90.260181
 31
0.0
  0
LINE
  5
3DC
100
AcDbEntity
  8
ALPHA
100
AcDbLine
 10
51.531867
 20
97.461218
 30
0.0
 11
51.531867
 21
94.461218
 31
0.0
  0
LINE
  5
3DD
100
AcDbEntity
  8
ALPHA
100
AcDbLine
 10
51.531867
 20
101.662254
 30
0.0
 11
51.531867
 21
100.433526
 31
0.0
  0
LINE
  5
3DE
100
AcDbEntity
  8
ALPHA
100
AcDbLine
 10
51.531867
 20
103.655921
 30
0.0
 11
51.531867
 21
102.795556
 31
0.0
  0
LINE
  5
3DF
100
AcDbEntity
  8
ALPHA
100
AcDbLine
 10
51.531867
 20
104.861218
 30
0.0
 11
51.531867
 21
104.733903
 31
0.0
  0
LINE
  5
3E0
100
AcDbEntity
  8
ALPHA
100
AcDbLine
 10
49.031867
 20
104.861218
 30
0.0
 11
49.031867
 21
87.061218
 31
0.0
  0
LWPOLYLINE
  5
3E1
100
AcDbEntity
  8
ALPHA
100
AcDbPolyline
 90
       10
 70
     0
 43
0.0
 10
42.580978
 20
89.443115
 10
42.679482
 20
89.187741
 10
42.776476
 20
88.944029
 10
42.869869
 20
88.715902
 10
42.958979
 20
88.503666
 10
43.043188
 20
88.30757
 10
43.12195
 20
88.127792
 10
43.194836
 20
87.964346
 10
43.261508
 20
87.817144
 10
43.321684
 20
87.686076
  0
LINE
  5
3ED
100
AcDbEntity
  8
ALPHA
100
AcDbLine
 10
43.321713
 20
87.686012
 30
0.0
 11
43.375173
 21
87.570935
 31
0.0
  0
LINE
  5
3EE
100
AcDbEntity
  8
ALPHA
100
AcDbLine
 10
43.37515
 20
87.570984
 30
0.0
 11
43.461322
 21
87.388047
 31
0.0
  0
LINE
  5
3EF
100
AcDbEntity
  8
ALPHA
100
AcDbLine
 10
43.461322
 20
87.388047
 30
0.0
 11
43.551784
 21
87.199212
 31
0.0
  0
LINE
  5
3F0
100
AcDbEntity
  8
ALPHA
100
AcDbLine
 10
43.551784
 20
104.723225
 30
0.0
 11
43.49381
 21
104.602574
 31
0.0
  0
LINE
  5
3F1
100
AcDbEntity
  8
ALPHA
100
AcDbLine
 10
43.49381
 20
104.602574
 30
0.0
 11
43.421739
 21
104.450739
 31
0.0
  0
LINE
  5
3F2
100
AcDbEntity
  8
ALPHA
100
AcDbLine
 10
43.421739
 20
104.450739
 30
0.0
 11
43.321684
 21
104.236359
 31
0.0
  0
LWPOLYLINE
  5
3F3
100
AcDbEntity
  8
ALPHA
100
AcDbPolyline
 90
        6
 70
     0
 43
0.0
 10
43.321684
 20
104.236359
 10
43.261508
 20
104.105291
 10
43.194836
 20
103.958089
 10
43.12195
 20
103.794644
 10
43.043188
 20
103.614866
 10
42.958979
 20
103.41877
  0
LWPOLYLINE
  5
3FB
100
AcDbEntity
  8
ALPHA
100
AcDbPolyline
 90
        5
 70
     0
 43
0.0
 10
42.958979
 20
103.41877
 10
42.869952
 20
103.206734
 10
42.77657
 20
102.978637
 10
42.679585
 20
102.734957
 10
42.580978
 20
102.47932
  0
LWPOLYLINE
  5
402
100
AcDbEntity
  8
ALPHA
100
AcDbPolyline
 90
       20
 70
     0
 43
0.0
 10
42.580978
 20
102.479319
 10
42.577304
 20
102.470485
 10
42.572064
 20
102.459935
 10
42.566034
 20
102.449659
 10
42.55924
 20
102.439669
 10
42.55168
 20
102.429959
 10
42.543312
 20
102.42051
 10
42.534151
 20
102.411391
 10
42.524276
 20
102.402719
 10
42.51378
 20
102.394602
 10
42.502717
 20
102.387098
 10
42.491084
 20
102.380226
 10
42.478835
 20
102.373998
 10
42.465952
 20
102.368465
 10
42.452558
 20
102.363732
 10
42.438816
 20
102.359892
 10
42.424944
 20
102.357007
 10
42.411205
 20
102.355097
 10
42.397866
 20
102.354126
 10
42.389442
 20
102.353955
  0
LINE
  5
418
100
AcDbEntity
  8
ALPHA
100
AcDbLine
 10
42.831867
 20
103.282973
 30
0.0
 11
42.831867
 21
103.551218
 31
0.0
  0
LINE
  5
419
100
AcDbEntity
  8
ALPHA
100
AcDbLine
 10
42.831867
 20
88.371218
 30
0.0
 11
42.831867
 21
88.639462
 31
0.0
  0
LWPOLYLINE
  5
41A
100
AcDbEntity
  8
ALPHA
100
AcDbPolyline
 90
       13
 70
     0
 43
0.0
 10
41.519039
 20
89.737361
 10
41.523696
 20
89.715687
 10
41.530907
 20
89.694203
 10
41.540466
 20
89.673739
 10
41.553228
 20
89.653117
 10
41.568841
 20
89.633697
 10
41.585504
 20
89.61744
 10
41.605829
 20
89.601959
 10
41.626464
 20
89.589944
 10
41.648867
 20
89.580299
 10
41.671308
 20
89.573677
 10
41.694274
 20
89.56973
 10
41.716603
 20
89.56848
  0
INSERT
  5
46E
100
AcDbEntity
  8
ALPHA
100
AcDbBlockReference
  2
SCH_ISO
 10
0.0
 20
0.0
 30
0.0
  0
DIMENSION
  5
480
100
AcDbEntity
  8
COTATION1
100
AcDbDimension
  2
*D6
 10
27.207674
 20
103.961218
 30
0.0
 11
24.707674
 21
95.961218
 31
0.0
  3
SC_STAND
100
AcDbAlignedDimension
 13
56.031867
 23
87.961218
 33
0.0
 14
56.031867
 24
103.961218
 34
0.0
 50
90.0
100
AcDbRotatedDimension
  0
DIMENSION
  5
48D
100
AcDbEntity
  8
COTATION1
100
AcDbDimension
  2
*D5
 10
41.031867
 20
67.456481
 30
0.0
 11
48.531867
 21
69.956481
 31
0.0
  3
SC_STAND
100
AcDbAlignedDimension
 13
56.031867
 23
87.589844
 33
0.0
 14
41.031867
 24
95.961218
 34
0.0
100
AcDbRotatedDimension
  0
ENDSEC
  0
SECTION
  2
OBJECTS
  0
DICTIONARY
  5
4B7
100
AcDbDictionary
  3
ACAD_GROUP
350
4B8
  3
ACAD_MLINESTYLE
350
4C5
  3
ACDBVARIABLEDICTIONARY
350
505
  0
DICTIONARY
  5
4B8
102
{ACAD_REACTORS
330
4B7
102
}
100
AcDbDictionary
  0
DICTIONARY
  5
4C5
102
{ACAD_REACTORS
330
4B7
102
}
100
AcDbDictionary
  3
STANDARD
350
4C6
  0
DICTIONARY
  5
505
102
{ACAD_REACTORS
330
4B7
102
}
100
AcDbDictionary
  3
DIMADEC
350
506
  0
MLINESTYLE
  5
4C6
102
{ACAD_REACTORS
330
4C5
102
}
100
AcDbMlineStyle
  2
STANDARD
 70
     0
  3

 62
   256
 51
90.0
 52
90.0
 71
     2
 49
0.5
 62
   256
  6
BYLAYER
 49
-0.5
 62
   256
  6
BYLAYER
  0
DICTIONARYVAR
  5
506
102
{ACAD_REACTORS
330
505
102
}
100
DictionaryVariables
280
     0
  1
0
  0
ENDSEC
  0
EOF
