  0
SECTION
  2
HEADER
  9
$ACADVER
  1
AC1014
  9
$ACADMAINTVER
 70
     0
  9
$DWGCODEPAGE
  3
ANSI_1252
  9
$INSBASE
 10
65.967914
 20
97.78287
 30
0.0
  9
$EXTMIN
 10
49.900155
 20
65.372684
 30
0.0
  9
$EXTMAX
 10
87.405579
 20
120.751175
 30
0.0
  9
$LIMMIN
 10
0.0
 20
0.0
  9
$LIMMAX
 10
210.0
 20
297.0
  9
$ORTHOMODE
 70
     1
  9
$REGENMODE
 70
     1
  9
$FILLMODE
 70
     1
  9
$QTEXTMODE
 70
     0
  9
$MIRRTEXT
 70
     1
  9
$DRAGMODE
 70
     2
  9
$LTSCALE
 40
7.0
  9
$OSMODE
 70
     0
  9
$ATTMODE
 70
     1
  9
$TEXTSIZE
 40
0.2
  9
$TRACEWID
 40
0.05
  9
$TEXTSTYLE
  7
STANDARD
  9
$CLAYER
  8
COTATION1
  9
$CELTYPE
  6
BYLAYER
  9
$CECOLOR
 62
   256
  9
$CELTSCALE
 40
1.0
  9
$DELOBJ
 70
     1
  9
$DISPSILH
 70
     0
  9
$DIMSCALE
 40
1.0
  9
$DIMASZ
 40
3.0
  9
$DIMEXO
 40
0.0625
  9
$DIMDLI
 40
0.38
  9
$DIMRND
 40
0.01
  9
$DIMDLE
 40
0.0
  9
$DIMEXE
 40
0.18
  9
$DIMTP
 40
0.0
  9
$DIMTM
 40
0.0
  9
$DIMTXT
 40
2.5
  9
$DIMCEN
 40
0.09
  9
$DIMTSZ
 40
0.0
  9
$DIMTOL
 70
     0
  9
$DIMLIM
 70
     0
  9
$DIMTIH
 70
     0
  9
$DIMTOH
 70
     0
  9
$DIMSE1
 70
     0
  9
$DIMSE2
 70
     0
  9
$DIMTAD
 70
     1
  9
$DIMZIN
 70
    12
  9
$DIMBLK
  1

  9
$DIMASO
 70
     1
  9
$DIMSHO
 70
     1
  9
$DIMPOST
  1

  9
$DIMAPOST
  1

  9
$DIMALT
 70
     0
  9
$DIMALTD
 70
     2
  9
$DIMALTF
 40
25.4
  9
$DIMLFAC
 40
1.0
  9
$DIMTOFL
 70
     1
  9
$DIMTVP
 40
0.0
  9
$DIMTIX
 70
     0
  9
$DIMSOXD
 70
     0
  9
$DIMSAH
 70
     0
  9
$DIMBLK1
  1

  9
$DIMBLK2
  1

  9
$DIMSTYLE
  2
SC_STAND
  9
$DIMCLRD
 70
     0
  9
$DIMCLRE
 70
     0
  9
$DIMCLRT
 70
     0
  9
$DIMTFAC
 40
1.0
  9
$DIMGAP
 40
1.0
  9
$DIMJUST
 70
     0
  9
$DIMSD1
 70
     0
  9
$DIMSD2
 70
     0
  9
$DIMTOLJ
 70
     1
  9
$DIMTZIN
 70
    12
  9
$DIMALTZ
 70
    12
  9
$DIMALTTZ
 70
    12
  9
$DIMFIT
 70
     5
  9
$DIMUPT
 70
     0
  9
$DIMUNIT
 70
     2
  9
$DIMDEC
 70
     4
  9
$DIMTDEC
 70
     4
  9
$DIMALTU
 70
     2
  9
$DIMALTTD
 70
     2
  9
$DIMTXSTY
  7
STANDARD
  9
$DIMAUNIT
 70
     0
  9
$LUNITS
 70
     2
  9
$LUPREC
 70
     4
  9
$SKETCHINC
 40
0.1
  9
$FILLETRAD
 40
0.0
  9
$AUNITS
 70
     0
  9
$AUPREC
 70
     0
  9
$MENU
  1
acad
  9
$ELEVATION
 40
0.0
  9
$PELEVATION
 40
0.0
  9
$THICKNESS
 40
0.0
  9
$LIMCHECK
 70
     0
  9
$BLIPMODE
 70
     1
  9
$CHAMFERA
 40
0.0
  9
$CHAMFERB
 40
0.0
  9
$CHAMFERC
 40
0.0
  9
$CHAMFERD
 40
0.0
  9
$SKPOLY
 70
     0
  9
$TDCREATE
 40
2451086.449042592
  9
$TDUPDATE
 40
2451387.897896146
  9
$TDINDWG
 40
0.0000445718
  9
$TDUSRTIMER
 40
0.0000445718
  9
$USRTIMER
 70
     1
  9
$ANGBASE
 50
0.0
  9
$ANGDIR
 70
     0
  9
$PDMODE
 70
     0
  9
$PDSIZE
 40
0.0
  9
$PLINEWID
 40
0.0
  9
$COORDS
 70
     1
  9
$SPLFRAME
 70
     0
  9
$SPLINETYPE
 70
     6
  9
$SPLINESEGS
 70
     8
  9
$ATTDIA
 70
     0
  9
$ATTREQ
 70
     1
  9
$HANDLING
 70
     1
  9
$HANDSEED
  5
17DD
  9
$SURFTAB1
 70
     6
  9
$SURFTAB2
 70
     6
  9
$SURFTYPE
 70
     6
  9
$SURFU
 70
     6
  9
$SURFV
 70
     6
  9
$UCSNAME
  2

  9
$UCSORG
 10
0.0
 20
0.0
 30
0.0
  9
$UCSXDIR
 10
1.0
 20
0.0
 30
0.0
  9
$UCSYDIR
 10
0.0
 20
1.0
 30
0.0
  9
$PUCSNAME
  2

  9
$PUCSORG
 10
0.0
 20
0.0
 30
0.0
  9
$PUCSXDIR
 10
1.0
 20
0.0
 30
0.0
  9
$PUCSYDIR
 10
0.0
 20
1.0
 30
0.0
  9
$USERI1
 70
     0
  9
$USERI2
 70
     0
  9
$USERI3
 70
     0
  9
$USERI4
 70
     0
  9
$USERI5
 70
     0
  9
$USERR1
 40
0.0
  9
$USERR2
 40
0.0
  9
$USERR3
 40
0.0
  9
$USERR4
 40
0.0
  9
$USERR5
 40
0.0
  9
$WORLDVIEW
 70
     1
  9
$SHADEDGE
 70
     3
  9
$SHADEDIF
 70
    70
  9
$TILEMODE
 70
     1
  9
$MAXACTVP
 70
    16
  9
$PINSBASE
 10
0.0
 20
0.0
 30
0.0
  9
$PLIMCHECK
 70
     0
  9
$PEXTMIN
 10
1.000000E+20
 20
1.000000E+20
 30
1.000000E+20
  9
$PEXTMAX
 10
-1.000000E+20
 20
-1.000000E+20
 30
-1.000000E+20
  9
$PLIMMIN
 10
0.0
 20
0.0
  9
$PLIMMAX
 10
12.0
 20
9.0
  9
$UNITMODE
 70
     0
  9
$VISRETAIN
 70
     0
  9
$PLINEGEN
 70
     0
  9
$PSLTSCALE
 70
     1
  9
$TREEDEPTH
 70
  3020
  9
$PICKSTYLE
 70
     1
  9
$CMLSTYLE
  2
STANDARD
  9
$CMLJUST
 70
     0
  9
$CMLSCALE
 40
1.0
  9
$PROXYGRAPHICS
 70
     1
  9
$MEASUREMENT
 70
     0
  0
ENDSEC
  0
SECTION
  2
CLASSES
  0
CLASS
  1
DICTIONARYVAR
  2
AcDbDictionaryVar
  3
"AutoCAD"
 90
        0
280
     0
281
     0
  0
CLASS
  1
LWPOLYLINE
  2
AcDbPolyline
  3
"AutoCAD"
 90
        0
280
     0
281
     1
  0
ENDSEC
  0
SECTION
  2
TABLES
  0
TABLE
  2
VPORT
  5
17B1
100
AcDbSymbolTable
 70
     1
  0
VPORT
  5
17D8
100
AcDbSymbolTableRecord
100
AcDbViewportTableRecord
  2
*ACTIVE
 70
     0
 10
0.0
 20
0.0
 11
1.0
 21
1.0
 12
225.654671
 22
135.037441
 13
0.0
 23
0.0
 14
1.0
 24
1.0
 15
0.0
 25
0.0
 16
0.0
 26
0.0
 36
1.0
 17
0.0
 27
0.0
 37
0.0
 40
270.074882
 41
1.671053
 42
50.0
 43
0.0
 44
0.0
 50
0.0
 51
0.0
 71
     0
 72
   100
 73
     1
 74
     1
 75
     0
 76
     0
 77
     0
 78
     0
  0
ENDTAB
  0
TABLE
  2
LTYPE
  5
17AE
100
AcDbSymbolTable
 70
     2
  0
LTYPE
  5
17BA
100
AcDbSymbolTableRecord
100
AcDbLinetypeTableRecord
  2
BYBLOCK
 70
     0
  3

 72
    65
 73
     0
 40
0.0
  0
LTYPE
  5
17BB
100
AcDbSymbolTableRecord
100
AcDbLinetypeTableRecord
  2
BYLAYER
 70
     0
  3

 72
    65
 73
     0
 40
0.0
  0
LTYPE
  5
17BC
100
AcDbSymbolTableRecord
100
AcDbLinetypeTableRecord
  2
CONTINUOUS
 70
     0
  3
Solid line
 72
    65
 73
     0
 40
0.0
  0
LTYPE
  5
17C8
100
AcDbSymbolTableRecord
100
AcDbLinetypeTableRecord
  2
AXES2
 70
     0
  3
___ _ ___ _ ___ _ ___ _ ___ _ ___ _ ___ _ ___ _
 72
    65
 73
     4
 40
1.125
 49
0.75
 74
     0
 49
-0.125
 74
     0
 49
0.125
 74
     0
 49
-0.125
 74
     0
  0
ENDTAB
  0
TABLE
  2
LAYER
  5
17AB
100
AcDbSymbolTable
 70
     5
  0
LAYER
  5
17B7
100
AcDbSymbolTableRecord
100
AcDbLayerTableRecord
  2
0
 70
     0
 62
     7
  6
CONTINUOUS
  0
LAYER
  5
17CB
100
AcDbSymbolTableRecord
100
AcDbLayerTableRecord
  2
AXE
 70
     0
 62
    80
  6
AXES2
  0
LAYER
  5
17CC
100
AcDbSymbolTableRecord
100
AcDbLayerTableRecord
  2
COTATION1
 70
     0
 62
     2
  6
CONTINUOUS
  0
LAYER
  5
17CD
100
AcDbSymbolTableRecord
100
AcDbLayerTableRecord
  2
ALPHA
 70
     0
 62
   255
  6
CONTINUOUS
  0
LAYER
  5
17CE
100
AcDbSymbolTableRecord
100
AcDbLayerTableRecord
  2
DEFPOINTS
 70
     0
 62
     7
  6
CONTINUOUS
  0
ENDTAB
  0
TABLE
  2
STYLE
  5
17AC
100
AcDbSymbolTable
 70
     2
  0
STYLE
  5
17B8
100
AcDbSymbolTableRecord
100
AcDbTextStyleTableRecord
  2
STANDARD
 70
     0
 40
0.0
 41
1.0
 50
0.0
 71
     0
 42
0.2
  3
txt
  4

  0
STYLE
  5
17C7
100
AcDbSymbolTableRecord
100
AcDbTextStyleTableRecord
  2
ROMANS
 70
     0
 40
0.0
 41
1.0
 50
0.0
 71
     0
 42
2.9
  3
romans.shx
  4

  0
ENDTAB
  0
TABLE
  2
VIEW
  5
17AF
100
AcDbSymbolTable
 70
     0
  0
ENDTAB
  0
TABLE
  2
UCS
  5
17B0
100
AcDbSymbolTable
 70
     0
  0
ENDTAB
  0
TABLE
  2
APPID
  5
17B2
100
AcDbSymbolTable
 70
     1
  0
APPID
  5
17B9
100
AcDbSymbolTableRecord
100
AcDbRegAppTableRecord
  2
ACAD
 70
     0
  0
ENDTAB
  0
TABLE
  2
DIMSTYLE
  5
17B3
100
AcDbSymbolTable
 70
     1
  0
DIMSTYLE
105
17CA
102
{ACAD_REACTORS
330
1F
330
2D
102
}
100
AcDbSymbolTableRecord
100
AcDbDimStyleTableRecord
  2
SC_STAND
 70
     0
  3

  4

  5

  6

  7

 40
1.0
 41
3.0
 42
0.0625
 43
0.38
 44
0.18
 45
0.01
 46
0.0
 47
0.0
 48
0.0
140
2.5
141
0.09
142
0.0
143
25.4
144
1.0
145
0.0
146
1.0
147
1.0
 71
     0
 72
     0
 73
     0
 74
     0
 75
     0
 76
     0
 77
     1
 78
    12
170
     0
171
     2
172
     1
173
     0
174
     0
175
     0
176
     0
177
     0
178
     0
270
     2
271
     4
272
     4
273
     2
274
     2
340
17B8
275
     0
280
     0
281
     0
282
     0
283
     1
284
    12
285
    12
286
    12
287
     5
288
     0
  0
ENDTAB
  0
TABLE
  2
BLOCK_RECORD
  5
17AA
100
AcDbSymbolTable
 70
     2
  0
BLOCK_RECORD
  5
17C0
100
AcDbSymbolTableRecord
100
AcDbBlockTableRecord
  2
*MODEL_SPACE
  0
BLOCK_RECORD
  5
17BD
100
AcDbSymbolTableRecord
100
AcDbBlockTableRecord
  2
*PAPER_SPACE
  0
BLOCK_RECORD
  5
17C5
100
AcDbSymbolTableRecord
100
AcDbBlockTableRecord
  2
*D0
  0
BLOCK_RECORD
  5
17C6
100
AcDbSymbolTableRecord
100
AcDbBlockTableRecord
  2
*D1
  0
ENDTAB
  0
ENDSEC
  0
SECTION
  2
BLOCKS
  0
BLOCK
  5
17D1
100
AcDbEntity
  8
0
100
AcDbBlockBegin
  2
*MODEL_SPACE
 70
     0
 10
0.0
 20
0.0
 30
0.0
  3
*MODEL_SPACE
  1

  0
ENDBLK
  5
17D2
100
AcDbEntity
  8
0
100
AcDbBlockEnd
  0
BLOCK
  5
17CF
100
AcDbEntity
 67
     1
  8
0
100
AcDbBlockBegin
  2
*PAPER_SPACE
 70
     0
 10
0.0
 20
0.0
 30
0.0
  3
*PAPER_SPACE
  1

  0
ENDBLK
  5
17D0
100
AcDbEntity
 67
     1
  8
0
100
AcDbBlockEnd
  0
BLOCK
  5
38
100
AcDbEntity
  8
0
100
AcDbBlockBegin
  2
*D0
 70
     1
 10
0.0
 20
0.0
 30
0.0
  3
*D0
  1
AVE_GLOBAL
  0
LINE
  5
2F
100
AcDbEntity
  8
0
  6
BYBLOCK
 62
     0
100
AcDbLine
 10
50.107261
 20
80.438675
 30
0.0
 11
50.107261
 21
65.692684
 31
0.0
  0
LINE
  5
30
100
AcDbEntity
  8
0
  6
BYBLOCK
 62
     0
100
AcDbLine
 10
79.907261
 20
80.438675
 30
0.0
 11
79.907261
 21
65.692684
 31
0.0
  0
LINE
  5
31
100
AcDbEntity
  8
0
  6
BYBLOCK
 62
     0
100
AcDbLine
 10
53.107261
 20
65.872684
 30
0.0
 11
76.907261
 21
65.872684
 31
0.0
  0
SOLID
  5
32
100
AcDbEntity
  8
0
  6
BYBLOCK
 62
     0
100
AcDbTrace
 10
53.107261
 20
66.372684
 30
0.0
 11
53.107261
 21
65.372684
 31
0.0
 12
50.107261
 22
65.872684
 32
0.0
 13
50.107261
 23
65.872684
 33
0.0
  0
SOLID
  5
33
100
AcDbEntity
  8
0
  6
BYBLOCK
 62
     0
100
AcDbTrace
 10
76.907261
 20
66.372684
 30
0.0
 11
76.907261
 21
65.372684
 31
0.0
 12
79.907261
 22
65.872684
 32
0.0
 13
79.907261
 23
65.872684
 33
0.0
  0
TEXT
  5
34
100
AcDbEntity
  8
0
  6
BYBLOCK
 62
     0
100
AcDbText
 10
60.840595
 20
66.872684
 30
0.0
 40
2.5
  1
29.8
  7
ROMANS
100
AcDbText
  0
POINT
  5
35
100
AcDbEntity
  8
DEFPOINTS
  6
BYBLOCK
 62
     0
100
AcDbPoint
 10
50.107261
 20
80.501175
 30
0.0
  0
POINT
  5
36
100
AcDbEntity
  8
DEFPOINTS
  6
BYBLOCK
 62
     0
100
AcDbPoint
 10
79.907261
 20
80.501175
 30
0.0
  0
POINT
  5
37
100
AcDbEntity
  8
DEFPOINTS
  6
BYBLOCK
 62
     0
100
AcDbPoint
 10
79.907261
 20
65.872684
 30
0.0
  0
ENDBLK
  5
39
100
AcDbEntity
  8
0
100
AcDbBlockEnd
  0
BLOCK
  5
2B
100
AcDbEntity
  8
0
100
AcDbBlockBegin
  2
*D1
 70
     1
 10
0.0
 20
0.0
 30
0.0
  3
*D1
  1
AVE_GLOBAL
  0
LINE
  5
21
100
AcDbEntity
  8
0
  6
BYBLOCK
 62
     0
100
AcDbLine
 10
78.969761
 20
79.501175
 30
0.0
 11
87.085579
 21
79.501175
 31
0.0
  0
LINE
  5
22
100
AcDbEntity
  8
0
  6
BYBLOCK
 62
     0
100
AcDbLine
 10
75.484121
 20
119.301175
 30
0.0
 11
87.085579
 21
119.301175
 31
0.0
  0
LINE
  5
23
100
AcDbEntity
  8
0
  6
BYBLOCK
 62
     0
100
AcDbLine
 10
86.905579
 20
82.501175
 30
0.0
 11
86.905579
 21
116.301175
 31
0.0
  0
SOLID
  5
24
100
AcDbEntity
  8
0
  6
BYBLOCK
 62
     0
100
AcDbTrace
 10
86.405579
 20
82.501175
 30
0.0
 11
87.405579
 21
82.501175
 31
0.0
 12
86.905579
 22
79.501175
 32
0.0
 13
86.905579
 23
79.501175
 33
0.0
  0
SOLID
  5
25
100
AcDbEntity
  8
0
  6
BYBLOCK
 62
     0
100
AcDbTrace
 10
86.405579
 20
116.301175
 30
0.0
 11
87.405579
 21
116.301175
 31
0.0
 12
86.905579
 22
119.301175
 32
0.0
 13
86.905579
 23
119.301175
 33
0.0
  0
TEXT
  5
26
100
AcDbEntity
  8
0
  6
BYBLOCK
 62
     0
100
AcDbText
 10
85.905579
 20
95.234508
 30
0.0
 40
2.5
  1
39.8
 50
90.0
  7
ROMANS
100
AcDbText
  0
POINT
  5
27
100
AcDbEntity
  8
DEFPOINTS
  6
BYBLOCK
 62
     0
100
AcDbPoint
 10
78.907261
 20
79.501175
 30
0.0
  0
POINT
  5
29
100
AcDbEntity
  8
DEFPOINTS
  6
BYBLOCK
 62
     0
100
AcDbPoint
 10
75.421621
 20
119.301175
 30
0.0
  0
POINT
  5
2A
100
AcDbEntity
  8
DEFPOINTS
  6
BYBLOCK
 62
     0
100
AcDbPoint
 10
86.905579
 20
119.301175
 30
0.0
  0
ENDBLK
  5
2C
100
AcDbEntity
  8
0
100
AcDbBlockEnd
  0
ENDSEC
  0
SECTION
  2
ENTITIES
  0
DIMENSION
  5
1F
100
AcDbEntity
  8
COTATION1
100
AcDbDimension
  2
*D1
 10
86.905579
 20
119.301175
 30
0.0
 11
84.655579
 21
99.401175
 31
0.0
  3
SC_STAND
100
AcDbAlignedDimension
 13
78.907261
 23
79.501175
 33
0.0
 14
75.421621
 24
119.301175
 34
0.0
 50
90.0
100
AcDbRotatedDimension
  0
DIMENSION
  5
2D
100
AcDbEntity
  8
COTATION1
100
AcDbDimension
  2
*D0
 10
79.907261
 20
65.872684
 30
0.0
 11
65.007261
 21
68.122684
 31
0.0
  3
SC_STAND
100
AcDbAlignedDimension
 13
50.107261
 23
80.501175
 33
0.0
 14
79.907261
 24
80.501175
 34
0.0
100
AcDbRotatedDimension
  0
LINE
  5
3A
100
AcDbEntity
  8
AXE
100
AcDbLine
 10
73.506311
 20
83.985149
 30
0.0
 11
67.992242
 21
80.801824
 31
0.0
  0
ARC
  5
3D
100
AcDbEntity
  8
AXE
100
AcDbCircle
 10
72.756351
 20
85.28421
 30
0.0
 40
1.5
100
AcDbArc
 50
299.998256
 51
359.998256
  0
LINE
  5
3E
100
AcDbEntity
  8
AXE
100
AcDbLine
 10
74.257223
 20
113.951114
 30
0.0
 11
74.256351
 21
85.284165
 31
0.0
  0
ARC
  5
3F
100
AcDbEntity
  8
AXE
100
AcDbCircle
 10
72.257223
 20
113.951175
 30
0.0
 40
2.0
100
AcDbArc
 50
359.998256
 51
90.0
  0
LINE
  5
40
100
AcDbEntity
  8
AXE
100
AcDbLine
 10
68.745627
 20
115.951175
 30
0.0
 11
72.257223
 21
115.951175
 31
0.0
  0
ARC
  5
41
100
AcDbEntity
  8
ALPHA
100
AcDbCircle
 10
68.745627
 20
117.451175
 30
0.0
 40
1.5
100
AcDbArc
 50
257.905243
 51
270.0
  0
LINE
  5
43
100
AcDbEntity
  8
ALPHA
100
AcDbLine
 10
65.321555
 20
116.650852
 30
0.0
 11
68.431334
 21
115.984471
 31
0.0
  0
ARC
  5
44
100
AcDbEntity
  8
ALPHA
100
AcDbCircle
 10
65.007261
 20
115.184149
 30
0.0
 40
1.5
100
AcDbArc
 50
77.905243
 51
102.094757
  0
LINE
  5
45
100
AcDbEntity
  8
ALPHA
100
AcDbLine
 10
61.583189
 20
115.984471
 30
0.0
 11
64.692968
 21
116.650852
 31
0.0
  0
ARC
  5
46
100
AcDbEntity
  8
ALPHA
100
AcDbCircle
 10
61.268896
 20
117.451175
 30
0.0
 40
1.5
100
AcDbArc
 50
270.0
 51
282.094757
  0
LINE
  5
47
100
AcDbEntity
  8
AXE
100
AcDbLine
 10
57.757299
 20
115.951175
 30
0.0
 11
61.268896
 21
115.951175
 31
0.0
  0
ARC
  5
48
100
AcDbEntity
  8
AXE
100
AcDbCircle
 10
57.757299
 20
113.951175
 30
0.0
 40
2.0
100
AcDbArc
 50
90.0
 51
180.001744
  0
LINE
  5
49
100
AcDbEntity
  8
AXE
100
AcDbLine
 10
55.758172
 20
85.284165
 30
0.0
 11
55.757299
 21
113.951114
 31
0.0
  0
ARC
  5
4A
100
AcDbEntity
  8
AXE
100
AcDbCircle
 10
57.258172
 20
85.28421
 30
0.0
 40
1.5
100
AcDbArc
 50
180.001744
 51
240.001744
  0
LINE
  5
4B
100
AcDbEntity
  8
AXE
100
AcDbLine
 10
62.022281
 20
80.801824
 30
0.0
 11
56.508212
 21
83.985149
 31
0.0
  0
LINE
  5
4C
100
AcDbEntity
  8
ALPHA
100
AcDbLine
 10
54.307261
 20
108.114572
 30
0.0
 11
54.307261
 21
106.191996
 31
0.0
  0
LWPOLYLINE
  5
4D
100
AcDbEntity
  8
ALPHA
100
AcDbPolyline
 90
        6
 70
     0
 43
0.0
 10
54.307261
 20
106.191996
 10
54.220812
 20
106.20669
 10
54.136296
 20
106.253753
 10
54.068811
 20
106.328195
 10
54.023552
 20
106.425805
 10
54.007261
 20
106.538406
  0
LINE
  5
55
100
AcDbEntity
  8
ALPHA
100
AcDbLine
 10
59.057261
 20
89.343737
 30
0.0
 11
60.407261
 21
89.343737
 31
0.0
  0
LINE
  5
56
100
AcDbEntity
  8
ALPHA
100
AcDbLine
 10
59.057261
 20
84.608291
 30
0.0
 11
50.957261
 21
84.608291
 31
0.0
  0
LINE
  5
57
100
AcDbEntity
  8
ALPHA
100
AcDbLine
 10
53.007261
 20
109.977216
 30
0.0
 11
53.707261
 21
109.977216
 31
0.0
  0
LINE
  5
58
100
AcDbEntity
  8
ALPHA
100
AcDbLine
 10
61.881099
 20
80.6473
 30
0.0
 11
51.107261
 21
80.6473
 31
0.0
  0
LWPOLYLINE
  5
59
100
AcDbEntity
  8
ALPHA
100
AcDbPolyline
 90
        5
 70
     0
 43
0.0
 10
53.007261
 20
109.977216
 10
53.007261
 20
110.007012
 10
53.007261
 20
110.073397
 10
53.007261
 20
110.167343
 10
53.007261
 20
110.276074
  0
LINE
  5
60
100
AcDbEntity
  8
ALPHA
100
AcDbLine
 10
78.907261
 20
80.6473
 30
0.0
 11
68.133424
 21
80.6473
 31
0.0
  0
LINE
  5
61
100
AcDbEntity
  8
ALPHA
100
AcDbLine
 10
53.007261
 20
110.276074
 30
0.0
 11
53.707261
 21
110.276074
 31
0.0
  0
LINE
  5
62
100
AcDbEntity
  8
ALPHA
100
AcDbLine
 10
53.707261
 20
109.977216
 30
0.0
 11
53.707261
 21
110.276074
 31
0.0
  0
LINE
  5
63
100
AcDbEntity
  8
ALPHA
100
AcDbLine
 10
54.307261
 20
109.673782
 30
0.0
 11
54.307261
 21
108.37438
 31
0.0
  0
LWPOLYLINE
  5
64
100
AcDbEntity
  8
ALPHA
100
AcDbPolyline
 90
        4
 70
     0
 43
0.0
 10
55.707261
 20
108.114572
 10
55.707261
 20
108.181544
 10
55.707261
 20
108.271774
 10
55.707261
 20
108.37438
  0
LINE
  5
6A
100
AcDbEntity
  8
ALPHA
100
AcDbLine
 10
54.307261
 20
108.114572
 30
0.0
 11
55.707261
 21
108.114572
 31
0.0
  0
LWPOLYLINE
  5
6B
100
AcDbEntity
  8
ALPHA
100
AcDbPolyline
 90
        4
 70
     0
 43
0.0
 10
54.307261
 20
108.114572
 10
54.30726
 20
108.181969
 10
54.307264
 20
108.272797
 10
54.307261
 20
108.37438
  0
LINE
  5
71
100
AcDbEntity
  8
ALPHA
100
AcDbLine
 10
54.307261
 20
108.37438
 30
0.0
 11
55.707261
 21
108.37438
 31
0.0
  0
LINE
  5
72
100
AcDbEntity
  8
ALPHA
100
AcDbLine
 10
55.707261
 20
108.37438
 30
0.0
 11
55.707261
 21
109.673782
 31
0.0
  0
LINE
  5
73
100
AcDbEntity
  8
ALPHA
100
AcDbLine
 10
53.007261
 20
114.805635
 30
0.0
 11
53.007261
 21
114.525134
 31
0.0
  0
LINE
  5
74
100
AcDbEntity
  8
ALPHA
100
AcDbLine
 10
60.407261
 20
90.201175
 30
0.0
 11
59.057261
 21
90.201175
 31
0.0
  0
LINE
  5
75
100
AcDbEntity
  8
ALPHA
100
AcDbLine
 10
52.957261
 20
107.773928
 30
0.0
 11
50.757261
 21
107.773928
 31
0.0
  0
LINE
  5
76
100
AcDbEntity
  8
ALPHA
100
AcDbLine
 10
52.957261
 20
106.973928
 30
0.0
 11
50.757261
 21
106.973928
 31
0.0
  0
LWPOLYLINE
  5
77
100
AcDbEntity
  8
ALPHA
100
AcDbPolyline
 90
        5
 70
     0
 43
0.0
 10
56.907261
 20
114.805635
 10
57.021916
 20
114.782774
 10
57.11928
 20
114.717545
 10
57.184363
 20
114.619883
 10
57.207261
 20
114.504489
  0
LINE
  5
7E
100
AcDbEntity
  8
ALPHA
100
AcDbLine
 10
50.107261
 20
90.645728
 30
0.0
 11
50.957261
 21
90.645728
 31
0.0
  0
LINE
  5
7F
100
AcDbEntity
  8
ALPHA
100
AcDbLine
 10
56.907261
 20
114.525134
 30
0.0
 11
56.907261
 21
114.805635
 31
0.0
  0
LWPOLYLINE
  5
80
100
AcDbEntity
  8
ALPHA
100
AcDbPolyline
 90
        5
 70
     0
 43
0.0
 10
57.207261
 20
109.99786
 10
57.184363
 20
109.882467
 10
57.11928
 20
109.784804
 10
57.021916
 20
109.719575
 10
56.907261
 20
109.696714
  0
LINE
  5
87
100
AcDbEntity
  8
ALPHA
100
AcDbLine
 10
56.907261
 20
109.696714
 30
0.0
 11
56.907261
 21
109.977216
 31
0.0
  0
LINE
  5
88
100
AcDbEntity
  8
ALPHA
100
AcDbLine
 10
56.007261
 20
109.673782
 30
0.0
 11
55.707261
 21
109.673782
 31
0.0
  0
LWPOLYLINE
  5
89
100
AcDbEntity
  8
ALPHA
100
AcDbPolyline
 90
        5
 70
     0
 43
0.0
 10
53.007261
 20
109.696714
 10
52.892607
 20
109.719575
 10
52.795243
 20
109.784804
 10
52.73016
 20
109.882467
 10
52.707261
 20
109.99786
  0
LINE
  5
90
100
AcDbEntity
  8
ALPHA
100
AcDbLine
 10
59.207261
 20
107.773928
 30
0.0
 11
57.007261
 21
107.773928
 31
0.0
  0
LINE
  5
91
100
AcDbEntity
  8
ALPHA
100
AcDbLine
 10
59.207261
 20
106.973928
 30
0.0
 11
57.007261
 21
106.973928
 31
0.0
  0
LWPOLYLINE
  5
92
100
AcDbEntity
  8
ALPHA
100
AcDbPolyline
 90
        4
 70
     0
 43
0.0
 10
52.765022
 20
110.099768
 10
52.832133
 20
110.03343
 10
52.915883
 20
109.991412
 10
53.007261
 20
109.977216
  0
LWPOLYLINE
  5
98
100
AcDbEntity
  8
ALPHA
100
AcDbPolyline
 90
        3
 70
     0
 43
0.0
 10
52.707261
 20
110.276074
 10
52.722086
 20
110.183292
 10
52.765022
 20
110.099768
  0
LINE
  5
9D
100
AcDbEntity
  8
ALPHA
100
AcDbLine
 10
53.007261
 20
109.977216
 30
0.0
 11
53.007261
 21
109.696714
 31
0.0
  0
LINE
  5
9E
100
AcDbEntity
  8
ALPHA
100
AcDbLine
 10
56.307261
 20
109.977216
 30
0.0
 11
56.907261
 21
109.977216
 31
0.0
  0
LWPOLYLINE
  5
9F
100
AcDbEntity
  8
ALPHA
100
AcDbPolyline
 90
        4
 70
     0
 43
0.0
 10
57.149501
 20
110.099768
 10
57.08239
 20
110.03343
 10
56.99864
 20
109.991412
 10
56.907261
 20
109.977216
  0
LWPOLYLINE
  5
A5
100
AcDbEntity
  8
ALPHA
100
AcDbPolyline
 90
        3
 70
     0
 43
0.0
 10
57.207261
 20
110.276074
 10
57.192437
 20
110.183292
 10
57.149501
 20
110.099768
  0
LINE
  5
AA
100
AcDbEntity
  8
ALPHA
100
AcDbLine
 10
58.807261
 20
113.501175
 30
0.0
 11
60.407261
 21
113.501175
 31
0.0
  0
LINE
  5
AB
100
AcDbEntity
  8
ALPHA
100
AcDbLine
 10
56.307261
 20
109.977216
 30
0.0
 11
56.307261
 21
110.276074
 31
0.0
  0
LINE
  5
AC
100
AcDbEntity
  8
ALPHA
100
AcDbLine
 10
56.307261
 20
110.276074
 30
0.0
 11
56.907261
 21
110.276074
 31
0.0
  0
LWPOLYLINE
  5
AD
100
AcDbEntity
  8
ALPHA
100
AcDbPolyline
 90
        5
 70
     0
 43
0.0
 10
56.907261
 20
109.977216
 10
56.907261
 20
110.007012
 10
56.907261
 20
110.073397
 10
56.907261
 20
110.167343
 10
56.907261
 20
110.276074
  0
LINE
  5
B4
100
AcDbEntity
  8
ALPHA
100
AcDbLine
 10
56.907261
 20
110.276074
 30
0.0
 11
56.907261
 21
114.226275
 31
0.0
  0
LWPOLYLINE
  5
B5
100
AcDbEntity
  8
ALPHA
100
AcDbPolyline
 90
        5
 70
     0
 43
0.0
 10
56.907261
 20
114.226275
 10
56.907261
 20
114.335007
 10
56.907261
 20
114.428953
 10
56.907261
 20
114.495337
 10
56.907261
 20
114.525134
  0
LINE
  5
BC
100
AcDbEntity
  8
ALPHA
100
AcDbLine
 10
53.007261
 20
114.226275
 30
0.0
 11
56.907261
 21
114.226275
 31
0.0
  0
LWPOLYLINE
  5
BD
100
AcDbEntity
  8
ALPHA
100
AcDbPolyline
 90
        5
 70
     0
 43
0.0
 10
53.007261
 20
114.226275
 10
53.007265
 20
114.333551
 10
53.007259
 20
114.428195
 10
53.007262
 20
114.495131
 10
53.007261
 20
114.525134
  0
LWPOLYLINE
  5
C4
100
AcDbEntity
  8
ALPHA
100
AcDbPolyline
 90
       10
 70
     0
 43
0.0
 10
63.300837
 20
118.901175
 10
63.64421
 20
119.203939
 10
64.016053
 20
119.429477
 10
64.406044
 20
119.578674
 10
64.805904
 20
119.652789
 10
65.208881
 20
119.652765
 10
65.608731
 20
119.578603
 10
65.998696
 20
119.429366
 10
66.370559
 20
119.203757
 10
66.713912
 20
118.901175
  0
LINE
  5
D0
100
AcDbEntity
  8
ALPHA
100
AcDbLine
 10
53.007261
 20
114.525134
 30
0.0
 11
56.907261
 21
114.525134
 31
0.0
  0
LINE
  5
D1
100
AcDbEntity
  8
ALPHA
100
AcDbLine
 10
63.300837
 20
118.901175
 30
0.0
 11
62.407261
 21
118.901175
 31
0.0
  0
LWPOLYLINE
  5
D2
100
AcDbEntity
  8
ALPHA
100
AcDbPolyline
 90
        4
 70
     0
 43
0.0
 10
63.300837
 20
118.901175
 10
63.190631
 20
118.611972
 10
63.089418
 20
118.311836
 10
62.996297
 20
118.001175
  0
LWPOLYLINE
  5
D8
100
AcDbEntity
  8
ALPHA
100
AcDbPolyline
 90
        4
 70
     0
 43
0.0
 10
66.713912
 20
118.901175
 10
66.823902
 20
118.611944
 10
66.925109
 20
118.311822
 10
67.018227
 20
118.001175
  0
LINE
  5
DE
100
AcDbEntity
  8
ALPHA
100
AcDbLine
 10
67.607261
 20
118.901175
 30
0.0
 11
66.713912
 21
118.901175
 31
0.0
  0
LWPOLYLINE
  5
DF
100
AcDbEntity
  8
ALPHA
100
AcDbPolyline
 90
        5
 70
     0
 43
0.0
 10
52.707261
 20
114.504489
 10
52.73016
 20
114.619883
 10
52.795243
 20
114.717545
 10
52.892607
 20
114.782774
 10
53.007261
 20
114.805635
  0
LWPOLYLINE
  5
E6
100
AcDbEntity
  8
ALPHA
100
AcDbPolyline
 90
        4
 70
     0
 43
0.0
 10
52.763694
 20
114.400748
 10
52.830327
 20
114.467627
 10
52.914169
 20
114.510377
 10
53.007261
 20
114.525134
  0
LWPOLYLINE
  5
EC
100
AcDbEntity
  8
ALPHA
100
AcDbPolyline
 90
        3
 70
     0
 43
0.0
 10
52.707261
 20
114.226275
 10
52.721514
 20
114.317301
 10
52.763694
 20
114.400748
  0
LWPOLYLINE
  5
F1
100
AcDbEntity
  8
ALPHA
100
AcDbPolyline
 90
        3
 70
     0
 43
0.0
 10
56.095243
 20
109.608624
 10
56.03016
 20
109.510962
 10
56.007261
 20
109.395568
  0
LWPOLYLINE
  5
F6
100
AcDbEntity
  8
ALPHA
100
AcDbPolyline
 90
        3
 70
     0
 43
0.0
 10
56.307261
 20
109.696714
 10
56.192607
 20
109.673853
 10
56.095243
 20
109.608624
  0
LINE
  5
FB
100
AcDbEntity
  8
ALPHA
100
AcDbLine
 10
78.907261
 20
80.6473
 30
0.0
 11
78.907261
 21
79.501175
 31
0.0
  0
LINE
  5
FC
100
AcDbEntity
  8
ALPHA
100
AcDbLine
 10
68.407261
 20
115.901175
 30
0.0
 11
68.807261
 21
116.098625
 31
0.0
  0
LINE
  5
FD
100
AcDbEntity
  8
ALPHA
100
AcDbLine
 10
68.407261
 20
115.901175
 30
0.0
 11
68.407261
 21
114.501175
 31
0.0
  0
LINE
  5
FE
100
AcDbEntity
  8
ALPHA
100
AcDbLine
 10
67.607261
 20
118.901175
 30
0.0
 11
67.607261
 21
118.001175
 31
0.0
  0
LWPOLYLINE
  5
FF
100
AcDbEntity
  8
ALPHA
100
AcDbPolyline
 90
        6
 70
     0
 43
0.0
 10
67.607261
 20
118.901175
 10
67.694509
 20
118.882836
 10
67.778236
 20
118.82553
 10
67.845095
 20
118.735504
 10
67.890282
 20
118.61762
 10
67.907261
 20
118.476911
  0
LINE
  5
107
100
AcDbEntity
  8
ALPHA
100
AcDbLine
 10
71.607261
 20
115.753876
 30
0.0
 11
71.607261
 21
114.001175
 31
0.0
  0
LINE
  5
108
100
AcDbEntity
  8
ALPHA
100
AcDbLine
 10
71.207261
 20
116.0291
 30
0.0
 11
71.607261
 21
115.753876
 31
0.0
  0
LWPOLYLINE
  5
109
100
AcDbEntity
  8
ALPHA
100
AcDbPolyline
 90
        6
 70
     0
 43
0.0
 10
56.307261
 20
109.977216
 10
56.215278
 20
109.962601
 10
56.131983
 20
109.920039
 10
56.06536
 20
109.853249
 10
56.022223
 20
109.768412
 10
56.007261
 20
109.673782
  0
LWPOLYLINE
  5
111
100
AcDbEntity
  8
ALPHA
100
AcDbPolyline
 90
        4
 70
     0
 43
0.0
 10
57.149501
 20
114.402582
 10
57.08239
 20
114.46892
 10
56.99864
 20
114.510938
 10
56.907261
 20
114.525134
  0
LWPOLYLINE
  5
117
100
AcDbEntity
  8
ALPHA
100
AcDbPolyline
 90
        3
 70
     0
 43
0.0
 10
57.207261
 20
114.226275
 10
57.192437
 20
114.319058
 10
57.149501
 20
114.402582
  0
LINE
  5
11C
100
AcDbEntity
  8
ALPHA
100
AcDbLine
 10
56.307261
 20
109.977216
 30
0.0
 11
56.307261
 21
109.696714
 31
0.0
  0
LWPOLYLINE
  5
11D
100
AcDbEntity
  8
ALPHA
100
AcDbPolyline
 90
        5
 70
     0
 43
0.0
 10
54.007261
 20
109.395568
 10
53.984363
 20
109.510962
 10
53.91928
 20
109.608624
 10
53.821916
 20
109.673853
 10
53.707261
 20
109.696714
  0
LINE
  5
124
100
AcDbEntity
  8
ALPHA
100
AcDbLine
 10
53.707261
 20
109.696714
 30
0.0
 11
53.707261
 21
109.977216
 31
0.0
  0
LINE
  5
125
100
AcDbEntity
  8
ALPHA
100
AcDbLine
 10
78.807261
 20
116.0291
 30
0.0
 11
78.407261
 21
115.753876
 31
0.0
  0
LINE
  5
126
100
AcDbEntity
  8
ALPHA
100
AcDbLine
 10
78.407261
 20
115.753876
 30
0.0
 11
78.407261
 21
114.001175
 31
0.0
  0
LWPOLYLINE
  5
127
100
AcDbEntity
  8
ALPHA
100
AcDbPolyline
 90
        7
 70
     0
 43
0.0
 10
78.907261
 20
80.6473
 10
79.16393
 20
80.681317
 10
79.404536
 20
80.78175
 10
79.611814
 20
80.942128
 10
79.771719
 20
81.152266
 10
79.872608
 20
81.397729
 10
79.907261
 20
81.662727
  0
LINE
  5
130
100
AcDbEntity
  8
ALPHA
100
AcDbLine
 10
78.407261
 20
115.753876
 30
0.0
 11
71.607261
 21
115.753876
 31
0.0
  0
LWPOLYLINE
  5
131
100
AcDbEntity
  8
ALPHA
100
AcDbPolyline
 90
        6
 70
     0
 43
0.0
 10
53.707261
 20
109.977216
 10
53.799245
 20
109.962601
 10
53.88254
 20
109.920039
 10
53.949163
 20
109.853249
 10
53.992299
 20
109.768412
 10
54.007261
 20
109.673782
  0
LWPOLYLINE
  5
139
100
AcDbEntity
  8
ALPHA
100
AcDbPolyline
 90
        6
 70
     0
 43
0.0
 10
57.207261
 20
110.276074
 10
57.192437
 20
110.276034
 10
57.149501
 20
110.276129
 10
57.08239
 20
110.276004
 10
56.99864
 20
110.276132
 10
56.907261
 20
110.276074
  0
LWPOLYLINE
  5
141
100
AcDbEntity
  8
ALPHA
100
AcDbPolyline
 90
        6
 70
     0
 43
0.0
 10
57.207261
 20
114.226275
 10
57.192437
 20
114.226316
 10
57.149501
 20
114.226221
 10
57.08239
 20
114.226346
 10
56.99864
 20
114.226217
 10
56.907261
 20
114.226275
  0
LINE
  5
149
100
AcDbEntity
  8
ALPHA
100
AcDbLine
 10
51.107261
 20
79.501175
 30
0.0
 11
51.107261
 21
80.6473
 31
0.0
  0
LINE
  5
14A
100
AcDbEntity
  8
ALPHA
100
AcDbLine
 10
62.407261
 20
118.001175
 30
0.0
 11
62.407261
 21
118.901175
 31
0.0
  0
LINE
  5
14B
100
AcDbEntity
  8
ALPHA
100
AcDbLine
 10
52.957261
 20
105.934697
 30
0.0
 11
50.757261
 21
105.934697
 31
0.0
  0
LINE
  5
14C
100
AcDbEntity
  8
ALPHA
100
AcDbLine
 10
61.607261
 20
115.901175
 30
0.0
 11
61.207261
 21
116.098625
 31
0.0
  0
LINE
  5
14D
100
AcDbEntity
  8
ALPHA
100
AcDbLine
 10
73.107261
 20
114.805635
 30
0.0
 11
77.007261
 21
114.805635
 31
0.0
  0
LINE
  5
14E
100
AcDbEntity
  8
ALPHA
100
AcDbLine
 10
61.607261
 20
114.101175
 30
0.0
 11
61.607261
 21
115.901175
 31
0.0
  0
LWPOLYLINE
  5
14F
100
AcDbEntity
  8
ALPHA
100
AcDbPolyline
 90
        6
 70
     0
 43
0.0
 10
62.107261
 20
118.476911
 10
62.124241
 20
118.61762
 10
62.169428
 20
118.735504
 10
62.236287
 20
118.82553
 10
62.320013
 20
118.882836
 10
62.407261
 20
118.901175
  0
LINE
  5
157
100
AcDbEntity
  8
ALPHA
100
AcDbLine
 10
59.057261
 20
85.901175
 30
0.0
 11
57.907261
 21
85.901175
 31
0.0
  0
LINE
  5
158
100
AcDbEntity
  8
ALPHA
100
AcDbLine
 10
58.407261
 20
110.101175
 30
0.0
 11
58.807261
 21
110.501175
 31
0.0
  0
LINE
  5
159
100
AcDbEntity
  8
ALPHA
100
AcDbLine
 10
60.407261
 20
110.101175
 30
0.0
 11
58.407261
 21
110.101175
 31
0.0
  0
LINE
  5
15A
100
AcDbEntity
  8
ALPHA
100
AcDbLine
 10
58.807261
 20
116.0291
 30
0.0
 11
58.407261
 21
115.753876
 31
0.0
  0
LINE
  5
15B
100
AcDbEntity
  8
ALPHA
100
AcDbLine
 10
58.407261
 20
110.101175
 30
0.0
 11
58.407261
 21
115.753876
 31
0.0
  0
LINE
  5
15C
100
AcDbEntity
  8
ALPHA
100
AcDbLine
 10
51.607261
 20
110.101175
 30
0.0
 11
51.207261
 21
110.501175
 31
0.0
  0
LINE
  5
15D
100
AcDbEntity
  8
ALPHA
100
AcDbLine
 10
51.607261
 20
110.101175
 30
0.0
 11
50.107261
 21
110.101175
 31
0.0
  0
LINE
  5
15E
100
AcDbEntity
  8
ALPHA
100
AcDbLine
 10
51.607261
 20
110.101175
 30
0.0
 11
51.607261
 21
115.753876
 31
0.0
  0
LINE
  5
15F
100
AcDbEntity
  8
ALPHA
100
AcDbLine
 10
51.207261
 20
116.0291
 30
0.0
 11
51.607261
 21
115.753876
 31
0.0
  0
LWPOLYLINE
  5
160
100
AcDbEntity
  8
ALPHA
100
AcDbPolyline
 90
        7
 70
     0
 43
0.0
 10
50.107261
 20
81.662727
 10
50.141915
 20
81.397729
 10
50.242804
 20
81.152266
 10
50.402709
 20
80.942128
 10
50.609987
 20
80.78175
 10
50.850593
 20
80.681317
 10
51.107261
 20
80.6473
  0
LINE
  5
169
100
AcDbEntity
  8
ALPHA
100
AcDbLine
 10
58.807261
 20
117.47438
 30
0.0
 11
51.372463
 21
117.47438
 31
0.0
  0
LINE
  5
16A
100
AcDbEntity
  8
ALPHA
100
AcDbLine
 10
52.957261
 20
108.501175
 30
0.0
 11
50.757261
 21
108.501175
 31
0.0
  0
LINE
  5
16B
100
AcDbEntity
  8
ALPHA
100
AcDbLine
 10
58.807261
 20
117.214572
 30
0.0
 11
51.250462
 21
117.214572
 31
0.0
  0
LINE
  5
16C
100
AcDbEntity
  8
ALPHA
100
AcDbLine
 10
59.207261
 20
108.501175
 30
0.0
 11
57.007261
 21
108.501175
 31
0.0
  0
LINE
  5
16D
100
AcDbEntity
  8
ALPHA
100
AcDbLine
 10
78.764061
 20
117.214572
 30
0.0
 11
71.207261
 21
117.214572
 31
0.0
  0
LINE
  5
16E
100
AcDbEntity
  8
ALPHA
100
AcDbLine
 10
53.707261
 20
109.696714
 30
0.0
 11
53.007261
 21
109.696714
 31
0.0
  0
LINE
  5
16F
100
AcDbEntity
  8
ALPHA
100
AcDbLine
 10
78.64206
 20
117.47438
 30
0.0
 11
71.207261
 21
117.47438
 31
0.0
  0
LINE
  5
170
100
AcDbEntity
  8
ALPHA
100
AcDbLine
 10
58.407261
 20
115.753876
 30
0.0
 11
51.607261
 21
115.753876
 31
0.0
  0
LINE
  5
171
100
AcDbEntity
  8
ALPHA
100
AcDbLine
 10
62.107261
 20
117.501631
 30
0.0
 11
61.207261
 21
117.501631
 31
0.0
  0
LINE
  5
172
100
AcDbEntity
  8
ALPHA
100
AcDbLine
 10
62.107261
 20
117.224466
 30
0.0
 11
61.207261
 21
117.224466
 31
0.0
  0
LINE
  5
173
100
AcDbEntity
  8
ALPHA
100
AcDbLine
 10
68.807261
 20
117.501631
 30
0.0
 11
67.907261
 21
117.501631
 31
0.0
  0
LINE
  5
174
100
AcDbEntity
  8
ALPHA
100
AcDbLine
 10
56.907261
 20
114.805635
 30
0.0
 11
53.007261
 21
114.805635
 31
0.0
  0
LINE
  5
175
100
AcDbEntity
  8
ALPHA
100
AcDbLine
 10
61.607261
 20
115.901175
 30
0.0
 11
62.107261
 21
115.901175
 31
0.0
  0
LINE
  5
176
100
AcDbEntity
  8
ALPHA
100
AcDbLine
 10
68.407261
 20
115.901175
 30
0.0
 11
67.907261
 21
115.901175
 31
0.0
  0
LINE
  5
177
100
AcDbEntity
  8
ALPHA
100
AcDbLine
 10
68.807261
 20
117.224466
 30
0.0
 11
67.907261
 21
117.224466
 31
0.0
  0
LINE
  5
178
100
AcDbEntity
  8
ALPHA
100
AcDbLine
 10
56.907261
 20
109.696714
 30
0.0
 11
56.307261
 21
109.696714
 31
0.0
  0
LINE
  5
179
100
AcDbEntity
  8
ALPHA
100
AcDbLine
 10
55.707261
 20
106.191996
 30
0.0
 11
54.307261
 21
106.191996
 31
0.0
  0
LINE
  5
17A
100
AcDbEntity
  8
ALPHA
100
AcDbLine
 10
59.207261
 20
105.934697
 30
0.0
 11
57.007261
 21
105.934697
 31
0.0
  0
LINE
  5
17B
100
AcDbEntity
  8
ALPHA
100
AcDbLine
 10
62.007261
 20
114.101175
 30
0.0
 11
61.607261
 21
114.101175
 31
0.0
  0
LINE
  5
17C
100
AcDbEntity
  8
ALPHA
100
AcDbLine
 10
68.612406
 20
113.856694
 30
0.0
 11
68.616027
 21
113.852377
 31
0.0
  0
LINE
  5
17D
100
AcDbEntity
  8
ALPHA
100
AcDbLine
 10
68.607261
 20
113.862824
 30
0.0
 11
68.612406
 21
113.856694
 31
0.0
  0
LINE
  5
17E
100
AcDbEntity
  8
ALPHA
100
AcDbLine
 10
61.607261
 20
114.101175
 30
0.0
 11
61.52268
 21
114.000375
 31
0.0
  0
LINE
  5
17F
100
AcDbEntity
  8
ALPHA
100
AcDbLine
 10
50.957261
 20
93.101175
 30
0.0
 11
50.107261
 21
93.101175
 31
0.0
  0
LINE
  5
180
100
AcDbEntity
  8
ALPHA
100
AcDbLine
 10
77.007261
 20
114.226275
 30
0.0
 11
77.007261
 21
113.961441
 31
0.0
  0
LINE
  5
181
100
AcDbEntity
  8
ALPHA
100
AcDbLine
 10
77.007261
 20
114.226275
 30
0.0
 11
77.307261
 21
114.226275
 31
0.0
  0
LINE
  5
182
100
AcDbEntity
  8
ALPHA
100
AcDbLine
 10
52.107261
 20
85.901175
 30
0.0
 11
50.957261
 21
85.901175
 31
0.0
  0
LWPOLYLINE
  5
183
100
AcDbEntity
  8
ALPHA
100
AcDbPolyline
 90
        3
 70
     0
 43
0.0
 10
77.249967
 20
114.40194
 10
77.292578
 20
114.318628
 10
77.307261
 20
114.226275
  0
LWPOLYLINE
  5
188
100
AcDbEntity
  8
ALPHA
100
AcDbPolyline
 90
        4
 70
     0
 43
0.0
 10
77.007261
 20
114.525134
 10
77.099967
 20
114.510507
 10
77.183597
 20
114.468057
 10
77.249967
 20
114.40194
  0
LINE
  5
18E
100
AcDbEntity
  8
ALPHA
100
AcDbLine
 10
77.007261
 20
114.226275
 30
0.0
 11
77.007261
 21
114.525134
 31
0.0
  0
LINE
  5
18F
100
AcDbEntity
  8
ALPHA
100
AcDbLine
 10
73.107261
 20
114.226275
 30
0.0
 11
77.007261
 21
114.226275
 31
0.0
  0
LINE
  5
190
100
AcDbEntity
  8
ALPHA
100
AcDbLine
 10
73.107261
 20
114.226275
 30
0.0
 11
73.107261
 21
114.525134
 31
0.0
  0
LWPOLYLINE
  5
191
100
AcDbEntity
  8
ALPHA
100
AcDbPolyline
 90
        6
 70
     0
 43
0.0
 10
56.007261
 20
108.37438
 10
55.992518
 20
108.293938
 10
55.949777
 20
108.221436
 10
55.883149
 20
108.163925
 10
55.799456
 20
108.12713
 10
55.707261
 20
108.114572
  0
LINE
  5
199
100
AcDbEntity
  8
ALPHA
100
AcDbLine
 10
73.107261
 20
114.525134
 30
0.0
 11
77.007261
 21
114.525134
 31
0.0
  0
LWPOLYLINE
  5
19A
100
AcDbEntity
  8
ALPHA
100
AcDbPolyline
 90
        5
 70
     0
 43
0.0
 10
72.807261
 20
114.504489
 10
72.83016
 20
114.619883
 10
72.895243
 20
114.717545
 10
72.992607
 20
114.782774
 10
73.107261
 20
114.805635
  0
LINE
  5
1A1
100
AcDbEntity
  8
ALPHA
100
AcDbLine
 10
73.107261
 20
114.805635
 30
0.0
 11
73.107261
 21
114.525134
 31
0.0
  0
LINE
  5
1A2
100
AcDbEntity
  8
ALPHA
100
AcDbLine
 10
77.007261
 20
114.525134
 30
0.0
 11
77.007261
 21
114.805635
 31
0.0
  0
LWPOLYLINE
  5
1A3
100
AcDbEntity
  8
ALPHA
100
AcDbPolyline
 90
        5
 70
     0
 43
0.0
 10
77.007261
 20
114.805635
 10
77.121916
 20
114.782774
 10
77.21928
 20
114.717545
 10
77.284363
 20
114.619883
 10
77.307261
 20
114.504489
  0
LWPOLYLINE
  5
1AA
100
AcDbEntity
  8
ALPHA
100
AcDbPolyline
 90
        4
 70
     0
 43
0.0
 10
72.864556
 20
114.40194
 10
72.930926
 20
114.468057
 10
73.014556
 20
114.510507
 10
73.107261
 20
114.525134
  0
LWPOLYLINE
  5
1B0
100
AcDbEntity
  8
ALPHA
100
AcDbPolyline
 90
        3
 70
     0
 43
0.0
 10
72.807261
 20
114.226275
 10
72.821944
 20
114.318628
 10
72.864556
 20
114.40194
  0
LINE
  5
1B5
100
AcDbEntity
  8
ALPHA
100
AcDbLine
 10
61.207261
 20
115.801175
 30
0.0
 11
58.807261
 21
115.801175
 31
0.0
  0
LWPOLYLINE
  5
1B6
100
AcDbEntity
  8
ALPHA
100
AcDbPolyline
 90
        5
 70
     0
 43
0.0
 10
73.107261
 20
114.226275
 10
72.992456
 20
114.226153
 10
72.895129
 20
114.22611
 10
72.830098
 20
114.226153
 10
72.807261
 20
114.226275
  0
LINE
  5
1BD
100
AcDbEntity
  8
ALPHA
100
AcDbLine
 10
73.107261
 20
113.961441
 30
0.0
 11
73.107261
 21
114.226275
 31
0.0
  0
LINE
  5
1BE
100
AcDbEntity
  8
ALPHA
100
AcDbLine
 10
71.207261
 20
115.801175
 30
0.0
 11
68.807261
 21
115.801175
 31
0.0
  0
LWPOLYLINE
  5
1BF
100
AcDbEntity
  8
ALPHA
100
AcDbPolyline
 90
        6
 70
     0
 43
0.0
 10
56.007261
 20
106.538406
 10
55.99097
 20
106.425805
 10
55.945711
 20
106.328195
 10
55.878227
 20
106.253753
 10
55.793711
 20
106.20669
 10
55.707261
 20
106.191996
  0
LINE
  5
1C7
100
AcDbEntity
  8
ALPHA
100
AcDbLine
 10
54.007261
 20
109.673782
 30
0.0
 11
54.307261
 21
109.673782
 31
0.0
  0
LWPOLYLINE
  5
1C8
100
AcDbEntity
  8
ALPHA
100
AcDbPolyline
 90
        6
 70
     0
 43
0.0
 10
54.007261
 20
108.37438
 10
54.021944
 20
108.37438
 10
54.064556
 20
108.37438
 10
54.130926
 20
108.37438
 10
54.214556
 20
108.37438
 10
54.307261
 20
108.37438
  0
LWPOLYLINE
  5
1D0
100
AcDbEntity
  8
ALPHA
100
AcDbPolyline
 90
        6
 70
     0
 43
0.0
 10
52.707261
 20
110.276074
 10
52.722086
 20
110.276034
 10
52.765022
 20
110.276129
 10
52.832133
 20
110.276004
 10
52.915883
 20
110.276132
 10
53.007261
 20
110.276074
  0
LWPOLYLINE
  5
1D8
100
AcDbEntity
  8
ALPHA
100
AcDbPolyline
 90
        6
 70
     0
 43
0.0
 10
52.707261
 20
114.226275
 10
52.721944
 20
114.226275
 10
52.764556
 20
114.226275
 10
52.830926
 20
114.226275
 10
52.914556
 20
114.226275
 10
53.007261
 20
114.226275
  0
LINE
  5
1E0
100
AcDbEntity
  8
ALPHA
100
AcDbLine
 10
53.007261
 20
114.226275
 30
0.0
 11
53.007261
 21
110.276074
 31
0.0
  0
LWPOLYLINE
  5
1E1
100
AcDbEntity
  8
ALPHA
100
AcDbPolyline
 90
       18
 70
     0
 43
0.0
 10
54.307261
 20
109.673782
 10
54.304733
 20
109.72902
 10
54.29713
 20
109.783999
 10
54.284418
 20
109.838391
 10
54.266679
 20
109.891525
 10
54.244154
 20
109.94266
 10
54.217096
 20
109.991328
 10
54.185755
 20
110.037165
 10
54.150413
 20
110.079823
 10
54.11133
 20
110.119018
 10
54.068784
 20
110.154466
 10
54.023184
 20
110.185822
 10
53.974991
 20
110.212789
 10
53.924422
 20
110.235241
 10
53.871925
 20
110.252949
 10
53.818009
 20
110.265725
 10
53.763088
 20
110.273461
 10
53.707261
 20
110.276074
  0
LWPOLYLINE
  5
1F5
100
AcDbEntity
  8
ALPHA
100
AcDbPolyline
 90
       18
 70
     0
 43
0.0
 10
56.307261
 20
110.276074
 10
56.251435
 20
110.273461
 10
56.196514
 20
110.265725
 10
56.142598
 20
110.252949
 10
56.090101
 20
110.235241
 10
56.039532
 20
110.212789
 10
55.991339
 20
110.185822
 10
55.945739
 20
110.154466
 10
55.903193
 20
110.119018
 10
55.86411
 20
110.079823
 10
55.828768
 20
110.037165
 10
55.797427
 20
109.991328
 10
55.770369
 20
109.94266
 10
55.747844
 20
109.891525
 10
55.730105
 20
109.838391
 10
55.717393
 20
109.783999
 10
55.70979
 20
109.72902
 10
55.707261
 20
109.673782
  0
LINE
  5
209
100
AcDbEntity
  8
ALPHA
100
AcDbLine
 10
55.707261
 20
106.191996
 30
0.0
 11
55.707261
 21
108.114572
 31
0.0
  0
LWPOLYLINE
  5
20A
100
AcDbEntity
  8
ALPHA
100
AcDbPolyline
 90
        6
 70
     0
 43
0.0
 10
56.007261
 20
108.37438
 10
55.992518
 20
108.374374
 10
55.949777
 20
108.374393
 10
55.883149
 20
108.374349
 10
55.799456
 20
108.37441
 10
55.707261
 20
108.37438
  0
LWPOLYLINE
  5
212
100
AcDbEntity
  8
ALPHA
100
AcDbPolyline
 90
        6
 70
     0
 43
0.0
 10
54.007261
 20
108.37438
 10
54.021772
 20
108.294591
 10
54.064257
 20
108.221995
 10
54.130689
 20
108.164351
 10
54.214408
 20
108.127323
 10
54.307261
 20
108.114572
  0
LINE
  5
21A
100
AcDbEntity
  8
ALPHA
100
AcDbLine
 10
59.057261
 20
84.608291
 30
0.0
 11
59.057261
 21
89.343737
 31
0.0
  0
LINE
  5
21B
100
AcDbEntity
  8
ALPHA
100
AcDbLine
 10
50.957261
 20
84.608291
 30
0.0
 11
50.957261
 21
90.645728
 31
0.0
  0
ARC
  5
21C
100
AcDbEntity
  8
ALPHA
100
AcDbCircle
 10
65.007261
 20
73.501175
 30
0.0
 40
7.8
100
AcDbArc
 50
66.372421
 51
113.627579
  0
LINE
  5
21D
100
AcDbEntity
  8
ALPHA
100
AcDbLine
 10
59.057261
 20
89.343737
 30
0.0
 11
59.057261
 21
90.201175
 31
0.0
  0
LINE
  5
21E
100
AcDbEntity
  8
ALPHA
100
AcDbLine
 10
57.907261
 20
85.901175
 30
0.0
 11
52.107261
 21
85.901175
 31
0.0
  0
LINE
  5
21F
100
AcDbEntity
  8
ALPHA
100
AcDbLine
 10
50.957261
 20
90.645728
 30
0.0
 11
50.957261
 21
93.101175
 31
0.0
  0
LINE
  5
220
100
AcDbEntity
  8
ALPHA
100
AcDbLine
 10
50.907261
 20
96.201175
 30
0.0
 11
53.007261
 21
96.201175
 31
0.0
  0
ARC
  5
221
100
AcDbEntity
  8
ALPHA
100
AcDbCircle
 10
65.007261
 20
98.001175
 30
0.0
 40
15.25
100
AcDbArc
 50
107.556604
 51
107.597277
  0
ARC
  5
222
100
AcDbEntity
  8
ALPHA
100
AcDbCircle
 10
65.007261
 20
98.001175
 30
0.0
 40
15.25
100
AcDbArc
 50
107.597277
 51
113.988757
  0
LINE
  5
223
100
AcDbEntity
  8
ALPHA
100
AcDbLine
 10
63.831847
 20
118.001175
 30
0.0
 11
62.996297
 21
118.001175
 31
0.0
  0
LINE
  5
224
100
AcDbEntity
  8
ALPHA
100
AcDbLine
 10
67.018227
 20
118.001175
 30
0.0
 11
66.182676
 21
118.001175
 31
0.0
  0
LWPOLYLINE
  5
225
100
AcDbEntity
  8
ALPHA
100
AcDbPolyline
 90
        6
 70
     0
 43
0.0
 10
66.182676
 20
118.001175
 10
65.723983
 20
118.214929
 10
65.247949
 20
118.320917
 10
64.766574
 20
118.320917
 10
64.29054
 20
118.214929
 10
63.831847
 20
118.001175
  0
LWPOLYLINE
  5
22D
100
AcDbEntity
  8
ALPHA
100
AcDbPolyline
 90
        5
 70
     0
 43
0.0
 10
65.818441
 20
115.901175
 10
65.416182
 20
115.785843
 10
65.007261
 20
115.747585
 10
64.598341
 20
115.785843
 10
64.196082
 20
115.901175
  0
ARC
  5
234
100
AcDbEntity
  8
ALPHA
100
AcDbCircle
 10
65.007261
 20
73.501175
 30
0.0
 40
7.8
100
AcDbArc
 50
118.087839
 51
129.715137
  0
ARC
  5
235
100
AcDbEntity
  8
ALPHA
100
AcDbCircle
 10
65.007261
 20
73.501175
 30
0.0
 40
7.8
100
AcDbArc
 50
50.284863
 51
61.912017
  0
LINE
  5
236
100
AcDbEntity
  8
ALPHA
100
AcDbLine
 10
62.996297
 20
118.001175
 30
0.0
 11
62.407261
 21
118.001175
 31
0.0
  0
LINE
  5
237
100
AcDbEntity
  8
ALPHA
100
AcDbLine
 10
67.607261
 20
118.001175
 30
0.0
 11
67.018227
 21
118.001175
 31
0.0
  0
LINE
  5
238
100
AcDbEntity
  8
ALPHA
100
AcDbLine
 10
78.407261
 20
79.501175
 30
0.0
 11
71.507261
 21
79.501175
 31
0.0
  0
LINE
  5
239
100
AcDbEntity
  8
ALPHA
100
AcDbLine
 10
58.507261
 20
79.501175
 30
0.0
 11
51.607261
 21
79.501175
 31
0.0
  0
LINE
  5
23A
100
AcDbEntity
  8
ALPHA
100
AcDbLine
 10
68.785865
 20
113.852377
 30
0.0
 11
68.807261
 21
113.877876
 31
0.0
  0
LINE
  5
23B
100
AcDbEntity
  8
ALPHA
100
AcDbLine
 10
68.807261
 20
116.098625
 30
0.0
 11
68.807261
 21
113.877876
 31
0.0
  0
LINE
  5
23C
100
AcDbEntity
  8
ALPHA
100
AcDbLine
 10
71.207261
 20
116.0291
 30
0.0
 11
71.207261
 21
114.001175
 31
0.0
  0
LINE
  5
23D
100
AcDbEntity
  8
ALPHA
100
AcDbLine
 10
68.807261
 20
113.852377
 30
0.0
 11
68.807261
 21
113.877876
 31
0.0
  0
LINE
  5
23E
100
AcDbEntity
  8
ALPHA
100
AcDbLine
 10
78.807261
 20
116.0291
 30
0.0
 11
78.807261
 21
114.001175
 31
0.0
  0
LINE
  5
23F
100
AcDbEntity
  8
ALPHA
100
AcDbLine
 10
78.807261
 20
116.923825
 30
0.0
 11
78.807261
 21
116.0291
 31
0.0
  0
LINE
  5
240
100
AcDbEntity
  8
ALPHA
100
AcDbLine
 10
71.207261
 20
117.214572
 30
0.0
 11
71.207261
 21
116.0291
 31
0.0
  0
ARC
  5
241
100
AcDbEntity
  8
ALPHA
100
AcDbCircle
 10
67.607261
 20
117.701175
 30
0.0
 40
0.3
100
AcDbArc
 50
0.0
 51
90.0
  0
ARC
  5
242
100
AcDbEntity
  8
ALPHA
100
AcDbCircle
 10
62.407261
 20
117.701175
 30
0.0
 40
0.3
100
AcDbArc
 50
90.0
 51
180.0
  0
LINE
  5
243
100
AcDbEntity
  8
ALPHA
100
AcDbLine
 10
61.207261
 20
114.001175
 30
0.0
 11
61.207261
 21
116.098625
 31
0.0
  0
LINE
  5
244
100
AcDbEntity
  8
ALPHA
100
AcDbLine
 10
60.407261
 20
110.501175
 30
0.0
 11
58.807261
 21
110.501175
 31
0.0
  0
LINE
  5
245
100
AcDbEntity
  8
ALPHA
100
AcDbLine
 10
58.807261
 20
110.501175
 30
0.0
 11
58.807261
 21
116.0291
 31
0.0
  0
LINE
  5
246
100
AcDbEntity
  8
ALPHA
100
AcDbLine
 10
51.207261
 20
110.501175
 30
0.0
 11
50.107261
 21
110.501175
 31
0.0
  0
LINE
  5
247
100
AcDbEntity
  8
ALPHA
100
AcDbLine
 10
50.107261
 20
110.101175
 30
0.0
 11
50.107261
 21
110.501175
 31
0.0
  0
LINE
  5
248
100
AcDbEntity
  8
ALPHA
100
AcDbLine
 10
51.207261
 20
110.501175
 30
0.0
 11
51.207261
 21
116.0291
 31
0.0
  0
LINE
  5
249
100
AcDbEntity
  8
ALPHA
100
AcDbLine
 10
67.907261
 20
115.901175
 30
0.0
 11
65.818441
 21
115.901175
 31
0.0
  0
LINE
  5
24A
100
AcDbEntity
  8
ALPHA
100
AcDbLine
 10
58.807261
 20
117.47438
 30
0.0
 11
58.807261
 21
117.214572
 31
0.0
  0
LINE
  5
24B
100
AcDbEntity
  8
ALPHA
100
AcDbLine
 10
64.196082
 20
115.901175
 30
0.0
 11
62.107261
 21
115.901175
 31
0.0
  0
LINE
  5
24C
100
AcDbEntity
  8
ALPHA
100
AcDbLine
 10
71.207261
 20
117.214572
 30
0.0
 11
71.207261
 21
117.47438
 31
0.0
  0
LINE
  5
24D
100
AcDbEntity
  8
ALPHA
100
AcDbLine
 10
51.207261
 20
116.0291
 30
0.0
 11
51.207261
 21
116.923825
 31
0.0
  0
LINE
  5
24E
100
AcDbEntity
  8
ALPHA
100
AcDbLine
 10
62.107261
 20
117.501631
 30
0.0
 11
62.107261
 21
117.224466
 31
0.0
  0
LINE
  5
24F
100
AcDbEntity
  8
ALPHA
100
AcDbLine
 10
61.207261
 20
117.224466
 30
0.0
 11
61.207261
 21
117.501631
 31
0.0
  0
LINE
  5
250
100
AcDbEntity
  8
ALPHA
100
AcDbLine
 10
58.807261
 20
116.0291
 30
0.0
 11
58.807261
 21
117.214572
 31
0.0
  0
LINE
  5
251
100
AcDbEntity
  8
ALPHA
100
AcDbLine
 10
68.807261
 20
117.501631
 30
0.0
 11
68.807261
 21
117.224466
 31
0.0
  0
LINE
  5
252
100
AcDbEntity
  8
ALPHA
100
AcDbLine
 10
67.907261
 20
117.224466
 30
0.0
 11
67.907261
 21
117.501631
 31
0.0
  0
LINE
  5
253
100
AcDbEntity
  8
ALPHA
100
AcDbLine
 10
61.207261
 20
117.224466
 30
0.0
 11
61.207261
 21
116.098625
 31
0.0
  0
LINE
  5
254
100
AcDbEntity
  8
ALPHA
100
AcDbLine
 10
68.807261
 20
116.098625
 30
0.0
 11
68.807261
 21
117.224466
 31
0.0
  0
LINE
  5
255
100
AcDbEntity
  8
ALPHA
100
AcDbLine
 10
62.107261
 20
117.501631
 30
0.0
 11
62.107261
 21
118.476911
 31
0.0
  0
LINE
  5
256
100
AcDbEntity
  8
ALPHA
100
AcDbLine
 10
67.907261
 20
117.501631
 30
0.0
 11
67.907261
 21
118.476911
 31
0.0
  0
LINE
  5
257
100
AcDbEntity
  8
ALPHA
100
AcDbLine
 10
78.307261
 20
117.78985
 30
0.0
 11
75.921621
 21
119.1672
 31
0.0
  0
LINE
  5
258
100
AcDbEntity
  8
ALPHA
100
AcDbLine
 10
54.092902
 20
119.1672
 30
0.0
 11
51.707261
 21
117.78985
 31
0.0
  0
ARC
  5
259
100
AcDbEntity
  8
ALPHA
100
AcDbCircle
 10
65.007261
 20
98.001175
 30
0.0
 40
10.15
100
AcDbArc
 50
11.382046
 51
12.241668
  0
ARC
  5
25A
100
AcDbEntity
  8
ALPHA
100
AcDbCircle
 10
65.007261
 20
98.001175
 30
0.0
 40
10.15
100
AcDbArc
 50
347.757985
 51
348.620814
  0
ARC
  5
25B
100
AcDbEntity
  8
ALPHA
100
AcDbCircle
 10
65.007261
 20
98.001175
 30
0.0
 40
10.15
100
AcDbArc
 50
159.828729
 51
194.258993
  0
LINE
  5
25C
100
AcDbEntity
  8
ALPHA
100
AcDbLine
 10
62.107261
 20
117.224466
 30
0.0
 11
62.107261
 21
115.901175
 31
0.0
  0
LINE
  5
25D
100
AcDbEntity
  8
ALPHA
100
AcDbLine
 10
67.907261
 20
115.901175
 30
0.0
 11
67.907261
 21
117.224466
 31
0.0
  0
LINE
  5
25E
100
AcDbEntity
  8
ALPHA
100
AcDbLine
 10
56.007261
 20
109.673782
 30
0.0
 11
56.007261
 21
109.395568
 31
0.0
  0
LINE
  5
25F
100
AcDbEntity
  8
ALPHA
100
AcDbLine
 10
54.007261
 20
109.395568
 30
0.0
 11
54.007261
 21
109.673782
 31
0.0
  0
LINE
  5
260
100
AcDbEntity
  8
ALPHA
100
AcDbLine
 10
78.407261
 20
79.501175
 30
0.0
 11
78.407261
 21
80.38281
 31
0.0
  0
LINE
  5
261
100
AcDbEntity
  8
ALPHA
100
AcDbLine
 10
71.507261
 20
80.38281
 30
0.0
 11
78.407261
 21
80.38281
 31
0.0
  0
LINE
  5
262
100
AcDbEntity
  8
ALPHA
100
AcDbLine
 10
71.507261
 20
79.501175
 30
0.0
 11
71.507261
 21
80.38281
 31
0.0
  0
LINE
  5
263
100
AcDbEntity
  8
ALPHA
100
AcDbLine
 10
70.007261
 20
79.501175
 30
0.0
 11
70.007261
 21
80.38281
 31
0.0
  0
LINE
  5
264
100
AcDbEntity
  8
ALPHA
100
AcDbLine
 10
68.679196
 20
80.38281
 30
0.0
 11
70.007261
 21
80.38281
 31
0.0
  0
ARC
  5
265
100
AcDbEntity
  8
ALPHA
100
AcDbCircle
 10
65.007261
 20
73.501175
 30
0.0
 40
7.8
100
AcDbArc
 50
61.916307
 51
66.372421
  0
ARC
  5
266
100
AcDbEntity
  8
ALPHA
100
AcDbCircle
 10
65.007261
 20
73.501175
 30
0.0
 40
7.8
100
AcDbArc
 50
113.627579
 51
118.083693
  0
LINE
  5
267
100
AcDbEntity
  8
ALPHA
100
AcDbLine
 10
60.007261
 20
80.38281
 30
0.0
 11
61.335327
 21
80.38281
 31
0.0
  0
LINE
  5
268
100
AcDbEntity
  8
ALPHA
100
AcDbLine
 10
60.007261
 20
79.501175
 30
0.0
 11
60.007261
 21
80.38281
 31
0.0
  0
LINE
  5
269
100
AcDbEntity
  8
ALPHA
100
AcDbLine
 10
58.507261
 20
79.501175
 30
0.0
 11
58.507261
 21
80.38281
 31
0.0
  0
LINE
  5
26A
100
AcDbEntity
  8
ALPHA
100
AcDbLine
 10
51.607261
 20
80.38281
 30
0.0
 11
58.507261
 21
80.38281
 31
0.0
  0
LINE
  5
26B
100
AcDbEntity
  8
ALPHA
100
AcDbLine
 10
51.607261
 20
79.501175
 30
0.0
 11
51.607261
 21
80.38281
 31
0.0
  0
ARC
  5
26C
100
AcDbEntity
  8
ALPHA
100
AcDbCircle
 10
69.520852
 20
121.301175
 30
0.0
 40
2.0
100
AcDbArc
 50
234.518642
 51
270.0
  0
ARC
  5
26D
100
AcDbEntity
  8
ALPHA
100
AcDbCircle
 10
60.493671
 20
121.301175
 30
0.0
 40
2.0
100
AcDbArc
 50
270.0
 51
305.481358
  0
ARC
  5
26E
100
AcDbEntity
  8
ALPHA
100
AcDbCircle
 10
65.007261
 20
115.001175
 30
0.0
 40
5.75
100
AcDbArc
 50
54.332551
 51
125.667449
  0
ARC
  5
26F
100
AcDbEntity
  8
ALPHA
100
AcDbCircle
 10
65.007261
 20
98.001175
 30
0.0
 40
8.25
100
AcDbArc
 50
123.910741
 51
130.214171
  0
LINE
  5
270
100
AcDbEntity
  8
ALPHA
100
AcDbLine
 10
53.007261
 20
101.501175
 30
0.0
 11
53.007261
 21
95.501175
 31
0.0
  0
ARC
  5
271
100
AcDbEntity
  8
ALPHA
100
AcDbCircle
 10
78.907261
 20
80.501175
 30
0.0
 40
1.0
100
AcDbArc
 50
270.0
 51
0.0
  0
LINE
  5
272
100
AcDbEntity
  8
ALPHA
100
AcDbLine
 10
79.907261
 20
81.662727
 30
0.0
 11
79.907261
 21
80.501175
 31
0.0
  0
LINE
  5
273
100
AcDbEntity
  8
ALPHA
100
AcDbLine
 10
50.107261
 20
80.501175
 30
0.0
 11
50.107261
 21
81.662727
 31
0.0
  0
LINE
  5
274
100
AcDbEntity
  8
ALPHA
100
AcDbLine
 10
50.907261
 20
101.501175
 30
0.0
 11
55.479801
 21
101.501175
 31
0.0
  0
LINE
  5
275
100
AcDbEntity
  8
ALPHA
100
AcDbLine
 10
57.145169
 20
95.501175
 30
0.0
 11
50.907261
 21
95.501175
 31
0.0
  0
LINE
  5
276
100
AcDbEntity
  8
ALPHA
100
AcDbLine
 10
79.907261
 20
81.662727
 30
0.0
 11
79.907261
 21
82.001175
 31
0.0
  0
LINE
  5
277
100
AcDbEntity
  8
ALPHA
100
AcDbLine
 10
54.592902
 20
119.301175
 30
0.0
 11
60.493671
 21
119.301175
 31
0.0
  0
LINE
  5
278
100
AcDbEntity
  8
ALPHA
100
AcDbLine
 10
69.520852
 20
119.301175
 30
0.0
 11
75.421621
 21
119.301175
 31
0.0
  0
LINE
  5
279
100
AcDbEntity
  8
ALPHA
100
AcDbLine
 10
50.107261
 20
81.662727
 30
0.0
 11
50.107261
 21
90.645728
 31
0.0
  0
LINE
  5
27A
100
AcDbEntity
  8
ALPHA
100
AcDbLine
 10
50.107261
 20
90.645728
 30
0.0
 11
50.107261
 21
93.101175
 31
0.0
  0
LINE
  5
27B
100
AcDbEntity
  8
ALPHA
100
AcDbLine
 10
60.023287
 20
79.501175
 30
0.0
 11
60.007261
 21
79.501175
 31
0.0
  0
LINE
  5
27C
100
AcDbEntity
  8
ALPHA
100
AcDbLine
 10
60.007261
 20
79.501175
 30
0.0
 11
58.507261
 21
79.501175
 31
0.0
  0
LINE
  5
27D
100
AcDbEntity
  8
ALPHA
100
AcDbLine
 10
51.607261
 20
79.501175
 30
0.0
 11
51.107261
 21
79.501175
 31
0.0
  0
LINE
  5
27E
100
AcDbEntity
  8
ALPHA
100
AcDbLine
 10
78.907261
 20
79.501175
 30
0.0
 11
78.407261
 21
79.501175
 31
0.0
  0
LINE
  5
27F
100
AcDbEntity
  8
ALPHA
100
AcDbLine
 10
71.507261
 20
79.501175
 30
0.0
 11
70.007261
 21
79.501175
 31
0.0
  0
LINE
  5
280
100
AcDbEntity
  8
ALPHA
100
AcDbLine
 10
70.007261
 20
79.501175
 30
0.0
 11
69.991236
 21
79.501175
 31
0.0
  0
ARC
  5
281
100
AcDbEntity
  8
ALPHA
100
AcDbCircle
 10
52.207261
 20
116.923825
 30
0.0
 40
1.0
100
AcDbArc
 50
120.0
 51
146.594879
  0
ARC
  5
282
100
AcDbEntity
  8
ALPHA
100
AcDbCircle
 10
52.207261
 20
116.923825
 30
0.0
 40
1.0
100
AcDbArc
 50
146.594879
 51
163.097273
  0
ARC
  5
283
100
AcDbEntity
  8
ALPHA
100
AcDbCircle
 10
52.207261
 20
116.923825
 30
0.0
 40
1.0
100
AcDbArc
 50
163.097273
 51
180.0
  0
ARC
  5
284
100
AcDbEntity
  8
ALPHA
100
AcDbCircle
 10
77.807261
 20
116.923825
 30
0.0
 40
1.0
100
AcDbArc
 50
0.0
 51
16.902727
  0
ARC
  5
285
100
AcDbEntity
  8
ALPHA
100
AcDbCircle
 10
77.807261
 20
116.923825
 30
0.0
 40
1.0
100
AcDbArc
 50
16.902727
 51
33.405121
  0
ARC
  5
286
100
AcDbEntity
  8
ALPHA
100
AcDbCircle
 10
77.807261
 20
116.923825
 30
0.0
 40
1.0
100
AcDbArc
 50
33.405121
 51
60.0
  0
ARC
  5
287
100
AcDbEntity
  8
ALPHA
100
AcDbCircle
 10
75.421621
 20
118.301175
 30
0.0
 40
1.0
100
AcDbArc
 50
60.0
 51
90.0
  0
ARC
  5
288
100
AcDbEntity
  8
ALPHA
100
AcDbCircle
 10
54.592902
 20
118.301175
 30
0.0
 40
1.0
100
AcDbArc
 50
90.0
 51
120.0
  0
LINE
  5
289
100
AcDbEntity
  8
ALPHA
100
AcDbLine
 10
56.007261
 20
109.673782
 30
0.0
 11
56.007261
 21
109.395568
 31
0.0
  0
LINE
  5
28A
100
AcDbEntity
  8
ALPHA
100
AcDbLine
 10
50.107261
 20
80.501175
 30
0.0
 11
50.107261
 21
81.662727
 31
0.0
  0
ARC
  5
28B
100
AcDbEntity
  8
ALPHA
100
AcDbCircle
 10
51.107261
 20
80.501175
 30
0.0
 40
1.0
100
AcDbArc
 50
180.0
 51
270.0
  0
LINE
  5
28C
100
AcDbEntity
  8
ALPHA
100
AcDbLine
 10
50.907261
 20
99.801175
 30
0.0
 11
53.007261
 21
99.801175
 31
0.0
  0
LINE
  5
28D
100
AcDbEntity
  8
ALPHA
100
AcDbLine
 10
50.107261
 20
93.101175
 30
0.0
 11
50.107261
 21
110.101175
 31
0.0
  0
LINE
  5
28E
100
AcDbEntity
  8
ALPHA
100
AcDbLine
 10
52.107261
 20
89.601175
 30
0.0
 11
52.107261
 21
85.901175
 31
0.0
  0
LINE
  5
28F
100
AcDbEntity
  8
ALPHA
100
AcDbLine
 10
57.907261
 20
89.601175
 30
0.0
 11
52.107261
 21
89.601175
 31
0.0
  0
LINE
  5
290
100
AcDbEntity
  8
ALPHA
100
AcDbLine
 10
57.907261
 20
89.601175
 30
0.0
 11
57.907261
 21
85.901175
 31
0.0
  0
ARC
  5
291
100
AcDbEntity
  8
ALPHA
100
AcDbCircle
 10
65.007261
 20
98.001175
 30
0.0
 40
8.25
100
AcDbArc
 50
197.639701
 51
236.003898
  0
LINE
  5
292
100
AcDbEntity
  8
ALPHA
100
AcDbLine
 10
50.907261
 20
95.501175
 30
0.0
 11
50.907261
 21
101.501175
 31
0.0
  0
ARC
  5
293
100
AcDbEntity
  8
ALPHA
100
AcDbCircle
 10
65.007261
 20
98.001175
 30
0.0
 40
10.15
100
AcDbArc
 50
141.633486
 51
159.828729
  0
LINE
  5
294
100
AcDbEntity
  8
ALPHA
100
AcDbLine
 10
59.680677
 20
104.301175
 30
0.0
 11
57.04909
 21
104.301175
 31
0.0
  0
LINE
  5
295
100
AcDbEntity
  8
ALPHA
100
AcDbLine
 10
72.807261
 20
114.504489
 30
0.0
 11
72.807261
 21
113.961441
 31
0.0
  0
LINE
  5
296
100
AcDbEntity
  8
ALPHA
100
AcDbLine
 10
77.307261
 20
114.504489
 30
0.0
 11
77.307261
 21
113.961441
 31
0.0
  0
LINE
  5
297
100
AcDbEntity
  8
ALPHA
100
AcDbLine
 10
52.707261
 20
114.504489
 30
0.0
 11
52.707261
 21
109.99786
 31
0.0
  0
LINE
  5
298
100
AcDbEntity
  8
ALPHA
100
AcDbLine
 10
57.207261
 20
114.504489
 30
0.0
 11
57.207261
 21
109.99786
 31
0.0
  0
LINE
  5
299
100
AcDbEntity
  8
ALPHA
100
AcDbLine
 10
56.007261
 20
109.395568
 30
0.0
 11
56.007261
 21
106.538406
 31
0.0
  0
LINE
  5
29A
100
AcDbEntity
  8
ALPHA
100
AcDbLine
 10
54.007261
 20
109.395568
 30
0.0
 11
54.007261
 21
106.538406
 31
0.0
  0
LINE
  5
29B
100
AcDbEntity
  8
ALPHA
100
AcDbLine
 10
50.757261
 20
108.501175
 30
0.0
 11
50.757261
 21
105.934697
 31
0.0
  0
LINE
  5
29C
100
AcDbEntity
  8
ALPHA
100
AcDbLine
 10
52.957261
 20
108.501175
 30
0.0
 11
52.957261
 21
105.934697
 31
0.0
  0
LINE
  5
29D
100
AcDbEntity
  8
ALPHA
100
AcDbLine
 10
59.207261
 20
105.934697
 30
0.0
 11
59.207261
 21
108.501175
 31
0.0
  0
LINE
  5
29E
100
AcDbEntity
  8
ALPHA
100
AcDbLine
 10
57.007261
 20
105.934697
 30
0.0
 11
57.007261
 21
108.501175
 31
0.0
  0
LWPOLYLINE
  5
29F
100
AcDbEntity
  8
ALPHA
100
AcDbPolyline
 90
       11
 70
     0
 43
0.0
 10
64.535821
 20
117.384204
 10
64.543512
 20
117.348311
 10
64.565833
 20
117.244146
 10
64.600599
 20
117.081906
 10
64.644407
 20
116.87747
 10
64.692968
 20
116.650852
 10
64.741529
 20
116.424234
 10
64.785336
 20
116.219799
 10
64.820102
 20
116.057558
 10
64.842423
 20
115.953393
 10
64.850115
 20
115.917501
  0
LWPOLYLINE
  5
2AC
100
AcDbEntity
  8
ALPHA
100
AcDbPolyline
 90
       11
 70
     0
 43
0.0
 10
65.478702
 20
117.384204
 10
65.471011
 20
117.348311
 10
65.448689
 20
117.244146
 10
65.413924
 20
117.081906
 10
65.370116
 20
116.87747
 10
65.321555
 20
116.650852
 10
65.272994
 20
116.424234
 10
65.229186
 20
116.219799
 10
65.194421
 20
116.057558
 10
65.1721
 20
115.953393
 10
65.164408
 20
115.917501
  0
LINE
  5
2B9
100
AcDbEntity
  8
ALPHA
100
AcDbLine
 10
56.507861
 20
95.501175
 30
0.0
 11
56.507616
 21
103.537314
 31
0.0
  0
LINE
  5
2BA
100
AcDbEntity
  8
ALPHA
100
AcDbLine
 10
55.007835
 20
96.349391
 30
0.0
 11
55.007735
 21
99.635175
 31
0.0
  0
LINE
  5
2BB
100
AcDbEntity
  8
ALPHA
100
AcDbLine
 10
56.507861
 20
95.501175
 30
0.0
 11
56.507616
 21
103.537314
 31
0.0
  0
LINE
  5
2BC
100
AcDbEntity
  8
ALPHA
100
AcDbLine
 10
55.007835
 20
96.349391
 30
0.0
 11
55.007735
 21
99.635175
 31
0.0
  0
LINE
  5
2BD
100
AcDbEntity
  8
ALPHA
100
AcDbLine
 10
61.941831
 20
80.66247
 30
0.0
 11
61.946606
 21
80.670741
 31
0.0
  0
LINE
  5
2BE
100
AcDbEntity
  8
ALPHA
100
AcDbLine
 10
61.920081
 20
80.624795
 30
0.0
 11
61.941831
 21
80.66247
 31
0.0
  0
LINE
  5
2BF
100
AcDbEntity
  8
ALPHA
100
AcDbLine
 10
61.906406
 20
80.601108
 30
0.0
 11
61.920081
 21
80.624795
 31
0.0
  0
LINE
  5
2C0
100
AcDbEntity
  8
ALPHA
100
AcDbLine
 10
61.647301
 20
80.152293
 30
0.0
 11
61.906406
 21
80.601108
 31
0.0
  0
LINE
  5
2C1
100
AcDbEntity
  8
ALPHA
100
AcDbLine
 10
61.647301
 20
80.152293
 30
0.0
 11
61.313499
 21
80.345
 31
0.0
  0
LINE
  5
2C2
100
AcDbEntity
  8
ALPHA
100
AcDbLine
 10
62.107261
 20
116.863799
 30
0.0
 11
64.535821
 21
117.384204
 31
0.0
  0
LINE
  5
2C3
100
AcDbEntity
  8
ALPHA
100
AcDbLine
 10
61.647301
 20
80.152293
 30
0.0
 11
61.313499
 21
80.345
 31
0.0
  0
LINE
  5
2C4
100
AcDbEntity
  8
ALPHA
100
AcDbLine
 10
64.443238
 20
115.830313
 30
0.0
 11
64.850115
 21
115.917501
 31
0.0
  0
LINE
  5
2C5
100
AcDbEntity
  8
ALPHA
100
AcDbLine
 10
62.107261
 20
116.863799
 30
0.0
 11
64.535821
 21
117.384204
 31
0.0
  0
LINE
  5
2C6
100
AcDbEntity
  8
ALPHA
100
AcDbLine
 10
64.443238
 20
115.830313
 30
0.0
 11
64.850115
 21
115.917501
 31
0.0
  0
ARC
  5
2C7
100
AcDbEntity
  8
ALPHA
100
AcDbCircle
 10
65.007261
 20
115.184149
 30
0.0
 40
2.25
100
AcDbArc
 50
77.905243
 51
102.094757
  0
ARC
  5
2C8
100
AcDbEntity
  8
ALPHA
100
AcDbCircle
 10
65.007261
 20
115.184149
 30
0.0
 40
0.75
100
AcDbArc
 50
77.905243
 51
102.094757
  0
ARC
  5
2C9
100
AcDbEntity
  8
ALPHA
100
AcDbCircle
 10
65.007261
 20
115.184149
 30
0.0
 40
2.25
100
AcDbArc
 50
77.905243
 51
102.094757
  0
ARC
  5
2CA
100
AcDbEntity
  8
ALPHA
100
AcDbCircle
 10
65.007261
 20
115.184149
 30
0.0
 40
0.75
100
AcDbArc
 50
77.905243
 51
102.094757
  0
LINE
  5
2CB
100
AcDbEntity
  8
ALPHA
100
AcDbLine
 10
65.478702
 20
117.384204
 30
0.0
 11
67.907261
 21
116.863799
 31
0.0
  0
LINE
  5
2CC
100
AcDbEntity
  8
ALPHA
100
AcDbLine
 10
65.164408
 20
115.917501
 30
0.0
 11
65.571285
 21
115.830313
 31
0.0
  0
LINE
  5
2CD
100
AcDbEntity
  8
ALPHA
100
AcDbLine
 10
65.478702
 20
117.384204
 30
0.0
 11
67.907261
 21
116.863799
 31
0.0
  0
LINE
  5
2CE
100
AcDbEntity
  8
ALPHA
100
AcDbLine
 10
65.164408
 20
115.917501
 30
0.0
 11
65.571285
 21
115.830313
 31
0.0
  0
LINE
  5
2CF
100
AcDbEntity
  8
ALPHA
100
AcDbLine
 10
68.701024
 20
80.345
 30
0.0
 11
68.367222
 21
80.152293
 31
0.0
  0
LINE
  5
2D0
100
AcDbEntity
  8
ALPHA
100
AcDbLine
 10
68.701024
 20
80.345
 30
0.0
 11
68.367222
 21
80.152293
 31
0.0
  0
LINE
  5
2D1
100
AcDbEntity
  8
ALPHA
100
AcDbLine
 10
68.072621
 20
80.662593
 30
0.0
 11
68.067917
 21
80.670741
 31
0.0
  0
LINE
  5
2D2
100
AcDbEntity
  8
ALPHA
100
AcDbLine
 10
68.094442
 20
80.624795
 30
0.0
 11
68.072621
 21
80.662593
 31
0.0
  0
LINE
  5
2D3
100
AcDbEntity
  8
ALPHA
100
AcDbLine
 10
68.108117
 20
80.601108
 30
0.0
 11
68.094442
 21
80.624795
 31
0.0
  0
LINE
  5
2D4
100
AcDbEntity
  8
ALPHA
100
AcDbLine
 10
68.367222
 20
80.152293
 30
0.0
 11
68.108117
 21
80.601108
 31
0.0
  0
LINE
  5
2D5
100
AcDbEntity
  8
ALPHA
100
AcDbLine
 10
79.907261
 20
83.501175
 30
0.0
 11
75.007261
 21
83.501175
 31
0.0
  0
LINE
  5
2D6
100
AcDbEntity
  8
ALPHA
100
AcDbLine
 10
78.507261
 20
112.501175
 30
0.0
 11
75.007261
 21
112.501175
 31
0.0
  0
LINE
  5
2D7
100
AcDbEntity
  8
ALPHA
100
AcDbLine
 10
77.167627
 20
108.501175
 30
0.0
 11
79.057261
 21
108.501175
 31
0.0
  0
LINE
  5
2D8
100
AcDbEntity
  8
ALPHA
100
AcDbLine
 10
75.007261
 20
103.918648
 30
0.0
 11
75.007261
 21
103.376506
 31
0.0
  0
LINE
  5
2D9
100
AcDbEntity
  8
ALPHA
100
AcDbLine
 10
75.007261
 20
104.300674
 30
0.0
 11
75.007261
 21
104.074931
 31
0.0
  0
LINE
  5
2DA
100
AcDbEntity
  8
ALPHA
100
AcDbLine
 10
75.007261
 20
103.376506
 30
0.0
 11
71.107261
 21
103.376506
 31
0.0
  0
LINE
  5
2DB
100
AcDbEntity
  8
ALPHA
100
AcDbLine
 10
75.007261
 20
91.701676
 30
0.0
 11
75.007261
 21
92.625843
 31
0.0
  0
LINE
  5
2DC
100
AcDbEntity
  8
ALPHA
100
AcDbLine
 10
71.107261
 20
92.625843
 30
0.0
 11
75.007261
 21
92.625843
 31
0.0
  0
LINE
  5
2DD
100
AcDbEntity
  8
ALPHA
100
AcDbLine
 10
77.979824
 20
106.742282
 30
0.0
 11
77.98634
 21
106.82299
 31
0.0
  0
LWPOLYLINE
  5
2DE
100
AcDbEntity
  8
ALPHA
100
AcDbPolyline
 90
        7
 70
     0
 43
0.0
 10
76.314931
 20
104.422468
 10
76.80653
 20
104.71737
 10
77.231891
 20
105.099311
 10
77.575351
 20
105.55423
 10
77.824265
 20
106.065382
 10
77.969465
 20
106.613949
 10
77.979824
 20
106.742282
  0
LWPOLYLINE
  5
2E7
100
AcDbEntity
  8
ALPHA
100
AcDbPolyline
 90
        4
 70
     0
 43
0.0
 10
77.861183
 20
105.801175
 10
77.96253
 20
106.216088
 10
78.005711
 20
106.642264
 10
78.007246
 20
106.740068
  0
LINE
  5
2ED
100
AcDbEntity
  8
ALPHA
100
AcDbLine
 10
79.907261
 20
110.101175
 30
0.0
 11
78.507261
 21
110.101175
 31
0.0
  0
LINE
  5
2EE
100
AcDbEntity
  8
ALPHA
100
AcDbLine
 10
78.507261
 20
112.501175
 30
0.0
 11
78.507261
 21
110.101175
 31
0.0
  0
LINE
  5
2EF
100
AcDbEntity
  8
ALPHA
100
AcDbLine
 10
78.507261
 20
112.501175
 30
0.0
 11
78.907261
 21
112.67468
 31
0.0
  0
LINE
  5
2F0
100
AcDbEntity
  8
ALPHA
100
AcDbLine
 10
78.507261
 20
110.101175
 30
0.0
 11
78.907261
 21
110.501175
 31
0.0
  0
LWPOLYLINE
  5
2F1
100
AcDbEntity
  8
ALPHA
100
AcDbPolyline
 90
        3
 70
     0
 43
0.0
 10
77.877467
 20
90.501175
 10
77.983766
 20
89.995335
 10
78.007224
 20
89.614616
  0
LINE
  5
2F6
100
AcDbEntity
  8
ALPHA
100
AcDbLine
 10
79.057261
 20
107.768925
 30
0.0
 11
77.819113
 21
107.768925
 31
0.0
  0
LINE
  5
2F7
100
AcDbEntity
  8
ALPHA
100
AcDbLine
 10
79.057261
 20
107.49077
 30
0.0
 11
77.914768
 21
107.49077
 31
0.0
  0
LINE
  5
2F8
100
AcDbEntity
  8
ALPHA
100
AcDbLine
 10
79.057261
 20
105.801175
 30
0.0
 11
77.861183
 21
105.801175
 31
0.0
  0
LWPOLYLINE
  5
2F9
100
AcDbEntity
  8
ALPHA
100
AcDbPolyline
 90
        6
 70
     0
 43
0.0
 10
77.861183
 20
105.801175
 10
77.829737
 20
105.705022
 10
77.801249
 20
105.620058
 10
77.780264
 20
105.55513
 10
77.769639
 20
105.514861
 10
77.770517
 20
105.501175
  0
LINE
  5
301
100
AcDbEntity
  8
ALPHA
100
AcDbLine
 10
75.176118
 20
103.918648
 30
0.0
 11
75.007261
 21
103.918648
 31
0.0
  0
LINE
  5
302
100
AcDbEntity
  8
ALPHA
100
AcDbLine
 10
75.296436
 20
103.918648
 30
0.0
 11
75.176118
 21
103.918648
 31
0.0
  0
LINE
  5
303
100
AcDbEntity
  8
ALPHA
100
AcDbLine
 10
75.007261
 20
103.918648
 30
0.0
 11
75.176118
 21
103.914091
 31
0.0
  0
LINE
  5
304
100
AcDbEntity
  8
ALPHA
100
AcDbLine
 10
76.749136
 20
104.422468
 30
0.0
 11
76.314931
 21
104.422468
 31
0.0
  0
LINE
  5
305
100
AcDbEntity
  8
ALPHA
100
AcDbLine
 10
76.099265
 20
104.074931
 30
0.0
 11
75.007261
 21
104.074931
 31
0.0
  0
LWPOLYLINE
  5
306
100
AcDbEntity
  8
ALPHA
100
AcDbPolyline
 90
        5
 70
     0
 43
0.0
 10
76.314931
 20
104.422468
 10
76.043229
 20
104.304757
 10
75.735242
 20
104.200381
 10
75.390708
 20
104.119825
 10
75.007261
 20
104.074931
  0
LINE
  5
30D
100
AcDbEntity
  8
ALPHA
100
AcDbLine
 10
72.207261
 20
82.33425
 30
0.0
 11
78.507261
 21
82.33425
 31
0.0
  0
LINE
  5
30E
100
AcDbEntity
  8
ALPHA
100
AcDbLine
 10
78.807261
 20
82.001175
 30
0.0
 11
78.807261
 21
82.868402
 31
0.0
  0
LINE
  5
30F
100
AcDbEntity
  8
ALPHA
100
AcDbLine
 10
78.107261
 20
113.778821
 30
0.0
 11
72.207261
 21
113.778821
 31
0.0
  0
LINE
  5
310
100
AcDbEntity
  8
ALPHA
100
AcDbLine
 10
79.907261
 20
113.957056
 30
0.0
 11
78.907261
 21
113.957056
 31
0.0
  0
LWPOLYLINE
  5
311
100
AcDbEntity
  8
ALPHA
100
AcDbPolyline
 90
        8
 70
     0
 43
0.0
 10
75.007261
 20
92.625843
 10
75.542659
 20
92.576939
 10
76.06093
 20
92.431771
 10
76.546352
 20
92.1944
 10
76.983244
 20
91.871706
 10
77.357147
 20
91.473283
 10
77.655207
 20
91.011418
 10
77.866675
 20
90.501175
  0
LWPOLYLINE
  5
31B
100
AcDbEntity
  8
ALPHA
100
AcDbPolyline
 90
        8
 70
     0
 43
0.0
 10
75.007261
 20
103.376506
 10
75.542659
 20
103.425411
 10
76.06093
 20
103.570579
 10
76.546352
 20
103.807949
 10
76.983244
 20
104.130644
 10
77.357147
 20
104.529067
 10
77.655207
 20
104.990932
 10
77.866675
 20
105.501175
  0
LINE
  5
325
100
AcDbEntity
  8
ALPHA
100
AcDbLine
 10
79.107261
 20
97.701175
 30
0.0
 11
78.907261
 21
97.701175
 31
0.0
  0
LINE
  5
326
100
AcDbEntity
  8
ALPHA
100
AcDbLine
 10
79.107261
 20
98.301175
 30
0.0
 11
78.907261
 21
98.301175
 31
0.0
  0
LINE
  5
327
100
AcDbEntity
  8
ALPHA
100
AcDbLine
 10
79.107261
 20
105.501175
 30
0.0
 11
79.107261
 21
90.501175
 31
0.0
  0
LINE
  5
328
100
AcDbEntity
  8
ALPHA
100
AcDbLine
 10
73.107261
 20
91.701676
 30
0.0
 11
75.007261
 21
91.701676
 31
0.0
  0
LINE
  5
329
100
AcDbEntity
  8
ALPHA
100
AcDbLine
 10
73.107261
 20
104.300674
 30
0.0
 11
75.007261
 21
104.300674
 31
0.0
  0
LINE
  5
32A
100
AcDbEntity
  8
ALPHA
100
AcDbLine
 10
78.363584
 20
82.868402
 30
0.0
 11
78.507261
 21
82.779945
 31
0.0
  0
LINE
  5
32B
100
AcDbEntity
  8
ALPHA
100
AcDbLine
 10
75.007261
 20
82.868402
 30
0.0
 11
78.807261
 21
82.868402
 31
0.0
  0
LINE
  5
32C
100
AcDbEntity
  8
ALPHA
100
AcDbLine
 10
75.007261
 20
113.133948
 30
0.0
 11
78.107261
 21
113.133948
 31
0.0
  0
LWPOLYLINE
  5
32D
100
AcDbEntity
  8
ALPHA
100
AcDbPolyline
 90
        6
 70
     0
 43
0.0
 10
75.007261
 20
109.433801
 10
75.486467
 20
109.394686
 10
75.953275
 20
109.278378
 10
76.39653
 20
109.087474
 10
76.804868
 20
108.826366
 10
77.167627
 20
108.501175
  0
LINE
  5
335
100
AcDbEntity
  8
ALPHA
100
AcDbLine
 10
77.964307
 20
106.825596
 30
0.0
 11
77.98907
 21
107.073201
 31
0.0
  0
LINE
  5
336
100
AcDbEntity
  8
ALPHA
100
AcDbLine
 10
77.956263
 20
106.745167
 30
0.0
 11
77.964307
 21
106.825596
 31
0.0
  0
LWPOLYLINE
  5
337
100
AcDbEntity
  8
ALPHA
100
AcDbPolyline
 90
        9
 70
     0
 43
0.0
 10
75.007261
 20
104.300674
 10
75.592532
 20
104.357442
 10
76.155312
 20
104.525566
 10
76.673972
 20
104.798584
 10
77.128582
 20
105.166004
 10
77.50167
 20
105.613707
 10
77.7789
 20
106.124488
 10
77.949617
 20
106.678717
 10
77.956263
 20
106.745167
  0
LINE
  5
342
100
AcDbEntity
  8
ALPHA
100
AcDbLine
 10
75.007261
 20
112.501175
 30
0.0
 11
75.007261
 21
113.133948
 31
0.0
  0
LINE
  5
343
100
AcDbEntity
  8
ALPHA
100
AcDbLine
 10
75.007261
 20
82.868402
 30
0.0
 11
75.007261
 21
83.501175
 31
0.0
  0
LINE
  5
344
100
AcDbEntity
  8
ALPHA
100
AcDbLine
 10
78.907261
 20
112.67468
 30
0.0
 11
78.907261
 21
113.957056
 31
0.0
  0
LWPOLYLINE
  5
345
100
AcDbEntity
  8
ALPHA
100
AcDbPolyline
 90
        7
 70
     0
 43
0.0
 10
76.314931
 20
104.161995
 10
76.80653
 20
104.456898
 10
77.231891
 20
104.838838
 10
77.575351
 20
105.293758
 10
77.824265
 20
105.80491
 10
77.969465
 20
106.353477
 10
78.000715
 20
106.740595
  0
LWPOLYLINE
  5
34E
100
AcDbEntity
  8
ALPHA
100
AcDbPolyline
 90
        4
 70
     0
 43
0.0
 10
77.819113
 20
107.768925
 10
77.643657
 20
108.041706
 10
77.424556
 20
108.285682
 10
77.167627
 20
108.501175
  0
LINE
  5
354
100
AcDbEntity
  8
ALPHA
100
AcDbLine
 10
77.866675
 20
105.501175
 30
0.0
 11
79.057261
 21
105.501175
 31
0.0
  0
LINE
  5
355
100
AcDbEntity
  8
ALPHA
100
AcDbLine
 10
77.770517
 20
105.501175
 30
0.0
 11
77.866675
 21
105.501175
 31
0.0
  0
LINE
  5
356
100
AcDbEntity
  8
ALPHA
100
AcDbLine
 10
79.907261
 20
110.501175
 30
0.0
 11
78.907261
 21
110.501175
 31
0.0
  0
LINE
  5
357
100
AcDbEntity
  8
ALPHA
100
AcDbLine
 10
79.907261
 20
110.101175
 30
0.0
 11
79.907261
 21
110.501175
 31
0.0
  0
LINE
  5
358
100
AcDbEntity
  8
ALPHA
100
AcDbLine
 10
78.907261
 20
112.67468
 30
0.0
 11
78.907261
 21
110.501175
 31
0.0
  0
LWPOLYLINE
  5
359
100
AcDbEntity
  8
ALPHA
100
AcDbPolyline
 90
        7
 70
     0
 43
0.0
 10
75.007261
 20
85.951405
 10
75.510743
 20
85.994612
 10
75.999996
 20
86.123027
 10
76.461935
 20
86.333486
 10
76.883428
 20
86.620632
 10
77.252237
 20
86.976989
 10
77.557261
 20
87.392957
  0
LWPOLYLINE
  5
362
100
AcDbEntity
  8
ALPHA
100
AcDbPolyline
 90
        5
 70
     0
 43
0.0
 10
77.819113
 20
107.768925
 10
77.839519
 20
107.724743
 10
77.864567
 20
107.65936
 10
77.890711
 20
107.578706
 10
77.914768
 20
107.49077
  0
LINE
  5
369
100
AcDbEntity
  8
ALPHA
100
AcDbLine
 10
78.107261
 20
113.133948
 30
0.0
 11
78.107261
 21
114.001175
 31
0.0
  0
LINE
  5
36A
100
AcDbEntity
  8
ALPHA
100
AcDbLine
 10
71.107261
 20
95.5625
 30
0.0
 11
71.607261
 21
95.851175
 31
0.0
  0
LINE
  5
36B
100
AcDbEntity
  8
ALPHA
100
AcDbLine
 10
71.107261
 20
100.43985
 30
0.0
 11
71.607261
 21
100.151175
 31
0.0
  0
LINE
  5
36C
100
AcDbEntity
  8
ALPHA
100
AcDbLine
 10
77.866675
 20
90.501175
 30
0.0
 11
77.877467
 21
90.501175
 31
0.0
  0
LINE
  5
36D
100
AcDbEntity
  8
ALPHA
100
AcDbLine
 10
78.757261
 20
99.001175
 30
0.0
 11
78.907261
 21
99.001175
 31
0.0
  0
LINE
  5
36E
100
AcDbEntity
  8
ALPHA
100
AcDbLine
 10
76.207261
 20
100.001175
 30
0.0
 11
76.207261
 21
100.151175
 31
0.0
  0
LINE
  5
36F
100
AcDbEntity
  8
ALPHA
100
AcDbLine
 10
78.907261
 20
100.151175
 30
0.0
 11
71.607261
 21
100.151175
 31
0.0
  0
LINE
  5
370
100
AcDbEntity
  8
ALPHA
100
AcDbLine
 10
78.907261
 20
95.851175
 30
0.0
 11
71.607261
 21
95.851175
 31
0.0
  0
LINE
  5
371
100
AcDbEntity
  8
ALPHA
100
AcDbLine
 10
76.207261
 20
95.851175
 30
0.0
 11
76.207261
 21
96.001175
 31
0.0
  0
LINE
  5
372
100
AcDbEntity
  8
ALPHA
100
AcDbLine
 10
78.757261
 20
97.001175
 30
0.0
 11
78.907261
 21
97.001175
 31
0.0
  0
LINE
  5
373
100
AcDbEntity
  8
ALPHA
100
AcDbLine
 10
78.907261
 20
98.301175
 30
0.0
 11
78.907261
 21
97.701175
 31
0.0
  0
LINE
  5
374
100
AcDbEntity
  8
ALPHA
100
AcDbLine
 10
78.907261
 20
98.301175
 30
0.0
 11
78.907261
 21
100.151175
 31
0.0
  0
LINE
  5
375
100
AcDbEntity
  8
ALPHA
100
AcDbLine
 10
78.507261
 20
82.301175
 30
0.0
 11
78.507261
 21
82.868402
 31
0.0
  0
LINE
  5
376
100
AcDbEntity
  8
ALPHA
100
AcDbLine
 10
77.907261
 20
114.001175
 30
0.0
 11
78.107261
 21
114.001175
 31
0.0
  0
LINE
  5
377
100
AcDbEntity
  8
ALPHA
100
AcDbLine
 10
72.207261
 20
113.961441
 30
0.0
 11
77.907261
 21
113.961441
 31
0.0
  0
LINE
  5
378
100
AcDbEntity
  8
ALPHA
100
AcDbLine
 10
78.907261
 20
95.851175
 30
0.0
 11
78.907261
 21
97.701175
 31
0.0
  0
LINE
  5
379
100
AcDbEntity
  8
ALPHA
100
AcDbLine
 10
79.907261
 20
114.001175
 30
0.0
 11
78.107261
 21
114.001175
 31
0.0
  0
LINE
  5
37A
100
AcDbEntity
  8
ALPHA
100
AcDbLine
 10
77.907261
 20
113.961441
 30
0.0
 11
77.907261
 21
114.001175
 31
0.0
  0
LINE
  5
37B
100
AcDbEntity
  8
ALPHA
100
AcDbLine
 10
77.877467
 20
90.501175
 30
0.0
 11
79.107261
 21
90.501175
 31
0.0
  0
LINE
  5
37C
100
AcDbEntity
  8
ALPHA
100
AcDbLine
 10
77.557261
 20
88.010101
 30
0.0
 11
77.557261
 21
85.951175
 31
0.0
  0
LINE
  5
37D
100
AcDbEntity
  8
ALPHA
100
AcDbLine
 10
75.007261
 20
85.951175
 30
0.0
 11
77.557261
 21
85.951175
 31
0.0
  0
LINE
  5
37E
100
AcDbEntity
  8
ALPHA
100
AcDbLine
 10
75.007261
 20
83.501175
 30
0.0
 11
75.007261
 21
85.951175
 31
0.0
  0
LINE
  5
37F
100
AcDbEntity
  8
ALPHA
100
AcDbLine
 10
75.007261
 20
109.433801
 30
0.0
 11
75.007261
 21
112.501175
 31
0.0
  0
LINE
  5
380
100
AcDbEntity
  8
ALPHA
100
AcDbLine
 10
79.057261
 20
108.501175
 30
0.0
 11
79.057261
 21
105.501175
 31
0.0
  0
LINE
  5
381
100
AcDbEntity
  8
ALPHA
100
AcDbLine
 10
79.057261
 20
105.501175
 30
0.0
 11
79.107261
 21
105.501175
 31
0.0
  0
LINE
  5
382
100
AcDbEntity
  8
ALPHA
100
AcDbLine
 10
79.907261
 20
82.001175
 30
0.0
 11
78.807261
 21
82.001175
 31
0.0
  0
LWPOLYLINE
  5
383
100
AcDbEntity
  8
ALPHA
100
AcDbPolyline
 90
        3
 70
     0
 43
0.0
 10
78.007246
 20
106.740068
 10
77.989604
 20
107.070199
 10
77.914768
 20
107.49077
  0
LWPOLYLINE
  5
388
100
AcDbEntity
  8
ALPHA
100
AcDbPolyline
 90
        5
 70
     0
 43
0.0
 10
78.007224
 20
89.614616
 10
78.004237
 20
89.478074
 10
77.938142
 20
88.964688
 10
77.787618
 20
88.470674
 10
77.557261
 20
88.010101
  0
LWPOLYLINE
  5
38F
100
AcDbEntity
  8
ALPHA
100
AcDbPolyline
 90
        9
 70
     0
 43
0.0
 10
77.964804
 20
89.171781
 10
77.949617
 20
89.323632
 10
77.7789
 20
89.877862
 10
77.50167
 20
90.388642
 10
77.128582
 20
90.836346
 10
76.673972
 20
91.203766
 10
76.155312
 20
91.476784
 10
75.592532
 20
91.644908
 10
75.007261
 20
91.701676
  0
LINE
  5
39A
100
AcDbEntity
  8
ALPHA
100
AcDbLine
 10
79.907261
 20
113.957056
 30
0.0
 11
79.907261
 21
114.001175
 31
0.0
  0
LINE
  5
39B
100
AcDbEntity
  8
ALPHA
100
AcDbLine
 10
79.907261
 20
113.957056
 30
0.0
 11
79.907261
 21
110.501175
 31
0.0
  0
LINE
  5
39C
100
AcDbEntity
  8
ALPHA
100
AcDbLine
 10
79.907261
 20
83.501175
 30
0.0
 11
79.907261
 21
110.101175
 31
0.0
  0
LINE
  5
39D
100
AcDbEntity
  8
ALPHA
100
AcDbLine
 10
79.907261
 20
82.001175
 30
0.0
 11
79.907261
 21
83.501175
 31
0.0
  0
LWPOLYLINE
  5
39E
100
AcDbEntity
  8
ALPHA
100
AcDbPolyline
 90
        5
 70
     0
 43
0.0
 10
75.176118
 20
103.914091
 10
75.390708
 20
103.922218
 10
75.735242
 20
103.969805
 10
76.043229
 20
104.052309
 10
76.314931
 20
104.161995
  0
LINE
  5
3A5
100
AcDbEntity
  8
ALPHA
100
AcDbLine
 10
72.207261
 20
82.111895
 30
0.0
 11
78.573186
 21
82.111895
 31
0.0
  0
LINE
  5
3A6
100
AcDbEntity
  8
ALPHA
100
AcDbLine
 10
78.507261
 20
82.301175
 30
0.0
 11
78.507261
 21
82.868402
 31
0.0
  0
ARC
  5
3A7
100
AcDbEntity
  8
ALPHA
100
AcDbCircle
 10
78.807261
 20
82.301175
 30
0.0
 40
0.3
100
AcDbArc
 50
180.0
 51
270.0
  0
LWPOLYLINE
  5
3A8
100
AcDbEntity
  8
ALPHA
100
AcDbPolyline
 90
        7
 70
     0
 43
0.0
 10
62.307262
 20
89.617107
 10
62.307402
 20
89.646614
 10
62.313927
 20
89.820047
 10
62.330164
 20
89.992796
 10
62.356055
 20
90.164283
 10
62.391503
 20
90.333931
 10
62.436377
 20
90.501175
  0
LINE
  5
3B1
100
AcDbEntity
  8
ALPHA
100
AcDbLine
 10
61.507261
 20
113.080534
 30
0.0
 11
65.307261
 21
113.080534
 31
0.0
  0
LINE
  5
3B2
100
AcDbEntity
  8
ALPHA
100
AcDbLine
 10
61.507261
 20
113.080534
 30
0.0
 11
61.507261
 21
114.001175
 31
0.0
  0
LINE
  5
3B3
100
AcDbEntity
  8
ALPHA
100
AcDbLine
 10
61.507261
 20
82.921815
 30
0.0
 11
65.307261
 21
82.921815
 31
0.0
  0
LINE
  5
3B4
100
AcDbEntity
  8
ALPHA
100
AcDbLine
 10
61.507261
 20
82.921815
 30
0.0
 11
61.507261
 21
82.001175
 31
0.0
  0
LWPOLYLINE
  5
3B5
100
AcDbEntity
  8
ALPHA
100
AcDbPolyline
 90
       23
 70
     0
 43
0.0
 10
62.44714
 20
90.501175
 10
62.50444
 20
90.668002
 10
62.571134
 20
90.831099
 10
62.646958
 20
90.989869
 10
62.731628
 20
91.143779
 10
62.82483
 20
91.292317
 10
62.926224
 20
91.434996
 10
63.03544
 20
91.571351
 10
63.152089
 20
91.700946
 10
63.275757
 20
91.823372
 10
63.406012
 20
91.938246
 10
63.542405
 20
92.045217
 10
63.68447
 20
92.143959
 10
63.831729
 20
92.234177
 10
63.983692
 20
92.315606
 10
64.139859
 20
92.388008
 10
64.299721
 20
92.451174
 10
64.462762
 20
92.504925
 10
64.628461
 20
92.549108
 10
64.796291
 20
92.583601
 10
64.965724
 20
92.608307
 10
65.136225
 20
92.623158
 10
65.307261
 20
92.628112
  0
LWPOLYLINE
  5
3CE
100
AcDbEntity
  8
ALPHA
100
AcDbPolyline
 90
       23
 70
     0
 43
0.0
 10
65.307261
 20
103.374237
 10
65.136225
 20
103.379191
 10
64.965723
 20
103.394042
 10
64.796291
 20
103.418748
 10
64.62846
 20
103.453241
 10
64.462761
 20
103.497424
 10
64.29972
 20
103.551175
 10
64.139858
 20
103.614341
 10
63.983691
 20
103.686743
 10
63.831728
 20
103.768172
 10
63.684469
 20
103.858391
 10
63.542404
 20
103.957133
 10
63.406012
 20
104.064103
 10
63.275757
 20
104.178978
 10
63.152089
 20
104.301403
 10
63.03544
 20
104.430999
 10
62.926223
 20
104.567354
 10
62.82483
 20
104.710032
 10
62.731628
 20
104.85857
 10
62.646958
 20
105.01248
 10
62.571134
 20
105.171251
 10
62.504439
 20
105.334348
 10
62.44714
 20
105.501175
  0
LINE
  5
3E7
100
AcDbEntity
  8
ALPHA
100
AcDbLine
 10
61.807261
 20
113.500283
 30
0.0
 11
68.607261
 21
113.500283
 31
0.0
  0
LINE
  5
3E8
100
AcDbEntity
  8
ALPHA
100
AcDbLine
 10
61.807261
 20
82.502067
 30
0.0
 11
68.207261
 21
82.502067
 31
0.0
  0
LINE
  5
3E9
100
AcDbEntity
  8
ALPHA
100
AcDbLine
 10
62.007261
 20
114.201175
 30
0.0
 11
68.607261
 21
114.201175
 31
0.0
  0
LWPOLYLINE
  5
3EA
100
AcDbEntity
  8
ALPHA
100
AcDbPolyline
 90
        4
 70
     0
 43
0.0
 10
61.609874
 20
113.098626
 10
61.576425
 20
113.096595
 10
61.54226
 20
113.090579
 10
61.507261
 20
113.080534
  0
LWPOLYLINE
  5
3F0
100
AcDbEntity
  8
ALPHA
100
AcDbPolyline
 90
        7
 70
     0
 43
0.0
 10
62.436377
 20
105.501175
 10
62.391503
 20
105.668419
 10
62.356055
 20
105.838067
 10
62.330164
 20
106.009553
 10
62.313927
 20
106.182302
 10
62.307402
 20
106.355735
 10
62.307262
 20
106.385242
  0
LINE
  5
3F9
100
AcDbEntity
  8
ALPHA
100
AcDbLine
 10
60.407261
 20
112.501175
 30
0.0
 11
65.307261
 21
112.501175
 31
0.0
  0
LINE
  5
3FA
100
AcDbEntity
  8
ALPHA
100
AcDbLine
 10
60.407261
 20
83.501175
 30
0.0
 11
65.307261
 21
83.501175
 31
0.0
  0
LWPOLYLINE
  5
3FB
100
AcDbEntity
  8
ALPHA
100
AcDbPolyline
 90
        4
 70
     0
 43
0.0
 10
61.609874
 20
82.903723
 10
61.576425
 20
82.905754
 10
61.54226
 20
82.91177
 10
61.507261
 20
82.921815
  0
LINE
  5
401
100
AcDbEntity
  8
ALPHA
100
AcDbLine
 10
61.807261
 20
113.098626
 30
0.0
 11
61.807261
 21
113.701175
 31
0.0
  0
LINE
  5
402
100
AcDbEntity
  8
ALPHA
100
AcDbLine
 10
61.807261
 20
82.903723
 30
0.0
 11
61.807261
 21
82.301175
 31
0.0
  0
LINE
  5
403
100
AcDbEntity
  8
ALPHA
100
AcDbLine
 10
68.607261
 20
114.201175
 30
0.0
 11
68.607261
 21
114.501175
 31
0.0
  0
LINE
  5
404
100
AcDbEntity
  8
ALPHA
100
AcDbLine
 10
62.007261
 20
114.501175
 30
0.0
 11
68.607261
 21
114.501175
 31
0.0
  0
LINE
  5
405
100
AcDbEntity
  8
ALPHA
100
AcDbLine
 10
62.007261
 20
114.201175
 30
0.0
 11
62.007261
 21
114.501175
 31
0.0
  0
LINE
  5
406
100
AcDbEntity
  8
ALPHA
100
AcDbLine
 10
68.607261
 20
114.201175
 30
0.0
 11
68.607261
 21
113.852376
 31
0.0
  0
LINE
  5
407
100
AcDbEntity
  8
ALPHA
100
AcDbLine
 10
68.607261
 20
113.098626
 30
0.0
 11
68.607261
 21
113.500283
 31
0.0
  0
LINE
  5
408
100
AcDbEntity
  8
ALPHA
100
AcDbLine
 10
62.007261
 20
114.201175
 30
0.0
 11
62.007261
 21
113.852377
 31
0.0
  0
LINE
  5
409
100
AcDbEntity
  8
ALPHA
100
AcDbLine
 10
62.44714
 20
105.501175
 30
0.0
 11
62.436377
 21
105.501175
 31
0.0
  0
LINE
  5
40A
100
AcDbEntity
  8
ALPHA
100
AcDbLine
 10
62.436377
 20
90.501175
 30
0.0
 11
62.44714
 21
90.501175
 31
0.0
  0
LWPOLYLINE
  5
40B
100
AcDbEntity
  8
ALPHA
100
AcDbPolyline
 90
       26
 70
     0
 43
0.0
 10
65.307261
 20
104.400674
 10
65.132827
 20
104.405672
 10
64.958983
 20
104.42065
 10
64.786317
 20
104.445558
 10
64.615414
 20
104.48031
 10
64.446852
 20
104.52479
 10
64.281201
 20
104.578847
 10
64.119022
 20
104.642298
 10
63.960864
 20
104.714928
 10
63.807261
 20
104.796491
 10
63.658734
 20
104.886712
 10
63.515786
 20
104.985285
 10
63.378899
 20
105.091877
 10
63.248536
 20
105.206127
 10
63.12514
 20
105.327649
 10
63.009128
 20
105.45603
 10
62.900892
 20
105.590838
 10
62.800798
 20
105.731615
 10
62.709185
 20
105.877885
 10
62.626363
 20
106.029154
 10
62.552613
 20
106.18491
 10
62.488184
 20
106.344625
 10
62.433293
 20
106.507759
 10
62.388127
 20
106.67376
 10
62.352838
 20
106.842067
 10
62.34722
 20
106.879836
  0
LINE
  5
427
100
AcDbEntity
  8
ALPHA
100
AcDbLine
 10
65.307261
 20
92.628112
 30
0.0
 11
65.307261
 21
91.601675
 31
0.0
  0
LINE
  5
428
100
AcDbEntity
  8
ALPHA
100
AcDbLine
 10
65.307261
 20
103.374237
 30
0.0
 11
65.307261
 21
104.400674
 31
0.0
  0
LINE
  5
429
100
AcDbEntity
  8
ALPHA
100
AcDbLine
 10
65.307261
 20
103.374237
 30
0.0
 11
65.307261
 21
92.628112
 31
0.0
  0
LINE
  5
42A
100
AcDbEntity
  8
ALPHA
100
AcDbLine
 10
65.307261
 20
83.501175
 30
0.0
 11
65.307261
 21
82.921815
 31
0.0
  0
LINE
  5
42B
100
AcDbEntity
  8
ALPHA
100
AcDbLine
 10
65.307261
 20
113.080534
 30
0.0
 11
65.307261
 21
112.501175
 31
0.0
  0
LWPOLYLINE
  5
42C
100
AcDbEntity
  8
ALPHA
100
AcDbPolyline
 90
        8
 70
     0
 43
0.0
 10
64.273987
 20
91.42068
 10
64.281201
 20
91.423502
 10
64.446852
 20
91.477559
 10
64.615414
 20
91.522039
 10
64.786317
 20
91.556791
 10
64.958983
 20
91.581699
 10
65.132827
 20
91.596677
 10
65.307261
 20
91.601675
  0
LWPOLYLINE
  5
436
100
AcDbEntity
  8
ALPHA
100
AcDbPolyline
 90
       29
 70
     0
 43
0.0
 10
62.307262
 20
106.385242
 10
62.310616
 20
106.529266
 10
62.323555
 20
106.702313
 10
62.346172
 20
106.874292
 10
62.378382
 20
107.044626
 10
62.420066
 20
107.212748
 10
62.47107
 20
107.378097
 10
62.531207
 20
107.540128
 10
62.600258
 20
107.69831
 10
62.677974
 20
107.852129
 10
62.764076
 20
108.001091
 10
62.85826
 20
108.144723
 10
62.960194
 20
108.282571
 10
63.069526
 20
108.41421
 10
63.185881
 20
108.539235
 10
63.308864
 20
108.657268
 10
63.438064
 20
108.767958
 10
63.573054
 20
108.870978
 10
63.713394
 20
108.96603
 10
63.85863
 20
109.052842
 10
64.008299
 20
109.131167
 10
64.161929
 20
109.200788
 10
64.31904
 20
109.261512
 10
64.479145
 20
109.313172
 10
64.641754
 20
109.35563
 10
64.80637
 20
109.38877
 10
64.972494
 20
109.412505
 10
65.139626
 20
109.426771
 10
65.307261
 20
109.431531
  0
LINE
  5
455
100
AcDbEntity
  8
ALPHA
100
AcDbLine
 10
68.207261
 20
82.502067
 30
0.0
 11
68.207261
 21
82.903723
 31
0.0
  0
LINE
  5
456
100
AcDbEntity
  8
ALPHA
100
AcDbLine
 10
68.207261
 20
82.165317
 30
0.0
 11
68.207261
 21
82.149973
 31
0.0
  0
LINE
  5
457
100
AcDbEntity
  8
ALPHA
100
AcDbLine
 10
68.207261
 20
82.16668
 30
0.0
 11
68.207261
 21
82.165317
 31
0.0
  0
LINE
  5
458
100
AcDbEntity
  8
ALPHA
100
AcDbLine
 10
68.207261
 20
82.216829
 30
0.0
 11
68.207261
 21
82.16668
 31
0.0
  0
LINE
  5
459
100
AcDbEntity
  8
ALPHA
100
AcDbLine
 10
68.207261
 20
82.295522
 30
0.0
 11
68.207261
 21
82.216829
 31
0.0
  0
LINE
  5
45A
100
AcDbEntity
  8
ALPHA
100
AcDbLine
 10
68.207261
 20
82.299228
 30
0.0
 11
68.207261
 21
82.295522
 31
0.0
  0
LINE
  5
45B
100
AcDbEntity
  8
ALPHA
100
AcDbLine
 10
68.207261
 20
82.393947
 30
0.0
 11
68.207261
 21
82.299228
 31
0.0
  0
LINE
  5
45C
100
AcDbEntity
  8
ALPHA
100
AcDbLine
 10
68.207261
 20
82.398118
 30
0.0
 11
68.207261
 21
82.393947
 31
0.0
  0
LINE
  5
45D
100
AcDbEntity
  8
ALPHA
100
AcDbLine
 10
68.207261
 20
82.502067
 30
0.0
 11
68.207261
 21
82.398118
 31
0.0
  0
LINE
  5
45E
100
AcDbEntity
  8
ALPHA
100
AcDbLine
 10
68.607261
 20
114.501175
 30
0.0
 11
62.007261
 21
114.501175
 31
0.0
  0
LINE
  5
45F
100
AcDbEntity
  8
ALPHA
100
AcDbLine
 10
61.766335
 20
82.149973
 30
0.0
 11
68.207261
 21
82.149973
 31
0.0
  0
LINE
  5
460
100
AcDbEntity
  8
ALPHA
100
AcDbLine
 10
61.766335
 20
113.852377
 30
0.0
 11
68.607261
 21
113.852377
 31
0.0
  0
LINE
  5
461
100
AcDbEntity
  8
ALPHA
100
AcDbLine
 10
68.607261
 20
113.604231
 30
0.0
 11
68.607261
 21
113.500283
 31
0.0
  0
LINE
  5
462
100
AcDbEntity
  8
ALPHA
100
AcDbLine
 10
68.607261
 20
113.608403
 30
0.0
 11
68.607261
 21
113.604231
 31
0.0
  0
LINE
  5
463
100
AcDbEntity
  8
ALPHA
100
AcDbLine
 10
68.607261
 20
113.703122
 30
0.0
 11
68.607261
 21
113.608403
 31
0.0
  0
LINE
  5
464
100
AcDbEntity
  8
ALPHA
100
AcDbLine
 10
68.607261
 20
113.706828
 30
0.0
 11
68.607261
 21
113.703122
 31
0.0
  0
LINE
  5
465
100
AcDbEntity
  8
ALPHA
100
AcDbLine
 10
68.607261
 20
113.785521
 30
0.0
 11
68.607261
 21
113.706828
 31
0.0
  0
LINE
  5
466
100
AcDbEntity
  8
ALPHA
100
AcDbLine
 10
68.607261
 20
113.835669
 30
0.0
 11
68.607261
 21
113.785521
 31
0.0
  0
LINE
  5
467
100
AcDbEntity
  8
ALPHA
100
AcDbLine
 10
68.607261
 20
113.837033
 30
0.0
 11
68.607261
 21
113.835669
 31
0.0
  0
LINE
  5
468
100
AcDbEntity
  8
ALPHA
100
AcDbLine
 10
68.607261
 20
113.852376
 30
0.0
 11
68.607261
 21
113.837033
 31
0.0
  0
LINE
  5
469
100
AcDbEntity
  8
ALPHA
100
AcDbLine
 10
60.407261
 20
114.001175
 30
0.0
 11
61.507261
 21
114.001175
 31
0.0
  0
LINE
  5
46A
100
AcDbEntity
  8
ALPHA
100
AcDbLine
 10
61.807261
 20
82.903723
 30
0.0
 11
61.807261
 21
82.301175
 31
0.0
  0
ARC
  5
46B
100
AcDbEntity
  8
ALPHA
100
AcDbCircle
 10
61.507261
 20
82.301175
 30
0.0
 40
0.3
100
AcDbArc
 50
270.0
 51
0.0
  0
LINE
  5
46C
100
AcDbEntity
  8
ALPHA
100
AcDbLine
 10
65.307261
 20
82.903723
 30
0.0
 11
61.609852
 21
82.903723
 31
0.0
  0
LINE
  5
46D
100
AcDbEntity
  8
ALPHA
100
AcDbLine
 10
65.307261
 20
82.903725
 30
0.0
 11
65.307261
 21
82.921815
 31
0.0
  0
LINE
  5
46E
100
AcDbEntity
  8
ALPHA
100
AcDbLine
 10
61.807261
 20
113.701175
 30
0.0
 11
61.807261
 21
113.098626
 31
0.0
  0
ARC
  5
46F
100
AcDbEntity
  8
ALPHA
100
AcDbCircle
 10
61.507261
 20
113.701175
 30
0.0
 40
0.3
100
AcDbArc
 50
0.0
 51
90.0
  0
LINE
  5
470
100
AcDbEntity
  8
ALPHA
100
AcDbLine
 10
61.609852
 20
113.098626
 30
0.0
 11
65.307261
 21
113.098626
 31
0.0
  0
LINE
  5
471
100
AcDbEntity
  8
ALPHA
100
AcDbLine
 10
65.307261
 20
113.098625
 30
0.0
 11
65.307261
 21
113.080534
 31
0.0
  0
LINE
  5
472
100
AcDbEntity
  8
ALPHA
100
AcDbLine
 10
60.407261
 20
82.001175
 30
0.0
 11
61.507261
 21
82.001175
 31
0.0
  0
LINE
  5
473
100
AcDbEntity
  8
ALPHA
100
AcDbLine
 10
65.307261
 20
112.501175
 30
0.0
 11
65.307261
 21
109.431531
 31
0.0
  0
LINE
  5
474
100
AcDbEntity
  8
ALPHA
100
AcDbLine
 10
65.307261
 20
86.570818
 30
0.0
 11
65.307261
 21
83.501175
 31
0.0
  0
LWPOLYLINE
  5
475
100
AcDbEntity
  8
ALPHA
100
AcDbPolyline
 90
       29
 70
     0
 43
0.0
 10
65.307261
 20
86.570818
 10
65.139625
 20
86.575578
 10
64.972494
 20
86.589844
 10
64.80637
 20
86.613579
 10
64.641754
 20
86.646719
 10
64.479145
 20
86.689177
 10
64.319039
 20
86.740837
 10
64.161928
 20
86.801561
 10
64.008299
 20
86.871182
 10
63.858629
 20
86.949507
 10
63.713394
 20
87.036319
 10
63.573054
 20
87.131371
 10
63.438064
 20
87.234391
 10
63.308864
 20
87.345081
 10
63.185881
 20
87.463114
 10
63.069526
 20
87.588139
 10
62.960195
 20
87.719777
 10
62.85826
 20
87.857626
 10
62.764077
 20
88.001257
 10
62.677974
 20
88.150219
 10
62.600259
 20
88.304039
 10
62.531207
 20
88.462221
 10
62.47107
 20
88.624252
 10
62.420066
 20
88.789601
 10
62.378382
 20
88.957722
 10
62.346172
 20
89.128057
 10
62.323555
 20
89.300036
 10
62.310616
 20
89.473082
 10
62.307262
 20
89.617107
  0
LINE
  5
494
100
AcDbEntity
  8
ALPHA
100
AcDbLine
 10
62.436377
 20
90.501175
 30
0.0
 11
61.407261
 21
90.501175
 31
0.0
  0
LINE
  5
495
100
AcDbEntity
  8
ALPHA
100
AcDbLine
 10
61.407261
 20
105.501175
 30
0.0
 11
61.407261
 21
90.501175
 31
0.0
  0
LINE
  5
496
100
AcDbEntity
  8
ALPHA
100
AcDbLine
 10
62.436377
 20
105.501175
 30
0.0
 11
61.407261
 21
105.501175
 31
0.0
  0
LINE
  5
497
100
AcDbEntity
  8
ALPHA
100
AcDbLine
 10
60.407261
 20
83.501175
 30
0.0
 11
60.407261
 21
82.001175
 31
0.0
  0
LINE
  5
498
100
AcDbEntity
  8
ALPHA
100
AcDbLine
 10
60.407261
 20
112.501175
 30
0.0
 11
60.407261
 21
83.501175
 31
0.0
  0
LINE
  5
499
100
AcDbEntity
  8
ALPHA
100
AcDbLine
 10
60.407261
 20
114.001175
 30
0.0
 11
60.407261
 21
112.501175
 31
0.0
  0
LWPOLYLINE
  5
49A
100
AcDbEntity
  8
ALPHA
100
AcDbPolyline
 90
        8
 70
     0
 43
0.0
 10
68.167383
 20
105.501175
 10
67.956141
 20
104.990446
 10
67.658172
 20
104.52811
 10
67.284233
 20
104.129253
 10
66.847195
 20
103.806191
 10
66.361541
 20
103.568542
 10
65.842982
 20
103.423201
 10
65.307261
 20
103.374237
  0
LWPOLYLINE
  5
4A4
100
AcDbEntity
  8
ALPHA
100
AcDbPolyline
 90
        8
 70
     0
 43
0.0
 10
65.307261
 20
92.628113
 10
65.842986
 20
92.579148
 10
66.361546
 20
92.433806
 10
66.847199
 20
92.196156
 10
67.284235
 20
91.873094
 10
67.658173
 20
91.474239
 10
67.956141
 20
91.011904
 10
68.167383
 20
90.501175
  0
LINE
  5
4AE
100
AcDbEntity
  8
ALPHA
100
AcDbLine
 10
69.107261
 20
113.080534
 30
0.0
 11
69.107261
 21
114.001175
 31
0.0
  0
LINE
  5
4AF
100
AcDbEntity
  8
ALPHA
100
AcDbLine
 10
69.107261
 20
82.921815
 30
0.0
 11
69.107261
 21
82.001175
 31
0.0
  0
LINE
  5
4B0
100
AcDbEntity
  8
ALPHA
100
AcDbLine
 10
69.107261
 20
113.080534
 30
0.0
 11
65.307261
 21
113.080534
 31
0.0
  0
LINE
  5
4B1
100
AcDbEntity
  8
ALPHA
100
AcDbLine
 10
70.207261
 20
112.501175
 30
0.0
 11
65.307261
 21
112.501175
 31
0.0
  0
LINE
  5
4B2
100
AcDbEntity
  8
ALPHA
100
AcDbLine
 10
69.107261
 20
82.921815
 30
0.0
 11
65.307261
 21
82.921815
 31
0.0
  0
LINE
  5
4B3
100
AcDbEntity
  8
ALPHA
100
AcDbLine
 10
69.004592
 20
113.098626
 30
0.0
 11
69.107261
 21
113.080534
 31
0.0
  0
LINE
  5
4B4
100
AcDbEntity
  8
ALPHA
100
AcDbLine
 10
68.607261
 20
113.500283
 30
0.0
 11
68.807261
 21
113.500283
 31
0.0
  0
LINE
  5
4B5
100
AcDbEntity
  8
ALPHA
100
AcDbLine
 10
68.807261
 20
82.502067
 30
0.0
 11
68.207261
 21
82.502067
 31
0.0
  0
LWPOLYLINE
  5
4B6
100
AcDbEntity
  8
ALPHA
100
AcDbPolyline
 90
        3
 70
     0
 43
0.0
 10
68.307165
 20
106.385362
 10
68.290225
 20
106.061066
 10
68.178146
 20
105.501175
  0
LINE
  5
4BB
100
AcDbEntity
  8
ALPHA
100
AcDbLine
 10
69.004552
 20
82.903737
 30
0.0
 11
69.107261
 21
82.921815
 31
0.0
  0
LWPOLYLINE
  5
4BC
100
AcDbEntity
  8
ALPHA
100
AcDbPolyline
 90
        3
 70
     0
 43
0.0
 10
68.178146
 20
90.501175
 10
68.290224
 20
89.941295
 10
68.307165
 20
89.616988
  0
LINE
  5
4C1
100
AcDbEntity
  8
ALPHA
100
AcDbLine
 10
70.107261
 20
83.501175
 30
0.0
 11
65.307261
 21
83.501175
 31
0.0
  0
LINE
  5
4C2
100
AcDbEntity
  8
ALPHA
100
AcDbLine
 10
70.207261
 20
83.501175
 30
0.0
 11
70.107261
 21
83.501175
 31
0.0
  0
LINE
  5
4C3
100
AcDbEntity
  8
ALPHA
100
AcDbLine
 10
68.807261
 20
113.098626
 30
0.0
 11
68.807261
 21
113.701175
 31
0.0
  0
ARC
  5
4C4
100
AcDbEntity
  8
ALPHA
100
AcDbCircle
 10
69.107261
 20
82.301175
 30
0.0
 40
0.3
100
AcDbArc
 50
180.0
 51
270.0
  0
LINE
  5
4C5
100
AcDbEntity
  8
ALPHA
100
AcDbLine
 10
68.807261
 20
82.903723
 30
0.0
 11
68.807261
 21
82.301175
 31
0.0
  0
LINE
  5
4C6
100
AcDbEntity
  8
ALPHA
100
AcDbLine
 10
68.607261
 20
113.835669
 30
0.0
 11
68.607261
 21
113.852368
 31
0.0
  0
LINE
  5
4C7
100
AcDbEntity
  8
ALPHA
100
AcDbLine
 10
68.607261
 20
113.785521
 30
0.0
 11
68.607261
 21
113.835669
 31
0.0
  0
LINE
  5
4C8
100
AcDbEntity
  8
ALPHA
100
AcDbLine
 10
68.607261
 20
113.703122
 30
0.0
 11
68.607261
 21
113.785521
 31
0.0
  0
LINE
  5
4C9
100
AcDbEntity
  8
ALPHA
100
AcDbLine
 10
68.607261
 20
113.604231
 30
0.0
 11
68.607261
 21
113.703122
 31
0.0
  0
LINE
  5
4CA
100
AcDbEntity
  8
ALPHA
100
AcDbLine
 10
68.607261
 20
113.500283
 30
0.0
 11
68.607261
 21
113.604231
 31
0.0
  0
LINE
  5
4CB
100
AcDbEntity
  8
ALPHA
100
AcDbLine
 10
65.307261
 20
82.921815
 30
0.0
 11
65.307261
 21
83.501175
 31
0.0
  0
LINE
  5
4CC
100
AcDbEntity
  8
ALPHA
100
AcDbLine
 10
65.307261
 20
112.501175
 30
0.0
 11
65.307261
 21
113.080534
 31
0.0
  0
LINE
  5
4CD
100
AcDbEntity
  8
ALPHA
100
AcDbLine
 10
65.307261
 20
103.374237
 30
0.0
 11
65.307261
 21
92.628113
 31
0.0
  0
LINE
  5
4CE
100
AcDbEntity
  8
ALPHA
100
AcDbLine
 10
65.307261
 20
91.601676
 30
0.0
 11
65.307261
 21
92.628113
 31
0.0
  0
LINE
  5
4CF
100
AcDbEntity
  8
ALPHA
100
AcDbLine
 10
65.307261
 20
103.374237
 30
0.0
 11
65.307261
 21
104.400674
 31
0.0
  0
LWPOLYLINE
  5
4D0
100
AcDbEntity
  8
ALPHA
100
AcDbPolyline
 90
        9
 70
     0
 43
0.0
 10
65.307261
 20
91.601676
 10
65.892532
 20
91.544908
 10
66.455312
 20
91.376784
 10
66.973972
 20
91.103766
 10
67.428582
 20
90.736346
 10
67.80167
 20
90.288642
 10
68.0789
 20
89.777862
 10
68.249617
 20
89.223632
 10
68.257734
 20
89.142474
  0
LINE
  5
4DB
100
AcDbEntity
  8
ALPHA
100
AcDbLine
 10
68.167383
 20
90.501175
 30
0.0
 11
68.178146
 21
90.501175
 31
0.0
  0
LINE
  5
4DC
100
AcDbEntity
  8
ALPHA
100
AcDbLine
 10
68.178146
 20
105.501175
 30
0.0
 11
68.167383
 21
105.501175
 31
0.0
  0
LWPOLYLINE
  5
4DD
100
AcDbEntity
  8
ALPHA
100
AcDbPolyline
 90
        9
 70
     0
 43
0.0
 10
68.257734
 20
106.859877
 10
68.249617
 20
106.778717
 10
68.0789
 20
106.224488
 10
67.80167
 20
105.713707
 10
67.428582
 20
105.266004
 10
66.973972
 20
104.898584
 10
66.455312
 20
104.625566
 10
65.892532
 20
104.457442
 10
65.307261
 20
104.400674
  0
LWPOLYLINE
  5
4E8
100
AcDbEntity
  8
ALPHA
100
AcDbPolyline
 90
       10
 70
     0
 43
0.0
 10
68.307165
 20
89.616988
 10
68.297343
 20
89.369593
 10
68.19921
 20
88.806898
 10
67.999734
 20
88.273589
 10
67.706728
 20
87.788609
 10
67.331351
 20
87.368654
 10
66.887411
 20
87.027636
 10
66.390633
 20
86.776388
 10
65.858031
 20
86.622597
 10
65.307261
 20
86.570819
  0
LINE
  5
4F4
100
AcDbEntity
  8
ALPHA
100
AcDbLine
 10
68.207261
 20
82.502067
 30
0.0
 11
68.207261
 21
82.903723
 31
0.0
  0
LINE
  5
4F5
100
AcDbEntity
  8
ALPHA
100
AcDbLine
 10
68.607261
 20
113.098626
 30
0.0
 11
68.607261
 21
113.500283
 31
0.0
  0
LINE
  5
4F6
100
AcDbEntity
  8
ALPHA
100
AcDbLine
 10
70.107261
 20
82.001175
 30
0.0
 11
69.107261
 21
82.001175
 31
0.0
  0
LINE
  5
4F7
100
AcDbEntity
  8
ALPHA
100
AcDbLine
 10
70.207261
 20
82.001175
 30
0.0
 11
70.107261
 21
82.001175
 31
0.0
  0
LINE
  5
4F8
100
AcDbEntity
  8
ALPHA
100
AcDbLine
 10
68.851844
 20
82.149973
 30
0.0
 11
68.207261
 21
82.149973
 31
0.0
  0
LINE
  5
4F9
100
AcDbEntity
  8
ALPHA
100
AcDbLine
 10
68.207261
 20
82.393947
 30
0.0
 11
68.207261
 21
82.502067
 31
0.0
  0
LINE
  5
4FA
100
AcDbEntity
  8
ALPHA
100
AcDbLine
 10
68.207261
 20
82.295522
 30
0.0
 11
68.207261
 21
82.393947
 31
0.0
  0
LINE
  5
4FB
100
AcDbEntity
  8
ALPHA
100
AcDbLine
 10
68.207261
 20
82.216829
 30
0.0
 11
68.207261
 21
82.295522
 31
0.0
  0
LINE
  5
4FC
100
AcDbEntity
  8
ALPHA
100
AcDbLine
 10
68.207261
 20
82.165317
 30
0.0
 11
68.207261
 21
82.216829
 31
0.0
  0
LINE
  5
4FD
100
AcDbEntity
  8
ALPHA
100
AcDbLine
 10
68.207261
 20
82.149982
 30
0.0
 11
68.207261
 21
82.165317
 31
0.0
  0
LINE
  5
4FE
100
AcDbEntity
  8
ALPHA
100
AcDbLine
 10
68.607261
 20
113.852377
 30
0.0
 11
68.851844
 21
113.852377
 31
0.0
  0
LINE
  5
4FF
100
AcDbEntity
  8
ALPHA
100
AcDbLine
 10
69.004869
 20
82.903723
 30
0.0
 11
65.307261
 21
82.903723
 31
0.0
  0
LINE
  5
500
100
AcDbEntity
  8
ALPHA
100
AcDbLine
 10
65.307261
 20
82.903732
 30
0.0
 11
65.307261
 21
82.921815
 31
0.0
  0
LINE
  5
501
100
AcDbEntity
  8
ALPHA
100
AcDbLine
 10
68.807261
 20
113.098626
 30
0.0
 11
68.807261
 21
113.701175
 31
0.0
  0
ARC
  5
502
100
AcDbEntity
  8
ALPHA
100
AcDbCircle
 10
69.107261
 20
113.701175
 30
0.0
 40
0.3
100
AcDbArc
 50
90.0
 51
180.0
  0
LINE
  5
503
100
AcDbEntity
  8
ALPHA
100
AcDbLine
 10
65.307261
 20
113.098626
 30
0.0
 11
69.004869
 21
113.098626
 31
0.0
  0
LINE
  5
504
100
AcDbEntity
  8
ALPHA
100
AcDbLine
 10
65.307261
 20
113.098618
 30
0.0
 11
65.307261
 21
113.080534
 31
0.0
  0
LINE
  5
505
100
AcDbEntity
  8
ALPHA
100
AcDbLine
 10
70.107261
 20
114.001175
 30
0.0
 11
69.107261
 21
114.001175
 31
0.0
  0
LINE
  5
506
100
AcDbEntity
  8
ALPHA
100
AcDbLine
 10
70.207261
 20
114.001175
 30
0.0
 11
70.107261
 21
114.001175
 31
0.0
  0
LINE
  5
507
100
AcDbEntity
  8
ALPHA
100
AcDbLine
 10
65.307261
 20
83.501175
 30
0.0
 11
65.307261
 21
86.570819
 31
0.0
  0
LINE
  5
508
100
AcDbEntity
  8
ALPHA
100
AcDbLine
 10
65.307261
 20
109.431531
 30
0.0
 11
65.307261
 21
112.501175
 31
0.0
  0
LWPOLYLINE
  5
509
100
AcDbEntity
  8
ALPHA
100
AcDbPolyline
 90
       10
 70
     0
 43
0.0
 10
65.307261
 20
109.431531
 10
65.858035
 20
109.379752
 10
66.390635
 20
109.225961
 10
66.887409
 20
108.974715
 10
67.331345
 20
108.633702
 10
67.706719
 20
108.213753
 10
67.999726
 20
107.728778
 10
68.199205
 20
107.195472
 10
68.297342
 20
106.632775
 10
68.307165
 20
106.385362
  0
LINE
  5
515
100
AcDbEntity
  8
ALPHA
100
AcDbLine
 10
69.207261
 20
105.501175
 30
0.0
 11
68.178146
 21
105.501175
 31
0.0
  0
LINE
  5
516
100
AcDbEntity
  8
ALPHA
100
AcDbLine
 10
69.207261
 20
90.501175
 30
0.0
 11
69.207261
 21
105.501175
 31
0.0
  0
LINE
  5
517
100
AcDbEntity
  8
ALPHA
100
AcDbLine
 10
68.178146
 20
90.501175
 30
0.0
 11
69.207261
 21
90.501175
 31
0.0
  0
LINE
  5
518
100
AcDbEntity
  8
ALPHA
100
AcDbLine
 10
70.207261
 20
112.501175
 30
0.0
 11
70.207261
 21
114.001175
 31
0.0
  0
LINE
  5
519
100
AcDbEntity
  8
ALPHA
100
AcDbLine
 10
70.207261
 20
83.501175
 30
0.0
 11
70.207261
 21
112.501175
 31
0.0
  0
LINE
  5
51A
100
AcDbEntity
  8
ALPHA
100
AcDbLine
 10
70.207261
 20
82.001175
 30
0.0
 11
70.207261
 21
83.501175
 31
0.0
  0
LINE
  5
51B
100
AcDbEntity
  8
ALPHA
100
AcDbLine
 10
75.007261
 20
112.501175
 30
0.0
 11
71.507261
 21
112.501175
 31
0.0
  0
LINE
  5
51C
100
AcDbEntity
  8
ALPHA
100
AcDbLine
 10
71.507261
 20
112.501175
 30
0.0
 11
71.107261
 21
112.67468
 31
0.0
  0
LINE
  5
51D
100
AcDbEntity
  8
ALPHA
100
AcDbLine
 10
71.807261
 20
82.868402
 30
0.0
 11
71.807261
 21
82.353269
 31
0.0
  0
LWPOLYLINE
  5
51E
100
AcDbEntity
  8
ALPHA
100
AcDbPolyline
 90
        5
 70
     0
 43
0.0
 10
72.036792
 20
106.744984
 10
72.116757
 20
106.282574
 10
72.34028
 20
105.720595
 10
72.675106
 20
105.215076
 10
73.107261
 20
104.787116
  0
LINE
  5
525
100
AcDbEntity
  8
ALPHA
100
AcDbLine
 10
72.02457
 20
106.815661
 30
0.0
 11
72.036792
 21
106.744984
 31
0.0
  0
LINE
  5
526
100
AcDbEntity
  8
ALPHA
100
AcDbLine
 10
72.015691
 20
106.867001
 30
0.0
 11
72.02457
 21
106.815661
 31
0.0
  0
LINE
  5
527
100
AcDbEntity
  8
ALPHA
100
AcDbLine
 10
71.807261
 20
82.353269
 30
0.0
 11
71.807261
 21
82.001175
 31
0.0
  0
LWPOLYLINE
  5
528
100
AcDbEntity
  8
ALPHA
100
AcDbPolyline
 90
        4
 70
     0
 43
0.0
 10
72.00732
 20
106.739887
 10
72.011082
 20
106.586491
 10
72.089585
 20
106.031435
 10
72.26661
 20
105.501175
  0
LINE
  5
52E
100
AcDbEntity
  8
ALPHA
100
AcDbLine
 10
70.207261
 20
110.101175
 30
0.0
 11
71.507261
 21
110.101175
 31
0.0
  0
LINE
  5
52F
100
AcDbEntity
  8
ALPHA
100
AcDbLine
 10
70.107261
 20
110.101175
 30
0.0
 11
70.207261
 21
110.101175
 31
0.0
  0
LINE
  5
530
100
AcDbEntity
  8
ALPHA
100
AcDbLine
 10
71.207261
 20
82.868402
 30
0.0
 11
71.207261
 21
82.001175
 31
0.0
  0
LINE
  5
531
100
AcDbEntity
  8
ALPHA
100
AcDbLine
 10
71.507261
 20
112.501175
 30
0.0
 11
71.507261
 21
110.101175
 31
0.0
  0
LINE
  5
532
100
AcDbEntity
  8
ALPHA
100
AcDbLine
 10
71.507261
 20
110.101175
 30
0.0
 11
71.107261
 21
110.501175
 31
0.0
  0
LINE
  5
533
100
AcDbEntity
  8
ALPHA
100
AcDbLine
 10
70.207261
 20
83.501175
 30
0.0
 11
70.107261
 21
83.501175
 31
0.0
  0
LINE
  5
534
100
AcDbEntity
  8
ALPHA
100
AcDbLine
 10
75.007261
 20
83.501175
 30
0.0
 11
70.207261
 21
83.501175
 31
0.0
  0
LWPOLYLINE
  5
535
100
AcDbEntity
  8
ALPHA
100
AcDbPolyline
 90
        6
 70
     0
 43
0.0
 10
73.107261
 20
91.972281
 10
72.72418
 20
91.591012
 10
72.413379
 20
91.145321
 10
72.185495
 20
90.649187
 10
72.048628
 20
90.118965
 10
72.007267
 20
89.614654
  0
LINE
  5
53D
100
AcDbEntity
  8
ALPHA
100
AcDbLine
 10
70.207261
 20
113.957056
 30
0.0
 11
71.107261
 21
113.957056
 31
0.0
  0
LINE
  5
53E
100
AcDbEntity
  8
ALPHA
100
AcDbLine
 10
70.107261
 20
113.957056
 30
0.0
 11
70.207261
 21
113.957056
 31
0.0
  0
LWPOLYLINE
  5
53F
100
AcDbEntity
  8
ALPHA
100
AcDbPolyline
 90
        7
 70
     0
 43
0.0
 10
71.807261
 20
82.353269
 10
71.72961
 20
82.351492
 10
71.657846
 20
82.34635
 10
71.596229
 20
82.338201
 10
71.548511
 20
82.327534
 10
71.517972
 20
82.314978
 10
71.507261
 20
82.301175
  0
LINE
  5
548
100
AcDbEntity
  8
ALPHA
100
AcDbLine
 10
70.957261
 20
107.693122
 30
0.0
 11
72.157828
 21
107.693122
 31
0.0
  0
LINE
  5
549
100
AcDbEntity
  8
ALPHA
100
AcDbLine
 10
72.207261
 20
113.64908
 30
0.0
 11
71.907261
 21
113.64908
 31
0.0
  0
LINE
  5
54A
100
AcDbEntity
  8
ALPHA
100
AcDbLine
 10
72.207261
 20
82.353269
 30
0.0
 11
71.807261
 21
82.353269
 31
0.0
  0
LWPOLYLINE
  5
54B
100
AcDbEntity
  8
ALPHA
100
AcDbPolyline
 90
        4
 70
     0
 43
0.0
 10
73.107261
 20
104.030068
 10
72.691711
 20
104.450682
 10
72.363636
 20
104.94746
 10
72.137056
 20
105.501175
  0
LINE
  5
551
100
AcDbEntity
  8
ALPHA
100
AcDbLine
 10
72.846896
 20
108.501175
 30
0.0
 11
70.957261
 21
108.501175
 31
0.0
  0
LINE
  5
552
100
AcDbEntity
  8
ALPHA
100
AcDbLine
 10
71.907261
 20
96.001175
 30
0.0
 11
71.907261
 21
95.851175
 31
0.0
  0
LINE
  5
553
100
AcDbEntity
  8
ALPHA
100
AcDbLine
 10
71.907261
 20
100.151175
 30
0.0
 11
71.907261
 21
100.001175
 31
0.0
  0
LINE
  5
554
100
AcDbEntity
  8
ALPHA
100
AcDbLine
 10
71.107261
 20
96.576175
 30
0.0
 11
71.257261
 21
96.471144
 31
0.0
  0
LINE
  5
555
100
AcDbEntity
  8
ALPHA
100
AcDbLine
 10
71.257261
 20
99.531206
 30
0.0
 11
71.107261
 21
99.426175
 31
0.0
  0
LINE
  5
556
100
AcDbEntity
  8
ALPHA
100
AcDbLine
 10
75.007261
 20
112.501175
 30
0.0
 11
75.007261
 21
109.433801
 31
0.0
  0
LINE
  5
557
100
AcDbEntity
  8
ALPHA
100
AcDbLine
 10
75.007261
 20
113.133948
 30
0.0
 11
75.007261
 21
112.501175
 31
0.0
  0
LINE
  5
558
100
AcDbEntity
  8
ALPHA
100
AcDbLine
 10
72.054354
 20
106.817837
 30
0.0
 11
72.028176
 21
107.056586
 31
0.0
  0
LINE
  5
559
100
AcDbEntity
  8
ALPHA
100
AcDbLine
 10
72.062241
 20
106.745909
 30
0.0
 11
72.054354
 21
106.817837
 31
0.0
  0
LWPOLYLINE
  5
55A
100
AcDbEntity
  8
ALPHA
100
AcDbPolyline
 90
        5
 70
     0
 43
0.0
 10
73.107261
 20
104.960764
 10
72.640405
 20
105.431772
 10
72.291023
 20
105.992883
 10
72.076458
 20
106.616246
 10
72.062241
 20
106.745909
  0
LINE
  5
561
100
AcDbEntity
  8
ALPHA
100
AcDbLine
 10
71.907261
 20
113.133948
 30
0.0
 11
75.007261
 21
113.133948
 31
0.0
  0
LINE
  5
562
100
AcDbEntity
  8
ALPHA
100
AcDbLine
 10
73.107261
 20
104.611463
 30
0.0
 11
73.107261
 21
104.787116
 31
0.0
  0
LINE
  5
563
100
AcDbEntity
  8
ALPHA
100
AcDbLine
 10
73.107261
 20
104.526644
 30
0.0
 11
73.107261
 21
104.030068
 31
0.0
  0
LINE
  5
564
100
AcDbEntity
  8
ALPHA
100
AcDbLine
 10
72.207261
 20
113.133948
 30
0.0
 11
72.207261
 21
113.64908
 31
0.0
  0
LINE
  5
565
100
AcDbEntity
  8
ALPHA
100
AcDbLine
 10
73.107261
 20
104.960764
 30
0.0
 11
73.107261
 21
104.787116
 31
0.0
  0
LINE
  5
566
100
AcDbEntity
  8
ALPHA
100
AcDbLine
 10
73.107261
 20
103.848954
 30
0.0
 11
72.587646
 21
103.544326
 31
0.0
  0
LINE
  5
567
100
AcDbEntity
  8
ALPHA
100
AcDbLine
 10
73.070817
 20
104.590741
 30
0.0
 11
73.052851
 21
104.580526
 31
0.0
  0
LINE
  5
568
100
AcDbEntity
  8
ALPHA
100
AcDbLine
 10
73.107261
 20
104.611463
 30
0.0
 11
73.070817
 21
104.590741
 31
0.0
  0
LINE
  5
569
100
AcDbEntity
  8
ALPHA
100
AcDbLine
 10
75.007261
 20
83.501175
 30
0.0
 11
75.007261
 21
82.868402
 31
0.0
  0
LINE
  5
56A
100
AcDbEntity
  8
ALPHA
100
AcDbLine
 10
75.007261
 20
83.501175
 30
0.0
 11
75.007261
 21
85.951175
 31
0.0
  0
LWPOLYLINE
  5
56B
100
AcDbEntity
  8
ALPHA
100
AcDbPolyline
 90
        5
 70
     0
 43
0.0
 10
73.107261
 20
91.041585
 10
72.640405
 20
90.570577
 10
72.291023
 20
90.009467
 10
72.076458
 20
89.386104
 10
72.05129
 20
89.156565
  0
LINE
  5
572
100
AcDbEntity
  8
ALPHA
100
AcDbLine
 10
71.507261
 20
82.787912
 30
0.0
 11
71.638
 21
82.868402
 31
0.0
  0
LINE
  5
573
100
AcDbEntity
  8
ALPHA
100
AcDbLine
 10
71.207261
 20
82.868402
 30
0.0
 11
75.007261
 21
82.868402
 31
0.0
  0
LINE
  5
574
100
AcDbEntity
  8
ALPHA
100
AcDbLine
 10
73.107261
 20
91.041585
 30
0.0
 11
73.107261
 21
91.972281
 31
0.0
  0
LINE
  5
575
100
AcDbEntity
  8
ALPHA
100
AcDbLine
 10
73.107261
 20
92.153395
 30
0.0
 11
72.587646
 21
92.458023
 31
0.0
  0
LINE
  5
576
100
AcDbEntity
  8
ALPHA
100
AcDbLine
 10
71.107261
 20
112.67468
 30
0.0
 11
71.107261
 21
113.957056
 31
0.0
  0
LWPOLYLINE
  5
577
100
AcDbEntity
  8
ALPHA
100
AcDbPolyline
 90
        4
 70
     0
 43
0.0
 10
72.846896
 20
108.501175
 10
72.569524
 20
108.265779
 10
72.337196
 20
107.996589
 10
72.157828
 20
107.693122
  0
LWPOLYLINE
  5
57D
100
AcDbEntity
  8
ALPHA
100
AcDbPolyline
 90
        3
 70
     0
 43
0.0
 10
72.157828
 20
107.693122
 10
72.034127
 20
107.146943
 10
72.00732
 20
106.739887
  0
LINE
  5
582
100
AcDbEntity
  8
ALPHA
100
AcDbLine
 10
72.137056
 20
105.501175
 30
0.0
 11
72.26661
 21
105.501175
 31
0.0
  0
LWPOLYLINE
  5
583
100
AcDbEntity
  8
ALPHA
100
AcDbPolyline
 90
        7
 70
     0
 43
0.0
 10
75.007261
 20
85.951405
 10
74.503789
 20
85.99461
 10
74.014527
 20
86.123027
 10
73.552582
 20
86.333489
 10
73.131086
 20
86.620639
 10
72.76228
 20
86.976997
 10
72.457261
 20
87.392957
  0
LINE
  5
58C
100
AcDbEntity
  8
ALPHA
100
AcDbLine
 10
72.207261
 20
82.353269
 30
0.0
 11
72.207261
 21
82.868402
 31
0.0
  0
LINE
  5
58D
100
AcDbEntity
  8
ALPHA
100
AcDbLine
 10
70.207261
 20
110.501175
 30
0.0
 11
71.107261
 21
110.501175
 31
0.0
  0
LINE
  5
58E
100
AcDbEntity
  8
ALPHA
100
AcDbLine
 10
71.107261
 20
112.67468
 30
0.0
 11
71.107261
 21
110.501175
 31
0.0
  0
LINE
  5
58F
100
AcDbEntity
  8
ALPHA
100
AcDbLine
 10
70.207261
 20
114.001175
 30
0.0
 11
70.107261
 21
114.001175
 31
0.0
  0
LINE
  5
590
100
AcDbEntity
  8
ALPHA
100
AcDbLine
 10
71.907261
 20
114.001175
 30
0.0
 11
70.207261
 21
114.001175
 31
0.0
  0
LINE
  5
591
100
AcDbEntity
  8
ALPHA
100
AcDbLine
 10
75.007261
 20
85.951175
 30
0.0
 11
72.457261
 21
85.951175
 31
0.0
  0
LINE
  5
592
100
AcDbEntity
  8
ALPHA
100
AcDbLine
 10
72.457261
 20
85.951175
 30
0.0
 11
72.457261
 21
88.010101
 31
0.0
  0
LINE
  5
593
100
AcDbEntity
  8
ALPHA
100
AcDbLine
 10
73.107261
 20
92.153395
 30
0.0
 11
73.107261
 21
91.972281
 31
0.0
  0
LINE
  5
594
100
AcDbEntity
  8
ALPHA
100
AcDbLine
 10
71.107261
 20
92.458023
 30
0.0
 11
72.587646
 21
92.458023
 31
0.0
  0
LINE
  5
595
100
AcDbEntity
  8
ALPHA
100
AcDbLine
 10
71.107261
 20
97.701175
 30
0.0
 11
70.907261
 21
97.701175
 31
0.0
  0
LINE
  5
596
100
AcDbEntity
  8
ALPHA
100
AcDbLine
 10
70.907261
 20
98.301175
 30
0.0
 11
70.907261
 21
97.701175
 31
0.0
  0
LINE
  5
597
100
AcDbEntity
  8
ALPHA
100
AcDbLine
 10
71.107261
 20
98.301175
 30
0.0
 11
70.907261
 21
98.301175
 31
0.0
  0
LINE
  5
598
100
AcDbEntity
  8
ALPHA
100
AcDbLine
 10
71.107261
 20
103.544326
 30
0.0
 11
72.587646
 21
103.544326
 31
0.0
  0
LINE
  5
599
100
AcDbEntity
  8
ALPHA
100
AcDbLine
 10
73.107261
 20
103.848954
 30
0.0
 11
73.107261
 21
104.030068
 31
0.0
  0
LINE
  5
59A
100
AcDbEntity
  8
ALPHA
100
AcDbLine
 10
72.137056
 20
105.501175
 30
0.0
 11
70.957261
 21
105.501175
 31
0.0
  0
LINE
  5
59B
100
AcDbEntity
  8
ALPHA
100
AcDbLine
 10
70.957261
 20
105.501175
 30
0.0
 11
70.957261
 21
108.501175
 31
0.0
  0
LWPOLYLINE
  5
59C
100
AcDbEntity
  8
ALPHA
100
AcDbPolyline
 90
        5
 70
     0
 43
0.0
 10
72.846896
 20
108.501175
 10
73.307988
 20
108.898001
 10
73.835993
 20
109.192035
 10
74.410355
 20
109.372893
 10
75.007261
 20
109.433801
  0
LINE
  5
5A3
100
AcDbEntity
  8
ALPHA
100
AcDbLine
 10
70.207261
 20
82.001175
 30
0.0
 11
71.207261
 21
82.001175
 31
0.0
  0
LINE
  5
5A4
100
AcDbEntity
  8
ALPHA
100
AcDbLine
 10
70.107261
 20
82.001175
 30
0.0
 11
70.207261
 21
82.001175
 31
0.0
  0
LINE
  5
5A5
100
AcDbEntity
  8
ALPHA
100
AcDbLine
 10
70.107261
 20
114.001175
 30
0.0
 11
70.107261
 21
113.957056
 31
0.0
  0
ARC
  5
5A6
100
AcDbEntity
  8
ALPHA
100
AcDbCircle
 10
71.207261
 20
82.301175
 30
0.0
 40
0.3
100
AcDbArc
 50
270.0
 51
0.0
  0
LINE
  5
5A7
100
AcDbEntity
  8
ALPHA
100
AcDbLine
 10
71.507261
 20
82.868402
 30
0.0
 11
71.507261
 21
82.301175
 31
0.0
  0
LINE
  5
5A8
100
AcDbEntity
  8
ALPHA
100
AcDbLine
 10
71.807261
 20
82.001175
 30
0.0
 11
71.207261
 21
82.001175
 31
0.0
  0
LINE
  5
5A9
100
AcDbEntity
  8
ALPHA
100
AcDbLine
 10
72.207261
 20
82.001175
 30
0.0
 11
71.807261
 21
82.001175
 31
0.0
  0
LINE
  5
5AA
100
AcDbEntity
  8
ALPHA
100
AcDbLine
 10
72.207261
 20
82.33425
 30
0.0
 11
72.207261
 21
82.001175
 31
0.0
  0
LINE
  5
5AB
100
AcDbEntity
  8
ALPHA
100
AcDbLine
 10
72.207261
 20
82.353269
 30
0.0
 11
72.207261
 21
82.33425
 31
0.0
  0
LINE
  5
5AC
100
AcDbEntity
  8
ALPHA
100
AcDbLine
 10
71.907261
 20
114.001175
 30
0.0
 11
71.907261
 21
113.133948
 31
0.0
  0
LINE
  5
5AD
100
AcDbEntity
  8
ALPHA
100
AcDbLine
 10
70.107261
 20
83.501175
 30
0.0
 11
70.107261
 21
82.001175
 31
0.0
  0
LINE
  5
5AE
100
AcDbEntity
  8
ALPHA
100
AcDbLine
 10
70.107261
 20
83.501175
 30
0.0
 11
70.107261
 21
110.101175
 31
0.0
  0
LINE
  5
5AF
100
AcDbEntity
  8
ALPHA
100
AcDbLine
 10
72.207261
 20
114.001175
 30
0.0
 11
71.907261
 21
114.001175
 31
0.0
  0
LINE
  5
5B0
100
AcDbEntity
  8
ALPHA
100
AcDbLine
 10
72.207261
 20
113.752851
 30
0.0
 11
72.207261
 21
113.64908
 31
0.0
  0
LINE
  5
5B1
100
AcDbEntity
  8
ALPHA
100
AcDbLine
 10
72.207261
 20
114.001175
 30
0.0
 11
72.207261
 21
113.752851
 31
0.0
  0
LWPOLYLINE
  5
5B2
100
AcDbEntity
  8
ALPHA
100
AcDbPolyline
 90
        4
 70
     0
 43
0.0
 10
72.31612
 20
105.520867
 10
72.34028
 20
105.460122
 10
72.675106
 20
104.954604
 10
73.107261
 20
104.526644
  0
LWPOLYLINE
  5
5B8
100
AcDbEntity
  8
ALPHA
100
AcDbPolyline
 90
        4
 70
     0
 43
0.0
 10
72.009776
 20
106.739969
 10
72.013865
 20
106.617088
 10
72.116757
 20
106.022102
 10
72.31612
 20
105.520867
  0
LINE
  5
5BE
100
AcDbEntity
  8
ALPHA
100
AcDbLine
 10
71.107261
 20
98.301175
 30
0.0
 11
71.107261
 21
103.544326
 31
0.0
  0
LWPOLYLINE
  5
5BF
100
AcDbEntity
  8
ALPHA
100
AcDbPolyline
 90
        4
 70
     0
 43
0.0
 10
72.007267
 20
89.614654
 10
72.063836
 20
89.026018
 10
72.215444
 20
88.49982
 10
72.457261
 20
88.010101
  0
LINE
  5
5C5
100
AcDbEntity
  8
ALPHA
100
AcDbLine
 10
71.107261
 20
92.458023
 30
0.0
 11
71.107261
 21
97.701175
 31
0.0
  0
LINE
  5
5C6
100
AcDbEntity
  8
ALPHA
100
AcDbLine
 10
72.207261
 20
82.001175
 30
0.0
 11
71.807261
 21
82.001175
 31
0.0
  0
LINE
  5
5C7
100
AcDbEntity
  8
ALPHA
100
AcDbLine
 10
66.359402
 20
104.596914
 30
0.0
 11
64.235023
 21
104.596914
 31
0.0
  0
LINE
  5
5C8
100
AcDbEntity
  8
ALPHA
100
AcDbLine
 10
66.707261
 20
104.892292
 30
0.0
 11
66.707261
 21
104.75819
 31
0.0
  0
LINE
  5
5C9
100
AcDbEntity
  8
ALPHA
100
AcDbLine
 10
79.957261
 20
109.128453
 30
0.0
 11
79.907261
 21
109.128453
 31
0.0
  0
LINE
  5
5CA
100
AcDbEntity
  8
ALPHA
100
AcDbLine
 10
79.957261
 20
109.501175
 30
0.0
 11
79.907261
 21
109.501175
 31
0.0
  0
LINE
  5
5CB
100
AcDbEntity
  8
ALPHA
100
AcDbLine
 10
79.957261
 20
109.354175
 30
0.0
 11
79.907261
 21
109.354175
 31
0.0
  0
LINE
  5
5CC
100
AcDbEntity
  8
ALPHA
100
AcDbLine
 10
79.957261
 20
110.801175
 30
0.0
 11
79.957261
 21
109.501175
 31
0.0
  0
LINE
  5
5CD
100
AcDbEntity
  8
ALPHA
100
AcDbLine
 10
79.957261
 20
109.128453
 30
0.0
 11
79.957261
 21
109.354175
 31
0.0
  0
LINE
  5
5CE
100
AcDbEntity
  8
ALPHA
100
AcDbLine
 10
79.957261
 20
109.354175
 30
0.0
 11
79.957261
 21
109.501175
 31
0.0
  0
LINE
  5
5CF
100
AcDbEntity
  8
ALPHA
100
AcDbLine
 10
79.957261
 20
110.801175
 30
0.0
 11
79.957261
 21
113.601175
 31
0.0
  0
LINE
  5
5D0
100
AcDbEntity
  8
ALPHA
100
AcDbLine
 10
79.957261
 20
113.601175
 30
0.0
 11
79.957261
 21
110.801175
 31
0.0
  0
LINE
  5
5D1
100
AcDbEntity
  8
ALPHA
100
AcDbLine
 10
79.957261
 20
113.601175
 30
0.0
 11
79.907261
 21
113.601175
 31
0.0
  0
LINE
  5
5D2
100
AcDbEntity
  8
ALPHA
100
AcDbLine
 10
79.957261
 20
110.801175
 30
0.0
 11
79.907261
 21
110.801175
 31
0.0
  0
LINE
  5
5D3
100
AcDbEntity
  8
ALPHA
100
AcDbLine
 10
79.957261
 20
109.051175
 30
0.0
 11
79.907261
 21
109.051175
 31
0.0
  0
LINE
  5
5D4
100
AcDbEntity
  8
ALPHA
100
AcDbLine
 10
79.957261
 20
109.051194
 30
0.0
 11
79.957261
 21
109.128453
 31
0.0
  0
LINE
  5
5D5
100
AcDbEntity
  8
ALPHA
100
AcDbLine
 10
57.507262
 20
83.385217
 30
0.0
 11
55.757262
 21
82.05543
 31
0.0
  0
LINE
  5
5D6
100
AcDbEntity
  8
ALPHA
100
AcDbLine
 10
55.757262
 20
82.05543
 30
0.0
 11
55.632262
 21
81.842664
 31
0.0
  0
LINE
  5
5D7
100
AcDbEntity
  8
ALPHA
100
AcDbLine
 10
55.632262
 20
81.842664
 30
0.0
 11
55.632262
 21
81.736281
 31
0.0
  0
LINE
  5
5D8
100
AcDbEntity
  8
ALPHA
100
AcDbLine
 10
55.632262
 20
81.736281
 30
0.0
 11
55.757262
 21
81.576707
 31
0.0
  0
LINE
  5
5D9
100
AcDbEntity
  8
ALPHA
100
AcDbLine
 10
55.757262
 20
81.576707
 30
0.0
 11
55.944762
 21
81.470324
 31
0.0
  0
LINE
  5
5DA
100
AcDbEntity
  8
ALPHA
100
AcDbLine
 10
55.944762
 20
81.470324
 30
0.0
 11
56.257262
 21
81.417132
 31
0.0
  0
LINE
  5
5DB
100
AcDbEntity
  8
ALPHA
100
AcDbLine
 10
56.257262
 20
81.417132
 30
0.0
 11
56.507262
 21
81.417132
 31
0.0
  0
LINE
  5
5DC
100
AcDbEntity
  8
ALPHA
100
AcDbLine
 10
56.507262
 20
81.417132
 30
0.0
 11
56.819762
 21
81.470324
 31
0.0
  0
LINE
  5
5DD
100
AcDbEntity
  8
ALPHA
100
AcDbLine
 10
56.819762
 20
81.470324
 30
0.0
 11
57.007262
 21
81.576707
 31
0.0
  0
LINE
  5
5DE
100
AcDbEntity
  8
ALPHA
100
AcDbLine
 10
57.007262
 20
81.576707
 30
0.0
 11
57.132262
 21
81.736281
 31
0.0
  0
LINE
  5
5DF
100
AcDbEntity
  8
ALPHA
100
AcDbLine
 10
57.132262
 20
81.736281
 30
0.0
 11
57.444762
 21
81.736281
 31
0.0
  0
LINE
  5
5E0
100
AcDbEntity
  8
ALPHA
100
AcDbLine
 10
57.444762
 20
81.736281
 30
0.0
 11
57.382262
 21
81.523515
 31
0.0
  0
LINE
  5
5E1
100
AcDbEntity
  8
ALPHA
100
AcDbLine
 10
57.382262
 20
81.523515
 30
0.0
 11
57.132262
 21
81.310749
 31
0.0
  0
LINE
  5
5E2
100
AcDbEntity
  8
ALPHA
100
AcDbLine
 10
57.132262
 20
81.310749
 30
0.0
 11
56.882262
 21
81.204366
 31
0.0
  0
LINE
  5
5E3
100
AcDbEntity
  8
ALPHA
100
AcDbLine
 10
56.882262
 20
81.204366
 30
0.0
 11
56.444762
 21
81.151175
 31
0.0
  0
LINE
  5
5E4
100
AcDbEntity
  8
ALPHA
100
AcDbLine
 10
56.444762
 20
81.151175
 30
0.0
 11
56.194762
 21
81.151175
 31
0.0
  0
LINE
  5
5E5
100
AcDbEntity
  8
ALPHA
100
AcDbLine
 10
56.194762
 20
81.151175
 30
0.0
 11
55.819762
 21
81.204366
 31
0.0
  0
LINE
  5
5E6
100
AcDbEntity
  8
ALPHA
100
AcDbLine
 10
55.819762
 20
81.204366
 30
0.0
 11
55.569762
 21
81.310749
 31
0.0
  0
LINE
  5
5E7
100
AcDbEntity
  8
ALPHA
100
AcDbLine
 10
55.569762
 20
81.310749
 30
0.0
 11
55.319762
 21
81.523515
 31
0.0
  0
LINE
  5
5E8
100
AcDbEntity
  8
ALPHA
100
AcDbLine
 10
55.319762
 20
81.523515
 30
0.0
 11
55.257262
 21
81.736281
 31
0.0
  0
LINE
  5
5E9
100
AcDbEntity
  8
ALPHA
100
AcDbLine
 10
55.257262
 20
81.736281
 30
0.0
 11
55.257262
 21
81.842664
 31
0.0
  0
LINE
  5
5EA
100
AcDbEntity
  8
ALPHA
100
AcDbLine
 10
55.257262
 20
81.842664
 30
0.0
 11
55.319762
 21
82.05543
 31
0.0
  0
LINE
  5
5EB
100
AcDbEntity
  8
ALPHA
100
AcDbLine
 10
55.319762
 20
82.05543
 30
0.0
 11
55.444762
 21
82.215005
 31
0.0
  0
LINE
  5
5EC
100
AcDbEntity
  8
ALPHA
100
AcDbLine
 10
55.444762
 20
82.215005
 30
0.0
 11
57.007262
 21
83.385217
 31
0.0
  0
LINE
  5
5ED
100
AcDbEntity
  8
ALPHA
100
AcDbLine
 10
57.007262
 20
83.385217
 30
0.0
 11
55.257262
 21
83.385217
 31
0.0
  0
LINE
  5
5EE
100
AcDbEntity
  8
ALPHA
100
AcDbLine
 10
55.257262
 20
83.385217
 30
0.0
 11
55.257262
 21
83.651175
 31
0.0
  0
LINE
  5
5EF
100
AcDbEntity
  8
ALPHA
100
AcDbLine
 10
55.257262
 20
83.651175
 30
0.0
 11
57.507262
 21
83.651175
 31
0.0
  0
LINE
  5
5F0
100
AcDbEntity
  8
ALPHA
100
AcDbLine
 10
57.507262
 20
83.651175
 30
0.0
 11
57.507262
 21
83.385217
 31
0.0
  0
LINE
  5
5F1
100
AcDbEntity
  8
ALPHA
100
AcDbLine
 10
67.615754
 20
82.149973
 30
0.0
 11
67.463512
 21
81.942664
 31
0.0
  0
LINE
  5
5F2
100
AcDbEntity
  8
ALPHA
100
AcDbLine
 10
67.463512
 20
81.942664
 30
0.0
 11
67.463512
 21
81.836281
 31
0.0
  0
LINE
  5
5F3
100
AcDbEntity
  8
ALPHA
100
AcDbLine
 10
67.463512
 20
81.836281
 30
0.0
 11
67.619762
 21
81.676707
 31
0.0
  0
LINE
  5
5F4
100
AcDbEntity
  8
ALPHA
100
AcDbLine
 10
67.619762
 20
81.676707
 30
0.0
 11
67.854137
 21
81.570324
 31
0.0
  0
LINE
  5
5F5
100
AcDbEntity
  8
ALPHA
100
AcDbLine
 10
67.854137
 20
81.570324
 30
0.0
 11
68.244762
 21
81.517132
 31
0.0
  0
LINE
  5
5F6
100
AcDbEntity
  8
ALPHA
100
AcDbLine
 10
68.244762
 20
81.517132
 30
0.0
 11
68.557262
 21
81.517132
 31
0.0
  0
LINE
  5
5F7
100
AcDbEntity
  8
ALPHA
100
AcDbLine
 10
68.557262
 20
81.517132
 30
0.0
 11
68.947887
 21
81.570324
 31
0.0
  0
LINE
  5
5F8
100
AcDbEntity
  8
ALPHA
100
AcDbLine
 10
68.947887
 20
81.570324
 30
0.0
 11
69.182262
 21
81.676707
 31
0.0
  0
LINE
  5
5F9
100
AcDbEntity
  8
ALPHA
100
AcDbLine
 10
69.182262
 20
81.676707
 30
0.0
 11
69.338512
 21
81.836281
 31
0.0
  0
LINE
  5
5FA
100
AcDbEntity
  8
ALPHA
100
AcDbLine
 10
69.338512
 20
81.836281
 30
0.0
 11
69.729137
 21
81.836281
 31
0.0
  0
LINE
  5
5FB
100
AcDbEntity
  8
ALPHA
100
AcDbLine
 10
69.729137
 20
81.836281
 30
0.0
 11
69.651012
 21
81.623515
 31
0.0
  0
LINE
  5
5FC
100
AcDbEntity
  8
ALPHA
100
AcDbLine
 10
69.651012
 20
81.623515
 30
0.0
 11
69.338512
 21
81.410749
 31
0.0
  0
LINE
  5
5FD
100
AcDbEntity
  8
ALPHA
100
AcDbLine
 10
69.338512
 20
81.410749
 30
0.0
 11
69.026012
 21
81.304366
 31
0.0
  0
LINE
  5
5FE
100
AcDbEntity
  8
ALPHA
100
AcDbLine
 10
69.026012
 20
81.304366
 30
0.0
 11
68.479137
 21
81.251175
 31
0.0
  0
LINE
  5
5FF
100
AcDbEntity
  8
ALPHA
100
AcDbLine
 10
68.479137
 20
81.251175
 30
0.0
 11
68.322887
 21
81.251175
 31
0.0
  0
LINE
  5
600
100
AcDbEntity
  8
ALPHA
100
AcDbLine
 10
68.322887
 20
81.251175
 30
0.0
 11
67.776012
 21
81.304366
 31
0.0
  0
LINE
  5
601
100
AcDbEntity
  8
ALPHA
100
AcDbLine
 10
67.776012
 20
81.304366
 30
0.0
 11
67.463512
 21
81.410749
 31
0.0
  0
LINE
  5
602
100
AcDbEntity
  8
ALPHA
100
AcDbLine
 10
67.463512
 20
81.410749
 30
0.0
 11
67.151012
 21
81.623515
 31
0.0
  0
LINE
  5
603
100
AcDbEntity
  8
ALPHA
100
AcDbLine
 10
67.151012
 20
81.623515
 30
0.0
 11
67.072887
 21
81.836281
 31
0.0
  0
LINE
  5
604
100
AcDbEntity
  8
ALPHA
100
AcDbLine
 10
67.072887
 20
81.836281
 30
0.0
 11
67.072887
 21
81.942664
 31
0.0
  0
LINE
  5
605
100
AcDbEntity
  8
ALPHA
100
AcDbLine
 10
67.072887
 20
81.942664
 30
0.0
 11
67.151012
 21
82.15543
 31
0.0
  0
LINE
  5
606
100
AcDbEntity
  8
ALPHA
100
AcDbLine
 10
53.507262
 20
83.096919
 30
0.0
 11
53.297261
 21
83.096919
 31
0.0
  0
LINE
  5
607
100
AcDbEntity
  8
ALPHA
100
AcDbLine
 10
53.507262
 20
82.101175
 30
0.0
 11
53.507262
 21
83.096919
 31
0.0
  0
LINE
  5
608
100
AcDbEntity
  8
ALPHA
100
AcDbLine
 10
52.487262
 20
82.101175
 30
0.0
 11
53.507262
 21
82.101175
 31
0.0
  0
LINE
  5
609
100
AcDbEntity
  8
ALPHA
100
AcDbLine
 10
52.487262
 20
82.292664
 30
0.0
 11
52.487262
 21
82.101175
 31
0.0
  0
LINE
  5
60A
100
AcDbEntity
  8
ALPHA
100
AcDbLine
 10
53.357261
 20
82.292664
 30
0.0
 11
52.487262
 21
82.292664
 31
0.0
  0
LINE
  5
60B
100
AcDbEntity
  8
ALPHA
100
AcDbLine
 10
53.357261
 20
82.90543
 30
0.0
 11
53.357261
 21
82.292664
 31
0.0
  0
LINE
  5
60C
100
AcDbEntity
  8
ALPHA
100
AcDbLine
 10
53.207261
 20
82.790537
 30
0.0
 11
53.357261
 21
82.90543
 31
0.0
  0
LINE
  5
60D
100
AcDbEntity
  8
ALPHA
100
AcDbLine
 10
53.057261
 20
82.752239
 30
0.0
 11
53.207261
 21
82.790537
 31
0.0
  0
LINE
  5
60E
100
AcDbEntity
  8
ALPHA
100
AcDbLine
 10
52.877261
 20
82.752239
 30
0.0
 11
53.057261
 21
82.752239
 31
0.0
  0
LINE
  5
60F
100
AcDbEntity
  8
ALPHA
100
AcDbLine
 10
52.727261
 20
82.790537
 30
0.0
 11
52.877261
 21
82.752239
 31
0.0
  0
LINE
  5
610
100
AcDbEntity
  8
ALPHA
100
AcDbLine
 10
52.577261
 20
82.90543
 30
0.0
 11
52.727261
 21
82.790537
 31
0.0
  0
LINE
  5
611
100
AcDbEntity
  8
ALPHA
100
AcDbLine
 10
52.487262
 20
83.058622
 30
0.0
 11
52.577261
 21
82.90543
 31
0.0
  0
LINE
  5
612
100
AcDbEntity
  8
ALPHA
100
AcDbLine
 10
52.427261
 20
83.250111
 30
0.0
 11
52.487262
 21
83.058622
 31
0.0
  0
LINE
  5
613
100
AcDbEntity
  8
ALPHA
100
AcDbLine
 10
52.427261
 20
83.403303
 30
0.0
 11
52.427261
 21
83.250111
 31
0.0
  0
LINE
  5
614
100
AcDbEntity
  8
ALPHA
100
AcDbLine
 10
52.487262
 20
83.594792
 30
0.0
 11
52.427261
 21
83.403303
 31
0.0
  0
LINE
  5
615
100
AcDbEntity
  8
ALPHA
100
AcDbLine
 10
52.577261
 20
83.747983
 30
0.0
 11
52.487262
 21
83.594792
 31
0.0
  0
LINE
  5
616
100
AcDbEntity
  8
ALPHA
100
AcDbLine
 10
52.727261
 20
83.862877
 30
0.0
 11
52.577261
 21
83.747983
 31
0.0
  0
LINE
  5
617
100
AcDbEntity
  8
ALPHA
100
AcDbLine
 10
52.877261
 20
83.901175
 30
0.0
 11
52.727261
 21
83.862877
 31
0.0
  0
LINE
  5
618
100
AcDbEntity
  8
ALPHA
100
AcDbLine
 10
53.057261
 20
83.901175
 30
0.0
 11
52.877261
 21
83.901175
 31
0.0
  0
LINE
  5
619
100
AcDbEntity
  8
ALPHA
100
AcDbLine
 10
53.207261
 20
83.862877
 30
0.0
 11
53.057261
 21
83.901175
 31
0.0
  0
LINE
  5
61A
100
AcDbEntity
  8
ALPHA
100
AcDbLine
 10
53.357261
 20
83.747983
 30
0.0
 11
53.207261
 21
83.862877
 31
0.0
  0
LINE
  5
61B
100
AcDbEntity
  8
ALPHA
100
AcDbLine
 10
53.447261
 20
83.594792
 30
0.0
 11
53.357261
 21
83.747983
 31
0.0
  0
LINE
  5
61C
100
AcDbEntity
  8
ALPHA
100
AcDbLine
 10
53.507262
 20
83.4416
 30
0.0
 11
53.447261
 21
83.594792
 31
0.0
  0
LINE
  5
61D
100
AcDbEntity
  8
ALPHA
100
AcDbLine
 10
53.327261
 20
83.4416
 30
0.0
 11
53.507262
 21
83.4416
 31
0.0
  0
LINE
  5
61E
100
AcDbEntity
  8
ALPHA
100
AcDbLine
 10
53.267261
 20
83.594792
 30
0.0
 11
53.327261
 21
83.4416
 31
0.0
  0
LINE
  5
61F
100
AcDbEntity
  8
ALPHA
100
AcDbLine
 10
53.177261
 20
83.671388
 30
0.0
 11
53.267261
 21
83.594792
 31
0.0
  0
LINE
  5
620
100
AcDbEntity
  8
ALPHA
100
AcDbLine
 10
53.057261
 20
83.709686
 30
0.0
 11
53.177261
 21
83.671388
 31
0.0
  0
LINE
  5
621
100
AcDbEntity
  8
ALPHA
100
AcDbLine
 10
52.877261
 20
83.709686
 30
0.0
 11
53.057261
 21
83.709686
 31
0.0
  0
LINE
  5
622
100
AcDbEntity
  8
ALPHA
100
AcDbLine
 10
52.757262
 20
83.671388
 30
0.0
 11
52.877261
 21
83.709686
 31
0.0
  0
LINE
  5
623
100
AcDbEntity
  8
ALPHA
100
AcDbLine
 10
52.667261
 20
83.594792
 30
0.0
 11
52.757262
 21
83.671388
 31
0.0
  0
LINE
  5
624
100
AcDbEntity
  8
ALPHA
100
AcDbLine
 10
52.607261
 20
83.479898
 30
0.0
 11
52.667261
 21
83.594792
 31
0.0
  0
LINE
  5
625
100
AcDbEntity
  8
ALPHA
100
AcDbLine
 10
52.577261
 20
83.365005
 30
0.0
 11
52.607261
 21
83.479898
 31
0.0
  0
LINE
  5
626
100
AcDbEntity
  8
ALPHA
100
AcDbLine
 10
52.577261
 20
83.288409
 30
0.0
 11
52.577261
 21
83.365005
 31
0.0
  0
LINE
  5
627
100
AcDbEntity
  8
ALPHA
100
AcDbLine
 10
52.607261
 20
83.173515
 30
0.0
 11
52.577261
 21
83.288409
 31
0.0
  0
LINE
  5
628
100
AcDbEntity
  8
ALPHA
100
AcDbLine
 10
52.667261
 20
83.058622
 30
0.0
 11
52.607261
 21
83.173515
 31
0.0
  0
LINE
  5
629
100
AcDbEntity
  8
ALPHA
100
AcDbLine
 10
52.757262
 20
82.982026
 30
0.0
 11
52.667261
 21
83.058622
 31
0.0
  0
LINE
  5
62A
100
AcDbEntity
  8
ALPHA
100
AcDbLine
 10
52.877261
 20
82.943728
 30
0.0
 11
52.757262
 21
82.982026
 31
0.0
  0
LINE
  5
62B
100
AcDbEntity
  8
ALPHA
100
AcDbLine
 10
53.057261
 20
82.943728
 30
0.0
 11
52.877261
 21
82.943728
 31
0.0
  0
LINE
  5
62C
100
AcDbEntity
  8
ALPHA
100
AcDbLine
 10
53.177261
 20
82.982026
 30
0.0
 11
53.057261
 21
82.943728
 31
0.0
  0
LINE
  5
62D
100
AcDbEntity
  8
ALPHA
100
AcDbLine
 10
53.297261
 20
83.096919
 30
0.0
 11
53.177261
 21
82.982026
 31
0.0
  0
LINE
  5
62E
100
AcDbEntity
  8
ALPHA
100
AcDbLine
 10
73.287262
 20
82.101175
 30
0.0
 11
73.107261
 21
82.101175
 31
0.0
  0
LINE
  5
62F
100
AcDbEntity
  8
ALPHA
100
AcDbLine
 10
73.107261
 20
82.101175
 30
0.0
 11
73.107261
 21
82.111895
 31
0.0
  0
LINE
  5
630
100
AcDbEntity
  8
ALPHA
100
AcDbLine
 10
73.294726
 20
82.111895
 30
0.0
 11
73.287262
 21
82.101175
 31
0.0
  0
LINE
  5
631
100
AcDbEntity
  8
ALPHA
100
AcDbLine
 10
76.963512
 20
82.111895
 30
0.0
 11
76.963512
 21
81.576707
 31
0.0
  0
LINE
  5
632
100
AcDbEntity
  8
ALPHA
100
AcDbLine
 10
76.963512
 20
81.576707
 30
0.0
 11
77.407261
 21
81.949047
 31
0.0
  0
LINE
  5
633
100
AcDbEntity
  8
ALPHA
100
AcDbLine
 10
77.407261
 20
81.949047
 30
0.0
 11
77.407261
 21
81.523515
 31
0.0
  0
LINE
  5
634
100
AcDbEntity
  8
ALPHA
100
AcDbLine
 10
77.407261
 20
81.523515
 30
0.0
 11
76.963512
 21
81.151175
 31
0.0
  0
LINE
  5
635
100
AcDbEntity
  8
ALPHA
100
AcDbLine
 10
76.963512
 20
81.151175
 30
0.0
 11
76.519762
 21
81.151175
 31
0.0
  0
LINE
  5
636
100
AcDbEntity
  8
ALPHA
100
AcDbLine
 10
76.519762
 20
81.151175
 30
0.0
 11
76.519762
 21
82.111895
 31
0.0
  0
LINE
  5
637
100
AcDbEntity
  8
ALPHA
100
AcDbLine
 10
75.757261
 20
91.45286
 30
0.0
 11
76.20076
 21
91.45286
 31
0.0
  0
LINE
  5
638
100
AcDbEntity
  8
ALPHA
100
AcDbLine
 10
73.107261
 20
91.45286
 30
0.0
 11
74.257261
 21
91.45286
 31
0.0
  0
LINE
  5
639
100
AcDbEntity
  8
ALPHA
100
AcDbLine
 10
72.05302
 20
89.138562
 30
0.0
 11
72.241019
 21
89.138562
 31
0.0
  0
LINE
  5
63A
100
AcDbEntity
  8
ALPHA
100
AcDbLine
 10
72.049316
 20
89.138562
 30
0.0
 11
72.05302
 21
89.138562
 31
0.0
  0
LINE
  5
63B
100
AcDbEntity
  8
ALPHA
100
AcDbLine
 10
74.257261
 20
91.45286
 30
0.0
 11
74.257261
 21
91.422088
 31
0.0
  0
LINE
  5
63C
100
AcDbEntity
  8
ALPHA
100
AcDbLine
 10
77.960527
 20
89.138562
 30
0.0
 11
77.771421
 21
89.138562
 31
0.0
  0
LINE
  5
63D
100
AcDbEntity
  8
ALPHA
100
AcDbLine
 10
77.968126
 20
89.138562
 30
0.0
 11
77.960527
 21
89.138562
 31
0.0
  0
LINE
  5
63E
100
AcDbEntity
  8
ALPHA
100
AcDbLine
 10
75.757261
 20
91.45286
 30
0.0
 11
75.757261
 21
91.427107
 31
0.0
  0
LINE
  5
63F
100
AcDbEntity
  8
ALPHA
100
AcDbLine
 10
77.902877
 20
88.848948
 30
0.0
 11
77.798704
 21
88.848948
 31
0.0
  0
LINE
  5
640
100
AcDbEntity
  8
ALPHA
100
AcDbLine
 10
72.114853
 20
88.848948
 30
0.0
 11
72.225103
 21
88.848948
 31
0.0
  0
LWPOLYLINE
  5
641
100
AcDbEntity
  8
ALPHA
100
AcDbPolyline
 90
        7
 70
     0
 43
0.0
 10
75.757261
 20
91.45286
 10
75.751892
 20
91.497261
 10
75.735165
 20
91.539015
 10
75.706521
 20
91.575149
 10
75.666699
 20
91.601993
 10
75.616668
 20
91.616519
 10
75.592784
 20
91.617862
  0
LINE
  5
64A
100
AcDbEntity
  8
ALPHA
100
AcDbLine
 10
75.507261
 20
91.60641
 30
0.0
 11
75.507261
 21
91.481203
 31
0.0
  0
LWPOLYLINE
  5
64B
100
AcDbEntity
  8
ALPHA
100
AcDbPolyline
 90
        7
 70
     0
 43
0.0
 10
74.257261
 20
91.45286
 10
74.262631
 20
91.497261
 10
74.279358
 20
91.539015
 10
74.308002
 20
91.575149
 10
74.347824
 20
91.601993
 10
74.397855
 20
91.616519
 10
74.421739
 20
91.617862
  0
LINE
  5
654
100
AcDbEntity
  8
ALPHA
100
AcDbLine
 10
74.507261
 20
91.60641
 30
0.0
 11
74.507261
 21
91.485181
 31
0.0
  0
LINE
  5
655
100
AcDbEntity
  8
ALPHA
100
AcDbLine
 10
75.682165
 20
91.618131
 30
0.0
 11
75.591641
 21
91.618131
 31
0.0
  0
LINE
  5
656
100
AcDbEntity
  8
ALPHA
100
AcDbLine
 10
75.592784
 20
91.617862
 30
0.0
 11
75.557261
 21
91.615092
 31
0.0
  0
LINE
  5
657
100
AcDbEntity
  8
ALPHA
100
AcDbLine
 10
74.422882
 20
91.618131
 30
0.0
 11
73.107261
 21
91.618131
 31
0.0
  0
LINE
  5
658
100
AcDbEntity
  8
ALPHA
100
AcDbLine
 10
74.421739
 20
91.617862
 30
0.0
 11
74.457261
 21
91.615092
 31
0.0
  0
LINE
  5
659
100
AcDbEntity
  8
ALPHA
100
AcDbLine
 10
74.457261
 20
91.615092
 30
0.0
 11
74.507261
 21
91.60641
 31
0.0
  0
LINE
  5
65A
100
AcDbEntity
  8
ALPHA
100
AcDbLine
 10
75.507261
 20
91.60641
 30
0.0
 11
74.507261
 21
91.60641
 31
0.0
  0
LINE
  5
65B
100
AcDbEntity
  8
ALPHA
100
AcDbLine
 10
75.557261
 20
91.615092
 30
0.0
 11
75.507261
 21
91.60641
 31
0.0
  0
LINE
  5
65C
100
AcDbEntity
  8
ALPHA
100
AcDbLine
 10
67.932261
 20
90.048035
 30
0.0
 11
67.932261
 21
89.090657
 31
0.0
  0
LINE
  5
65D
100
AcDbEntity
  8
ALPHA
100
AcDbLine
 10
65.582261
 20
91.404955
 30
0.0
 11
66.361012
 21
91.404955
 31
0.0
  0
LWPOLYLINE
  5
65E
100
AcDbEntity
  8
ALPHA
100
AcDbPolyline
 90
        7
 70
     0
 43
0.0
 10
65.582261
 20
91.404955
 10
65.576892
 20
91.449356
 10
65.560165
 20
91.491109
 10
65.531521
 20
91.527244
 10
65.491699
 20
91.554088
 10
65.441668
 20
91.568613
 10
65.417784
 20
91.569957
  0
LINE
  5
667
100
AcDbEntity
  8
ALPHA
100
AcDbLine
 10
65.332261
 20
91.558504
 30
0.0
 11
65.332261
 21
91.437367
 31
0.0
  0
LINE
  5
668
100
AcDbEntity
  8
ALPHA
100
AcDbLine
 10
67.723419
 20
87.816235
 30
0.0
 11
67.56416
 21
87.816235
 31
0.0
  0
LWPOLYLINE
  5
669
100
AcDbEntity
  8
ALPHA
100
AcDbPolyline
 90
        7
 70
     0
 43
0.0
 10
67.932261
 20
89.090657
 10
67.978294
 20
89.084436
 10
68.023641
 20
89.065059
 10
68.065384
 20
89.031876
 10
68.099663
 20
88.985744
 10
68.123235
 20
88.927786
 10
68.132261
 20
88.858966
  0
LINE
  5
672
100
AcDbEntity
  8
ALPHA
100
AcDbLine
 10
68.132261
 20
88.801043
 30
0.0
 11
67.61442
 21
88.801043
 31
0.0
  0
LINE
  5
673
100
AcDbEntity
  8
ALPHA
100
AcDbLine
 10
67.550158
 20
87.613445
 30
0.0
 11
67.505669
 21
87.613445
 31
0.0
  0
LINE
  5
674
100
AcDbEntity
  8
ALPHA
100
AcDbLine
 10
65.582261
 20
91.404955
 30
0.0
 11
65.582261
 21
91.374135
 31
0.0
  0
LINE
  5
675
100
AcDbEntity
  8
ALPHA
100
AcDbLine
 10
67.932261
 20
89.090657
 30
0.0
 11
67.598504
 21
89.090657
 31
0.0
  0
LINE
  5
676
100
AcDbEntity
  8
ALPHA
100
AcDbLine
 10
68.132261
 20
89.604625
 30
0.0
 11
68.132261
 21
88.858966
 31
0.0
  0
LINE
  5
677
100
AcDbEntity
  8
ALPHA
100
AcDbLine
 10
68.132261
 20
88.858966
 30
0.0
 11
68.132261
 21
88.801043
 31
0.0
  0
LINE
  5
678
100
AcDbEntity
  8
ALPHA
100
AcDbLine
 10
68.132261
 20
88.627907
 30
0.0
 11
68.132261
 21
88.801043
 31
0.0
  0
LINE
  5
679
100
AcDbEntity
  8
ALPHA
100
AcDbLine
 10
65.631512
 20
91.570225
 30
0.0
 11
65.416641
 21
91.570225
 31
0.0
  0
LINE
  5
67A
100
AcDbEntity
  8
ALPHA
100
AcDbLine
 10
65.332261
 20
91.558504
 30
0.0
 11
64.798194
 21
91.558504
 31
0.0
  0
LINE
  5
67B
100
AcDbEntity
  8
ALPHA
100
AcDbLine
 10
65.382261
 20
91.567187
 30
0.0
 11
65.332261
 21
91.558504
 31
0.0
  0
LINE
  5
67C
100
AcDbEntity
  8
ALPHA
100
AcDbLine
 10
65.417784
 20
91.569957
 30
0.0
 11
65.382261
 21
91.567187
 31
0.0
  0
LINE
  5
67D
100
AcDbEntity
  8
ALPHA
100
AcDbLine
 10
74.257261
 20
104.957562
 30
0.0
 11
73.107261
 21
104.957562
 31
0.0
  0
LINE
  5
67E
100
AcDbEntity
  8
ALPHA
100
AcDbLine
 10
76.870677
 20
104.957562
 30
0.0
 11
75.757261
 21
104.957562
 31
0.0
  0
LINE
  5
67F
100
AcDbEntity
  8
ALPHA
100
AcDbLine
 10
77.953721
 20
107.271861
 30
0.0
 11
77.729809
 21
107.271861
 31
0.0
  0
LINE
  5
680
100
AcDbEntity
  8
ALPHA
100
AcDbLine
 10
75.757261
 20
104.957562
 30
0.0
 11
75.757261
 21
105.087405
 31
0.0
  0
LINE
  5
681
100
AcDbEntity
  8
ALPHA
100
AcDbLine
 10
72.062419
 20
107.271861
 30
0.0
 11
72.281506
 21
107.271861
 31
0.0
  0
LINE
  5
682
100
AcDbEntity
  8
ALPHA
100
AcDbLine
 10
74.257261
 20
104.957562
 30
0.0
 11
74.257261
 21
105.092572
 31
0.0
  0
LINE
  5
683
100
AcDbEntity
  8
ALPHA
100
AcDbLine
 10
72.128011
 20
107.561475
 30
0.0
 11
72.233429
 21
107.561475
 31
0.0
  0
LINE
  5
684
100
AcDbEntity
  8
ALPHA
100
AcDbLine
 10
77.895425
 20
107.561475
 30
0.0
 11
77.781094
 21
107.561475
 31
0.0
  0
LWPOLYLINE
  5
685
100
AcDbEntity
  8
ALPHA
100
AcDbPolyline
 90
        7
 70
     0
 43
0.0
 10
74.257261
 20
104.957562
 10
74.262631
 20
104.913161
 10
74.279358
 20
104.871408
 10
74.308002
 20
104.835273
 10
74.347824
 20
104.80843
 10
74.397855
 20
104.793904
 10
74.421739
 20
104.79256
  0
LINE
  5
68E
100
AcDbEntity
  8
ALPHA
100
AcDbLine
 10
74.507261
 20
104.804013
 30
0.0
 11
74.507261
 21
105.029339
 31
0.0
  0
LWPOLYLINE
  5
68F
100
AcDbEntity
  8
ALPHA
100
AcDbPolyline
 90
        7
 70
     0
 43
0.0
 10
75.757261
 20
104.957562
 10
75.751892
 20
104.913161
 10
75.735165
 20
104.871408
 10
75.706521
 20
104.835273
 10
75.666699
 20
104.80843
 10
75.616668
 20
104.793904
 10
75.592784
 20
104.79256
  0
LINE
  5
698
100
AcDbEntity
  8
ALPHA
100
AcDbLine
 10
75.507261
 20
104.804013
 30
0.0
 11
75.507261
 21
105.03345
 31
0.0
  0
LINE
  5
699
100
AcDbEntity
  8
ALPHA
100
AcDbLine
 10
73.107261
 20
104.792292
 30
0.0
 11
74.422882
 21
104.792292
 31
0.0
  0
LINE
  5
69A
100
AcDbEntity
  8
ALPHA
100
AcDbLine
 10
74.421739
 20
104.79256
 30
0.0
 11
74.457261
 21
104.79533
 31
0.0
  0
LINE
  5
69B
100
AcDbEntity
  8
ALPHA
100
AcDbLine
 10
75.591641
 20
104.792292
 30
0.0
 11
76.66202
 21
104.792292
 31
0.0
  0
LINE
  5
69C
100
AcDbEntity
  8
ALPHA
100
AcDbLine
 10
75.592784
 20
104.79256
 30
0.0
 11
75.557261
 21
104.79533
 31
0.0
  0
LINE
  5
69D
100
AcDbEntity
  8
ALPHA
100
AcDbLine
 10
75.557261
 20
104.79533
 30
0.0
 11
75.507261
 21
104.804013
 31
0.0
  0
LINE
  5
69E
100
AcDbEntity
  8
ALPHA
100
AcDbLine
 10
74.507261
 20
104.804013
 30
0.0
 11
75.507261
 21
104.804013
 31
0.0
  0
LINE
  5
69F
100
AcDbEntity
  8
ALPHA
100
AcDbLine
 10
74.457261
 20
104.79533
 30
0.0
 11
74.507261
 21
104.804013
 31
0.0
  0
LINE
  5
6A0
100
AcDbEntity
  8
ALPHA
100
AcDbLine
 10
64.557261
 20
105.057562
 30
0.0
 11
63.422966
 21
105.057562
 31
0.0
  0
LINE
  5
6A1
100
AcDbEntity
  8
ALPHA
100
AcDbLine
 10
67.170677
 20
105.057562
 30
0.0
 11
66.057261
 21
105.057562
 31
0.0
  0
LINE
  5
6A2
100
AcDbEntity
  8
ALPHA
100
AcDbLine
 10
64.557261
 20
105.057562
 30
0.0
 11
64.557261
 21
105.193819
 31
0.0
  0
LINE
  5
6A3
100
AcDbEntity
  8
ALPHA
100
AcDbLine
 10
62.469146
 20
107.371861
 30
0.0
 11
62.585099
 21
107.371861
 31
0.0
  0
LWPOLYLINE
  5
6A4
100
AcDbEntity
  8
ALPHA
100
AcDbPolyline
 90
        7
 70
     0
 43
0.0
 10
64.557261
 20
105.057562
 10
64.562631
 20
105.013161
 10
64.579358
 20
104.971408
 10
64.608002
 20
104.935273
 10
64.647824
 20
104.90843
 10
64.697855
 20
104.893904
 10
64.721739
 20
104.89256
  0
LINE
  5
6AD
100
AcDbEntity
  8
ALPHA
100
AcDbLine
 10
64.807261
 20
104.904013
 30
0.0
 11
64.807261
 21
105.126188
 31
0.0
  0
LWPOLYLINE
  5
6AE
100
AcDbEntity
  8
ALPHA
100
AcDbPolyline
 90
        7
 70
     0
 43
0.0
 10
66.057261
 20
105.057562
 10
66.051892
 20
105.013161
 10
66.035165
 20
104.971408
 10
66.006521
 20
104.935273
 10
65.966699
 20
104.90843
 10
65.916668
 20
104.893904
 10
65.892784
 20
104.89256
  0
LINE
  5
6B7
100
AcDbEntity
  8
ALPHA
100
AcDbLine
 10
65.807261
 20
104.904013
 30
0.0
 11
65.807261
 21
105.126188
 31
0.0
  0
LINE
  5
6B8
100
AcDbEntity
  8
ALPHA
100
AcDbLine
 10
68.133228
 20
107.371861
 30
0.0
 11
68.029424
 21
107.371861
 31
0.0
  0
LINE
  5
6B9
100
AcDbEntity
  8
ALPHA
100
AcDbLine
 10
66.057261
 20
105.057562
 30
0.0
 11
66.057261
 21
105.193822
 31
0.0
  0
LINE
  5
6BA
100
AcDbEntity
  8
ALPHA
100
AcDbLine
 10
65.857261
 20
104.89533
 30
0.0
 11
65.807261
 21
104.904013
 31
0.0
  0
LINE
  5
6BB
100
AcDbEntity
  8
ALPHA
100
AcDbLine
 10
64.807261
 20
104.904013
 30
0.0
 11
65.807261
 21
104.904013
 31
0.0
  0
LINE
  5
6BC
100
AcDbEntity
  8
ALPHA
100
AcDbLine
 10
64.757261
 20
104.89533
 30
0.0
 11
64.807261
 21
104.904013
 31
0.0
  0
LINE
  5
6BD
100
AcDbEntity
  8
ALPHA
100
AcDbLine
 10
63.650643
 20
104.892292
 30
0.0
 11
64.722882
 21
104.892292
 31
0.0
  0
LINE
  5
6BE
100
AcDbEntity
  8
ALPHA
100
AcDbLine
 10
64.721739
 20
104.89256
 30
0.0
 11
64.757261
 21
104.89533
 31
0.0
  0
LINE
  5
6BF
100
AcDbEntity
  8
ALPHA
100
AcDbLine
 10
65.891641
 20
104.892292
 30
0.0
 11
66.96202
 21
104.892292
 31
0.0
  0
LINE
  5
6C0
100
AcDbEntity
  8
ALPHA
100
AcDbLine
 10
65.892784
 20
104.89256
 30
0.0
 11
65.857261
 21
104.89533
 31
0.0
  0
LINE
  5
6C1
100
AcDbEntity
  8
ALPHA
100
AcDbLine
 10
76.173988
 20
90.121996
 30
0.0
 11
75.507261
 21
89.44084
 31
0.0
  0
LINE
  5
6C2
100
AcDbEntity
  8
ALPHA
100
AcDbLine
 10
75.507261
 20
89.44084
 30
0.0
 11
75.68119
 21
89.465399
 31
0.0
  0
LWPOLYLINE
  5
6C3
100
AcDbEntity
  8
ALPHA
100
AcDbPolyline
 90
        5
 70
     0
 43
0.0
 10
75.477261
 20
89.443971
 10
75.446368
 20
89.452703
 10
75.41762
 20
89.472414
 10
75.393639
 20
89.50355
 10
75.379401
 20
89.543616
  0
LWPOLYLINE
  5
6CA
100
AcDbEntity
  8
ALPHA
100
AcDbPolyline
 90
        5
 70
     0
 43
0.0
 10
74.635122
 20
89.543616
 10
74.620881
 20
89.503545
 10
74.596897
 20
89.472409
 10
74.568154
 20
89.452703
 10
74.537261
 20
89.443971
  0
LINE
  5
6D1
100
AcDbEntity
  8
ALPHA
100
AcDbLine
 10
73.840535
 20
90.121996
 30
0.0
 11
74.507261
 21
89.44084
 31
0.0
  0
LINE
  5
6D2
100
AcDbEntity
  8
ALPHA
100
AcDbLine
 10
74.333333
 20
89.465399
 30
0.0
 11
74.507261
 21
89.44084
 31
0.0
  0
LINE
  5
6D3
100
AcDbEntity
  8
ALPHA
100
AcDbLine
 10
76.173988
 20
87.823994
 30
0.0
 11
75.507261
 21
88.456032
 31
0.0
  0
LWPOLYLINE
  5
6D4
100
AcDbEntity
  8
ALPHA
100
AcDbPolyline
 90
        9
 70
     0
 43
0.0
 10
72.710943
 20
88.480592
 10
72.810819
 20
88.149798
 10
72.960301
 20
87.835965
 10
73.155597
 20
87.547771
 10
73.392447
 20
87.291465
 10
73.665475
 20
87.072881
 10
73.968567
 20
86.896897
 10
74.294935
 20
86.76745
 10
74.637261
 20
86.687439
  0
LINE
  5
6DF
100
AcDbEntity
  8
ALPHA
100
AcDbLine
 10
73.840535
 20
87.823994
 30
0.0
 11
74.507261
 21
88.456032
 31
0.0
  0
LWPOLYLINE
  5
6E0
100
AcDbEntity
  8
ALPHA
100
AcDbPolyline
 90
        5
 70
     0
 43
0.0
 10
72.350133
 20
88.324308
 10
72.315204
 20
88.569215
 10
72.303499
 20
88.816712
 10
72.315204
 20
89.064209
 10
72.350133
 20
89.309116
  0
LINE
  5
6E7
100
AcDbEntity
  8
ALPHA
100
AcDbLine
 10
72.350133
 20
89.309116
 30
0.0
 11
74.507261
 21
89.309116
 31
0.0
  0
LWPOLYLINE
  5
6E8
100
AcDbEntity
  8
ALPHA
100
AcDbPolyline
 90
        6
 70
     0
 43
0.0
 10
74.507261
 20
89.279572
 10
74.502367
 20
89.249139
 10
74.488163
 20
89.221686
 10
74.46604
 20
89.199899
 10
74.438163
 20
89.185911
 10
74.407261
 20
89.181091
  0
LWPOLYLINE
  5
6F0
100
AcDbEntity
  8
ALPHA
100
AcDbPolyline
 90
        5
 70
     0
 43
0.0
 10
74.015315
 20
88.480592
 10
73.972937
 20
88.631538
 10
73.955985
 20
88.816712
 10
73.972937
 20
89.001886
 10
74.023248
 20
89.181091
  0
LINE
  5
6F7
100
AcDbEntity
  8
ALPHA
100
AcDbLine
 10
72.512873
 20
88.047289
 30
0.0
 11
72.405896
 21
88.433037
 31
0.0
  0
LWPOLYLINE
  5
6F8
100
AcDbEntity
  8
ALPHA
100
AcDbPolyline
 90
        9
 70
     0
 43
0.0
 10
75.007261
 20
86.316704
 10
74.602411
 20
86.347351
 10
74.207072
 20
86.438572
 10
73.830535
 20
86.588225
 10
73.481645
 20
86.792792
 10
73.168602
 20
87.047468
 10
72.898759
 20
87.346268
 10
72.678457
 20
87.682173
 10
72.512873
 20
88.047289
  0
LWPOLYLINE
  5
703
100
AcDbEntity
  8
ALPHA
100
AcDbPolyline
 90
        5
 70
     0
 43
0.0
 10
77.66439
 20
89.309116
 10
77.699319
 20
89.064209
 10
77.711024
 20
88.816712
 10
77.699319
 20
88.569215
 10
77.66439
 20
88.324308
  0
LWPOLYLINE
  5
70A
100
AcDbEntity
  8
ALPHA
100
AcDbPolyline
 90
        5
 70
     0
 43
0.0
 10
75.991275
 20
89.181091
 10
76.041586
 20
89.001886
 10
76.058538
 20
88.816712
 10
76.041586
 20
88.631538
 10
75.999208
 20
88.480592
  0
LINE
  5
711
100
AcDbEntity
  8
ALPHA
100
AcDbLine
 10
77.50165
 20
88.047289
 30
0.0
 11
77.608627
 21
88.433037
 31
0.0
  0
LWPOLYLINE
  5
712
100
AcDbEntity
  8
ALPHA
100
AcDbPolyline
 90
        9
 70
     0
 43
0.0
 10
75.007261
 20
86.316704
 10
75.412112
 20
86.347351
 10
75.807451
 20
86.438572
 10
76.183988
 20
86.588225
 10
76.532877
 20
86.792792
 10
76.845921
 20
87.047468
 10
77.115764
 20
87.346268
 10
77.336066
 20
87.682173
 10
77.50165
 20
88.047289
  0
LWPOLYLINE
  5
71D
100
AcDbEntity
  8
ALPHA
100
AcDbPolyline
 90
        6
 70
     0
 43
0.0
 10
75.607261
 20
89.181091
 10
75.57636
 20
89.185911
 10
75.548483
 20
89.199899
 10
75.52636
 20
89.221686
 10
75.512156
 20
89.249139
 10
75.507261
 20
89.279572
  0
LINE
  5
725
100
AcDbEntity
  8
ALPHA
100
AcDbLine
 10
75.507261
 20
89.309116
 30
0.0
 11
77.66439
 21
89.309116
 31
0.0
  0
LWPOLYLINE
  5
726
100
AcDbEntity
  8
ALPHA
100
AcDbPolyline
 90
        4
 70
     0
 43
0.0
 10
75.007261
 20
89.852017
 10
75.133265
 20
89.844554
 10
75.256919
 20
89.8224
 10
75.377261
 20
89.785776
  0
LWPOLYLINE
  5
72C
100
AcDbEntity
  8
ALPHA
100
AcDbPolyline
 90
        4
 70
     0
 43
0.0
 10
74.637261
 20
89.785776
 10
74.757603
 20
89.8224
 10
74.881257
 20
89.844554
 10
75.007261
 20
89.852017
  0
LWPOLYLINE
  5
732
100
AcDbEntity
  8
ALPHA
100
AcDbPolyline
 90
        5
 70
     0
 43
0.0
 10
74.023248
 20
89.181091
 10
74.126628
 20
89.14763
 10
74.224881
 20
89.116374
 10
74.318312
 20
89.087312
 10
74.407261
 20
89.060457
  0
LINE
  5
739
100
AcDbEntity
  8
ALPHA
100
AcDbLine
 10
74.407261
 20
89.181091
 30
0.0
 11
74.407261
 21
89.060457
 31
0.0
  0
LINE
  5
73A
100
AcDbEntity
  8
ALPHA
100
AcDbLine
 10
74.407261
 20
89.181091
 30
0.0
 11
74.023248
 21
89.181091
 31
0.0
  0
LINE
  5
73B
100
AcDbEntity
  8
ALPHA
100
AcDbLine
 10
75.332042
 20
86.680783
 30
0.0
 11
74.682481
 21
86.680783
 31
0.0
  0
LINE
  5
73C
100
AcDbEntity
  8
ALPHA
100
AcDbLine
 10
74.637261
 20
90.786328
 30
0.0
 11
75.377261
 21
90.786328
 31
0.0
  0
LWPOLYLINE
  5
73D
100
AcDbEntity
  8
ALPHA
100
AcDbPolyline
 90
        4
 70
     0
 43
0.0
 10
75.377261
 20
87.847648
 10
75.256919
 20
87.811025
 10
75.133265
 20
87.78887
 10
75.007261
 20
87.781407
  0
LINE
  5
743
100
AcDbEntity
  8
ALPHA
100
AcDbLine
 10
75.332042
 20
91.265208
 30
0.0
 11
74.682481
 21
91.265208
 31
0.0
  0
LWPOLYLINE
  5
744
100
AcDbEntity
  8
ALPHA
100
AcDbPolyline
 90
        4
 70
     0
 43
0.0
 10
75.007261
 20
87.781407
 10
74.881257
 20
87.78887
 10
74.757603
 20
87.811025
 10
74.637261
 20
87.847648
  0
LINE
  5
74A
100
AcDbEntity
  8
ALPHA
100
AcDbLine
 10
74.637261
 20
86.847097
 30
0.0
 11
75.377261
 21
86.847097
 31
0.0
  0
LINE
  5
74B
100
AcDbEntity
  8
ALPHA
100
AcDbLine
 10
76.173988
 20
87.823994
 30
0.0
 11
75.68119
 21
88.480592
 31
0.0
  0
LINE
  5
74C
100
AcDbEntity
  8
ALPHA
100
AcDbLine
 10
76.173988
 20
87.823994
 30
0.0
 11
75.379401
 21
88.402375
 31
0.0
  0
LWPOLYLINE
  5
74D
100
AcDbEntity
  8
ALPHA
100
AcDbPolyline
 90
        9
 70
     0
 43
0.0
 10
75.377261
 20
86.687439
 10
75.719588
 20
86.76745
 10
76.045956
 20
86.896897
 10
76.349048
 20
87.072881
 10
76.622076
 20
87.291465
 10
76.858926
 20
87.547771
 10
77.054221
 20
87.835965
 10
77.203703
 20
88.149798
 10
77.30358
 20
88.480592
  0
LWPOLYLINE
  5
758
100
AcDbEntity
  8
ALPHA
100
AcDbPolyline
 90
        3
 70
     0
 43
0.0
 10
75.379401
 20
89.543616
 10
75.377813
 20
89.553553
 10
75.377261
 20
89.56388
  0
LINE
  5
75D
100
AcDbEntity
  8
ALPHA
100
AcDbLine
 10
75.387644
 20
89.549616
 30
0.0
 11
75.379401
 21
89.543616
 31
0.0
  0
LINE
  5
75E
100
AcDbEntity
  8
ALPHA
100
AcDbLine
 10
76.173988
 20
90.121996
 30
0.0
 11
75.387644
 21
89.549616
 31
0.0
  0
LINE
  5
75F
100
AcDbEntity
  8
ALPHA
100
AcDbLine
 10
76.173988
 20
90.121996
 30
0.0
 11
75.68119
 21
89.465399
 31
0.0
  0
LINE
  5
760
100
AcDbEntity
  8
ALPHA
100
AcDbLine
 10
75.68119
 20
89.465399
 30
0.0
 11
77.30358
 21
89.465399
 31
0.0
  0
LINE
  5
761
100
AcDbEntity
  8
ALPHA
100
AcDbLine
 10
73.840535
 20
87.823994
 30
0.0
 11
74.635122
 21
88.402375
 31
0.0
  0
LINE
  5
762
100
AcDbEntity
  8
ALPHA
100
AcDbLine
 10
73.840535
 20
87.823994
 30
0.0
 11
74.333333
 21
88.480592
 31
0.0
  0
LWPOLYLINE
  5
763
100
AcDbEntity
  8
ALPHA
100
AcDbPolyline
 90
        3
 70
     0
 43
0.0
 10
75.377261
 20
86.680797
 10
75.354589
 20
86.680786
 10
75.332042
 20
86.680783
  0
LINE
  5
768
100
AcDbEntity
  8
ALPHA
100
AcDbLine
 10
72.710943
 20
89.465399
 30
0.0
 11
74.333333
 21
89.465399
 31
0.0
  0
LINE
  5
769
100
AcDbEntity
  8
ALPHA
100
AcDbLine
 10
73.840535
 20
90.121996
 30
0.0
 11
74.333333
 21
89.465399
 31
0.0
  0
LINE
  5
76A
100
AcDbEntity
  8
ALPHA
100
AcDbLine
 10
74.626879
 20
89.549616
 30
0.0
 11
74.635122
 21
89.543616
 31
0.0
  0
LINE
  5
76B
100
AcDbEntity
  8
ALPHA
100
AcDbLine
 10
73.840535
 20
90.121996
 30
0.0
 11
74.626879
 21
89.549616
 31
0.0
  0
LWPOLYLINE
  5
76C
100
AcDbEntity
  8
ALPHA
100
AcDbPolyline
 90
        3
 70
     0
 43
0.0
 10
74.637261
 20
89.56388
 10
74.63671
 20
89.553553
 10
74.635122
 20
89.543616
  0
LWPOLYLINE
  5
771
100
AcDbEntity
  8
ALPHA
100
AcDbPolyline
 90
        3
 70
     0
 43
0.0
 10
74.637261
 20
91.265168
 10
74.659935
 20
91.265198
 10
74.682481
 20
91.265208
  0
LINE
  5
776
100
AcDbEntity
  8
ALPHA
100
AcDbLine
 10
75.477261
 20
89.443971
 30
0.0
 11
75.477261
 21
89.181973
 31
0.0
  0
LWPOLYLINE
  5
777
100
AcDbEntity
  8
ALPHA
100
AcDbPolyline
 90
        3
 70
     0
 43
0.0
 10
75.477261
 20
89.181973
 10
75.492227
 20
89.185573
 10
75.507261
 20
89.189247
  0
LWPOLYLINE
  5
77C
100
AcDbEntity
  8
ALPHA
100
AcDbPolyline
 90
        3
 70
     0
 43
0.0
 10
75.332042
 20
91.265208
 10
75.007261
 20
91.287415
 10
74.682481
 20
91.265208
  0
LWPOLYLINE
  5
781
100
AcDbEntity
  8
ALPHA
100
AcDbPolyline
 90
        4
 70
     0
 43
0.0
 10
77.608627
 20
89.417845
 10
77.627158
 20
89.381722
 10
77.645746
 20
89.345479
 10
77.66439
 20
89.309116
  0
LINE
  5
787
100
AcDbEntity
  8
ALPHA
100
AcDbLine
 10
75.507261
 20
89.44084
 30
0.0
 11
75.477261
 21
89.443971
 31
0.0
  0
LWPOLYLINE
  5
788
100
AcDbEntity
  8
ALPHA
100
AcDbPolyline
 90
        4
 70
     0
 43
0.0
 10
72.350133
 20
89.309116
 10
72.368777
 20
89.345478
 10
72.387365
 20
89.381721
 10
72.405896
 20
89.417845
  0
LWPOLYLINE
  5
78E
100
AcDbEntity
  8
ALPHA
100
AcDbPolyline
 90
        3
 70
     0
 43
0.0
 10
74.507261
 20
89.189247
 10
74.522292
 20
89.185574
 10
74.537261
 20
89.181973
  0
LINE
  5
793
100
AcDbEntity
  8
ALPHA
100
AcDbLine
 10
74.537261
 20
89.443971
 30
0.0
 11
74.537261
 21
89.181973
 31
0.0
  0
LINE
  5
794
100
AcDbEntity
  8
ALPHA
100
AcDbLine
 10
74.537261
 20
89.443971
 30
0.0
 11
74.507261
 21
89.44084
 31
0.0
  0
LWPOLYLINE
  5
795
100
AcDbEntity
  8
ALPHA
100
AcDbPolyline
 90
        3
 70
     0
 43
0.0
 10
75.332042
 20
91.265208
 10
75.354589
 20
91.265198
 10
75.377261
 20
91.265168
  0
LWPOLYLINE
  5
79A
100
AcDbEntity
  8
ALPHA
100
AcDbPolyline
 90
        3
 70
     0
 43
0.0
 10
74.682481
 20
86.680783
 10
75.007261
 20
86.658576
 10
75.332042
 20
86.680783
  0
LWPOLYLINE
  5
79F
100
AcDbEntity
  8
ALPHA
100
AcDbPolyline
 90
        9
 70
     0
 43
0.0
 10
77.30358
 20
89.465399
 10
77.203703
 20
89.796192
 10
77.054221
 20
90.110026
 10
76.858926
 20
90.398219
 10
76.622076
 20
90.654525
 10
76.349048
 20
90.87311
 10
76.045956
 20
91.049094
 10
75.719588
 20
91.178541
 10
75.377261
 20
91.258551
  0
LINE
  5
7AA
100
AcDbEntity
  8
ALPHA
100
AcDbLine
 10
75.607261
 20
89.181091
 30
0.0
 11
75.607261
 21
89.060457
 31
0.0
  0
LWPOLYLINE
  5
7AB
100
AcDbEntity
  8
ALPHA
100
AcDbPolyline
 90
        5
 70
     0
 43
0.0
 10
75.607261
 20
89.060457
 10
75.696086
 20
89.087274
 10
75.789477
 20
89.116322
 10
75.887771
 20
89.147591
 10
75.991275
 20
89.181091
  0
LINE
  5
7B2
100
AcDbEntity
  8
ALPHA
100
AcDbLine
 10
75.991275
 20
89.181091
 30
0.0
 11
75.607261
 21
89.181091
 31
0.0
  0
LWPOLYLINE
  5
7B3
100
AcDbEntity
  8
ALPHA
100
AcDbPolyline
 90
        4
 70
     0
 43
0.0
 10
74.637261
 20
88.15466
 10
74.725237
 20
88.100221
 10
74.862623
 20
88.052878
 10
75.007261
 20
88.036829
  0
LWPOLYLINE
  5
7B9
100
AcDbEntity
  8
ALPHA
100
AcDbPolyline
 90
       10
 70
     0
 43
0.0
 10
75.007261
 20
89.317079
 10
74.862623
 20
89.301029
 10
74.725237
 20
89.253686
 10
74.601993
 20
89.177424
 10
74.499071
 20
89.076065
 10
74.421632
 20
88.954694
 10
74.373558
 20
88.819395
 10
74.357261
 20
88.676954
 10
74.373558
 20
88.534513
 10
74.395854
 20
88.471763
  0
LWPOLYLINE
  5
7C5
100
AcDbEntity
  8
ALPHA
100
AcDbPolyline
 90
       10
 70
     0
 43
0.0
 10
74.637261
 20
89.286963
 10
74.635874
 20
89.265969
 10
74.632124
 20
89.247476
 10
74.624876
 20
89.227798
 10
74.615291
 20
89.211545
 10
74.601927
 20
89.196987
 10
74.587147
 20
89.187129
 10
74.570221
 20
89.181234
 10
74.554893
 20
89.179757
 10
74.537261
 20
89.181973
  0
LWPOLYLINE
  5
7D1
100
AcDbEntity
  8
ALPHA
100
AcDbPolyline
 90
       10
 70
     0
 43
0.0
 10
74.507261
 20
89.152429
 10
74.505734
 20
89.131562
 10
74.501781
 20
89.114074
 10
74.494027
 20
89.095505
 10
74.48355
 20
89.08041
 10
74.469716
 20
89.068208
 10
74.455403
 20
89.060939
 10
74.438908
 20
89.057189
 10
74.423911
 20
89.057176
 10
74.407261
 20
89.060457
  0
LWPOLYLINE
  5
7DD
100
AcDbEntity
  8
ALPHA
100
AcDbPolyline
 90
        7
 70
     0
 43
0.0
 10
77.30358
 20
89.465399
 10
77.378676
 20
89.463815
 10
77.450189
 20
89.459058
 10
77.511215
 20
89.451619
 10
77.559733
 20
89.441875
 10
77.593239
 20
89.430218
 10
77.608627
 20
89.417845
  0
LWPOLYLINE
  5
7E6
100
AcDbEntity
  8
ALPHA
100
AcDbPolyline
 90
        4
 70
     0
 43
0.0
 10
77.608627
 20
89.417845
 10
77.50165
 20
89.803594
 10
77.336066
 20
90.16871
 10
77.30717
 20
90.219826
  0
LWPOLYLINE
  5
7EC
100
AcDbEntity
  8
ALPHA
100
AcDbPolyline
 90
        4
 70
     0
 43
0.0
 10
75.377261
 20
88.15466
 10
75.289286
 20
88.100221
 10
75.1519
 20
88.052878
 10
75.007261
 20
88.036829
  0
LWPOLYLINE
  5
7F2
100
AcDbEntity
  8
ALPHA
100
AcDbPolyline
 90
       10
 70
     0
 43
0.0
 10
75.007261
 20
89.317079
 10
75.1519
 20
89.301029
 10
75.289286
 20
89.253686
 10
75.41253
 20
89.177424
 10
75.515452
 20
89.076065
 10
75.592891
 20
88.954694
 10
75.640965
 20
88.819395
 10
75.657261
 20
88.676954
 10
75.640965
 20
88.534513
 10
75.618669
 20
88.471763
  0
LWPOLYLINE
  5
7FE
100
AcDbEntity
  8
ALPHA
100
AcDbPolyline
 90
        4
 70
     0
 43
0.0
 10
72.405896
 20
89.417845
 10
72.512873
 20
89.803594
 10
72.678457
 20
90.16871
 10
72.707353
 20
90.219826
  0
LWPOLYLINE
  5
804
100
AcDbEntity
  8
ALPHA
100
AcDbPolyline
 90
        7
 70
     0
 43
0.0
 10
72.405896
 20
89.417845
 10
72.421284
 20
89.430218
 10
72.45479
 20
89.441875
 10
72.503308
 20
89.451619
 10
72.564334
 20
89.459058
 10
72.635847
 20
89.463815
 10
72.710943
 20
89.465399
  0
LWPOLYLINE
  5
80D
100
AcDbEntity
  8
ALPHA
100
AcDbPolyline
 90
       10
 70
     0
 43
0.0
 10
75.607261
 20
89.060457
 10
75.590659
 20
89.057181
 10
75.575622
 20
89.057189
 10
75.559057
 20
89.060962
 10
75.544721
 20
89.068266
 10
75.530983
 20
89.080399
 10
75.520593
 20
89.095328
 10
75.512849
 20
89.113728
 10
75.508828
 20
89.131307
 10
75.507261
 20
89.152429
  0
LWPOLYLINE
  5
819
100
AcDbEntity
  8
ALPHA
100
AcDbPolyline
 90
       10
 70
     0
 43
0.0
 10
75.477261
 20
89.181973
 10
75.459847
 20
89.17976
 10
75.444611
 20
89.18117
 10
75.427544
 20
89.187045
 10
75.412609
 20
89.196976
 10
75.399162
 20
89.21164
 10
75.389612
 20
89.227872
 10
75.382401
 20
89.247468
 10
75.378657
 20
89.265911
 10
75.377261
 20
89.286963
  0
LWPOLYLINE
  5
825
100
AcDbEntity
  8
ALPHA
100
AcDbPolyline
 90
        9
 70
     0
 43
0.0
 10
74.637261
 20
91.258551
 10
74.294935
 20
91.178541
 10
73.968567
 20
91.049094
 10
73.665475
 20
90.87311
 10
73.392447
 20
90.654525
 10
73.155597
 20
90.398219
 10
72.960301
 20
90.110026
 10
72.810819
 20
89.796192
 10
72.710943
 20
89.465399
  0
LWPOLYLINE
  5
830
100
AcDbEntity
  8
ALPHA
100
AcDbPolyline
 90
        3
 70
     0
 43
0.0
 10
74.682481
 20
86.680783
 10
74.659935
 20
86.680786
 10
74.637261
 20
86.680797
  0
LWPOLYLINE
  5
835
100
AcDbEntity
  8
ALPHA
100
AcDbPolyline
 90
        5
 70
     0
 43
0.0
 10
75.379401
 20
88.402375
 10
75.393642
 20
88.429796
 10
75.417629
 20
88.448746
 10
75.446373
 20
88.458261
 10
75.477261
 20
88.459163
  0
LINE
  5
83C
100
AcDbEntity
  8
ALPHA
100
AcDbLine
 10
75.68119
 20
88.480592
 30
0.0
 11
75.507261
 21
88.456032
 31
0.0
  0
LWPOLYLINE
  5
83D
100
AcDbEntity
  8
ALPHA
100
AcDbPolyline
 90
        5
 70
     0
 43
0.0
 10
74.537261
 20
88.459163
 10
74.568155
 20
88.458261
 10
74.596902
 20
88.448742
 10
74.620884
 20
88.429793
 10
74.635122
 20
88.402375
  0
LINE
  5
844
100
AcDbEntity
  8
ALPHA
100
AcDbLine
 10
74.507261
 20
88.456032
 30
0.0
 11
74.333333
 21
88.480592
 31
0.0
  0
LWPOLYLINE
  5
845
100
AcDbEntity
  8
ALPHA
100
AcDbPolyline
 90
        4
 70
     0
 43
0.0
 10
72.405896
 20
88.433037
 10
72.387365
 20
88.396914
 10
72.368777
 20
88.360671
 10
72.350133
 20
88.324308
  0
LINE
  5
84B
100
AcDbEntity
  8
ALPHA
100
AcDbLine
 10
74.507261
 20
88.456032
 30
0.0
 11
74.537261
 21
88.459163
 31
0.0
  0
LWPOLYLINE
  5
84C
100
AcDbEntity
  8
ALPHA
100
AcDbPolyline
 90
        4
 70
     0
 43
0.0
 10
77.66439
 20
88.324308
 10
77.645746
 20
88.36067
 10
77.627158
 20
88.396913
 10
77.608627
 20
88.433037
  0
LINE
  5
852
100
AcDbEntity
  8
ALPHA
100
AcDbLine
 10
75.477261
 20
88.459163
 30
0.0
 11
75.507261
 21
88.456032
 31
0.0
  0
LINE
  5
853
100
AcDbEntity
  8
ALPHA
100
AcDbLine
 10
74.507261
 20
89.189247
 30
0.0
 11
74.507261
 21
89.152429
 31
0.0
  0
LINE
  5
854
100
AcDbEntity
  8
ALPHA
100
AcDbLine
 10
74.507261
 20
89.279572
 30
0.0
 11
74.507261
 21
89.189247
 31
0.0
  0
LINE
  5
855
100
AcDbEntity
  8
ALPHA
100
AcDbLine
 10
74.507261
 20
89.309116
 30
0.0
 11
74.507261
 21
89.279572
 31
0.0
  0
LINE
  5
856
100
AcDbEntity
  8
ALPHA
100
AcDbLine
 10
74.637261
 20
89.543616
 30
0.0
 11
74.637261
 21
89.286963
 31
0.0
  0
LINE
  5
857
100
AcDbEntity
  8
ALPHA
100
AcDbLine
 10
74.637261
 20
89.56388
 30
0.0
 11
74.637261
 21
91.258551
 31
0.0
  0
LINE
  5
858
100
AcDbEntity
  8
ALPHA
100
AcDbLine
 10
74.637261
 20
88.105194
 30
0.0
 11
74.637261
 21
88.382111
 31
0.0
  0
LINE
  5
859
100
AcDbEntity
  8
ALPHA
100
AcDbLine
 10
74.637261
 20
86.687439
 30
0.0
 11
74.637261
 21
88.105194
 31
0.0
  0
LINE
  5
85A
100
AcDbEntity
  8
ALPHA
100
AcDbLine
 10
75.377261
 20
89.543616
 30
0.0
 11
75.377261
 21
89.286963
 31
0.0
  0
LINE
  5
85B
100
AcDbEntity
  8
ALPHA
100
AcDbLine
 10
75.377261
 20
91.258551
 30
0.0
 11
75.377261
 21
89.56388
 31
0.0
  0
LINE
  5
85C
100
AcDbEntity
  8
ALPHA
100
AcDbLine
 10
72.707353
 20
90.219826
 30
0.0
 11
72.576235
 21
89.993877
 31
0.0
  0
LWPOLYLINE
  5
85D
100
AcDbEntity
  8
ALPHA
100
AcDbPolyline
 90
       15
 70
     0
 43
0.0
 10
72.70742
 20
90.219942
 10
72.851844
 20
90.441999
 10
73.116425
 20
90.752746
 10
73.426564
 20
91.019352
 10
73.774931
 20
91.235468
 10
74.153073
 20
91.395794
 10
74.551795
 20
91.49642
 10
74.961552
 20
91.534932
 10
75.372374
 20
91.51039
 10
75.77429
 20
91.423423
 10
76.157649
 20
91.276159
 10
76.513249
 20
91.072162
 10
76.832375
 20
90.816512
 10
77.107587
 20
90.515242
 10
77.3071
 20
90.219947
  0
LINE
  5
86E
100
AcDbEntity
  8
ALPHA
100
AcDbLine
 10
75.377261
 20
88.382111
 30
0.0
 11
75.377261
 21
86.687439
 31
0.0
  0
LINE
  5
86F
100
AcDbEntity
  8
ALPHA
100
AcDbLine
 10
77.30717
 20
90.219826
 30
0.0
 11
77.438288
 21
89.993877
 31
0.0
  0
LINE
  5
870
100
AcDbEntity
  8
ALPHA
100
AcDbLine
 10
75.507261
 20
89.189247
 30
0.0
 11
75.507261
 21
89.152429
 31
0.0
  0
LINE
  5
871
100
AcDbEntity
  8
ALPHA
100
AcDbLine
 10
75.507261
 20
89.279572
 30
0.0
 11
75.507261
 21
89.189247
 31
0.0
  0
LINE
  5
872
100
AcDbEntity
  8
ALPHA
100
AcDbLine
 10
75.507261
 20
89.279572
 30
0.0
 11
75.507261
 21
89.309116
 31
0.0
  0
LINE
  5
873
100
AcDbEntity
  8
ALPHA
100
AcDbLine
 10
75.507261
 20
89.189247
 30
0.0
 11
75.507261
 21
89.152429
 31
0.0
  0
LINE
  5
874
100
AcDbEntity
  8
ALPHA
100
AcDbLine
 10
75.507261
 20
89.279572
 30
0.0
 11
75.507261
 21
89.189247
 31
0.0
  0
LINE
  5
875
100
AcDbEntity
  8
ALPHA
100
AcDbLine
 10
75.377261
 20
89.543616
 30
0.0
 11
75.377261
 21
89.286963
 31
0.0
  0
LWPOLYLINE
  5
876
100
AcDbEntity
  8
ALPHA
100
AcDbPolyline
 90
        6
 70
     0
 43
0.0
 10
77.807261
 20
88.625698
 10
77.807261
 20
88.625699
 10
77.772789
 20
89.057061
 10
77.67022
 20
89.477802
 10
77.50208
 20
89.87756
 10
77.438337
 20
89.993735
  0
LINE
  5
87E
100
AcDbEntity
  8
ALPHA
100
AcDbLine
 10
77.797452
 20
88.502947
 30
0.0
 11
77.807261
 21
88.625698
 31
0.0
  0
LINE
  5
87F
100
AcDbEntity
  8
ALPHA
100
AcDbLine
 10
77.517207
 20
87.409804
 30
0.0
 11
77.557261
 21
87.505034
 31
0.0
  0
LINE
  5
880
100
AcDbEntity
  8
ALPHA
100
AcDbLine
 10
77.50208
 20
87.373838
 30
0.0
 11
77.517207
 21
87.409804
 31
0.0
  0
LINE
  5
881
100
AcDbEntity
  8
ALPHA
100
AcDbLine
 10
75.68119
 20
88.480592
 30
0.0
 11
77.30358
 21
88.480592
 31
0.0
  0
LWPOLYLINE
  5
882
100
AcDbEntity
  8
ALPHA
100
AcDbPolyline
 90
        3
 70
     0
 43
0.0
 10
75.377261
 20
88.382111
 10
75.377813
 20
88.392438
 10
75.379401
 20
88.402375
  0
LWPOLYLINE
  5
887
100
AcDbEntity
  8
ALPHA
100
AcDbPolyline
 90
        3
 70
     0
 43
0.0
 10
74.635122
 20
88.402375
 10
74.63671
 20
88.392438
 10
74.637261
 20
88.382111
  0
LINE
  5
88C
100
AcDbEntity
  8
ALPHA
100
AcDbLine
 10
72.710943
 20
88.480592
 30
0.0
 11
74.333333
 21
88.480592
 31
0.0
  0
LINE
  5
88D
100
AcDbEntity
  8
ALPHA
100
AcDbLine
 10
75.377261
 20
91.265168
 30
0.0
 11
75.377261
 21
91.258551
 31
0.0
  0
LINE
  5
88E
100
AcDbEntity
  8
ALPHA
100
AcDbLine
 10
74.637261
 20
91.258551
 30
0.0
 11
74.637261
 21
91.265168
 31
0.0
  0
LWPOLYLINE
  5
88F
100
AcDbEntity
  8
ALPHA
100
AcDbPolyline
 90
        7
 70
     0
 43
0.0
 10
72.710943
 20
88.480592
 10
72.635847
 20
88.479007
 10
72.564334
 20
88.47425
 10
72.503308
 20
88.466812
 10
72.45479
 20
88.457067
 10
72.421284
 20
88.445411
 10
72.405896
 20
88.433037
  0
LWPOLYLINE
  5
898
100
AcDbEntity
  8
ALPHA
100
AcDbPolyline
 90
        7
 70
     0
 43
0.0
 10
77.608627
 20
88.433037
 10
77.593239
 20
88.445411
 10
77.559733
 20
88.457067
 10
77.511215
 20
88.466812
 10
77.450189
 20
88.47425
 10
77.378676
 20
88.479007
 10
77.30358
 20
88.480592
  0
LINE
  5
8A1
100
AcDbEntity
  8
ALPHA
100
AcDbLine
 10
75.377261
 20
86.687439
 30
0.0
 11
75.377261
 21
86.680797
 31
0.0
  0
LINE
  5
8A2
100
AcDbEntity
  8
ALPHA
100
AcDbLine
 10
74.637261
 20
86.680797
 30
0.0
 11
74.637261
 21
86.687439
 31
0.0
  0
LWPOLYLINE
  5
8A3
100
AcDbEntity
  8
ALPHA
100
AcDbPolyline
 90
        5
 70
     0
 43
0.0
 10
72.230581
 20
88.917507
 10
72.241734
 20
89.057061
 10
72.344303
 20
89.477802
 10
72.512443
 20
89.87756
 10
72.576186
 20
89.993735
  0
LWPOLYLINE
  5
8AA
100
AcDbEntity
  8
ALPHA
100
AcDbPolyline
 90
        3
 70
     0
 43
0.0
 10
72.217684
 20
88.495285
 10
72.207261
 20
88.625699
 10
72.230581
 20
88.917507
  0
LINE
  5
8AF
100
AcDbEntity
  8
ALPHA
100
AcDbLine
 10
72.497316
 20
87.409804
 30
0.0
 11
72.457261
 21
87.505034
 31
0.0
  0
LINE
  5
8B0
100
AcDbEntity
  8
ALPHA
100
AcDbLine
 10
72.512443
 20
87.373838
 30
0.0
 11
72.497316
 21
87.409804
 31
0.0
  0
LINE
  5
8B1
100
AcDbEntity
  8
ALPHA
100
AcDbLine
 10
63.665535
 20
87.776089
 30
0.0
 11
64.332261
 21
88.408126
 31
0.0
  0
LWPOLYLINE
  5
8B2
100
AcDbEntity
  8
ALPHA
100
AcDbPolyline
 90
        3
 70
     0
 43
0.0
 10
65.157042
 20
91.217302
 10
65.179588
 20
91.217293
 10
65.202261
 20
91.217263
  0
LINE
  5
8B7
100
AcDbEntity
  8
ALPHA
100
AcDbLine
 10
65.998988
 20
87.776089
 30
0.0
 11
65.332261
 21
88.408126
 31
0.0
  0
LWPOLYLINE
  5
8B8
100
AcDbEntity
  8
ALPHA
100
AcDbPolyline
 90
        5
 70
     0
 43
0.0
 10
64.460122
 20
89.49571
 10
64.445881
 20
89.45564
 10
64.421894
 20
89.4245
 10
64.39315
 20
89.404795
 10
64.362261
 20
89.396065
  0
LINE
  5
8BF
100
AcDbEntity
  8
ALPHA
100
AcDbLine
 10
63.665535
 20
90.074091
 30
0.0
 11
64.332261
 21
89.392934
 31
0.0
  0
LINE
  5
8C0
100
AcDbEntity
  8
ALPHA
100
AcDbLine
 10
64.158333
 20
89.417494
 30
0.0
 11
64.332261
 21
89.392934
 31
0.0
  0
LWPOLYLINE
  5
8C1
100
AcDbEntity
  8
ALPHA
100
AcDbPolyline
 90
        5
 70
     0
 43
0.0
 10
63.848248
 20
89.133185
 10
63.951628
 20
89.099725
 10
64.049881
 20
89.068468
 10
64.143312
 20
89.039407
 10
64.232261
 20
89.012552
  0
LINE
  5
8C8
100
AcDbEntity
  8
ALPHA
100
AcDbLine
 10
64.232261
 20
89.133185
 30
0.0
 11
64.232261
 21
89.012552
 31
0.0
  0
LINE
  5
8C9
100
AcDbEntity
  8
ALPHA
100
AcDbLine
 10
64.232261
 20
89.133185
 30
0.0
 11
63.848248
 21
89.133185
 31
0.0
  0
LWPOLYLINE
  5
8CA
100
AcDbEntity
  8
ALPHA
100
AcDbPolyline
 90
        9
 70
     0
 43
0.0
 10
65.202261
 20
86.639534
 10
65.544588
 20
86.719545
 10
65.870956
 20
86.848992
 10
66.174048
 20
87.024975
 10
66.447076
 20
87.24356
 10
66.683926
 20
87.499866
 10
66.879221
 20
87.788059
 10
67.028703
 20
88.101893
 10
67.12858
 20
88.432686
  0
LWPOLYLINE
  5
8D5
100
AcDbEntity
  8
ALPHA
100
AcDbPolyline
 90
        5
 70
     0
 43
0.0
 10
65.302261
 20
89.396065
 10
65.271368
 20
89.404797
 10
65.24262
 20
89.424508
 10
65.218639
 20
89.455645
 10
65.204401
 20
89.49571
  0
LINE
  5
8DC
100
AcDbEntity
  8
ALPHA
100
AcDbLine
 10
65.332261
 20
89.392934
 30
0.0
 11
65.50619
 21
89.417494
 31
0.0
  0
LINE
  5
8DD
100
AcDbEntity
  8
ALPHA
100
AcDbLine
 10
65.302261
 20
89.396065
 30
0.0
 11
65.302261
 21
89.134067
 31
0.0
  0
LWPOLYLINE
  5
8DE
100
AcDbEntity
  8
ALPHA
100
AcDbPolyline
 90
        3
 70
     0
 43
0.0
 10
65.302261
 20
89.134067
 10
65.317227
 20
89.137667
 10
65.332261
 20
89.141341
  0
LINE
  5
8E3
100
AcDbEntity
  8
ALPHA
100
AcDbLine
 10
65.998988
 20
90.074091
 30
0.0
 11
65.332261
 21
89.392934
 31
0.0
  0
LINE
  5
8E4
100
AcDbEntity
  8
ALPHA
100
AcDbLine
 10
67.48939
 20
89.26121
 30
0.0
 11
65.332261
 21
89.26121
 31
0.0
  0
LWPOLYLINE
  5
8E5
100
AcDbEntity
  8
ALPHA
100
AcDbPolyline
 90
        4
 70
     0
 43
0.0
 10
67.433627
 20
89.36994
 10
67.452158
 20
89.333816
 10
67.470746
 20
89.297573
 10
67.48939
 20
89.26121
  0
LINE
  5
8EB
100
AcDbEntity
  8
ALPHA
100
AcDbLine
 10
65.332261
 20
89.392934
 30
0.0
 11
65.302261
 21
89.396065
 31
0.0
  0
LINE
  5
8EC
100
AcDbEntity
  8
ALPHA
100
AcDbLine
 10
64.332261
 20
89.26121
 30
0.0
 11
62.328661
 21
89.26121
 31
0.0
  0
LWPOLYLINE
  5
8ED
100
AcDbEntity
  8
ALPHA
100
AcDbPolyline
 90
        3
 70
     0
 43
0.0
 10
64.332261
 20
89.141341
 10
64.347292
 20
89.137668
 10
64.362261
 20
89.134067
  0
LINE
  5
8F2
100
AcDbEntity
  8
ALPHA
100
AcDbLine
 10
64.362261
 20
89.396065
 30
0.0
 11
64.362261
 21
89.134067
 31
0.0
  0
LINE
  5
8F3
100
AcDbEntity
  8
ALPHA
100
AcDbLine
 10
64.362261
 20
89.396065
 30
0.0
 11
64.332261
 21
89.392934
 31
0.0
  0
LWPOLYLINE
  5
8F4
100
AcDbEntity
  8
ALPHA
100
AcDbPolyline
 90
        5
 70
     0
 43
0.0
 10
67.48939
 20
89.26121
 10
67.524319
 20
89.016304
 10
67.536024
 20
88.768807
 10
67.524319
 20
88.521309
 10
67.48939
 20
88.276403
  0
LWPOLYLINE
  5
8FB
100
AcDbEntity
  8
ALPHA
100
AcDbPolyline
 90
        6
 70
     0
 43
0.0
 10
64.332261
 20
89.231666
 10
64.327367
 20
89.201234
 10
64.313163
 20
89.173781
 10
64.29104
 20
89.151994
 10
64.263163
 20
89.138005
 10
64.232261
 20
89.133185
  0
LINE
  5
903
100
AcDbEntity
  8
ALPHA
100
AcDbLine
 10
65.432261
 20
89.133185
 30
0.0
 11
65.432261
 21
89.012552
 31
0.0
  0
LWPOLYLINE
  5
904
100
AcDbEntity
  8
ALPHA
100
AcDbPolyline
 90
        5
 70
     0
 43
0.0
 10
65.432261
 20
89.012552
 10
65.521086
 20
89.039368
 10
65.614477
 20
89.068416
 10
65.712771
 20
89.099685
 10
65.816275
 20
89.133185
  0
LINE
  5
90B
100
AcDbEntity
  8
ALPHA
100
AcDbLine
 10
65.816275
 20
89.133185
 30
0.0
 11
65.432261
 21
89.133185
 31
0.0
  0
LWPOLYLINE
  5
90C
100
AcDbEntity
  8
ALPHA
100
AcDbPolyline
 90
        5
 70
     0
 43
0.0
 10
65.816275
 20
89.133185
 10
65.866586
 20
88.953981
 10
65.883538
 20
88.768807
 10
65.866586
 20
88.583632
 10
65.824208
 20
88.432686
  0
LWPOLYLINE
  5
913
100
AcDbEntity
  8
ALPHA
100
AcDbPolyline
 90
        6
 70
     0
 43
0.0
 10
65.432261
 20
89.133185
 10
65.40136
 20
89.138005
 10
65.373483
 20
89.151994
 10
65.35136
 20
89.173781
 10
65.337156
 20
89.201234
 10
65.332261
 20
89.231666
  0
LWPOLYLINE
  5
91B
100
AcDbEntity
  8
ALPHA
100
AcDbPolyline
 90
        5
 70
     0
 43
0.0
 10
63.840315
 20
88.432686
 10
63.797937
 20
88.583632
 10
63.780985
 20
88.768807
 10
63.797937
 20
88.953981
 10
63.848248
 20
89.133185
  0
LWPOLYLINE
  5
922
100
AcDbEntity
  8
ALPHA
100
AcDbPolyline
 90
        9
 70
     0
 43
0.0
 10
67.12858
 20
89.417494
 10
67.028703
 20
89.748287
 10
66.879221
 20
90.06212
 10
66.683926
 20
90.350314
 10
66.447076
 20
90.60662
 10
66.174048
 20
90.825205
 10
65.870956
 20
91.001188
 10
65.544588
 20
91.130635
 10
65.202261
 20
91.210646
  0
LWPOLYLINE
  5
92D
100
AcDbEntity
  8
ALPHA
100
AcDbPolyline
 90
        4
 70
     0
 43
0.0
 10
64.832261
 20
87.733501
 10
64.706257
 20
87.740965
 10
64.582603
 20
87.763119
 10
64.462261
 20
87.799742
  0
LWPOLYLINE
  5
933
100
AcDbEntity
  8
ALPHA
100
AcDbPolyline
 90
        4
 70
     0
 43
0.0
 10
65.202261
 20
87.799742
 10
65.081919
 20
87.763119
 10
64.958265
 20
87.740965
 10
64.832261
 20
87.733501
  0
LINE
  5
939
100
AcDbEntity
  8
ALPHA
100
AcDbLine
 10
65.202261
 20
86.799191
 30
0.0
 11
64.462261
 21
86.799191
 31
0.0
  0
LWPOLYLINE
  5
93A
100
AcDbEntity
  8
ALPHA
100
AcDbPolyline
 90
        4
 70
     0
 43
0.0
 10
64.462261
 20
89.737871
 10
64.582603
 20
89.774494
 10
64.706257
 20
89.796648
 10
64.832261
 20
89.804112
  0
LWPOLYLINE
  5
940
100
AcDbEntity
  8
ALPHA
100
AcDbPolyline
 90
        4
 70
     0
 43
0.0
 10
64.832261
 20
89.804112
 10
64.958265
 20
89.796648
 10
65.081919
 20
89.774494
 10
65.202261
 20
89.737871
  0
LINE
  5
946
100
AcDbEntity
  8
ALPHA
100
AcDbLine
 10
65.202261
 20
90.738422
 30
0.0
 11
64.462261
 21
90.738422
 31
0.0
  0
LWPOLYLINE
  5
947
100
AcDbEntity
  8
ALPHA
100
AcDbPolyline
 90
        7
 70
     0
 43
0.0
 10
67.12858
 20
89.417494
 10
67.203676
 20
89.415909
 10
67.275189
 20
89.411152
 10
67.336215
 20
89.403714
 10
67.384733
 20
89.393969
 10
67.418239
 20
89.382313
 10
67.433627
 20
89.36994
  0
LINE
  5
950
100
AcDbEntity
  8
ALPHA
100
AcDbLine
 10
64.507481
 20
91.217302
 30
0.0
 11
65.157042
 21
91.217302
 31
0.0
  0
LINE
  5
951
100
AcDbEntity
  8
ALPHA
100
AcDbLine
 10
64.710507
 20
86.632878
 30
0.0
 11
65.157042
 21
86.632878
 31
0.0
  0
LINE
  5
952
100
AcDbEntity
  8
ALPHA
100
AcDbLine
 10
64.158333
 20
89.417494
 30
0.0
 11
62.535943
 21
89.417494
 31
0.0
  0
LINE
  5
953
100
AcDbEntity
  8
ALPHA
100
AcDbLine
 10
63.665535
 20
90.074091
 30
0.0
 11
64.158333
 21
89.417494
 31
0.0
  0
LINE
  5
954
100
AcDbEntity
  8
ALPHA
100
AcDbLine
 10
64.451879
 20
89.50171
 30
0.0
 11
64.460122
 21
89.49571
 31
0.0
  0
LINE
  5
955
100
AcDbEntity
  8
ALPHA
100
AcDbLine
 10
63.665535
 20
90.074091
 30
0.0
 11
64.451879
 21
89.50171
 31
0.0
  0
LWPOLYLINE
  5
956
100
AcDbEntity
  8
ALPHA
100
AcDbPolyline
 90
        3
 70
     0
 43
0.0
 10
64.462261
 20
89.515975
 10
64.46171
 20
89.505647
 10
64.460122
 20
89.49571
  0
LWPOLYLINE
  5
95B
100
AcDbEntity
  8
ALPHA
100
AcDbPolyline
 90
       10
 70
     0
 43
0.0
 10
64.462261
 20
89.239058
 10
64.460874
 20
89.218064
 10
64.457124
 20
89.199571
 10
64.449876
 20
89.179893
 10
64.440291
 20
89.163639
 10
64.426927
 20
89.149081
 10
64.412147
 20
89.139223
 10
64.395221
 20
89.133328
 10
64.379893
 20
89.131852
 10
64.362261
 20
89.134067
  0
LINE
  5
967
100
AcDbEntity
  8
ALPHA
100
AcDbLine
 10
63.665535
 20
87.776089
 30
0.0
 11
64.460122
 21
88.354469
 31
0.0
  0
LINE
  5
968
100
AcDbEntity
  8
ALPHA
100
AcDbLine
 10
63.665535
 20
87.776089
 30
0.0
 11
64.158333
 21
88.432686
 31
0.0
  0
LWPOLYLINE
  5
969
100
AcDbEntity
  8
ALPHA
100
AcDbPolyline
 90
        5
 70
     0
 43
0.0
 10
62.315988
 20
89.401239
 10
62.328308
 20
89.403714
 10
62.389334
 20
89.411152
 10
62.460847
 20
89.415909
 10
62.535943
 20
89.417494
  0
LWPOLYLINE
  5
970
100
AcDbEntity
  8
ALPHA
100
AcDbPolyline
 90
        3
 70
     0
 43
0.0
 10
65.204401
 20
89.49571
 10
65.202813
 20
89.505647
 10
65.202261
 20
89.515975
  0
LINE
  5
975
100
AcDbEntity
  8
ALPHA
100
AcDbLine
 10
65.212644
 20
89.50171
 30
0.0
 11
65.204401
 21
89.49571
 31
0.0
  0
LINE
  5
976
100
AcDbEntity
  8
ALPHA
100
AcDbLine
 10
65.998988
 20
90.074091
 30
0.0
 11
65.212644
 21
89.50171
 31
0.0
  0
LWPOLYLINE
  5
977
100
AcDbEntity
  8
ALPHA
100
AcDbPolyline
 90
        4
 70
     0
 43
0.0
 10
67.13217
 20
90.171921
 10
67.161066
 20
90.120804
 10
67.32665
 20
89.755688
 10
67.433627
 20
89.36994
  0
LINE
  5
97D
100
AcDbEntity
  8
ALPHA
100
AcDbLine
 10
65.998988
 20
90.074091
 30
0.0
 11
65.50619
 21
89.417494
 31
0.0
  0
LINE
  5
97E
100
AcDbEntity
  8
ALPHA
100
AcDbLine
 10
67.12858
 20
89.417494
 30
0.0
 11
65.50619
 21
89.417494
 31
0.0
  0
LWPOLYLINE
  5
97F
100
AcDbEntity
  8
ALPHA
100
AcDbPolyline
 90
        9
 70
     0
 43
0.0
 10
64.462261
 20
91.210646
 10
64.119935
 20
91.130635
 10
63.793567
 20
91.001188
 10
63.490475
 20
90.825205
 10
63.217447
 20
90.60662
 10
62.980597
 20
90.350314
 10
62.785301
 20
90.06212
 10
62.635819
 20
89.748287
 10
62.535943
 20
89.417494
  0
LINE
  5
98A
100
AcDbEntity
  8
ALPHA
100
AcDbLine
 10
65.998988
 20
87.776089
 30
0.0
 11
65.50619
 21
88.432686
 31
0.0
  0
LINE
  5
98B
100
AcDbEntity
  8
ALPHA
100
AcDbLine
 10
65.998988
 20
87.776089
 30
0.0
 11
65.204401
 21
88.354469
 31
0.0
  0
LWPOLYLINE
  5
98C
100
AcDbEntity
  8
ALPHA
100
AcDbPolyline
 90
       10
 70
     0
 43
0.0
 10
64.332261
 20
89.104523
 10
64.330734
 20
89.083656
 10
64.326781
 20
89.066169
 10
64.319027
 20
89.047599
 10
64.30855
 20
89.032505
 10
64.294716
 20
89.020303
 10
64.280403
 20
89.013034
 10
64.263908
 20
89.009284
 10
64.248911
 20
89.009271
 10
64.232261
 20
89.012552
  0
LWPOLYLINE
  5
998
100
AcDbEntity
  8
ALPHA
100
AcDbPolyline
 90
        3
 70
     0
 43
0.0
 10
65.202261
 20
86.632891
 10
65.179588
 20
86.632881
 10
65.157042
 20
86.632878
  0
LWPOLYLINE
  5
99D
100
AcDbEntity
  8
ALPHA
100
AcDbPolyline
 90
        3
 70
     0
 43
0.0
 10
64.821647
 20
86.611396
 10
64.832261
 20
86.61067
 10
65.157042
 20
86.632878
  0
LWPOLYLINE
  5
9A2
100
AcDbEntity
  8
ALPHA
100
AcDbPolyline
 90
       10
 70
     0
 43
0.0
 10
65.443669
 20
88.423858
 10
65.465965
 20
88.486607
 10
65.482261
 20
88.629048
 10
65.465965
 20
88.771489
 10
65.417891
 20
88.906788
 10
65.340452
 20
89.02816
 10
65.23753
 20
89.129518
 10
65.114286
 20
89.205781
 10
64.9769
 20
89.253124
 10
64.832261
 20
89.269173
  0
LWPOLYLINE
  5
9AE
100
AcDbEntity
  8
ALPHA
100
AcDbPolyline
 90
        4
 70
     0
 43
0.0
 10
64.832261
 20
87.988923
 10
64.9769
 20
88.004972
 10
65.114286
 20
88.052315
 10
65.202261
 20
88.106754
  0
LWPOLYLINE
  5
9B4
100
AcDbEntity
  8
ALPHA
100
AcDbPolyline
 90
       10
 70
     0
 43
0.0
 10
65.432261
 20
89.012552
 10
65.415659
 20
89.009275
 10
65.400622
 20
89.009283
 10
65.384057
 20
89.013057
 10
65.369721
 20
89.020361
 10
65.355983
 20
89.032493
 10
65.345593
 20
89.047422
 10
65.337849
 20
89.065822
 10
65.333828
 20
89.083401
 10
65.332261
 20
89.104523
  0
LWPOLYLINE
  5
9C0
100
AcDbEntity
  8
ALPHA
100
AcDbPolyline
 90
       10
 70
     0
 43
0.0
 10
65.302261
 20
89.134067
 10
65.284847
 20
89.131855
 10
65.269611
 20
89.133265
 10
65.252544
 20
89.139139
 10
65.237609
 20
89.14907
 10
65.224162
 20
89.163734
 10
65.214612
 20
89.179966
 10
65.207401
 20
89.199563
 10
65.203657
 20
89.218005
 10
65.202261
 20
89.239058
  0
LWPOLYLINE
  5
9CC
100
AcDbEntity
  8
ALPHA
100
AcDbPolyline
 90
       10
 70
     0
 43
0.0
 10
64.220854
 20
88.423858
 10
64.198558
 20
88.486607
 10
64.182261
 20
88.629048
 10
64.198558
 20
88.771489
 10
64.246632
 20
88.906788
 10
64.324071
 20
89.02816
 10
64.426993
 20
89.129518
 10
64.550237
 20
89.205781
 10
64.687623
 20
89.253124
 10
64.832261
 20
89.269173
  0
LWPOLYLINE
  5
9D8
100
AcDbEntity
  8
ALPHA
100
AcDbPolyline
 90
        4
 70
     0
 43
0.0
 10
64.832261
 20
87.988923
 10
64.687623
 20
88.004972
 10
64.550237
 20
88.052315
 10
64.462261
 20
88.106754
  0
LWPOLYLINE
  5
9DE
100
AcDbEntity
  8
ALPHA
100
AcDbPolyline
 90
        3
 70
     0
 43
0.0
 10
64.462261
 20
91.217263
 10
64.484933
 20
91.217293
 10
64.507481
 20
91.217302
  0
LWPOLYLINE
  5
9E3
100
AcDbEntity
  8
ALPHA
100
AcDbPolyline
 90
        3
 70
     0
 43
0.0
 10
65.157042
 20
91.217302
 10
64.832261
 20
91.23951
 10
64.507481
 20
91.217302
  0
LWPOLYLINE
  5
9E8
100
AcDbEntity
  8
ALPHA
100
AcDbPolyline
 90
        6
 70
     0
 43
0.0
 10
67.433627
 20
88.385132
 10
67.32665
 20
87.999383
 10
67.161066
 20
87.634267
 10
66.940764
 20
87.298363
 10
66.670921
 20
86.999563
 10
66.406401
 20
86.784363
  0
LINE
  5
9F0
100
AcDbEntity
  8
ALPHA
100
AcDbLine
 10
64.332261
 20
88.408126
 30
0.0
 11
64.158333
 21
88.432686
 31
0.0
  0
LWPOLYLINE
  5
9F1
100
AcDbEntity
  8
ALPHA
100
AcDbPolyline
 90
        5
 70
     0
 43
0.0
 10
64.362261
 20
88.411257
 10
64.393155
 20
88.410355
 10
64.421902
 20
88.400836
 10
64.445884
 20
88.381887
 10
64.460122
 20
88.354469
  0
LWPOLYLINE
  5
9F8
100
AcDbEntity
  8
ALPHA
100
AcDbPolyline
 90
        5
 70
     0
 43
0.0
 10
65.204401
 20
88.354469
 10
65.218642
 20
88.38189
 10
65.242626
 20
88.400839
 10
65.271369
 20
88.410355
 10
65.302261
 20
88.411257
  0
LINE
  5
9FF
100
AcDbEntity
  8
ALPHA
100
AcDbLine
 10
65.50619
 20
88.432686
 30
0.0
 11
65.332261
 21
88.408126
 31
0.0
  0
LINE
  5
A00
100
AcDbEntity
  8
ALPHA
100
AcDbLine
 10
64.332261
 20
89.141341
 30
0.0
 11
64.332261
 21
89.104523
 31
0.0
  0
LINE
  5
A01
100
AcDbEntity
  8
ALPHA
100
AcDbLine
 10
64.332261
 20
89.231666
 30
0.0
 11
64.332261
 21
89.141341
 31
0.0
  0
LINE
  5
A02
100
AcDbEntity
  8
ALPHA
100
AcDbLine
 10
64.332261
 20
89.26121
 30
0.0
 11
64.332261
 21
89.231666
 31
0.0
  0
LINE
  5
A03
100
AcDbEntity
  8
ALPHA
100
AcDbLine
 10
64.462261
 20
89.49571
 30
0.0
 11
64.462261
 21
89.239058
 31
0.0
  0
LINE
  5
A04
100
AcDbEntity
  8
ALPHA
100
AcDbLine
 10
65.332261
 20
89.141341
 30
0.0
 11
65.332261
 21
89.104523
 31
0.0
  0
LINE
  5
A05
100
AcDbEntity
  8
ALPHA
100
AcDbLine
 10
65.332261
 20
89.231666
 30
0.0
 11
65.332261
 21
89.141341
 31
0.0
  0
LINE
  5
A06
100
AcDbEntity
  8
ALPHA
100
AcDbLine
 10
65.332261
 20
89.231666
 30
0.0
 11
65.332261
 21
89.26121
 31
0.0
  0
LINE
  5
A07
100
AcDbEntity
  8
ALPHA
100
AcDbLine
 10
65.202261
 20
88.057288
 30
0.0
 11
65.202261
 21
86.639534
 31
0.0
  0
LINE
  5
A08
100
AcDbEntity
  8
ALPHA
100
AcDbLine
 10
65.202261
 20
88.334205
 30
0.0
 11
65.202261
 21
88.057288
 31
0.0
  0
LINE
  5
A09
100
AcDbEntity
  8
ALPHA
100
AcDbLine
 10
65.202261
 20
89.49571
 30
0.0
 11
65.202261
 21
89.239058
 31
0.0
  0
LINE
  5
A0A
100
AcDbEntity
  8
ALPHA
100
AcDbLine
 10
65.202261
 20
91.210646
 30
0.0
 11
65.202261
 21
89.515975
 31
0.0
  0
LINE
  5
A0B
100
AcDbEntity
  8
ALPHA
100
AcDbLine
 10
64.462261
 20
86.694625
 30
0.0
 11
64.462261
 21
88.334205
 31
0.0
  0
LINE
  5
A0C
100
AcDbEntity
  8
ALPHA
100
AcDbLine
 10
64.462261
 20
89.515975
 30
0.0
 11
64.462261
 21
91.210646
 31
0.0
  0
LINE
  5
A0D
100
AcDbEntity
  8
ALPHA
100
AcDbLine
 10
67.13217
 20
90.171921
 30
0.0
 11
67.263288
 21
89.945971
 31
0.0
  0
LINE
  5
A0E
100
AcDbEntity
  8
ALPHA
100
AcDbLine
 10
64.332261
 20
88.408126
 30
0.0
 11
64.362261
 21
88.411257
 31
0.0
  0
LWPOLYLINE
  5
A0F
100
AcDbEntity
  8
ALPHA
100
AcDbPolyline
 90
        4
 70
     0
 43
0.0
 10
67.48939
 20
88.276403
 10
67.470746
 20
88.312765
 10
67.452158
 20
88.349008
 10
67.433627
 20
88.385132
  0
LWPOLYLINE
  5
A15
100
AcDbEntity
  8
ALPHA
100
AcDbPolyline
 90
        3
 70
     0
 43
0.0
 10
67.570024
 20
88.032542
 10
67.49522
 20
87.725691
 10
67.357223
 20
87.397598
  0
LWPOLYLINE
  5
A1A
100
AcDbEntity
  8
ALPHA
100
AcDbPolyline
 90
        3
 70
     0
 43
0.0
 10
67.608527
 20
88.280796
 10
67.597789
 20
88.146431
 10
67.570024
 20
88.032542
  0
LWPOLYLINE
  5
A1F
100
AcDbEntity
  8
ALPHA
100
AcDbPolyline
 90
        3
 70
     0
 43
0.0
 10
67.608941
 20
88.869601
 10
67.632261
 20
88.577794
 10
67.608527
 20
88.280796
  0
LWPOLYLINE
  5
A24
100
AcDbEntity
  8
ALPHA
100
AcDbPolyline
 90
        5
 70
     0
 43
0.0
 10
67.263337
 20
89.945829
 10
67.32708
 20
89.829655
 10
67.49522
 20
89.429896
 10
67.597789
 20
89.009156
 10
67.608941
 20
88.869601
  0
LINE
  5
A2B
100
AcDbEntity
  8
ALPHA
100
AcDbLine
 10
65.302261
 20
88.411257
 30
0.0
 11
65.332261
 21
88.408126
 31
0.0
  0
LWPOLYLINE
  5
A2C
100
AcDbEntity
  8
ALPHA
100
AcDbPolyline
 90
       15
 70
     0
 43
0.0
 10
62.532423
 20
90.172042
 10
62.732207
 20
90.467684
 10
63.007662
 20
90.769088
 10
63.327075
 20
91.024803
 10
63.68296
 20
91.22877
 10
64.066558
 20
91.375912
 10
64.468629
 20
91.462687
 10
64.879495
 20
91.487
 10
65.289182
 20
91.448264
 10
65.687727
 20
91.347459
 10
66.065616
 20
91.187032
 10
66.413695
 20
90.970906
 10
66.723556
 20
90.70438
 10
66.987906
 20
90.39378
 10
67.132103
 20
90.172036
  0
LWPOLYLINE
  5
A3D
100
AcDbEntity
  8
ALPHA
100
AcDbPolyline
 90
        3
 70
     0
 43
0.0
 10
65.202261
 20
88.334205
 10
65.202813
 20
88.344532
 10
65.204401
 20
88.354469
  0
LWPOLYLINE
  5
A42
100
AcDbEntity
  8
ALPHA
100
AcDbPolyline
 90
        3
 70
     0
 43
0.0
 10
64.460122
 20
88.354469
 10
64.46171
 20
88.344532
 10
64.462261
 20
88.334205
  0
LINE
  5
A47
100
AcDbEntity
  8
ALPHA
100
AcDbLine
 10
64.158333
 20
88.432686
 30
0.0
 11
62.5441
 21
88.432686
 31
0.0
  0
LINE
  5
A48
100
AcDbEntity
  8
ALPHA
100
AcDbLine
 10
67.12858
 20
88.432686
 30
0.0
 11
65.50619
 21
88.432686
 31
0.0
  0
LINE
  5
A49
100
AcDbEntity
  8
ALPHA
100
AcDbLine
 10
64.462261
 20
89.49571
 30
0.0
 11
64.462261
 21
89.239058
 31
0.0
  0
LWPOLYLINE
  5
A4A
100
AcDbEntity
  8
ALPHA
100
AcDbPolyline
 90
        7
 70
     0
 43
0.0
 10
67.433627
 20
88.385132
 10
67.418239
 20
88.397505
 10
67.384733
 20
88.409162
 10
67.336215
 20
88.418906
 10
67.275189
 20
88.426345
 10
67.203676
 20
88.431101
 10
67.12858
 20
88.432686
  0
LINE
  5
A53
100
AcDbEntity
  8
ALPHA
100
AcDbLine
 10
65.202261
 20
86.639534
 30
0.0
 11
65.202261
 21
86.632891
 31
0.0
  0
LINE
  5
A54
100
AcDbEntity
  8
ALPHA
100
AcDbLine
 10
64.462261
 20
91.210646
 30
0.0
 11
64.462261
 21
91.217263
 31
0.0
  0
LINE
  5
A55
100
AcDbEntity
  8
ALPHA
100
AcDbLine
 10
65.202261
 20
91.217263
 30
0.0
 11
65.202261
 21
91.210646
 31
0.0
  0
LINE
  5
A56
100
AcDbEntity
  8
ALPHA
100
AcDbLine
 10
64.332261
 20
89.141341
 30
0.0
 11
64.332261
 21
89.104523
 31
0.0
  0
LINE
  5
A57
100
AcDbEntity
  8
ALPHA
100
AcDbLine
 10
64.332261
 20
89.231666
 30
0.0
 11
64.332261
 21
89.141341
 31
0.0
  0
LINE
  5
A58
100
AcDbEntity
  8
ALPHA
100
AcDbLine
 10
77.803376
 20
88.52239
 30
0.0
 11
77.807261
 21
88.625698
 31
0.0
  0
LINE
  5
A59
100
AcDbEntity
  8
ALPHA
100
AcDbLine
 10
77.727448
 20
89.243049
 30
0.0
 11
77.758995
 21
89.243049
 31
0.0
  0
LINE
  5
A5A
100
AcDbEntity
  8
ALPHA
100
AcDbLine
 10
72.255527
 20
89.243049
 30
0.0
 11
72.287075
 21
89.243049
 31
0.0
  0
LWPOLYLINE
  5
A5B
100
AcDbEntity
  8
ALPHA
100
AcDbPolyline
 90
        3
 70
     0
 43
0.0
 10
77.807261
 20
88.625698
 10
77.7953
 20
88.93775
 10
77.758995
 20
89.243049
  0
LWPOLYLINE
  5
A60
100
AcDbEntity
  8
ALPHA
100
AcDbPolyline
 90
        3
 70
     0
 43
0.0
 10
72.255527
 20
89.243049
 10
72.233164
 20
89.081997
 10
72.217779
 20
88.91853
  0
LWPOLYLINE
  5
A65
100
AcDbEntity
  8
ALPHA
100
AcDbPolyline
 90
        4
 70
     0
 43
0.0
 10
77.758995
 20
89.243049
 10
77.751086
 20
89.289958
 10
77.742544
 20
89.337025
 10
77.733369
 20
89.384242
  0
LWPOLYLINE
  5
A6B
100
AcDbEntity
  8
ALPHA
100
AcDbPolyline
 90
        3
 70
     0
 43
0.0
 10
77.335074
 20
90.240279
 10
77.181502
 20
90.449804
 10
77.012513
 20
90.619318
  0
LWPOLYLINE
  5
A70
100
AcDbEntity
  8
ALPHA
100
AcDbPolyline
 90
        4
 70
     0
 43
0.0
 10
77.733369
 20
89.384242
 10
77.606524
 20
89.764948
 10
77.420683
 20
90.123479
 10
77.335074
 20
90.240279
  0
LWPOLYLINE
  5
A76
100
AcDbEntity
  8
ALPHA
100
AcDbPolyline
 90
        4
 70
     0
 43
0.0
 10
72.679478
 20
90.240444
 10
72.594853
 20
90.125109
 10
72.408738
 20
89.766692
 10
72.281154
 20
89.384242
  0
LWPOLYLINE
  5
A7C
100
AcDbEntity
  8
ALPHA
100
AcDbPolyline
 90
        3
 70
     0
 43
0.0
 10
73.008048
 20
90.625459
 10
72.833532
 20
90.4504
 10
72.679478
 20
90.240444
  0
LWPOLYLINE
  5
A81
100
AcDbEntity
  8
ALPHA
100
AcDbPolyline
 90
        4
 70
     0
 43
0.0
 10
72.281154
 20
89.384242
 10
72.271979
 20
89.337025
 10
72.263437
 20
89.289958
 10
72.255527
 20
89.243049
  0
LINE
  5
A87
100
AcDbEntity
  8
ALPHA
100
AcDbLine
 10
74.657261
 20
100.151175
 30
0.0
 11
74.657261
 21
100.001175
 31
0.0
  0
LINE
  5
A88
100
AcDbEntity
  8
ALPHA
100
AcDbLine
 10
72.357261
 20
100.001175
 30
0.0
 11
72.357261
 21
100.151175
 31
0.0
  0
LINE
  5
A89
100
AcDbEntity
  8
ALPHA
100
AcDbLine
 10
72.357261
 20
95.851175
 30
0.0
 11
72.357261
 21
96.001175
 31
0.0
  0
LINE
  5
A8A
100
AcDbEntity
  8
ALPHA
100
AcDbLine
 10
74.657261
 20
96.001175
 30
0.0
 11
74.657261
 21
95.851175
 31
0.0
  0
LWPOLYLINE
  5
A8B
100
AcDbEntity
  8
ALPHA
100
AcDbPolyline
 90
       16
 70
     0
 43
0.0
 10
67.600034
 20
88.030956
 10
67.603016
 20
88.051103
 10
67.605856
 20
88.071264
 10
67.608553
 20
88.091439
 10
67.611108
 20
88.111628
 10
67.613519
 20
88.131829
 10
67.620232
 20
88.19619
 10
67.625476
 20
88.260604
 10
67.629237
 20
88.324997
 10
67.631504
 20
88.389294
 10
67.632261
 20
88.453418
 10
67.632188
 20
88.47331
 10
67.631967
 20
88.493176
 10
67.631601
 20
88.513014
 10
67.631088
 20
88.532821
 10
67.63043
 20
88.552596
  0
LWPOLYLINE
  5
A9D
100
AcDbEntity
  8
ALPHA
100
AcDbPolyline
 90
        6
 70
     0
 43
0.0
 10
67.597921
 20
88.017235
 10
67.598349
 20
88.019979
 10
67.598774
 20
88.022723
 10
67.599197
 20
88.025467
 10
67.599617
 20
88.028211
 10
67.600034
 20
88.030956
  0
LWPOLYLINE
  5
AA5
100
AcDbEntity
  8
ALPHA
100
AcDbPolyline
 90
        6
 70
     0
 43
0.0
 10
67.583914
 20
87.935318
 10
67.586902
 20
87.951681
 10
67.589797
 20
87.968054
 10
67.592599
 20
87.984438
 10
67.595307
 20
88.000831
 10
67.597921
 20
88.017235
  0
LWPOLYLINE
  5
AAD
100
AcDbEntity
  8
ALPHA
100
AcDbPolyline
 90
        3
 70
     0
 43
0.0
 10
67.583995
 20
87.936534
 10
67.606359
 20
88.108637
 10
67.621743
 20
88.27974
  0
LINE
  5
AB2
100
AcDbEntity
  8
ALPHA
100
AcDbLine
 10
67.583995
 20
87.936534
 30
0.0
 11
67.546619
 21
87.936534
 31
0.0
  0
LINE
  5
AB3
100
AcDbEntity
  8
ALPHA
100
AcDbLine
 10
67.583995
 20
89.195143
 30
0.0
 11
67.552448
 21
89.195143
 31
0.0
  0
LINE
  5
AB4
100
AcDbEntity
  8
ALPHA
100
AcDbLine
 10
67.583379
 20
87.93244
 30
0.0
 11
67.583995
 21
87.936534
 31
0.0
  0
LWPOLYLINE
  5
AB5
100
AcDbEntity
  8
ALPHA
100
AcDbPolyline
 90
        4
 70
     0
 43
0.0
 10
67.599191
 20
88.025431
 10
67.608802
 20
88.105299
 10
67.61619
 20
88.190073
 10
67.621743
 20
88.27974
  0
LWPOLYLINE
  5
ABB
100
AcDbEntity
  8
ALPHA
100
AcDbPolyline
 90
        4
 70
     0
 43
0.0
 10
67.583995
 20
89.195143
 10
67.576086
 20
89.242051
 10
67.567544
 20
89.289119
 10
67.558369
 20
89.336337
  0
LWPOLYLINE
  5
AC1
100
AcDbEntity
  8
ALPHA
100
AcDbPolyline
 90
        3
 70
     0
 43
0.0
 10
67.159996
 20
90.19248
 10
67.006502
 20
90.401898
 10
66.832118
 20
90.576824
  0
LWPOLYLINE
  5
AC6
100
AcDbEntity
  8
ALPHA
100
AcDbPolyline
 90
        4
 70
     0
 43
0.0
 10
67.558369
 20
89.336337
 10
67.431524
 20
89.717042
 10
67.245683
 20
90.075573
 10
67.159996
 20
90.19248
  0
LWPOLYLINE
  5
ACC
100
AcDbEntity
  8
ALPHA
100
AcDbPolyline
 90
        3
 70
     0
 43
0.0
 10
67.621743
 20
88.870625
 10
67.606359
 20
89.034089
 10
67.583995
 20
89.195143
  0
LINE
  5
AD1
100
AcDbEntity
  8
ALPHA
100
AcDbLine
 10
67.482175
 20
87.537389
 30
0.0
 11
67.558369
 21
87.784051
 31
0.0
  0
LWPOLYLINE
  5
AD2
100
AcDbEntity
  8
ALPHA
100
AcDbPolyline
 90
        4
 70
     0
 43
0.0
 10
67.558369
 20
87.784051
 10
67.567544
 20
87.835044
 10
67.576086
 20
87.885874
 10
67.583379
 20
87.93244
  0
LINE
  5
AD8
100
AcDbEntity
  8
ALPHA
100
AcDbLine
 10
67.599191
 20
88.025431
 30
0.0
 11
67.584074
 21
87.93652
 31
0.0
  0
LINE
  5
AD9
100
AcDbEntity
  8
ALPHA
100
AcDbLine
 10
76.173988
 20
108.690617
 30
0.0
 11
75.507261
 21
108.05858
 31
0.0
  0
LWPOLYLINE
  5
ADA
100
AcDbEntity
  8
ALPHA
100
AcDbPolyline
 90
        3
 70
     0
 43
0.0
 10
74.682481
 20
105.249404
 10
74.659935
 20
105.249413
 10
74.637261
 20
105.249443
  0
LINE
  5
ADF
100
AcDbEntity
  8
ALPHA
100
AcDbLine
 10
73.840535
 20
108.690617
 30
0.0
 11
74.507261
 21
108.05858
 31
0.0
  0
LWPOLYLINE
  5
AE0
100
AcDbEntity
  8
ALPHA
100
AcDbPolyline
 90
        5
 70
     0
 43
0.0
 10
75.379401
 20
106.970996
 10
75.393642
 20
107.011067
 10
75.417629
 20
107.042206
 10
75.446373
 20
107.061911
 10
75.477261
 20
107.070641
  0
LINE
  5
AE7
100
AcDbEntity
  8
ALPHA
100
AcDbLine
 10
76.173988
 20
106.392615
 30
0.0
 11
75.507261
 21
107.073772
 31
0.0
  0
LINE
  5
AE8
100
AcDbEntity
  8
ALPHA
100
AcDbLine
 10
75.68119
 20
107.049212
 30
0.0
 11
75.507261
 21
107.073772
 31
0.0
  0
LWPOLYLINE
  5
AE9
100
AcDbEntity
  8
ALPHA
100
AcDbPolyline
 90
        5
 70
     0
 43
0.0
 10
75.991275
 20
107.333521
 10
75.887894
 20
107.366981
 10
75.789642
 20
107.398238
 10
75.696211
 20
107.4273
 10
75.607261
 20
107.454154
  0
LINE
  5
AF0
100
AcDbEntity
  8
ALPHA
100
AcDbLine
 10
75.607261
 20
107.333521
 30
0.0
 11
75.607261
 21
107.454154
 31
0.0
  0
LINE
  5
AF1
100
AcDbEntity
  8
ALPHA
100
AcDbLine
 10
75.607261
 20
107.333521
 30
0.0
 11
75.991275
 21
107.333521
 31
0.0
  0
LWPOLYLINE
  5
AF2
100
AcDbEntity
  8
ALPHA
100
AcDbPolyline
 90
        3
 70
     0
 43
0.0
 10
72.87043
 20
108.489965
 10
72.810819
 20
108.364813
 10
72.710943
 20
108.03402
  0
LINE
  5
AF7
100
AcDbEntity
  8
ALPHA
100
AcDbLine
 10
72.895828
 20
108.543287
 30
0.0
 11
72.87043
 21
108.489965
 31
0.0
  0
LWPOLYLINE
  5
AF8
100
AcDbEntity
  8
ALPHA
100
AcDbPolyline
 90
        5
 70
     0
 43
0.0
 10
74.537261
 20
107.070641
 10
74.568155
 20
107.061909
 10
74.596902
 20
107.042198
 10
74.620884
 20
107.011062
 10
74.635122
 20
106.970996
  0
LINE
  5
AFF
100
AcDbEntity
  8
ALPHA
100
AcDbLine
 10
74.507261
 20
107.073772
 30
0.0
 11
74.333333
 21
107.049212
 31
0.0
  0
LINE
  5
B00
100
AcDbEntity
  8
ALPHA
100
AcDbLine
 10
74.537261
 20
107.070641
 30
0.0
 11
74.537261
 21
107.332639
 31
0.0
  0
LWPOLYLINE
  5
B01
100
AcDbEntity
  8
ALPHA
100
AcDbPolyline
 90
        3
 70
     0
 43
0.0
 10
74.537261
 20
107.332639
 10
74.522296
 20
107.329039
 10
74.507261
 20
107.325365
  0
LINE
  5
B06
100
AcDbEntity
  8
ALPHA
100
AcDbLine
 10
73.840535
 20
106.392615
 30
0.0
 11
74.507261
 21
107.073772
 31
0.0
  0
LINE
  5
B07
100
AcDbEntity
  8
ALPHA
100
AcDbLine
 10
72.350133
 20
107.205496
 30
0.0
 11
74.507261
 21
107.205496
 31
0.0
  0
LWPOLYLINE
  5
B08
100
AcDbEntity
  8
ALPHA
100
AcDbPolyline
 90
        4
 70
     0
 43
0.0
 10
72.405896
 20
107.096767
 10
72.387365
 20
107.13289
 10
72.368777
 20
107.169133
 10
72.350133
 20
107.205496
  0
LINE
  5
B0E
100
AcDbEntity
  8
ALPHA
100
AcDbLine
 10
74.507261
 20
107.073772
 30
0.0
 11
74.537261
 21
107.070641
 31
0.0
  0
LWPOLYLINE
  5
B0F
100
AcDbEntity
  8
ALPHA
100
AcDbPolyline
 90
        4
 70
     0
 43
0.0
 10
77.66439
 20
107.205496
 10
77.645746
 20
107.169134
 10
77.627158
 20
107.132891
 10
77.608627
 20
107.096767
  0
LINE
  5
B15
100
AcDbEntity
  8
ALPHA
100
AcDbLine
 10
75.507261
 20
107.205496
 30
0.0
 11
77.66439
 21
107.205496
 31
0.0
  0
LWPOLYLINE
  5
B16
100
AcDbEntity
  8
ALPHA
100
AcDbPolyline
 90
        3
 70
     0
 43
0.0
 10
75.507261
 20
107.325365
 10
75.492231
 20
107.329038
 10
75.477261
 20
107.332639
  0
LINE
  5
B1B
100
AcDbEntity
  8
ALPHA
100
AcDbLine
 10
75.477261
 20
107.070641
 30
0.0
 11
75.477261
 21
107.332639
 31
0.0
  0
LINE
  5
B1C
100
AcDbEntity
  8
ALPHA
100
AcDbLine
 10
75.477261
 20
107.070641
 30
0.0
 11
75.507261
 21
107.073772
 31
0.0
  0
LWPOLYLINE
  5
B1D
100
AcDbEntity
  8
ALPHA
100
AcDbPolyline
 90
        5
 70
     0
 43
0.0
 10
72.350133
 20
107.205496
 10
72.315204
 20
107.450402
 10
72.303499
 20
107.6979
 10
72.315204
 20
107.945397
 10
72.317833
 20
107.963829
  0
LWPOLYLINE
  5
B24
100
AcDbEntity
  8
ALPHA
100
AcDbPolyline
 90
        6
 70
     0
 43
0.0
 10
75.507261
 20
107.23504
 10
75.512156
 20
107.265472
 10
75.52636
 20
107.292926
 10
75.548483
 20
107.314713
 10
75.57636
 20
107.328701
 10
75.607261
 20
107.333521
  0
LINE
  5
B2C
100
AcDbEntity
  8
ALPHA
100
AcDbLine
 10
74.407261
 20
107.333521
 30
0.0
 11
74.407261
 21
107.454154
 31
0.0
  0
LWPOLYLINE
  5
B2D
100
AcDbEntity
  8
ALPHA
100
AcDbPolyline
 90
        5
 70
     0
 43
0.0
 10
74.407261
 20
107.454154
 10
74.318437
 20
107.427338
 10
74.225046
 20
107.39829
 10
74.126752
 20
107.367021
 10
74.023248
 20
107.333521
  0
LINE
  5
B34
100
AcDbEntity
  8
ALPHA
100
AcDbLine
 10
74.023248
 20
107.333521
 30
0.0
 11
74.407261
 21
107.333521
 31
0.0
  0
LWPOLYLINE
  5
B35
100
AcDbEntity
  8
ALPHA
100
AcDbPolyline
 90
        5
 70
     0
 43
0.0
 10
74.023248
 20
107.333521
 10
73.972937
 20
107.512726
 10
73.955985
 20
107.6979
 10
73.972937
 20
107.883074
 10
74.015315
 20
108.03402
  0
LWPOLYLINE
  5
B3C
100
AcDbEntity
  8
ALPHA
100
AcDbPolyline
 90
        6
 70
     0
 43
0.0
 10
74.407261
 20
107.333521
 10
74.438163
 20
107.328701
 10
74.46604
 20
107.314713
 10
74.488163
 20
107.292926
 10
74.502367
 20
107.265472
 10
74.507261
 20
107.23504
  0
LWPOLYLINE
  5
B44
100
AcDbEntity
  8
ALPHA
100
AcDbPolyline
 90
        5
 70
     0
 43
0.0
 10
77.697528
 20
107.957954
 10
77.699319
 20
107.945397
 10
77.711024
 20
107.6979
 10
77.699319
 20
107.450402
 10
77.66439
 20
107.205496
  0
LWPOLYLINE
  5
B4B
100
AcDbEntity
  8
ALPHA
100
AcDbPolyline
 90
        5
 70
     0
 43
0.0
 10
75.999208
 20
108.03402
 10
76.041586
 20
107.883074
 10
76.058538
 20
107.6979
 10
76.041586
 20
107.512726
 10
75.991275
 20
107.333521
  0
LWPOLYLINE
  5
B52
100
AcDbEntity
  8
ALPHA
100
AcDbPolyline
 90
        9
 70
     0
 43
0.0
 10
72.710943
 20
107.049212
 10
72.810819
 20
106.718419
 10
72.960301
 20
106.404586
 10
73.155597
 20
106.116392
 10
73.392447
 20
105.860086
 10
73.665475
 20
105.641502
 10
73.968567
 20
105.465518
 10
74.294935
 20
105.336071
 10
74.637261
 20
105.25606
  0
LWPOLYLINE
  5
B5D
100
AcDbEntity
  8
ALPHA
100
AcDbPolyline
 90
        4
 70
     0
 43
0.0
 10
75.007261
 20
108.733205
 10
75.133265
 20
108.725742
 10
75.256919
 20
108.703587
 10
75.377261
 20
108.666964
  0
LWPOLYLINE
  5
B63
100
AcDbEntity
  8
ALPHA
100
AcDbPolyline
 90
        4
 70
     0
 43
0.0
 10
74.637261
 20
108.666964
 10
74.757603
 20
108.703587
 10
74.881257
 20
108.725742
 10
75.007261
 20
108.733205
  0
LWPOLYLINE
  5
B69
100
AcDbEntity
  8
ALPHA
100
AcDbPolyline
 90
        4
 70
     0
 43
0.0
 10
75.377261
 20
106.728836
 10
75.256919
 20
106.692212
 10
75.133265
 20
106.670058
 10
75.007261
 20
106.662594
  0
LWPOLYLINE
  5
B6F
100
AcDbEntity
  8
ALPHA
100
AcDbPolyline
 90
        4
 70
     0
 43
0.0
 10
75.007261
 20
106.662594
 10
74.881257
 20
106.670058
 10
74.757603
 20
106.692212
 10
74.637261
 20
106.728836
  0
LINE
  5
B75
100
AcDbEntity
  8
ALPHA
100
AcDbLine
 10
74.637261
 20
105.728284
 30
0.0
 11
75.377261
 21
105.728284
 31
0.0
  0
LWPOLYLINE
  5
B76
100
AcDbEntity
  8
ALPHA
100
AcDbPolyline
 90
        7
 70
     0
 43
0.0
 10
72.710943
 20
107.049212
 10
72.635847
 20
107.050797
 10
72.564334
 20
107.055554
 10
72.503308
 20
107.062992
 10
72.45479
 20
107.072737
 10
72.421284
 20
107.084393
 10
72.405896
 20
107.096767
  0
LINE
  5
B7F
100
AcDbEntity
  8
ALPHA
100
AcDbLine
 10
75.332042
 20
105.249404
 30
0.0
 11
74.682481
 21
105.249404
 31
0.0
  0
LINE
  5
B80
100
AcDbEntity
  8
ALPHA
100
AcDbLine
 10
75.68119
 20
107.049212
 30
0.0
 11
77.30358
 21
107.049212
 31
0.0
  0
LINE
  5
B81
100
AcDbEntity
  8
ALPHA
100
AcDbLine
 10
76.173988
 20
106.392615
 30
0.0
 11
75.68119
 21
107.049212
 31
0.0
  0
LINE
  5
B82
100
AcDbEntity
  8
ALPHA
100
AcDbLine
 10
75.387644
 20
106.964996
 30
0.0
 11
75.379401
 21
106.970996
 31
0.0
  0
LINE
  5
B83
100
AcDbEntity
  8
ALPHA
100
AcDbLine
 10
76.173988
 20
106.392615
 30
0.0
 11
75.387644
 21
106.964996
 31
0.0
  0
LWPOLYLINE
  5
B84
100
AcDbEntity
  8
ALPHA
100
AcDbPolyline
 90
        3
 70
     0
 43
0.0
 10
75.377261
 20
106.950732
 10
75.377813
 20
106.961059
 10
75.379401
 20
106.970996
  0
LWPOLYLINE
  5
B89
100
AcDbEntity
  8
ALPHA
100
AcDbPolyline
 90
       10
 70
     0
 43
0.0
 10
75.377261
 20
107.227649
 10
75.378649
 20
107.248643
 10
75.382399
 20
107.267136
 10
75.389647
 20
107.286814
 10
75.399232
 20
107.303067
 10
75.412596
 20
107.317625
 10
75.427376
 20
107.327483
 10
75.444302
 20
107.333378
 10
75.45963
 20
107.334854
 10
75.477261
 20
107.332639
  0
LINE
  5
B95
100
AcDbEntity
  8
ALPHA
100
AcDbLine
 10
76.173988
 20
108.690617
 30
0.0
 11
75.379401
 21
108.112237
 31
0.0
  0
LINE
  5
B96
100
AcDbEntity
  8
ALPHA
100
AcDbLine
 10
76.173988
 20
108.690617
 30
0.0
 11
75.68119
 21
108.03402
 31
0.0
  0
LWPOLYLINE
  5
B97
100
AcDbEntity
  8
ALPHA
100
AcDbPolyline
 90
        7
 70
     0
 43
0.0
 10
77.608627
 20
107.096767
 10
77.593239
 20
107.084393
 10
77.559733
 20
107.072737
 10
77.511215
 20
107.062992
 10
77.450189
 20
107.055554
 10
77.378676
 20
107.050797
 10
77.30358
 20
107.049212
  0
LWPOLYLINE
  5
BA0
100
AcDbEntity
  8
ALPHA
100
AcDbPolyline
 90
        3
 70
     0
 43
0.0
 10
74.635122
 20
106.970996
 10
74.63671
 20
106.961059
 10
74.637261
 20
106.950732
  0
LINE
  5
BA5
100
AcDbEntity
  8
ALPHA
100
AcDbLine
 10
74.626879
 20
106.964996
 30
0.0
 11
74.635122
 21
106.970996
 31
0.0
  0
LINE
  5
BA6
100
AcDbEntity
  8
ALPHA
100
AcDbLine
 10
73.840535
 20
106.392615
 30
0.0
 11
74.626879
 21
106.964996
 31
0.0
  0
LWPOLYLINE
  5
BA7
100
AcDbEntity
  8
ALPHA
100
AcDbPolyline
 90
        4
 70
     0
 43
0.0
 10
72.707353
 20
106.294786
 10
72.678457
 20
106.345902
 10
72.512873
 20
106.711018
 10
72.405896
 20
107.096767
  0
LINE
  5
BAD
100
AcDbEntity
  8
ALPHA
100
AcDbLine
 10
73.840535
 20
106.392615
 30
0.0
 11
74.333333
 21
107.049212
 31
0.0
  0
LINE
  5
BAE
100
AcDbEntity
  8
ALPHA
100
AcDbLine
 10
72.710943
 20
107.049212
 30
0.0
 11
74.333333
 21
107.049212
 31
0.0
  0
LWPOLYLINE
  5
BAF
100
AcDbEntity
  8
ALPHA
100
AcDbPolyline
 90
        9
 70
     0
 43
0.0
 10
75.377261
 20
105.25606
 10
75.719588
 20
105.336071
 10
76.045956
 20
105.465518
 10
76.349048
 20
105.641502
 10
76.622076
 20
105.860086
 10
76.858926
 20
106.116392
 10
77.054221
 20
106.404586
 10
77.203703
 20
106.718419
 10
77.30358
 20
107.049212
  0
LINE
  5
BBA
100
AcDbEntity
  8
ALPHA
100
AcDbLine
 10
73.840535
 20
108.690617
 30
0.0
 11
74.333333
 21
108.03402
 31
0.0
  0
LINE
  5
BBB
100
AcDbEntity
  8
ALPHA
100
AcDbLine
 10
73.840535
 20
108.690617
 30
0.0
 11
74.635122
 21
108.112237
 31
0.0
  0
LWPOLYLINE
  5
BBC
100
AcDbEntity
  8
ALPHA
100
AcDbPolyline
 90
       10
 70
     0
 43
0.0
 10
75.507261
 20
107.362183
 10
75.508789
 20
107.38305
 10
75.512742
 20
107.400538
 10
75.520496
 20
107.419107
 10
75.530972
 20
107.434201
 10
75.544807
 20
107.446404
 10
75.55912
 20
107.453673
 10
75.575615
 20
107.457422
 10
75.590612
 20
107.457436
 10
75.607261
 20
107.454154
  0
LWPOLYLINE
  5
BC8
100
AcDbEntity
  8
ALPHA
100
AcDbPolyline
 90
       10
 70
     0
 43
0.0
 10
74.395854
 20
108.042849
 10
74.373558
 20
107.980099
 10
74.357261
 20
107.837658
 10
74.373558
 20
107.695217
 10
74.421632
 20
107.559918
 10
74.499071
 20
107.438547
 10
74.601993
 20
107.337188
 10
74.725237
 20
107.260925
 10
74.862623
 20
107.213582
 10
75.007261
 20
107.197533
  0
LWPOLYLINE
  5
BD4
100
AcDbEntity
  8
ALPHA
100
AcDbPolyline
 90
        4
 70
     0
 43
0.0
 10
75.007261
 20
108.477783
 10
74.862623
 20
108.461734
 10
74.725237
 20
108.414391
 10
74.637261
 20
108.359952
  0
LWPOLYLINE
  5
BDA
100
AcDbEntity
  8
ALPHA
100
AcDbPolyline
 90
       10
 70
     0
 43
0.0
 10
74.407261
 20
107.454154
 10
74.423864
 20
107.457431
 10
74.438901
 20
107.457423
 10
74.455466
 20
107.45365
 10
74.469802
 20
107.446346
 10
74.48354
 20
107.434213
 10
74.49393
 20
107.419284
 10
74.501674
 20
107.400884
 10
74.505695
 20
107.383305
 10
74.507261
 20
107.362183
  0
LWPOLYLINE
  5
BE6
100
AcDbEntity
  8
ALPHA
100
AcDbPolyline
 90
       10
 70
     0
 43
0.0
 10
74.537261
 20
107.332639
 10
74.554675
 20
107.334852
 10
74.569912
 20
107.333442
 10
74.586979
 20
107.327567
 10
74.601914
 20
107.317636
 10
74.61536
 20
107.302972
 10
74.624911
 20
107.28674
 10
74.632122
 20
107.267144
 10
74.635866
 20
107.248701
 10
74.637261
 20
107.227649
  0
LWPOLYLINE
  5
BF2
100
AcDbEntity
  8
ALPHA
100
AcDbPolyline
 90
       10
 70
     0
 43
0.0
 10
75.618669
 20
108.042849
 10
75.640965
 20
107.980099
 10
75.657261
 20
107.837658
 10
75.640965
 20
107.695217
 10
75.592891
 20
107.559918
 10
75.515452
 20
107.438547
 10
75.41253
 20
107.337188
 10
75.289286
 20
107.260925
 10
75.1519
 20
107.213582
 10
75.007261
 20
107.197533
  0
LWPOLYLINE
  5
BFE
100
AcDbEntity
  8
ALPHA
100
AcDbPolyline
 90
        4
 70
     0
 43
0.0
 10
75.007261
 20
108.477783
 10
75.1519
 20
108.461734
 10
75.289286
 20
108.414391
 10
75.377261
 20
108.359952
  0
LWPOLYLINE
  5
C04
100
AcDbEntity
  8
ALPHA
100
AcDbPolyline
 90
        3
 70
     0
 43
0.0
 10
75.377261
 20
105.249443
 10
75.354589
 20
105.249413
 10
75.332042
 20
105.249404
  0
LINE
  5
C09
100
AcDbEntity
  8
ALPHA
100
AcDbLine
 10
77.144092
 20
108.489965
 30
0.0
 11
77.117238
 21
108.546345
 31
0.0
  0
LWPOLYLINE
  5
C0A
100
AcDbEntity
  8
ALPHA
100
AcDbPolyline
 90
        3
 70
     0
 43
0.0
 10
77.30358
 20
108.03402
 10
77.203703
 20
108.364813
 10
77.144092
 20
108.489965
  0
LWPOLYLINE
  5
C0F
100
AcDbEntity
  8
ALPHA
100
AcDbPolyline
 90
        3
 70
     0
 43
0.0
 10
74.682481
 20
105.249404
 10
75.007261
 20
105.227197
 10
75.332042
 20
105.249404
  0
LWPOLYLINE
  5
C14
100
AcDbEntity
  8
ALPHA
100
AcDbPolyline
 90
        4
 70
     0
 43
0.0
 10
77.30717
 20
106.294786
 10
77.336066
 20
106.345902
 10
77.50165
 20
106.711018
 10
77.608627
 20
107.096767
  0
LINE
  5
C1A
100
AcDbEntity
  8
ALPHA
100
AcDbLine
 10
75.507261
 20
108.05858
 30
0.0
 11
75.68119
 21
108.03402
 31
0.0
  0
LWPOLYLINE
  5
C1B
100
AcDbEntity
  8
ALPHA
100
AcDbPolyline
 90
        5
 70
     0
 43
0.0
 10
75.477261
 20
108.055449
 10
75.446368
 20
108.056351
 10
75.41762
 20
108.06587
 10
75.393639
 20
108.084819
 10
75.379401
 20
108.112237
  0
LWPOLYLINE
  5
C22
100
AcDbEntity
  8
ALPHA
100
AcDbPolyline
 90
        5
 70
     0
 43
0.0
 10
74.635122
 20
108.112237
 10
74.620881
 20
108.084816
 10
74.596897
 20
108.065867
 10
74.568154
 20
108.056351
 10
74.537261
 20
108.055449
  0
LINE
  5
C29
100
AcDbEntity
  8
ALPHA
100
AcDbLine
 10
74.333333
 20
108.03402
 30
0.0
 11
74.507261
 21
108.05858
 31
0.0
  0
LINE
  5
C2A
100
AcDbEntity
  8
ALPHA
100
AcDbLine
 10
75.507261
 20
107.325365
 30
0.0
 11
75.507261
 21
107.362183
 31
0.0
  0
LINE
  5
C2B
100
AcDbEntity
  8
ALPHA
100
AcDbLine
 10
75.507261
 20
107.23504
 30
0.0
 11
75.507261
 21
107.325365
 31
0.0
  0
LINE
  5
C2C
100
AcDbEntity
  8
ALPHA
100
AcDbLine
 10
75.507261
 20
107.205496
 30
0.0
 11
75.507261
 21
107.23504
 31
0.0
  0
LINE
  5
C2D
100
AcDbEntity
  8
ALPHA
100
AcDbLine
 10
75.377261
 20
106.970996
 30
0.0
 11
75.377261
 21
107.227649
 31
0.0
  0
LINE
  5
C2E
100
AcDbEntity
  8
ALPHA
100
AcDbLine
 10
74.507261
 20
107.325365
 30
0.0
 11
74.507261
 21
107.362183
 31
0.0
  0
LINE
  5
C2F
100
AcDbEntity
  8
ALPHA
100
AcDbLine
 10
74.507261
 20
107.23504
 30
0.0
 11
74.507261
 21
107.325365
 31
0.0
  0
LINE
  5
C30
100
AcDbEntity
  8
ALPHA
100
AcDbLine
 10
74.507261
 20
107.23504
 30
0.0
 11
74.507261
 21
107.205496
 31
0.0
  0
LINE
  5
C31
100
AcDbEntity
  8
ALPHA
100
AcDbLine
 10
74.637261
 20
108.409418
 30
0.0
 11
74.637261
 21
109.396046
 31
0.0
  0
LINE
  5
C32
100
AcDbEntity
  8
ALPHA
100
AcDbLine
 10
74.637261
 20
108.132501
 30
0.0
 11
74.637261
 21
108.409418
 31
0.0
  0
LINE
  5
C33
100
AcDbEntity
  8
ALPHA
100
AcDbLine
 10
74.637261
 20
106.970996
 30
0.0
 11
74.637261
 21
107.227649
 31
0.0
  0
LINE
  5
C34
100
AcDbEntity
  8
ALPHA
100
AcDbLine
 10
74.637261
 20
105.25606
 30
0.0
 11
74.637261
 21
106.950732
 31
0.0
  0
LINE
  5
C35
100
AcDbEntity
  8
ALPHA
100
AcDbLine
 10
75.377261
 20
109.4036
 30
0.0
 11
75.377261
 21
108.132501
 31
0.0
  0
LINE
  5
C36
100
AcDbEntity
  8
ALPHA
100
AcDbLine
 10
75.377261
 20
106.950732
 30
0.0
 11
75.377261
 21
105.25606
 31
0.0
  0
LINE
  5
C37
100
AcDbEntity
  8
ALPHA
100
AcDbLine
 10
72.707353
 20
106.294786
 30
0.0
 11
72.576235
 21
106.520735
 31
0.0
  0
LINE
  5
C38
100
AcDbEntity
  8
ALPHA
100
AcDbLine
 10
75.507261
 20
108.05858
 30
0.0
 11
75.477261
 21
108.055449
 31
0.0
  0
LINE
  5
C39
100
AcDbEntity
  8
ALPHA
100
AcDbLine
 10
72.233606
 20
107.559257
 30
0.0
 11
72.215157
 21
107.790115
 31
0.0
  0
LWPOLYLINE
  5
C3A
100
AcDbEntity
  8
ALPHA
100
AcDbPolyline
 90
        3
 70
     0
 43
0.0
 10
72.256484
 20
107.397045
 10
72.241734
 20
107.457551
 10
72.233606
 20
107.559257
  0
LINE
  5
C3F
100
AcDbEntity
  8
ALPHA
100
AcDbLine
 10
72.317543
 20
107.146582
 30
0.0
 11
72.256484
 21
107.397045
 31
0.0
  0
LWPOLYLINE
  5
C40
100
AcDbEntity
  8
ALPHA
100
AcDbPolyline
 90
        3
 70
     0
 43
0.0
 10
72.359539
 20
107.000587
 10
72.344303
 20
107.03681
 10
72.317543
 20
107.146582
  0
LINE
  5
C45
100
AcDbEntity
  8
ALPHA
100
AcDbLine
 10
72.474958
 20
106.726174
 30
0.0
 11
72.359539
 21
107.000587
 31
0.0
  0
LWPOLYLINE
  5
C46
100
AcDbEntity
  8
ALPHA
100
AcDbPolyline
 90
        3
 70
     0
 43
0.0
 10
72.524705
 20
106.614703
 10
72.512443
 20
106.637051
 10
72.474958
 20
106.726174
  0
LINE
  5
C4B
100
AcDbEntity
  8
ALPHA
100
AcDbLine
 10
72.533308
 20
106.599023
 30
0.0
 11
72.524705
 21
106.614703
 31
0.0
  0
LINE
  5
C4C
100
AcDbEntity
  8
ALPHA
100
AcDbLine
 10
72.576186
 20
106.520877
 30
0.0
 11
72.533308
 21
106.599023
 31
0.0
  0
LINE
  5
C4D
100
AcDbEntity
  8
ALPHA
100
AcDbLine
 10
74.537261
 20
108.055449
 30
0.0
 11
74.507261
 21
108.05858
 31
0.0
  0
LWPOLYLINE
  5
C4E
100
AcDbEntity
  8
ALPHA
100
AcDbPolyline
 90
       15
 70
     0
 43
0.0
 10
77.3071
 20
106.294665
 10
77.107316
 20
105.999022
 10
76.831861
 20
105.697618
 10
76.512448
 20
105.441903
 10
76.156562
 20
105.237936
 10
75.772965
 20
105.090794
 10
75.370894
 20
105.004019
 10
74.960028
 20
104.979706
 10
74.550341
 20
105.018443
 10
74.151796
 20
105.119247
 10
73.773907
 20
105.279674
 10
73.425828
 20
105.4958
 10
73.115967
 20
105.762327
 10
72.851617
 20
106.072926
 10
72.707419
 20
106.29467
  0
LINE
  5
C5F
100
AcDbEntity
  8
ALPHA
100
AcDbLine
 10
77.30717
 20
106.294786
 30
0.0
 11
77.438288
 21
106.520735
 31
0.0
  0
LINE
  5
C60
100
AcDbEntity
  8
ALPHA
100
AcDbLine
 10
77.781272
 20
107.563706
 30
0.0
 11
77.797809
 21
107.770628
 31
0.0
  0
LWPOLYLINE
  5
C61
100
AcDbEntity
  8
ALPHA
100
AcDbPolyline
 90
        3
 70
     0
 43
0.0
 10
77.767721
 20
107.436763
 10
77.772789
 20
107.457551
 10
77.781272
 20
107.563706
  0
LINE
  5
C66
100
AcDbEntity
  8
ALPHA
100
AcDbLine
 10
77.67094
 20
107.039766
 30
0.0
 11
77.767721
 21
107.436763
 31
0.0
  0
LWPOLYLINE
  5
C67
100
AcDbEntity
  8
ALPHA
100
AcDbPolyline
 90
        3
 70
     0
 43
0.0
 10
77.655822
 20
107.00258
 10
77.67022
 20
107.03681
 10
77.67094
 20
107.039766
  0
LINE
  5
C6C
100
AcDbEntity
  8
ALPHA
100
AcDbLine
 10
77.512697
 20
106.662295
 30
0.0
 11
77.655822
 21
107.00258
 31
0.0
  0
LWPOLYLINE
  5
C6D
100
AcDbEntity
  8
ALPHA
100
AcDbPolyline
 90
        3
 70
     0
 43
0.0
 10
77.438337
 20
106.520877
 10
77.50208
 20
106.637051
 10
77.512697
 20
106.662295
  0
LWPOLYLINE
  5
C72
100
AcDbEntity
  8
ALPHA
100
AcDbPolyline
 90
        3
 70
     0
 43
0.0
 10
74.637261
 20
108.132501
 10
74.63671
 20
108.122174
 10
74.635122
 20
108.112237
  0
LWPOLYLINE
  5
C77
100
AcDbEntity
  8
ALPHA
100
AcDbPolyline
 90
        3
 70
     0
 43
0.0
 10
75.379401
 20
108.112237
 10
75.377813
 20
108.122174
 10
75.377261
 20
108.132501
  0
LINE
  5
C7C
100
AcDbEntity
  8
ALPHA
100
AcDbLine
 10
75.68119
 20
108.03402
 30
0.0
 11
77.30358
 21
108.03402
 31
0.0
  0
LINE
  5
C7D
100
AcDbEntity
  8
ALPHA
100
AcDbLine
 10
72.710943
 20
108.03402
 30
0.0
 11
74.333333
 21
108.03402
 31
0.0
  0
LINE
  5
C7E
100
AcDbEntity
  8
ALPHA
100
AcDbLine
 10
75.377261
 20
106.970996
 30
0.0
 11
75.377261
 21
107.227649
 31
0.0
  0
LWPOLYLINE
  5
C7F
100
AcDbEntity
  8
ALPHA
100
AcDbPolyline
 90
        7
 70
     0
 43
0.0
 10
77.30358
 20
108.03402
 10
77.378676
 20
108.035605
 10
77.450189
 20
108.040362
 10
77.511215
 20
108.0478
 10
77.559733
 20
108.057545
 10
77.593239
 20
108.069201
 10
77.608178
 20
108.081213
  0
LWPOLYLINE
  5
C88
100
AcDbEntity
  8
ALPHA
100
AcDbPolyline
 90
        7
 70
     0
 43
0.0
 10
72.40864
 20
108.079368
 10
72.421284
 20
108.069201
 10
72.45479
 20
108.057545
 10
72.503308
 20
108.0478
 10
72.564334
 20
108.040362
 10
72.635847
 20
108.035605
 10
72.710943
 20
108.03402
  0
LINE
  5
C91
100
AcDbEntity
  8
ALPHA
100
AcDbLine
 10
72.405896
 20
108.081574
 30
0.0
 11
72.40864
 21
108.079368
 31
0.0
  0
LINE
  5
C92
100
AcDbEntity
  8
ALPHA
100
AcDbLine
 10
75.377261
 20
105.25606
 30
0.0
 11
75.377261
 21
105.249443
 31
0.0
  0
LINE
  5
C93
100
AcDbEntity
  8
ALPHA
100
AcDbLine
 10
74.637261
 20
105.249443
 30
0.0
 11
74.637261
 21
105.25606
 31
0.0
  0
LINE
  5
C94
100
AcDbEntity
  8
ALPHA
100
AcDbLine
 10
75.507261
 20
107.325365
 30
0.0
 11
75.507261
 21
107.362183
 31
0.0
  0
LINE
  5
C95
100
AcDbEntity
  8
ALPHA
100
AcDbLine
 10
75.507261
 20
107.23504
 30
0.0
 11
75.507261
 21
107.325365
 31
0.0
  0
LINE
  5
C96
100
AcDbEntity
  8
ALPHA
100
AcDbLine
 10
73.457261
 20
96.001175
 30
0.0
 11
73.457261
 21
100.001175
 31
0.0
  0
LINE
  5
C97
100
AcDbEntity
  8
ALPHA
100
AcDbLine
 10
72.957261
 20
96.001175
 30
0.0
 11
72.957261
 21
100.001175
 31
0.0
  0
LINE
  5
C98
100
AcDbEntity
  8
ALPHA
100
AcDbLine
 10
77.057261
 20
96.001175
 30
0.0
 11
77.057261
 21
100.001175
 31
0.0
  0
LINE
  5
C99
100
AcDbEntity
  8
ALPHA
100
AcDbLine
 10
76.557261
 20
96.001175
 30
0.0
 11
76.557261
 21
100.001175
 31
0.0
  0
LINE
  5
C9A
100
AcDbEntity
  8
ALPHA
100
AcDbLine
 10
73.457261
 20
96.001175
 30
0.0
 11
76.557261
 21
96.001175
 31
0.0
  0
LINE
  5
C9B
100
AcDbEntity
  8
ALPHA
100
AcDbLine
 10
72.957261
 20
96.001175
 30
0.0
 11
73.457261
 21
96.001175
 31
0.0
  0
LINE
  5
C9C
100
AcDbEntity
  8
ALPHA
100
AcDbLine
 10
76.557261
 20
96.001175
 30
0.0
 11
77.057261
 21
96.001175
 31
0.0
  0
LINE
  5
C9D
100
AcDbEntity
  8
ALPHA
100
AcDbLine
 10
72.957261
 20
96.001175
 30
0.0
 11
71.257261
 21
96.001175
 31
0.0
  0
LINE
  5
C9E
100
AcDbEntity
  8
ALPHA
100
AcDbLine
 10
78.757261
 20
96.001175
 30
0.0
 11
77.057261
 21
96.001175
 31
0.0
  0
LINE
  5
C9F
100
AcDbEntity
  8
ALPHA
100
AcDbLine
 10
78.757261
 20
100.001175
 30
0.0
 11
77.057261
 21
100.001175
 31
0.0
  0
LINE
  5
CA0
100
AcDbEntity
  8
ALPHA
100
AcDbLine
 10
76.557261
 20
100.001175
 30
0.0
 11
77.057261
 21
100.001175
 31
0.0
  0
LINE
  5
CA1
100
AcDbEntity
  8
ALPHA
100
AcDbLine
 10
73.457261
 20
100.001175
 30
0.0
 11
76.557261
 21
100.001175
 31
0.0
  0
LINE
  5
CA2
100
AcDbEntity
  8
ALPHA
100
AcDbLine
 10
72.957261
 20
100.001175
 30
0.0
 11
73.457261
 21
100.001175
 31
0.0
  0
LINE
  5
CA3
100
AcDbEntity
  8
ALPHA
100
AcDbLine
 10
72.957261
 20
100.001175
 30
0.0
 11
71.257261
 21
100.001175
 31
0.0
  0
LINE
  5
CA4
100
AcDbEntity
  8
ALPHA
100
AcDbLine
 10
71.257261
 20
96.001175
 30
0.0
 11
71.257261
 21
100.001175
 31
0.0
  0
LINE
  5
CA5
100
AcDbEntity
  8
ALPHA
100
AcDbLine
 10
78.757261
 20
96.001175
 30
0.0
 11
78.757261
 21
100.001175
 31
0.0
  0
LWPOLYLINE
  5
CA6
100
AcDbEntity
  8
ALPHA
100
AcDbPolyline
 90
       10
 70
     0
 43
0.0
 10
64.837261
 20
107.432639
 10
64.854675
 20
107.434852
 10
64.869912
 20
107.433442
 10
64.886979
 20
107.427567
 10
64.901914
 20
107.417636
 10
64.91536
 20
107.402972
 10
64.924911
 20
107.38674
 10
64.932122
 20
107.367144
 10
64.935866
 20
107.348701
 10
64.937261
 20
107.327649
  0
LWPOLYLINE
  5
CB2
100
AcDbEntity
  8
ALPHA
100
AcDbPolyline
 90
        5
 70
     0
 43
0.0
 10
64.937261
 20
108.766964
 10
65.119231
 20
108.81651
 10
65.307261
 20
108.833205
 10
65.495292
 20
108.81651
 10
65.677261
 20
108.766964
  0
LINE
  5
CB9
100
AcDbEntity
  8
ALPHA
100
AcDbLine
 10
64.140535
 20
108.790617
 30
0.0
 11
64.807261
 21
108.15858
 31
0.0
  0
LINE
  5
CBA
100
AcDbEntity
  8
ALPHA
100
AcDbLine
 10
66.473988
 20
108.790617
 30
0.0
 11
65.807261
 21
108.305306
 31
0.0
  0
LINE
  5
CBB
100
AcDbEntity
  8
ALPHA
100
AcDbLine
 10
66.473988
 20
106.492615
 30
0.0
 11
65.807261
 21
107.173772
 31
0.0
  0
LWPOLYLINE
  5
CBC
100
AcDbEntity
  8
ALPHA
100
AcDbPolyline
 90
        6
 70
     0
 43
0.0
 10
64.837261
 20
107.305496
 10
64.868163
 20
107.300676
 10
64.89604
 20
107.286688
 10
64.918163
 20
107.264901
 10
64.932367
 20
107.237447
 10
64.937261
 20
107.207015
  0
LINE
  5
CC4
100
AcDbEntity
  8
ALPHA
100
AcDbLine
 10
66.473988
 20
108.790617
 30
0.0
 11
65.886685
 21
108.008103
 31
0.0
  0
LINE
  5
CC5
100
AcDbEntity
  8
ALPHA
100
AcDbLine
 10
66.473988
 20
108.790617
 30
0.0
 11
65.807261
 21
108.15858
 31
0.0
  0
LWPOLYLINE
  5
CC6
100
AcDbEntity
  8
ALPHA
100
AcDbPolyline
 90
        5
 70
     0
 43
0.0
 10
64.727838
 20
107.27513
 10
64.762105
 20
107.267431
 10
64.787536
 20
107.249902
 10
64.802371
 20
107.22669
 10
64.807261
 20
107.200185
  0
LINE
  5
CCD
100
AcDbEntity
  8
ALPHA
100
AcDbLine
 10
64.140535
 20
106.492615
 30
0.0
 11
64.807261
 21
107.173772
 31
0.0
  0
LWPOLYLINE
  5
CCE
100
AcDbEntity
  8
ALPHA
100
AcDbPolyline
 90
        5
 70
     0
 43
0.0
 10
62.65828
 20
107.68917
 10
62.6894
 20
107.29047
 10
62.782029
 20
106.901138
 10
62.93399
 20
106.530321
 10
63.007353
 20
106.394786
  0
LWPOLYLINE
  5
CD5
100
AcDbEntity
  8
ALPHA
100
AcDbPolyline
 90
        5
 70
     0
 43
0.0
 10
65.677261
 20
106.828836
 10
65.495292
 20
106.779289
 10
65.307261
 20
106.762594
 10
65.119231
 20
106.779289
 10
64.937261
 20
106.828836
  0
LWPOLYLINE
  5
CDC
100
AcDbEntity
  8
ALPHA
100
AcDbPolyline
 90
        3
 70
     0
 43
0.0
 10
67.634808
 20
108.006008
 10
67.634828
 20
107.983669
 10
67.634835
 20
107.961463
  0
LINE
  5
CE1
100
AcDbEntity
  8
ALPHA
100
AcDbLine
 10
64.837261
 20
107.305496
 30
0.0
 11
64.837261
 21
107.432639
 31
0.0
  0
LWPOLYLINE
  5
CE2
100
AcDbEntity
  8
ALPHA
100
AcDbPolyline
 90
        3
 70
     0
 43
0.0
 10
64.837261
 20
107.432639
 10
64.822296
 20
107.429039
 10
64.807261
 20
107.425365
  0
LWPOLYLINE
  5
CE7
100
AcDbEntity
  8
ALPHA
100
AcDbPolyline
 90
        4
 70
     0
 43
0.0
 10
66.358538
 20
107.7979
 10
66.350959
 20
107.67381
 10
66.328463
 20
107.552035
 10
66.291275
 20
107.433521
  0
LINE
  5
CED
100
AcDbEntity
  8
ALPHA
100
AcDbLine
 10
64.807261
 20
107.305496
 30
0.0
 11
64.837261
 21
107.305496
 31
0.0
  0
LINE
  5
CEE
100
AcDbEntity
  8
ALPHA
100
AcDbLine
 10
64.707261
 20
107.277237
 30
0.0
 11
64.707261
 21
107.554154
 31
0.0
  0
LWPOLYLINE
  5
CEF
100
AcDbEntity
  8
ALPHA
100
AcDbPolyline
 90
        3
 70
     0
 43
0.0
 10
66.335441
 20
108.005995
 10
66.350959
 20
107.921989
 10
66.358538
 20
107.7979
  0
LINE
  5
CF4
100
AcDbEntity
  8
ALPHA
100
AcDbLine
 10
67.307261
 20
108.005995
 30
0.0
 11
67.307261
 21
107.433521
 31
0.0
  0
LWPOLYLINE
  5
CF5
100
AcDbEntity
  8
ALPHA
100
AcDbPolyline
 90
        4
 70
     0
 43
0.0
 10
64.323248
 20
107.433521
 10
64.28606
 20
107.552035
 10
64.263563
 20
107.67381
 10
64.255985
 20
107.7979
  0
LWPOLYLINE
  5
CFB
100
AcDbEntity
  8
ALPHA
100
AcDbPolyline
 90
        3
 70
     0
 43
0.0
 10
64.255985
 20
107.7979
 10
64.263563
 20
107.921989
 10
64.279082
 20
108.005995
  0
LWPOLYLINE
  5
D00
100
AcDbEntity
  8
ALPHA
100
AcDbPolyline
 90
        3
 70
     0
 43
0.0
 10
67.634835
 20
107.32177
 10
67.657385
 20
107.641616
 10
67.634835
 20
107.961463
  0
LINE
  5
D05
100
AcDbEntity
  8
ALPHA
100
AcDbLine
 10
63.307261
 20
108.005995
 30
0.0
 11
63.307261
 21
107.433521
 31
0.0
  0
LWPOLYLINE
  5
D06
100
AcDbEntity
  8
ALPHA
100
AcDbPolyline
 90
        3
 70
     0
 43
0.0
 10
67.634835
 20
107.32177
 10
67.634828
 20
107.299568
 10
67.634808
 20
107.27725
  0
LWPOLYLINE
  5
D0B
100
AcDbEntity
  8
ALPHA
100
AcDbPolyline
 90
        3
 70
     0
 43
0.0
 10
67.634808
 20
107.27725
 10
67.631455
 20
107.277241
 10
67.628076
 20
107.277237
  0
LWPOLYLINE
  5
D10
100
AcDbEntity
  8
ALPHA
100
AcDbPolyline
 90
        5
 70
     0
 43
0.0
 10
67.60717
 20
106.394786
 10
67.680533
 20
106.530321
 10
67.832494
 20
106.901138
 10
67.925123
 20
107.29047
 10
67.956243
 20
107.68917
  0
LWPOLYLINE
  5
D17
100
AcDbEntity
  8
ALPHA
100
AcDbPolyline
 90
        9
 70
     0
 43
0.0
 10
65.807261
 20
105.380184
 10
66.143158
 20
105.478543
 10
66.461832
 20
105.625754
 10
66.754472
 20
105.818083
 10
67.014732
 20
106.051335
 10
67.236689
 20
106.320215
 10
67.415387
 20
106.618702
 10
67.546831
 20
106.940111
 10
67.628076
 20
107.277237
  0
LWPOLYLINE
  5
D22
100
AcDbEntity
  8
ALPHA
100
AcDbPolyline
 90
        3
 70
     0
 43
0.0
 10
62.979688
 20
107.961463
 10
62.979694
 20
107.983669
 10
62.979715
 20
108.006008
  0
LWPOLYLINE
  5
D27
100
AcDbEntity
  8
ALPHA
100
AcDbPolyline
 90
        9
 70
     0
 43
0.0
 10
62.986447
 20
107.277237
 10
63.067692
 20
106.940111
 10
63.199136
 20
106.618702
 10
63.377834
 20
106.320215
 10
63.599791
 20
106.051335
 10
63.860051
 20
105.818083
 10
64.15269
 20
105.625754
 10
64.471365
 20
105.478543
 10
64.807261
 20
105.380184
  0
LWPOLYLINE
  5
D32
100
AcDbEntity
  8
ALPHA
100
AcDbPolyline
 90
        6
 70
     0
 43
0.0
 10
65.677261
 20
107.207015
 10
65.682156
 20
107.237447
 10
65.69636
 20
107.264901
 10
65.718483
 20
107.286688
 10
65.74636
 20
107.300676
 10
65.777261
 20
107.305496
  0
LWPOLYLINE
  5
D3A
100
AcDbEntity
  8
ALPHA
100
AcDbPolyline
 90
       10
 70
     0
 43
0.0
 10
65.677261
 20
107.327649
 10
65.678649
 20
107.348643
 10
65.682399
 20
107.367136
 10
65.689647
 20
107.386814
 10
65.699232
 20
107.403067
 10
65.712596
 20
107.417625
 10
65.727376
 20
107.427483
 10
65.744302
 20
107.433378
 10
65.75963
 20
107.434854
 10
65.777261
 20
107.432639
  0
LINE
  5
D46
100
AcDbEntity
  8
ALPHA
100
AcDbLine
 10
67.946242
 20
107.817303
 30
0.0
 11
67.956243
 21
107.68917
 31
0.0
  0
LWPOLYLINE
  5
D47
100
AcDbEntity
  8
ALPHA
100
AcDbPolyline
 90
        5
 70
     0
 43
0.0
 10
65.807261
 20
107.200185
 10
65.812153
 20
107.226694
 10
65.826993
 20
107.249909
 10
65.852422
 20
107.267433
 10
65.886685
 20
107.27513
  0
LWPOLYLINE
  5
D4E
100
AcDbEntity
  8
ALPHA
100
AcDbPolyline
 90
       10
 70
     0
 43
0.0
 10
65.807261
 20
107.462183
 10
65.808789
 20
107.48305
 10
65.812742
 20
107.500538
 10
65.820496
 20
107.519107
 10
65.830972
 20
107.534201
 10
65.844807
 20
107.546404
 10
65.85912
 20
107.553673
 10
65.875615
 20
107.557422
 10
65.890612
 20
107.557436
 10
65.907261
 20
107.554154
  0
LWPOLYLINE
  5
D5A
100
AcDbEntity
  8
ALPHA
100
AcDbPolyline
 90
        3
 70
     0
 43
0.0
 10
62.986447
 20
107.277237
 10
62.983068
 20
107.277241
 10
62.979715
 20
107.27725
  0
LINE
  5
D5F
100
AcDbEntity
  8
ALPHA
100
AcDbLine
 10
62.979688
 20
107.32177
 30
0.0
 11
62.979688
 21
107.961463
 31
0.0
  0
LINE
  5
D60
100
AcDbEntity
  8
ALPHA
100
AcDbLine
 10
65.907261
 20
107.277237
 30
0.0
 11
65.907261
 21
107.554154
 31
0.0
  0
LINE
  5
D61
100
AcDbEntity
  8
ALPHA
100
AcDbLine
 10
67.628076
 20
107.277237
 30
0.0
 11
65.907261
 21
107.277237
 31
0.0
  0
LINE
  5
D62
100
AcDbEntity
  8
ALPHA
100
AcDbLine
 10
67.634808
 20
107.27725
 30
0.0
 11
67.307261
 21
107.433521
 31
0.0
  0
LINE
  5
D63
100
AcDbEntity
  8
ALPHA
100
AcDbLine
 10
67.307261
 20
107.433521
 30
0.0
 11
66.291275
 21
107.433521
 31
0.0
  0
LWPOLYLINE
  5
D64
100
AcDbEntity
  8
ALPHA
100
AcDbPolyline
 90
        5
 70
     0
 43
0.0
 10
66.291275
 20
107.433521
 10
66.187894
 20
107.466981
 10
66.089642
 20
107.498238
 10
65.996211
 20
107.5273
 10
65.907261
 20
107.554154
  0
LINE
  5
D6B
100
AcDbEntity
  8
ALPHA
100
AcDbLine
 10
63.307261
 20
107.433521
 30
0.0
 11
62.979715
 21
107.27725
 31
0.0
  0
LINE
  5
D6C
100
AcDbEntity
  8
ALPHA
100
AcDbLine
 10
64.707261
 20
107.277237
 30
0.0
 11
62.986447
 21
107.277237
 31
0.0
  0
LWPOLYLINE
  5
D6D
100
AcDbEntity
  8
ALPHA
100
AcDbPolyline
 90
        5
 70
     0
 43
0.0
 10
64.707261
 20
107.554154
 10
64.618437
 20
107.527338
 10
64.525046
 20
107.49829
 10
64.426752
 20
107.467021
 10
64.323248
 20
107.433521
  0
LINE
  5
D74
100
AcDbEntity
  8
ALPHA
100
AcDbLine
 10
64.323248
 20
107.433521
 30
0.0
 11
63.307261
 21
107.433521
 31
0.0
  0
LINE
  5
D75
100
AcDbEntity
  8
ALPHA
100
AcDbLine
 10
67.634835
 20
107.32177
 30
0.0
 11
67.634835
 21
107.961463
 31
0.0
  0
LWPOLYLINE
  5
D76
100
AcDbEntity
  8
ALPHA
100
AcDbPolyline
 90
        3
 70
     0
 43
0.0
 10
67.628076
 20
108.005995
 10
67.546831
 20
108.343121
 10
67.509509
 20
108.434381
  0
LINE
  5
D7B
100
AcDbEntity
  8
ALPHA
100
AcDbLine
 10
64.140535
 20
106.492615
 30
0.0
 11
64.807261
 21
106.977926
 31
0.0
  0
LINE
  5
D7C
100
AcDbEntity
  8
ALPHA
100
AcDbLine
 10
64.140535
 20
106.492615
 30
0.0
 11
64.727838
 21
107.27513
 31
0.0
  0
LWPOLYLINE
  5
D7D
100
AcDbEntity
  8
ALPHA
100
AcDbPolyline
 90
        3
 70
     0
 43
0.0
 10
64.707261
 20
107.277237
 10
64.717748
 20
107.276695
 10
64.727838
 20
107.27513
  0
LWPOLYLINE
  5
D82
100
AcDbEntity
  8
ALPHA
100
AcDbPolyline
 90
        3
 70
     0
 43
0.0
 10
65.886685
 20
107.27513
 10
65.896775
 20
107.276695
 10
65.907261
 20
107.277237
  0
LINE
  5
D87
100
AcDbEntity
  8
ALPHA
100
AcDbLine
 10
66.473988
 20
106.492615
 30
0.0
 11
65.886685
 21
107.27513
 31
0.0
  0
LINE
  5
D88
100
AcDbEntity
  8
ALPHA
100
AcDbLine
 10
66.473988
 20
106.492615
 30
0.0
 11
65.807261
 21
106.977926
 31
0.0
  0
LWPOLYLINE
  5
D89
100
AcDbEntity
  8
ALPHA
100
AcDbPolyline
 90
        3
 70
     0
 43
0.0
 10
65.807261
 20
107.425365
 10
65.792231
 20
107.429038
 10
65.777261
 20
107.432639
  0
LINE
  5
D8E
100
AcDbEntity
  8
ALPHA
100
AcDbLine
 10
65.777261
 20
107.305496
 30
0.0
 11
65.777261
 21
107.432639
 31
0.0
  0
LINE
  5
D8F
100
AcDbEntity
  8
ALPHA
100
AcDbLine
 10
65.777261
 20
107.305496
 30
0.0
 11
65.807261
 21
107.305496
 31
0.0
  0
LWPOLYLINE
  5
D90
100
AcDbEntity
  8
ALPHA
100
AcDbPolyline
 90
        3
 70
     0
 43
0.0
 10
62.979715
 20
107.27725
 10
62.979694
 20
107.299568
 10
62.979688
 20
107.32177
  0
LWPOLYLINE
  5
D95
100
AcDbEntity
  8
ALPHA
100
AcDbPolyline
 90
        3
 70
     0
 43
0.0
 10
63.118117
 20
108.466422
 10
63.067692
 20
108.343121
 10
62.986447
 20
108.005995
  0
LINE
  5
D9A
100
AcDbEntity
  8
ALPHA
100
AcDbLine
 10
64.140535
 20
108.790617
 30
0.0
 11
64.727838
 21
108.008103
 31
0.0
  0
LINE
  5
D9B
100
AcDbEntity
  8
ALPHA
100
AcDbLine
 10
64.66508
 20
108.005995
 30
0.0
 11
64.657261
 21
107.937658
 31
0.0
  0
LWPOLYLINE
  5
D9C
100
AcDbEntity
  8
ALPHA
100
AcDbPolyline
 90
        7
 70
     0
 43
0.0
 10
65.677261
 20
108.459952
 10
65.589286
 20
108.514391
 10
65.4519
 20
108.561734
 10
65.307261
 20
108.577783
 10
65.162623
 20
108.561734
 10
65.025237
 20
108.514391
 10
64.937261
 20
108.459952
  0
LINE
  5
DA5
100
AcDbEntity
  8
ALPHA
100
AcDbLine
 10
65.957261
 20
107.937658
 30
0.0
 11
65.949443
 21
108.005995
 31
0.0
  0
LINE
  5
DA6
100
AcDbEntity
  8
ALPHA
100
AcDbLine
 10
64.140535
 20
108.790617
 30
0.0
 11
64.807261
 21
108.305306
 31
0.0
  0
LWPOLYLINE
  5
DA7
100
AcDbEntity
  8
ALPHA
100
AcDbPolyline
 90
        3
 70
     0
 43
0.0
 10
62.979688
 20
107.961463
 10
62.957138
 20
107.641616
 10
62.979688
 20
107.32177
  0
LINE
  5
DAC
100
AcDbEntity
  8
ALPHA
100
AcDbLine
 10
62.65828
 20
107.68917
 30
0.0
 11
62.669725
 21
107.835801
 31
0.0
  0
LWPOLYLINE
  5
DAD
100
AcDbEntity
  8
ALPHA
100
AcDbPolyline
 90
       15
 70
     0
 43
0.0
 10
65.957261
 20
107.937658
 10
65.940965
 20
107.795217
 10
65.892891
 20
107.659918
 10
65.815452
 20
107.538547
 10
65.71253
 20
107.437188
 10
65.589286
 20
107.360925
 10
65.4519
 20
107.313582
 10
65.307261
 20
107.297533
 10
65.162623
 20
107.313582
 10
65.025237
 20
107.360925
 10
64.901993
 20
107.437188
 10
64.799071
 20
107.538547
 10
64.721632
 20
107.659918
 10
64.673558
 20
107.795217
 10
64.657261
 20
107.937658
  0
LWPOLYLINE
  5
DBE
100
AcDbEntity
  8
ALPHA
100
AcDbPolyline
 90
       10
 70
     0
 43
0.0
 10
64.707261
 20
107.554154
 10
64.723864
 20
107.557431
 10
64.738901
 20
107.557423
 10
64.755466
 20
107.55365
 10
64.769802
 20
107.546346
 10
64.78354
 20
107.534213
 10
64.79393
 20
107.519284
 10
64.801674
 20
107.500884
 10
64.805695
 20
107.483305
 10
64.807261
 20
107.462183
  0
LWPOLYLINE
  5
DCA
100
AcDbEntity
  8
ALPHA
100
AcDbPolyline
 90
        6
 70
     0
 43
0.0
 10
65.777261
 20
108.290304
 10
65.74636
 20
108.295124
 10
65.718483
 20
108.309112
 10
65.69636
 20
108.330899
 10
65.682156
 20
108.358352
 10
65.677261
 20
108.388784
  0
LINE
  5
DD2
100
AcDbEntity
  8
ALPHA
100
AcDbLine
 10
64.807261
 20
108.15858
 30
0.0
 11
64.807261
 21
108.305306
 31
0.0
  0
LWPOLYLINE
  5
DD3
100
AcDbEntity
  8
ALPHA
100
AcDbPolyline
 90
        5
 70
     0
 43
0.0
 10
65.807261
 20
105.181139
 10
65.558577
 20
105.146741
 10
65.307261
 20
105.135213
 10
65.055946
 20
105.146741
 10
64.807261
 20
105.181139
  0
LINE
  5
DDA
100
AcDbEntity
  8
ALPHA
100
AcDbLine
 10
65.807261
 20
107.173772
 30
0.0
 11
65.807261
 21
106.977926
 31
0.0
  0
LWPOLYLINE
  5
DDB
100
AcDbEntity
  8
ALPHA
100
AcDbPolyline
 90
        5
 70
     0
 43
0.0
 10
65.886685
 20
108.008103
 10
65.852418
 20
108.028452
 10
65.826989
 20
108.058165
 10
65.812153
 20
108.091566
 10
65.807261
 20
108.125905
  0
LINE
  5
DE2
100
AcDbEntity
  8
ALPHA
100
AcDbLine
 10
65.807261
 20
108.305306
 30
0.0
 11
65.807261
 21
108.15858
 31
0.0
  0
LINE
  5
DE3
100
AcDbEntity
  8
ALPHA
100
AcDbLine
 10
64.807261
 20
106.977926
 30
0.0
 11
64.807261
 21
107.173772
 31
0.0
  0
LINE
  5
DE4
100
AcDbEntity
  8
ALPHA
100
AcDbLine
 10
64.937261
 20
107.207015
 30
0.0
 11
64.937261
 21
107.327649
 31
0.0
  0
LINE
  5
DE5
100
AcDbEntity
  8
ALPHA
100
AcDbLine
 10
64.937261
 20
107.207015
 30
0.0
 11
64.937261
 21
106.828836
 31
0.0
  0
LINE
  5
DE6
100
AcDbEntity
  8
ALPHA
100
AcDbLine
 10
64.807261
 20
108.15858
 30
0.0
 11
64.807261
 21
108.125905
 31
0.0
  0
LINE
  5
DE7
100
AcDbEntity
  8
ALPHA
100
AcDbLine
 10
64.807261
 20
107.425365
 30
0.0
 11
64.807261
 21
107.462183
 31
0.0
  0
LINE
  5
DE8
100
AcDbEntity
  8
ALPHA
100
AcDbLine
 10
64.807261
 20
107.305496
 30
0.0
 11
64.807261
 21
107.425365
 31
0.0
  0
LINE
  5
DE9
100
AcDbEntity
  8
ALPHA
100
AcDbLine
 10
64.807261
 20
107.200185
 30
0.0
 11
64.807261
 21
107.305496
 31
0.0
  0
LINE
  5
DEA
100
AcDbEntity
  8
ALPHA
100
AcDbLine
 10
64.807261
 20
107.200185
 30
0.0
 11
64.807261
 21
107.173772
 31
0.0
  0
LINE
  5
DEB
100
AcDbEntity
  8
ALPHA
100
AcDbLine
 10
64.837261
 20
108.290304
 30
0.0
 11
64.807261
 21
108.290304
 31
0.0
  0
LINE
  5
DEC
100
AcDbEntity
  8
ALPHA
100
AcDbLine
 10
64.937261
 20
108.509418
 30
0.0
 11
64.937261
 21
108.388784
 31
0.0
  0
LINE
  5
DED
100
AcDbEntity
  8
ALPHA
100
AcDbLine
 10
64.937261
 20
108.766964
 30
0.0
 11
64.937261
 21
108.509418
 31
0.0
  0
LINE
  5
DEE
100
AcDbEntity
  8
ALPHA
100
AcDbLine
 10
65.677261
 20
108.388784
 30
0.0
 11
65.677261
 21
108.766964
 31
0.0
  0
LINE
  5
DEF
100
AcDbEntity
  8
ALPHA
100
AcDbLine
 10
65.807261
 20
108.290304
 30
0.0
 11
65.777261
 21
108.290304
 31
0.0
  0
LINE
  5
DF0
100
AcDbEntity
  8
ALPHA
100
AcDbLine
 10
65.907261
 20
108.005995
 30
0.0
 11
67.628076
 21
108.005995
 31
0.0
  0
LWPOLYLINE
  5
DF1
100
AcDbEntity
  8
ALPHA
100
AcDbPolyline
 90
        7
 70
     0
 43
0.0
 10
64.807261
 20
105.126244
 10
64.410844
 20
105.233396
 10
64.035529
 20
105.39998
 10
63.691019
 20
105.621779
 10
63.385557
 20
105.8934
 10
63.126368
 20
106.208374
 10
63.007383
 20
106.394734
  0
LINE
  5
DFA
100
AcDbEntity
  8
ALPHA
100
AcDbLine
 10
62.986447
 20
108.005995
 30
0.0
 11
64.707261
 21
108.005995
 31
0.0
  0
LINE
  5
DFB
100
AcDbEntity
  8
ALPHA
100
AcDbLine
 10
65.807261
 20
107.425365
 30
0.0
 11
65.807261
 21
107.462183
 31
0.0
  0
LINE
  5
DFC
100
AcDbEntity
  8
ALPHA
100
AcDbLine
 10
65.807261
 20
107.305496
 30
0.0
 11
65.807261
 21
107.425365
 31
0.0
  0
LINE
  5
DFD
100
AcDbEntity
  8
ALPHA
100
AcDbLine
 10
65.807261
 20
107.200185
 30
0.0
 11
65.807261
 21
107.305496
 31
0.0
  0
LINE
  5
DFE
100
AcDbEntity
  8
ALPHA
100
AcDbLine
 10
64.807261
 20
105.126188
 30
0.0
 11
64.807261
 21
105.380184
 31
0.0
  0
LWPOLYLINE
  5
DFF
100
AcDbEntity
  8
ALPHA
100
AcDbPolyline
 90
        7
 70
     0
 43
0.0
 10
67.607141
 20
106.394735
 10
67.488706
 20
106.209163
 10
67.229451
 20
105.893904
 10
66.923853
 20
105.622045
 10
66.579179
 20
105.40008
 10
66.203729
 20
105.233414
 10
65.807261
 20
105.126244
  0
LINE
  5
E08
100
AcDbEntity
  8
ALPHA
100
AcDbLine
 10
65.807261
 20
107.173772
 30
0.0
 11
65.807261
 21
107.200185
 31
0.0
  0
LINE
  5
E09
100
AcDbEntity
  8
ALPHA
100
AcDbLine
 10
65.807261
 20
108.125905
 30
0.0
 11
65.807261
 21
108.15858
 31
0.0
  0
LINE
  5
E0A
100
AcDbEntity
  8
ALPHA
100
AcDbLine
 10
65.677261
 20
107.207015
 30
0.0
 11
65.677261
 21
107.327649
 31
0.0
  0
LINE
  5
E0B
100
AcDbEntity
  8
ALPHA
100
AcDbLine
 10
65.677261
 20
106.828836
 30
0.0
 11
65.677261
 21
107.207015
 31
0.0
  0
LWPOLYLINE
  5
E0C
100
AcDbEntity
  8
ALPHA
100
AcDbPolyline
 90
        3
 70
     0
 43
0.0
 10
62.792645
 20
106.784121
 10
62.812443
 20
106.737051
 10
62.876186
 20
106.620877
  0
LINE
  5
E11
100
AcDbEntity
  8
ALPHA
100
AcDbLine
 10
62.687553
 20
107.033982
 30
0.0
 11
62.792645
 21
106.784121
 31
0.0
  0
LWPOLYLINE
  5
E12
100
AcDbEntity
  8
ALPHA
100
AcDbPolyline
 90
        3
 70
     0
 43
0.0
 10
62.637805
 20
107.163467
 10
62.644303
 20
107.13681
 10
62.687553
 20
107.033982
  0
LINE
  5
E17
100
AcDbEntity
  8
ALPHA
100
AcDbLine
 10
62.550726
 20
107.520667
 30
0.0
 11
62.637805
 21
107.163467
 31
0.0
  0
LWPOLYLINE
  5
E18
100
AcDbEntity
  8
ALPHA
100
AcDbPolyline
 90
        3
 70
     0
 43
0.0
 10
62.541484
 20
107.560673
 10
62.541734
 20
107.557551
 10
62.550726
 20
107.520667
  0
LINE
  5
E1D
100
AcDbEntity
  8
ALPHA
100
AcDbLine
 10
62.541282
 20
107.563207
 30
0.0
 11
62.541484
 21
107.560673
 31
0.0
  0
LINE
  5
E1E
100
AcDbEntity
  8
ALPHA
100
AcDbLine
 10
63.007353
 20
106.394786
 30
0.0
 11
62.876235
 21
106.620735
 31
0.0
  0
LINE
  5
E1F
100
AcDbEntity
  8
ALPHA
100
AcDbLine
 10
67.60717
 20
106.394786
 30
0.0
 11
67.738288
 21
106.620735
 31
0.0
  0
LINE
  5
E20
100
AcDbEntity
  8
ALPHA
100
AcDbLine
 10
68.063927
 20
107.521198
 30
0.0
 11
68.069231
 21
107.542956
 31
0.0
  0
LINE
  5
E21
100
AcDbEntity
  8
ALPHA
100
AcDbLine
 10
67.976706
 20
107.163417
 30
0.0
 11
68.063927
 21
107.521198
 31
0.0
  0
LWPOLYLINE
  5
E22
100
AcDbEntity
  8
ALPHA
100
AcDbPolyline
 90
        3
 70
     0
 43
0.0
 10
67.926984
 20
107.034017
 10
67.97022
 20
107.13681
 10
67.976706
 20
107.163417
  0
LINE
  5
E27
100
AcDbEntity
  8
ALPHA
100
AcDbLine
 10
67.82186
 20
106.78408
 30
0.0
 11
67.926984
 21
107.034017
 31
0.0
  0
LWPOLYLINE
  5
E28
100
AcDbEntity
  8
ALPHA
100
AcDbPolyline
 90
        3
 70
     0
 43
0.0
 10
67.738337
 20
106.620877
 10
67.80208
 20
106.737051
 10
67.82186
 20
106.78408
  0
LINE
  5
E2D
100
AcDbEntity
  8
ALPHA
100
AcDbLine
 10
65.677261
 20
107.207015
 30
0.0
 11
65.677261
 21
107.327649
 31
0.0
  0
LINE
  5
E2E
100
AcDbEntity
  8
ALPHA
100
AcDbLine
 10
65.807261
 20
107.425365
 30
0.0
 11
65.807261
 21
107.462183
 31
0.0
  0
LINE
  5
E2F
100
AcDbEntity
  8
ALPHA
100
AcDbLine
 10
65.807261
 20
107.305496
 30
0.0
 11
65.807261
 21
107.425365
 31
0.0
  0
LINE
  5
E30
100
AcDbEntity
  8
ALPHA
100
AcDbLine
 10
65.807261
 20
107.200185
 30
0.0
 11
65.807261
 21
107.305496
 31
0.0
  0
LINE
  5
E31
100
AcDbEntity
  8
ALPHA
100
AcDbLine
 10
64.807261
 20
106.977926
 30
0.0
 11
64.807261
 21
105.380184
 31
0.0
  0
LINE
  5
E32
100
AcDbEntity
  8
ALPHA
100
AcDbLine
 10
65.807261
 20
106.977926
 30
0.0
 11
65.807261
 21
105.380184
 31
0.0
  0
LWPOLYLINE
  5
E33
100
AcDbEntity
  8
ALPHA
100
AcDbPolyline
 90
        3
 70
     0
 43
0.0
 10
64.727838
 20
108.008103
 10
64.717748
 20
108.006538
 10
64.707261
 20
108.005995
  0
LINE
  5
E38
100
AcDbEntity
  8
ALPHA
100
AcDbLine
 10
64.807261
 20
109.388898
 30
0.0
 11
64.807261
 21
108.305306
 31
0.0
  0
LINE
  5
E39
100
AcDbEntity
  8
ALPHA
100
AcDbLine
 10
65.807261
 20
109.384526
 30
0.0
 11
65.807261
 21
108.305306
 31
0.0
  0
LWPOLYLINE
  5
E3A
100
AcDbEntity
  8
ALPHA
100
AcDbPolyline
 90
        3
 70
     0
 43
0.0
 10
65.907261
 20
108.005995
 10
65.896775
 20
108.006538
 10
65.886685
 20
108.008103
  0
LINE
  5
E3F
100
AcDbEntity
  8
ALPHA
100
AcDbLine
 10
65.807261
 20
105.380184
 30
0.0
 11
65.807261
 21
105.126188
 31
0.0
  0
LWPOLYLINE
  5
E40
100
AcDbEntity
  8
ALPHA
100
AcDbPolyline
 90
        6
 70
     0
 43
0.0
 10
64.937261
 20
108.388784
 10
64.932367
 20
108.358352
 10
64.918163
 20
108.330899
 10
64.89604
 20
108.309112
 10
64.868163
 20
108.295124
 10
64.837261
 20
108.290304
  0
LWPOLYLINE
  5
E48
100
AcDbEntity
  8
ALPHA
100
AcDbPolyline
 90
        3
 70
     0
 43
0.0
 10
67.628076
 20
108.005995
 10
67.631455
 20
108.005998
 10
67.634808
 20
108.006008
  0
LWPOLYLINE
  5
E4D
100
AcDbEntity
  8
ALPHA
100
AcDbPolyline
 90
        3
 70
     0
 43
0.0
 10
62.979715
 20
108.006008
 10
62.983068
 20
108.005998
 10
62.986447
 20
108.005995
  0
LWPOLYLINE
  5
E52
100
AcDbEntity
  8
ALPHA
100
AcDbPolyline
 90
        5
 70
     0
 43
0.0
 10
64.807261
 20
108.125905
 10
64.80237
 20
108.091566
 10
64.787529
 20
108.058159
 10
64.7621
 20
108.028448
 10
64.727838
 20
108.008103
  0
LINE
  5
E59
100
AcDbEntity
  8
ALPHA
100
AcDbLine
 10
77.781272
 20
107.563706
 30
0.0
 11
77.805475
 21
107.790432
 31
0.0
  0
LINE
  5
E5A
100
AcDbEntity
  8
ALPHA
100
AcDbLine
 10
77.767721
 20
107.436763
 30
0.0
 11
77.781272
 21
107.563706
 31
0.0
  0
LWPOLYLINE
  5
E5B
100
AcDbEntity
  8
ALPHA
100
AcDbPolyline
 90
        4
 70
     0
 43
0.0
 10
77.67094
 20
107.039766
 10
77.672248
 20
107.042983
 10
77.765096
 20
107.412172
 10
77.767721
 20
107.436763
  0
LINE
  5
E61
100
AcDbEntity
  8
ALPHA
100
AcDbLine
 10
77.655822
 20
107.00258
 30
0.0
 11
77.67094
 21
107.039766
 31
0.0
  0
LWPOLYLINE
  5
E62
100
AcDbEntity
  8
ALPHA
100
AcDbPolyline
 90
        3
 70
     0
 43
0.0
 10
77.512697
 20
106.662295
 10
77.528698
 20
106.689888
 10
77.655822
 20
107.00258
  0
LINE
  5
E67
100
AcDbEntity
  8
ALPHA
100
AcDbLine
 10
77.432617
 20
106.524194
 30
0.0
 11
77.512697
 21
106.662295
 31
0.0
  0
LWPOLYLINE
  5
E68
100
AcDbEntity
  8
ALPHA
100
AcDbPolyline
 90
        3
 70
     0
 43
0.0
 10
72.524705
 20
106.614703
 10
72.527706
 20
106.60798
 10
72.533308
 20
106.599023
  0
LINE
  5
E6D
100
AcDbEntity
  8
ALPHA
100
AcDbLine
 10
72.474958
 20
106.726174
 30
0.0
 11
72.524705
 21
106.614703
 31
0.0
  0
LWPOLYLINE
  5
E6E
100
AcDbEntity
  8
ALPHA
100
AcDbPolyline
 90
        3
 70
     0
 43
0.0
 10
72.359539
 20
107.000587
 10
72.372316
 20
106.956167
 10
72.474958
 20
106.726174
  0
LINE
  5
E73
100
AcDbEntity
  8
ALPHA
100
AcDbLine
 10
72.317543
 20
107.146582
 30
0.0
 11
72.359539
 21
107.000587
 31
0.0
  0
LWPOLYLINE
  5
E74
100
AcDbEntity
  8
ALPHA
100
AcDbPolyline
 90
        3
 70
     0
 43
0.0
 10
72.256484
 20
107.397045
 10
72.267055
 20
107.322099
 10
72.317543
 20
107.146582
  0
LINE
  5
E79
100
AcDbEntity
  8
ALPHA
100
AcDbLine
 10
72.233606
 20
107.559257
 30
0.0
 11
72.256484
 21
107.397045
 31
0.0
  0
LWPOLYLINE
  5
E7A
100
AcDbEntity
  8
ALPHA
100
AcDbPolyline
 90
        3
 70
     0
 43
0.0
 10
72.210982
 20
107.783052
 10
72.213923
 20
107.698814
 10
72.233606
 20
107.559257
  0
LWPOLYLINE
  5
E7F
100
AcDbEntity
  8
ALPHA
100
AcDbPolyline
 90
        3
 70
     0
 43
0.0
 10
62.687553
 20
107.033982
 10
62.76302
 20
106.837557
 10
62.792645
 20
106.784121
  0
LINE
  5
E84
100
AcDbEntity
  8
ALPHA
100
AcDbLine
 10
62.637805
 20
107.163467
 30
0.0
 11
62.687553
 21
107.033982
 31
0.0
  0
LWPOLYLINE
  5
E85
100
AcDbEntity
  8
ALPHA
100
AcDbPolyline
 90
        3
 70
     0
 43
0.0
 10
62.550726
 20
107.520667
 10
62.626347
 20
107.193288
 10
62.637805
 20
107.163467
  0
LINE
  5
E8A
100
AcDbEntity
  8
ALPHA
100
AcDbLine
 10
62.541484
 20
107.560673
 30
0.0
 11
62.550726
 21
107.520667
 31
0.0
  0
LINE
  5
E8B
100
AcDbEntity
  8
ALPHA
100
AcDbLine
 10
62.541032
 20
107.562634
 30
0.0
 11
62.541484
 21
107.560673
 31
0.0
  0
LINE
  5
E8C
100
AcDbEntity
  8
ALPHA
100
AcDbLine
 10
68.063927
 20
107.521198
 30
0.0
 11
68.06906
 21
107.543415
 31
0.0
  0
LWPOLYLINE
  5
E8D
100
AcDbEntity
  8
ALPHA
100
AcDbPolyline
 90
        3
 70
     0
 43
0.0
 10
67.976706
 20
107.163417
 10
67.988143
 20
107.193183
 10
68.063927
 20
107.521198
  0
LINE
  5
E92
100
AcDbEntity
  8
ALPHA
100
AcDbLine
 10
67.926984
 20
107.034017
 30
0.0
 11
67.976706
 21
107.163417
 31
0.0
  0
LWPOLYLINE
  5
E93
100
AcDbEntity
  8
ALPHA
100
AcDbPolyline
 90
        3
 70
     0
 43
0.0
 10
67.82186
 20
106.78408
 10
67.851461
 20
106.837468
 10
67.926984
 20
107.034017
  0
ENDSEC
  0
SECTION
  2
OBJECTS
  0
DICTIONARY
  5
17B5
100
AcDbDictionary
  3
ACAD_GROUP
350
17B6
  3
ACAD_MLINESTYLE
350
17C3
  3
ACDBVARIABLEDICTIONARY
350
17D3
  0
DICTIONARY
  5
17B6
102
{ACAD_REACTORS
330
17B5
102
}
100
AcDbDictionary
  0
DICTIONARY
  5
17C3
102
{ACAD_REACTORS
330
17B5
102
}
100
AcDbDictionary
  3
STANDARD
350
17C4
  0
DICTIONARY
  5
17D3
102
{ACAD_REACTORS
330
17B5
102
}
100
AcDbDictionary
  3
DIMADEC
350
17D4
  0
MLINESTYLE
  5
17C4
102
{ACAD_REACTORS
330
17C3
102
}
100
AcDbMlineStyle
  2
STANDARD
 70
     0
  3

 62
   256
 51
90.0
 52
90.0
 71
     2
 49
0.5
 62
   256
  6
BYLAYER
 49
-0.5
 62
   256
  6
BYLAYER
  0
DICTIONARYVAR
  5
17D4
102
{ACAD_REACTORS
330
17D3
102
}
100
DictionaryVariables
280
     0
  1
0
  0
ENDSEC
  0
EOF
