  0
SECTION
  2
HEADER
  9
$ACADVER
  1
AC1014
  9
$ACADMAINTVER
 70
     0
  9
$DWGCODEPAGE
  3
ANSI_1252
  9
$INSBASE
 10
129.218217
 20
102.528148
 30
0.0
  9
$EXTMIN
 10
97.594542
 20
69.537407
 30
0.0
  9
$EXTMAX
 10
155.732299
 20
123.997885
 30
0.0
  9
$LIMMIN
 10
0.0
 20
0.0
  9
$LIMMAX
 10
210.0
 20
297.0
  9
$ORTHOMODE
 70
     1
  9
$REGENMODE
 70
     1
  9
$FILLMODE
 70
     1
  9
$QTEXTMODE
 70
     0
  9
$MIRRTEXT
 70
     1
  9
$DRAGMODE
 70
     2
  9
$LTSCALE
 40
7.0
  9
$OSMODE
 70
     0
  9
$ATTMODE
 70
     1
  9
$TEXTSIZE
 40
0.2
  9
$TRACEWID
 40
0.05
  9
$TEXTSTYLE
  7
STANDARD
  9
$CLAYER
  8
COTATION1
  9
$CELTYPE
  6
BYLAYER
  9
$CECOLOR
 62
   256
  9
$CELTSCALE
 40
1.0
  9
$DELOBJ
 70
     1
  9
$DISPSILH
 70
     0
  9
$DIMSCALE
 40
1.0
  9
$DIMASZ
 40
3.0
  9
$DIMEXO
 40
0.0625
  9
$DIMDLI
 40
0.38
  9
$DIMRND
 40
0.01
  9
$DIMDLE
 40
0.0
  9
$DIMEXE
 40
0.18
  9
$DIMTP
 40
0.0
  9
$DIMTM
 40
0.0
  9
$DIMTXT
 40
2.5
  9
$DIMCEN
 40
0.09
  9
$DIMTSZ
 40
0.0
  9
$DIMTOL
 70
     0
  9
$DIMLIM
 70
     0
  9
$DIMTIH
 70
     0
  9
$DIMTOH
 70
     0
  9
$DIMSE1
 70
     0
  9
$DIMSE2
 70
     0
  9
$DIMTAD
 70
     1
  9
$DIMZIN
 70
    12
  9
$DIMBLK
  1

  9
$DIMASO
 70
     1
  9
$DIMSHO
 70
     1
  9
$DIMPOST
  1

  9
$DIMAPOST
  1

  9
$DIMALT
 70
     0
  9
$DIMALTD
 70
     2
  9
$DIMALTF
 40
25.4
  9
$DIMLFAC
 40
1.0
  9
$DIMTOFL
 70
     1
  9
$DIMTVP
 40
0.0
  9
$DIMTIX
 70
     0
  9
$DIMSOXD
 70
     0
  9
$DIMSAH
 70
     0
  9
$DIMBLK1
  1

  9
$DIMBLK2
  1

  9
$DIMSTYLE
  2
SC_STAND
  9
$DIMCLRD
 70
     0
  9
$DIMCLRE
 70
     0
  9
$DIMCLRT
 70
     0
  9
$DIMTFAC
 40
1.0
  9
$DIMGAP
 40
1.0
  9
$DIMJUST
 70
     0
  9
$DIMSD1
 70
     0
  9
$DIMSD2
 70
     0
  9
$DIMTOLJ
 70
     1
  9
$DIMTZIN
 70
    12
  9
$DIMALTZ
 70
    12
  9
$DIMALTTZ
 70
    12
  9
$DIMFIT
 70
     5
  9
$DIMUPT
 70
     0
  9
$DIMUNIT
 70
     2
  9
$DIMDEC
 70
     4
  9
$DIMTDEC
 70
     4
  9
$DIMALTU
 70
     2
  9
$DIMALTTD
 70
     2
  9
$DIMTXSTY
  7
STANDARD
  9
$DIMAUNIT
 70
     0
  9
$LUNITS
 70
     2
  9
$LUPREC
 70
     4
  9
$SKETCHINC
 40
0.1
  9
$FILLETRAD
 40
0.0
  9
$AUNITS
 70
     0
  9
$AUPREC
 70
     0
  9
$MENU
  1
acad
  9
$ELEVATION
 40
0.0
  9
$PELEVATION
 40
0.0
  9
$THICKNESS
 40
0.0
  9
$LIMCHECK
 70
     0
  9
$BLIPMODE
 70
     1
  9
$CHAMFERA
 40
0.0
  9
$CHAMFERB
 40
0.0
  9
$CHAMFERC
 40
0.0
  9
$CHAMFERD
 40
0.0
  9
$SKPOLY
 70
     0
  9
$TDCREATE
 40
2451086.447856365
  9
$TDUPDATE
 40
2451387.897870879
  9
$TDINDWG
 40
0.0000409838
  9
$TDUSRTIMER
 40
0.0000409838
  9
$USRTIMER
 70
     1
  9
$ANGBASE
 50
0.0
  9
$ANGDIR
 70
     0
  9
$PDMODE
 70
     0
  9
$PDSIZE
 40
0.0
  9
$PLINEWID
 40
0.0
  9
$COORDS
 70
     1
  9
$SPLFRAME
 70
     0
  9
$SPLINETYPE
 70
     6
  9
$SPLINESEGS
 70
     8
  9
$ATTDIA
 70
     0
  9
$ATTREQ
 70
     1
  9
$HANDLING
 70
     1
  9
$HANDSEED
  5
335
  9
$SURFTAB1
 70
     6
  9
$SURFTAB2
 70
     6
  9
$SURFTYPE
 70
     6
  9
$SURFU
 70
     6
  9
$SURFV
 70
     6
  9
$UCSNAME
  2

  9
$UCSORG
 10
0.0
 20
0.0
 30
0.0
  9
$UCSXDIR
 10
1.0
 20
0.0
 30
0.0
  9
$UCSYDIR
 10
0.0
 20
1.0
 30
0.0
  9
$PUCSNAME
  2

  9
$PUCSORG
 10
0.0
 20
0.0
 30
0.0
  9
$PUCSXDIR
 10
1.0
 20
0.0
 30
0.0
  9
$PUCSYDIR
 10
0.0
 20
1.0
 30
0.0
  9
$USERI1
 70
     0
  9
$USERI2
 70
     0
  9
$USERI3
 70
     0
  9
$USERI4
 70
     0
  9
$USERI5
 70
     0
  9
$USERR1
 40
0.0
  9
$USERR2
 40
0.0
  9
$USERR3
 40
0.0
  9
$USERR4
 40
0.0
  9
$USERR5
 40
0.0
  9
$WORLDVIEW
 70
     1
  9
$SHADEDGE
 70
     3
  9
$SHADEDIF
 70
    70
  9
$TILEMODE
 70
     1
  9
$MAXACTVP
 70
    16
  9
$PINSBASE
 10
0.0
 20
0.0
 30
0.0
  9
$PLIMCHECK
 70
     0
  9
$PEXTMIN
 10
1.000000E+20
 20
1.000000E+20
 30
1.000000E+20
  9
$PEXTMAX
 10
-1.000000E+20
 20
-1.000000E+20
 30
-1.000000E+20
  9
$PLIMMIN
 10
0.0
 20
0.0
  9
$PLIMMAX
 10
12.0
 20
9.0
  9
$UNITMODE
 70
     0
  9
$VISRETAIN
 70
     0
  9
$PLINEGEN
 70
     0
  9
$PSLTSCALE
 70
     1
  9
$TREEDEPTH
 70
  3020
  9
$PICKSTYLE
 70
     1
  9
$CMLSTYLE
  2
STANDARD
  9
$CMLJUST
 70
     0
  9
$CMLSCALE
 40
1.0
  9
$PROXYGRAPHICS
 70
     1
  9
$MEASUREMENT
 70
     0
  0
ENDSEC
  0
SECTION
  2
CLASSES
  0
CLASS
  1
DICTIONARYVAR
  2
AcDbDictionaryVar
  3
"AutoCAD"
 90
        0
280
     0
281
     0
  0
CLASS
  1
LWPOLYLINE
  2
AcDbPolyline
  3
"AutoCAD"
 90
        0
280
     0
281
     1
  0
ENDSEC
  0
SECTION
  2
TABLES
  0
TABLE
  2
VPORT
  5
309
100
AcDbSymbolTable
 70
     1
  0
VPORT
  5
330
100
AcDbSymbolTableRecord
100
AcDbViewportTableRecord
  2
*ACTIVE
 70
     0
 10
0.0
 20
0.0
 11
1.0
 21
1.0
 12
225.654671
 22
135.037441
 13
0.0
 23
0.0
 14
1.0
 24
1.0
 15
0.0
 25
0.0
 16
0.0
 26
0.0
 36
1.0
 17
0.0
 27
0.0
 37
0.0
 40
270.074882
 41
1.671053
 42
50.0
 43
0.0
 44
0.0
 50
0.0
 51
0.0
 71
     0
 72
   100
 73
     1
 74
     1
 75
     0
 76
     0
 77
     0
 78
     0
  0
ENDTAB
  0
TABLE
  2
LTYPE
  5
306
100
AcDbSymbolTable
 70
     2
  0
LTYPE
  5
312
100
AcDbSymbolTableRecord
100
AcDbLinetypeTableRecord
  2
BYBLOCK
 70
     0
  3

 72
    65
 73
     0
 40
0.0
  0
LTYPE
  5
313
100
AcDbSymbolTableRecord
100
AcDbLinetypeTableRecord
  2
BYLAYER
 70
     0
  3

 72
    65
 73
     0
 40
0.0
  0
LTYPE
  5
314
100
AcDbSymbolTableRecord
100
AcDbLinetypeTableRecord
  2
CONTINUOUS
 70
     0
  3
Solid line
 72
    65
 73
     0
 40
0.0
  0
LTYPE
  5
320
100
AcDbSymbolTableRecord
100
AcDbLinetypeTableRecord
  2
AXES2
 70
     0
  3
___ _ ___ _ ___ _ ___ _ ___ _ ___ _ ___ _ ___ _
 72
    65
 73
     4
 40
1.125
 49
0.75
 74
     0
 49
-0.125
 74
     0
 49
0.125
 74
     0
 49
-0.125
 74
     0
  0
ENDTAB
  0
TABLE
  2
LAYER
  5
303
100
AcDbSymbolTable
 70
     5
  0
LAYER
  5
30F
100
AcDbSymbolTableRecord
100
AcDbLayerTableRecord
  2
0
 70
     0
 62
     7
  6
CONTINUOUS
  0
LAYER
  5
323
100
AcDbSymbolTableRecord
100
AcDbLayerTableRecord
  2
AXE
 70
     0
 62
    80
  6
AXES2
  0
LAYER
  5
324
100
AcDbSymbolTableRecord
100
AcDbLayerTableRecord
  2
COTATION1
 70
     0
 62
     2
  6
CONTINUOUS
  0
LAYER
  5
325
100
AcDbSymbolTableRecord
100
AcDbLayerTableRecord
  2
ALPHA
 70
     0
 62
   255
  6
CONTINUOUS
  0
LAYER
  5
326
100
AcDbSymbolTableRecord
100
AcDbLayerTableRecord
  2
DEFPOINTS
 70
     0
 62
     7
  6
CONTINUOUS
  0
ENDTAB
  0
TABLE
  2
STYLE
  5
304
100
AcDbSymbolTable
 70
     2
  0
STYLE
  5
310
100
AcDbSymbolTableRecord
100
AcDbTextStyleTableRecord
  2
STANDARD
 70
     0
 40
0.0
 41
1.0
 50
0.0
 71
     0
 42
0.2
  3
txt
  4

  0
STYLE
  5
31F
100
AcDbSymbolTableRecord
100
AcDbTextStyleTableRecord
  2
ROMANS
 70
     0
 40
0.0
 41
1.0
 50
0.0
 71
     0
 42
2.9
  3
romans.shx
  4

  0
ENDTAB
  0
TABLE
  2
VIEW
  5
307
100
AcDbSymbolTable
 70
     0
  0
ENDTAB
  0
TABLE
  2
UCS
  5
308
100
AcDbSymbolTable
 70
     0
  0
ENDTAB
  0
TABLE
  2
APPID
  5
30A
100
AcDbSymbolTable
 70
     1
  0
APPID
  5
311
100
AcDbSymbolTableRecord
100
AcDbRegAppTableRecord
  2
ACAD
 70
     0
  0
ENDTAB
  0
TABLE
  2
DIMSTYLE
  5
30B
100
AcDbSymbolTable
 70
     1
  0
DIMSTYLE
105
322
102
{ACAD_REACTORS
330
1F
330
2D
102
}
100
AcDbSymbolTableRecord
100
AcDbDimStyleTableRecord
  2
SC_STAND
 70
     0
  3

  4

  5

  6

  7

 40
1.0
 41
3.0
 42
0.0625
 43
0.38
 44
0.18
 45
0.01
 46
0.0
 47
0.0
 48
0.0
140
2.5
141
0.09
142
0.0
143
25.4
144
1.0
145
0.0
146
1.0
147
1.0
 71
     0
 72
     0
 73
     0
 74
     0
 75
     0
 76
     0
 77
     1
 78
    12
170
     0
171
     2
172
     1
173
     0
174
     0
175
     0
176
     0
177
     0
178
     0
270
     2
271
     4
272
     4
273
     2
274
     2
340
310
275
     0
280
     0
281
     0
282
     0
283
     1
284
    12
285
    12
286
    12
287
     5
288
     0
  0
ENDTAB
  0
TABLE
  2
BLOCK_RECORD
  5
302
100
AcDbSymbolTable
 70
     2
  0
BLOCK_RECORD
  5
318
100
AcDbSymbolTableRecord
100
AcDbBlockTableRecord
  2
*MODEL_SPACE
  0
BLOCK_RECORD
  5
315
100
AcDbSymbolTableRecord
100
AcDbBlockTableRecord
  2
*PAPER_SPACE
  0
BLOCK_RECORD
  5
31D
100
AcDbSymbolTableRecord
100
AcDbBlockTableRecord
  2
*D0
  0
BLOCK_RECORD
  5
31E
100
AcDbSymbolTableRecord
100
AcDbBlockTableRecord
  2
*D1
  0
ENDTAB
  0
ENDSEC
  0
SECTION
  2
BLOCKS
  0
BLOCK
  5
329
100
AcDbEntity
  8
0
100
AcDbBlockBegin
  2
*MODEL_SPACE
 70
     0
 10
0.0
 20
0.0
 30
0.0
  3
*MODEL_SPACE
  1

  0
ENDBLK
  5
32A
100
AcDbEntity
  8
0
100
AcDbBlockEnd
  0
BLOCK
  5
327
100
AcDbEntity
 67
     1
  8
0
100
AcDbBlockBegin
  2
*PAPER_SPACE
 70
     0
 10
0.0
 20
0.0
 30
0.0
  3
*PAPER_SPACE
  1

  0
ENDBLK
  5
328
100
AcDbEntity
 67
     1
  8
0
100
AcDbBlockEnd
  0
BLOCK
  5
38
100
AcDbEntity
  8
0
100
AcDbBlockBegin
  2
*D0
 70
     1
 10
0.0
 20
0.0
 30
0.0
  3
*D0
  1
AVE_GLOBAL
  0
LINE
  5
2F
100
AcDbEntity
  8
0
  6
BYBLOCK
 62
     0
100
AcDbLine
 10
110.994542
 20
83.385385
 30
0.0
 11
110.994542
 21
69.857407
 31
0.0
  0
LINE
  5
30
100
AcDbEntity
  8
0
  6
BYBLOCK
 62
     0
100
AcDbLine
 10
143.194542
 20
86.685385
 30
0.0
 11
143.194542
 21
69.857407
 31
0.0
  0
LINE
  5
31
100
AcDbEntity
  8
0
  6
BYBLOCK
 62
     0
100
AcDbLine
 10
113.994542
 20
70.037407
 30
0.0
 11
140.194542
 21
70.037407
 31
0.0
  0
SOLID
  5
32
100
AcDbEntity
  8
0
  6
BYBLOCK
 62
     0
100
AcDbTrace
 10
113.994542
 20
70.537407
 30
0.0
 11
113.994542
 21
69.537407
 31
0.0
 12
110.994542
 22
70.037407
 32
0.0
 13
110.994542
 23
70.037407
 33
0.0
  0
SOLID
  5
33
100
AcDbEntity
  8
0
  6
BYBLOCK
 62
     0
100
AcDbTrace
 10
140.194542
 20
70.537407
 30
0.0
 11
140.194542
 21
69.537407
 31
0.0
 12
143.194542
 22
70.037407
 32
0.0
 13
143.194542
 23
70.037407
 33
0.0
  0
TEXT
  5
34
100
AcDbEntity
  8
0
  6
BYBLOCK
 62
     0
100
AcDbText
 10
122.927875
 20
71.037407
 30
0.0
 40
2.5
  1
32.2
  7
ROMANS
100
AcDbText
  0
POINT
  5
35
100
AcDbEntity
  8
DEFPOINTS
  6
BYBLOCK
 62
     0
100
AcDbPoint
 10
110.994542
 20
83.447885
 30
0.0
  0
POINT
  5
36
100
AcDbEntity
  8
DEFPOINTS
  6
BYBLOCK
 62
     0
100
AcDbPoint
 10
143.194542
 20
86.747885
 30
0.0
  0
POINT
  5
37
100
AcDbEntity
  8
DEFPOINTS
  6
BYBLOCK
 62
     0
100
AcDbPoint
 10
143.194542
 20
70.037407
 30
0.0
  0
ENDBLK
  5
39
100
AcDbEntity
  8
0
100
AcDbBlockEnd
  0
BLOCK
  5
2B
100
AcDbEntity
  8
0
100
AcDbBlockBegin
  2
*D1
 70
     1
 10
0.0
 20
0.0
 30
0.0
  3
*D1
  1
AVE_GLOBAL
  0
LINE
  5
21
100
AcDbEntity
  8
0
  6
BYBLOCK
 62
     0
100
AcDbLine
 10
139.135826
 20
85.247885
 30
0.0
 11
155.412299
 21
85.247885
 31
0.0
  0
LINE
  5
22
100
AcDbEntity
  8
0
  6
BYBLOCK
 62
     0
100
AcDbLine
 10
139.135826
 20
117.247885
 30
0.0
 11
155.412299
 21
117.247885
 31
0.0
  0
LINE
  5
23
100
AcDbEntity
  8
0
  6
BYBLOCK
 62
     0
100
AcDbLine
 10
155.232299
 20
88.247885
 30
0.0
 11
155.232299
 21
114.247885
 31
0.0
  0
SOLID
  5
24
100
AcDbEntity
  8
0
  6
BYBLOCK
 62
     0
100
AcDbTrace
 10
154.732299
 20
88.247885
 30
0.0
 11
155.732299
 21
88.247885
 31
0.0
 12
155.232299
 22
85.247885
 32
0.0
 13
155.232299
 23
85.247885
 33
0.0
  0
SOLID
  5
25
100
AcDbEntity
  8
0
  6
BYBLOCK
 62
     0
100
AcDbTrace
 10
154.732299
 20
114.247885
 30
0.0
 11
155.732299
 21
114.247885
 31
0.0
 12
155.232299
 22
117.247885
 32
0.0
 13
155.232299
 23
117.247885
 33
0.0
  0
TEXT
  5
26
100
AcDbEntity
  8
0
  6
BYBLOCK
 62
     0
100
AcDbText
 10
154.232299
 20
98.866933
 30
0.0
 40
2.5
  1
32
 50
90.0
  7
ROMANS
100
AcDbText
  0
POINT
  5
27
100
AcDbEntity
  8
DEFPOINTS
  6
BYBLOCK
 62
     0
100
AcDbPoint
 10
139.073326
 20
85.247885
 30
0.0
  0
POINT
  5
29
100
AcDbEntity
  8
DEFPOINTS
  6
BYBLOCK
 62
     0
100
AcDbPoint
 10
139.073326
 20
117.247885
 30
0.0
  0
POINT
  5
2A
100
AcDbEntity
  8
DEFPOINTS
  6
BYBLOCK
 62
     0
100
AcDbPoint
 10
155.232299
 20
117.247885
 30
0.0
  0
ENDBLK
  5
2C
100
AcDbEntity
  8
0
100
AcDbBlockEnd
  0
ENDSEC
  0
SECTION
  2
ENTITIES
  0
DIMENSION
  5
1F
100
AcDbEntity
  8
COTATION1
100
AcDbDimension
  2
*D1
 10
155.232299
 20
117.247885
 30
0.0
 11
152.982299
 21
101.247885
 31
0.0
  3
SC_STAND
100
AcDbAlignedDimension
 13
139.073326
 23
85.247885
 33
0.0
 14
139.073326
 24
117.247885
 34
0.0
 50
90.0
100
AcDbRotatedDimension
  0
DIMENSION
  5
2D
100
AcDbEntity
  8
COTATION1
100
AcDbDimension
  2
*D0
 10
143.194542
 20
70.037407
 30
0.0
 11
127.094542
 21
72.287407
 31
0.0
  3
SC_STAND
100
AcDbAlignedDimension
 13
110.994542
 23
83.447885
 33
0.0
 14
143.194542
 24
86.747885
 34
0.0
100
AcDbRotatedDimension
  0
LINE
  5
3A
100
AcDbEntity
  8
AXE
100
AcDbLine
 10
113.764542
 20
87.23186
 30
0.0
 11
113.764542
 21
84.048534
 31
0.0
  0
LWPOLYLINE
  5
3D
100
AcDbEntity
  8
AXE
100
AcDbPolyline
 90
        7
 70
     0
 43
0.0
 10
113.764542
 20
88.530875
 10
113.764542
 20
88.270404
 10
113.764542
 20
88.017848
 10
113.764542
 20
87.780881
 10
113.764542
 20
87.566705
 10
113.764542
 20
87.381825
 10
113.764542
 20
87.23186
  0
LINE
  5
46
100
AcDbEntity
  8
AXE
100
AcDbLine
 10
113.764542
 20
117.197824
 30
0.0
 11
113.764542
 21
88.530875
 31
0.0
  0
LWPOLYLINE
  5
47
100
AcDbEntity
  8
AXE
100
AcDbPolyline
 90
        9
 70
     0
 43
0.0
 10
113.764542
 20
119.197886
 10
113.764542
 20
119.159796
 10
113.764542
 20
119.046978
 10
113.764542
 20
118.863728
 10
113.764542
 20
118.612099
 10
113.764542
 20
118.310477
 10
113.764542
 20
117.966476
 10
113.764542
 20
117.5932
 10
113.764542
 20
117.197825
  0
LWPOLYLINE
  5
52
100
AcDbEntity
  8
AXE
100
AcDbPolyline
 90
        7
 70
     0
 43
0.0
 10
113.764542
 20
119.231182
 10
113.764542
 20
119.221107
 10
113.764542
 20
119.212831
 10
113.764542
 20
119.206364
 10
113.764542
 20
119.201715
 10
113.764542
 20
119.198888
 10
113.764542
 20
119.197886
  0
LINE
  5
5B
100
AcDbEntity
  8
AXE
100
AcDbLine
 10
113.764542
 20
119.897563
 30
0.0
 11
113.764542
 21
119.231182
 31
0.0
  0
LWPOLYLINE
  5
5C
100
AcDbEntity
  8
AXE
100
AcDbPolyline
 90
        7
 70
     0
 43
0.0
 10
113.764542
 20
119.897562
 10
113.764542
 20
119.915914
 10
113.764542
 20
119.92703
 10
113.764542
 20
119.930857
 10
113.764542
 20
119.927376
 10
113.764542
 20
119.916604
 10
113.764542
 20
119.897562
  0
LINE
  5
65
100
AcDbEntity
  8
AXE
100
AcDbLine
 10
113.764542
 20
119.231182
 30
0.0
 11
113.764542
 21
119.897563
 31
0.0
  0
LWPOLYLINE
  5
66
100
AcDbEntity
  8
AXE
100
AcDbPolyline
 90
        7
 70
     0
 43
0.0
 10
113.764542
 20
119.197886
 10
113.764542
 20
119.198799
 10
113.764542
 20
119.20154
 10
113.764542
 20
119.206103
 10
113.764542
 20
119.212484
 10
113.764542
 20
119.220674
 10
113.764542
 20
119.231182
  0
LWPOLYLINE
  5
6F
100
AcDbEntity
  8
AXE
100
AcDbPolyline
 90
        9
 70
     0
 43
0.0
 10
113.764542
 20
117.197825
 10
113.764542
 20
117.586294
 10
113.764542
 20
117.95997
 10
113.764542
 20
118.304618
 10
113.764542
 20
118.612056
 10
113.764542
 20
118.859821
 10
113.764542
 20
119.044283
 10
113.764542
 20
119.158416
 10
113.764542
 20
119.197886
  0
LINE
  5
7A
100
AcDbEntity
  8
AXE
100
AcDbLine
 10
113.764542
 20
88.530875
 30
0.0
 11
113.764542
 21
117.197824
 31
0.0
  0
LWPOLYLINE
  5
7B
100
AcDbEntity
  8
AXE
100
AcDbPolyline
 90
        7
 70
     0
 43
0.0
 10
113.764542
 20
87.23186
 10
113.764542
 20
87.381825
 10
113.764542
 20
87.566705
 10
113.764542
 20
87.780882
 10
113.764542
 20
88.017848
 10
113.764542
 20
88.270404
 10
113.764542
 20
88.530876
  0
LINE
  5
84
100
AcDbEntity
  8
AXE
100
AcDbLine
 10
113.764542
 20
84.048534
 30
0.0
 11
113.764542
 21
87.23186
 31
0.0
  0
LINE
  5
85
100
AcDbEntity
  8
ALPHA
100
AcDbLine
 10
122.794542
 20
89.447885
 30
0.0
 11
122.812155
 21
89.447885
 31
0.0
  0
ARC
  5
87
100
AcDbEntity
  8
ALPHA
100
AcDbCircle
 10
121.094542
 20
95.241448
 30
0.0
 40
0.5
100
AcDbArc
 50
52.0
 51
146.583573
  0
ARC
  5
88
100
AcDbEntity
  8
ALPHA
100
AcDbCircle
 10
122.894542
 20
91.032401
 30
0.0
 40
0.5
100
AcDbArc
 50
258.407956
 51
0.0
  0
LINE
  5
89
100
AcDbEntity
  8
ALPHA
100
AcDbLine
 10
122.794542
 20
89.455001
 30
0.0
 11
123.394542
 21
89.212586
 31
0.0
  0
LINE
  5
8A
100
AcDbEntity
  8
ALPHA
100
AcDbLine
 10
142.71784
 20
115.92139
 30
0.0
 11
142.71784
 21
113.747885
 31
0.0
  0
LINE
  5
8B
100
AcDbEntity
  8
ALPHA
100
AcDbLine
 10
139.073326
 20
117.247885
 30
0.0
 11
138.194542
 21
117.247885
 31
0.0
  0
LINE
  5
8C
100
AcDbEntity
  8
ALPHA
100
AcDbLine
 10
138.194542
 20
117.247885
 30
0.0
 11
138.194542
 21
115.138184
 31
0.0
  0
ARC
  5
8D
100
AcDbEntity
  8
ALPHA
100
AcDbCircle
 10
137.894542
 20
115.138184
 30
0.0
 40
0.3
100
AcDbArc
 50
260.0
 51
0.0
  0
LINE
  5
8E
100
AcDbEntity
  8
ALPHA
100
AcDbLine
 10
130.071285
 20
116.213007
 30
0.0
 11
137.842447
 21
114.842742
 31
0.0
  0
LINE
  5
8F
100
AcDbEntity
  8
ALPHA
100
AcDbLine
 10
130.071285
 20
116.213007
 30
0.0
 11
121.994542
 21
113.547885
 31
0.0
  0
LINE
  5
90
100
AcDbEntity
  8
ALPHA
100
AcDbLine
 10
121.994542
 20
113.547885
 30
0.0
 11
119.594542
 21
113.547885
 31
0.0
  0
LINE
  5
91
100
AcDbEntity
  8
ALPHA
100
AcDbLine
 10
119.594542
 20
113.347885
 30
0.0
 11
119.594542
 21
113.547885
 31
0.0
  0
LINE
  5
92
100
AcDbEntity
  8
ALPHA
100
AcDbLine
 10
119.594542
 20
105.047885
 30
0.0
 11
119.594542
 21
113.347885
 31
0.0
  0
LINE
  5
93
100
AcDbEntity
  8
ALPHA
100
AcDbLine
 10
119.594542
 20
105.047885
 30
0.0
 11
120.094542
 21
105.047885
 31
0.0
  0
LINE
  5
94
100
AcDbEntity
  8
ALPHA
100
AcDbLine
 10
120.094542
 20
97.447885
 30
0.0
 11
120.094542
 21
105.047885
 31
0.0
  0
LINE
  5
95
100
AcDbEntity
  8
ALPHA
100
AcDbLine
 10
119.594542
 20
97.447885
 30
0.0
 11
120.094542
 21
97.447885
 31
0.0
  0
LINE
  5
96
100
AcDbEntity
  8
ALPHA
100
AcDbLine
 10
119.594542
 20
97.447885
 30
0.0
 11
119.594542
 21
97.047885
 31
0.0
  0
LINE
  5
97
100
AcDbEntity
  8
ALPHA
100
AcDbLine
 10
119.594542
 20
97.047885
 30
0.0
 11
123.010203
 21
94.379278
 31
0.0
  0
ARC
  5
98
100
AcDbEntity
  8
ALPHA
100
AcDbCircle
 10
122.394542
 20
93.591267
 30
0.0
 40
1.0
100
AcDbArc
 50
0.0
 51
52.0
  0
LINE
  5
99
100
AcDbEntity
  8
ALPHA
100
AcDbLine
 10
123.394542
 20
93.591267
 30
0.0
 11
123.394542
 21
89.212586
 31
0.0
  0
LINE
  5
9A
100
AcDbEntity
  8
ALPHA
100
AcDbLine
 10
123.394542
 20
89.212586
 30
0.0
 11
130.47146
 21
86.353325
 31
0.0
  0
LINE
  5
9B
100
AcDbEntity
  8
ALPHA
100
AcDbLine
 10
137.842447
 20
87.653029
 30
0.0
 11
130.47146
 21
86.353325
 31
0.0
  0
ARC
  5
9C
100
AcDbEntity
  8
ALPHA
100
AcDbCircle
 10
137.894542
 20
87.357587
 30
0.0
 40
0.3
100
AcDbArc
 50
0.0
 51
100.0
  0
LINE
  5
9D
100
AcDbEntity
  8
ALPHA
100
AcDbLine
 10
138.194542
 20
85.247885
 30
0.0
 11
138.194542
 21
87.357587
 31
0.0
  0
LINE
  5
9E
100
AcDbEntity
  8
ALPHA
100
AcDbLine
 10
138.194542
 20
85.247885
 30
0.0
 11
139.073326
 21
85.247885
 31
0.0
  0
LINE
  5
9F
100
AcDbEntity
  8
ALPHA
100
AcDbLine
 10
143.194542
 20
86.747885
 30
0.0
 11
139.073326
 21
85.247885
 31
0.0
  0
LINE
  5
A0
100
AcDbEntity
  8
ALPHA
100
AcDbLine
 10
143.194542
 20
86.747885
 30
0.0
 11
143.194542
 21
113.347885
 31
0.0
  0
LINE
  5
A1
100
AcDbEntity
  8
ALPHA
100
AcDbLine
 10
142.71784
 20
113.747885
 30
0.0
 11
142.194542
 21
113.747885
 31
0.0
  0
LINE
  5
A2
100
AcDbEntity
  8
ALPHA
100
AcDbLine
 10
141.902971
 20
112.247885
 30
0.0
 11
142.194542
 21
113.747885
 31
0.0
  0
LINE
  5
A3
100
AcDbEntity
  8
ALPHA
100
AcDbLine
 10
139.194542
 20
112.247885
 30
0.0
 11
141.902971
 21
112.247885
 31
0.0
  0
LINE
  5
A4
100
AcDbEntity
  8
ALPHA
100
AcDbLine
 10
139.194542
 20
117.203766
 30
0.0
 11
139.194542
 21
112.247885
 31
0.0
  0
LINE
  5
A5
100
AcDbEntity
  8
ALPHA
100
AcDbLine
 10
139.073326
 20
117.247885
 30
0.0
 11
139.194542
 21
117.203766
 31
0.0
  0
LINE
  5
A6
100
AcDbEntity
  8
ALPHA
100
AcDbLine
 10
133.207519
 20
85.247885
 30
0.0
 11
130.47146
 21
86.353325
 31
0.0
  0
LINE
  5
A7
100
AcDbEntity
  8
ALPHA
100
AcDbLine
 10
133.207519
 20
85.247885
 30
0.0
 11
138.194542
 21
85.247885
 31
0.0
  0
LINE
  5
A8
100
AcDbEntity
  8
ALPHA
100
AcDbLine
 10
138.194542
 20
117.247885
 30
0.0
 11
133.207519
 21
117.247885
 31
0.0
  0
LINE
  5
A9
100
AcDbEntity
  8
ALPHA
100
AcDbLine
 10
121.994542
 20
113.547885
 30
0.0
 11
121.994542
 21
116.747885
 31
0.0
  0
LINE
  5
AA
100
AcDbEntity
  8
ALPHA
100
AcDbLine
 10
122.494542
 20
117.247885
 30
0.0
 11
133.207519
 21
117.247885
 31
0.0
  0
LINE
  5
AB
100
AcDbEntity
  8
ALPHA
100
AcDbLine
 10
122.494542
 20
117.247885
 30
0.0
 11
121.994542
 21
116.747885
 31
0.0
  0
LINE
  5
AC
100
AcDbEntity
  8
ALPHA
100
AcDbLine
 10
142.71784
 20
115.92139
 30
0.0
 11
139.194542
 21
117.203766
 31
0.0
  0
LINE
  5
AD
100
AcDbEntity
  8
ALPHA
100
AcDbLine
 10
133.207519
 20
117.247885
 30
0.0
 11
130.071285
 21
116.213007
 31
0.0
  0
LINE
  5
AE
100
AcDbEntity
  8
ALPHA
100
AcDbLine
 10
143.194542
 20
113.347885
 30
0.0
 11
142.71784
 21
113.747885
 31
0.0
  0
LINE
  5
AF
100
AcDbEntity
  8
ALPHA
100
AcDbLine
 10
143.194542
 20
115.747885
 30
0.0
 11
143.194542
 21
113.347885
 31
0.0
  0
LINE
  5
B0
100
AcDbEntity
  8
ALPHA
100
AcDbLine
 10
143.194542
 20
115.747885
 30
0.0
 11
142.71784
 21
115.92139
 31
0.0
  0
LINE
  5
B1
100
AcDbEntity
  8
ALPHA
100
AcDbLine
 10
120.094542
 20
99.147885
 30
0.0
 11
119.594542
 21
99.147885
 31
0.0
  0
LINE
  5
B2
100
AcDbEntity
  8
ALPHA
100
AcDbLine
 10
120.094542
 20
103.347885
 30
0.0
 11
119.594542
 21
103.347885
 31
0.0
  0
ARC
  5
B3
100
AcDbEntity
  8
ALPHA
100
AcDbCircle
 10
132.294542
 20
85.047885
 30
0.0
 40
0.3
100
AcDbArc
 50
270.0
 51
0.0
  0
ARC
  5
B4
100
AcDbEntity
  8
ALPHA
100
AcDbCircle
 10
126.554407
 20
87.612357
 30
0.0
 40
0.3
100
AcDbArc
 50
258.0
 51
68.0
  0
LINE
  5
B5
100
AcDbEntity
  8
ALPHA
100
AcDbLine
 10
126.492033
 20
87.318913
 30
0.0
 11
122.794542
 21
88.104839
 31
0.0
  0
LINE
  5
B6
100
AcDbEntity
  8
ALPHA
100
AcDbLine
 10
122.794542
 20
86.356402
 30
0.0
 11
128.797609
 21
84.747885
 31
0.0
  0
LINE
  5
B7
100
AcDbEntity
  8
ALPHA
100
AcDbLine
 10
128.797609
 20
84.747885
 30
0.0
 11
132.294542
 21
84.747885
 31
0.0
  0
LINE
  5
B8
100
AcDbEntity
  8
ALPHA
100
AcDbLine
 10
132.594542
 20
85.047885
 30
0.0
 11
132.594542
 21
85.495544
 31
0.0
  0
LINE
  5
B9
100
AcDbEntity
  8
ALPHA
100
AcDbLine
 10
116.207053
 20
83.747885
 30
0.0
 11
122.794542
 21
84.909437
 31
0.0
  0
LINE
  5
BA
100
AcDbEntity
  8
ALPHA
100
AcDbLine
 10
114.614542
 20
122.413911
 30
0.0
 11
116.914542
 21
122.413911
 31
0.0
  0
LINE
  5
BB
100
AcDbEntity
  8
ALPHA
100
AcDbLine
 10
112.994542
 20
118.795252
 30
0.0
 11
111.894542
 21
118.795252
 31
0.0
  0
LWPOLYLINE
  5
BC
100
AcDbEntity
  8
ALPHA
100
AcDbPolyline
 90
        6
 70
     0
 43
0.0
 10
116.207053
 20
83.747885
 10
116.234033
 20
83.439498
 10
116.258406
 20
83.16092
 10
116.277781
 20
82.939461
 10
116.290242
 20
82.797034
 10
116.294542
 20
82.747885
  0
LWPOLYLINE
  5
C4
100
AcDbEntity
  8
ALPHA
100
AcDbPolyline
 90
        7
 70
     0
 43
0.0
 10
111.79972
 20
121.68367
 10
112.0703
 20
121.694993
 10
112.32356
 20
121.687087
 10
112.544648
 20
121.659994
 10
112.717967
 20
121.614933
 10
112.830295
 20
121.554708
 10
112.873361
 20
121.482987
  0
LINE
  5
CD
100
AcDbEntity
  8
ALPHA
100
AcDbLine
 10
114.614542
 20
83.747885
 30
0.0
 11
116.207053
 21
83.747885
 31
0.0
  0
LINE
  5
CE
100
AcDbEntity
  8
ALPHA
100
AcDbLine
 10
111.724111
 20
122.547885
 30
0.0
 11
111.79972
 21
121.68367
 31
0.0
  0
LWPOLYLINE
  5
CF
100
AcDbEntity
  8
ALPHA
100
AcDbPolyline
 90
        7
 70
     0
 43
0.0
 10
111.894542
 20
120.049858
 10
112.178881
 20
120.062273
 10
112.443721
 20
120.073836
 10
112.672076
 20
120.083806
 10
112.847175
 20
120.091451
 10
112.956981
 20
120.096245
 10
112.994542
 20
120.097885
  0
LWPOLYLINE
  5
D8
100
AcDbEntity
  8
ALPHA
100
AcDbPolyline
 90
        4
 70
     0
 43
0.0
 10
111.79972
 20
121.68367
 10
111.783797
 20
121.682665
 10
111.767814
 20
121.682062
 10
111.75176
 20
121.68186
  0
LINE
  5
DE
100
AcDbEntity
  8
ALPHA
100
AcDbLine
 10
111.894542
 20
120.049858
 30
0.0
 11
111.75176
 21
121.68186
 31
0.0
  0
LINE
  5
DF
100
AcDbEntity
  8
ALPHA
100
AcDbLine
 10
111.894542
 20
118.795252
 30
0.0
 11
111.894542
 21
120.049858
 31
0.0
  0
LINE
  5
E0
100
AcDbEntity
  8
ALPHA
100
AcDbLine
 10
112.979795
 20
117.129697
 30
0.0
 11
113.014542
 21
117.111975
 31
0.0
  0
LWPOLYLINE
  5
E1
100
AcDbEntity
  8
ALPHA
100
AcDbPolyline
 90
        7
 70
     0
 43
0.0
 10
111.894542
 20
118.795252
 10
111.93714
 20
118.405291
 10
112.063582
 20
118.031929
 10
112.268352
 20
117.693456
 10
112.524681
 20
117.420406
 10
112.793239
 20
117.224846
 10
112.979795
 20
117.129697
  0
LINE
  5
EA
100
AcDbEntity
  8
ALPHA
100
AcDbLine
 10
112.997526
 20
118.775217
 30
0.0
 11
113.014542
 21
118.660985
 31
0.0
  0
LINE
  5
EB
100
AcDbEntity
  8
ALPHA
100
AcDbLine
 10
112.994542
 20
118.795252
 30
0.0
 11
112.997526
 21
118.775217
 31
0.0
  0
LINE
  5
EC
100
AcDbEntity
  8
ALPHA
100
AcDbLine
 10
112.994542
 20
87.947885
 30
0.0
 11
110.994542
 21
87.947885
 31
0.0
  0
LINE
  5
ED
100
AcDbEntity
  8
ALPHA
100
AcDbLine
 10
112.994542
 20
86.2493
 30
0.0
 11
110.994542
 21
86.2493
 31
0.0
  0
LINE
  5
EE
100
AcDbEntity
  8
ALPHA
100
AcDbLine
 10
112.994542
 20
87.068452
 30
0.0
 11
110.994542
 21
87.068452
 31
0.0
  0
LINE
  5
EF
100
AcDbEntity
  8
ALPHA
100
AcDbLine
 10
117.568132
 20
120.170535
 30
0.0
 11
114.614542
 21
120.170535
 31
0.0
  0
LINE
  5
F0
100
AcDbEntity
  8
ALPHA
100
AcDbLine
 10
119.81784
 20
117.124587
 30
0.0
 11
119.81784
 21
119.345336
 31
0.0
  0
LINE
  5
F1
100
AcDbEntity
  8
ALPHA
100
AcDbLine
 10
119.944542
 20
116.997885
 30
0.0
 11
119.81784
 21
117.124587
 31
0.0
  0
LINE
  5
F2
100
AcDbEntity
  8
ALPHA
100
AcDbLine
 10
119.594542
 20
117.124587
 30
0.0
 11
119.81784
 21
117.124587
 31
0.0
  0
LINE
  5
F3
100
AcDbEntity
  8
ALPHA
100
AcDbLine
 10
111.75176
 20
121.68186
 30
0.0
 11
110.994542
 21
121.68186
 31
0.0
  0
LINE
  5
F4
100
AcDbEntity
  8
ALPHA
100
AcDbLine
 10
116.914542
 20
121.03656
 30
0.0
 11
114.614542
 21
121.03656
 31
0.0
  0
LINE
  5
F5
100
AcDbEntity
  8
ALPHA
100
AcDbLine
 10
119.11784
 20
116.847885
 30
0.0
 11
119.11784
 21
119.27581
 31
0.0
  0
LINE
  5
F6
100
AcDbEntity
  8
ALPHA
100
AcDbLine
 10
119.11784
 20
113.747885
 30
0.0
 11
119.11784
 21
114.397885
 31
0.0
  0
LINE
  5
F7
100
AcDbEntity
  8
ALPHA
100
AcDbLine
 10
114.614542
 20
122.922079
 30
0.0
 11
116.914542
 21
122.922079
 31
0.0
  0
LINE
  5
F8
100
AcDbEntity
  8
ALPHA
100
AcDbLine
 10
114.614542
 20
116.897885
 30
0.0
 11
114.514542
 21
116.897885
 31
0.0
  0
LINE
  5
F9
100
AcDbEntity
  8
ALPHA
100
AcDbLine
 10
113.014542
 20
87.384519
 30
0.0
 11
112.994542
 21
87.275161
 31
0.0
  0
LINE
  5
FA
100
AcDbEntity
  8
ALPHA
100
AcDbLine
 10
114.614542
 20
87.881379
 30
0.0
 11
114.514542
 21
87.881379
 31
0.0
  0
LINE
  5
FB
100
AcDbEntity
  8
ALPHA
100
AcDbLine
 10
114.514542
 20
88.530898
 30
0.0
 11
114.614542
 21
88.530898
 31
0.0
  0
LINE
  5
FC
100
AcDbEntity
  8
ALPHA
100
AcDbLine
 10
112.994542
 20
88.530898
 30
0.0
 11
113.014542
 21
88.530898
 31
0.0
  0
ARC
  5
FD
100
AcDbEntity
  8
ALPHA
100
AcDbCircle
 10
117.214542
 20
120.748341
 30
0.0
 40
0.3
100
AcDbArc
 50
196.888772
 51
213.750303
  0
ARC
  5
FE
100
AcDbEntity
  8
ALPHA
100
AcDbCircle
 10
117.214542
 20
120.748341
 30
0.0
 40
0.3
100
AcDbArc
 50
213.750303
 51
242.602839
  0
ARC
  5
FF
100
AcDbEntity
  8
ALPHA
100
AcDbCircle
 10
117.214542
 20
120.748341
 30
0.0
 40
0.3
100
AcDbArc
 50
242.602839
 51
247.500605
  0
LINE
  5
100
100
AcDbEntity
  8
ALPHA
100
AcDbLine
 10
112.780194
 20
122.547885
 30
0.0
 11
112.873361
 21
121.482987
 31
0.0
  0
LINE
  5
101
100
AcDbEntity
  8
ALPHA
100
AcDbLine
 10
111.724111
 20
122.547885
 30
0.0
 11
112.780195
 21
122.547885
 31
0.0
  0
LINE
  5
102
100
AcDbEntity
  8
ALPHA
100
AcDbLine
 10
112.994542
 20
120.097885
 30
0.0
 11
112.873361
 21
121.482987
 31
0.0
  0
LINE
  5
103
100
AcDbEntity
  8
ALPHA
100
AcDbLine
 10
112.994542
 20
119.197885
 30
0.0
 11
112.994542
 21
120.097885
 31
0.0
  0
LINE
  5
104
100
AcDbEntity
  8
ALPHA
100
AcDbLine
 10
112.994542
 20
118.795252
 30
0.0
 11
112.994542
 21
119.197885
 31
0.0
  0
LINE
  5
105
100
AcDbEntity
  8
ALPHA
100
AcDbLine
 10
110.994542
 20
122.547885
 30
0.0
 11
110.994542
 21
121.68186
 31
0.0
  0
LINE
  5
106
100
AcDbEntity
  8
ALPHA
100
AcDbLine
 10
111.724111
 20
122.547885
 30
0.0
 11
110.994542
 21
122.547885
 31
0.0
  0
LINE
  5
107
100
AcDbEntity
  8
ALPHA
100
AcDbLine
 10
112.994542
 20
108.947885
 30
0.0
 11
113.014542
 21
108.927885
 31
0.0
  0
LINE
  5
108
100
AcDbEntity
  8
ALPHA
100
AcDbLine
 10
113.010918
 20
88.247885
 30
0.0
 11
112.994542
 21
88.247885
 31
0.0
  0
LINE
  5
109
100
AcDbEntity
  8
ALPHA
100
AcDbLine
 10
112.994542
 20
88.530898
 30
0.0
 11
112.994542
 21
93.747885
 31
0.0
  0
LINE
  5
10A
100
AcDbEntity
  8
ALPHA
100
AcDbLine
 10
112.994542
 20
88.434433
 30
0.0
 11
112.994542
 21
88.247885
 31
0.0
  0
LINE
  5
10B
100
AcDbEntity
  8
ALPHA
100
AcDbLine
 10
112.994542
 20
88.530898
 30
0.0
 11
112.994542
 21
88.434433
 31
0.0
  0
LINE
  5
10C
100
AcDbEntity
  8
ALPHA
100
AcDbLine
 10
112.994542
 20
84.048534
 30
0.0
 11
112.994542
 21
86.2493
 31
0.0
  0
LINE
  5
10D
100
AcDbEntity
  8
ALPHA
100
AcDbLine
 10
112.994542
 20
83.447885
 30
0.0
 11
112.994542
 21
84.048534
 31
0.0
  0
LINE
  5
10E
100
AcDbEntity
  8
ALPHA
100
AcDbLine
 10
112.994542
 20
87.068452
 30
0.0
 11
112.994542
 21
87.947885
 31
0.0
  0
LINE
  5
10F
100
AcDbEntity
  8
ALPHA
100
AcDbLine
 10
112.994542
 20
93.747885
 30
0.0
 11
113.014542
 21
93.767885
 31
0.0
  0
LINE
  5
110
100
AcDbEntity
  8
ALPHA
100
AcDbLine
 10
120.294542
 20
119.147885
 30
0.0
 11
119.81784
 21
119.345336
 31
0.0
  0
LINE
  5
111
100
AcDbEntity
  8
ALPHA
100
AcDbLine
 10
120.294542
 20
117.347885
 30
0.0
 11
120.294542
 21
119.147885
 31
0.0
  0
LINE
  5
112
100
AcDbEntity
  8
ALPHA
100
AcDbLine
 10
119.496061
 20
113.43052
 30
0.0
 11
119.11784
 21
113.747885
 31
0.0
  0
LINE
  5
113
100
AcDbEntity
  8
ALPHA
100
AcDbLine
 10
119.594542
 20
113.347885
 30
0.0
 11
119.496061
 21
113.43052
 31
0.0
  0
LINE
  5
114
100
AcDbEntity
  8
ALPHA
100
AcDbLine
 10
119.594542
 20
116.847885
 30
0.0
 11
119.594542
 21
119.000587
 31
0.0
  0
LINE
  5
115
100
AcDbEntity
  8
ALPHA
100
AcDbLine
 10
119.594542
 20
113.547885
 30
0.0
 11
119.594542
 21
114.047885
 31
0.0
  0
LINE
  5
116
100
AcDbEntity
  8
ALPHA
100
AcDbLine
 10
119.11784
 20
119.27581
 30
0.0
 11
119.594542
 21
119.000587
 31
0.0
  0
LINE
  5
117
100
AcDbEntity
  8
ALPHA
100
AcDbLine
 10
119.11784
 20
119.27581
 30
0.0
 11
117.568132
 21
120.170535
 31
0.0
  0
LINE
  5
118
100
AcDbEntity
  8
ALPHA
100
AcDbLine
 10
117.605831
 20
120.261552
 30
0.0
 11
119.81784
 21
119.345336
 31
0.0
  0
LINE
  5
119
100
AcDbEntity
  8
ALPHA
100
AcDbLine
 10
117.09974
 20
120.471176
 30
0.0
 11
117.605831
 21
120.261552
 31
0.0
  0
LINE
  5
11A
100
AcDbEntity
  8
ALPHA
100
AcDbLine
 10
118.241888
 20
111.747885
 30
0.0
 11
114.614542
 21
111.747885
 31
0.0
  0
LINE
  5
11B
100
AcDbEntity
  8
ALPHA
100
AcDbLine
 10
116.914542
 20
122.413911
 30
0.0
 11
116.914542
 21
121.03656
 31
0.0
  0
ARC
  5
11C
100
AcDbEntity
  8
ALPHA
100
AcDbCircle
 10
113.694542
 20
118.797885
 30
0.0
 40
0.7
100
AcDbArc
 50
180.0
 51
192.597822
  0
ARC
  5
11D
100
AcDbEntity
  8
ALPHA
100
AcDbCircle
 10
113.694542
 20
118.797885
 30
0.0
 40
0.7
100
AcDbArc
 50
192.597822
 51
195.005433
  0
ARC
  5
11E
100
AcDbEntity
  8
ALPHA
100
AcDbCircle
 10
113.694542
 20
118.797885
 30
0.0
 40
0.7
100
AcDbArc
 50
180.0
 51
192.577603
  0
LINE
  5
11F
100
AcDbEntity
  8
ALPHA
100
AcDbLine
 10
110.994542
 20
115.047885
 30
0.0
 11
111.294542
 21
114.747885
 31
0.0
  0
LINE
  5
120
100
AcDbEntity
  8
ALPHA
100
AcDbLine
 10
110.994542
 20
115.047885
 30
0.0
 11
110.994542
 21
121.68186
 31
0.0
  0
LINE
  5
121
100
AcDbEntity
  8
ALPHA
100
AcDbLine
 10
112.994542
 20
88.247885
 30
0.0
 11
110.994542
 21
88.247885
 31
0.0
  0
LINE
  5
122
100
AcDbEntity
  8
ALPHA
100
AcDbLine
 10
110.994542
 20
87.068452
 30
0.0
 11
110.994542
 21
86.2493
 31
0.0
  0
LINE
  5
123
100
AcDbEntity
  8
ALPHA
100
AcDbLine
 10
112.994542
 20
87.068452
 30
0.0
 11
112.994542
 21
86.2493
 31
0.0
  0
LINE
  5
124
100
AcDbEntity
  8
ALPHA
100
AcDbLine
 10
112.994542
 20
83.447885
 30
0.0
 11
110.994542
 21
83.447885
 31
0.0
  0
LINE
  5
125
100
AcDbEntity
  8
ALPHA
100
AcDbLine
 10
110.994542
 20
83.447885
 30
0.0
 11
110.994542
 21
86.2493
 31
0.0
  0
LINE
  5
126
100
AcDbEntity
  8
ALPHA
100
AcDbLine
 10
110.994542
 20
87.068452
 30
0.0
 11
110.994542
 21
87.947885
 31
0.0
  0
LINE
  5
127
100
AcDbEntity
  8
ALPHA
100
AcDbLine
 10
114.614542
 20
94.247885
 30
0.0
 11
114.514542
 21
94.247885
 31
0.0
  0
LINE
  5
128
100
AcDbEntity
  8
ALPHA
100
AcDbLine
 10
114.514542
 20
84.326909
 30
0.0
 11
114.614542
 21
84.326909
 31
0.0
  0
LINE
  5
129
100
AcDbEntity
  8
ALPHA
100
AcDbLine
 10
119.944542
 20
116.997885
 30
0.0
 11
119.794542
 21
116.847885
 31
0.0
  0
LINE
  5
12A
100
AcDbEntity
  8
ALPHA
100
AcDbLine
 10
120.294542
 20
117.347885
 30
0.0
 11
119.944542
 21
116.997885
 31
0.0
  0
LINE
  5
12B
100
AcDbEntity
  8
ALPHA
100
AcDbLine
 10
116.914542
 20
122.919687
 30
0.0
 11
116.914542
 21
122.547885
 31
0.0
  0
LINE
  5
12C
100
AcDbEntity
  8
ALPHA
100
AcDbLine
 10
114.614542
 20
118.097885
 30
0.0
 11
114.514542
 21
118.097885
 31
0.0
  0
LINE
  5
12D
100
AcDbEntity
  8
ALPHA
100
AcDbLine
 10
112.994542
 20
114.747885
 30
0.0
 11
111.294542
 21
114.747885
 31
0.0
  0
LINE
  5
12E
100
AcDbEntity
  8
ALPHA
100
AcDbLine
 10
114.614542
 20
108.247885
 30
0.0
 11
114.514542
 21
108.247885
 31
0.0
  0
LINE
  5
12F
100
AcDbEntity
  8
ALPHA
100
AcDbLine
 10
112.994542
 20
108.947885
 30
0.0
 11
112.994542
 21
114.747885
 31
0.0
  0
LINE
  5
130
100
AcDbEntity
  8
ALPHA
100
AcDbLine
 10
122.794542
 20
84.909437
 30
0.0
 11
122.794542
 21
83.894011
 31
0.0
  0
LINE
  5
131
100
AcDbEntity
  8
ALPHA
100
AcDbLine
 10
116.294542
 20
82.747885
 30
0.0
 11
122.794542
 21
83.894011
 31
0.0
  0
LINE
  5
132
100
AcDbEntity
  8
ALPHA
100
AcDbLine
 10
114.614542
 20
82.747885
 30
0.0
 11
116.294542
 21
82.747885
 31
0.0
  0
LINE
  5
133
100
AcDbEntity
  8
ALPHA
100
AcDbLine
 10
114.614542
 20
82.747885
 30
0.0
 11
114.614542
 21
83.747885
 31
0.0
  0
LINE
  5
134
100
AcDbEntity
  8
ALPHA
100
AcDbLine
 10
122.794542
 20
84.909437
 30
0.0
 11
122.794542
 21
93.892439
 31
0.0
  0
LINE
  5
135
100
AcDbEntity
  8
ALPHA
100
AcDbLine
 10
122.794542
 20
93.892439
 30
0.0
 11
119.594542
 21
96.347885
 31
0.0
  0
LINE
  5
136
100
AcDbEntity
  8
ALPHA
100
AcDbLine
 10
118.716228
 20
113.747885
 30
0.0
 11
119.11784
 21
113.747885
 31
0.0
  0
LINE
  5
137
100
AcDbEntity
  8
ALPHA
100
AcDbLine
 10
118.594542
 20
113.747885
 30
0.0
 11
118.716228
 21
113.747885
 31
0.0
  0
LINE
  5
138
100
AcDbEntity
  8
ALPHA
100
AcDbLine
 10
118.394588
 20
112.61389
 30
0.0
 11
118.594542
 21
113.747885
 31
0.0
  0
LINE
  5
139
100
AcDbEntity
  8
ALPHA
100
AcDbLine
 10
118.356818
 20
112.399688
 30
0.0
 11
118.394588
 21
112.61389
 31
0.0
  0
LINE
  5
13A
100
AcDbEntity
  8
ALPHA
100
AcDbLine
 10
118.352214
 20
112.373579
 30
0.0
 11
118.356818
 21
112.399688
 31
0.0
  0
LINE
  5
13B
100
AcDbEntity
  8
ALPHA
100
AcDbLine
 10
118.241888
 20
111.747885
 30
0.0
 11
118.352214
 21
112.373579
 31
0.0
  0
LINE
  5
13C
100
AcDbEntity
  8
ALPHA
100
AcDbLine
 10
114.614542
 20
122.413911
 30
0.0
 11
114.614542
 21
121.03656
 31
0.0
  0
LINE
  5
13D
100
AcDbEntity
  8
ALPHA
100
AcDbLine
 10
114.614542
 20
122.919687
 30
0.0
 11
114.614542
 21
123.997751
 31
0.0
  0
LINE
  5
13E
100
AcDbEntity
  8
ALPHA
100
AcDbLine
 10
114.614542
 20
120.170535
 30
0.0
 11
114.614542
 21
121.03656
 31
0.0
  0
LINE
  5
13F
100
AcDbEntity
  8
ALPHA
100
AcDbLine
 10
116.914542
 20
121.03656
 30
0.0
 11
116.914542
 21
120.72109
 31
0.0
  0
ARC
  5
140
100
AcDbEntity
  8
ALPHA
100
AcDbCircle
 10
117.214542
 20
120.72109
 30
0.0
 40
0.3
100
AcDbArc
 50
180.0
 51
240.0
  0
LINE
  5
141
100
AcDbEntity
  8
ALPHA
100
AcDbLine
 10
114.614542
 20
83.747885
 30
0.0
 11
114.614542
 21
111.747885
 31
0.0
  0
LINE
  5
142
100
AcDbEntity
  8
ALPHA
100
AcDbLine
 10
117.064542
 20
120.461283
 30
0.0
 11
117.568132
 21
120.170535
 31
0.0
  0
LINE
  5
143
100
AcDbEntity
  8
ALPHA
100
AcDbLine
 10
114.614542
 20
111.747885
 30
0.0
 11
114.614542
 21
120.170535
 31
0.0
  0
LINE
  5
144
100
AcDbEntity
  8
ALPHA
100
AcDbLine
 10
114.614542
 20
122.547885
 30
0.0
 11
116.914542
 21
122.547885
 31
0.0
  0
LINE
  5
145
100
AcDbEntity
  8
ALPHA
100
AcDbLine
 10
114.614542
 20
122.413911
 30
0.0
 11
114.614542
 21
122.547885
 31
0.0
  0
LINE
  5
146
100
AcDbEntity
  8
ALPHA
100
AcDbLine
 10
116.914542
 20
123.997885
 30
0.0
 11
114.614542
 21
123.997885
 31
0.0
  0
LINE
  5
147
100
AcDbEntity
  8
ALPHA
100
AcDbLine
 10
116.914542
 20
123.997751
 30
0.0
 11
116.914542
 21
122.919687
 31
0.0
  0
LINE
  5
148
100
AcDbEntity
  8
ALPHA
100
AcDbLine
 10
110.994542
 20
88.247885
 30
0.0
 11
112.994542
 21
88.247885
 31
0.0
  0
LINE
  5
149
100
AcDbEntity
  8
ALPHA
100
AcDbLine
 10
110.994542
 20
88.247885
 30
0.0
 11
110.994542
 21
87.947885
 31
0.0
  0
LINE
  5
14A
100
AcDbEntity
  8
ALPHA
100
AcDbLine
 10
112.994542
 20
88.247885
 30
0.0
 11
112.994542
 21
87.947885
 31
0.0
  0
LINE
  5
14B
100
AcDbEntity
  8
ALPHA
100
AcDbLine
 10
112.994542
 20
119.197885
 30
0.0
 11
112.994542
 21
118.795252
 31
0.0
  0
LINE
  5
14C
100
AcDbEntity
  8
ALPHA
100
AcDbLine
 10
112.994542
 20
120.097885
 30
0.0
 11
112.994542
 21
119.197885
 31
0.0
  0
LINE
  5
14D
100
AcDbEntity
  8
ALPHA
100
AcDbLine
 10
119.594542
 20
105.047885
 30
0.0
 11
119.594542
 21
113.347885
 31
0.0
  0
LINE
  5
14E
100
AcDbEntity
  8
ALPHA
100
AcDbLine
 10
119.594542
 20
97.447885
 30
0.0
 11
119.594542
 21
105.047885
 31
0.0
  0
LINE
  5
14F
100
AcDbEntity
  8
ALPHA
100
AcDbLine
 10
119.594542
 20
97.047885
 30
0.0
 11
119.594542
 21
97.447885
 31
0.0
  0
LINE
  5
150
100
AcDbEntity
  8
ALPHA
100
AcDbLine
 10
119.594542
 20
96.347885
 30
0.0
 11
119.594542
 21
97.047885
 31
0.0
  0
LINE
  5
151
100
AcDbEntity
  8
ALPHA
100
AcDbLine
 10
112.996881
 20
84.053449
 30
0.0
 11
113.014542
 21
84.116911
 31
0.0
  0
LINE
  5
152
100
AcDbEntity
  8
ALPHA
100
AcDbLine
 10
112.994542
 20
84.045042
 30
0.0
 11
112.996881
 21
84.053449
 31
0.0
  0
LINE
  5
153
100
AcDbEntity
  8
ALPHA
100
AcDbLine
 10
114.614542
 20
122.547885
 30
0.0
 11
114.614542
 21
122.919687
 31
0.0
  0
LINE
  5
154
100
AcDbEntity
  8
ALPHA
100
AcDbLine
 10
114.614542
 20
122.547885
 30
0.0
 11
116.914542
 21
122.547885
 31
0.0
  0
LINE
  5
155
100
AcDbEntity
  8
ALPHA
100
AcDbLine
 10
116.914542
 20
122.547885
 30
0.0
 11
116.914542
 21
122.413911
 31
0.0
  0
LINE
  5
156
100
AcDbEntity
  8
ALPHA
100
AcDbLine
 10
106.094542
 20
104.747885
 30
0.0
 11
106.094542
 21
103.496091
 31
0.0
  0
LINE
  5
157
100
AcDbEntity
  8
ALPHA
100
AcDbLine
 10
106.094542
 20
102.695433
 30
0.0
 11
104.594542
 21
102.818599
 31
0.0
  0
LINE
  5
158
100
AcDbEntity
  8
ALPHA
100
AcDbLine
 10
106.094542
 20
102.695433
 30
0.0
 11
106.094542
 21
103.496091
 31
0.0
  0
LINE
  5
159
100
AcDbEntity
  8
ALPHA
100
AcDbLine
 10
106.094542
 20
99.800337
 30
0.0
 11
104.594542
 21
99.677171
 31
0.0
  0
LINE
  5
15A
100
AcDbEntity
  8
ALPHA
100
AcDbLine
 10
106.094542
 20
99.800337
 30
0.0
 11
106.094542
 21
102.695433
 31
0.0
  0
LINE
  5
15B
100
AcDbEntity
  8
ALPHA
100
AcDbLine
 10
106.094542
 20
98.99968
 30
0.0
 11
104.594542
 21
99.677171
 31
0.0
  0
LINE
  5
15C
100
AcDbEntity
  8
ALPHA
100
AcDbLine
 10
106.094542
 20
98.99968
 30
0.0
 11
106.094542
 21
99.800337
 31
0.0
  0
LINE
  5
15D
100
AcDbEntity
  8
ALPHA
100
AcDbLine
 10
112.594542
 20
98.99968
 30
0.0
 11
112.594542
 21
97.747885
 31
0.0
  0
LINE
  5
15E
100
AcDbEntity
  8
ALPHA
100
AcDbLine
 10
106.094542
 20
98.99968
 30
0.0
 11
106.094542
 21
97.747885
 31
0.0
  0
LINE
  5
15F
100
AcDbEntity
  8
ALPHA
100
AcDbLine
 10
112.594542
 20
102.695433
 30
0.0
 11
106.094542
 21
102.695433
 31
0.0
  0
LINE
  5
160
100
AcDbEntity
  8
ALPHA
100
AcDbLine
 10
112.594542
 20
102.695433
 30
0.0
 11
112.594542
 21
103.496091
 31
0.0
  0
LINE
  5
161
100
AcDbEntity
  8
ALPHA
100
AcDbLine
 10
112.594542
 20
99.800337
 30
0.0
 11
106.094542
 21
99.800337
 31
0.0
  0
LINE
  5
162
100
AcDbEntity
  8
ALPHA
100
AcDbLine
 10
112.594542
 20
99.800337
 30
0.0
 11
112.594542
 21
102.695433
 31
0.0
  0
LINE
  5
163
100
AcDbEntity
  8
ALPHA
100
AcDbLine
 10
112.594542
 20
98.99968
 30
0.0
 11
106.094542
 21
98.99968
 31
0.0
  0
LINE
  5
164
100
AcDbEntity
  8
ALPHA
100
AcDbLine
 10
112.594542
 20
98.99968
 30
0.0
 11
112.594542
 21
99.800337
 31
0.0
  0
LINE
  5
165
100
AcDbEntity
  8
ALPHA
100
AcDbLine
 10
99.594542
 20
102.818599
 30
0.0
 11
97.594542
 21
102.747885
 31
0.0
  0
LINE
  5
166
100
AcDbEntity
  8
ALPHA
100
AcDbLine
 10
99.594542
 20
103.847885
 30
0.0
 11
99.594542
 21
102.818599
 31
0.0
  0
LINE
  5
167
100
AcDbEntity
  8
ALPHA
100
AcDbLine
 10
99.594542
 20
99.677171
 30
0.0
 11
97.594542
 21
99.747885
 31
0.0
  0
LINE
  5
168
100
AcDbEntity
  8
ALPHA
100
AcDbLine
 10
99.594542
 20
99.677171
 30
0.0
 11
99.594542
 21
102.818599
 31
0.0
  0
LINE
  5
169
100
AcDbEntity
  8
ALPHA
100
AcDbLine
 10
112.594542
 20
103.496091
 30
0.0
 11
106.094542
 21
103.496091
 31
0.0
  0
LINE
  5
16A
100
AcDbEntity
  8
ALPHA
100
AcDbLine
 10
112.594542
 20
104.747885
 30
0.0
 11
112.594542
 21
103.496091
 31
0.0
  0
LINE
  5
16B
100
AcDbEntity
  8
ALPHA
100
AcDbLine
 10
113.014542
 20
103.853342
 30
0.0
 11
112.594542
 21
103.496091
 31
0.0
  0
LINE
  5
16C
100
AcDbEntity
  8
ALPHA
100
AcDbLine
 10
114.550309
 20
105.159663
 30
0.0
 11
114.514542
 21
105.129239
 31
0.0
  0
LINE
  5
16D
100
AcDbEntity
  8
ALPHA
100
AcDbLine
 10
114.614542
 20
105.214299
 30
0.0
 11
114.550309
 21
105.159663
 31
0.0
  0
LINE
  5
16E
100
AcDbEntity
  8
ALPHA
100
AcDbLine
 10
113.014542
 20
103.164776
 30
0.0
 11
112.594542
 21
102.695433
 31
0.0
  0
LINE
  5
16F
100
AcDbEntity
  8
ALPHA
100
AcDbLine
 10
114.557869
 20
104.889421
 30
0.0
 11
114.514542
 21
104.841002
 31
0.0
  0
LINE
  5
170
100
AcDbEntity
  8
ALPHA
100
AcDbLine
 10
114.614542
 20
104.952751
 30
0.0
 11
114.557869
 21
104.889421
 31
0.0
  0
LINE
  5
171
100
AcDbEntity
  8
ALPHA
100
AcDbLine
 10
113.014542
 20
99.330994
 30
0.0
 11
112.594542
 21
99.800337
 31
0.0
  0
LINE
  5
172
100
AcDbEntity
  8
ALPHA
100
AcDbLine
 10
114.5439
 20
97.621961
 30
0.0
 11
114.514542
 21
97.654768
 31
0.0
  0
LINE
  5
173
100
AcDbEntity
  8
ALPHA
100
AcDbLine
 10
114.614542
 20
97.54302
 30
0.0
 11
114.5439
 21
97.621961
 31
0.0
  0
LINE
  5
174
100
AcDbEntity
  8
ALPHA
100
AcDbLine
 10
104.594542
 20
99.677171
 30
0.0
 11
104.594542
 21
98.647885
 31
0.0
  0
LINE
  5
175
100
AcDbEntity
  8
ALPHA
100
AcDbLine
 10
104.594542
 20
99.677171
 30
0.0
 11
99.594542
 21
99.677171
 31
0.0
  0
LINE
  5
176
100
AcDbEntity
  8
ALPHA
100
AcDbLine
 10
104.594542
 20
99.677171
 30
0.0
 11
104.594542
 21
102.818599
 31
0.0
  0
LINE
  5
177
100
AcDbEntity
  8
ALPHA
100
AcDbLine
 10
99.594542
 20
99.677171
 30
0.0
 11
99.594542
 21
98.647885
 31
0.0
  0
LINE
  5
178
100
AcDbEntity
  8
ALPHA
100
AcDbLine
 10
113.014542
 20
98.642428
 30
0.0
 11
112.594542
 21
98.99968
 31
0.0
  0
LINE
  5
179
100
AcDbEntity
  8
ALPHA
100
AcDbLine
 10
114.614542
 20
97.281471
 30
0.0
 11
114.514542
 21
97.366531
 31
0.0
  0
LINE
  5
17A
100
AcDbEntity
  8
ALPHA
100
AcDbLine
 10
104.594542
 20
102.818599
 30
0.0
 11
99.594542
 21
102.818599
 31
0.0
  0
LINE
  5
17B
100
AcDbEntity
  8
ALPHA
100
AcDbLine
 10
104.594542
 20
103.847885
 30
0.0
 11
104.594542
 21
102.818599
 31
0.0
  0
LINE
  5
17C
100
AcDbEntity
  8
ALPHA
100
AcDbLine
 10
106.094542
 20
103.496091
 30
0.0
 11
104.594542
 21
102.818599
 31
0.0
  0
LINE
  5
17D
100
AcDbEntity
  8
ALPHA
100
AcDbLine
 10
99.594542
 20
103.847885
 30
0.0
 11
97.594542
 21
102.747885
 31
0.0
  0
LINE
  5
17E
100
AcDbEntity
  8
ALPHA
100
AcDbLine
 10
97.594542
 20
99.747885
 30
0.0
 11
97.594542
 21
102.747885
 31
0.0
  0
LINE
  5
17F
100
AcDbEntity
  8
ALPHA
100
AcDbLine
 10
106.094542
 20
104.747885
 30
0.0
 11
104.594542
 21
103.847885
 31
0.0
  0
LINE
  5
180
100
AcDbEntity
  8
ALPHA
100
AcDbLine
 10
114.514542
 20
96.915885
 30
0.0
 11
114.614542
 21
96.872552
 31
0.0
  0
LINE
  5
181
100
AcDbEntity
  8
ALPHA
100
AcDbLine
 10
112.594542
 20
97.747885
 30
0.0
 11
113.014542
 21
97.565885
 31
0.0
  0
LINE
  5
182
100
AcDbEntity
  8
ALPHA
100
AcDbLine
 10
113.014542
 20
104.929885
 30
0.0
 11
112.594542
 21
104.747885
 31
0.0
  0
LINE
  5
183
100
AcDbEntity
  8
ALPHA
100
AcDbLine
 10
114.614542
 20
105.623219
 30
0.0
 11
114.514542
 21
105.579885
 31
0.0
  0
LINE
  5
184
100
AcDbEntity
  8
ALPHA
100
AcDbLine
 10
112.594542
 20
104.747885
 30
0.0
 11
106.094542
 21
104.747885
 31
0.0
  0
LINE
  5
185
100
AcDbEntity
  8
ALPHA
100
AcDbLine
 10
112.594542
 20
97.747885
 30
0.0
 11
106.094542
 21
97.747885
 31
0.0
  0
LINE
  5
186
100
AcDbEntity
  8
ALPHA
100
AcDbLine
 10
104.594542
 20
98.647885
 30
0.0
 11
106.094542
 21
97.747885
 31
0.0
  0
LINE
  5
187
100
AcDbEntity
  8
ALPHA
100
AcDbLine
 10
104.594542
 20
103.847885
 30
0.0
 11
99.594542
 21
103.847885
 31
0.0
  0
LINE
  5
188
100
AcDbEntity
  8
ALPHA
100
AcDbLine
 10
104.594542
 20
98.647885
 30
0.0
 11
99.594542
 21
98.647885
 31
0.0
  0
LINE
  5
189
100
AcDbEntity
  8
ALPHA
100
AcDbLine
 10
97.594542
 20
99.747885
 30
0.0
 11
99.594542
 21
98.647885
 31
0.0
  0
LINE
  5
18A
100
AcDbEntity
  8
ALPHA
100
AcDbLine
 10
120.094542
 20
103.247885
 30
0.0
 11
119.594542
 21
103.247885
 31
0.0
  0
LINE
  5
18B
100
AcDbEntity
  8
ALPHA
100
AcDbLine
 10
119.594542
 20
99.247885
 30
0.0
 11
120.094542
 21
99.247885
 31
0.0
  0
LINE
  5
18C
100
AcDbEntity
  8
ALPHA
100
AcDbLine
 10
120.794542
 20
114.047885
 30
0.0
 11
120.794542
 21
116.847885
 31
0.0
  0
LINE
  5
18D
100
AcDbEntity
  8
ALPHA
100
AcDbLine
 10
118.716228
 20
113.747885
 30
0.0
 11
118.818981
 21
114.276507
 31
0.0
  0
LINE
  5
18E
100
AcDbEntity
  8
ALPHA
100
AcDbLine
 10
115.994542
 20
115.847885
 30
0.0
 11
117.726593
 21
116.847885
 31
0.0
  0
LINE
  5
18F
100
AcDbEntity
  8
ALPHA
100
AcDbLine
 10
115.994542
 20
115.847885
 30
0.0
 11
115.994542
 21
114.547885
 31
0.0
  0
LINE
  5
190
100
AcDbEntity
  8
ALPHA
100
AcDbLine
 10
115.994542
 20
114.547885
 30
0.0
 11
118.103665
 21
112.34417
 31
0.0
  0
ARC
  5
191
100
AcDbEntity
  8
ALPHA
100
AcDbCircle
 10
118.212031
 20
112.447885
 30
0.0
 40
0.15
100
AcDbArc
 50
223.743561
 51
331.0
  0
ARC
  5
192
100
AcDbEntity
  8
ALPHA
100
AcDbCircle
 10
118.966225
 20
114.247885
 30
0.0
 40
0.15
100
AcDbArc
 50
90.0
 51
169.0
  0
LINE
  5
193
100
AcDbEntity
  8
ALPHA
100
AcDbLine
 10
119.166225
 20
114.397885
 30
0.0
 11
118.966225
 21
114.397885
 31
0.0
  0
ARC
  5
194
100
AcDbEntity
  8
ALPHA
100
AcDbCircle
 10
119.166225
 20
114.247885
 30
0.0
 40
0.15
100
AcDbArc
 50
0.0
 51
90.0
  0
LINE
  5
195
100
AcDbEntity
  8
ALPHA
100
AcDbLine
 10
119.316225
 20
114.197885
 30
0.0
 11
119.316225
 21
114.247885
 31
0.0
  0
ARC
  5
196
100
AcDbEntity
  8
ALPHA
100
AcDbCircle
 10
119.466225
 20
114.197885
 30
0.0
 40
0.15
100
AcDbArc
 50
180.0
 51
270.0
  0
LINE
  5
197
100
AcDbEntity
  8
ALPHA
100
AcDbLine
 10
121.894542
 20
116.847885
 30
0.0
 11
121.894542
 21
114.047885
 31
0.0
  0
LINE
  5
198
100
AcDbEntity
  8
ALPHA
100
AcDbLine
 10
121.894542
 20
114.047885
 30
0.0
 11
121.894542
 21
113.547885
 31
0.0
  0
LINE
  5
199
100
AcDbEntity
  8
ALPHA
100
AcDbLine
 10
120.794542
 20
116.847885
 30
0.0
 11
117.726593
 21
116.847885
 31
0.0
  0
LINE
  5
19A
100
AcDbEntity
  8
ALPHA
100
AcDbLine
 10
120.794542
 20
114.047885
 30
0.0
 11
119.466225
 21
114.047885
 31
0.0
  0
LINE
  5
19B
100
AcDbEntity
  8
ALPHA
100
AcDbLine
 10
121.894542
 20
116.847885
 30
0.0
 11
121.894542
 21
114.047885
 31
0.0
  0
LINE
  5
19C
100
AcDbEntity
  8
ALPHA
100
AcDbLine
 10
121.094542
 20
116.847885
 30
0.0
 11
120.794542
 21
116.847885
 31
0.0
  0
LINE
  5
19D
100
AcDbEntity
  8
ALPHA
100
AcDbLine
 10
121.894542
 20
116.847885
 30
0.0
 11
121.094542
 21
116.847885
 31
0.0
  0
LINE
  5
19E
100
AcDbEntity
  8
ALPHA
100
AcDbLine
 10
121.094542
 20
114.047885
 30
0.0
 11
120.794542
 21
114.047885
 31
0.0
  0
LINE
  5
19F
100
AcDbEntity
  8
ALPHA
100
AcDbLine
 10
121.894542
 20
114.047885
 30
0.0
 11
121.094542
 21
114.047885
 31
0.0
  0
LINE
  5
1A0
100
AcDbEntity
  8
ALPHA
100
AcDbLine
 10
121.094542
 20
114.047885
 30
0.0
 11
121.094542
 21
113.547885
 31
0.0
  0
LWPOLYLINE
  5
1A1
100
AcDbEntity
  8
ALPHA
100
AcDbPolyline
 90
        6
 70
     0
 43
0.0
 10
113.031681
 20
119.336995
 10
113.051249
 20
119.4578
 10
113.157779
 20
119.662235
 10
113.323703
 20
119.824476
 10
113.532779
 20
119.928641
 10
113.764542
 20
119.964533
  0
LINE
  5
1A9
100
AcDbEntity
  8
ALPHA
100
AcDbLine
 10
113.018806
 20
119.257508
 30
0.0
 11
113.031681
 21
119.336995
 31
0.0
  0
LINE
  5
1AA
100
AcDbEntity
  8
ALPHA
100
AcDbLine
 10
113.014542
 20
119.231182
 30
0.0
 11
113.018806
 21
119.257508
 31
0.0
  0
LWPOLYLINE
  5
1AB
100
AcDbEntity
  8
ALPHA
100
AcDbPolyline
 90
        6
 70
     0
 43
0.0
 10
113.045649
 20
120.089607
 10
113.051249
 20
120.124181
 10
113.157779
 20
120.328616
 10
113.323703
 20
120.490857
 10
113.532779
 20
120.595022
 10
113.764542
 20
120.630915
  0
LINE
  5
1B3
100
AcDbEntity
  8
ALPHA
100
AcDbLine
 10
113.019211
 20
119.926391
 30
0.0
 11
113.045649
 21
120.089607
 31
0.0
  0
LINE
  5
1B4
100
AcDbEntity
  8
ALPHA
100
AcDbLine
 10
113.014542
 20
119.897563
 30
0.0
 11
113.019211
 21
119.926391
 31
0.0
  0
LWPOLYLINE
  5
1B5
100
AcDbEntity
  8
ALPHA
100
AcDbPolyline
 90
        6
 70
     0
 43
0.0
 10
113.764542
 20
117.197802
 10
113.996304
 20
117.197803
 10
114.205381
 20
117.197806
 10
114.371304
 20
117.197811
 10
114.477834
 20
117.197817
 10
114.514542
 20
117.197824
  0
LWPOLYLINE
  5
1BD
100
AcDbEntity
  8
ALPHA
100
AcDbPolyline
 90
        6
 70
     0
 43
0.0
 10
113.014542
 20
117.197824
 10
113.051249
 20
117.197817
 10
113.157779
 20
117.197811
 10
113.323703
 20
117.197806
 10
113.532779
 20
117.197803
 10
113.764542
 20
117.197802
  0
LWPOLYLINE
  5
1C5
100
AcDbEntity
  8
ALPHA
100
AcDbPolyline
 90
        6
 70
     0
 43
0.0
 10
113.764542
 20
120.630915
 10
113.996304
 20
120.595022
 10
114.205381
 20
120.490857
 10
114.371304
 20
120.328616
 10
114.477834
 20
120.124181
 10
114.514542
 20
119.897563
  0
LWPOLYLINE
  5
1CD
100
AcDbEntity
  8
ALPHA
100
AcDbPolyline
 90
        6
 70
     0
 43
0.0
 10
113.014542
 20
88.530875
 10
113.051249
 20
88.530868
 10
113.157779
 20
88.530862
 10
113.323703
 20
88.530857
 10
113.532779
 20
88.530853
 10
113.764542
 20
88.530852
  0
LINE
  5
1D5
100
AcDbEntity
  8
ALPHA
100
AcDbLine
 10
114.510277
 20
119.257508
 30
0.0
 11
114.514542
 21
119.231182
 31
0.0
  0
LINE
  5
1D6
100
AcDbEntity
  8
ALPHA
100
AcDbLine
 10
114.497402
 20
119.336995
 30
0.0
 11
114.510277
 21
119.257508
 31
0.0
  0
LWPOLYLINE
  5
1D7
100
AcDbEntity
  8
ALPHA
100
AcDbPolyline
 90
        6
 70
     0
 43
0.0
 10
113.764542
 20
119.964533
 10
113.996304
 20
119.928641
 10
114.205381
 20
119.824476
 10
114.371304
 20
119.662235
 10
114.477834
 20
119.4578
 10
114.497402
 20
119.336995
  0
LWPOLYLINE
  5
1DF
100
AcDbEntity
  8
ALPHA
100
AcDbPolyline
 90
        6
 70
     0
 43
0.0
 10
113.042812
 20
87.07728
 10
113.051249
 20
87.031144
 10
113.157779
 20
86.850075
 10
113.323703
 20
86.706379
 10
113.532779
 20
86.61412
 10
113.764542
 20
86.582329
  0
LINE
  5
1E7
100
AcDbEntity
  8
ALPHA
100
AcDbLine
 10
113.014542
 20
87.23186
 30
0.0
 11
113.042812
 21
87.07728
 31
0.0
  0
LWPOLYLINE
  5
1E8
100
AcDbEntity
  8
ALPHA
100
AcDbPolyline
 90
        6
 70
     0
 43
0.0
 10
113.764542
 20
88.530852
 10
113.996304
 20
88.530853
 10
114.205381
 20
88.530857
 10
114.371304
 20
88.530862
 10
114.477834
 20
88.530868
 10
114.514542
 20
88.530875
  0
LWPOLYLINE
  5
1F0
100
AcDbEntity
  8
ALPHA
100
AcDbPolyline
 90
        6
 70
     0
 43
0.0
 10
113.764542
 20
86.582329
 10
113.996304
 20
86.61412
 10
114.205381
 20
86.706379
 10
114.371304
 20
86.850075
 10
114.477834
 20
87.031144
 10
114.514542
 20
87.23186
  0
LINE
  5
1F8
100
AcDbEntity
  8
ALPHA
100
AcDbLine
 10
114.514542
 20
119.197885
 30
0.0
 11
114.514542
 21
119.231182
 31
0.0
  0
LINE
  5
1F9
100
AcDbEntity
  8
ALPHA
100
AcDbLine
 10
113.014542
 20
119.197885
 30
0.0
 11
113.014542
 21
119.231182
 31
0.0
  0
ARC
  5
1FA
100
AcDbEntity
  8
AXE
100
AcDbCircle
 10
113.764542
 20
119.197885
 30
0.0
 40
0.75
100
AcDbArc
 50
72.764491
 51
90.0
  0
ARC
  5
1FB
100
AcDbEntity
  8
AXE
100
AcDbCircle
 10
113.764542
 20
119.197885
 30
0.0
 40
0.75
100
AcDbArc
 50
67.098929
 51
72.764491
  0
ARC
  5
1FC
100
AcDbEntity
  8
ALPHA
100
AcDbCircle
 10
113.764542
 20
119.197885
 30
0.0
 40
0.75
100
AcDbArc
 50
55.522078
 51
67.098929
  0
ARC
  5
1FD
100
AcDbEntity
  8
ALPHA
100
AcDbCircle
 10
113.764542
 20
119.197885
 30
0.0
 40
0.75
100
AcDbArc
 50
48.777542
 51
55.522078
  0
ARC
  5
1FE
100
AcDbEntity
  8
ALPHA
100
AcDbCircle
 10
113.764542
 20
119.197885
 30
0.0
 40
0.75
100
AcDbArc
 50
38.268355
 51
48.777542
  0
ARC
  5
1FF
100
AcDbEntity
  8
ALPHA
100
AcDbCircle
 10
113.764542
 20
119.197885
 30
0.0
 40
0.75
100
AcDbArc
 50
31.109637
 51
38.268355
  0
ARC
  5
200
100
AcDbEntity
  8
ALPHA
100
AcDbCircle
 10
113.764542
 20
119.197885
 30
0.0
 40
0.75
100
AcDbArc
 50
20.996429
 51
31.109637
  0
ARC
  5
201
100
AcDbEntity
  8
ALPHA
100
AcDbCircle
 10
113.764542
 20
119.197885
 30
0.0
 40
0.75
100
AcDbArc
 50
13.658673
 51
20.996429
  0
ARC
  5
202
100
AcDbEntity
  8
ALPHA
100
AcDbCircle
 10
113.764542
 20
119.197885
 30
0.0
 40
0.75
100
AcDbArc
 50
0.0
 51
13.658673
  0
LINE
  5
203
100
AcDbEntity
  8
ALPHA
100
AcDbLine
 10
113.014542
 20
119.231182
 30
0.0
 11
113.014542
 21
119.897563
 31
0.0
  0
LINE
  5
204
100
AcDbEntity
  8
ALPHA
100
AcDbLine
 10
114.514542
 20
119.231182
 30
0.0
 11
114.514542
 21
119.897563
 31
0.0
  0
LINE
  5
205
100
AcDbEntity
  8
ALPHA
100
AcDbLine
 10
114.514542
 20
119.197885
 30
0.0
 11
114.514542
 21
117.197824
 31
0.0
  0
LINE
  5
206
100
AcDbEntity
  8
ALPHA
100
AcDbLine
 10
113.014542
 20
119.897563
 30
0.0
 11
113.014542
 21
119.927147
 31
0.0
  0
LINE
  5
207
100
AcDbEntity
  8
ALPHA
100
AcDbLine
 10
113.014542
 20
119.927147
 30
0.0
 11
113.014542
 21
119.930859
 31
0.0
  0
ARC
  5
208
100
AcDbEntity
  8
ALPHA
100
AcDbCircle
 10
113.764542
 20
119.930859
 30
0.0
 40
0.75
100
AcDbArc
 50
171.818182
 51
180.0
  0
ARC
  5
209
100
AcDbEntity
  8
ALPHA
100
AcDbCircle
 10
113.764542
 20
119.930859
 30
0.0
 40
0.75
100
AcDbArc
 50
167.980663
 51
171.818182
  0
ARC
  5
20A
100
AcDbEntity
  8
ALPHA
100
AcDbCircle
 10
113.764542
 20
119.930859
 30
0.0
 40
0.75
100
AcDbArc
 50
90.0
 51
167.980663
  0
ARC
  5
20B
100
AcDbEntity
  8
ALPHA
100
AcDbCircle
 10
113.764542
 20
119.197885
 30
0.0
 40
0.75
100
AcDbArc
 50
166.341327
 51
180.0
  0
ARC
  5
20C
100
AcDbEntity
  8
ALPHA
100
AcDbCircle
 10
113.764542
 20
119.197885
 30
0.0
 40
0.75
100
AcDbArc
 50
159.003571
 51
166.341327
  0
ARC
  5
20D
100
AcDbEntity
  8
ALPHA
100
AcDbCircle
 10
113.764542
 20
119.197885
 30
0.0
 40
0.75
100
AcDbArc
 50
148.890363
 51
159.003571
  0
ARC
  5
20E
100
AcDbEntity
  8
ALPHA
100
AcDbCircle
 10
113.764542
 20
119.197885
 30
0.0
 40
0.75
100
AcDbArc
 50
141.731645
 51
148.890363
  0
ARC
  5
20F
100
AcDbEntity
  8
ALPHA
100
AcDbCircle
 10
113.764542
 20
119.197885
 30
0.0
 40
0.75
100
AcDbArc
 50
131.222458
 51
141.731645
  0
ARC
  5
210
100
AcDbEntity
  8
ALPHA
100
AcDbCircle
 10
113.764542
 20
119.197885
 30
0.0
 40
0.75
100
AcDbArc
 50
124.477922
 51
131.222458
  0
ARC
  5
211
100
AcDbEntity
  8
ALPHA
100
AcDbCircle
 10
113.764542
 20
119.197885
 30
0.0
 40
0.75
100
AcDbArc
 50
112.901071
 51
124.477922
  0
ARC
  5
212
100
AcDbEntity
  8
AXE
100
AcDbCircle
 10
113.764542
 20
119.197885
 30
0.0
 40
0.75
100
AcDbArc
 50
107.235509
 51
112.901071
  0
ARC
  5
213
100
AcDbEntity
  8
AXE
100
AcDbCircle
 10
113.764542
 20
119.197885
 30
0.0
 40
0.75
100
AcDbArc
 50
90.0
 51
107.235509
  0
ARC
  5
214
100
AcDbEntity
  8
AXE
100
AcDbCircle
 10
113.764542
 20
119.197885
 30
0.0
 40
0.75
100
AcDbArc
 50
90.0
 51
107.214246
  0
ARC
  5
215
100
AcDbEntity
  8
AXE
100
AcDbCircle
 10
113.764542
 20
119.197885
 30
0.0
 40
0.75
100
AcDbArc
 50
107.214246
 51
112.917115
  0
ARC
  5
216
100
AcDbEntity
  8
ALPHA
100
AcDbCircle
 10
113.764542
 20
119.197885
 30
0.0
 40
0.75
100
AcDbArc
 50
112.917115
 51
124.441854
  0
ARC
  5
217
100
AcDbEntity
  8
ALPHA
100
AcDbCircle
 10
113.764542
 20
119.197885
 30
0.0
 40
0.75
100
AcDbArc
 50
124.441854
 51
131.250277
  0
ARC
  5
218
100
AcDbEntity
  8
ALPHA
100
AcDbCircle
 10
113.764542
 20
119.197885
 30
0.0
 40
0.75
100
AcDbArc
 50
131.250277
 51
141.686524
  0
ARC
  5
219
100
AcDbEntity
  8
ALPHA
100
AcDbCircle
 10
113.764542
 20
119.197885
 30
0.0
 40
0.75
100
AcDbArc
 50
141.686524
 51
148.927829
  0
ARC
  5
21A
100
AcDbEntity
  8
ALPHA
100
AcDbCircle
 10
113.764542
 20
119.197885
 30
0.0
 40
0.75
100
AcDbArc
 50
148.927829
 51
158.954457
  0
ARC
  5
21B
100
AcDbEntity
  8
ALPHA
100
AcDbCircle
 10
113.764542
 20
119.197885
 30
0.0
 40
0.75
100
AcDbArc
 50
158.954457
 51
166.385959
  0
ARC
  5
21C
100
AcDbEntity
  8
ALPHA
100
AcDbCircle
 10
113.764542
 20
119.197885
 30
0.0
 40
0.75
100
AcDbArc
 50
166.385959
 51
180.0
  0
LINE
  5
21D
100
AcDbEntity
  8
ALPHA
100
AcDbLine
 10
113.014542
 20
118.800336
 30
0.0
 11
113.014542
 21
119.197885
 31
0.0
  0
LINE
  5
21E
100
AcDbEntity
  8
ALPHA
100
AcDbLine
 10
113.014542
 20
118.761532
 30
0.0
 11
113.014542
 21
118.800336
 31
0.0
  0
LINE
  5
21F
100
AcDbEntity
  8
ALPHA
100
AcDbLine
 10
113.014542
 20
117.197824
 30
0.0
 11
113.014542
 21
118.761532
 31
0.0
  0
LINE
  5
220
100
AcDbEntity
  8
ALPHA
100
AcDbLine
 10
114.514542
 20
119.897563
 30
0.0
 11
114.514542
 21
119.927147
 31
0.0
  0
LINE
  5
221
100
AcDbEntity
  8
ALPHA
100
AcDbLine
 10
114.514542
 20
119.927147
 30
0.0
 11
114.514542
 21
119.930859
 31
0.0
  0
LINE
  5
222
100
AcDbEntity
  8
ALPHA
100
AcDbLine
 10
114.514542
 20
88.530875
 30
0.0
 11
114.514542
 21
117.197824
 31
0.0
  0
LINE
  5
223
100
AcDbEntity
  8
ALPHA
100
AcDbLine
 10
113.014542
 20
88.530875
 30
0.0
 11
113.014542
 21
117.197824
 31
0.0
  0
ARC
  5
224
100
AcDbEntity
  8
ALPHA
100
AcDbCircle
 10
113.764542
 20
119.930859
 30
0.0
 40
0.75
100
AcDbArc
 50
0.0
 51
90.0
  0
LINE
  5
225
100
AcDbEntity
  8
ALPHA
100
AcDbLine
 10
114.514542
 20
88.530875
 30
0.0
 11
114.514542
 21
87.23186
 31
0.0
  0
LINE
  5
226
100
AcDbEntity
  8
ALPHA
100
AcDbLine
 10
113.014542
 20
88.247519
 30
0.0
 11
113.014542
 21
88.530875
 31
0.0
  0
LINE
  5
227
100
AcDbEntity
  8
ALPHA
100
AcDbLine
 10
113.014542
 20
88.219009
 30
0.0
 11
113.014542
 21
88.247519
 31
0.0
  0
LINE
  5
228
100
AcDbEntity
  8
ALPHA
100
AcDbLine
 10
113.014542
 20
87.946973
 30
0.0
 11
113.014542
 21
88.219009
 31
0.0
  0
LINE
  5
229
100
AcDbEntity
  8
ALPHA
100
AcDbLine
 10
113.014542
 20
87.920774
 30
0.0
 11
113.014542
 21
87.946973
 31
0.0
  0
LINE
  5
22A
100
AcDbEntity
  8
ALPHA
100
AcDbLine
 10
113.014542
 20
87.270318
 30
0.0
 11
113.014542
 21
87.920774
 31
0.0
  0
LINE
  5
22B
100
AcDbEntity
  8
ALPHA
100
AcDbLine
 10
113.014542
 20
87.23186
 30
0.0
 11
113.014542
 21
87.270318
 31
0.0
  0
LINE
  5
22C
100
AcDbEntity
  8
ALPHA
100
AcDbLine
 10
114.514542
 20
84.048534
 30
0.0
 11
114.514542
 21
87.23186
 31
0.0
  0
LWPOLYLINE
  5
22D
100
AcDbEntity
  8
ALPHA
100
AcDbPolyline
 90
        6
 70
     0
 43
0.0
 10
113.014542
 20
84.048534
 10
113.051249
 20
83.847818
 10
113.157779
 20
83.66675
 10
113.323703
 20
83.523053
 10
113.532779
 20
83.430794
 10
113.764542
 20
83.399004
  0
LINE
  5
235
100
AcDbEntity
  8
ALPHA
100
AcDbLine
 10
113.014542
 20
87.068452
 30
0.0
 11
113.014542
 21
87.23186
 31
0.0
  0
LINE
  5
236
100
AcDbEntity
  8
ALPHA
100
AcDbLine
 10
113.014542
 20
86.497901
 30
0.0
 11
113.014542
 21
87.068452
 31
0.0
  0
LINE
  5
237
100
AcDbEntity
  8
ALPHA
100
AcDbLine
 10
113.014542
 20
86.2493
 30
0.0
 11
113.014542
 21
86.497901
 31
0.0
  0
LINE
  5
238
100
AcDbEntity
  8
ALPHA
100
AcDbLine
 10
113.014542
 20
84.048534
 30
0.0
 11
113.014542
 21
86.2493
 31
0.0
  0
ARC
  5
239
100
AcDbEntity
  8
ALPHA
100
AcDbCircle
 10
113.764542
 20
119.197885
 30
0.0
 40
0.75
100
AcDbArc
 50
0.0
 51
13.614041
  0
ARC
  5
23A
100
AcDbEntity
  8
ALPHA
100
AcDbCircle
 10
113.764542
 20
119.197885
 30
0.0
 40
0.75
100
AcDbArc
 50
13.614041
 51
21.045543
  0
ARC
  5
23B
100
AcDbEntity
  8
ALPHA
100
AcDbCircle
 10
113.764542
 20
119.197885
 30
0.0
 40
0.75
100
AcDbArc
 50
21.045543
 51
31.072171
  0
ARC
  5
23C
100
AcDbEntity
  8
ALPHA
100
AcDbCircle
 10
113.764542
 20
119.197885
 30
0.0
 40
0.75
100
AcDbArc
 50
31.072171
 51
38.313476
  0
ARC
  5
23D
100
AcDbEntity
  8
ALPHA
100
AcDbCircle
 10
113.764542
 20
119.197885
 30
0.0
 40
0.75
100
AcDbArc
 50
38.313476
 51
48.749723
  0
ARC
  5
23E
100
AcDbEntity
  8
ALPHA
100
AcDbCircle
 10
113.764542
 20
119.197885
 30
0.0
 40
0.75
100
AcDbArc
 50
48.749723
 51
55.558146
  0
ARC
  5
23F
100
AcDbEntity
  8
ALPHA
100
AcDbCircle
 10
113.764542
 20
119.197885
 30
0.0
 40
0.75
100
AcDbArc
 50
55.558146
 51
67.082885
  0
ARC
  5
240
100
AcDbEntity
  8
AXE
100
AcDbCircle
 10
113.764542
 20
119.197885
 30
0.0
 40
0.75
100
AcDbArc
 50
67.082885
 51
72.785754
  0
ARC
  5
241
100
AcDbEntity
  8
AXE
100
AcDbCircle
 10
113.764542
 20
119.197885
 30
0.0
 40
0.75
100
AcDbArc
 50
72.785754
 51
90.0
  0
LWPOLYLINE
  5
242
100
AcDbEntity
  8
ALPHA
100
AcDbPolyline
 90
        6
 70
     0
 43
0.0
 10
113.764542
 20
83.399004
 10
113.996304
 20
83.430794
 10
114.205381
 20
83.523053
 10
114.371304
 20
83.66675
 10
114.477834
 20
83.847818
 10
114.514542
 20
84.048534
  0
ENDSEC
  0
SECTION
  2
OBJECTS
  0
DICTIONARY
  5
30D
100
AcDbDictionary
  3
ACAD_GROUP
350
30E
  3
ACAD_MLINESTYLE
350
31B
  3
ACDBVARIABLEDICTIONARY
350
32B
  0
DICTIONARY
  5
30E
102
{ACAD_REACTORS
330
30D
102
}
100
AcDbDictionary
  0
DICTIONARY
  5
31B
102
{ACAD_REACTORS
330
30D
102
}
100
AcDbDictionary
  3
STANDARD
350
31C
  0
DICTIONARY
  5
32B
102
{ACAD_REACTORS
330
30D
102
}
100
AcDbDictionary
  3
DIMADEC
350
32C
  0
MLINESTYLE
  5
31C
102
{ACAD_REACTORS
330
31B
102
}
100
AcDbMlineStyle
  2
STANDARD
 70
     0
  3

 62
   256
 51
90.0
 52
90.0
 71
     2
 49
0.5
 62
   256
  6
BYLAYER
 49
-0.5
 62
   256
  6
BYLAYER
  0
DICTIONARYVAR
  5
32C
102
{ACAD_REACTORS
330
32B
102
}
100
DictionaryVariables
280
     0
  1
0
  0
ENDSEC
  0
EOF
