  0
SECTION
  2
HEADER
  9
$ACADVER
  1
AC1014
  9
$ACADMAINTVER
 70
     0
  9
$DWGCODEPAGE
  3
ANSI_1252
  9
$INSBASE
 10
71.98724
 20
102.055556
 30
0.0
  9
$EXTMIN
 10
57.152687
 20
70.718888
 30
0.0
  9
$EXTMAX
 10
94.599208
 20
123.997885
 30
0.0
  9
$LIMMIN
 10
0.0
 20
0.0
  9
$LIMMAX
 10
210.0
 20
297.0
  9
$ORTHOMODE
 70
     1
  9
$REGENMODE
 70
     1
  9
$FILLMODE
 70
     1
  9
$QTEXTMODE
 70
     0
  9
$MIRRTEXT
 70
     1
  9
$DRAGMODE
 70
     2
  9
$LTSCALE
 40
7.0
  9
$OSMODE
 70
     0
  9
$ATTMODE
 70
     1
  9
$TEXTSIZE
 40
0.2
  9
$TRACEWID
 40
0.05
  9
$TEXTSTYLE
  7
STANDARD
  9
$CLAYER
  8
COTATION1
  9
$CELTYPE
  6
BYLAYER
  9
$CECOLOR
 62
   256
  9
$CELTSCALE
 40
1.0
  9
$DELOBJ
 70
     1
  9
$DISPSILH
 70
     0
  9
$DIMSCALE
 40
1.0
  9
$DIMASZ
 40
3.0
  9
$DIMEXO
 40
0.0625
  9
$DIMDLI
 40
0.38
  9
$DIMRND
 40
0.01
  9
$DIMDLE
 40
0.0
  9
$DIMEXE
 40
0.18
  9
$DIMTP
 40
0.0
  9
$DIMTM
 40
0.0
  9
$DIMTXT
 40
2.5
  9
$DIMCEN
 40
0.09
  9
$DIMTSZ
 40
0.0
  9
$DIMTOL
 70
     0
  9
$DIMLIM
 70
     0
  9
$DIMTIH
 70
     0
  9
$DIMTOH
 70
     0
  9
$DIMSE1
 70
     0
  9
$DIMSE2
 70
     0
  9
$DIMTAD
 70
     1
  9
$DIMZIN
 70
    12
  9
$DIMBLK
  1

  9
$DIMASO
 70
     1
  9
$DIMSHO
 70
     1
  9
$DIMPOST
  1

  9
$DIMAPOST
  1

  9
$DIMALT
 70
     0
  9
$DIMALTD
 70
     2
  9
$DIMALTF
 40
25.4
  9
$DIMLFAC
 40
1.0
  9
$DIMTOFL
 70
     1
  9
$DIMTVP
 40
0.0
  9
$DIMTIX
 70
     0
  9
$DIMSOXD
 70
     0
  9
$DIMSAH
 70
     0
  9
$DIMBLK1
  1

  9
$DIMBLK2
  1

  9
$DIMSTYLE
  2
SC_STAND
  9
$DIMCLRD
 70
     0
  9
$DIMCLRE
 70
     0
  9
$DIMCLRT
 70
     0
  9
$DIMTFAC
 40
1.0
  9
$DIMGAP
 40
1.0
  9
$DIMJUST
 70
     0
  9
$DIMSD1
 70
     0
  9
$DIMSD2
 70
     0
  9
$DIMTOLJ
 70
     1
  9
$DIMTZIN
 70
    12
  9
$DIMALTZ
 70
    12
  9
$DIMALTTZ
 70
    12
  9
$DIMFIT
 70
     5
  9
$DIMUPT
 70
     0
  9
$DIMUNIT
 70
     2
  9
$DIMDEC
 70
     4
  9
$DIMTDEC
 70
     4
  9
$DIMALTU
 70
     2
  9
$DIMALTTD
 70
     2
  9
$DIMTXSTY
  7
STANDARD
  9
$DIMAUNIT
 70
     0
  9
$LUNITS
 70
     2
  9
$LUPREC
 70
     4
  9
$SKETCHINC
 40
0.1
  9
$FILLETRAD
 40
0.0
  9
$AUNITS
 70
     0
  9
$AUPREC
 70
     0
  9
$MENU
  1
acad
  9
$ELEVATION
 40
0.0
  9
$PELEVATION
 40
0.0
  9
$THICKNESS
 40
0.0
  9
$LIMCHECK
 70
     0
  9
$BLIPMODE
 70
     1
  9
$CHAMFERA
 40
0.0
  9
$CHAMFERB
 40
0.0
  9
$CHAMFERC
 40
0.0
  9
$CHAMFERD
 40
0.0
  9
$SKPOLY
 70
     0
  9
$TDCREATE
 40
2451086.447856365
  9
$TDUPDATE
 40
2451387.897879340
  9
$TDINDWG
 40
0.0000431829
  9
$TDUSRTIMER
 40
0.0000431829
  9
$USRTIMER
 70
     1
  9
$ANGBASE
 50
0.0
  9
$ANGDIR
 70
     0
  9
$PDMODE
 70
     0
  9
$PDSIZE
 40
0.0
  9
$PLINEWID
 40
0.0
  9
$COORDS
 70
     1
  9
$SPLFRAME
 70
     0
  9
$SPLINETYPE
 70
     6
  9
$SPLINESEGS
 70
     8
  9
$ATTDIA
 70
     0
  9
$ATTREQ
 70
     1
  9
$HANDLING
 70
     1
  9
$HANDSEED
  5
1733
  9
$SURFTAB1
 70
     6
  9
$SURFTAB2
 70
     6
  9
$SURFTYPE
 70
     6
  9
$SURFU
 70
     6
  9
$SURFV
 70
     6
  9
$UCSNAME
  2

  9
$UCSORG
 10
0.0
 20
0.0
 30
0.0
  9
$UCSXDIR
 10
1.0
 20
0.0
 30
0.0
  9
$UCSYDIR
 10
0.0
 20
1.0
 30
0.0
  9
$PUCSNAME
  2

  9
$PUCSORG
 10
0.0
 20
0.0
 30
0.0
  9
$PUCSXDIR
 10
1.0
 20
0.0
 30
0.0
  9
$PUCSYDIR
 10
0.0
 20
1.0
 30
0.0
  9
$USERI1
 70
     0
  9
$USERI2
 70
     0
  9
$USERI3
 70
     0
  9
$USERI4
 70
     0
  9
$USERI5
 70
     0
  9
$USERR1
 40
0.0
  9
$USERR2
 40
0.0
  9
$USERR3
 40
0.0
  9
$USERR4
 40
0.0
  9
$USERR5
 40
0.0
  9
$WORLDVIEW
 70
     1
  9
$SHADEDGE
 70
     3
  9
$SHADEDIF
 70
    70
  9
$TILEMODE
 70
     1
  9
$MAXACTVP
 70
    16
  9
$PINSBASE
 10
0.0
 20
0.0
 30
0.0
  9
$PLIMCHECK
 70
     0
  9
$PEXTMIN
 10
1.000000E+20
 20
1.000000E+20
 30
1.000000E+20
  9
$PEXTMAX
 10
-1.000000E+20
 20
-1.000000E+20
 30
-1.000000E+20
  9
$PLIMMIN
 10
0.0
 20
0.0
  9
$PLIMMAX
 10
12.0
 20
9.0
  9
$UNITMODE
 70
     0
  9
$VISRETAIN
 70
     0
  9
$PLINEGEN
 70
     0
  9
$PSLTSCALE
 70
     1
  9
$TREEDEPTH
 70
  3020
  9
$PICKSTYLE
 70
     1
  9
$CMLSTYLE
  2
STANDARD
  9
$CMLJUST
 70
     0
  9
$CMLSCALE
 40
1.0
  9
$PROXYGRAPHICS
 70
     1
  9
$MEASUREMENT
 70
     0
  0
ENDSEC
  0
SECTION
  2
CLASSES
  0
CLASS
  1
DICTIONARYVAR
  2
AcDbDictionaryVar
  3
"AutoCAD"
 90
        0
280
     0
281
     0
  0
CLASS
  1
LWPOLYLINE
  2
AcDbPolyline
  3
"AutoCAD"
 90
        0
280
     0
281
     1
  0
ENDSEC
  0
SECTION
  2
TABLES
  0
TABLE
  2
VPORT
  5
1707
100
AcDbSymbolTable
 70
     1
  0
VPORT
  5
172E
100
AcDbSymbolTableRecord
100
AcDbViewportTableRecord
  2
*ACTIVE
 70
     0
 10
0.0
 20
0.0
 11
1.0
 21
1.0
 12
225.654671
 22
135.037441
 13
0.0
 23
0.0
 14
1.0
 24
1.0
 15
0.0
 25
0.0
 16
0.0
 26
0.0
 36
1.0
 17
0.0
 27
0.0
 37
0.0
 40
270.074882
 41
1.671053
 42
50.0
 43
0.0
 44
0.0
 50
0.0
 51
0.0
 71
     0
 72
   100
 73
     1
 74
     1
 75
     0
 76
     0
 77
     0
 78
     0
  0
ENDTAB
  0
TABLE
  2
LTYPE
  5
1704
100
AcDbSymbolTable
 70
     2
  0
LTYPE
  5
1710
100
AcDbSymbolTableRecord
100
AcDbLinetypeTableRecord
  2
BYBLOCK
 70
     0
  3

 72
    65
 73
     0
 40
0.0
  0
LTYPE
  5
1711
100
AcDbSymbolTableRecord
100
AcDbLinetypeTableRecord
  2
BYLAYER
 70
     0
  3

 72
    65
 73
     0
 40
0.0
  0
LTYPE
  5
1712
100
AcDbSymbolTableRecord
100
AcDbLinetypeTableRecord
  2
CONTINUOUS
 70
     0
  3
Solid line
 72
    65
 73
     0
 40
0.0
  0
LTYPE
  5
171E
100
AcDbSymbolTableRecord
100
AcDbLinetypeTableRecord
  2
AXES2
 70
     0
  3
___ _ ___ _ ___ _ ___ _ ___ _ ___ _ ___ _ ___ _
 72
    65
 73
     4
 40
1.125
 49
0.75
 74
     0
 49
-0.125
 74
     0
 49
0.125
 74
     0
 49
-0.125
 74
     0
  0
ENDTAB
  0
TABLE
  2
LAYER
  5
1701
100
AcDbSymbolTable
 70
     5
  0
LAYER
  5
170D
100
AcDbSymbolTableRecord
100
AcDbLayerTableRecord
  2
0
 70
     0
 62
     7
  6
CONTINUOUS
  0
LAYER
  5
1721
100
AcDbSymbolTableRecord
100
AcDbLayerTableRecord
  2
AXE
 70
     0
 62
    80
  6
AXES2
  0
LAYER
  5
1722
100
AcDbSymbolTableRecord
100
AcDbLayerTableRecord
  2
COTATION1
 70
     0
 62
     2
  6
CONTINUOUS
  0
LAYER
  5
1723
100
AcDbSymbolTableRecord
100
AcDbLayerTableRecord
  2
ALPHA
 70
     0
 62
   255
  6
CONTINUOUS
  0
LAYER
  5
1724
100
AcDbSymbolTableRecord
100
AcDbLayerTableRecord
  2
DEFPOINTS
 70
     0
 62
     7
  6
CONTINUOUS
  0
ENDTAB
  0
TABLE
  2
STYLE
  5
1702
100
AcDbSymbolTable
 70
     2
  0
STYLE
  5
170E
100
AcDbSymbolTableRecord
100
AcDbTextStyleTableRecord
  2
STANDARD
 70
     0
 40
0.0
 41
1.0
 50
0.0
 71
     0
 42
0.2
  3
txt
  4

  0
STYLE
  5
171D
100
AcDbSymbolTableRecord
100
AcDbTextStyleTableRecord
  2
ROMANS
 70
     0
 40
0.0
 41
1.0
 50
0.0
 71
     0
 42
2.9
  3
romans.shx
  4

  0
ENDTAB
  0
TABLE
  2
VIEW
  5
1705
100
AcDbSymbolTable
 70
     0
  0
ENDTAB
  0
TABLE
  2
UCS
  5
1706
100
AcDbSymbolTable
 70
     0
  0
ENDTAB
  0
TABLE
  2
APPID
  5
1708
100
AcDbSymbolTable
 70
     1
  0
APPID
  5
170F
100
AcDbSymbolTableRecord
100
AcDbRegAppTableRecord
  2
ACAD
 70
     0
  0
ENDTAB
  0
TABLE
  2
DIMSTYLE
  5
1709
100
AcDbSymbolTable
 70
     1
  0
DIMSTYLE
105
1720
102
{ACAD_REACTORS
330
1F
330
2D
102
}
100
AcDbSymbolTableRecord
100
AcDbDimStyleTableRecord
  2
SC_STAND
 70
     0
  3

  4

  5

  6

  7

 40
1.0
 41
3.0
 42
0.0625
 43
0.38
 44
0.18
 45
0.01
 46
0.0
 47
0.0
 48
0.0
140
2.5
141
0.09
142
0.0
143
25.4
144
1.0
145
0.0
146
1.0
147
1.0
 71
     0
 72
     0
 73
     0
 74
     0
 75
     0
 76
     0
 77
     1
 78
    12
170
     0
171
     2
172
     1
173
     0
174
     0
175
     0
176
     0
177
     0
178
     0
270
     2
271
     4
272
     4
273
     2
274
     2
340
170E
275
     0
280
     0
281
     0
282
     0
283
     1
284
    12
285
    12
286
    12
287
     5
288
     0
  0
ENDTAB
  0
TABLE
  2
BLOCK_RECORD
  5
1700
100
AcDbSymbolTable
 70
     2
  0
BLOCK_RECORD
  5
1716
100
AcDbSymbolTableRecord
100
AcDbBlockTableRecord
  2
*MODEL_SPACE
  0
BLOCK_RECORD
  5
1713
100
AcDbSymbolTableRecord
100
AcDbBlockTableRecord
  2
*PAPER_SPACE
  0
BLOCK_RECORD
  5
171B
100
AcDbSymbolTableRecord
100
AcDbBlockTableRecord
  2
*D0
  0
BLOCK_RECORD
  5
171C
100
AcDbSymbolTableRecord
100
AcDbBlockTableRecord
  2
*D1
  0
ENDTAB
  0
ENDSEC
  0
SECTION
  2
BLOCKS
  0
BLOCK
  5
1727
100
AcDbEntity
  8
0
100
AcDbBlockBegin
  2
*MODEL_SPACE
 70
     0
 10
0.0
 20
0.0
 30
0.0
  3
*MODEL_SPACE
  1

  0
ENDBLK
  5
1728
100
AcDbEntity
  8
0
100
AcDbBlockEnd
  0
BLOCK
  5
1725
100
AcDbEntity
 67
     1
  8
0
100
AcDbBlockBegin
  2
*PAPER_SPACE
 70
     0
 10
0.0
 20
0.0
 30
0.0
  3
*PAPER_SPACE
  1

  0
ENDBLK
  5
1726
100
AcDbEntity
 67
     1
  8
0
100
AcDbBlockEnd
  0
BLOCK
  5
38
100
AcDbEntity
  8
0
100
AcDbBlockBegin
  2
*D0
 70
     1
 10
0.0
 20
0.0
 30
0.0
  3
*D0
  1
AVE_GLOBAL
  0
LINE
  5
2F
100
AcDbEntity
  8
0
  6
BYBLOCK
 62
     0
100
AcDbLine
 10
87.159794
 20
83.685385
 30
0.0
 11
87.159794
 21
71.038888
 31
0.0
  0
LINE
  5
30
100
AcDbEntity
  8
0
  6
BYBLOCK
 62
     0
100
AcDbLine
 10
57.359794
 20
83.685385
 30
0.0
 11
57.359794
 21
71.038888
 31
0.0
  0
LINE
  5
31
100
AcDbEntity
  8
0
  6
BYBLOCK
 62
     0
100
AcDbLine
 10
84.159794
 20
71.218888
 30
0.0
 11
60.359794
 21
71.218888
 31
0.0
  0
SOLID
  5
32
100
AcDbEntity
  8
0
  6
BYBLOCK
 62
     0
100
AcDbTrace
 10
84.159794
 20
71.718888
 30
0.0
 11
84.159794
 21
70.718888
 31
0.0
 12
87.159794
 22
71.218888
 32
0.0
 13
87.159794
 23
71.218888
 33
0.0
  0
SOLID
  5
33
100
AcDbEntity
  8
0
  6
BYBLOCK
 62
     0
100
AcDbTrace
 10
60.359794
 20
71.718888
 30
0.0
 11
60.359794
 21
70.718888
 31
0.0
 12
57.359794
 22
71.218888
 32
0.0
 13
57.359794
 23
71.218888
 33
0.0
  0
TEXT
  5
34
100
AcDbEntity
  8
0
  6
BYBLOCK
 62
     0
100
AcDbText
 10
68.093127
 20
72.218888
 30
0.0
 40
2.5
  1
29.8
  7
ROMANS
100
AcDbText
  0
POINT
  5
35
100
AcDbEntity
  8
DEFPOINTS
  6
BYBLOCK
 62
     0
100
AcDbPoint
 10
87.159794
 20
83.747885
 30
0.0
  0
POINT
  5
36
100
AcDbEntity
  8
DEFPOINTS
  6
BYBLOCK
 62
     0
100
AcDbPoint
 10
57.359794
 20
83.747885
 30
0.0
  0
POINT
  5
37
100
AcDbEntity
  8
DEFPOINTS
  6
BYBLOCK
 62
     0
100
AcDbPoint
 10
57.359794
 20
71.218888
 30
0.0
  0
ENDBLK
  5
39
100
AcDbEntity
  8
0
100
AcDbBlockEnd
  0
BLOCK
  5
2B
100
AcDbEntity
  8
0
100
AcDbBlockBegin
  2
*D1
 70
     1
 10
0.0
 20
0.0
 30
0.0
  3
*D1
  1
AVE_GLOBAL
  0
LINE
  5
21
100
AcDbEntity
  8
0
  6
BYBLOCK
 62
     0
100
AcDbLine
 10
86.222294
 20
82.747885
 30
0.0
 11
94.279208
 21
82.747885
 31
0.0
  0
LINE
  5
22
100
AcDbEntity
  8
0
  6
BYBLOCK
 62
     0
100
AcDbLine
 10
82.736653
 20
122.547885
 30
0.0
 11
94.279208
 21
122.547885
 31
0.0
  0
LINE
  5
23
100
AcDbEntity
  8
0
  6
BYBLOCK
 62
     0
100
AcDbLine
 10
94.099208
 20
85.747885
 30
0.0
 11
94.099208
 21
119.547885
 31
0.0
  0
SOLID
  5
24
100
AcDbEntity
  8
0
  6
BYBLOCK
 62
     0
100
AcDbTrace
 10
93.599208
 20
85.747885
 30
0.0
 11
94.599208
 21
85.747885
 31
0.0
 12
94.099208
 22
82.747885
 32
0.0
 13
94.099208
 23
82.747885
 33
0.0
  0
SOLID
  5
25
100
AcDbEntity
  8
0
  6
BYBLOCK
 62
     0
100
AcDbTrace
 10
93.599208
 20
119.547885
 30
0.0
 11
94.599208
 21
119.547885
 31
0.0
 12
94.099208
 22
122.547885
 32
0.0
 13
94.099208
 23
122.547885
 33
0.0
  0
TEXT
  5
26
100
AcDbEntity
  8
0
  6
BYBLOCK
 62
     0
100
AcDbText
 10
93.099208
 20
98.481219
 30
0.0
 40
2.5
  1
39.8
 50
90.0
  7
ROMANS
100
AcDbText
  0
POINT
  5
27
100
AcDbEntity
  8
DEFPOINTS
  6
BYBLOCK
 62
     0
100
AcDbPoint
 10
86.159794
 20
82.747885
 30
0.0
  0
POINT
  5
29
100
AcDbEntity
  8
DEFPOINTS
  6
BYBLOCK
 62
     0
100
AcDbPoint
 10
82.674153
 20
122.547885
 30
0.0
  0
POINT
  5
2A
100
AcDbEntity
  8
DEFPOINTS
  6
BYBLOCK
 62
     0
100
AcDbPoint
 10
94.099208
 20
122.547885
 30
0.0
  0
ENDBLK
  5
2C
100
AcDbEntity
  8
0
100
AcDbBlockEnd
  0
ENDSEC
  0
SECTION
  2
ENTITIES
  0
DIMENSION
  5
1F
100
AcDbEntity
  8
COTATION1
100
AcDbDimension
  2
*D1
 10
94.099208
 20
122.547885
 30
0.0
 11
91.849208
 21
102.647885
 31
0.0
  3
SC_STAND
100
AcDbAlignedDimension
 13
86.159794
 23
82.747885
 33
0.0
 14
82.674153
 24
122.547885
 34
0.0
 50
90.0
100
AcDbRotatedDimension
  0
DIMENSION
  5
2D
100
AcDbEntity
  8
COTATION1
100
AcDbDimension
  2
*D0
 10
57.359794
 20
71.218888
 30
0.0
 11
72.259794
 21
73.468888
 31
0.0
  3
SC_STAND
100
AcDbAlignedDimension
 13
87.159794
 23
83.747885
 33
0.0
 14
57.359794
 24
83.747885
 34
0.0
100
AcDbRotatedDimension
  0
LINE
  5
3A
100
AcDbEntity
  8
AXE
100
AcDbLine
 10
80.758844
 20
87.23186
 30
0.0
 11
75.244774
 21
84.048534
 31
0.0
  0
ARC
  5
3D
100
AcDbEntity
  8
AXE
100
AcDbCircle
 10
80.008883
 20
88.530921
 30
0.0
 40
1.5
100
AcDbArc
 50
299.998256
 51
359.998256
  0
LINE
  5
3E
100
AcDbEntity
  8
AXE
100
AcDbLine
 10
81.509756
 20
117.197824
 30
0.0
 11
81.508883
 21
88.530875
 31
0.0
  0
ARC
  5
3F
100
AcDbEntity
  8
AXE
100
AcDbCircle
 10
79.509756
 20
117.197885
 30
0.0
 40
2.0
100
AcDbArc
 50
359.998256
 51
90.0
  0
LINE
  5
40
100
AcDbEntity
  8
AXE
100
AcDbLine
 10
75.99816
 20
119.197885
 30
0.0
 11
79.509756
 21
119.197885
 31
0.0
  0
ARC
  5
41
100
AcDbEntity
  8
ALPHA
100
AcDbCircle
 10
75.99816
 20
120.697885
 30
0.0
 40
1.5
100
AcDbArc
 50
257.905243
 51
270.0
  0
LINE
  5
43
100
AcDbEntity
  8
ALPHA
100
AcDbLine
 10
72.574087
 20
119.897563
 30
0.0
 11
75.683866
 21
119.231182
 31
0.0
  0
ARC
  5
44
100
AcDbEntity
  8
ALPHA
100
AcDbCircle
 10
72.259794
 20
118.430859
 30
0.0
 40
1.5
100
AcDbArc
 50
77.905243
 51
102.094757
  0
LINE
  5
45
100
AcDbEntity
  8
ALPHA
100
AcDbLine
 10
68.835722
 20
119.231182
 30
0.0
 11
71.9455
 21
119.897563
 31
0.0
  0
ARC
  5
46
100
AcDbEntity
  8
ALPHA
100
AcDbCircle
 10
68.521428
 20
120.697885
 30
0.0
 40
1.5
100
AcDbArc
 50
270.0
 51
282.094757
  0
LINE
  5
47
100
AcDbEntity
  8
AXE
100
AcDbLine
 10
65.009832
 20
119.197885
 30
0.0
 11
68.521428
 21
119.197885
 31
0.0
  0
ARC
  5
48
100
AcDbEntity
  8
AXE
100
AcDbCircle
 10
65.009832
 20
117.197885
 30
0.0
 40
2.0
100
AcDbArc
 50
90.0
 51
180.001744
  0
LINE
  5
49
100
AcDbEntity
  8
AXE
100
AcDbLine
 10
63.010704
 20
88.530875
 30
0.0
 11
63.009832
 21
117.197824
 31
0.0
  0
ARC
  5
4A
100
AcDbEntity
  8
AXE
100
AcDbCircle
 10
64.510704
 20
88.530921
 30
0.0
 40
1.5
100
AcDbArc
 50
180.001744
 51
240.001744
  0
LINE
  5
4B
100
AcDbEntity
  8
AXE
100
AcDbLine
 10
69.274814
 20
84.048534
 30
0.0
 11
63.760744
 21
87.23186
 31
0.0
  0
LINE
  5
4C
100
AcDbEntity
  8
ALPHA
100
AcDbLine
 10
77.159794
 20
92.590448
 30
0.0
 11
78.209794
 21
92.590448
 31
0.0
  0
LINE
  5
4D
100
AcDbEntity
  8
ALPHA
100
AcDbLine
 10
67.159794
 20
92.590448
 30
0.0
 11
67.359794
 21
92.590448
 31
0.0
  0
LINE
  5
4E
100
AcDbEntity
  8
ALPHA
100
AcDbLine
 10
82.959794
 20
112.920493
 30
0.0
 11
82.959794
 21
111.62109
 31
0.0
  0
LINE
  5
4F
100
AcDbEntity
  8
ALPHA
100
AcDbLine
 10
69.133631
 20
83.894011
 30
0.0
 11
58.359794
 21
83.894011
 31
0.0
  0
LINE
  5
50
100
AcDbEntity
  8
ALPHA
100
AcDbLine
 10
86.159794
 20
83.894011
 30
0.0
 11
75.385956
 21
83.894011
 31
0.0
  0
LINE
  5
51
100
AcDbEntity
  8
ALPHA
100
AcDbLine
 10
78.209794
 20
87.855001
 30
0.0
 11
86.309794
 21
87.855001
 31
0.0
  0
LINE
  5
52
100
AcDbEntity
  8
ALPHA
100
AcDbLine
 10
60.259794
 20
118.052346
 30
0.0
 11
60.259794
 21
117.771844
 31
0.0
  0
LINE
  5
53
100
AcDbEntity
  8
ALPHA
100
AcDbLine
 10
85.159794
 20
89.147885
 30
0.0
 11
86.309794
 21
89.147885
 31
0.0
  0
LINE
  5
54
100
AcDbEntity
  8
ALPHA
100
AcDbLine
 10
78.209794
 20
89.147885
 30
0.0
 11
79.359794
 21
89.147885
 31
0.0
  0
LWPOLYLINE
  5
55
100
AcDbEntity
  8
ALPHA
100
AcDbPolyline
 90
        5
 70
     0
 43
0.0
 10
64.159794
 20
118.052346
 10
64.274449
 20
118.029485
 10
64.371813
 20
117.964256
 10
64.436896
 20
117.866594
 10
64.459794
 20
117.7512
  0
LINE
  5
5C
100
AcDbEntity
  8
ALPHA
100
AcDbLine
 10
67.359794
 20
93.447885
 30
0.0
 11
67.159794
 21
93.447885
 31
0.0
  0
LINE
  5
5D
100
AcDbEntity
  8
ALPHA
100
AcDbLine
 10
78.209794
 20
93.447885
 30
0.0
 11
77.159794
 21
93.447885
 31
0.0
  0
LINE
  5
5E
100
AcDbEntity
  8
ALPHA
100
AcDbLine
 10
64.159794
 20
117.771844
 30
0.0
 11
64.159794
 21
118.052346
 31
0.0
  0
LINE
  5
5F
100
AcDbEntity
  8
ALPHA
100
AcDbLine
 10
84.309794
 20
110.220638
 30
0.0
 11
86.509794
 21
110.220638
 31
0.0
  0
LINE
  5
60
100
AcDbEntity
  8
ALPHA
100
AcDbLine
 10
84.309794
 20
111.020638
 30
0.0
 11
86.509794
 21
111.020638
 31
0.0
  0
LINE
  5
61
100
AcDbEntity
  8
ALPHA
100
AcDbLine
 10
86.309794
 20
93.892439
 30
0.0
 11
87.159794
 21
93.892439
 31
0.0
  0
LINE
  5
62
100
AcDbEntity
  8
ALPHA
100
AcDbLine
 10
82.959794
 20
112.920493
 30
0.0
 11
83.259794
 21
112.920493
 31
0.0
  0
LWPOLYLINE
  5
63
100
AcDbEntity
  8
ALPHA
100
AcDbPolyline
 90
        6
 70
     0
 43
0.0
 10
64.459794
 20
117.472986
 10
64.444969
 20
117.473026
 10
64.402033
 20
117.472931
 10
64.334923
 20
117.473056
 10
64.251173
 20
117.472928
 10
64.159794
 20
117.472986
  0
LWPOLYLINE
  5
6B
100
AcDbEntity
  8
ALPHA
100
AcDbPolyline
 90
        6
 70
     0
 43
0.0
 10
83.559794
 20
113.522785
 10
83.373064
 20
113.492874
 10
83.207009
 20
113.407674
 10
83.075343
 20
113.275832
 10
82.989919
 20
113.10894
 10
82.959794
 20
112.920493
  0
LINE
  5
73
100
AcDbEntity
  8
ALPHA
100
AcDbLine
 10
78.059794
 20
110.220638
 30
0.0
 11
80.259794
 21
110.220638
 31
0.0
  0
LINE
  5
74
100
AcDbEntity
  8
ALPHA
100
AcDbLine
 10
78.059794
 20
111.020638
 30
0.0
 11
80.259794
 21
111.020638
 31
0.0
  0
LINE
  5
75
100
AcDbEntity
  8
ALPHA
100
AcDbLine
 10
83.559794
 20
113.522785
 30
0.0
 11
83.559794
 21
113.223926
 31
0.0
  0
LWPOLYLINE
  5
76
100
AcDbEntity
  8
ALPHA
100
AcDbPolyline
 90
        6
 70
     0
 43
0.0
 10
83.559794
 20
113.223926
 10
83.466417
 20
113.208853
 10
83.383398
 20
113.165931
 10
83.317571
 20
113.099515
 10
83.27486
 20
113.015443
 10
83.259794
 20
112.920493
  0
LINE
  5
7E
100
AcDbEntity
  8
ALPHA
100
AcDbLine
 10
78.059794
 20
109.181408
 30
0.0
 11
80.259794
 21
109.181408
 31
0.0
  0
LINE
  5
7F
100
AcDbEntity
  8
ALPHA
100
AcDbLine
 10
86.159794
 20
83.894011
 30
0.0
 11
86.159794
 21
82.747885
 31
0.0
  0
LINE
  5
80
100
AcDbEntity
  8
ALPHA
100
AcDbLine
 10
67.209794
 20
116.747885
 30
0.0
 11
67.359794
 21
116.747885
 31
0.0
  0
LINE
  5
81
100
AcDbEntity
  8
ALPHA
100
AcDbLine
 10
64.159794
 20
117.208152
 30
0.0
 11
64.159794
 21
117.472986
 31
0.0
  0
LWPOLYLINE
  5
82
100
AcDbEntity
  8
ALPHA
100
AcDbPolyline
 90
        5
 70
     0
 43
0.0
 10
64.159794
 20
117.472986
 10
64.159794
 20
117.581717
 10
64.159794
 20
117.675663
 10
64.159794
 20
117.742048
 10
64.159794
 20
117.771844
  0
LINE
  5
89
100
AcDbEntity
  8
ALPHA
100
AcDbLine
 10
60.259794
 20
117.472986
 30
0.0
 11
64.159794
 21
117.472986
 31
0.0
  0
LWPOLYLINE
  5
8A
100
AcDbEntity
  8
ALPHA
100
AcDbPolyline
 90
        5
 70
     0
 43
0.0
 10
60.259794
 20
117.472986
 10
60.259798
 20
117.580261
 10
60.259792
 20
117.674906
 10
60.259795
 20
117.741842
 10
60.259794
 20
117.771844
  0
LINE
  5
91
100
AcDbEntity
  8
ALPHA
100
AcDbLine
 10
77.159794
 20
116.747885
 30
0.0
 11
78.459794
 21
116.747885
 31
0.0
  0
LINE
  5
92
100
AcDbEntity
  8
ALPHA
100
AcDbLine
 10
60.259794
 20
117.771844
 30
0.0
 11
64.159794
 21
117.771844
 31
0.0
  0
LWPOLYLINE
  5
93
100
AcDbEntity
  8
ALPHA
100
AcDbPolyline
 90
        7
 70
     0
 43
0.0
 10
86.159794
 20
83.894011
 10
86.416462
 20
83.928028
 10
86.657069
 20
84.02846
 10
86.864346
 20
84.188838
 10
87.024252
 20
84.398977
 10
87.12514
 20
84.64444
 10
87.159794
 20
84.909437
  0
LWPOLYLINE
  5
9C
100
AcDbEntity
  8
ALPHA
100
AcDbPolyline
 90
        3
 70
     0
 43
0.0
 10
81.171813
 20
112.855335
 10
81.074449
 20
112.920564
 10
80.959794
 20
112.943425
  0
LWPOLYLINE
  5
A1
100
AcDbEntity
  8
ALPHA
100
AcDbPolyline
 90
        3
 70
     0
 43
0.0
 10
81.259794
 20
112.642279
 10
81.236896
 20
112.757672
 10
81.171813
 20
112.855335
  0
LWPOLYLINE
  5
A6
100
AcDbEntity
  8
ALPHA
100
AcDbPolyline
 90
       10
 70
     0
 43
0.0
 10
70.55337
 20
122.147885
 10
70.896743
 20
122.450649
 10
71.268585
 20
122.676187
 10
71.658576
 20
122.825384
 10
72.058437
 20
122.8995
 10
72.461413
 20
122.899476
 10
72.861264
 20
122.825313
 10
73.251229
 20
122.676076
 10
73.623091
 20
122.450468
 10
73.966445
 20
122.147885
  0
LINE
  5
B2
100
AcDbEntity
  8
ALPHA
100
AcDbLine
 10
80.959794
 20
112.943425
 30
0.0
 11
80.959794
 21
113.223926
 31
0.0
  0
LINE
  5
B3
100
AcDbEntity
  8
ALPHA
100
AcDbLine
 10
83.559794
 20
113.223926
 30
0.0
 11
83.559794
 21
112.943425
 31
0.0
  0
LWPOLYLINE
  5
B4
100
AcDbEntity
  8
ALPHA
100
AcDbPolyline
 90
        7
 70
     0
 43
0.0
 10
57.359794
 20
84.909437
 10
57.394447
 20
84.64444
 10
57.495336
 20
84.398977
 10
57.655241
 20
84.188838
 10
57.862519
 20
84.02846
 10
58.103125
 20
83.928028
 10
58.359794
 20
83.894011
  0
LWPOLYLINE
  5
BD
100
AcDbEntity
  8
ALPHA
100
AcDbPolyline
 90
        5
 70
     0
 43
0.0
 10
83.559794
 20
112.943425
 10
83.445139
 20
112.920564
 10
83.347775
 20
112.855335
 10
83.282692
 20
112.757672
 10
83.259794
 20
112.642279
  0
LINE
  5
C4
100
AcDbEntity
  8
ALPHA
100
AcDbLine
 10
58.359794
 20
82.747885
 30
0.0
 11
58.359794
 21
83.894011
 31
0.0
  0
LINE
  5
C5
100
AcDbEntity
  8
ALPHA
100
AcDbLine
 10
70.55337
 20
122.147885
 30
0.0
 11
69.659794
 21
122.147885
 31
0.0
  0
LWPOLYLINE
  5
C6
100
AcDbEntity
  8
ALPHA
100
AcDbPolyline
 90
        6
 70
     0
 43
0.0
 10
81.259794
 20
112.920493
 10
81.244728
 20
113.015443
 10
81.202017
 20
113.099515
 10
81.13619
 20
113.165931
 10
81.053171
 20
113.208853
 10
80.959794
 20
113.223926
  0
LWPOLYLINE
  5
CE
100
AcDbEntity
  8
ALPHA
100
AcDbPolyline
 90
        4
 70
     0
 43
0.0
 10
70.55337
 20
122.147885
 10
70.443163
 20
121.858682
 10
70.34195
 20
121.558546
 10
70.248829
 20
121.247885
  0
LINE
  5
D4
100
AcDbEntity
  8
ALPHA
100
AcDbLine
 10
75.659794
 20
119.147885
 30
0.0
 11
76.059794
 21
119.345336
 31
0.0
  0
LINE
  5
D5
100
AcDbEntity
  8
ALPHA
100
AcDbLine
 10
75.659794
 20
119.147885
 30
0.0
 11
75.659794
 21
117.347885
 31
0.0
  0
LWPOLYLINE
  5
D6
100
AcDbEntity
  8
ALPHA
100
AcDbPolyline
 90
        4
 70
     0
 43
0.0
 10
73.966445
 20
122.147885
 10
74.076434
 20
121.858655
 10
74.177642
 20
121.558532
 10
74.270759
 20
121.247885
  0
LINE
  5
DC
100
AcDbEntity
  8
ALPHA
100
AcDbLine
 10
74.859794
 20
122.147885
 30
0.0
 11
73.966445
 21
122.147885
 31
0.0
  0
LINE
  5
DD
100
AcDbEntity
  8
ALPHA
100
AcDbLine
 10
78.459794
 20
113.747885
 30
0.0
 11
78.859794
 21
113.347885
 31
0.0
  0
LINE
  5
DE
100
AcDbEntity
  8
ALPHA
100
AcDbLine
 10
78.859794
 20
119.000587
 30
0.0
 11
78.859794
 21
113.347885
 31
0.0
  0
LINE
  5
DF
100
AcDbEntity
  8
ALPHA
100
AcDbLine
 10
78.459794
 20
119.27581
 30
0.0
 11
78.859794
 21
119.000587
 31
0.0
  0
LINE
  5
E0
100
AcDbEntity
  8
ALPHA
100
AcDbLine
 10
78.859794
 20
113.347885
 30
0.0
 11
77.159794
 21
113.347885
 31
0.0
  0
LINE
  5
E1
100
AcDbEntity
  8
ALPHA
100
AcDbLine
 10
83.559794
 20
112.943425
 30
0.0
 11
84.259794
 21
112.943425
 31
0.0
  0
LINE
  5
E2
100
AcDbEntity
  8
ALPHA
100
AcDbLine
 10
85.659794
 20
113.347885
 30
0.0
 11
86.059794
 21
113.747885
 31
0.0
  0
LINE
  5
E3
100
AcDbEntity
  8
ALPHA
100
AcDbLine
 10
87.159794
 20
113.347885
 30
0.0
 11
85.659794
 21
113.347885
 31
0.0
  0
LINE
  5
E4
100
AcDbEntity
  8
ALPHA
100
AcDbLine
 10
86.059794
 20
119.27581
 30
0.0
 11
85.659794
 21
119.000587
 31
0.0
  0
LINE
  5
E5
100
AcDbEntity
  8
ALPHA
100
AcDbLine
 10
85.659794
 20
119.000587
 30
0.0
 11
85.659794
 21
113.347885
 31
0.0
  0
LINE
  5
E6
100
AcDbEntity
  8
ALPHA
100
AcDbLine
 10
85.659794
 20
119.000587
 30
0.0
 11
78.859794
 21
119.000587
 31
0.0
  0
LINE
  5
E7
100
AcDbEntity
  8
ALPHA
100
AcDbLine
 10
81.559794
 20
109.438706
 30
0.0
 11
82.959794
 21
109.438706
 31
0.0
  0
LINE
  5
E8
100
AcDbEntity
  8
ALPHA
100
AcDbLine
 10
74.859794
 20
122.147885
 30
0.0
 11
74.859794
 21
121.247885
 31
0.0
  0
LWPOLYLINE
  5
E9
100
AcDbEntity
  8
ALPHA
100
AcDbPolyline
 90
        6
 70
     0
 43
0.0
 10
74.859794
 20
122.147885
 10
74.947042
 20
122.129547
 10
75.030769
 20
122.07224
 10
75.097627
 20
121.982214
 10
75.142814
 20
121.864331
 10
75.159794
 20
121.723621
  0
LINE
  5
F1
100
AcDbEntity
  8
ALPHA
100
AcDbLine
 10
68.859794
 20
119.147885
 30
0.0
 11
68.459794
 21
119.345336
 31
0.0
  0
LINE
  5
F2
100
AcDbEntity
  8
ALPHA
100
AcDbLine
 10
84.309794
 20
111.747885
 30
0.0
 11
86.509794
 21
111.747885
 31
0.0
  0
LINE
  5
F3
100
AcDbEntity
  8
ALPHA
100
AcDbLine
 10
68.859794
 20
117.347885
 30
0.0
 11
68.859794
 21
119.147885
 31
0.0
  0
LINE
  5
F4
100
AcDbEntity
  8
ALPHA
100
AcDbLine
 10
69.659794
 20
121.247885
 30
0.0
 11
69.659794
 21
122.147885
 31
0.0
  0
LINE
  5
F5
100
AcDbEntity
  8
ALPHA
100
AcDbLine
 10
64.159794
 20
118.052346
 30
0.0
 11
60.259794
 21
118.052346
 31
0.0
  0
LINE
  5
F6
100
AcDbEntity
  8
ALPHA
100
AcDbLine
 10
78.059794
 20
111.747885
 30
0.0
 11
80.259794
 21
111.747885
 31
0.0
  0
LINE
  5
F7
100
AcDbEntity
  8
ALPHA
100
AcDbLine
 10
67.359794
 20
113.347885
 30
0.0
 11
67.159794
 21
113.347885
 31
0.0
  0
LINE
  5
F8
100
AcDbEntity
  8
ALPHA
100
AcDbLine
 10
66.059794
 20
119.27581
 30
0.0
 11
65.659794
 21
119.000587
 31
0.0
  0
LINE
  5
F9
100
AcDbEntity
  8
ALPHA
100
AcDbLine
 10
65.659794
 20
117.247885
 30
0.0
 11
65.659794
 21
119.000587
 31
0.0
  0
LINE
  5
FA
100
AcDbEntity
  8
ALPHA
100
AcDbLine
 10
84.309794
 20
109.181408
 30
0.0
 11
86.509794
 21
109.181408
 31
0.0
  0
LINE
  5
FB
100
AcDbEntity
  8
ALPHA
100
AcDbLine
 10
58.859794
 20
117.247885
 30
0.0
 11
58.859794
 21
119.000587
 31
0.0
  0
LINE
  5
FC
100
AcDbEntity
  8
ALPHA
100
AcDbLine
 10
58.459794
 20
119.27581
 30
0.0
 11
58.859794
 21
119.000587
 31
0.0
  0
LWPOLYLINE
  5
FD
100
AcDbEntity
  8
ALPHA
100
AcDbPolyline
 90
        6
 70
     0
 43
0.0
 10
69.359794
 20
121.723621
 10
69.376774
 20
121.864331
 10
69.42196
 20
121.982214
 10
69.488819
 20
122.07224
 10
69.572546
 20
122.129547
 10
69.659794
 20
122.147885
  0
LINE
  5
105
100
AcDbEntity
  8
ALPHA
100
AcDbLine
 10
87.159794
 20
96.347885
 30
0.0
 11
86.309794
 21
96.347885
 31
0.0
  0
LINE
  5
106
100
AcDbEntity
  8
ALPHA
100
AcDbLine
 10
66.059794
 20
120.72109
 30
0.0
 11
58.624995
 21
120.72109
 31
0.0
  0
LINE
  5
107
100
AcDbEntity
  8
ALPHA
100
AcDbLine
 10
66.059794
 20
120.461283
 30
0.0
 11
58.502994
 21
120.461283
 31
0.0
  0
LINE
  5
108
100
AcDbEntity
  8
ALPHA
100
AcDbLine
 10
65.659794
 20
119.000587
 30
0.0
 11
58.859794
 21
119.000587
 31
0.0
  0
LINE
  5
109
100
AcDbEntity
  8
ALPHA
100
AcDbLine
 10
80.359794
 20
112.943425
 30
0.0
 11
80.959794
 21
112.943425
 31
0.0
  0
LINE
  5
10A
100
AcDbEntity
  8
ALPHA
100
AcDbLine
 10
86.016594
 20
120.461283
 30
0.0
 11
78.459794
 21
120.461283
 31
0.0
  0
LINE
  5
10B
100
AcDbEntity
  8
ALPHA
100
AcDbLine
 10
85.894592
 20
120.72109
 30
0.0
 11
78.459794
 21
120.72109
 31
0.0
  0
LINE
  5
10C
100
AcDbEntity
  8
ALPHA
100
AcDbLine
 10
69.359794
 20
120.748341
 30
0.0
 11
68.459794
 21
120.748341
 31
0.0
  0
LINE
  5
10D
100
AcDbEntity
  8
ALPHA
100
AcDbLine
 10
69.359794
 20
120.471176
 30
0.0
 11
68.459794
 21
120.471176
 31
0.0
  0
LINE
  5
10E
100
AcDbEntity
  8
ALPHA
100
AcDbLine
 10
68.859794
 20
119.147885
 30
0.0
 11
69.359794
 21
119.147885
 31
0.0
  0
LINE
  5
10F
100
AcDbEntity
  8
ALPHA
100
AcDbLine
 10
75.659794
 20
119.147885
 30
0.0
 11
75.159794
 21
119.147885
 31
0.0
  0
LINE
  5
110
100
AcDbEntity
  8
ALPHA
100
AcDbLine
 10
76.059794
 20
120.748341
 30
0.0
 11
75.159794
 21
120.748341
 31
0.0
  0
LINE
  5
111
100
AcDbEntity
  8
ALPHA
100
AcDbLine
 10
76.059794
 20
120.471176
 30
0.0
 11
75.159794
 21
120.471176
 31
0.0
  0
LINE
  5
112
100
AcDbEntity
  8
ALPHA
100
AcDbLine
 10
80.359794
 20
118.052346
 30
0.0
 11
84.259794
 21
118.052346
 31
0.0
  0
LWPOLYLINE
  5
113
100
AcDbEntity
  8
ALPHA
100
AcDbPolyline
 90
        5
 70
     0
 43
0.0
 10
80.059794
 20
117.7512
 10
80.082692
 20
117.866594
 10
80.147775
 20
117.964256
 10
80.245139
 20
118.029485
 10
80.359794
 20
118.052346
  0
LWPOLYLINE
  5
11A
100
AcDbEntity
  8
ALPHA
100
AcDbPolyline
 90
        4
 70
     0
 43
0.0
 10
80.117089
 20
117.64865
 10
80.183458
 20
117.714768
 10
80.267089
 20
117.757217
 10
80.359794
 20
117.771844
  0
LWPOLYLINE
  5
120
100
AcDbEntity
  8
ALPHA
100
AcDbPolyline
 90
        3
 70
     0
 43
0.0
 10
80.059794
 20
117.472986
 10
80.074477
 20
117.565339
 10
80.117089
 20
117.64865
  0
LINE
  5
125
100
AcDbEntity
  8
ALPHA
100
AcDbLine
 10
75.659794
 20
117.347885
 30
0.0
 11
68.859794
 21
117.347885
 31
0.0
  0
LINE
  5
126
100
AcDbEntity
  8
ALPHA
100
AcDbLine
 10
75.659794
 20
117.347885
 30
0.0
 11
75.832029
 21
117.142623
 31
0.0
  0
LINE
  5
127
100
AcDbEntity
  8
ALPHA
100
AcDbLine
 10
68.859794
 20
117.347885
 30
0.0
 11
68.686032
 21
117.140804
 31
0.0
  0
LINE
  5
128
100
AcDbEntity
  8
ALPHA
100
AcDbLine
 10
84.259794
 20
113.522785
 30
0.0
 11
83.559794
 21
113.522785
 31
0.0
  0
LINE
  5
129
100
AcDbEntity
  8
ALPHA
100
AcDbLine
 10
84.259794
 20
113.522785
 30
0.0
 11
84.259794
 21
113.223926
 31
0.0
  0
LINE
  5
12A
100
AcDbEntity
  8
ALPHA
100
AcDbLine
 10
84.259794
 20
113.223926
 30
0.0
 11
83.559794
 21
113.223926
 31
0.0
  0
LWPOLYLINE
  5
12B
100
AcDbEntity
  8
ALPHA
100
AcDbPolyline
 90
        4
 70
     0
 43
0.0
 10
84.502499
 20
113.34712
 10
84.436129
 20
113.281003
 10
84.352499
 20
113.238554
 10
84.259794
 20
113.223926
  0
LWPOLYLINE
  5
131
100
AcDbEntity
  8
ALPHA
100
AcDbPolyline
 90
        3
 70
     0
 43
0.0
 10
84.559794
 20
113.522785
 10
84.545111
 20
113.430432
 10
84.502499
 20
113.34712
  0
LWPOLYLINE
  5
136
100
AcDbEntity
  8
ALPHA
100
AcDbPolyline
 90
        5
 70
     0
 43
0.0
 10
84.259794
 20
113.522785
 10
84.374599
 20
113.522907
 10
84.471926
 20
113.52295
 10
84.536958
 20
113.522907
 10
84.559794
 20
113.522785
  0
LINE
  5
13D
100
AcDbEntity
  8
ALPHA
100
AcDbLine
 10
84.259794
 20
117.472986
 30
0.0
 11
84.259794
 21
113.522785
 31
0.0
  0
LINE
  5
13E
100
AcDbEntity
  8
ALPHA
100
AcDbLine
 10
84.259794
 20
117.472986
 30
0.0
 11
84.559794
 21
117.472986
 31
0.0
  0
LWPOLYLINE
  5
13F
100
AcDbEntity
  8
ALPHA
100
AcDbPolyline
 90
        3
 70
     0
 43
0.0
 10
84.502499
 20
117.64865
 10
84.545111
 20
117.565339
 10
84.559794
 20
117.472986
  0
LWPOLYLINE
  5
144
100
AcDbEntity
  8
ALPHA
100
AcDbPolyline
 90
        4
 70
     0
 43
0.0
 10
84.259794
 20
117.771844
 10
84.352499
 20
117.757217
 10
84.436129
 20
117.714768
 10
84.502499
 20
117.64865
  0
LINE
  5
14A
100
AcDbEntity
  8
ALPHA
100
AcDbLine
 10
84.259794
 20
117.472986
 30
0.0
 11
84.259794
 21
117.771844
 31
0.0
  0
LINE
  5
14B
100
AcDbEntity
  8
ALPHA
100
AcDbLine
 10
80.359794
 20
117.472986
 30
0.0
 11
84.259794
 21
117.472986
 31
0.0
  0
LINE
  5
14C
100
AcDbEntity
  8
ALPHA
100
AcDbLine
 10
80.359794
 20
117.472986
 30
0.0
 11
80.359794
 21
117.771844
 31
0.0
  0
LINE
  5
14D
100
AcDbEntity
  8
ALPHA
100
AcDbLine
 10
80.359794
 20
117.771844
 30
0.0
 11
84.259794
 21
117.771844
 31
0.0
  0
LWPOLYLINE
  5
14E
100
AcDbEntity
  8
ALPHA
100
AcDbPolyline
 90
        5
 70
     0
 43
0.0
 10
80.359794
 20
117.472986
 10
80.244989
 20
117.472863
 10
80.147662
 20
117.47282
 10
80.08263
 20
117.472863
 10
80.059794
 20
117.472986
  0
LINE
  5
155
100
AcDbEntity
  8
ALPHA
100
AcDbLine
 10
80.359794
 20
113.522785
 30
0.0
 11
80.359794
 21
117.472986
 31
0.0
  0
LINE
  5
156
100
AcDbEntity
  8
ALPHA
100
AcDbLine
 10
80.359794
 20
113.522785
 30
0.0
 11
80.059794
 21
113.522785
 31
0.0
  0
LINE
  5
157
100
AcDbEntity
  8
ALPHA
100
AcDbLine
 10
80.359794
 20
118.052346
 30
0.0
 11
80.359794
 21
117.771844
 31
0.0
  0
LINE
  5
158
100
AcDbEntity
  8
ALPHA
100
AcDbLine
 10
84.259794
 20
117.771844
 30
0.0
 11
84.259794
 21
118.052346
 31
0.0
  0
LWPOLYLINE
  5
159
100
AcDbEntity
  8
ALPHA
100
AcDbPolyline
 90
        5
 70
     0
 43
0.0
 10
84.259794
 20
118.052346
 10
84.374449
 20
118.029485
 10
84.471813
 20
117.964256
 10
84.536896
 20
117.866594
 10
84.559794
 20
117.7512
  0
LWPOLYLINE
  5
160
100
AcDbEntity
  8
ALPHA
100
AcDbPolyline
 90
        5
 70
     0
 43
0.0
 10
59.959794
 20
117.7512
 10
59.982692
 20
117.866594
 10
60.047775
 20
117.964256
 10
60.145139
 20
118.029485
 10
60.259794
 20
118.052346
  0
LINE
  5
167
100
AcDbEntity
  8
ALPHA
100
AcDbLine
 10
68.459794
 20
119.047885
 30
0.0
 11
66.059794
 21
119.047885
 31
0.0
  0
LWPOLYLINE
  5
168
100
AcDbEntity
  8
ALPHA
100
AcDbPolyline
 90
        3
 70
     0
 43
0.0
 10
80.117089
 20
113.34712
 10
80.074477
 20
113.430432
 10
80.059794
 20
113.522785
  0
LWPOLYLINE
  5
16D
100
AcDbEntity
  8
ALPHA
100
AcDbPolyline
 90
        4
 70
     0
 43
0.0
 10
80.359794
 20
113.223926
 10
80.267089
 20
113.238554
 10
80.183458
 20
113.281003
 10
80.117089
 20
113.34712
  0
LWPOLYLINE
  5
173
100
AcDbEntity
  8
ALPHA
100
AcDbPolyline
 90
        4
 70
     0
 43
0.0
 10
60.016227
 20
117.647458
 10
60.08286
 20
117.714337
 10
60.166701
 20
117.757088
 10
60.259794
 20
117.771844
  0
LWPOLYLINE
  5
179
100
AcDbEntity
  8
ALPHA
100
AcDbPolyline
 90
        3
 70
     0
 43
0.0
 10
59.959794
 20
117.472986
 10
59.974046
 20
117.564012
 10
60.016227
 20
117.647458
  0
LINE
  5
17E
100
AcDbEntity
  8
ALPHA
100
AcDbLine
 10
78.459794
 20
119.047885
 30
0.0
 11
76.059794
 21
119.047885
 31
0.0
  0
LWPOLYLINE
  5
17F
100
AcDbEntity
  8
ALPHA
100
AcDbPolyline
 90
        4
 70
     0
 43
0.0
 10
64.402033
 20
117.649292
 10
64.334923
 20
117.71563
 10
64.251173
 20
117.757648
 10
64.159794
 20
117.771844
  0
LWPOLYLINE
  5
185
100
AcDbEntity
  8
ALPHA
100
AcDbPolyline
 90
        3
 70
     0
 43
0.0
 10
64.459794
 20
117.472986
 10
64.444969
 20
117.565769
 10
64.402033
 20
117.649292
  0
LINE
  5
18A
100
AcDbEntity
  8
ALPHA
100
AcDbLine
 10
80.359794
 20
113.522785
 30
0.0
 11
80.359794
 21
113.223926
 31
0.0
  0
LINE
  5
18B
100
AcDbEntity
  8
ALPHA
100
AcDbLine
 10
80.959794
 20
113.522785
 30
0.0
 11
80.359794
 21
113.522785
 31
0.0
  0
LINE
  5
18C
100
AcDbEntity
  8
ALPHA
100
AcDbLine
 10
80.959794
 20
113.522785
 30
0.0
 11
80.959794
 21
113.223926
 31
0.0
  0
LINE
  5
18D
100
AcDbEntity
  8
ALPHA
100
AcDbLine
 10
80.959794
 20
113.223926
 30
0.0
 11
80.359794
 21
113.223926
 31
0.0
  0
LWPOLYLINE
  5
18E
100
AcDbEntity
  8
ALPHA
100
AcDbPolyline
 90
        5
 70
     0
 43
0.0
 10
84.559794
 20
113.244571
 10
84.536896
 20
113.129177
 10
84.471813
 20
113.031515
 10
84.374449
 20
112.966286
 10
84.259794
 20
112.943425
  0
LINE
  5
195
100
AcDbEntity
  8
ALPHA
100
AcDbLine
 10
84.259794
 20
112.943425
 30
0.0
 11
84.259794
 21
113.223926
 31
0.0
  0
LINE
  5
196
100
AcDbEntity
  8
ALPHA
100
AcDbLine
 10
80.359794
 20
113.223926
 30
0.0
 11
80.359794
 21
112.943425
 31
0.0
  0
LWPOLYLINE
  5
197
100
AcDbEntity
  8
ALPHA
100
AcDbPolyline
 90
        6
 70
     0
 43
0.0
 10
81.559794
 20
112.920493
 10
81.529669
 20
113.10894
 10
81.444245
 20
113.275832
 10
81.312579
 20
113.407674
 10
81.146524
 20
113.492874
 10
80.959794
 20
113.522785
  0
LWPOLYLINE
  5
19F
100
AcDbEntity
  8
ALPHA
100
AcDbPolyline
 90
        5
 70
     0
 43
0.0
 10
80.359794
 20
112.943425
 10
80.245139
 20
112.966286
 10
80.147775
 20
113.031515
 10
80.082692
 20
113.129177
 10
80.059794
 20
113.244571
  0
LINE
  5
1A6
100
AcDbEntity
  8
ALPHA
100
AcDbLine
 10
81.559794
 20
112.920493
 30
0.0
 11
81.259794
 21
112.920493
 31
0.0
  0
LINE
  5
1A7
100
AcDbEntity
  8
ALPHA
100
AcDbLine
 10
81.559794
 20
111.62109
 30
0.0
 11
81.559794
 21
112.920493
 31
0.0
  0
LINE
  5
1A8
100
AcDbEntity
  8
ALPHA
100
AcDbLine
 10
81.559794
 20
111.361283
 30
0.0
 11
81.559794
 21
109.438706
 31
0.0
  0
LWPOLYLINE
  5
1A9
100
AcDbEntity
  8
ALPHA
100
AcDbPolyline
 90
        6
 70
     0
 43
0.0
 10
81.559794
 20
109.438706
 10
81.473344
 20
109.453401
 10
81.388828
 20
109.500463
 10
81.321344
 20
109.574905
 10
81.276085
 20
109.672515
 10
81.259794
 20
109.785116
  0
LINE
  5
1B1
100
AcDbEntity
  8
ALPHA
100
AcDbLine
 10
81.559794
 20
111.62109
 30
0.0
 11
81.259794
 21
111.62109
 31
0.0
  0
LWPOLYLINE
  5
1B2
100
AcDbEntity
  8
ALPHA
100
AcDbPolyline
 90
        6
 70
     0
 43
0.0
 10
83.259794
 20
109.785116
 10
83.243503
 20
109.672515
 10
83.198244
 20
109.574905
 10
83.13076
 20
109.500463
 10
83.046243
 20
109.453401
 10
82.959794
 20
109.438706
  0
LINE
  5
1BA
100
AcDbEntity
  8
ALPHA
100
AcDbLine
 10
82.959794
 20
109.438706
 30
0.0
 11
82.959794
 21
111.361283
 31
0.0
  0
LWPOLYLINE
  5
1BB
100
AcDbEntity
  8
ALPHA
100
AcDbPolyline
 90
        6
 70
     0
 43
0.0
 10
81.559794
 20
111.361283
 10
81.467089
 20
111.374007
 10
81.383458
 20
111.410892
 10
81.317089
 20
111.468392
 10
81.274477
 20
111.540781
 10
81.259794
 20
111.62109
  0
LWPOLYLINE
  5
1C3
100
AcDbEntity
  8
ALPHA
100
AcDbPolyline
 90
        6
 70
     0
 43
0.0
 10
59.959794
 20
117.472986
 10
59.974477
 20
117.472986
 10
60.017089
 20
117.472986
 10
60.083458
 20
117.472986
 10
60.167089
 20
117.472986
 10
60.259794
 20
117.472986
  0
LINE
  5
1CB
100
AcDbEntity
  8
ALPHA
100
AcDbLine
 10
60.259794
 20
117.472986
 30
0.0
 11
60.259794
 21
117.208152
 31
0.0
  0
LINE
  5
1CC
100
AcDbEntity
  8
ALPHA
100
AcDbLine
 10
81.559794
 20
111.62109
 30
0.0
 11
81.559794
 21
111.361283
 31
0.0
  0
LINE
  5
1CD
100
AcDbEntity
  8
ALPHA
100
AcDbLine
 10
82.959794
 20
111.62109
 30
0.0
 11
81.559794
 21
111.62109
 31
0.0
  0
LINE
  5
1CE
100
AcDbEntity
  8
ALPHA
100
AcDbLine
 10
82.959794
 20
111.62109
 30
0.0
 11
82.959794
 21
111.361283
 31
0.0
  0
LINE
  5
1CF
100
AcDbEntity
  8
ALPHA
100
AcDbLine
 10
82.959794
 20
111.361283
 30
0.0
 11
81.559794
 21
111.361283
 31
0.0
  0
LWPOLYLINE
  5
1D0
100
AcDbEntity
  8
ALPHA
100
AcDbPolyline
 90
        6
 70
     0
 43
0.0
 10
83.259794
 20
111.62109
 10
83.245111
 20
111.540781
 10
83.202499
 20
111.468392
 10
83.136129
 20
111.410892
 10
83.052499
 20
111.374007
 10
82.959794
 20
111.361283
  0
LWPOLYLINE
  5
1D8
100
AcDbEntity
  8
ALPHA
100
AcDbPolyline
 90
        5
 70
     0
 43
0.0
 10
82.959794
 20
111.62109
 10
83.074599
 20
111.621196
 10
83.171926
 20
111.621233
 10
83.236958
 20
111.621196
 10
83.259794
 20
111.62109
  0
ARC
  5
1DF
100
AcDbEntity
  8
ALPHA
100
AcDbCircle
 10
72.259794
 20
76.747885
 30
0.0
 40
7.8
100
AcDbArc
 50
66.372421
 51
113.627579
  0
LINE
  5
1E0
100
AcDbEntity
  8
ALPHA
100
AcDbLine
 10
78.209794
 20
87.855001
 30
0.0
 11
78.209794
 21
92.590448
 31
0.0
  0
LINE
  5
1E1
100
AcDbEntity
  8
ALPHA
100
AcDbLine
 10
86.309794
 20
87.855001
 30
0.0
 11
86.309794
 21
93.892439
 31
0.0
  0
LINE
  5
1E2
100
AcDbEntity
  8
ALPHA
100
AcDbLine
 10
78.209794
 20
92.590448
 30
0.0
 11
78.209794
 21
93.447885
 31
0.0
  0
LINE
  5
1E3
100
AcDbEntity
  8
ALPHA
100
AcDbLine
 10
79.359794
 20
89.147885
 30
0.0
 11
85.159794
 21
89.147885
 31
0.0
  0
LINE
  5
1E4
100
AcDbEntity
  8
ALPHA
100
AcDbLine
 10
86.309794
 20
93.892439
 30
0.0
 11
86.309794
 21
96.347885
 31
0.0
  0
LINE
  5
1E5
100
AcDbEntity
  8
ALPHA
100
AcDbLine
 10
86.359794
 20
103.047885
 30
0.0
 11
84.259794
 21
103.047885
 31
0.0
  0
ARC
  5
1E6
100
AcDbEntity
  8
ALPHA
100
AcDbCircle
 10
72.259794
 20
101.247885
 30
0.0
 40
15.25
100
AcDbArc
 50
108.749149
 51
109.346161
  0
ARC
  5
1E7
100
AcDbEntity
  8
ALPHA
100
AcDbCircle
 10
72.259794
 20
101.247885
 30
0.0
 40
15.25
100
AcDbArc
 50
66.011243
 51
71.250851
  0
LINE
  5
1E8
100
AcDbEntity
  8
ALPHA
100
AcDbLine
 10
71.084379
 20
121.247885
 30
0.0
 11
70.248829
 21
121.247885
 31
0.0
  0
LINE
  5
1E9
100
AcDbEntity
  8
ALPHA
100
AcDbLine
 10
74.270759
 20
121.247885
 30
0.0
 11
73.435209
 21
121.247885
 31
0.0
  0
ARC
  5
1EA
100
AcDbEntity
  8
ALPHA
100
AcDbCircle
 10
72.259794
 20
76.747885
 30
0.0
 40
7.8
100
AcDbArc
 50
118.087839
 51
129.715137
  0
ARC
  5
1EB
100
AcDbEntity
  8
ALPHA
100
AcDbCircle
 10
72.259794
 20
76.747885
 30
0.0
 40
7.8
100
AcDbArc
 50
50.284863
 51
61.912017
  0
LWPOLYLINE
  5
1EC
100
AcDbEntity
  8
ALPHA
100
AcDbPolyline
 90
        6
 70
     0
 43
0.0
 10
73.435209
 20
121.247885
 10
72.976515
 20
121.46164
 10
72.500482
 20
121.567627
 10
72.019106
 20
121.567627
 10
71.543072
 20
121.46164
 10
71.084379
 20
121.247885
  0
LWPOLYLINE
  5
1F4
100
AcDbEntity
  8
ALPHA
100
AcDbPolyline
 90
        5
 70
     0
 43
0.0
 10
73.070973
 20
119.147885
 10
72.668714
 20
119.032554
 10
72.259794
 20
118.994295
 10
71.850873
 20
119.032554
 10
71.448614
 20
119.147885
  0
LINE
  5
1FB
100
AcDbEntity
  8
ALPHA
100
AcDbLine
 10
70.248829
 20
121.247885
 30
0.0
 11
69.659794
 21
121.247885
 31
0.0
  0
LINE
  5
1FC
100
AcDbEntity
  8
ALPHA
100
AcDbLine
 10
85.659794
 20
82.747885
 30
0.0
 11
78.759794
 21
82.747885
 31
0.0
  0
LINE
  5
1FD
100
AcDbEntity
  8
ALPHA
100
AcDbLine
 10
74.859794
 20
121.247885
 30
0.0
 11
74.270759
 21
121.247885
 31
0.0
  0
LINE
  5
1FE
100
AcDbEntity
  8
ALPHA
100
AcDbLine
 10
65.759794
 20
82.747885
 30
0.0
 11
58.859794
 21
82.747885
 31
0.0
  0
LINE
  5
1FF
100
AcDbEntity
  8
ALPHA
100
AcDbLine
 10
76.059794
 20
119.345336
 30
0.0
 11
76.059794
 21
117.247885
 31
0.0
  0
LINE
  5
200
100
AcDbEntity
  8
ALPHA
100
AcDbLine
 10
78.459794
 20
119.27581
 30
0.0
 11
78.459794
 21
113.747885
 31
0.0
  0
LINE
  5
201
100
AcDbEntity
  8
ALPHA
100
AcDbLine
 10
78.459794
 20
113.747885
 30
0.0
 11
77.159794
 21
113.747885
 31
0.0
  0
LINE
  5
202
100
AcDbEntity
  8
ALPHA
100
AcDbLine
 10
87.159794
 20
113.347885
 30
0.0
 11
87.159794
 21
113.747885
 31
0.0
  0
LINE
  5
203
100
AcDbEntity
  8
ALPHA
100
AcDbLine
 10
87.159794
 20
113.747885
 30
0.0
 11
86.059794
 21
113.747885
 31
0.0
  0
LINE
  5
204
100
AcDbEntity
  8
ALPHA
100
AcDbLine
 10
86.059794
 20
119.27581
 30
0.0
 11
86.059794
 21
113.747885
 31
0.0
  0
LINE
  5
205
100
AcDbEntity
  8
ALPHA
100
AcDbLine
 10
86.059794
 20
120.170535
 30
0.0
 11
86.059794
 21
119.27581
 31
0.0
  0
LINE
  5
206
100
AcDbEntity
  8
ALPHA
100
AcDbLine
 10
78.459794
 20
120.461283
 30
0.0
 11
78.459794
 21
119.27581
 31
0.0
  0
ARC
  5
207
100
AcDbEntity
  8
ALPHA
100
AcDbCircle
 10
74.859794
 20
120.947885
 30
0.0
 40
0.3
100
AcDbArc
 50
0.0
 51
90.0
  0
LINE
  5
208
100
AcDbEntity
  8
ALPHA
100
AcDbLine
 10
68.459794
 20
117.247885
 30
0.0
 11
68.459794
 21
119.345336
 31
0.0
  0
ARC
  5
209
100
AcDbEntity
  8
ALPHA
100
AcDbCircle
 10
69.659794
 20
120.947885
 30
0.0
 40
0.3
100
AcDbArc
 50
90.0
 51
180.0
  0
LINE
  5
20A
100
AcDbEntity
  8
ALPHA
100
AcDbLine
 10
67.359794
 20
113.747885
 30
0.0
 11
67.159794
 21
113.747885
 31
0.0
  0
LINE
  5
20B
100
AcDbEntity
  8
ALPHA
100
AcDbLine
 10
66.059794
 20
117.247885
 30
0.0
 11
66.059794
 21
119.27581
 31
0.0
  0
LINE
  5
20C
100
AcDbEntity
  8
ALPHA
100
AcDbLine
 10
58.459794
 20
117.247885
 30
0.0
 11
58.459794
 21
119.27581
 31
0.0
  0
LINE
  5
20D
100
AcDbEntity
  8
ALPHA
100
AcDbLine
 10
75.159794
 20
119.147885
 30
0.0
 11
73.070973
 21
119.147885
 31
0.0
  0
LINE
  5
20E
100
AcDbEntity
  8
ALPHA
100
AcDbLine
 10
71.448614
 20
119.147885
 30
0.0
 11
69.359794
 21
119.147885
 31
0.0
  0
LINE
  5
20F
100
AcDbEntity
  8
ALPHA
100
AcDbLine
 10
66.059794
 20
120.72109
 30
0.0
 11
66.059794
 21
120.461283
 31
0.0
  0
LINE
  5
210
100
AcDbEntity
  8
ALPHA
100
AcDbLine
 10
58.459794
 20
119.27581
 30
0.0
 11
58.459794
 21
120.170535
 31
0.0
  0
LINE
  5
211
100
AcDbEntity
  8
ALPHA
100
AcDbLine
 10
78.459794
 20
120.461283
 30
0.0
 11
78.459794
 21
120.72109
 31
0.0
  0
LINE
  5
212
100
AcDbEntity
  8
ALPHA
100
AcDbLine
 10
66.059794
 20
119.27581
 30
0.0
 11
66.059794
 21
120.461283
 31
0.0
  0
LINE
  5
213
100
AcDbEntity
  8
ALPHA
100
AcDbLine
 10
69.359794
 20
120.748341
 30
0.0
 11
69.359794
 21
120.471176
 31
0.0
  0
LINE
  5
214
100
AcDbEntity
  8
ALPHA
100
AcDbLine
 10
68.459794
 20
120.471176
 30
0.0
 11
68.459794
 21
120.748341
 31
0.0
  0
LINE
  5
215
100
AcDbEntity
  8
ALPHA
100
AcDbLine
 10
76.059794
 20
120.748341
 30
0.0
 11
76.059794
 21
120.471176
 31
0.0
  0
LINE
  5
216
100
AcDbEntity
  8
ALPHA
100
AcDbLine
 10
75.159794
 20
120.471176
 30
0.0
 11
75.159794
 21
120.748341
 31
0.0
  0
LINE
  5
217
100
AcDbEntity
  8
ALPHA
100
AcDbLine
 10
68.459794
 20
120.471176
 30
0.0
 11
68.459794
 21
119.345336
 31
0.0
  0
LINE
  5
218
100
AcDbEntity
  8
ALPHA
100
AcDbLine
 10
76.059794
 20
119.345336
 30
0.0
 11
76.059794
 21
120.471176
 31
0.0
  0
LINE
  5
219
100
AcDbEntity
  8
ALPHA
100
AcDbLine
 10
69.359794
 20
120.748341
 30
0.0
 11
69.359794
 21
121.723621
 31
0.0
  0
LINE
  5
21A
100
AcDbEntity
  8
ALPHA
100
AcDbLine
 10
75.159794
 20
120.748341
 30
0.0
 11
75.159794
 21
121.723621
 31
0.0
  0
LINE
  5
21B
100
AcDbEntity
  8
ALPHA
100
AcDbLine
 10
85.559794
 20
121.03656
 30
0.0
 11
83.174153
 21
122.413911
 31
0.0
  0
LINE
  5
21C
100
AcDbEntity
  8
ALPHA
100
AcDbLine
 10
61.345434
 20
122.413911
 30
0.0
 11
58.959794
 21
121.03656
 31
0.0
  0
ARC
  5
21D
100
AcDbEntity
  8
ALPHA
100
AcDbCircle
 10
72.259794
 20
101.247885
 30
0.0
 40
10.15
100
AcDbArc
 50
345.741007
 51
20.171271
  0
ARC
  5
21E
100
AcDbEntity
  8
ALPHA
100
AcDbCircle
 10
72.259794
 20
101.247885
 30
0.0
 40
10.15
100
AcDbArc
 50
191.379186
 51
192.242015
  0
ARC
  5
21F
100
AcDbEntity
  8
ALPHA
100
AcDbCircle
 10
72.259794
 20
101.247885
 30
0.0
 40
10.15
100
AcDbArc
 50
167.758332
 51
168.617954
  0
LINE
  5
220
100
AcDbEntity
  8
ALPHA
100
AcDbLine
 10
69.359794
 20
120.471176
 30
0.0
 11
69.359794
 21
119.147885
 31
0.0
  0
LINE
  5
221
100
AcDbEntity
  8
ALPHA
100
AcDbLine
 10
75.159794
 20
119.147885
 30
0.0
 11
75.159794
 21
120.471176
 31
0.0
  0
LINE
  5
222
100
AcDbEntity
  8
ALPHA
100
AcDbLine
 10
81.259794
 20
112.642279
 30
0.0
 11
81.259794
 21
112.920493
 31
0.0
  0
LINE
  5
223
100
AcDbEntity
  8
ALPHA
100
AcDbLine
 10
83.259794
 20
112.920493
 30
0.0
 11
83.259794
 21
112.642279
 31
0.0
  0
LINE
  5
224
100
AcDbEntity
  8
ALPHA
100
AcDbLine
 10
85.659794
 20
82.747885
 30
0.0
 11
85.659794
 21
83.62952
 31
0.0
  0
LINE
  5
225
100
AcDbEntity
  8
ALPHA
100
AcDbLine
 10
78.759794
 20
83.62952
 30
0.0
 11
85.659794
 21
83.62952
 31
0.0
  0
LINE
  5
226
100
AcDbEntity
  8
ALPHA
100
AcDbLine
 10
78.759794
 20
82.747885
 30
0.0
 11
78.759794
 21
83.62952
 31
0.0
  0
LINE
  5
227
100
AcDbEntity
  8
ALPHA
100
AcDbLine
 10
77.259794
 20
82.747885
 30
0.0
 11
77.259794
 21
83.62952
 31
0.0
  0
LINE
  5
228
100
AcDbEntity
  8
ALPHA
100
AcDbLine
 10
75.931728
 20
83.62952
 30
0.0
 11
77.259794
 21
83.62952
 31
0.0
  0
ARC
  5
229
100
AcDbEntity
  8
ALPHA
100
AcDbCircle
 10
72.259794
 20
76.747885
 30
0.0
 40
7.8
100
AcDbArc
 50
61.916307
 51
66.372421
  0
ARC
  5
22A
100
AcDbEntity
  8
ALPHA
100
AcDbCircle
 10
72.259794
 20
76.747885
 30
0.0
 40
7.8
100
AcDbArc
 50
113.627579
 51
118.083693
  0
LINE
  5
22B
100
AcDbEntity
  8
ALPHA
100
AcDbLine
 10
67.259794
 20
83.62952
 30
0.0
 11
68.58786
 21
83.62952
 31
0.0
  0
LINE
  5
22C
100
AcDbEntity
  8
ALPHA
100
AcDbLine
 10
67.259794
 20
82.747885
 30
0.0
 11
67.259794
 21
83.62952
 31
0.0
  0
LINE
  5
22D
100
AcDbEntity
  8
ALPHA
100
AcDbLine
 10
65.759794
 20
82.747885
 30
0.0
 11
65.759794
 21
83.62952
 31
0.0
  0
LINE
  5
22E
100
AcDbEntity
  8
ALPHA
100
AcDbLine
 10
58.859794
 20
83.62952
 30
0.0
 11
65.759794
 21
83.62952
 31
0.0
  0
LINE
  5
22F
100
AcDbEntity
  8
ALPHA
100
AcDbLine
 10
58.859794
 20
82.747885
 30
0.0
 11
58.859794
 21
83.62952
 31
0.0
  0
ARC
  5
230
100
AcDbEntity
  8
ALPHA
100
AcDbCircle
 10
76.773384
 20
124.547885
 30
0.0
 40
2.0
100
AcDbArc
 50
234.518642
 51
270.0
  0
ARC
  5
231
100
AcDbEntity
  8
ALPHA
100
AcDbCircle
 10
67.746203
 20
124.547885
 30
0.0
 40
2.0
100
AcDbArc
 50
270.0
 51
305.481358
  0
ARC
  5
232
100
AcDbEntity
  8
ALPHA
100
AcDbCircle
 10
72.259794
 20
118.247885
 30
0.0
 40
5.75
100
AcDbArc
 50
54.332551
 51
125.667449
  0
ARC
  5
233
100
AcDbEntity
  8
ALPHA
100
AcDbCircle
 10
72.259794
 20
101.247885
 30
0.0
 40
8.25
100
AcDbArc
 50
126.4829
 51
128.231827
  0
ARC
  5
234
100
AcDbEntity
  8
ALPHA
100
AcDbCircle
 10
72.259794
 20
101.247885
 30
0.0
 40
8.25
100
AcDbArc
 50
49.785829
 51
53.5171
  0
LINE
  5
235
100
AcDbEntity
  8
ALPHA
100
AcDbLine
 10
87.159794
 20
84.909437
 30
0.0
 11
87.159794
 21
83.747885
 31
0.0
  0
LINE
  5
236
100
AcDbEntity
  8
ALPHA
100
AcDbLine
 10
57.359794
 20
83.747885
 30
0.0
 11
57.359794
 21
84.909437
 31
0.0
  0
LINE
  5
237
100
AcDbEntity
  8
ALPHA
100
AcDbLine
 10
81.787254
 20
104.747885
 30
0.0
 11
86.359794
 21
104.747885
 31
0.0
  0
ARC
  5
238
100
AcDbEntity
  8
ALPHA
100
AcDbCircle
 10
58.359794
 20
83.747885
 30
0.0
 40
1.0
100
AcDbArc
 50
180.0
 51
270.0
  0
LINE
  5
239
100
AcDbEntity
  8
ALPHA
100
AcDbLine
 10
84.259794
 20
98.747885
 30
0.0
 11
84.259794
 21
104.747885
 31
0.0
  0
LINE
  5
23A
100
AcDbEntity
  8
ALPHA
100
AcDbLine
 10
86.359794
 20
98.747885
 30
0.0
 11
80.121886
 21
98.747885
 31
0.0
  0
LINE
  5
23B
100
AcDbEntity
  8
ALPHA
100
AcDbLine
 10
87.159794
 20
93.892439
 30
0.0
 11
87.159794
 21
96.347885
 31
0.0
  0
LINE
  5
23C
100
AcDbEntity
  8
ALPHA
100
AcDbLine
 10
87.159794
 20
84.909437
 30
0.0
 11
87.159794
 21
93.892439
 31
0.0
  0
LINE
  5
23D
100
AcDbEntity
  8
ALPHA
100
AcDbLine
 10
61.845434
 20
122.547885
 30
0.0
 11
67.746203
 21
122.547885
 31
0.0
  0
LINE
  5
23E
100
AcDbEntity
  8
ALPHA
100
AcDbLine
 10
76.773384
 20
122.547885
 30
0.0
 11
82.674153
 21
122.547885
 31
0.0
  0
LINE
  5
23F
100
AcDbEntity
  8
ALPHA
100
AcDbLine
 10
57.359794
 20
84.909437
 30
0.0
 11
57.359794
 21
85.247885
 31
0.0
  0
LINE
  5
240
100
AcDbEntity
  8
ALPHA
100
AcDbLine
 10
67.275819
 20
82.747885
 30
0.0
 11
67.259794
 21
82.747885
 31
0.0
  0
LINE
  5
241
100
AcDbEntity
  8
ALPHA
100
AcDbLine
 10
67.259794
 20
82.747885
 30
0.0
 11
65.759794
 21
82.747885
 31
0.0
  0
LINE
  5
242
100
AcDbEntity
  8
ALPHA
100
AcDbLine
 10
58.859794
 20
82.747885
 30
0.0
 11
58.359794
 21
82.747885
 31
0.0
  0
LINE
  5
243
100
AcDbEntity
  8
ALPHA
100
AcDbLine
 10
86.159794
 20
82.747885
 30
0.0
 11
85.659794
 21
82.747885
 31
0.0
  0
LINE
  5
244
100
AcDbEntity
  8
ALPHA
100
AcDbLine
 10
78.759794
 20
82.747885
 30
0.0
 11
77.259794
 21
82.747885
 31
0.0
  0
LINE
  5
245
100
AcDbEntity
  8
ALPHA
100
AcDbLine
 10
77.259794
 20
82.747885
 30
0.0
 11
77.243768
 21
82.747885
 31
0.0
  0
ARC
  5
246
100
AcDbEntity
  8
ALPHA
100
AcDbCircle
 10
59.459794
 20
120.170535
 30
0.0
 40
1.0
100
AcDbArc
 50
120.0
 51
146.594879
  0
ARC
  5
247
100
AcDbEntity
  8
ALPHA
100
AcDbCircle
 10
59.459794
 20
120.170535
 30
0.0
 40
1.0
100
AcDbArc
 50
146.594879
 51
163.097273
  0
ARC
  5
248
100
AcDbEntity
  8
ALPHA
100
AcDbCircle
 10
59.459794
 20
120.170535
 30
0.0
 40
1.0
100
AcDbArc
 50
163.097273
 51
180.0
  0
ARC
  5
249
100
AcDbEntity
  8
ALPHA
100
AcDbCircle
 10
85.059794
 20
120.170535
 30
0.0
 40
1.0
100
AcDbArc
 50
0.0
 51
16.902727
  0
ARC
  5
24A
100
AcDbEntity
  8
ALPHA
100
AcDbCircle
 10
85.059794
 20
120.170535
 30
0.0
 40
1.0
100
AcDbArc
 50
16.902727
 51
33.405121
  0
ARC
  5
24B
100
AcDbEntity
  8
ALPHA
100
AcDbCircle
 10
85.059794
 20
120.170535
 30
0.0
 40
1.0
100
AcDbArc
 50
33.405121
 51
60.0
  0
ARC
  5
24C
100
AcDbEntity
  8
ALPHA
100
AcDbCircle
 10
82.674153
 20
121.547885
 30
0.0
 40
1.0
100
AcDbArc
 50
60.0
 51
90.0
  0
ARC
  5
24D
100
AcDbEntity
  8
ALPHA
100
AcDbCircle
 10
61.845434
 20
121.547885
 30
0.0
 40
1.0
100
AcDbArc
 50
90.0
 51
120.0
  0
LINE
  5
24E
100
AcDbEntity
  8
ALPHA
100
AcDbLine
 10
81.259794
 20
112.642279
 30
0.0
 11
81.259794
 21
112.920493
 31
0.0
  0
LINE
  5
24F
100
AcDbEntity
  8
ALPHA
100
AcDbLine
 10
87.159794
 20
84.909437
 30
0.0
 11
87.159794
 21
83.747885
 31
0.0
  0
ARC
  5
250
100
AcDbEntity
  8
ALPHA
100
AcDbCircle
 10
86.159794
 20
83.747885
 30
0.0
 40
1.0
100
AcDbArc
 50
270.0
 51
0.0
  0
LINE
  5
251
100
AcDbEntity
  8
ALPHA
100
AcDbLine
 10
86.359794
 20
99.447885
 30
0.0
 11
84.259794
 21
99.447885
 31
0.0
  0
LINE
  5
252
100
AcDbEntity
  8
ALPHA
100
AcDbLine
 10
79.359794
 20
92.847885
 30
0.0
 11
79.359794
 21
89.147885
 31
0.0
  0
LINE
  5
253
100
AcDbEntity
  8
ALPHA
100
AcDbLine
 10
79.359794
 20
92.847885
 30
0.0
 11
85.159794
 21
92.847885
 31
0.0
  0
LINE
  5
254
100
AcDbEntity
  8
ALPHA
100
AcDbLine
 10
85.159794
 20
92.847885
 30
0.0
 11
85.159794
 21
89.147885
 31
0.0
  0
LINE
  5
255
100
AcDbEntity
  8
ALPHA
100
AcDbLine
 10
87.159794
 20
113.347885
 30
0.0
 11
87.159794
 21
96.347885
 31
0.0
  0
ARC
  5
256
100
AcDbEntity
  8
ALPHA
100
AcDbCircle
 10
72.259794
 20
101.247885
 30
0.0
 40
8.25
100
AcDbArc
 50
231.808761
 51
233.492591
  0
LINE
  5
257
100
AcDbEntity
  8
ALPHA
100
AcDbLine
 10
80.217966
 20
107.547885
 30
0.0
 11
77.586378
 21
107.547885
 31
0.0
  0
ARC
  5
258
100
AcDbEntity
  8
ALPHA
100
AcDbCircle
 10
72.259794
 20
101.247885
 30
0.0
 40
10.15
100
AcDbArc
 50
20.171271
 51
38.366514
  0
LINE
  5
259
100
AcDbEntity
  8
ALPHA
100
AcDbLine
 10
86.359794
 20
104.747885
 30
0.0
 11
86.359794
 21
98.747885
 31
0.0
  0
ARC
  5
25A
100
AcDbEntity
  8
ALPHA
100
AcDbCircle
 10
72.259794
 20
101.247885
 30
0.0
 40
8.25
100
AcDbArc
 50
306.507409
 51
342.360299
  0
LINE
  5
25B
100
AcDbEntity
  8
ALPHA
100
AcDbLine
 10
80.059794
 20
117.7512
 30
0.0
 11
80.059794
 21
113.244571
 31
0.0
  0
LINE
  5
25C
100
AcDbEntity
  8
ALPHA
100
AcDbLine
 10
84.559794
 20
117.7512
 30
0.0
 11
84.559794
 21
113.244571
 31
0.0
  0
LINE
  5
25D
100
AcDbEntity
  8
ALPHA
100
AcDbLine
 10
83.259794
 20
112.642279
 30
0.0
 11
83.259794
 21
109.785116
 31
0.0
  0
LINE
  5
25E
100
AcDbEntity
  8
ALPHA
100
AcDbLine
 10
81.259794
 20
112.642279
 30
0.0
 11
81.259794
 21
109.785116
 31
0.0
  0
LINE
  5
25F
100
AcDbEntity
  8
ALPHA
100
AcDbLine
 10
59.959794
 20
117.7512
 30
0.0
 11
59.959794
 21
117.208152
 31
0.0
  0
LINE
  5
260
100
AcDbEntity
  8
ALPHA
100
AcDbLine
 10
64.459794
 20
117.7512
 30
0.0
 11
64.459794
 21
117.208152
 31
0.0
  0
LINE
  5
261
100
AcDbEntity
  8
ALPHA
100
AcDbLine
 10
86.509794
 20
111.747885
 30
0.0
 11
86.509794
 21
109.181408
 31
0.0
  0
LINE
  5
262
100
AcDbEntity
  8
ALPHA
100
AcDbLine
 10
84.309794
 20
111.747885
 30
0.0
 11
84.309794
 21
109.181408
 31
0.0
  0
LINE
  5
263
100
AcDbEntity
  8
ALPHA
100
AcDbLine
 10
78.059794
 20
111.747885
 30
0.0
 11
78.059794
 21
109.181408
 31
0.0
  0
LINE
  5
264
100
AcDbEntity
  8
ALPHA
100
AcDbLine
 10
80.259794
 20
111.747885
 30
0.0
 11
80.259794
 21
109.181408
 31
0.0
  0
LWPOLYLINE
  5
265
100
AcDbEntity
  8
ALPHA
100
AcDbPolyline
 90
       11
 70
     0
 43
0.0
 10
71.788353
 20
120.630915
 10
71.796045
 20
120.595022
 10
71.818366
 20
120.490857
 10
71.853132
 20
120.328616
 10
71.896939
 20
120.124181
 10
71.9455
 20
119.897563
 10
71.994061
 20
119.670945
 10
72.037869
 20
119.466509
 10
72.072635
 20
119.304269
 10
72.094956
 20
119.200104
 10
72.102647
 20
119.164211
  0
LWPOLYLINE
  5
272
100
AcDbEntity
  8
ALPHA
100
AcDbPolyline
 90
       11
 70
     0
 43
0.0
 10
72.731234
 20
120.630915
 10
72.723543
 20
120.595022
 10
72.701222
 20
120.490857
 10
72.666456
 20
120.328616
 10
72.622648
 20
120.124181
 10
72.574087
 20
119.897563
 10
72.525526
 20
119.670945
 10
72.481719
 20
119.466509
 10
72.446953
 20
119.304269
 10
72.424632
 20
119.200104
 10
72.416941
 20
119.164211
  0
LINE
  5
27F
100
AcDbEntity
  8
ALPHA
100
AcDbLine
 10
69.194364
 20
83.909181
 30
0.0
 11
69.199138
 21
83.917452
 31
0.0
  0
LINE
  5
280
100
AcDbEntity
  8
ALPHA
100
AcDbLine
 10
69.172613
 20
83.871506
 30
0.0
 11
69.194364
 21
83.909181
 31
0.0
  0
LINE
  5
281
100
AcDbEntity
  8
ALPHA
100
AcDbLine
 10
69.158938
 20
83.847818
 30
0.0
 11
69.172613
 21
83.871506
 31
0.0
  0
LINE
  5
282
100
AcDbEntity
  8
ALPHA
100
AcDbLine
 10
68.899833
 20
83.399004
 30
0.0
 11
69.158938
 21
83.847818
 31
0.0
  0
LINE
  5
283
100
AcDbEntity
  8
ALPHA
100
AcDbLine
 10
68.899833
 20
83.399004
 30
0.0
 11
68.566032
 21
83.591711
 31
0.0
  0
LINE
  5
284
100
AcDbEntity
  8
ALPHA
100
AcDbLine
 10
69.359794
 20
120.110509
 30
0.0
 11
71.788353
 21
120.630915
 31
0.0
  0
LINE
  5
285
100
AcDbEntity
  8
ALPHA
100
AcDbLine
 10
68.899833
 20
83.399004
 30
0.0
 11
68.566032
 21
83.591711
 31
0.0
  0
LINE
  5
286
100
AcDbEntity
  8
ALPHA
100
AcDbLine
 10
71.695771
 20
119.077023
 30
0.0
 11
72.102647
 21
119.164211
 31
0.0
  0
LINE
  5
287
100
AcDbEntity
  8
ALPHA
100
AcDbLine
 10
69.359794
 20
120.110509
 30
0.0
 11
71.788353
 21
120.630915
 31
0.0
  0
LINE
  5
288
100
AcDbEntity
  8
ALPHA
100
AcDbLine
 10
71.695771
 20
119.077023
 30
0.0
 11
72.102647
 21
119.164211
 31
0.0
  0
ARC
  5
289
100
AcDbEntity
  8
ALPHA
100
AcDbCircle
 10
72.259794
 20
118.430859
 30
0.0
 40
2.25
100
AcDbArc
 50
77.905243
 51
102.094757
  0
ARC
  5
28A
100
AcDbEntity
  8
ALPHA
100
AcDbCircle
 10
72.259794
 20
118.430859
 30
0.0
 40
0.75
100
AcDbArc
 50
77.905243
 51
102.094757
  0
ARC
  5
28B
100
AcDbEntity
  8
ALPHA
100
AcDbCircle
 10
72.259794
 20
118.430859
 30
0.0
 40
2.25
100
AcDbArc
 50
77.905243
 51
102.094757
  0
ARC
  5
28C
100
AcDbEntity
  8
ALPHA
100
AcDbCircle
 10
72.259794
 20
118.430859
 30
0.0
 40
0.75
100
AcDbArc
 50
77.905243
 51
102.094757
  0
LINE
  5
28D
100
AcDbEntity
  8
ALPHA
100
AcDbLine
 10
72.731234
 20
120.630915
 30
0.0
 11
75.159794
 21
120.110509
 31
0.0
  0
LINE
  5
28E
100
AcDbEntity
  8
ALPHA
100
AcDbLine
 10
72.416941
 20
119.164211
 30
0.0
 11
72.823817
 21
119.077023
 31
0.0
  0
LINE
  5
28F
100
AcDbEntity
  8
ALPHA
100
AcDbLine
 10
72.731234
 20
120.630915
 30
0.0
 11
75.159794
 21
120.110509
 31
0.0
  0
LINE
  5
290
100
AcDbEntity
  8
ALPHA
100
AcDbLine
 10
72.416941
 20
119.164211
 30
0.0
 11
72.823817
 21
119.077023
 31
0.0
  0
LINE
  5
291
100
AcDbEntity
  8
ALPHA
100
AcDbLine
 10
82.25932
 20
102.881885
 30
0.0
 11
82.25922
 21
99.596102
 31
0.0
  0
LINE
  5
292
100
AcDbEntity
  8
ALPHA
100
AcDbLine
 10
80.759439
 20
106.784025
 30
0.0
 11
80.759194
 21
98.747885
 31
0.0
  0
LINE
  5
293
100
AcDbEntity
  8
ALPHA
100
AcDbLine
 10
82.25932
 20
102.881885
 30
0.0
 11
82.25922
 21
99.596102
 31
0.0
  0
LINE
  5
294
100
AcDbEntity
  8
ALPHA
100
AcDbLine
 10
80.759439
 20
106.784025
 30
0.0
 11
80.759194
 21
98.747885
 31
0.0
  0
LINE
  5
295
100
AcDbEntity
  8
ALPHA
100
AcDbLine
 10
75.953556
 20
83.591711
 30
0.0
 11
75.619754
 21
83.399004
 31
0.0
  0
LINE
  5
296
100
AcDbEntity
  8
ALPHA
100
AcDbLine
 10
75.953556
 20
83.591711
 30
0.0
 11
75.619754
 21
83.399004
 31
0.0
  0
LINE
  5
297
100
AcDbEntity
  8
ALPHA
100
AcDbLine
 10
75.325154
 20
83.909303
 30
0.0
 11
75.320449
 21
83.917452
 31
0.0
  0
LINE
  5
298
100
AcDbEntity
  8
ALPHA
100
AcDbLine
 10
75.346974
 20
83.871506
 30
0.0
 11
75.325154
 21
83.909303
 31
0.0
  0
LINE
  5
299
100
AcDbEntity
  8
ALPHA
100
AcDbLine
 10
75.360649
 20
83.847818
 30
0.0
 11
75.346974
 21
83.871506
 31
0.0
  0
LINE
  5
29A
100
AcDbEntity
  8
ALPHA
100
AcDbLine
 10
75.619754
 20
83.399004
 30
0.0
 11
75.360649
 21
83.847818
 31
0.0
  0
LINE
  5
29B
100
AcDbEntity
  8
ALPHA
100
AcDbLine
 10
67.159794
 20
86.747885
 30
0.0
 11
62.259794
 21
86.747885
 31
0.0
  0
LINE
  5
29C
100
AcDbEntity
  8
ALPHA
100
AcDbLine
 10
65.759794
 20
115.747885
 30
0.0
 11
62.259794
 21
115.747885
 31
0.0
  0
LINE
  5
29D
100
AcDbEntity
  8
ALPHA
100
AcDbLine
 10
64.420159
 20
111.747885
 30
0.0
 11
66.309794
 21
111.747885
 31
0.0
  0
LINE
  5
29E
100
AcDbEntity
  8
ALPHA
100
AcDbLine
 10
62.259794
 20
107.165358
 30
0.0
 11
62.259794
 21
106.623217
 31
0.0
  0
LINE
  5
29F
100
AcDbEntity
  8
ALPHA
100
AcDbLine
 10
62.259794
 20
107.547384
 30
0.0
 11
62.259794
 21
107.321641
 31
0.0
  0
LINE
  5
2A0
100
AcDbEntity
  8
ALPHA
100
AcDbLine
 10
62.259794
 20
106.623217
 30
0.0
 11
58.359794
 21
106.623217
 31
0.0
  0
LINE
  5
2A1
100
AcDbEntity
  8
ALPHA
100
AcDbLine
 10
62.259794
 20
94.948387
 30
0.0
 11
62.259794
 21
95.872554
 31
0.0
  0
LINE
  5
2A2
100
AcDbEntity
  8
ALPHA
100
AcDbLine
 10
58.359794
 20
95.872554
 30
0.0
 11
62.259794
 21
95.872554
 31
0.0
  0
LINE
  5
2A3
100
AcDbEntity
  8
ALPHA
100
AcDbLine
 10
65.232357
 20
109.988992
 30
0.0
 11
65.238872
 21
110.0697
 31
0.0
  0
LWPOLYLINE
  5
2A4
100
AcDbEntity
  8
ALPHA
100
AcDbPolyline
 90
        7
 70
     0
 43
0.0
 10
63.567463
 20
107.669178
 10
64.059062
 20
107.96408
 10
64.484423
 20
108.346021
 10
64.827884
 20
108.800941
 10
65.076798
 20
109.312093
 10
65.221997
 20
109.86066
 10
65.232357
 20
109.988992
  0
LWPOLYLINE
  5
2AD
100
AcDbEntity
  8
ALPHA
100
AcDbPolyline
 90
        4
 70
     0
 43
0.0
 10
65.113715
 20
109.047885
 10
65.215063
 20
109.462798
 10
65.258244
 20
109.888975
 10
65.259778
 20
109.986779
  0
LINE
  5
2B3
100
AcDbEntity
  8
ALPHA
100
AcDbLine
 10
67.159794
 20
113.347885
 30
0.0
 11
65.759794
 21
113.347885
 31
0.0
  0
LINE
  5
2B4
100
AcDbEntity
  8
ALPHA
100
AcDbLine
 10
65.759794
 20
115.747885
 30
0.0
 11
65.759794
 21
113.347885
 31
0.0
  0
LINE
  5
2B5
100
AcDbEntity
  8
ALPHA
100
AcDbLine
 10
65.759794
 20
115.747885
 30
0.0
 11
66.159794
 21
115.92139
 31
0.0
  0
LINE
  5
2B6
100
AcDbEntity
  8
ALPHA
100
AcDbLine
 10
65.759794
 20
113.347885
 30
0.0
 11
66.159794
 21
113.747885
 31
0.0
  0
LWPOLYLINE
  5
2B7
100
AcDbEntity
  8
ALPHA
100
AcDbPolyline
 90
        3
 70
     0
 43
0.0
 10
65.129999
 20
93.747885
 10
65.236299
 20
93.242045
 10
65.259756
 20
92.861326
  0
LINE
  5
2BC
100
AcDbEntity
  8
ALPHA
100
AcDbLine
 10
66.309794
 20
111.015635
 30
0.0
 11
65.071645
 21
111.015635
 31
0.0
  0
LINE
  5
2BD
100
AcDbEntity
  8
ALPHA
100
AcDbLine
 10
66.309794
 20
110.73748
 30
0.0
 11
65.167301
 21
110.73748
 31
0.0
  0
LINE
  5
2BE
100
AcDbEntity
  8
ALPHA
100
AcDbLine
 10
66.309794
 20
109.047885
 30
0.0
 11
65.113715
 21
109.047885
 31
0.0
  0
LWPOLYLINE
  5
2BF
100
AcDbEntity
  8
ALPHA
100
AcDbPolyline
 90
        6
 70
     0
 43
0.0
 10
65.113715
 20
109.047885
 10
65.082269
 20
108.951733
 10
65.053782
 20
108.866768
 10
65.032796
 20
108.80184
 10
65.022171
 20
108.761571
 10
65.02305
 20
108.747885
  0
LINE
  5
2C7
100
AcDbEntity
  8
ALPHA
100
AcDbLine
 10
62.428651
 20
107.165358
 30
0.0
 11
62.259794
 21
107.165358
 31
0.0
  0
LINE
  5
2C8
100
AcDbEntity
  8
ALPHA
100
AcDbLine
 10
62.548969
 20
107.165358
 30
0.0
 11
62.428651
 21
107.165358
 31
0.0
  0
LINE
  5
2C9
100
AcDbEntity
  8
ALPHA
100
AcDbLine
 10
62.259794
 20
107.165358
 30
0.0
 11
62.428651
 21
107.160801
 31
0.0
  0
LINE
  5
2CA
100
AcDbEntity
  8
ALPHA
100
AcDbLine
 10
64.001668
 20
107.669178
 30
0.0
 11
63.567463
 21
107.669178
 31
0.0
  0
LINE
  5
2CB
100
AcDbEntity
  8
ALPHA
100
AcDbLine
 10
63.351797
 20
107.321641
 30
0.0
 11
62.259794
 21
107.321641
 31
0.0
  0
LWPOLYLINE
  5
2CC
100
AcDbEntity
  8
ALPHA
100
AcDbPolyline
 90
        5
 70
     0
 43
0.0
 10
63.567463
 20
107.669178
 10
63.295762
 20
107.551468
 10
62.987775
 20
107.447091
 10
62.64324
 20
107.366536
 10
62.259794
 20
107.321641
  0
LINE
  5
2D3
100
AcDbEntity
  8
ALPHA
100
AcDbLine
 10
59.459794
 20
85.58096
 30
0.0
 11
65.759794
 21
85.58096
 31
0.0
  0
LINE
  5
2D4
100
AcDbEntity
  8
ALPHA
100
AcDbLine
 10
66.059794
 20
85.247885
 30
0.0
 11
66.059794
 21
86.115113
 31
0.0
  0
LINE
  5
2D5
100
AcDbEntity
  8
ALPHA
100
AcDbLine
 10
65.359794
 20
117.025531
 30
0.0
 11
59.459794
 21
117.025531
 31
0.0
  0
LINE
  5
2D6
100
AcDbEntity
  8
ALPHA
100
AcDbLine
 10
67.159794
 20
117.203766
 30
0.0
 11
66.159794
 21
117.203766
 31
0.0
  0
LWPOLYLINE
  5
2D7
100
AcDbEntity
  8
ALPHA
100
AcDbPolyline
 90
        8
 70
     0
 43
0.0
 10
62.259794
 20
95.872554
 10
62.795192
 20
95.823649
 10
63.313462
 20
95.678481
 10
63.798885
 20
95.441111
 10
64.235777
 20
95.118416
 10
64.60968
 20
94.719994
 10
64.907739
 20
94.258128
 10
65.119207
 20
93.747885
  0
LWPOLYLINE
  5
2E1
100
AcDbEntity
  8
ALPHA
100
AcDbPolyline
 90
        8
 70
     0
 43
0.0
 10
62.259794
 20
106.623217
 10
62.795192
 20
106.672121
 10
63.313462
 20
106.817289
 10
63.798885
 20
107.05466
 10
64.235777
 20
107.377354
 10
64.60968
 20
107.775777
 10
64.907739
 20
108.237642
 10
65.119207
 20
108.747885
  0
LINE
  5
2EB
100
AcDbEntity
  8
ALPHA
100
AcDbLine
 10
66.359794
 20
100.947885
 30
0.0
 11
66.159794
 21
100.947885
 31
0.0
  0
LINE
  5
2EC
100
AcDbEntity
  8
ALPHA
100
AcDbLine
 10
66.359794
 20
101.547885
 30
0.0
 11
66.159794
 21
101.547885
 31
0.0
  0
LINE
  5
2ED
100
AcDbEntity
  8
ALPHA
100
AcDbLine
 10
66.359794
 20
108.747885
 30
0.0
 11
66.359794
 21
93.747885
 31
0.0
  0
LINE
  5
2EE
100
AcDbEntity
  8
ALPHA
100
AcDbLine
 10
60.359794
 20
94.948387
 30
0.0
 11
62.259794
 21
94.948387
 31
0.0
  0
LINE
  5
2EF
100
AcDbEntity
  8
ALPHA
100
AcDbLine
 10
60.359794
 20
107.547384
 30
0.0
 11
62.259794
 21
107.547384
 31
0.0
  0
LINE
  5
2F0
100
AcDbEntity
  8
ALPHA
100
AcDbLine
 10
65.616116
 20
86.115113
 30
0.0
 11
65.759794
 21
86.026656
 31
0.0
  0
LINE
  5
2F1
100
AcDbEntity
  8
ALPHA
100
AcDbLine
 10
62.259794
 20
86.115113
 30
0.0
 11
66.059794
 21
86.115113
 31
0.0
  0
LINE
  5
2F2
100
AcDbEntity
  8
ALPHA
100
AcDbLine
 10
62.259794
 20
116.380658
 30
0.0
 11
65.359794
 21
116.380658
 31
0.0
  0
LWPOLYLINE
  5
2F3
100
AcDbEntity
  8
ALPHA
100
AcDbPolyline
 90
        6
 70
     0
 43
0.0
 10
62.259794
 20
112.680511
 10
62.738999
 20
112.641396
 10
63.205808
 20
112.525088
 10
63.649062
 20
112.334184
 10
64.0574
 20
112.073076
 10
64.420159
 20
111.747885
  0
LINE
  5
2FB
100
AcDbEntity
  8
ALPHA
100
AcDbLine
 10
65.216839
 20
110.072307
 30
0.0
 11
65.241602
 21
110.319912
 31
0.0
  0
LINE
  5
2FC
100
AcDbEntity
  8
ALPHA
100
AcDbLine
 10
65.208795
 20
109.991877
 30
0.0
 11
65.216839
 21
110.072307
 31
0.0
  0
LWPOLYLINE
  5
2FD
100
AcDbEntity
  8
ALPHA
100
AcDbPolyline
 90
        9
 70
     0
 43
0.0
 10
62.259794
 20
107.547384
 10
62.845065
 20
107.604152
 10
63.407844
 20
107.772276
 10
63.926505
 20
108.045294
 10
64.381114
 20
108.412715
 10
64.754203
 20
108.860418
 10
65.031432
 20
109.371198
 10
65.20215
 20
109.925428
 10
65.208795
 20
109.991877
  0
LINE
  5
308
100
AcDbEntity
  8
ALPHA
100
AcDbLine
 10
62.259794
 20
115.747885
 30
0.0
 11
62.259794
 21
116.380658
 31
0.0
  0
LINE
  5
309
100
AcDbEntity
  8
ALPHA
100
AcDbLine
 10
62.259794
 20
86.115113
 30
0.0
 11
62.259794
 21
86.747885
 31
0.0
  0
LINE
  5
30A
100
AcDbEntity
  8
ALPHA
100
AcDbLine
 10
66.159794
 20
115.92139
 30
0.0
 11
66.159794
 21
117.203766
 31
0.0
  0
LWPOLYLINE
  5
30B
100
AcDbEntity
  8
ALPHA
100
AcDbPolyline
 90
        7
 70
     0
 43
0.0
 10
63.567463
 20
107.408706
 10
64.059062
 20
107.703608
 10
64.484423
 20
108.085549
 10
64.827884
 20
108.540468
 10
65.076798
 20
109.05162
 10
65.221997
 20
109.600187
 10
65.253247
 20
109.987306
  0
LWPOLYLINE
  5
314
100
AcDbEntity
  8
ALPHA
100
AcDbPolyline
 90
        4
 70
     0
 43
0.0
 10
65.071645
 20
111.015635
 10
64.89619
 20
111.288417
 10
64.677088
 20
111.532393
 10
64.420159
 20
111.747885
  0
LINE
  5
31A
100
AcDbEntity
  8
ALPHA
100
AcDbLine
 10
65.119207
 20
108.747885
 30
0.0
 11
66.309794
 21
108.747885
 31
0.0
  0
LINE
  5
31B
100
AcDbEntity
  8
ALPHA
100
AcDbLine
 10
65.02305
 20
108.747885
 30
0.0
 11
65.119207
 21
108.747885
 31
0.0
  0
LINE
  5
31C
100
AcDbEntity
  8
ALPHA
100
AcDbLine
 10
67.159794
 20
113.747885
 30
0.0
 11
66.159794
 21
113.747885
 31
0.0
  0
LINE
  5
31D
100
AcDbEntity
  8
ALPHA
100
AcDbLine
 10
67.159794
 20
113.347885
 30
0.0
 11
67.159794
 21
113.747885
 31
0.0
  0
LINE
  5
31E
100
AcDbEntity
  8
ALPHA
100
AcDbLine
 10
66.159794
 20
115.92139
 30
0.0
 11
66.159794
 21
113.747885
 31
0.0
  0
LWPOLYLINE
  5
31F
100
AcDbEntity
  8
ALPHA
100
AcDbPolyline
 90
        7
 70
     0
 43
0.0
 10
62.259794
 20
89.198115
 10
62.763276
 20
89.241322
 10
63.252528
 20
89.369737
 10
63.714467
 20
89.580196
 10
64.13596
 20
89.867342
 10
64.504769
 20
90.2237
 10
64.809794
 20
90.639667
  0
LWPOLYLINE
  5
328
100
AcDbEntity
  8
ALPHA
100
AcDbPolyline
 90
        5
 70
     0
 43
0.0
 10
65.071645
 20
111.015635
 10
65.092051
 20
110.971454
 10
65.117099
 20
110.90607
 10
65.143244
 20
110.825416
 10
65.167301
 20
110.73748
  0
LINE
  5
32F
100
AcDbEntity
  8
ALPHA
100
AcDbLine
 10
65.359794
 20
116.380658
 30
0.0
 11
65.359794
 21
117.247885
 31
0.0
  0
LINE
  5
330
100
AcDbEntity
  8
ALPHA
100
AcDbLine
 10
58.359794
 20
98.80921
 30
0.0
 11
58.859794
 21
99.097885
 31
0.0
  0
LINE
  5
331
100
AcDbEntity
  8
ALPHA
100
AcDbLine
 10
58.359794
 20
103.68656
 30
0.0
 11
58.859794
 21
103.397885
 31
0.0
  0
LINE
  5
332
100
AcDbEntity
  8
ALPHA
100
AcDbLine
 10
65.119207
 20
93.747885
 30
0.0
 11
65.129999
 21
93.747885
 31
0.0
  0
LINE
  5
333
100
AcDbEntity
  8
ALPHA
100
AcDbLine
 10
66.009794
 20
102.247885
 30
0.0
 11
66.159794
 21
102.247885
 31
0.0
  0
LINE
  5
334
100
AcDbEntity
  8
ALPHA
100
AcDbLine
 10
63.459794
 20
103.247885
 30
0.0
 11
63.459794
 21
103.397885
 31
0.0
  0
LINE
  5
335
100
AcDbEntity
  8
ALPHA
100
AcDbLine
 10
66.159794
 20
103.397885
 30
0.0
 11
58.859794
 21
103.397885
 31
0.0
  0
LINE
  5
336
100
AcDbEntity
  8
ALPHA
100
AcDbLine
 10
66.159794
 20
99.097885
 30
0.0
 11
58.859794
 21
99.097885
 31
0.0
  0
LINE
  5
337
100
AcDbEntity
  8
ALPHA
100
AcDbLine
 10
63.459794
 20
99.097885
 30
0.0
 11
63.459794
 21
99.247885
 31
0.0
  0
LINE
  5
338
100
AcDbEntity
  8
ALPHA
100
AcDbLine
 10
66.009794
 20
100.247885
 30
0.0
 11
66.159794
 21
100.247885
 31
0.0
  0
LINE
  5
339
100
AcDbEntity
  8
ALPHA
100
AcDbLine
 10
66.159794
 20
101.547885
 30
0.0
 11
66.159794
 21
100.947885
 31
0.0
  0
LINE
  5
33A
100
AcDbEntity
  8
ALPHA
100
AcDbLine
 10
66.159794
 20
101.547885
 30
0.0
 11
66.159794
 21
103.397885
 31
0.0
  0
LINE
  5
33B
100
AcDbEntity
  8
ALPHA
100
AcDbLine
 10
65.759794
 20
85.547885
 30
0.0
 11
65.759794
 21
86.115113
 31
0.0
  0
LINE
  5
33C
100
AcDbEntity
  8
ALPHA
100
AcDbLine
 10
65.159794
 20
117.247885
 30
0.0
 11
65.359794
 21
117.247885
 31
0.0
  0
LINE
  5
33D
100
AcDbEntity
  8
ALPHA
100
AcDbLine
 10
59.459794
 20
117.208152
 30
0.0
 11
65.159794
 21
117.208152
 31
0.0
  0
LINE
  5
33E
100
AcDbEntity
  8
ALPHA
100
AcDbLine
 10
66.159794
 20
99.097885
 30
0.0
 11
66.159794
 21
100.947885
 31
0.0
  0
LINE
  5
33F
100
AcDbEntity
  8
ALPHA
100
AcDbLine
 10
67.159794
 20
117.247885
 30
0.0
 11
65.359794
 21
117.247885
 31
0.0
  0
LINE
  5
340
100
AcDbEntity
  8
ALPHA
100
AcDbLine
 10
65.159794
 20
117.208152
 30
0.0
 11
65.159794
 21
117.247885
 31
0.0
  0
LINE
  5
341
100
AcDbEntity
  8
ALPHA
100
AcDbLine
 10
65.129999
 20
93.747885
 30
0.0
 11
66.359794
 21
93.747885
 31
0.0
  0
LINE
  5
342
100
AcDbEntity
  8
ALPHA
100
AcDbLine
 10
64.809794
 20
91.256812
 30
0.0
 11
64.809794
 21
89.197885
 31
0.0
  0
LINE
  5
343
100
AcDbEntity
  8
ALPHA
100
AcDbLine
 10
62.259794
 20
89.197885
 30
0.0
 11
64.809794
 21
89.197885
 31
0.0
  0
LINE
  5
344
100
AcDbEntity
  8
ALPHA
100
AcDbLine
 10
62.259794
 20
86.747885
 30
0.0
 11
62.259794
 21
89.197885
 31
0.0
  0
LINE
  5
345
100
AcDbEntity
  8
ALPHA
100
AcDbLine
 10
62.259794
 20
112.680511
 30
0.0
 11
62.259794
 21
115.747885
 31
0.0
  0
LINE
  5
346
100
AcDbEntity
  8
ALPHA
100
AcDbLine
 10
66.309794
 20
111.747885
 30
0.0
 11
66.309794
 21
108.747885
 31
0.0
  0
LINE
  5
347
100
AcDbEntity
  8
ALPHA
100
AcDbLine
 10
66.309794
 20
108.747885
 30
0.0
 11
66.359794
 21
108.747885
 31
0.0
  0
LINE
  5
348
100
AcDbEntity
  8
ALPHA
100
AcDbLine
 10
67.159794
 20
85.247885
 30
0.0
 11
66.059794
 21
85.247885
 31
0.0
  0
LWPOLYLINE
  5
349
100
AcDbEntity
  8
ALPHA
100
AcDbPolyline
 90
        3
 70
     0
 43
0.0
 10
65.259778
 20
109.986779
 10
65.242137
 20
110.316909
 10
65.167301
 20
110.73748
  0
LWPOLYLINE
  5
34E
100
AcDbEntity
  8
ALPHA
100
AcDbPolyline
 90
        5
 70
     0
 43
0.0
 10
65.259756
 20
92.861326
 10
65.256769
 20
92.724784
 10
65.190675
 20
92.211398
 10
65.04015
 20
91.717384
 10
64.809794
 20
91.256812
  0
LWPOLYLINE
  5
355
100
AcDbEntity
  8
ALPHA
100
AcDbPolyline
 90
        9
 70
     0
 43
0.0
 10
65.217336
 20
92.418492
 10
65.20215
 20
92.570343
 10
65.031432
 20
93.124572
 10
64.754203
 20
93.635353
 10
64.381114
 20
94.083056
 10
63.926505
 20
94.450476
 10
63.407844
 20
94.723494
 10
62.845065
 20
94.891618
 10
62.259794
 20
94.948387
  0
LINE
  5
360
100
AcDbEntity
  8
ALPHA
100
AcDbLine
 10
67.159794
 20
117.203766
 30
0.0
 11
67.159794
 21
117.247885
 31
0.0
  0
LINE
  5
361
100
AcDbEntity
  8
ALPHA
100
AcDbLine
 10
67.159794
 20
117.203766
 30
0.0
 11
67.159794
 21
113.747885
 31
0.0
  0
LINE
  5
362
100
AcDbEntity
  8
ALPHA
100
AcDbLine
 10
67.159794
 20
86.747885
 30
0.0
 11
67.159794
 21
113.347885
 31
0.0
  0
LINE
  5
363
100
AcDbEntity
  8
ALPHA
100
AcDbLine
 10
67.159794
 20
85.247885
 30
0.0
 11
67.159794
 21
86.747885
 31
0.0
  0
LWPOLYLINE
  5
364
100
AcDbEntity
  8
ALPHA
100
AcDbPolyline
 90
        5
 70
     0
 43
0.0
 10
62.428651
 20
107.160801
 10
62.64324
 20
107.168928
 10
62.987775
 20
107.216516
 10
63.295762
 20
107.29902
 10
63.567463
 20
107.408706
  0
LINE
  5
36B
100
AcDbEntity
  8
ALPHA
100
AcDbLine
 10
59.459794
 20
85.358606
 30
0.0
 11
65.825719
 21
85.358606
 31
0.0
  0
LINE
  5
36C
100
AcDbEntity
  8
ALPHA
100
AcDbLine
 10
65.759794
 20
85.547885
 30
0.0
 11
65.759794
 21
86.115113
 31
0.0
  0
ARC
  5
36D
100
AcDbEntity
  8
ALPHA
100
AcDbCircle
 10
66.059794
 20
85.547885
 30
0.0
 40
0.3
100
AcDbArc
 50
180.0
 51
270.0
  0
LWPOLYLINE
  5
36E
100
AcDbEntity
  8
ALPHA
100
AcDbPolyline
 90
        7
 70
     0
 43
0.0
 10
75.259794
 20
109.631953
 10
75.259653
 20
109.602446
 10
75.253129
 20
109.429014
 10
75.236891
 20
109.256264
 10
75.211
 20
109.084778
 10
75.175552
 20
108.915129
 10
75.130678
 20
108.747885
  0
LINE
  5
377
100
AcDbEntity
  8
ALPHA
100
AcDbLine
 10
76.059794
 20
86.168526
 30
0.0
 11
72.259794
 21
86.168526
 31
0.0
  0
LINE
  5
378
100
AcDbEntity
  8
ALPHA
100
AcDbLine
 10
76.059794
 20
86.168526
 30
0.0
 11
76.059794
 21
85.247885
 31
0.0
  0
LINE
  5
379
100
AcDbEntity
  8
ALPHA
100
AcDbLine
 10
76.059794
 20
116.327245
 30
0.0
 11
72.259794
 21
116.327245
 31
0.0
  0
LINE
  5
37A
100
AcDbEntity
  8
ALPHA
100
AcDbLine
 10
76.059794
 20
116.327245
 30
0.0
 11
76.059794
 21
117.247885
 31
0.0
  0
LWPOLYLINE
  5
37B
100
AcDbEntity
  8
ALPHA
100
AcDbPolyline
 90
       23
 70
     0
 43
0.0
 10
75.119915
 20
108.747885
 10
75.062616
 20
108.581058
 10
74.995921
 20
108.417961
 10
74.920097
 20
108.259191
 10
74.835427
 20
108.105281
 10
74.742225
 20
107.956743
 10
74.640832
 20
107.814064
 10
74.531615
 20
107.677709
 10
74.414966
 20
107.548114
 10
74.291298
 20
107.425689
 10
74.161043
 20
107.310814
 10
74.02465
 20
107.203843
 10
73.882585
 20
107.105101
 10
73.735326
 20
107.014883
 10
73.583363
 20
106.933454
 10
73.427196
 20
106.861052
 10
73.267335
 20
106.797886
 10
73.104293
 20
106.744135
 10
72.938594
 20
106.699952
 10
72.770764
 20
106.665459
 10
72.601332
 20
106.640753
 10
72.43083
 20
106.625903
 10
72.259794
 20
106.620948
  0
LWPOLYLINE
  5
394
100
AcDbEntity
  8
ALPHA
100
AcDbPolyline
 90
       23
 70
     0
 43
0.0
 10
72.259794
 20
95.874823
 10
72.43083
 20
95.869869
 10
72.601332
 20
95.855018
 10
72.770764
 20
95.830312
 10
72.938595
 20
95.795819
 10
73.104294
 20
95.751636
 10
73.267335
 20
95.697885
 10
73.427197
 20
95.634719
 10
73.583364
 20
95.562317
 10
73.735327
 20
95.480888
 10
73.882586
 20
95.39067
 10
74.024651
 20
95.291927
 10
74.161044
 20
95.184957
 10
74.291299
 20
95.070082
 10
74.414967
 20
94.947657
 10
74.531615
 20
94.818061
 10
74.640832
 20
94.681706
 10
74.742225
 20
94.539028
 10
74.835428
 20
94.39049
 10
74.920098
 20
94.23658
 10
74.995922
 20
94.077809
 10
75.062616
 20
93.914712
 10
75.119916
 20
93.747885
  0
LINE
  5
3AD
100
AcDbEntity
  8
ALPHA
100
AcDbLine
 10
75.759794
 20
85.748777
 30
0.0
 11
68.959794
 21
85.748777
 31
0.0
  0
LINE
  5
3AE
100
AcDbEntity
  8
ALPHA
100
AcDbLine
 10
75.759794
 20
116.746993
 30
0.0
 11
69.359794
 21
116.746993
 31
0.0
  0
LINE
  5
3AF
100
AcDbEntity
  8
ALPHA
100
AcDbLine
 10
75.559794
 20
85.047885
 30
0.0
 11
68.959794
 21
85.047885
 31
0.0
  0
LWPOLYLINE
  5
3B0
100
AcDbEntity
  8
ALPHA
100
AcDbPolyline
 90
        4
 70
     0
 43
0.0
 10
75.957181
 20
86.150434
 10
75.99063
 20
86.152465
 10
76.024795
 20
86.158481
 10
76.059794
 20
86.168526
  0
LWPOLYLINE
  5
3B6
100
AcDbEntity
  8
ALPHA
100
AcDbPolyline
 90
        7
 70
     0
 43
0.0
 10
75.130678
 20
93.747885
 10
75.175552
 20
93.580641
 10
75.211
 20
93.410993
 10
75.236891
 20
93.239507
 10
75.253129
 20
93.066758
 10
75.259653
 20
92.893325
 10
75.259794
 20
92.863818
  0
LINE
  5
3BF
100
AcDbEntity
  8
ALPHA
100
AcDbLine
 10
77.159794
 20
86.747885
 30
0.0
 11
72.259794
 21
86.747885
 31
0.0
  0
LINE
  5
3C0
100
AcDbEntity
  8
ALPHA
100
AcDbLine
 10
77.159794
 20
115.747885
 30
0.0
 11
72.259794
 21
115.747885
 31
0.0
  0
LWPOLYLINE
  5
3C1
100
AcDbEntity
  8
ALPHA
100
AcDbPolyline
 90
        4
 70
     0
 43
0.0
 10
75.957181
 20
116.345337
 10
75.99063
 20
116.343306
 10
76.024795
 20
116.33729
 10
76.059794
 20
116.327245
  0
LINE
  5
3C7
100
AcDbEntity
  8
ALPHA
100
AcDbLine
 10
75.759794
 20
86.150434
 30
0.0
 11
75.759794
 21
85.547885
 31
0.0
  0
LINE
  5
3C8
100
AcDbEntity
  8
ALPHA
100
AcDbLine
 10
75.759794
 20
116.345337
 30
0.0
 11
75.759794
 21
116.947885
 31
0.0
  0
LINE
  5
3C9
100
AcDbEntity
  8
ALPHA
100
AcDbLine
 10
68.959794
 20
85.047885
 30
0.0
 11
68.959794
 21
84.747885
 31
0.0
  0
LINE
  5
3CA
100
AcDbEntity
  8
ALPHA
100
AcDbLine
 10
75.559794
 20
84.747885
 30
0.0
 11
68.959794
 21
84.747885
 31
0.0
  0
LINE
  5
3CB
100
AcDbEntity
  8
ALPHA
100
AcDbLine
 10
75.559794
 20
85.047885
 30
0.0
 11
75.559794
 21
84.747885
 31
0.0
  0
LINE
  5
3CC
100
AcDbEntity
  8
ALPHA
100
AcDbLine
 10
68.959794
 20
85.047885
 30
0.0
 11
68.959794
 21
85.396684
 31
0.0
  0
LINE
  5
3CD
100
AcDbEntity
  8
ALPHA
100
AcDbLine
 10
68.959794
 20
86.150434
 30
0.0
 11
68.959794
 21
85.748777
 31
0.0
  0
LINE
  5
3CE
100
AcDbEntity
  8
ALPHA
100
AcDbLine
 10
75.559794
 20
85.047885
 30
0.0
 11
75.559794
 21
85.396683
 31
0.0
  0
LINE
  5
3CF
100
AcDbEntity
  8
ALPHA
100
AcDbLine
 10
75.119916
 20
93.747885
 30
0.0
 11
75.130678
 21
93.747885
 31
0.0
  0
LINE
  5
3D0
100
AcDbEntity
  8
ALPHA
100
AcDbLine
 10
75.130678
 20
108.747885
 30
0.0
 11
75.119915
 21
108.747885
 31
0.0
  0
LWPOLYLINE
  5
3D1
100
AcDbEntity
  8
ALPHA
100
AcDbPolyline
 90
       26
 70
     0
 43
0.0
 10
72.259794
 20
94.848387
 10
72.434228
 20
94.843388
 10
72.608073
 20
94.82841
 10
72.780738
 20
94.803502
 10
72.951641
 20
94.76875
 10
73.120204
 20
94.72427
 10
73.285854
 20
94.670213
 10
73.448033
 20
94.606762
 10
73.606191
 20
94.534132
 10
73.759794
 20
94.452569
 10
73.908321
 20
94.362348
 10
74.05127
 20
94.263775
 10
74.188157
 20
94.157183
 10
74.318519
 20
94.042933
 10
74.441915
 20
93.921411
 10
74.557927
 20
93.79303
 10
74.666163
 20
93.658222
 10
74.766257
 20
93.517445
 10
74.85787
 20
93.371175
 10
74.940692
 20
93.219906
 10
75.014442
 20
93.064151
 10
75.078872
 20
92.904436
 10
75.133762
 20
92.741301
 10
75.178928
 20
92.5753
 10
75.214217
 20
92.406993
 10
75.219835
 20
92.369224
  0
LINE
  5
3ED
100
AcDbEntity
  8
ALPHA
100
AcDbLine
 10
72.259794
 20
106.620948
 30
0.0
 11
72.259794
 21
107.647385
 31
0.0
  0
LINE
  5
3EE
100
AcDbEntity
  8
ALPHA
100
AcDbLine
 10
72.259794
 20
95.874823
 30
0.0
 11
72.259794
 21
94.848387
 31
0.0
  0
LINE
  5
3EF
100
AcDbEntity
  8
ALPHA
100
AcDbLine
 10
72.259794
 20
95.874823
 30
0.0
 11
72.259794
 21
106.620948
 31
0.0
  0
LINE
  5
3F0
100
AcDbEntity
  8
ALPHA
100
AcDbLine
 10
72.259794
 20
115.747885
 30
0.0
 11
72.259794
 21
116.327245
 31
0.0
  0
LINE
  5
3F1
100
AcDbEntity
  8
ALPHA
100
AcDbLine
 10
72.259794
 20
86.168526
 30
0.0
 11
72.259794
 21
86.747885
 31
0.0
  0
LWPOLYLINE
  5
3F2
100
AcDbEntity
  8
ALPHA
100
AcDbPolyline
 90
        8
 70
     0
 43
0.0
 10
73.293068
 20
107.82838
 10
73.285854
 20
107.825558
 10
73.120204
 20
107.771501
 10
72.951641
 20
107.727022
 10
72.780738
 20
107.692269
 10
72.608073
 20
107.667361
 10
72.434228
 20
107.652383
 10
72.259794
 20
107.647385
  0
LWPOLYLINE
  5
3FC
100
AcDbEntity
  8
ALPHA
100
AcDbPolyline
 90
       29
 70
     0
 43
0.0
 10
75.259794
 20
92.863818
 10
75.256439
 20
92.719794
 10
75.2435
 20
92.546747
 10
75.220883
 20
92.374768
 10
75.188673
 20
92.204434
 10
75.146989
 20
92.036312
 10
75.095985
 20
91.870963
 10
75.035848
 20
91.708932
 10
74.966797
 20
91.55075
 10
74.889081
 20
91.396931
 10
74.802979
 20
91.247969
 10
74.708795
 20
91.104338
 10
74.606861
 20
90.966489
 10
74.497529
 20
90.83485
 10
74.381174
 20
90.709825
 10
74.258191
 20
90.591792
 10
74.128991
 20
90.481102
 10
73.994001
 20
90.378082
 10
73.853662
 20
90.28303
 10
73.708426
 20
90.196218
 10
73.558756
 20
90.117893
 10
73.405127
 20
90.048272
 10
73.248016
 20
89.987548
 10
73.08791
 20
89.935888
 10
72.925301
 20
89.89343
 10
72.760685
 20
89.86029
 10
72.594561
 20
89.836555
 10
72.42743
 20
89.822289
 10
72.259794
 20
89.817529
  0
LINE
  5
41B
100
AcDbEntity
  8
ALPHA
100
AcDbLine
 10
69.359794
 20
116.746993
 30
0.0
 11
69.359794
 21
116.345337
 31
0.0
  0
LINE
  5
41C
100
AcDbEntity
  8
ALPHA
100
AcDbLine
 10
69.359794
 20
117.083744
 30
0.0
 11
69.359794
 21
117.099087
 31
0.0
  0
LINE
  5
41D
100
AcDbEntity
  8
ALPHA
100
AcDbLine
 10
69.359794
 20
117.08238
 30
0.0
 11
69.359794
 21
117.083744
 31
0.0
  0
LINE
  5
41E
100
AcDbEntity
  8
ALPHA
100
AcDbLine
 10
69.359794
 20
117.032231
 30
0.0
 11
69.359794
 21
117.08238
 31
0.0
  0
LINE
  5
41F
100
AcDbEntity
  8
ALPHA
100
AcDbLine
 10
69.359794
 20
116.953538
 30
0.0
 11
69.359794
 21
117.032231
 31
0.0
  0
LINE
  5
420
100
AcDbEntity
  8
ALPHA
100
AcDbLine
 10
69.359794
 20
116.949832
 30
0.0
 11
69.359794
 21
116.953538
 31
0.0
  0
LINE
  5
421
100
AcDbEntity
  8
ALPHA
100
AcDbLine
 10
69.359794
 20
116.855113
 30
0.0
 11
69.359794
 21
116.949832
 31
0.0
  0
LINE
  5
422
100
AcDbEntity
  8
ALPHA
100
AcDbLine
 10
69.359794
 20
116.850942
 30
0.0
 11
69.359794
 21
116.855113
 31
0.0
  0
LINE
  5
423
100
AcDbEntity
  8
ALPHA
100
AcDbLine
 10
69.359794
 20
116.746993
 30
0.0
 11
69.359794
 21
116.850942
 31
0.0
  0
LINE
  5
424
100
AcDbEntity
  8
ALPHA
100
AcDbLine
 10
68.959794
 20
84.747885
 30
0.0
 11
75.559794
 21
84.747885
 31
0.0
  0
LINE
  5
425
100
AcDbEntity
  8
ALPHA
100
AcDbLine
 10
75.80072
 20
117.099088
 30
0.0
 11
69.359794
 21
117.099088
 31
0.0
  0
LINE
  5
426
100
AcDbEntity
  8
ALPHA
100
AcDbLine
 10
75.80072
 20
85.396683
 30
0.0
 11
68.959794
 21
85.396683
 31
0.0
  0
LINE
  5
427
100
AcDbEntity
  8
ALPHA
100
AcDbLine
 10
68.959794
 20
85.644829
 30
0.0
 11
68.959794
 21
85.748777
 31
0.0
  0
LINE
  5
428
100
AcDbEntity
  8
ALPHA
100
AcDbLine
 10
68.959794
 20
85.640657
 30
0.0
 11
68.959794
 21
85.644829
 31
0.0
  0
LINE
  5
429
100
AcDbEntity
  8
ALPHA
100
AcDbLine
 10
68.959794
 20
85.545938
 30
0.0
 11
68.959794
 21
85.640657
 31
0.0
  0
LINE
  5
42A
100
AcDbEntity
  8
ALPHA
100
AcDbLine
 10
68.959794
 20
85.542232
 30
0.0
 11
68.959794
 21
85.545938
 31
0.0
  0
LINE
  5
42B
100
AcDbEntity
  8
ALPHA
100
AcDbLine
 10
68.959794
 20
85.463539
 30
0.0
 11
68.959794
 21
85.542232
 31
0.0
  0
LINE
  5
42C
100
AcDbEntity
  8
ALPHA
100
AcDbLine
 10
68.959794
 20
85.413391
 30
0.0
 11
68.959794
 21
85.463539
 31
0.0
  0
LINE
  5
42D
100
AcDbEntity
  8
ALPHA
100
AcDbLine
 10
68.959794
 20
85.412027
 30
0.0
 11
68.959794
 21
85.413391
 31
0.0
  0
LINE
  5
42E
100
AcDbEntity
  8
ALPHA
100
AcDbLine
 10
68.959794
 20
85.396684
 30
0.0
 11
68.959794
 21
85.412027
 31
0.0
  0
LINE
  5
42F
100
AcDbEntity
  8
ALPHA
100
AcDbLine
 10
77.159794
 20
85.247885
 30
0.0
 11
76.059794
 21
85.247885
 31
0.0
  0
LINE
  5
430
100
AcDbEntity
  8
ALPHA
100
AcDbLine
 10
75.759794
 20
116.345337
 30
0.0
 11
75.759794
 21
116.947885
 31
0.0
  0
ARC
  5
431
100
AcDbEntity
  8
ALPHA
100
AcDbCircle
 10
76.059794
 20
116.947885
 30
0.0
 40
0.3
100
AcDbArc
 50
90.0
 51
180.0
  0
LINE
  5
432
100
AcDbEntity
  8
ALPHA
100
AcDbLine
 10
72.259794
 20
116.345337
 30
0.0
 11
75.957203
 21
116.345337
 31
0.0
  0
LINE
  5
433
100
AcDbEntity
  8
ALPHA
100
AcDbLine
 10
72.259794
 20
116.345335
 30
0.0
 11
72.259794
 21
116.327245
 31
0.0
  0
LINE
  5
434
100
AcDbEntity
  8
ALPHA
100
AcDbLine
 10
75.759794
 20
85.547885
 30
0.0
 11
75.759794
 21
86.150434
 31
0.0
  0
ARC
  5
435
100
AcDbEntity
  8
ALPHA
100
AcDbCircle
 10
76.059794
 20
85.547885
 30
0.0
 40
0.3
100
AcDbArc
 50
180.0
 51
270.0
  0
LINE
  5
436
100
AcDbEntity
  8
ALPHA
100
AcDbLine
 10
75.957203
 20
86.150434
 30
0.0
 11
72.259794
 21
86.150434
 31
0.0
  0
LINE
  5
437
100
AcDbEntity
  8
ALPHA
100
AcDbLine
 10
72.259794
 20
86.150435
 30
0.0
 11
72.259794
 21
86.168526
 31
0.0
  0
LINE
  5
438
100
AcDbEntity
  8
ALPHA
100
AcDbLine
 10
77.159794
 20
117.247885
 30
0.0
 11
76.059794
 21
117.247885
 31
0.0
  0
LINE
  5
439
100
AcDbEntity
  8
ALPHA
100
AcDbLine
 10
72.259794
 20
86.747885
 30
0.0
 11
72.259794
 21
89.817529
 31
0.0
  0
LINE
  5
43A
100
AcDbEntity
  8
ALPHA
100
AcDbLine
 10
72.259794
 20
112.678242
 30
0.0
 11
72.259794
 21
115.747885
 31
0.0
  0
LWPOLYLINE
  5
43B
100
AcDbEntity
  8
ALPHA
100
AcDbPolyline
 90
       29
 70
     0
 43
0.0
 10
72.259794
 20
112.678242
 10
72.42743
 20
112.673482
 10
72.594561
 20
112.659216
 10
72.760686
 20
112.635481
 10
72.925302
 20
112.602341
 10
73.08791
 20
112.559883
 10
73.248016
 20
112.508223
 10
73.405127
 20
112.447499
 10
73.558757
 20
112.377878
 10
73.708426
 20
112.299553
 10
73.853662
 20
112.212741
 10
73.994001
 20
112.117689
 10
74.128991
 20
112.014669
 10
74.258191
 20
111.903979
 10
74.381174
 20
111.785946
 10
74.497529
 20
111.660921
 10
74.606861
 20
111.529283
 10
74.708795
 20
111.391434
 10
74.802979
 20
111.247803
 10
74.889081
 20
111.098841
 10
74.966797
 20
110.945021
 10
75.035848
 20
110.786839
 10
75.095985
 20
110.624808
 10
75.146989
 20
110.459459
 10
75.188673
 20
110.291338
 10
75.220883
 20
110.121003
 10
75.2435
 20
109.949024
 10
75.256439
 20
109.775978
 10
75.259794
 20
109.631953
  0
LINE
  5
45A
100
AcDbEntity
  8
ALPHA
100
AcDbLine
 10
75.130678
 20
108.747885
 30
0.0
 11
76.159794
 21
108.747885
 31
0.0
  0
LINE
  5
45B
100
AcDbEntity
  8
ALPHA
100
AcDbLine
 10
76.159794
 20
93.747885
 30
0.0
 11
76.159794
 21
108.747885
 31
0.0
  0
LINE
  5
45C
100
AcDbEntity
  8
ALPHA
100
AcDbLine
 10
75.130678
 20
93.747885
 30
0.0
 11
76.159794
 21
93.747885
 31
0.0
  0
LINE
  5
45D
100
AcDbEntity
  8
ALPHA
100
AcDbLine
 10
77.159794
 20
115.747885
 30
0.0
 11
77.159794
 21
117.247885
 31
0.0
  0
LINE
  5
45E
100
AcDbEntity
  8
ALPHA
100
AcDbLine
 10
77.159794
 20
86.747885
 30
0.0
 11
77.159794
 21
115.747885
 31
0.0
  0
LINE
  5
45F
100
AcDbEntity
  8
ALPHA
100
AcDbLine
 10
77.159794
 20
85.247885
 30
0.0
 11
77.159794
 21
86.747885
 31
0.0
  0
LWPOLYLINE
  5
460
100
AcDbEntity
  8
ALPHA
100
AcDbPolyline
 90
        8
 70
     0
 43
0.0
 10
69.399672
 20
93.747885
 10
69.610914
 20
94.258614
 10
69.908883
 20
94.720951
 10
70.282822
 20
95.119807
 10
70.71986
 20
95.442869
 10
71.205514
 20
95.680518
 10
71.724073
 20
95.825859
 10
72.259794
 20
95.874823
  0
LWPOLYLINE
  5
46A
100
AcDbEntity
  8
ALPHA
100
AcDbPolyline
 90
        8
 70
     0
 43
0.0
 10
72.259794
 20
106.620947
 10
71.724069
 20
106.669912
 10
71.205509
 20
106.815255
 10
70.719856
 20
107.052904
 10
70.28282
 20
107.375966
 10
69.908882
 20
107.774821
 10
69.610914
 20
108.237156
 10
69.399672
 20
108.747885
  0
LINE
  5
474
100
AcDbEntity
  8
ALPHA
100
AcDbLine
 10
68.459794
 20
86.168526
 30
0.0
 11
68.459794
 21
85.247885
 31
0.0
  0
LINE
  5
475
100
AcDbEntity
  8
ALPHA
100
AcDbLine
 10
68.459794
 20
116.327245
 30
0.0
 11
68.459794
 21
117.247885
 31
0.0
  0
LINE
  5
476
100
AcDbEntity
  8
ALPHA
100
AcDbLine
 10
68.459794
 20
86.168526
 30
0.0
 11
72.259794
 21
86.168526
 31
0.0
  0
LINE
  5
477
100
AcDbEntity
  8
ALPHA
100
AcDbLine
 10
67.359794
 20
86.747885
 30
0.0
 11
72.259794
 21
86.747885
 31
0.0
  0
LINE
  5
478
100
AcDbEntity
  8
ALPHA
100
AcDbLine
 10
68.459794
 20
116.327245
 30
0.0
 11
72.259794
 21
116.327245
 31
0.0
  0
LINE
  5
479
100
AcDbEntity
  8
ALPHA
100
AcDbLine
 10
68.562463
 20
86.150434
 30
0.0
 11
68.459794
 21
86.168526
 31
0.0
  0
LINE
  5
47A
100
AcDbEntity
  8
ALPHA
100
AcDbLine
 10
68.959794
 20
85.748777
 30
0.0
 11
68.759794
 21
85.748777
 31
0.0
  0
LINE
  5
47B
100
AcDbEntity
  8
ALPHA
100
AcDbLine
 10
68.759794
 20
116.746993
 30
0.0
 11
69.359794
 21
116.746993
 31
0.0
  0
LWPOLYLINE
  5
47C
100
AcDbEntity
  8
ALPHA
100
AcDbPolyline
 90
        3
 70
     0
 43
0.0
 10
69.25989
 20
92.863698
 10
69.27683
 20
93.187994
 10
69.388909
 20
93.747885
  0
LINE
  5
481
100
AcDbEntity
  8
ALPHA
100
AcDbLine
 10
68.562503
 20
116.345323
 30
0.0
 11
68.459794
 21
116.327245
 31
0.0
  0
LWPOLYLINE
  5
482
100
AcDbEntity
  8
ALPHA
100
AcDbPolyline
 90
        3
 70
     0
 43
0.0
 10
69.388909
 20
108.747885
 10
69.276831
 20
109.307765
 10
69.25989
 20
109.632072
  0
LINE
  5
487
100
AcDbEntity
  8
ALPHA
100
AcDbLine
 10
67.359794
 20
115.747885
 30
0.0
 11
72.259794
 21
115.747885
 31
0.0
  0
LINE
  5
488
100
AcDbEntity
  8
ALPHA
100
AcDbLine
 10
68.759794
 20
86.150434
 30
0.0
 11
68.759794
 21
85.547885
 31
0.0
  0
ARC
  5
489
100
AcDbEntity
  8
ALPHA
100
AcDbCircle
 10
68.459794
 20
116.947885
 30
0.0
 40
0.3
100
AcDbArc
 50
0.0
 51
90.0
  0
LINE
  5
48A
100
AcDbEntity
  8
ALPHA
100
AcDbLine
 10
68.759794
 20
116.345337
 30
0.0
 11
68.759794
 21
116.947885
 31
0.0
  0
LINE
  5
48B
100
AcDbEntity
  8
ALPHA
100
AcDbLine
 10
68.959794
 20
85.413391
 30
0.0
 11
68.959794
 21
85.396693
 31
0.0
  0
LINE
  5
48C
100
AcDbEntity
  8
ALPHA
100
AcDbLine
 10
68.959794
 20
85.545938
 30
0.0
 11
68.959794
 21
85.413391
 31
0.0
  0
LINE
  5
48D
100
AcDbEntity
  8
ALPHA
100
AcDbLine
 10
68.959794
 20
85.644829
 30
0.0
 11
68.959794
 21
85.545938
 31
0.0
  0
LINE
  5
48E
100
AcDbEntity
  8
ALPHA
100
AcDbLine
 10
68.959794
 20
85.748777
 30
0.0
 11
68.959794
 21
85.644829
 31
0.0
  0
LINE
  5
48F
100
AcDbEntity
  8
ALPHA
100
AcDbLine
 10
72.259794
 20
116.327245
 30
0.0
 11
72.259794
 21
115.747885
 31
0.0
  0
LINE
  5
490
100
AcDbEntity
  8
ALPHA
100
AcDbLine
 10
72.259794
 20
86.747885
 30
0.0
 11
72.259794
 21
86.168526
 31
0.0
  0
LINE
  5
491
100
AcDbEntity
  8
ALPHA
100
AcDbLine
 10
72.259794
 20
95.874823
 30
0.0
 11
72.259794
 21
106.620947
 31
0.0
  0
LINE
  5
492
100
AcDbEntity
  8
ALPHA
100
AcDbLine
 10
72.259794
 20
107.647384
 30
0.0
 11
72.259794
 21
106.620947
 31
0.0
  0
LINE
  5
493
100
AcDbEntity
  8
ALPHA
100
AcDbLine
 10
72.259794
 20
95.874823
 30
0.0
 11
72.259794
 21
94.848387
 31
0.0
  0
LWPOLYLINE
  5
494
100
AcDbEntity
  8
ALPHA
100
AcDbPolyline
 90
        9
 70
     0
 43
0.0
 10
72.259794
 20
107.647384
 10
71.674523
 20
107.704152
 10
71.111744
 20
107.872276
 10
70.593083
 20
108.145294
 10
70.138473
 20
108.512715
 10
69.765385
 20
108.960418
 10
69.488155
 20
109.471198
 10
69.317438
 20
110.025428
 10
69.309321
 20
110.106586
  0
LINE
  5
49F
100
AcDbEntity
  8
ALPHA
100
AcDbLine
 10
69.399672
 20
108.747885
 30
0.0
 11
69.388909
 21
108.747885
 31
0.0
  0
LINE
  5
4A0
100
AcDbEntity
  8
ALPHA
100
AcDbLine
 10
69.388909
 20
93.747885
 30
0.0
 11
69.399672
 21
93.747885
 31
0.0
  0
LWPOLYLINE
  5
4A1
100
AcDbEntity
  8
ALPHA
100
AcDbPolyline
 90
        9
 70
     0
 43
0.0
 10
69.309321
 20
92.389183
 10
69.317438
 20
92.470343
 10
69.488155
 20
93.024572
 10
69.765385
 20
93.535353
 10
70.138473
 20
93.983056
 10
70.593083
 20
94.350476
 10
71.111744
 20
94.623494
 10
71.674523
 20
94.791618
 10
72.259794
 20
94.848387
  0
LWPOLYLINE
  5
4AC
100
AcDbEntity
  8
ALPHA
100
AcDbPolyline
 90
       10
 70
     0
 43
0.0
 10
69.25989
 20
109.632072
 10
69.269712
 20
109.879467
 10
69.367845
 20
110.442162
 10
69.567321
 20
110.975471
 10
69.860327
 20
111.460451
 10
70.235704
 20
111.880406
 10
70.679645
 20
112.221424
 10
71.176423
 20
112.472672
 10
71.709025
 20
112.626464
 10
72.259794
 20
112.678241
  0
LINE
  5
4B8
100
AcDbEntity
  8
ALPHA
100
AcDbLine
 10
69.359794
 20
116.746993
 30
0.0
 11
69.359794
 21
116.345337
 31
0.0
  0
LINE
  5
4B9
100
AcDbEntity
  8
ALPHA
100
AcDbLine
 10
68.959794
 20
86.150434
 30
0.0
 11
68.959794
 21
85.748777
 31
0.0
  0
LINE
  5
4BA
100
AcDbEntity
  8
ALPHA
100
AcDbLine
 10
67.359794
 20
117.247885
 30
0.0
 11
68.459794
 21
117.247885
 31
0.0
  0
LINE
  5
4BB
100
AcDbEntity
  8
ALPHA
100
AcDbLine
 10
68.715211
 20
117.099088
 30
0.0
 11
69.359794
 21
117.099088
 31
0.0
  0
LINE
  5
4BC
100
AcDbEntity
  8
ALPHA
100
AcDbLine
 10
69.359794
 20
116.855113
 30
0.0
 11
69.359794
 21
116.746993
 31
0.0
  0
LINE
  5
4BD
100
AcDbEntity
  8
ALPHA
100
AcDbLine
 10
69.359794
 20
116.953538
 30
0.0
 11
69.359794
 21
116.855113
 31
0.0
  0
LINE
  5
4BE
100
AcDbEntity
  8
ALPHA
100
AcDbLine
 10
69.359794
 20
117.083744
 30
0.0
 11
69.359794
 21
116.953538
 31
0.0
  0
LINE
  5
4BF
100
AcDbEntity
  8
ALPHA
100
AcDbLine
 10
69.359794
 20
117.099078
 30
0.0
 11
69.359794
 21
117.083744
 31
0.0
  0
LINE
  5
4C0
100
AcDbEntity
  8
ALPHA
100
AcDbLine
 10
68.959794
 20
85.396683
 30
0.0
 11
68.715211
 21
85.396683
 31
0.0
  0
LINE
  5
4C1
100
AcDbEntity
  8
ALPHA
100
AcDbLine
 10
68.562186
 20
116.345337
 30
0.0
 11
72.259794
 21
116.345337
 31
0.0
  0
LINE
  5
4C2
100
AcDbEntity
  8
ALPHA
100
AcDbLine
 10
72.259794
 20
116.345328
 30
0.0
 11
72.259794
 21
116.327245
 31
0.0
  0
LINE
  5
4C3
100
AcDbEntity
  8
ALPHA
100
AcDbLine
 10
68.759794
 20
86.150434
 30
0.0
 11
68.759794
 21
85.547885
 31
0.0
  0
ARC
  5
4C4
100
AcDbEntity
  8
ALPHA
100
AcDbCircle
 10
68.459794
 20
85.547885
 30
0.0
 40
0.3
100
AcDbArc
 50
270.0
 51
0.0
  0
LINE
  5
4C5
100
AcDbEntity
  8
ALPHA
100
AcDbLine
 10
72.259794
 20
86.150434
 30
0.0
 11
68.562186
 21
86.150434
 31
0.0
  0
LINE
  5
4C6
100
AcDbEntity
  8
ALPHA
100
AcDbLine
 10
72.259794
 20
86.150442
 30
0.0
 11
72.259794
 21
86.168526
 31
0.0
  0
LINE
  5
4C7
100
AcDbEntity
  8
ALPHA
100
AcDbLine
 10
67.359794
 20
85.247885
 30
0.0
 11
68.459794
 21
85.247885
 31
0.0
  0
LINE
  5
4C8
100
AcDbEntity
  8
ALPHA
100
AcDbLine
 10
72.259794
 20
115.747885
 30
0.0
 11
72.259794
 21
112.678241
 31
0.0
  0
LINE
  5
4C9
100
AcDbEntity
  8
ALPHA
100
AcDbLine
 10
72.259794
 20
89.817529
 30
0.0
 11
72.259794
 21
86.747885
 31
0.0
  0
LWPOLYLINE
  5
4CA
100
AcDbEntity
  8
ALPHA
100
AcDbPolyline
 90
       10
 70
     0
 43
0.0
 10
72.259794
 20
89.817529
 10
71.709021
 20
89.869308
 10
71.17642
 20
90.023099
 10
70.679646
 20
90.274345
 10
70.235711
 20
90.615358
 10
69.860336
 20
91.035307
 10
69.567329
 20
91.520282
 10
69.36785
 20
92.053588
 10
69.269714
 20
92.616285
 10
69.25989
 20
92.863698
  0
LINE
  5
4D6
100
AcDbEntity
  8
ALPHA
100
AcDbLine
 10
68.359794
 20
93.747885
 30
0.0
 11
69.388909
 21
93.747885
 31
0.0
  0
LINE
  5
4D7
100
AcDbEntity
  8
ALPHA
100
AcDbLine
 10
68.359794
 20
108.747885
 30
0.0
 11
68.359794
 21
93.747885
 31
0.0
  0
LINE
  5
4D8
100
AcDbEntity
  8
ALPHA
100
AcDbLine
 10
69.388909
 20
108.747885
 30
0.0
 11
68.359794
 21
108.747885
 31
0.0
  0
LINE
  5
4D9
100
AcDbEntity
  8
ALPHA
100
AcDbLine
 10
67.359794
 20
86.747885
 30
0.0
 11
67.359794
 21
85.247885
 31
0.0
  0
LINE
  5
4DA
100
AcDbEntity
  8
ALPHA
100
AcDbLine
 10
67.359794
 20
115.747885
 30
0.0
 11
67.359794
 21
86.747885
 31
0.0
  0
LINE
  5
4DB
100
AcDbEntity
  8
ALPHA
100
AcDbLine
 10
67.359794
 20
117.247885
 30
0.0
 11
67.359794
 21
115.747885
 31
0.0
  0
LINE
  5
4DC
100
AcDbEntity
  8
ALPHA
100
AcDbLine
 10
62.259794
 20
115.747885
 30
0.0
 11
58.759794
 21
115.747885
 31
0.0
  0
LINE
  5
4DD
100
AcDbEntity
  8
ALPHA
100
AcDbLine
 10
58.759794
 20
115.747885
 30
0.0
 11
58.359794
 21
115.92139
 31
0.0
  0
LINE
  5
4DE
100
AcDbEntity
  8
ALPHA
100
AcDbLine
 10
59.059794
 20
86.115113
 30
0.0
 11
59.059794
 21
85.59998
 31
0.0
  0
LWPOLYLINE
  5
4DF
100
AcDbEntity
  8
ALPHA
100
AcDbPolyline
 90
        5
 70
     0
 43
0.0
 10
59.289324
 20
109.991694
 10
59.36929
 20
109.529284
 10
59.592813
 20
108.967305
 10
59.927639
 20
108.461787
 10
60.359794
 20
108.033826
  0
LINE
  5
4E6
100
AcDbEntity
  8
ALPHA
100
AcDbLine
 10
59.277102
 20
110.062371
 30
0.0
 11
59.289324
 21
109.991694
 31
0.0
  0
LINE
  5
4E7
100
AcDbEntity
  8
ALPHA
100
AcDbLine
 10
59.268224
 20
110.113712
 30
0.0
 11
59.277102
 21
110.062371
 31
0.0
  0
LINE
  5
4E8
100
AcDbEntity
  8
ALPHA
100
AcDbLine
 10
59.059794
 20
85.59998
 30
0.0
 11
59.059794
 21
85.247885
 31
0.0
  0
LWPOLYLINE
  5
4E9
100
AcDbEntity
  8
ALPHA
100
AcDbPolyline
 90
        4
 70
     0
 43
0.0
 10
59.259852
 20
109.986598
 10
59.263614
 20
109.833202
 10
59.342118
 20
109.278146
 10
59.519143
 20
108.747885
  0
LINE
  5
4EF
100
AcDbEntity
  8
ALPHA
100
AcDbLine
 10
57.359794
 20
113.347885
 30
0.0
 11
58.759794
 21
113.347885
 31
0.0
  0
LINE
  5
4F0
100
AcDbEntity
  8
ALPHA
100
AcDbLine
 10
58.459794
 20
86.115113
 30
0.0
 11
58.459794
 21
85.247885
 31
0.0
  0
LINE
  5
4F1
100
AcDbEntity
  8
ALPHA
100
AcDbLine
 10
58.759794
 20
115.747885
 30
0.0
 11
58.759794
 21
113.347885
 31
0.0
  0
LINE
  5
4F2
100
AcDbEntity
  8
ALPHA
100
AcDbLine
 10
58.759794
 20
113.347885
 30
0.0
 11
58.359794
 21
113.747885
 31
0.0
  0
LINE
  5
4F3
100
AcDbEntity
  8
ALPHA
100
AcDbLine
 10
62.259794
 20
86.747885
 30
0.0
 11
57.359794
 21
86.747885
 31
0.0
  0
LWPOLYLINE
  5
4F4
100
AcDbEntity
  8
ALPHA
100
AcDbPolyline
 90
        6
 70
     0
 43
0.0
 10
60.359794
 20
95.218992
 10
59.976712
 20
94.837722
 10
59.665911
 20
94.392031
 10
59.438028
 20
93.895897
 10
59.301161
 20
93.365675
 10
59.2598
 20
92.861365
  0
LINE
  5
4FC
100
AcDbEntity
  8
ALPHA
100
AcDbLine
 10
57.359794
 20
117.203766
 30
0.0
 11
58.359794
 21
117.203766
 31
0.0
  0
LWPOLYLINE
  5
4FD
100
AcDbEntity
  8
ALPHA
100
AcDbPolyline
 90
        7
 70
     0
 43
0.0
 10
59.059794
 20
85.59998
 10
58.982142
 20
85.598202
 10
58.910378
 20
85.59306
 10
58.848762
 20
85.584911
 10
58.801044
 20
85.574244
 10
58.770504
 20
85.561689
 10
58.759794
 20
85.547885
  0
LINE
  5
506
100
AcDbEntity
  8
ALPHA
100
AcDbLine
 10
58.209794
 20
110.939833
 30
0.0
 11
59.41036
 21
110.939833
 31
0.0
  0
LINE
  5
507
100
AcDbEntity
  8
ALPHA
100
AcDbLine
 10
59.459794
 20
116.895791
 30
0.0
 11
59.159794
 21
116.895791
 31
0.0
  0
LINE
  5
508
100
AcDbEntity
  8
ALPHA
100
AcDbLine
 10
59.459794
 20
85.59998
 30
0.0
 11
59.059794
 21
85.59998
 31
0.0
  0
LWPOLYLINE
  5
509
100
AcDbEntity
  8
ALPHA
100
AcDbPolyline
 90
        4
 70
     0
 43
0.0
 10
60.359794
 20
107.276779
 10
59.944244
 20
107.697393
 10
59.616168
 20
108.19417
 10
59.389588
 20
108.747885
  0
LINE
  5
50F
100
AcDbEntity
  8
ALPHA
100
AcDbLine
 10
60.099428
 20
111.747885
 30
0.0
 11
58.209794
 21
111.747885
 31
0.0
  0
LINE
  5
510
100
AcDbEntity
  8
ALPHA
100
AcDbLine
 10
59.159794
 20
99.247885
 30
0.0
 11
59.159794
 21
99.097885
 31
0.0
  0
LINE
  5
511
100
AcDbEntity
  8
ALPHA
100
AcDbLine
 10
59.159794
 20
103.397885
 30
0.0
 11
59.159794
 21
103.247885
 31
0.0
  0
LINE
  5
512
100
AcDbEntity
  8
ALPHA
100
AcDbLine
 10
58.359794
 20
99.822885
 30
0.0
 11
58.509794
 21
99.717854
 31
0.0
  0
LINE
  5
513
100
AcDbEntity
  8
ALPHA
100
AcDbLine
 10
58.509794
 20
102.777916
 30
0.0
 11
58.359794
 21
102.672885
 31
0.0
  0
LINE
  5
514
100
AcDbEntity
  8
ALPHA
100
AcDbLine
 10
62.259794
 20
115.747885
 30
0.0
 11
62.259794
 21
112.680511
 31
0.0
  0
LINE
  5
515
100
AcDbEntity
  8
ALPHA
100
AcDbLine
 10
62.259794
 20
116.380658
 30
0.0
 11
62.259794
 21
115.747885
 31
0.0
  0
LINE
  5
516
100
AcDbEntity
  8
ALPHA
100
AcDbLine
 10
59.306887
 20
110.064548
 30
0.0
 11
59.280709
 21
110.303297
 31
0.0
  0
LINE
  5
517
100
AcDbEntity
  8
ALPHA
100
AcDbLine
 10
59.314773
 20
109.99262
 30
0.0
 11
59.306887
 21
110.064548
 31
0.0
  0
LWPOLYLINE
  5
518
100
AcDbEntity
  8
ALPHA
100
AcDbPolyline
 90
        5
 70
     0
 43
0.0
 10
60.359794
 20
108.207475
 10
59.892937
 20
108.678483
 10
59.543555
 20
109.239593
 10
59.32899
 20
109.862956
 10
59.314773
 20
109.99262
  0
LINE
  5
51F
100
AcDbEntity
  8
ALPHA
100
AcDbLine
 10
59.159794
 20
116.380658
 30
0.0
 11
62.259794
 21
116.380658
 31
0.0
  0
LINE
  5
520
100
AcDbEntity
  8
ALPHA
100
AcDbLine
 10
60.359794
 20
107.858174
 30
0.0
 11
60.359794
 21
108.033826
 31
0.0
  0
LINE
  5
521
100
AcDbEntity
  8
ALPHA
100
AcDbLine
 10
60.359794
 20
107.773354
 30
0.0
 11
60.359794
 21
107.276779
 31
0.0
  0
LINE
  5
522
100
AcDbEntity
  8
ALPHA
100
AcDbLine
 10
59.459794
 20
116.380658
 30
0.0
 11
59.459794
 21
116.895791
 31
0.0
  0
LINE
  5
523
100
AcDbEntity
  8
ALPHA
100
AcDbLine
 10
60.359794
 20
108.207475
 30
0.0
 11
60.359794
 21
108.033826
 31
0.0
  0
LINE
  5
524
100
AcDbEntity
  8
ALPHA
100
AcDbLine
 10
60.359794
 20
107.095665
 30
0.0
 11
59.840179
 21
106.791037
 31
0.0
  0
LINE
  5
525
100
AcDbEntity
  8
ALPHA
100
AcDbLine
 10
60.323349
 20
107.837452
 30
0.0
 11
60.305383
 21
107.827237
 31
0.0
  0
LINE
  5
526
100
AcDbEntity
  8
ALPHA
100
AcDbLine
 10
60.359794
 20
107.858174
 30
0.0
 11
60.323349
 21
107.837452
 31
0.0
  0
LINE
  5
527
100
AcDbEntity
  8
ALPHA
100
AcDbLine
 10
62.259794
 20
86.747885
 30
0.0
 11
62.259794
 21
86.115113
 31
0.0
  0
LINE
  5
528
100
AcDbEntity
  8
ALPHA
100
AcDbLine
 10
62.259794
 20
86.747885
 30
0.0
 11
62.259794
 21
89.197885
 31
0.0
  0
LWPOLYLINE
  5
529
100
AcDbEntity
  8
ALPHA
100
AcDbPolyline
 90
        5
 70
     0
 43
0.0
 10
60.359794
 20
94.288296
 10
59.892937
 20
93.817288
 10
59.543555
 20
93.256177
 10
59.32899
 20
92.632814
 10
59.303822
 20
92.403275
  0
LINE
  5
530
100
AcDbEntity
  8
ALPHA
100
AcDbLine
 10
58.759794
 20
86.034622
 30
0.0
 11
58.890532
 21
86.115113
 31
0.0
  0
LINE
  5
531
100
AcDbEntity
  8
ALPHA
100
AcDbLine
 10
58.459794
 20
86.115113
 30
0.0
 11
62.259794
 21
86.115113
 31
0.0
  0
LINE
  5
532
100
AcDbEntity
  8
ALPHA
100
AcDbLine
 10
60.359794
 20
94.288296
 30
0.0
 11
60.359794
 21
95.218992
 31
0.0
  0
LINE
  5
533
100
AcDbEntity
  8
ALPHA
100
AcDbLine
 10
60.359794
 20
95.400106
 30
0.0
 11
59.840179
 21
95.704734
 31
0.0
  0
LINE
  5
534
100
AcDbEntity
  8
ALPHA
100
AcDbLine
 10
58.359794
 20
115.92139
 30
0.0
 11
58.359794
 21
117.203766
 31
0.0
  0
LWPOLYLINE
  5
535
100
AcDbEntity
  8
ALPHA
100
AcDbPolyline
 90
        4
 70
     0
 43
0.0
 10
60.099428
 20
111.747885
 10
59.822056
 20
111.51249
 10
59.589729
 20
111.243299
 10
59.41036
 20
110.939833
  0
LWPOLYLINE
  5
53B
100
AcDbEntity
  8
ALPHA
100
AcDbPolyline
 90
        3
 70
     0
 43
0.0
 10
59.41036
 20
110.939833
 10
59.286659
 20
110.393654
 10
59.259852
 20
109.986598
  0
LINE
  5
540
100
AcDbEntity
  8
ALPHA
100
AcDbLine
 10
59.389588
 20
108.747885
 30
0.0
 11
59.519143
 21
108.747885
 31
0.0
  0
LWPOLYLINE
  5
541
100
AcDbEntity
  8
ALPHA
100
AcDbPolyline
 90
        7
 70
     0
 43
0.0
 10
62.259794
 20
89.198115
 10
61.756321
 20
89.241321
 10
61.26706
 20
89.369737
 10
60.805115
 20
89.5802
 10
60.383618
 20
89.86735
 10
60.014812
 20
90.223707
 10
59.709794
 20
90.639667
  0
LINE
  5
54A
100
AcDbEntity
  8
ALPHA
100
AcDbLine
 10
59.459794
 20
85.59998
 30
0.0
 11
59.459794
 21
86.115113
 31
0.0
  0
LINE
  5
54B
100
AcDbEntity
  8
ALPHA
100
AcDbLine
 10
57.359794
 20
113.347885
 30
0.0
 11
57.359794
 21
113.747885
 31
0.0
  0
LINE
  5
54C
100
AcDbEntity
  8
ALPHA
100
AcDbLine
 10
57.359794
 20
113.747885
 30
0.0
 11
58.359794
 21
113.747885
 31
0.0
  0
LINE
  5
54D
100
AcDbEntity
  8
ALPHA
100
AcDbLine
 10
58.359794
 20
115.92139
 30
0.0
 11
58.359794
 21
113.747885
 31
0.0
  0
LINE
  5
54E
100
AcDbEntity
  8
ALPHA
100
AcDbLine
 10
59.159794
 20
117.247885
 30
0.0
 11
57.359794
 21
117.247885
 31
0.0
  0
LINE
  5
54F
100
AcDbEntity
  8
ALPHA
100
AcDbLine
 10
62.259794
 20
89.197885
 30
0.0
 11
59.709794
 21
89.197885
 31
0.0
  0
LINE
  5
550
100
AcDbEntity
  8
ALPHA
100
AcDbLine
 10
59.709794
 20
89.197885
 30
0.0
 11
59.709794
 21
91.256812
 31
0.0
  0
LINE
  5
551
100
AcDbEntity
  8
ALPHA
100
AcDbLine
 10
60.359794
 20
95.400106
 30
0.0
 11
60.359794
 21
95.218992
 31
0.0
  0
LINE
  5
552
100
AcDbEntity
  8
ALPHA
100
AcDbLine
 10
58.359794
 20
95.704734
 30
0.0
 11
59.840179
 21
95.704734
 31
0.0
  0
LINE
  5
553
100
AcDbEntity
  8
ALPHA
100
AcDbLine
 10
58.359794
 20
100.947885
 30
0.0
 11
58.159794
 21
100.947885
 31
0.0
  0
LINE
  5
554
100
AcDbEntity
  8
ALPHA
100
AcDbLine
 10
58.159794
 20
101.547885
 30
0.0
 11
58.159794
 21
100.947885
 31
0.0
  0
LINE
  5
555
100
AcDbEntity
  8
ALPHA
100
AcDbLine
 10
58.359794
 20
101.547885
 30
0.0
 11
58.159794
 21
101.547885
 31
0.0
  0
LINE
  5
556
100
AcDbEntity
  8
ALPHA
100
AcDbLine
 10
58.359794
 20
106.791037
 30
0.0
 11
59.840179
 21
106.791037
 31
0.0
  0
LINE
  5
557
100
AcDbEntity
  8
ALPHA
100
AcDbLine
 10
60.359794
 20
107.095665
 30
0.0
 11
60.359794
 21
107.276779
 31
0.0
  0
LINE
  5
558
100
AcDbEntity
  8
ALPHA
100
AcDbLine
 10
59.389588
 20
108.747885
 30
0.0
 11
58.209794
 21
108.747885
 31
0.0
  0
LINE
  5
559
100
AcDbEntity
  8
ALPHA
100
AcDbLine
 10
58.209794
 20
108.747885
 30
0.0
 11
58.209794
 21
111.747885
 31
0.0
  0
LWPOLYLINE
  5
55A
100
AcDbEntity
  8
ALPHA
100
AcDbPolyline
 90
        5
 70
     0
 43
0.0
 10
60.099428
 20
111.747885
 10
60.56052
 20
112.144712
 10
61.088525
 20
112.438745
 10
61.662887
 20
112.619603
 10
62.259794
 20
112.680511
  0
LINE
  5
561
100
AcDbEntity
  8
ALPHA
100
AcDbLine
 10
57.359794
 20
85.247885
 30
0.0
 11
58.459794
 21
85.247885
 31
0.0
  0
LINE
  5
562
100
AcDbEntity
  8
ALPHA
100
AcDbLine
 10
57.359794
 20
117.247885
 30
0.0
 11
57.359794
 21
117.203766
 31
0.0
  0
ARC
  5
563
100
AcDbEntity
  8
ALPHA
100
AcDbCircle
 10
58.459794
 20
85.547885
 30
0.0
 40
0.3
100
AcDbArc
 50
270.0
 51
0.0
  0
LINE
  5
564
100
AcDbEntity
  8
ALPHA
100
AcDbLine
 10
58.759794
 20
86.115113
 30
0.0
 11
58.759794
 21
85.547885
 31
0.0
  0
LINE
  5
565
100
AcDbEntity
  8
ALPHA
100
AcDbLine
 10
59.059794
 20
85.247885
 30
0.0
 11
58.459794
 21
85.247885
 31
0.0
  0
LINE
  5
566
100
AcDbEntity
  8
ALPHA
100
AcDbLine
 10
59.459794
 20
85.247885
 30
0.0
 11
59.059794
 21
85.247885
 31
0.0
  0
LINE
  5
567
100
AcDbEntity
  8
ALPHA
100
AcDbLine
 10
59.459794
 20
85.58096
 30
0.0
 11
59.459794
 21
85.247885
 31
0.0
  0
LINE
  5
568
100
AcDbEntity
  8
ALPHA
100
AcDbLine
 10
59.459794
 20
85.59998
 30
0.0
 11
59.459794
 21
85.58096
 31
0.0
  0
LINE
  5
569
100
AcDbEntity
  8
ALPHA
100
AcDbLine
 10
59.159794
 20
117.247885
 30
0.0
 11
59.159794
 21
116.380658
 31
0.0
  0
LINE
  5
56A
100
AcDbEntity
  8
ALPHA
100
AcDbLine
 10
57.359794
 20
86.747885
 30
0.0
 11
57.359794
 21
85.247885
 31
0.0
  0
LINE
  5
56B
100
AcDbEntity
  8
ALPHA
100
AcDbLine
 10
57.359794
 20
86.747885
 30
0.0
 11
57.359794
 21
113.347885
 31
0.0
  0
LINE
  5
56C
100
AcDbEntity
  8
ALPHA
100
AcDbLine
 10
59.459794
 20
117.247885
 30
0.0
 11
59.159794
 21
117.247885
 31
0.0
  0
LINE
  5
56D
100
AcDbEntity
  8
ALPHA
100
AcDbLine
 10
57.359794
 20
117.203766
 30
0.0
 11
57.359794
 21
113.747885
 31
0.0
  0
LINE
  5
56E
100
AcDbEntity
  8
ALPHA
100
AcDbLine
 10
59.459794
 20
116.999561
 30
0.0
 11
59.459794
 21
116.895791
 31
0.0
  0
LINE
  5
56F
100
AcDbEntity
  8
ALPHA
100
AcDbLine
 10
59.459794
 20
117.247885
 30
0.0
 11
59.459794
 21
116.999561
 31
0.0
  0
LWPOLYLINE
  5
570
100
AcDbEntity
  8
ALPHA
100
AcDbPolyline
 90
        4
 70
     0
 43
0.0
 10
59.568652
 20
108.767577
 10
59.592813
 20
108.706833
 10
59.927639
 20
108.201315
 10
60.359794
 20
107.773354
  0
LWPOLYLINE
  5
576
100
AcDbEntity
  8
ALPHA
100
AcDbPolyline
 90
        4
 70
     0
 43
0.0
 10
59.262308
 20
109.986679
 10
59.266398
 20
109.863799
 10
59.36929
 20
109.268812
 10
59.568652
 20
108.767577
  0
LINE
  5
57C
100
AcDbEntity
  8
ALPHA
100
AcDbLine
 10
58.359794
 20
101.547885
 30
0.0
 11
58.359794
 21
106.791037
 31
0.0
  0
LWPOLYLINE
  5
57D
100
AcDbEntity
  8
ALPHA
100
AcDbPolyline
 90
        4
 70
     0
 43
0.0
 10
59.2598
 20
92.861365
 10
59.316368
 20
92.272728
 10
59.467976
 20
91.746531
 10
59.709794
 20
91.256812
  0
LINE
  5
583
100
AcDbEntity
  8
ALPHA
100
AcDbLine
 10
58.359794
 20
95.704734
 30
0.0
 11
58.359794
 21
100.947885
 31
0.0
  0
LINE
  5
584
100
AcDbEntity
  8
ALPHA
100
AcDbLine
 10
59.459794
 20
85.247885
 30
0.0
 11
59.059794
 21
85.247885
 31
0.0
  0
LINE
  5
585
100
AcDbEntity
  8
ALPHA
100
AcDbLine
 10
71.207653
 20
94.652146
 30
0.0
 11
73.332033
 21
94.652146
 31
0.0
  0
LINE
  5
586
100
AcDbEntity
  8
ALPHA
100
AcDbLine
 10
70.859794
 20
94.356768
 30
0.0
 11
70.859794
 21
94.49087
 31
0.0
  0
LINE
  5
587
100
AcDbEntity
  8
ALPHA
100
AcDbLine
 10
67.209794
 20
114.047885
 30
0.0
 11
67.209794
 21
113.747885
 31
0.0
  0
LINE
  5
588
100
AcDbEntity
  8
ALPHA
100
AcDbLine
 10
67.209794
 20
114.047885
 30
0.0
 11
67.209794
 21
116.847885
 31
0.0
  0
LINE
  5
589
100
AcDbEntity
  8
ALPHA
100
AcDbLine
 10
67.209794
 20
116.847885
 30
0.0
 11
67.209794
 21
114.047885
 31
0.0
  0
LINE
  5
58A
100
AcDbEntity
  8
ALPHA
100
AcDbLine
 10
67.209794
 20
116.847885
 30
0.0
 11
67.159794
 21
116.847885
 31
0.0
  0
LINE
  5
58B
100
AcDbEntity
  8
ALPHA
100
AcDbLine
 10
67.209794
 20
114.047885
 30
0.0
 11
67.159794
 21
114.047885
 31
0.0
  0
LINE
  5
58C
100
AcDbEntity
  8
ALPHA
100
AcDbLine
 10
63.084102
 20
85.358606
 30
0.0
 11
63.009794
 21
85.302141
 31
0.0
  0
LINE
  5
58D
100
AcDbEntity
  8
ALPHA
100
AcDbLine
 10
63.009794
 20
85.302141
 30
0.0
 11
62.884794
 21
85.089375
 31
0.0
  0
LINE
  5
58E
100
AcDbEntity
  8
ALPHA
100
AcDbLine
 10
62.884794
 20
85.089375
 30
0.0
 11
62.884794
 21
84.982992
 31
0.0
  0
LINE
  5
58F
100
AcDbEntity
  8
ALPHA
100
AcDbLine
 10
62.884794
 20
84.982992
 30
0.0
 11
63.009794
 21
84.823417
 31
0.0
  0
LINE
  5
590
100
AcDbEntity
  8
ALPHA
100
AcDbLine
 10
63.009794
 20
84.823417
 30
0.0
 11
63.197294
 21
84.717034
 31
0.0
  0
LINE
  5
591
100
AcDbEntity
  8
ALPHA
100
AcDbLine
 10
63.197294
 20
84.717034
 30
0.0
 11
63.509794
 21
84.663843
 31
0.0
  0
LINE
  5
592
100
AcDbEntity
  8
ALPHA
100
AcDbLine
 10
63.509794
 20
84.663843
 30
0.0
 11
63.759794
 21
84.663843
 31
0.0
  0
LINE
  5
593
100
AcDbEntity
  8
ALPHA
100
AcDbLine
 10
63.759794
 20
84.663843
 30
0.0
 11
64.072294
 21
84.717034
 31
0.0
  0
LINE
  5
594
100
AcDbEntity
  8
ALPHA
100
AcDbLine
 10
64.072294
 20
84.717034
 30
0.0
 11
64.259794
 21
84.823417
 31
0.0
  0
LINE
  5
595
100
AcDbEntity
  8
ALPHA
100
AcDbLine
 10
64.259794
 20
84.823417
 30
0.0
 11
64.384794
 21
84.982992
 31
0.0
  0
LINE
  5
596
100
AcDbEntity
  8
ALPHA
100
AcDbLine
 10
64.384794
 20
84.982992
 30
0.0
 11
64.697294
 21
84.982992
 31
0.0
  0
LINE
  5
597
100
AcDbEntity
  8
ALPHA
100
AcDbLine
 10
64.697294
 20
84.982992
 30
0.0
 11
64.634794
 21
84.770226
 31
0.0
  0
LINE
  5
598
100
AcDbEntity
  8
ALPHA
100
AcDbLine
 10
64.634794
 20
84.770226
 30
0.0
 11
64.384794
 21
84.55746
 31
0.0
  0
LINE
  5
599
100
AcDbEntity
  8
ALPHA
100
AcDbLine
 10
64.384794
 20
84.55746
 30
0.0
 11
64.134794
 21
84.451077
 31
0.0
  0
LINE
  5
59A
100
AcDbEntity
  8
ALPHA
100
AcDbLine
 10
64.134794
 20
84.451077
 30
0.0
 11
63.697294
 21
84.397885
 31
0.0
  0
LINE
  5
59B
100
AcDbEntity
  8
ALPHA
100
AcDbLine
 10
63.697294
 20
84.397885
 30
0.0
 11
63.447294
 21
84.397885
 31
0.0
  0
LINE
  5
59C
100
AcDbEntity
  8
ALPHA
100
AcDbLine
 10
63.447294
 20
84.397885
 30
0.0
 11
63.072294
 21
84.451077
 31
0.0
  0
LINE
  5
59D
100
AcDbEntity
  8
ALPHA
100
AcDbLine
 10
63.072294
 20
84.451077
 30
0.0
 11
62.822294
 21
84.55746
 31
0.0
  0
LINE
  5
59E
100
AcDbEntity
  8
ALPHA
100
AcDbLine
 10
62.822294
 20
84.55746
 30
0.0
 11
62.572294
 21
84.770226
 31
0.0
  0
LINE
  5
59F
100
AcDbEntity
  8
ALPHA
100
AcDbLine
 10
62.572294
 20
84.770226
 30
0.0
 11
62.509794
 21
84.982992
 31
0.0
  0
LINE
  5
5A0
100
AcDbEntity
  8
ALPHA
100
AcDbLine
 10
62.509794
 20
84.982992
 30
0.0
 11
62.509794
 21
85.089375
 31
0.0
  0
LINE
  5
5A1
100
AcDbEntity
  8
ALPHA
100
AcDbLine
 10
62.509794
 20
85.089375
 30
0.0
 11
62.572294
 21
85.302141
 31
0.0
  0
LINE
  5
5A2
100
AcDbEntity
  8
ALPHA
100
AcDbLine
 10
62.572294
 20
85.302141
 30
0.0
 11
62.616525
 21
85.358606
 31
0.0
  0
LINE
  5
5A3
100
AcDbEntity
  8
ALPHA
100
AcDbLine
 10
68.929794
 20
85.386183
 30
0.0
 11
68.943502
 21
85.396683
 31
0.0
  0
LINE
  5
5A4
100
AcDbEntity
  8
ALPHA
100
AcDbLine
 10
68.779794
 20
85.347885
 30
0.0
 11
68.929794
 21
85.386183
 31
0.0
  0
LINE
  5
5A5
100
AcDbEntity
  8
ALPHA
100
AcDbLine
 10
68.678901
 20
85.347885
 30
0.0
 11
68.779794
 21
85.347885
 31
0.0
  0
LINE
  5
5A6
100
AcDbEntity
  8
ALPHA
100
AcDbLine
 10
75.559794
 20
84.763843
 30
0.0
 11
75.809795
 21
84.763843
 31
0.0
  0
LINE
  5
5A7
100
AcDbEntity
  8
ALPHA
100
AcDbLine
 10
75.809795
 20
84.763843
 30
0.0
 11
76.20042
 21
84.817034
 31
0.0
  0
LINE
  5
5A8
100
AcDbEntity
  8
ALPHA
100
AcDbLine
 10
76.20042
 20
84.817034
 30
0.0
 11
76.434795
 21
84.923417
 31
0.0
  0
LINE
  5
5A9
100
AcDbEntity
  8
ALPHA
100
AcDbLine
 10
76.434795
 20
84.923417
 30
0.0
 11
76.591045
 21
85.082992
 31
0.0
  0
LINE
  5
5AA
100
AcDbEntity
  8
ALPHA
100
AcDbLine
 10
76.591045
 20
85.082992
 30
0.0
 11
76.98167
 21
85.082992
 31
0.0
  0
LINE
  5
5AB
100
AcDbEntity
  8
ALPHA
100
AcDbLine
 10
76.98167
 20
85.082992
 30
0.0
 11
76.903545
 21
84.870226
 31
0.0
  0
LINE
  5
5AC
100
AcDbEntity
  8
ALPHA
100
AcDbLine
 10
76.903545
 20
84.870226
 30
0.0
 11
76.591045
 21
84.65746
 31
0.0
  0
LINE
  5
5AD
100
AcDbEntity
  8
ALPHA
100
AcDbLine
 10
76.591045
 20
84.65746
 30
0.0
 11
76.278545
 21
84.551077
 31
0.0
  0
LINE
  5
5AE
100
AcDbEntity
  8
ALPHA
100
AcDbLine
 10
76.278545
 20
84.551077
 30
0.0
 11
75.73167
 21
84.497885
 31
0.0
  0
LINE
  5
5AF
100
AcDbEntity
  8
ALPHA
100
AcDbLine
 10
75.73167
 20
84.497885
 30
0.0
 11
75.57542
 21
84.497885
 31
0.0
  0
LINE
  5
5B0
100
AcDbEntity
  8
ALPHA
100
AcDbLine
 10
75.57542
 20
84.497885
 30
0.0
 11
75.028545
 21
84.551077
 31
0.0
  0
LINE
  5
5B1
100
AcDbEntity
  8
ALPHA
100
AcDbLine
 10
75.028545
 20
84.551077
 30
0.0
 11
74.716045
 21
84.65746
 31
0.0
  0
LINE
  5
5B2
100
AcDbEntity
  8
ALPHA
100
AcDbLine
 10
74.716045
 20
84.65746
 30
0.0
 11
74.583232
 21
84.747885
 31
0.0
  0
LINE
  5
5B3
100
AcDbEntity
  8
ALPHA
100
AcDbLine
 10
60.759794
 20
85.347885
 30
0.0
 11
60.759794
 21
85.358606
 31
0.0
  0
LINE
  5
5B4
100
AcDbEntity
  8
ALPHA
100
AcDbLine
 10
59.739794
 20
85.347885
 30
0.0
 11
60.759794
 21
85.347885
 31
0.0
  0
LINE
  5
5B5
100
AcDbEntity
  8
ALPHA
100
AcDbLine
 10
59.739794
 20
85.358606
 30
0.0
 11
59.739794
 21
85.347885
 31
0.0
  0
LINE
  5
5B6
100
AcDbEntity
  8
ALPHA
100
AcDbLine
 10
80.539794
 20
86.381928
 30
0.0
 11
81.049794
 21
86.381928
 31
0.0
  0
LINE
  5
5B7
100
AcDbEntity
  8
ALPHA
100
AcDbLine
 10
80.539794
 20
85.654268
 30
0.0
 11
80.539794
 21
86.381928
 31
0.0
  0
LINE
  5
5B8
100
AcDbEntity
  8
ALPHA
100
AcDbLine
 10
81.049794
 20
86.381928
 30
0.0
 11
80.539794
 21
85.654268
 31
0.0
  0
LINE
  5
5B9
100
AcDbEntity
  8
ALPHA
100
AcDbLine
 10
80.539794
 20
85.347885
 30
0.0
 11
80.359794
 21
85.347885
 31
0.0
  0
LINE
  5
5BA
100
AcDbEntity
  8
ALPHA
100
AcDbLine
 10
80.359794
 20
85.347885
 30
0.0
 11
80.359794
 21
86.381928
 31
0.0
  0
LINE
  5
5BB
100
AcDbEntity
  8
ALPHA
100
AcDbLine
 10
80.359794
 20
86.381928
 30
0.0
 11
80.059795
 21
86.381928
 31
0.0
  0
LINE
  5
5BC
100
AcDbEntity
  8
ALPHA
100
AcDbLine
 10
80.059795
 20
86.381928
 30
0.0
 11
80.059795
 21
86.611715
 31
0.0
  0
LINE
  5
5BD
100
AcDbEntity
  8
ALPHA
100
AcDbLine
 10
80.059795
 20
86.611715
 30
0.0
 11
80.359794
 21
86.611715
 31
0.0
  0
LINE
  5
5BE
100
AcDbEntity
  8
ALPHA
100
AcDbLine
 10
80.359794
 20
86.611715
 30
0.0
 11
80.359794
 21
87.147885
 31
0.0
  0
LINE
  5
5BF
100
AcDbEntity
  8
ALPHA
100
AcDbLine
 10
80.359794
 20
87.147885
 30
0.0
 11
80.539794
 21
87.147885
 31
0.0
  0
LINE
  5
5C0
100
AcDbEntity
  8
ALPHA
100
AcDbLine
 10
80.539794
 20
87.147885
 30
0.0
 11
80.539794
 21
86.611715
 31
0.0
  0
LINE
  5
5C1
100
AcDbEntity
  8
ALPHA
100
AcDbLine
 10
80.539794
 20
86.611715
 30
0.0
 11
81.259793
 21
86.611715
 31
0.0
  0
LINE
  5
5C2
100
AcDbEntity
  8
ALPHA
100
AcDbLine
 10
81.259793
 20
86.611715
 30
0.0
 11
81.259793
 21
86.381928
 31
0.0
  0
LINE
  5
5C3
100
AcDbEntity
  8
ALPHA
100
AcDbLine
 10
81.259793
 20
86.381928
 30
0.0
 11
80.539794
 21
85.347885
 31
0.0
  0
LINE
  5
5C4
100
AcDbEntity
  8
ALPHA
100
AcDbLine
 10
83.772294
 20
86.897885
 30
0.0
 11
84.216045
 21
86.897885
 31
0.0
  0
LINE
  5
5C5
100
AcDbEntity
  8
ALPHA
100
AcDbLine
 10
84.216045
 20
86.897885
 30
0.0
 11
84.216045
 21
84.823417
 31
0.0
  0
LINE
  5
5C6
100
AcDbEntity
  8
ALPHA
100
AcDbLine
 10
84.216045
 20
84.823417
 30
0.0
 11
84.659793
 21
85.195758
 31
0.0
  0
LINE
  5
5C7
100
AcDbEntity
  8
ALPHA
100
AcDbLine
 10
84.659793
 20
85.195758
 30
0.0
 11
84.659793
 21
84.770226
 31
0.0
  0
LINE
  5
5C8
100
AcDbEntity
  8
ALPHA
100
AcDbLine
 10
84.659793
 20
84.770226
 30
0.0
 11
84.216045
 21
84.397885
 31
0.0
  0
LINE
  5
5C9
100
AcDbEntity
  8
ALPHA
100
AcDbLine
 10
84.216045
 20
84.397885
 30
0.0
 11
83.772294
 21
84.397885
 31
0.0
  0
LINE
  5
5CA
100
AcDbEntity
  8
ALPHA
100
AcDbLine
 10
83.772294
 20
84.397885
 30
0.0
 11
83.772294
 21
86.897885
 31
0.0
  0
LINE
  5
5CB
100
AcDbEntity
  8
ALPHA
100
AcDbLine
 10
63.009794
 20
94.699571
 30
0.0
 11
63.453292
 21
94.699571
 31
0.0
  0
LINE
  5
5CC
100
AcDbEntity
  8
ALPHA
100
AcDbLine
 10
60.359794
 20
94.699571
 30
0.0
 11
61.509794
 21
94.699571
 31
0.0
  0
LINE
  5
5CD
100
AcDbEntity
  8
ALPHA
100
AcDbLine
 10
65.21306
 20
92.385273
 30
0.0
 11
65.023953
 21
92.385273
 31
0.0
  0
LINE
  5
5CE
100
AcDbEntity
  8
ALPHA
100
AcDbLine
 10
65.220659
 20
92.385273
 30
0.0
 11
65.21306
 21
92.385273
 31
0.0
  0
LINE
  5
5CF
100
AcDbEntity
  8
ALPHA
100
AcDbLine
 10
63.009794
 20
94.699571
 30
0.0
 11
63.009794
 21
94.673818
 31
0.0
  0
LINE
  5
5D0
100
AcDbEntity
  8
ALPHA
100
AcDbLine
 10
65.155409
 20
92.095659
 30
0.0
 11
65.051237
 21
92.095659
 31
0.0
  0
LINE
  5
5D1
100
AcDbEntity
  8
ALPHA
100
AcDbLine
 10
59.367385
 20
92.095659
 30
0.0
 11
59.477635
 21
92.095659
 31
0.0
  0
LWPOLYLINE
  5
5D2
100
AcDbEntity
  8
ALPHA
100
AcDbPolyline
 90
        7
 70
     0
 43
0.0
 10
63.009794
 20
94.699571
 10
63.004424
 20
94.743972
 10
62.987698
 20
94.785725
 10
62.959054
 20
94.82186
 10
62.919232
 20
94.848704
 10
62.869201
 20
94.863229
 10
62.845317
 20
94.864573
  0
LINE
  5
5DB
100
AcDbEntity
  8
ALPHA
100
AcDbLine
 10
62.759794
 20
94.85312
 30
0.0
 11
62.759794
 21
94.727913
 31
0.0
  0
LWPOLYLINE
  5
5DC
100
AcDbEntity
  8
ALPHA
100
AcDbPolyline
 90
        7
 70
     0
 43
0.0
 10
61.509794
 20
94.699571
 10
61.515163
 20
94.743972
 10
61.53189
 20
94.785725
 10
61.560534
 20
94.82186
 10
61.600356
 20
94.848704
 10
61.650387
 20
94.863229
 10
61.674271
 20
94.864573
  0
LINE
  5
5E5
100
AcDbEntity
  8
ALPHA
100
AcDbLine
 10
61.759794
 20
94.85312
 30
0.0
 11
61.759794
 21
94.731891
 31
0.0
  0
LINE
  5
5E6
100
AcDbEntity
  8
ALPHA
100
AcDbLine
 10
61.509794
 20
94.699571
 30
0.0
 11
61.509794
 21
94.668798
 31
0.0
  0
LINE
  5
5E7
100
AcDbEntity
  8
ALPHA
100
AcDbLine
 10
59.305552
 20
92.385273
 30
0.0
 11
59.493551
 21
92.385273
 31
0.0
  0
LINE
  5
5E8
100
AcDbEntity
  8
ALPHA
100
AcDbLine
 10
59.301848
 20
92.385273
 30
0.0
 11
59.305552
 21
92.385273
 31
0.0
  0
LINE
  5
5E9
100
AcDbEntity
  8
ALPHA
100
AcDbLine
 10
62.934698
 20
94.864841
 30
0.0
 11
62.844174
 21
94.864841
 31
0.0
  0
LINE
  5
5EA
100
AcDbEntity
  8
ALPHA
100
AcDbLine
 10
62.845317
 20
94.864573
 30
0.0
 11
62.809794
 21
94.861803
 31
0.0
  0
LINE
  5
5EB
100
AcDbEntity
  8
ALPHA
100
AcDbLine
 10
61.675414
 20
94.864841
 30
0.0
 11
60.359794
 21
94.864841
 31
0.0
  0
LINE
  5
5EC
100
AcDbEntity
  8
ALPHA
100
AcDbLine
 10
61.674271
 20
94.864573
 30
0.0
 11
61.709794
 21
94.861803
 31
0.0
  0
LINE
  5
5ED
100
AcDbEntity
  8
ALPHA
100
AcDbLine
 10
61.709794
 20
94.861803
 30
0.0
 11
61.759794
 21
94.85312
 31
0.0
  0
LINE
  5
5EE
100
AcDbEntity
  8
ALPHA
100
AcDbLine
 10
62.759794
 20
94.85312
 30
0.0
 11
61.759794
 21
94.85312
 31
0.0
  0
LINE
  5
5EF
100
AcDbEntity
  8
ALPHA
100
AcDbLine
 10
62.809794
 20
94.861803
 30
0.0
 11
62.759794
 21
94.85312
 31
0.0
  0
LINE
  5
5F0
100
AcDbEntity
  8
ALPHA
100
AcDbLine
 10
69.634794
 20
109.201025
 30
0.0
 11
69.634794
 21
110.158403
 31
0.0
  0
LINE
  5
5F1
100
AcDbEntity
  8
ALPHA
100
AcDbLine
 10
71.984794
 20
107.844105
 30
0.0
 11
71.206043
 21
107.844105
 31
0.0
  0
LWPOLYLINE
  5
5F2
100
AcDbEntity
  8
ALPHA
100
AcDbPolyline
 90
        7
 70
     0
 43
0.0
 10
71.984794
 20
107.844105
 10
71.990163
 20
107.799704
 10
72.00689
 20
107.757951
 10
72.035534
 20
107.721816
 10
72.075356
 20
107.694973
 10
72.125387
 20
107.680447
 10
72.149271
 20
107.679103
  0
LINE
  5
5FB
100
AcDbEntity
  8
ALPHA
100
AcDbLine
 10
72.234794
 20
107.690556
 30
0.0
 11
72.234794
 21
107.811693
 31
0.0
  0
LINE
  5
5FC
100
AcDbEntity
  8
ALPHA
100
AcDbLine
 10
69.843637
 20
111.432825
 30
0.0
 11
70.002895
 21
111.432825
 31
0.0
  0
LWPOLYLINE
  5
5FD
100
AcDbEntity
  8
ALPHA
100
AcDbPolyline
 90
        7
 70
     0
 43
0.0
 10
69.634794
 20
110.158403
 10
69.588761
 20
110.164624
 10
69.543414
 20
110.184001
 10
69.501672
 20
110.217184
 10
69.467392
 20
110.263316
 10
69.44382
 20
110.321274
 10
69.434794
 20
110.390095
  0
LINE
  5
606
100
AcDbEntity
  8
ALPHA
100
AcDbLine
 10
69.434794
 20
110.448017
 30
0.0
 11
69.952635
 21
110.448017
 31
0.0
  0
LINE
  5
607
100
AcDbEntity
  8
ALPHA
100
AcDbLine
 10
70.016897
 20
111.635615
 30
0.0
 11
70.061386
 21
111.635615
 31
0.0
  0
LINE
  5
608
100
AcDbEntity
  8
ALPHA
100
AcDbLine
 10
71.984794
 20
107.844105
 30
0.0
 11
71.984794
 21
107.874926
 31
0.0
  0
LINE
  5
609
100
AcDbEntity
  8
ALPHA
100
AcDbLine
 10
69.634794
 20
110.158403
 30
0.0
 11
69.968551
 21
110.158403
 31
0.0
  0
LINE
  5
60A
100
AcDbEntity
  8
ALPHA
100
AcDbLine
 10
69.434794
 20
109.644435
 30
0.0
 11
69.434794
 21
110.390095
 31
0.0
  0
LINE
  5
60B
100
AcDbEntity
  8
ALPHA
100
AcDbLine
 10
69.434794
 20
110.390095
 30
0.0
 11
69.434794
 21
110.448017
 31
0.0
  0
LINE
  5
60C
100
AcDbEntity
  8
ALPHA
100
AcDbLine
 10
69.434794
 20
110.621153
 30
0.0
 11
69.434794
 21
110.448017
 31
0.0
  0
LINE
  5
60D
100
AcDbEntity
  8
ALPHA
100
AcDbLine
 10
71.935543
 20
107.678835
 30
0.0
 11
72.150414
 21
107.678835
 31
0.0
  0
LINE
  5
60E
100
AcDbEntity
  8
ALPHA
100
AcDbLine
 10
72.234794
 20
107.690556
 30
0.0
 11
72.768861
 21
107.690556
 31
0.0
  0
LINE
  5
60F
100
AcDbEntity
  8
ALPHA
100
AcDbLine
 10
72.184794
 20
107.681873
 30
0.0
 11
72.234794
 21
107.690556
 31
0.0
  0
LINE
  5
610
100
AcDbEntity
  8
ALPHA
100
AcDbLine
 10
72.149271
 20
107.679103
 30
0.0
 11
72.184794
 21
107.681873
 31
0.0
  0
LINE
  5
611
100
AcDbEntity
  8
ALPHA
100
AcDbLine
 10
61.509794
 20
108.204273
 30
0.0
 11
60.359794
 21
108.204273
 31
0.0
  0
LINE
  5
612
100
AcDbEntity
  8
ALPHA
100
AcDbLine
 10
64.123209
 20
108.204273
 30
0.0
 11
63.009794
 21
108.204273
 31
0.0
  0
LINE
  5
613
100
AcDbEntity
  8
ALPHA
100
AcDbLine
 10
59.314951
 20
110.518571
 30
0.0
 11
59.534038
 21
110.518571
 31
0.0
  0
LINE
  5
614
100
AcDbEntity
  8
ALPHA
100
AcDbLine
 10
61.509794
 20
108.204273
 30
0.0
 11
61.509794
 21
108.339282
 31
0.0
  0
LINE
  5
615
100
AcDbEntity
  8
ALPHA
100
AcDbLine
 10
59.380544
 20
110.808185
 30
0.0
 11
59.485961
 21
110.808185
 31
0.0
  0
LINE
  5
616
100
AcDbEntity
  8
ALPHA
100
AcDbLine
 10
65.147958
 20
110.808185
 30
0.0
 11
65.033626
 21
110.808185
 31
0.0
  0
LWPOLYLINE
  5
617
100
AcDbEntity
  8
ALPHA
100
AcDbPolyline
 90
        7
 70
     0
 43
0.0
 10
61.509794
 20
108.204273
 10
61.515163
 20
108.159872
 10
61.53189
 20
108.118119
 10
61.560534
 20
108.081984
 10
61.600356
 20
108.05514
 10
61.650387
 20
108.040615
 10
61.674271
 20
108.039271
  0
LINE
  5
620
100
AcDbEntity
  8
ALPHA
100
AcDbLine
 10
61.759794
 20
108.050723
 30
0.0
 11
61.759794
 21
108.276049
 31
0.0
  0
LWPOLYLINE
  5
621
100
AcDbEntity
  8
ALPHA
100
AcDbPolyline
 90
        7
 70
     0
 43
0.0
 10
63.009794
 20
108.204273
 10
63.004424
 20
108.159872
 10
62.987698
 20
108.118119
 10
62.959054
 20
108.081984
 10
62.919232
 20
108.05514
 10
62.869201
 20
108.040615
 10
62.845317
 20
108.039271
  0
LINE
  5
62A
100
AcDbEntity
  8
ALPHA
100
AcDbLine
 10
62.759794
 20
108.050723
 30
0.0
 11
62.759794
 21
108.28016
 31
0.0
  0
LINE
  5
62B
100
AcDbEntity
  8
ALPHA
100
AcDbLine
 10
63.009794
 20
108.204273
 30
0.0
 11
63.009794
 21
108.334115
 31
0.0
  0
LINE
  5
62C
100
AcDbEntity
  8
ALPHA
100
AcDbLine
 10
65.206253
 20
110.518571
 30
0.0
 11
64.982341
 21
110.518571
 31
0.0
  0
LINE
  5
62D
100
AcDbEntity
  8
ALPHA
100
AcDbLine
 10
60.359794
 20
108.039002
 30
0.0
 11
61.675414
 21
108.039002
 31
0.0
  0
LINE
  5
62E
100
AcDbEntity
  8
ALPHA
100
AcDbLine
 10
61.674271
 20
108.039271
 30
0.0
 11
61.709794
 21
108.042041
 31
0.0
  0
LINE
  5
62F
100
AcDbEntity
  8
ALPHA
100
AcDbLine
 10
62.844174
 20
108.039002
 30
0.0
 11
63.914552
 21
108.039002
 31
0.0
  0
LINE
  5
630
100
AcDbEntity
  8
ALPHA
100
AcDbLine
 10
62.845317
 20
108.039271
 30
0.0
 11
62.809794
 21
108.042041
 31
0.0
  0
LINE
  5
631
100
AcDbEntity
  8
ALPHA
100
AcDbLine
 10
62.809794
 20
108.042041
 30
0.0
 11
62.759794
 21
108.050723
 31
0.0
  0
LINE
  5
632
100
AcDbEntity
  8
ALPHA
100
AcDbLine
 10
61.759794
 20
108.050723
 30
0.0
 11
62.759794
 21
108.050723
 31
0.0
  0
LINE
  5
633
100
AcDbEntity
  8
ALPHA
100
AcDbLine
 10
61.709794
 20
108.042041
 30
0.0
 11
61.759794
 21
108.050723
 31
0.0
  0
LINE
  5
634
100
AcDbEntity
  8
ALPHA
100
AcDbLine
 10
73.009794
 20
94.191498
 30
0.0
 11
74.144089
 21
94.191498
 31
0.0
  0
LINE
  5
635
100
AcDbEntity
  8
ALPHA
100
AcDbLine
 10
70.396379
 20
94.191498
 30
0.0
 11
71.509794
 21
94.191498
 31
0.0
  0
LINE
  5
636
100
AcDbEntity
  8
ALPHA
100
AcDbLine
 10
73.009794
 20
94.191498
 30
0.0
 11
73.009794
 21
94.055241
 31
0.0
  0
LINE
  5
637
100
AcDbEntity
  8
ALPHA
100
AcDbLine
 10
75.097909
 20
91.877199
 30
0.0
 11
74.981957
 21
91.877199
 31
0.0
  0
LWPOLYLINE
  5
638
100
AcDbEntity
  8
ALPHA
100
AcDbPolyline
 90
        7
 70
     0
 43
0.0
 10
73.009794
 20
94.191498
 10
73.004424
 20
94.235899
 10
72.987698
 20
94.277652
 10
72.959054
 20
94.313787
 10
72.919232
 20
94.34063
 10
72.869201
 20
94.355156
 10
72.845317
 20
94.3565
  0
LINE
  5
641
100
AcDbEntity
  8
ALPHA
100
AcDbLine
 10
72.759794
 20
94.345047
 30
0.0
 11
72.759794
 21
94.122872
 31
0.0
  0
LWPOLYLINE
  5
642
100
AcDbEntity
  8
ALPHA
100
AcDbPolyline
 90
        7
 70
     0
 43
0.0
 10
71.509794
 20
94.191498
 10
71.515163
 20
94.235899
 10
71.53189
 20
94.277652
 10
71.560534
 20
94.313787
 10
71.600356
 20
94.34063
 10
71.650387
 20
94.355156
 10
71.674271
 20
94.3565
  0
LINE
  5
64B
100
AcDbEntity
  8
ALPHA
100
AcDbLine
 10
71.759794
 20
94.345047
 30
0.0
 11
71.759794
 21
94.122872
 31
0.0
  0
LINE
  5
64C
100
AcDbEntity
  8
ALPHA
100
AcDbLine
 10
69.433827
 20
91.877199
 30
0.0
 11
69.537631
 21
91.877199
 31
0.0
  0
LINE
  5
64D
100
AcDbEntity
  8
ALPHA
100
AcDbLine
 10
71.509794
 20
94.191498
 30
0.0
 11
71.509794
 21
94.055238
 31
0.0
  0
LINE
  5
64E
100
AcDbEntity
  8
ALPHA
100
AcDbLine
 10
71.709794
 20
94.35373
 30
0.0
 11
71.759794
 21
94.345047
 31
0.0
  0
LINE
  5
64F
100
AcDbEntity
  8
ALPHA
100
AcDbLine
 10
72.759794
 20
94.345047
 30
0.0
 11
71.759794
 21
94.345047
 31
0.0
  0
LINE
  5
650
100
AcDbEntity
  8
ALPHA
100
AcDbLine
 10
72.809794
 20
94.35373
 30
0.0
 11
72.759794
 21
94.345047
 31
0.0
  0
LINE
  5
651
100
AcDbEntity
  8
ALPHA
100
AcDbLine
 10
73.916412
 20
94.356768
 30
0.0
 11
72.844174
 21
94.356768
 31
0.0
  0
LINE
  5
652
100
AcDbEntity
  8
ALPHA
100
AcDbLine
 10
72.845317
 20
94.3565
 30
0.0
 11
72.809794
 21
94.35373
 31
0.0
  0
LINE
  5
653
100
AcDbEntity
  8
ALPHA
100
AcDbLine
 10
71.675414
 20
94.356768
 30
0.0
 11
70.605036
 21
94.356768
 31
0.0
  0
LINE
  5
654
100
AcDbEntity
  8
ALPHA
100
AcDbLine
 10
71.674271
 20
94.3565
 30
0.0
 11
71.709794
 21
94.35373
 31
0.0
  0
LINE
  5
655
100
AcDbEntity
  8
ALPHA
100
AcDbLine
 10
63.42652
 20
93.368707
 30
0.0
 11
62.759794
 21
92.68755
 31
0.0
  0
LINE
  5
656
100
AcDbEntity
  8
ALPHA
100
AcDbLine
 10
62.759794
 20
92.68755
 30
0.0
 11
62.933722
 21
92.71211
 31
0.0
  0
LWPOLYLINE
  5
657
100
AcDbEntity
  8
ALPHA
100
AcDbPolyline
 90
        5
 70
     0
 43
0.0
 10
62.729794
 20
92.690681
 10
62.698901
 20
92.699413
 10
62.670153
 20
92.719124
 10
62.646172
 20
92.750261
 10
62.631934
 20
92.790326
  0
LWPOLYLINE
  5
65E
100
AcDbEntity
  8
ALPHA
100
AcDbPolyline
 90
        5
 70
     0
 43
0.0
 10
61.887654
 20
92.790326
 10
61.873413
 20
92.750256
 10
61.849429
 20
92.719119
 10
61.820686
 20
92.699413
 10
61.789794
 20
92.690681
  0
LINE
  5
665
100
AcDbEntity
  8
ALPHA
100
AcDbLine
 10
61.093068
 20
93.368707
 30
0.0
 11
61.759794
 21
92.68755
 31
0.0
  0
LINE
  5
666
100
AcDbEntity
  8
ALPHA
100
AcDbLine
 10
61.585865
 20
92.71211
 30
0.0
 11
61.759794
 21
92.68755
 31
0.0
  0
LINE
  5
667
100
AcDbEntity
  8
ALPHA
100
AcDbLine
 10
63.42652
 20
91.070705
 30
0.0
 11
62.759794
 21
91.702742
 31
0.0
  0
LWPOLYLINE
  5
668
100
AcDbEntity
  8
ALPHA
100
AcDbPolyline
 90
        3
 70
     0
 43
0.0
 10
61.935013
 20
89.927494
 10
61.912467
 20
89.927497
 10
61.889794
 20
89.927507
  0
LINE
  5
66D
100
AcDbEntity
  8
ALPHA
100
AcDbLine
 10
61.093068
 20
91.070705
 30
0.0
 11
61.759794
 21
91.702742
 31
0.0
  0
LWPOLYLINE
  5
66E
100
AcDbEntity
  8
ALPHA
100
AcDbPolyline
 90
        5
 70
     0
 43
0.0
 10
59.602665
 20
91.571019
 10
59.567737
 20
91.815925
 10
59.556031
 20
92.063423
 10
59.567737
 20
92.31092
 10
59.602665
 20
92.555826
  0
LINE
  5
675
100
AcDbEntity
  8
ALPHA
100
AcDbLine
 10
59.602665
 20
92.555826
 30
0.0
 11
61.759794
 21
92.555826
 31
0.0
  0
LWPOLYLINE
  5
676
100
AcDbEntity
  8
ALPHA
100
AcDbPolyline
 90
        5
 70
     0
 43
0.0
 10
61.267847
 20
91.727302
 10
61.225469
 20
91.878248
 10
61.208517
 20
92.063423
 10
61.225469
 20
92.248597
 10
61.27578
 20
92.427801
  0
LWPOLYLINE
  5
67D
100
AcDbEntity
  8
ALPHA
100
AcDbPolyline
 90
        5
 70
     0
 43
0.0
 10
64.916922
 20
92.555826
 10
64.951851
 20
92.31092
 10
64.963556
 20
92.063423
 10
64.951851
 20
91.815925
 10
64.916922
 20
91.571019
  0
LWPOLYLINE
  5
684
100
AcDbEntity
  8
ALPHA
100
AcDbPolyline
 90
        5
 70
     0
 43
0.0
 10
63.243807
 20
92.427801
 10
63.294118
 20
92.248597
 10
63.31107
 20
92.063423
 10
63.294118
 20
91.878248
 10
63.251741
 20
91.727302
  0
LWPOLYLINE
  5
68B
100
AcDbEntity
  8
ALPHA
100
AcDbPolyline
 90
        6
 70
     0
 43
0.0
 10
62.859794
 20
92.427801
 10
62.828892
 20
92.432621
 10
62.801015
 20
92.44661
 10
62.778892
 20
92.468397
 10
62.764688
 20
92.49585
 10
62.759794
 20
92.526282
  0
LWPOLYLINE
  5
693
100
AcDbEntity
  8
ALPHA
100
AcDbPolyline
 90
        9
 70
     0
 43
0.0
 10
59.963475
 20
91.727302
 10
60.063352
 20
91.396509
 10
60.212834
 20
91.082675
 10
60.408129
 20
90.794482
 10
60.64498
 20
90.538176
 10
60.918008
 20
90.319591
 10
61.221099
 20
90.143608
 10
61.547467
 20
90.014161
 10
61.889794
 20
89.93415
  0
LINE
  5
69E
100
AcDbEntity
  8
ALPHA
100
AcDbLine
 10
62.759794
 20
92.555826
 30
0.0
 11
64.916922
 21
92.555826
 31
0.0
  0
LWPOLYLINE
  5
69F
100
AcDbEntity
  8
ALPHA
100
AcDbPolyline
 90
        4
 70
     0
 43
0.0
 10
62.259794
 20
93.098728
 10
62.385798
 20
93.091264
 10
62.509452
 20
93.06911
 10
62.629794
 20
93.032487
  0
LWPOLYLINE
  5
6A5
100
AcDbEntity
  8
ALPHA
100
AcDbPolyline
 90
        4
 70
     0
 43
0.0
 10
61.889794
 20
93.032487
 10
62.010136
 20
93.06911
 10
62.13379
 20
93.091264
 10
62.259794
 20
93.098728
  0
LINE
  5
6AB
100
AcDbEntity
  8
ALPHA
100
AcDbLine
 10
61.889794
 20
94.033038
 30
0.0
 11
62.629794
 21
94.033038
 31
0.0
  0
LWPOLYLINE
  5
6AC
100
AcDbEntity
  8
ALPHA
100
AcDbPolyline
 90
        4
 70
     0
 43
0.0
 10
62.629794
 20
91.094358
 10
62.509452
 20
91.057735
 10
62.385798
 20
91.035581
 10
62.259794
 20
91.028117
  0
LWPOLYLINE
  5
6B2
100
AcDbEntity
  8
ALPHA
100
AcDbPolyline
 90
        4
 70
     0
 43
0.0
 10
62.259794
 20
91.028117
 10
62.13379
 20
91.035581
 10
62.010136
 20
91.057735
 10
61.889794
 20
91.094358
  0
LINE
  5
6B8
100
AcDbEntity
  8
ALPHA
100
AcDbLine
 10
59.765405
 20
91.293999
 30
0.0
 11
59.658428
 21
91.679748
 31
0.0
  0
LWPOLYLINE
  5
6B9
100
AcDbEntity
  8
ALPHA
100
AcDbPolyline
 90
        9
 70
     0
 43
0.0
 10
62.259794
 20
89.563414
 10
61.854943
 20
89.594061
 10
61.459604
 20
89.685283
 10
61.083067
 20
89.834935
 10
60.734178
 20
90.039503
 10
60.421134
 20
90.294179
 10
60.151291
 20
90.592979
 10
59.93099
 20
90.928883
 10
59.765405
 20
91.293999
  0
LWPOLYLINE
  5
6C4
100
AcDbEntity
  8
ALPHA
100
AcDbPolyline
 90
        5
 70
     0
 43
0.0
 10
61.27578
 20
92.427801
 10
61.379161
 20
92.394341
 10
61.477413
 20
92.363084
 10
61.570844
 20
92.334023
 10
61.659794
 20
92.307168
  0
LINE
  5
6CB
100
AcDbEntity
  8
ALPHA
100
AcDbLine
 10
61.659794
 20
92.427801
 30
0.0
 11
61.659794
 21
92.307168
 31
0.0
  0
LINE
  5
6CC
100
AcDbEntity
  8
ALPHA
100
AcDbLine
 10
61.659794
 20
92.427801
 30
0.0
 11
61.27578
 21
92.427801
 31
0.0
  0
LINE
  5
6CD
100
AcDbEntity
  8
ALPHA
100
AcDbLine
 10
61.889794
 20
90.093807
 30
0.0
 11
62.629794
 21
90.093807
 31
0.0
  0
LINE
  5
6CE
100
AcDbEntity
  8
ALPHA
100
AcDbLine
 10
62.584575
 20
89.927494
 30
0.0
 11
61.935013
 21
89.927494
 31
0.0
  0
LINE
  5
6CF
100
AcDbEntity
  8
ALPHA
100
AcDbLine
 10
62.584575
 20
94.511918
 30
0.0
 11
61.935013
 21
94.511918
 31
0.0
  0
LINE
  5
6D0
100
AcDbEntity
  8
ALPHA
100
AcDbLine
 10
64.754183
 20
91.293999
 30
0.0
 11
64.86116
 21
91.679748
 31
0.0
  0
LWPOLYLINE
  5
6D1
100
AcDbEntity
  8
ALPHA
100
AcDbPolyline
 90
        9
 70
     0
 43
0.0
 10
62.259794
 20
89.563414
 10
62.664645
 20
89.594061
 10
63.059983
 20
89.685283
 10
63.436521
 20
89.834935
 10
63.78541
 20
90.039503
 10
64.098453
 20
90.294179
 10
64.368296
 20
90.592979
 10
64.588598
 20
90.928883
 10
64.754183
 20
91.293999
  0
LINE
  5
6DC
100
AcDbEntity
  8
ALPHA
100
AcDbLine
 10
63.42652
 20
91.070705
 30
0.0
 11
62.933722
 21
91.727302
 31
0.0
  0
LINE
  5
6DD
100
AcDbEntity
  8
ALPHA
100
AcDbLine
 10
63.42652
 20
91.070705
 30
0.0
 11
62.631934
 21
91.649085
 31
0.0
  0
LWPOLYLINE
  5
6DE
100
AcDbEntity
  8
ALPHA
100
AcDbPolyline
 90
        3
 70
     0
 43
0.0
 10
62.631934
 20
92.790326
 10
62.630345
 20
92.800263
 10
62.629794
 20
92.810591
  0
LINE
  5
6E3
100
AcDbEntity
  8
ALPHA
100
AcDbLine
 10
62.640177
 20
92.796326
 30
0.0
 11
62.631934
 21
92.790326
 31
0.0
  0
LINE
  5
6E4
100
AcDbEntity
  8
ALPHA
100
AcDbLine
 10
63.42652
 20
93.368707
 30
0.0
 11
62.640177
 21
92.796326
 31
0.0
  0
LINE
  5
6E5
100
AcDbEntity
  8
ALPHA
100
AcDbLine
 10
63.42652
 20
93.368707
 30
0.0
 11
62.933722
 21
92.71211
 31
0.0
  0
LINE
  5
6E6
100
AcDbEntity
  8
ALPHA
100
AcDbLine
 10
62.933722
 20
92.71211
 30
0.0
 11
64.556113
 21
92.71211
 31
0.0
  0
LWPOLYLINE
  5
6E7
100
AcDbEntity
  8
ALPHA
100
AcDbPolyline
 90
        9
 70
     0
 43
0.0
 10
62.629794
 20
89.93415
 10
62.972121
 20
90.014161
 10
63.298488
 20
90.143608
 10
63.60158
 20
90.319591
 10
63.874608
 20
90.538176
 10
64.111458
 20
90.794482
 10
64.306754
 20
91.082675
 10
64.456236
 20
91.396509
 10
64.556113
 20
91.727302
  0
LINE
  5
6F2
100
AcDbEntity
  8
ALPHA
100
AcDbLine
 10
61.093068
 20
91.070705
 30
0.0
 11
61.887654
 21
91.649085
 31
0.0
  0
LINE
  5
6F3
100
AcDbEntity
  8
ALPHA
100
AcDbLine
 10
61.093068
 20
91.070705
 30
0.0
 11
61.585865
 21
91.727302
 31
0.0
  0
LINE
  5
6F4
100
AcDbEntity
  8
ALPHA
100
AcDbLine
 10
59.963475
 20
92.71211
 30
0.0
 11
61.585865
 21
92.71211
 31
0.0
  0
LINE
  5
6F5
100
AcDbEntity
  8
ALPHA
100
AcDbLine
 10
61.093068
 20
93.368707
 30
0.0
 11
61.585865
 21
92.71211
 31
0.0
  0
LINE
  5
6F6
100
AcDbEntity
  8
ALPHA
100
AcDbLine
 10
61.879411
 20
92.796326
 30
0.0
 11
61.887654
 21
92.790326
 31
0.0
  0
LINE
  5
6F7
100
AcDbEntity
  8
ALPHA
100
AcDbLine
 10
61.093068
 20
93.368707
 30
0.0
 11
61.879411
 21
92.796326
 31
0.0
  0
LWPOLYLINE
  5
6F8
100
AcDbEntity
  8
ALPHA
100
AcDbPolyline
 90
        3
 70
     0
 43
0.0
 10
62.629794
 20
89.927507
 10
62.607122
 20
89.927497
 10
62.584575
 20
89.927494
  0
LWPOLYLINE
  5
6FD
100
AcDbEntity
  8
ALPHA
100
AcDbPolyline
 90
        3
 70
     0
 43
0.0
 10
61.889794
 20
94.511879
 10
61.912467
 20
94.511909
 10
61.935013
 20
94.511918
  0
LWPOLYLINE
  5
702
100
AcDbEntity
  8
ALPHA
100
AcDbPolyline
 90
        3
 70
     0
 43
0.0
 10
62.584575
 20
94.511918
 10
62.259794
 20
94.534126
 10
61.935013
 20
94.511918
  0
LINE
  5
707
100
AcDbEntity
  8
ALPHA
100
AcDbLine
 10
62.729794
 20
92.690681
 30
0.0
 11
62.729794
 21
92.428683
 31
0.0
  0
LWPOLYLINE
  5
708
100
AcDbEntity
  8
ALPHA
100
AcDbPolyline
 90
        3
 70
     0
 43
0.0
 10
62.729794
 20
92.428683
 10
62.744759
 20
92.432283
 10
62.759794
 20
92.435957
  0
LWPOLYLINE
  5
70D
100
AcDbEntity
  8
ALPHA
100
AcDbPolyline
 90
        3
 70
     0
 43
0.0
 10
62.584575
 20
94.511918
 10
62.607122
 20
94.511909
 10
62.629794
 20
94.511879
  0
LWPOLYLINE
  5
712
100
AcDbEntity
  8
ALPHA
100
AcDbPolyline
 90
        4
 70
     0
 43
0.0
 10
64.86116
 20
92.664556
 10
64.87969
 20
92.628432
 10
64.898278
 20
92.592189
 10
64.916922
 20
92.555826
  0
LINE
  5
718
100
AcDbEntity
  8
ALPHA
100
AcDbLine
 10
62.759794
 20
92.68755
 30
0.0
 11
62.729794
 21
92.690681
 31
0.0
  0
LWPOLYLINE
  5
719
100
AcDbEntity
  8
ALPHA
100
AcDbPolyline
 90
        4
 70
     0
 43
0.0
 10
59.602665
 20
92.555826
 10
59.621309
 20
92.592189
 10
59.639897
 20
92.628432
 10
59.658428
 20
92.664556
  0
LWPOLYLINE
  5
71F
100
AcDbEntity
  8
ALPHA
100
AcDbPolyline
 90
        3
 70
     0
 43
0.0
 10
61.759794
 20
92.435957
 10
61.774824
 20
92.432284
 10
61.789794
 20
92.428683
  0
LINE
  5
724
100
AcDbEntity
  8
ALPHA
100
AcDbLine
 10
61.789794
 20
92.690681
 30
0.0
 11
61.789794
 21
92.428683
 31
0.0
  0
LINE
  5
725
100
AcDbEntity
  8
ALPHA
100
AcDbLine
 10
61.789794
 20
92.690681
 30
0.0
 11
61.759794
 21
92.68755
 31
0.0
  0
LWPOLYLINE
  5
726
100
AcDbEntity
  8
ALPHA
100
AcDbPolyline
 90
        3
 70
     0
 43
0.0
 10
61.889794
 20
92.810591
 10
61.889242
 20
92.800263
 10
61.887654
 20
92.790326
  0
LWPOLYLINE
  5
72B
100
AcDbEntity
  8
ALPHA
100
AcDbPolyline
 90
        3
 70
     0
 43
0.0
 10
61.935013
 20
89.927494
 10
62.259794
 20
89.905286
 10
62.584575
 20
89.927494
  0
LWPOLYLINE
  5
730
100
AcDbEntity
  8
ALPHA
100
AcDbPolyline
 90
        9
 70
     0
 43
0.0
 10
64.556113
 20
92.71211
 10
64.456236
 20
93.042903
 10
64.306754
 20
93.356736
 10
64.111458
 20
93.64493
 10
63.874608
 20
93.901236
 10
63.60158
 20
94.119821
 10
63.298488
 20
94.295804
 10
62.972121
 20
94.425251
 10
62.629794
 20
94.505262
  0
LINE
  5
73B
100
AcDbEntity
  8
ALPHA
100
AcDbLine
 10
62.859794
 20
92.427801
 30
0.0
 11
62.859794
 21
92.307168
 31
0.0
  0
LWPOLYLINE
  5
73C
100
AcDbEntity
  8
ALPHA
100
AcDbPolyline
 90
        5
 70
     0
 43
0.0
 10
62.859794
 20
92.307168
 10
62.948618
 20
92.333984
 10
63.042009
 20
92.363032
 10
63.140303
 20
92.394301
 10
63.243807
 20
92.427801
  0
LINE
  5
743
100
AcDbEntity
  8
ALPHA
100
AcDbLine
 10
63.243807
 20
92.427801
 30
0.0
 11
62.859794
 21
92.427801
 31
0.0
  0
LWPOLYLINE
  5
744
100
AcDbEntity
  8
ALPHA
100
AcDbPolyline
 90
        4
 70
     0
 43
0.0
 10
61.889794
 20
91.40137
 10
61.977769
 20
91.346931
 10
62.115155
 20
91.299588
 10
62.259794
 20
91.283539
  0
LWPOLYLINE
  5
74A
100
AcDbEntity
  8
ALPHA
100
AcDbPolyline
 90
       10
 70
     0
 43
0.0
 10
62.259794
 20
92.563789
 10
62.115155
 20
92.54774
 10
61.977769
 20
92.500397
 10
61.854525
 20
92.424134
 10
61.751603
 20
92.322776
 10
61.674164
 20
92.201404
 10
61.626091
 20
92.066105
 10
61.609794
 20
91.923664
 10
61.626091
 20
91.781223
 10
61.648386
 20
91.718474
  0
LWPOLYLINE
  5
756
100
AcDbEntity
  8
ALPHA
100
AcDbPolyline
 90
       10
 70
     0
 43
0.0
 10
61.889794
 20
92.533674
 10
61.888406
 20
92.51268
 10
61.884656
 20
92.494187
 10
61.877408
 20
92.474509
 10
61.867824
 20
92.458255
 10
61.854459
 20
92.443697
 10
61.83968
 20
92.433839
 10
61.822753
 20
92.427944
 10
61.807425
 20
92.426468
 10
61.789794
 20
92.428683
  0
LWPOLYLINE
  5
762
100
AcDbEntity
  8
ALPHA
100
AcDbPolyline
 90
        7
 70
     0
 43
0.0
 10
64.556113
 20
92.71211
 10
64.631209
 20
92.710525
 10
64.702722
 20
92.705768
 10
64.763747
 20
92.69833
 10
64.812265
 20
92.688585
 10
64.845771
 20
92.676929
 10
64.86116
 20
92.664556
  0
LWPOLYLINE
  5
76B
100
AcDbEntity
  8
ALPHA
100
AcDbPolyline
 90
        6
 70
     0
 43
0.0
 10
61.759794
 20
92.526282
 10
61.754899
 20
92.49585
 10
61.740696
 20
92.468397
 10
61.718572
 20
92.44661
 10
61.690696
 20
92.432621
 10
61.659794
 20
92.427801
  0
LWPOLYLINE
  5
773
100
AcDbEntity
  8
ALPHA
100
AcDbPolyline
 90
       10
 70
     0
 43
0.0
 10
61.759794
 20
92.399139
 10
61.758266
 20
92.378272
 10
61.754313
 20
92.360784
 10
61.746559
 20
92.342215
 10
61.736083
 20
92.327121
 10
61.722248
 20
92.314919
 10
61.707935
 20
92.30765
 10
61.69144
 20
92.3039
 10
61.676443
 20
92.303887
 10
61.659794
 20
92.307168
  0
LWPOLYLINE
  5
77F
100
AcDbEntity
  8
ALPHA
100
AcDbPolyline
 90
        4
 70
     0
 43
0.0
 10
62.629794
 20
91.40137
 10
62.541818
 20
91.346931
 10
62.404432
 20
91.299588
 10
62.259794
 20
91.283539
  0
LWPOLYLINE
  5
785
100
AcDbEntity
  8
ALPHA
100
AcDbPolyline
 90
       10
 70
     0
 43
0.0
 10
62.259794
 20
92.563789
 10
62.404432
 20
92.54774
 10
62.541818
 20
92.500397
 10
62.665062
 20
92.424134
 10
62.767984
 20
92.322776
 10
62.845424
 20
92.201404
 10
62.893497
 20
92.066105
 10
62.909794
 20
91.923664
 10
62.893497
 20
91.781223
 10
62.871201
 20
91.718474
  0
LWPOLYLINE
  5
791
100
AcDbEntity
  8
ALPHA
100
AcDbPolyline
 90
        4
 70
     0
 43
0.0
 10
64.86116
 20
92.664556
 10
64.754183
 20
93.050304
 10
64.588598
 20
93.41542
 10
64.559703
 20
93.466537
  0
LWPOLYLINE
  5
797
100
AcDbEntity
  8
ALPHA
100
AcDbPolyline
 90
        4
 70
     0
 43
0.0
 10
59.658428
 20
92.664556
 10
59.765405
 20
93.050304
 10
59.93099
 20
93.41542
 10
59.959885
 20
93.466537
  0
LWPOLYLINE
  5
79D
100
AcDbEntity
  8
ALPHA
100
AcDbPolyline
 90
       10
 70
     0
 43
0.0
 10
62.859794
 20
92.307168
 10
62.843191
 20
92.303891
 10
62.828154
 20
92.303899
 10
62.811589
 20
92.307673
 10
62.797253
 20
92.314977
 10
62.783515
 20
92.327109
 10
62.773125
 20
92.342038
 10
62.765382
 20
92.360438
 10
62.76136
 20
92.378017
 10
62.759794
 20
92.399139
  0
LWPOLYLINE
  5
7A9
100
AcDbEntity
  8
ALPHA
100
AcDbPolyline
 90
       10
 70
     0
 43
0.0
 10
62.729794
 20
92.428683
 10
62.71238
 20
92.426471
 10
62.697143
 20
92.427881
 10
62.680076
 20
92.433755
 10
62.665141
 20
92.443686
 10
62.651695
 20
92.45835
 10
62.642145
 20
92.474582
 10
62.634933
 20
92.494179
 10
62.63119
 20
92.512621
 10
62.629794
 20
92.533674
  0
LWPOLYLINE
  5
7B5
100
AcDbEntity
  8
ALPHA
100
AcDbPolyline
 90
        7
 70
     0
 43
0.0
 10
59.658428
 20
92.664556
 10
59.673816
 20
92.676929
 10
59.707322
 20
92.688585
 10
59.75584
 20
92.69833
 10
59.816866
 20
92.705768
 10
59.888379
 20
92.710525
 10
59.963475
 20
92.71211
  0
LWPOLYLINE
  5
7BE
100
AcDbEntity
  8
ALPHA
100
AcDbPolyline
 90
        9
 70
     0
 43
0.0
 10
61.889794
 20
94.505262
 10
61.547467
 20
94.425251
 10
61.221099
 20
94.295804
 10
60.918008
 20
94.119821
 10
60.64498
 20
93.901236
 10
60.408129
 20
93.64493
 10
60.212834
 20
93.356736
 10
60.063352
 20
93.042903
 10
59.963475
 20
92.71211
  0
LWPOLYLINE
  5
7C9
100
AcDbEntity
  8
ALPHA
100
AcDbPolyline
 90
        5
 70
     0
 43
0.0
 10
62.631934
 20
91.649085
 10
62.646174
 20
91.676506
 10
62.670162
 20
91.695457
 10
62.698905
 20
91.704972
 10
62.729794
 20
91.705873
  0
LINE
  5
7D0
100
AcDbEntity
  8
ALPHA
100
AcDbLine
 10
62.933722
 20
91.727302
 30
0.0
 11
62.759794
 21
91.702742
 31
0.0
  0
LWPOLYLINE
  5
7D1
100
AcDbEntity
  8
ALPHA
100
AcDbPolyline
 90
        5
 70
     0
 43
0.0
 10
61.789794
 20
91.705873
 10
61.820687
 20
91.704971
 10
61.849435
 20
91.695452
 10
61.873416
 20
91.676503
 10
61.887654
 20
91.649085
  0
LINE
  5
7D8
100
AcDbEntity
  8
ALPHA
100
AcDbLine
 10
61.759794
 20
91.702742
 30
0.0
 11
61.585865
 21
91.727302
 31
0.0
  0
LWPOLYLINE
  5
7D9
100
AcDbEntity
  8
ALPHA
100
AcDbPolyline
 90
        4
 70
     0
 43
0.0
 10
59.658428
 20
91.679748
 10
59.639897
 20
91.643624
 10
59.62131
 20
91.607381
 10
59.602665
 20
91.571019
  0
LINE
  5
7DF
100
AcDbEntity
  8
ALPHA
100
AcDbLine
 10
61.759794
 20
91.702742
 30
0.0
 11
61.789794
 21
91.705873
 31
0.0
  0
LWPOLYLINE
  5
7E0
100
AcDbEntity
  8
ALPHA
100
AcDbPolyline
 90
        4
 70
     0
 43
0.0
 10
64.916922
 20
91.571019
 10
64.898278
 20
91.607381
 10
64.879691
 20
91.643624
 10
64.86116
 20
91.679748
  0
LINE
  5
7E6
100
AcDbEntity
  8
ALPHA
100
AcDbLine
 10
62.729794
 20
91.705873
 30
0.0
 11
62.759794
 21
91.702742
 31
0.0
  0
LINE
  5
7E7
100
AcDbEntity
  8
ALPHA
100
AcDbLine
 10
61.759794
 20
92.435957
 30
0.0
 11
61.759794
 21
92.399139
 31
0.0
  0
LINE
  5
7E8
100
AcDbEntity
  8
ALPHA
100
AcDbLine
 10
61.759794
 20
92.526282
 30
0.0
 11
61.759794
 21
92.435957
 31
0.0
  0
LINE
  5
7E9
100
AcDbEntity
  8
ALPHA
100
AcDbLine
 10
61.759794
 20
92.555826
 30
0.0
 11
61.759794
 21
92.526282
 31
0.0
  0
LINE
  5
7EA
100
AcDbEntity
  8
ALPHA
100
AcDbLine
 10
61.889794
 20
92.790326
 30
0.0
 11
61.889794
 21
92.533674
 31
0.0
  0
LINE
  5
7EB
100
AcDbEntity
  8
ALPHA
100
AcDbLine
 10
61.889794
 20
92.810591
 30
0.0
 11
61.889794
 21
94.505262
 31
0.0
  0
LINE
  5
7EC
100
AcDbEntity
  8
ALPHA
100
AcDbLine
 10
59.959885
 20
93.466537
 30
0.0
 11
59.828767
 21
93.240587
 31
0.0
  0
LWPOLYLINE
  5
7ED
100
AcDbEntity
  8
ALPHA
100
AcDbPolyline
 90
       15
 70
     0
 43
0.0
 10
59.959952
 20
93.466653
 10
60.104376
 20
93.68871
 10
60.368957
 20
93.999456
 10
60.679097
 20
94.266062
 10
61.027463
 20
94.482179
 10
61.405605
 20
94.642504
 10
61.804327
 20
94.74313
 10
62.214085
 20
94.781642
 10
62.624906
 20
94.757101
 10
63.026822
 20
94.670133
 10
63.410182
 20
94.52287
 10
63.765782
 20
94.318873
 10
64.084908
 20
94.063222
 10
64.36012
 20
93.761952
 10
64.559632
 20
93.466658
  0
LINE
  5
7FE
100
AcDbEntity
  8
ALPHA
100
AcDbLine
 10
61.889794
 20
89.93415
 30
0.0
 11
61.889794
 21
91.628821
 31
0.0
  0
LINE
  5
7FF
100
AcDbEntity
  8
ALPHA
100
AcDbLine
 10
62.629794
 20
92.790326
 30
0.0
 11
62.629794
 21
92.533674
 31
0.0
  0
LINE
  5
800
100
AcDbEntity
  8
ALPHA
100
AcDbLine
 10
62.629794
 20
94.505262
 30
0.0
 11
62.629794
 21
92.810591
 31
0.0
  0
LINE
  5
801
100
AcDbEntity
  8
ALPHA
100
AcDbLine
 10
62.629794
 20
91.351904
 30
0.0
 11
62.629794
 21
89.93415
 31
0.0
  0
LINE
  5
802
100
AcDbEntity
  8
ALPHA
100
AcDbLine
 10
62.629794
 20
91.628821
 30
0.0
 11
62.629794
 21
91.351904
 31
0.0
  0
LINE
  5
803
100
AcDbEntity
  8
ALPHA
100
AcDbLine
 10
64.559703
 20
93.466537
 30
0.0
 11
64.69082
 21
93.240587
 31
0.0
  0
LINE
  5
804
100
AcDbEntity
  8
ALPHA
100
AcDbLine
 10
61.889794
 20
92.790326
 30
0.0
 11
61.889794
 21
92.533674
 31
0.0
  0
LINE
  5
805
100
AcDbEntity
  8
ALPHA
100
AcDbLine
 10
62.759794
 20
92.435957
 30
0.0
 11
62.759794
 21
92.399139
 31
0.0
  0
LINE
  5
806
100
AcDbEntity
  8
ALPHA
100
AcDbLine
 10
62.759794
 20
92.526282
 30
0.0
 11
62.759794
 21
92.435957
 31
0.0
  0
LINE
  5
807
100
AcDbEntity
  8
ALPHA
100
AcDbLine
 10
62.759794
 20
92.526282
 30
0.0
 11
62.759794
 21
92.555826
 31
0.0
  0
LINE
  5
808
100
AcDbEntity
  8
ALPHA
100
AcDbLine
 10
61.759794
 20
92.435957
 30
0.0
 11
61.759794
 21
92.399139
 31
0.0
  0
LINE
  5
809
100
AcDbEntity
  8
ALPHA
100
AcDbLine
 10
61.759794
 20
92.526282
 30
0.0
 11
61.759794
 21
92.435957
 31
0.0
  0
LWPOLYLINE
  5
80A
100
AcDbEntity
  8
ALPHA
100
AcDbPolyline
 90
        3
 70
     0
 43
0.0
 10
62.629794
 20
91.628821
 10
62.630345
 20
91.639148
 10
62.631934
 20
91.649085
  0
LWPOLYLINE
  5
80F
100
AcDbEntity
  8
ALPHA
100
AcDbPolyline
 90
        6
 70
     0
 43
0.0
 10
65.059794
 20
91.872408
 10
65.059794
 20
91.87241
 10
65.025321
 20
92.303772
 10
64.922752
 20
92.724512
 10
64.754612
 20
93.124271
 10
64.69087
 20
93.240445
  0
LINE
  5
817
100
AcDbEntity
  8
ALPHA
100
AcDbLine
 10
65.049984
 20
91.749658
 30
0.0
 11
65.059794
 21
91.872408
 31
0.0
  0
LINE
  5
818
100
AcDbEntity
  8
ALPHA
100
AcDbLine
 10
64.76974
 20
90.656514
 30
0.0
 11
64.809794
 21
90.751745
 31
0.0
  0
LINE
  5
819
100
AcDbEntity
  8
ALPHA
100
AcDbLine
 10
64.754612
 20
90.620548
 30
0.0
 11
64.76974
 21
90.656514
 31
0.0
  0
LINE
  5
81A
100
AcDbEntity
  8
ALPHA
100
AcDbLine
 10
62.933722
 20
91.727302
 30
0.0
 11
64.556113
 21
91.727302
 31
0.0
  0
LWPOLYLINE
  5
81B
100
AcDbEntity
  8
ALPHA
100
AcDbPolyline
 90
        3
 70
     0
 43
0.0
 10
61.887654
 20
91.649085
 10
61.889242
 20
91.639148
 10
61.889794
 20
91.628821
  0
LINE
  5
820
100
AcDbEntity
  8
ALPHA
100
AcDbLine
 10
59.963475
 20
91.727302
 30
0.0
 11
61.585865
 21
91.727302
 31
0.0
  0
LINE
  5
821
100
AcDbEntity
  8
ALPHA
100
AcDbLine
 10
62.629794
 20
94.511879
 30
0.0
 11
62.629794
 21
94.505262
 31
0.0
  0
LINE
  5
822
100
AcDbEntity
  8
ALPHA
100
AcDbLine
 10
61.889794
 20
94.505262
 30
0.0
 11
61.889794
 21
94.511879
 31
0.0
  0
LWPOLYLINE
  5
823
100
AcDbEntity
  8
ALPHA
100
AcDbPolyline
 90
        7
 70
     0
 43
0.0
 10
59.963475
 20
91.727302
 10
59.888379
 20
91.725717
 10
59.816866
 20
91.720961
 10
59.75584
 20
91.713522
 10
59.707322
 20
91.703778
 10
59.673816
 20
91.692121
 10
59.658428
 20
91.679748
  0
LWPOLYLINE
  5
82C
100
AcDbEntity
  8
ALPHA
100
AcDbPolyline
 90
        7
 70
     0
 43
0.0
 10
64.86116
 20
91.679748
 10
64.845771
 20
91.692121
 10
64.812265
 20
91.703778
 10
64.763747
 20
91.713522
 10
64.702722
 20
91.720961
 10
64.631209
 20
91.725717
 10
64.556113
 20
91.727302
  0
LINE
  5
835
100
AcDbEntity
  8
ALPHA
100
AcDbLine
 10
62.629794
 20
89.93415
 30
0.0
 11
62.629794
 21
89.927507
 31
0.0
  0
LINE
  5
836
100
AcDbEntity
  8
ALPHA
100
AcDbLine
 10
61.889794
 20
89.927507
 30
0.0
 11
61.889794
 21
89.93415
 31
0.0
  0
LWPOLYLINE
  5
837
100
AcDbEntity
  8
ALPHA
100
AcDbPolyline
 90
        5
 70
     0
 43
0.0
 10
59.483114
 20
92.164217
 10
59.494266
 20
92.303772
 10
59.596836
 20
92.724512
 10
59.764976
 20
93.124271
 10
59.828718
 20
93.240445
  0
LWPOLYLINE
  5
83E
100
AcDbEntity
  8
ALPHA
100
AcDbPolyline
 90
        3
 70
     0
 43
0.0
 10
59.470216
 20
91.741995
 10
59.459794
 20
91.87241
 10
59.483114
 20
92.164217
  0
LINE
  5
843
100
AcDbEntity
  8
ALPHA
100
AcDbLine
 10
59.749848
 20
90.656514
 30
0.0
 11
59.709794
 21
90.751745
 31
0.0
  0
LINE
  5
844
100
AcDbEntity
  8
ALPHA
100
AcDbLine
 10
59.764976
 20
90.620548
 30
0.0
 11
59.749848
 21
90.656514
 31
0.0
  0
LINE
  5
845
100
AcDbEntity
  8
ALPHA
100
AcDbLine
 10
73.90152
 20
111.472971
 30
0.0
 11
73.234794
 21
110.840934
 31
0.0
  0
LWPOLYLINE
  5
846
100
AcDbEntity
  8
ALPHA
100
AcDbPolyline
 90
        6
 70
     0
 43
0.0
 10
70.133428
 20
110.863928
 10
70.240405
 20
111.249677
 10
70.40599
 20
111.614793
 10
70.626291
 20
111.950697
 10
70.896134
 20
112.249497
 10
71.160654
 20
112.464697
  0
LINE
  5
84E
100
AcDbEntity
  8
ALPHA
100
AcDbLine
 10
71.568068
 20
111.472971
 30
0.0
 11
72.234794
 21
110.840934
 31
0.0
  0
LWPOLYLINE
  5
84F
100
AcDbEntity
  8
ALPHA
100
AcDbPolyline
 90
        5
 70
     0
 43
0.0
 10
73.106934
 20
109.75335
 10
73.121174
 20
109.793421
 10
73.145162
 20
109.82456
 10
73.173905
 20
109.844265
 10
73.204794
 20
109.852995
  0
LINE
  5
856
100
AcDbEntity
  8
ALPHA
100
AcDbLine
 10
73.90152
 20
109.174969
 30
0.0
 11
73.234794
 21
109.856126
 31
0.0
  0
LINE
  5
857
100
AcDbEntity
  8
ALPHA
100
AcDbLine
 10
73.408722
 20
109.831566
 30
0.0
 11
73.234794
 21
109.856126
 31
0.0
  0
LWPOLYLINE
  5
858
100
AcDbEntity
  8
ALPHA
100
AcDbPolyline
 90
        5
 70
     0
 43
0.0
 10
73.718807
 20
110.115875
 10
73.615427
 20
110.149335
 10
73.517174
 20
110.180592
 10
73.423743
 20
110.209653
 10
73.334794
 20
110.236508
  0
LINE
  5
85F
100
AcDbEntity
  8
ALPHA
100
AcDbLine
 10
73.334794
 20
110.115875
 30
0.0
 11
73.334794
 21
110.236508
 31
0.0
  0
LINE
  5
860
100
AcDbEntity
  8
ALPHA
100
AcDbLine
 10
73.334794
 20
110.115875
 30
0.0
 11
73.718807
 21
110.115875
 31
0.0
  0
LWPOLYLINE
  5
861
100
AcDbEntity
  8
ALPHA
100
AcDbPolyline
 90
        9
 70
     0
 43
0.0
 10
73.104794
 20
108.038414
 10
73.447121
 20
108.118425
 10
73.773488
 20
108.247872
 10
74.07658
 20
108.423855
 10
74.349608
 20
108.64244
 10
74.586458
 20
108.898746
 10
74.781754
 20
109.18694
 10
74.931236
 20
109.500773
 10
75.031113
 20
109.831566
  0
LWPOLYLINE
  5
86C
100
AcDbEntity
  8
ALPHA
100
AcDbPolyline
 90
        5
 70
     0
 43
0.0
 10
72.264794
 20
109.852995
 10
72.295687
 20
109.844263
 10
72.324435
 20
109.824552
 10
72.348416
 20
109.793416
 10
72.362654
 20
109.75335
  0
LINE
  5
873
100
AcDbEntity
  8
ALPHA
100
AcDbLine
 10
72.234794
 20
109.856126
 30
0.0
 11
72.060865
 21
109.831566
 31
0.0
  0
LINE
  5
874
100
AcDbEntity
  8
ALPHA
100
AcDbLine
 10
72.264794
 20
109.852995
 30
0.0
 11
72.264794
 21
110.114993
 31
0.0
  0
LWPOLYLINE
  5
875
100
AcDbEntity
  8
ALPHA
100
AcDbPolyline
 90
        3
 70
     0
 43
0.0
 10
72.264794
 20
110.114993
 10
72.249828
 20
110.111393
 10
72.234794
 20
110.107719
  0
LINE
  5
87A
100
AcDbEntity
  8
ALPHA
100
AcDbLine
 10
71.568068
 20
109.174969
 30
0.0
 11
72.234794
 21
109.856126
 31
0.0
  0
LINE
  5
87B
100
AcDbEntity
  8
ALPHA
100
AcDbLine
 10
70.077665
 20
109.98785
 30
0.0
 11
72.234794
 21
109.98785
 31
0.0
  0
LWPOLYLINE
  5
87C
100
AcDbEntity
  8
ALPHA
100
AcDbPolyline
 90
        4
 70
     0
 43
0.0
 10
70.133428
 20
109.87912
 10
70.114897
 20
109.915244
 10
70.09631
 20
109.951487
 10
70.077665
 20
109.98785
  0
LINE
  5
882
100
AcDbEntity
  8
ALPHA
100
AcDbLine
 10
72.234794
 20
109.856126
 30
0.0
 11
72.264794
 21
109.852995
 31
0.0
  0
LINE
  5
883
100
AcDbEntity
  8
ALPHA
100
AcDbLine
 10
73.234794
 20
109.98785
 30
0.0
 11
75.238394
 21
109.98785
 31
0.0
  0
LWPOLYLINE
  5
884
100
AcDbEntity
  8
ALPHA
100
AcDbPolyline
 90
        3
 70
     0
 43
0.0
 10
73.234794
 20
110.107719
 10
73.219763
 20
110.111392
 10
73.204794
 20
110.114993
  0
LINE
  5
889
100
AcDbEntity
  8
ALPHA
100
AcDbLine
 10
73.204794
 20
109.852995
 30
0.0
 11
73.204794
 21
110.114993
 31
0.0
  0
LINE
  5
88A
100
AcDbEntity
  8
ALPHA
100
AcDbLine
 10
73.204794
 20
109.852995
 30
0.0
 11
73.234794
 21
109.856126
 31
0.0
  0
LWPOLYLINE
  5
88B
100
AcDbEntity
  8
ALPHA
100
AcDbPolyline
 90
        5
 70
     0
 43
0.0
 10
70.077665
 20
109.98785
 10
70.042737
 20
110.232756
 10
70.031031
 20
110.480254
 10
70.042737
 20
110.727751
 10
70.077665
 20
110.972657
  0
LINE
  5
892
100
AcDbEntity
  8
ALPHA
100
AcDbLine
 10
72.134794
 20
110.115875
 30
0.0
 11
72.134794
 21
110.236508
 31
0.0
  0
LWPOLYLINE
  5
893
100
AcDbEntity
  8
ALPHA
100
AcDbPolyline
 90
        5
 70
     0
 43
0.0
 10
72.134794
 20
110.236508
 10
72.045969
 20
110.209692
 10
71.952579
 20
110.180644
 10
71.854285
 20
110.149375
 10
71.75078
 20
110.115875
  0
LINE
  5
89A
100
AcDbEntity
  8
ALPHA
100
AcDbLine
 10
71.75078
 20
110.115875
 30
0.0
 11
72.134794
 21
110.115875
 31
0.0
  0
LWPOLYLINE
  5
89B
100
AcDbEntity
  8
ALPHA
100
AcDbPolyline
 90
        5
 70
     0
 43
0.0
 10
71.75078
 20
110.115875
 10
71.700469
 20
110.295079
 10
71.683517
 20
110.480254
 10
71.700469
 20
110.665428
 10
71.742847
 20
110.816374
  0
LWPOLYLINE
  5
8A2
100
AcDbEntity
  8
ALPHA
100
AcDbPolyline
 90
        9
 70
     0
 43
0.0
 10
72.364794
 20
112.609526
 10
72.022467
 20
112.529515
 10
71.696099
 20
112.400069
 10
71.393008
 20
112.224085
 10
71.11998
 20
112.0055
 10
70.883129
 20
111.749194
 10
70.687834
 20
111.461001
 10
70.538352
 20
111.147167
 10
70.438475
 20
110.816374
  0
LWPOLYLINE
  5
8AD
100
AcDbEntity
  8
ALPHA
100
AcDbPolyline
 90
        6
 70
     0
 43
0.0
 10
72.134794
 20
110.115875
 10
72.165696
 20
110.111055
 10
72.193572
 20
110.097067
 10
72.215696
 20
110.075279
 10
72.229899
 20
110.047826
 10
72.234794
 20
110.017394
  0
LWPOLYLINE
  5
8B5
100
AcDbEntity
  8
ALPHA
100
AcDbPolyline
 90
        6
 70
     0
 43
0.0
 10
73.234794
 20
110.017394
 10
73.239688
 20
110.047826
 10
73.253892
 20
110.075279
 10
73.276015
 20
110.097067
 10
73.303892
 20
110.111055
 10
73.334794
 20
110.115875
  0
LWPOLYLINE
  5
8BD
100
AcDbEntity
  8
ALPHA
100
AcDbPolyline
 90
        5
 70
     0
 43
0.0
 10
73.726741
 20
110.816374
 10
73.769118
 20
110.665428
 10
73.78607
 20
110.480254
 10
73.769118
 20
110.295079
 10
73.718807
 20
110.115875
  0
LWPOLYLINE
  5
8C4
100
AcDbEntity
  8
ALPHA
100
AcDbPolyline
 90
        4
 70
     0
 43
0.0
 10
72.734794
 20
111.515559
 10
72.860798
 20
111.508095
 10
72.984452
 20
111.485941
 10
73.104794
 20
111.449318
  0
LWPOLYLINE
  5
8CA
100
AcDbEntity
  8
ALPHA
100
AcDbPolyline
 90
        4
 70
     0
 43
0.0
 10
72.364794
 20
111.449318
 10
72.485136
 20
111.485941
 10
72.60879
 20
111.508095
 10
72.734794
 20
111.515559
  0
LINE
  5
8D0
100
AcDbEntity
  8
ALPHA
100
AcDbLine
 10
72.364794
 20
112.449869
 30
0.0
 11
73.104794
 21
112.449869
 31
0.0
  0
LINE
  5
8D1
100
AcDbEntity
  8
ALPHA
100
AcDbLine
 10
73.059575
 20
108.031758
 30
0.0
 11
72.410013
 21
108.031758
 31
0.0
  0
LINE
  5
8D2
100
AcDbEntity
  8
ALPHA
100
AcDbLine
 10
72.856548
 20
112.616182
 30
0.0
 11
72.410013
 21
112.616182
 31
0.0
  0
LWPOLYLINE
  5
8D3
100
AcDbEntity
  8
ALPHA
100
AcDbPolyline
 90
        4
 70
     0
 43
0.0
 10
73.104794
 20
109.51119
 10
72.984452
 20
109.474566
 10
72.860798
 20
109.452412
 10
72.734794
 20
109.444948
  0
LINE
  5
8D9
100
AcDbEntity
  8
ALPHA
100
AcDbLine
 10
73.408722
 20
109.831566
 30
0.0
 11
75.031113
 21
109.831566
 31
0.0
  0
LWPOLYLINE
  5
8DA
100
AcDbEntity
  8
ALPHA
100
AcDbPolyline
 90
        4
 70
     0
 43
0.0
 10
72.734794
 20
109.444948
 10
72.60879
 20
109.452412
 10
72.485136
 20
109.474566
 10
72.364794
 20
109.51119
  0
LINE
  5
8E0
100
AcDbEntity
  8
ALPHA
100
AcDbLine
 10
72.364794
 20
108.510638
 30
0.0
 11
73.104794
 21
108.510638
 31
0.0
  0
LINE
  5
8E1
100
AcDbEntity
  8
ALPHA
100
AcDbLine
 10
73.90152
 20
109.174969
 30
0.0
 11
73.408722
 21
109.831566
 31
0.0
  0
LINE
  5
8E2
100
AcDbEntity
  8
ALPHA
100
AcDbLine
 10
73.115177
 20
109.74735
 30
0.0
 11
73.106934
 21
109.75335
 31
0.0
  0
LINE
  5
8E3
100
AcDbEntity
  8
ALPHA
100
AcDbLine
 10
73.90152
 20
109.174969
 30
0.0
 11
73.115177
 21
109.74735
 31
0.0
  0
LWPOLYLINE
  5
8E4
100
AcDbEntity
  8
ALPHA
100
AcDbPolyline
 90
        3
 70
     0
 43
0.0
 10
73.104794
 20
109.733086
 10
73.105345
 20
109.743413
 10
73.106934
 20
109.75335
  0
LWPOLYLINE
  5
8E9
100
AcDbEntity
  8
ALPHA
100
AcDbPolyline
 90
        3
 70
     0
 43
0.0
 10
72.410013
 20
108.031758
 10
72.387467
 20
108.031767
 10
72.364794
 20
108.031797
  0
LINE
  5
8EE
100
AcDbEntity
  8
ALPHA
100
AcDbLine
 10
73.90152
 20
111.472971
 30
0.0
 11
73.106934
 21
110.894591
 31
0.0
  0
LINE
  5
8EF
100
AcDbEntity
  8
ALPHA
100
AcDbLine
 10
73.90152
 20
111.472971
 30
0.0
 11
73.408722
 21
110.816374
 31
0.0
  0
LWPOLYLINE
  5
8F0
100
AcDbEntity
  8
ALPHA
100
AcDbPolyline
 90
        9
 70
     0
 43
0.0
 10
70.438475
 20
109.831566
 10
70.538352
 20
109.500773
 10
70.687834
 20
109.18694
 10
70.883129
 20
108.898746
 10
71.11998
 20
108.64244
 10
71.393008
 20
108.423855
 10
71.696099
 20
108.247872
 10
72.022467
 20
108.118425
 10
72.364794
 20
108.038414
  0
LWPOLYLINE
  5
8FB
100
AcDbEntity
  8
ALPHA
100
AcDbPolyline
 90
        3
 70
     0
 43
0.0
 10
72.362654
 20
109.75335
 10
72.364242
 20
109.743413
 10
72.364794
 20
109.733086
  0
LINE
  5
900
100
AcDbEntity
  8
ALPHA
100
AcDbLine
 10
72.354411
 20
109.74735
 30
0.0
 11
72.362654
 21
109.75335
 31
0.0
  0
LINE
  5
901
100
AcDbEntity
  8
ALPHA
100
AcDbLine
 10
71.568068
 20
109.174969
 30
0.0
 11
72.354411
 21
109.74735
 31
0.0
  0
LINE
  5
902
100
AcDbEntity
  8
ALPHA
100
AcDbLine
 10
71.568068
 20
109.174969
 30
0.0
 11
72.060865
 21
109.831566
 31
0.0
  0
LINE
  5
903
100
AcDbEntity
  8
ALPHA
100
AcDbLine
 10
70.438475
 20
109.831566
 30
0.0
 11
72.060865
 21
109.831566
 31
0.0
  0
LWPOLYLINE
  5
904
100
AcDbEntity
  8
ALPHA
100
AcDbPolyline
 90
        7
 70
     0
 43
0.0
 10
70.438475
 20
109.831566
 10
70.363379
 20
109.833151
 10
70.291866
 20
109.837908
 10
70.23084
 20
109.845346
 10
70.182322
 20
109.855091
 10
70.148816
 20
109.866747
 10
70.133428
 20
109.87912
  0
LWPOLYLINE
  5
90D
100
AcDbEntity
  8
ALPHA
100
AcDbPolyline
 90
        4
 70
     0
 43
0.0
 10
70.434885
 20
109.077139
 10
70.40599
 20
109.128256
 10
70.240405
 20
109.493372
 10
70.133428
 20
109.87912
  0
LINE
  5
913
100
AcDbEntity
  8
ALPHA
100
AcDbLine
 10
71.568068
 20
111.472971
 30
0.0
 11
72.060865
 21
110.816374
 31
0.0
  0
LINE
  5
914
100
AcDbEntity
  8
ALPHA
100
AcDbLine
 10
71.568068
 20
111.472971
 30
0.0
 11
72.362654
 21
110.894591
 31
0.0
  0
LWPOLYLINE
  5
915
100
AcDbEntity
  8
ALPHA
100
AcDbPolyline
 90
        3
 70
     0
 43
0.0
 10
73.104794
 20
108.031797
 10
73.082122
 20
108.031767
 10
73.059575
 20
108.031758
  0
LWPOLYLINE
  5
91A
100
AcDbEntity
  8
ALPHA
100
AcDbPolyline
 90
        3
 70
     0
 43
0.0
 10
72.364794
 20
112.616169
 10
72.387467
 20
112.616179
 10
72.410013
 20
112.616182
  0
LWPOLYLINE
  5
91F
100
AcDbEntity
  8
ALPHA
100
AcDbPolyline
 90
       10
 70
     0
 43
0.0
 10
72.123386
 20
110.825202
 10
72.101091
 20
110.762453
 10
72.084794
 20
110.620012
 10
72.101091
 20
110.477571
 10
72.149164
 20
110.342272
 10
72.226603
 20
110.2209
 10
72.329525
 20
110.119542
 10
72.452769
 20
110.043279
 10
72.590155
 20
109.995936
 10
72.734794
 20
109.979887
  0
LWPOLYLINE
  5
92B
100
AcDbEntity
  8
ALPHA
100
AcDbPolyline
 90
        4
 70
     0
 43
0.0
 10
72.734794
 20
111.260137
 10
72.590155
 20
111.244088
 10
72.452769
 20
111.196745
 10
72.364794
 20
111.142306
  0
LWPOLYLINE
  5
931
100
AcDbEntity
  8
ALPHA
100
AcDbPolyline
 90
        3
 70
     0
 43
0.0
 10
72.745409
 20
112.637664
 10
72.734794
 20
112.63839
 10
72.410013
 20
112.616182
  0
LWPOLYLINE
  5
936
100
AcDbEntity
  8
ALPHA
100
AcDbPolyline
 90
       10
 70
     0
 43
0.0
 10
72.134794
 20
110.236508
 10
72.151396
 20
110.239785
 10
72.166434
 20
110.239777
 10
72.182999
 20
110.236004
 10
72.197335
 20
110.2287
 10
72.211072
 20
110.216567
 10
72.221462
 20
110.201638
 10
72.229206
 20
110.183238
 10
72.233227
 20
110.165659
 10
72.234794
 20
110.144537
  0
LWPOLYLINE
  5
942
100
AcDbEntity
  8
ALPHA
100
AcDbPolyline
 90
       10
 70
     0
 43
0.0
 10
72.264794
 20
110.114993
 10
72.282208
 20
110.117206
 10
72.297444
 20
110.115795
 10
72.314511
 20
110.109921
 10
72.329447
 20
110.09999
 10
72.342893
 20
110.085326
 10
72.352443
 20
110.069094
 10
72.359654
 20
110.049497
 10
72.363398
 20
110.031055
 10
72.364794
 20
110.010003
  0
LWPOLYLINE
  5
94E
100
AcDbEntity
  8
ALPHA
100
AcDbPolyline
 90
       10
 70
     0
 43
0.0
 10
73.346201
 20
110.825202
 10
73.368497
 20
110.762453
 10
73.384794
 20
110.620012
 10
73.368497
 20
110.477571
 10
73.320424
 20
110.342272
 10
73.242984
 20
110.2209
 10
73.140062
 20
110.119542
 10
73.016818
 20
110.043279
 10
72.879432
 20
109.995936
 10
72.734794
 20
109.979887
  0
LWPOLYLINE
  5
95A
100
AcDbEntity
  8
ALPHA
100
AcDbPolyline
 90
        4
 70
     0
 43
0.0
 10
72.734794
 20
111.260137
 10
72.879432
 20
111.244088
 10
73.016818
 20
111.196745
 10
73.104794
 20
111.142306
  0
LWPOLYLINE
  5
960
100
AcDbEntity
  8
ALPHA
100
AcDbPolyline
 90
       10
 70
     0
 43
0.0
 10
73.104794
 20
110.010003
 10
73.106182
 20
110.030996
 10
73.109931
 20
110.04949
 10
73.117179
 20
110.069168
 10
73.126764
 20
110.085421
 10
73.140129
 20
110.099979
 10
73.154908
 20
110.109837
 10
73.171834
 20
110.115732
 10
73.187162
 20
110.117208
 10
73.204794
 20
110.114993
  0
LWPOLYLINE
  5
96C
100
AcDbEntity
  8
ALPHA
100
AcDbPolyline
 90
       10
 70
     0
 43
0.0
 10
73.234794
 20
110.144537
 10
73.236322
 20
110.165404
 10
73.240274
 20
110.182892
 10
73.248029
 20
110.201461
 10
73.258505
 20
110.216555
 10
73.272339
 20
110.228758
 10
73.286652
 20
110.236027
 10
73.303147
 20
110.239776
 10
73.318144
 20
110.239789
 10
73.334794
 20
110.236508
  0
LWPOLYLINE
  5
978
100
AcDbEntity
  8
ALPHA
100
AcDbPolyline
 90
        3
 70
     0
 43
0.0
 10
72.410013
 20
108.031758
 10
72.734794
 20
108.009551
 10
73.059575
 20
108.031758
  0
LWPOLYLINE
  5
97D
100
AcDbEntity
  8
ALPHA
100
AcDbPolyline
 90
        5
 70
     0
 43
0.0
 10
75.251067
 20
109.847821
 10
75.238747
 20
109.845346
 10
75.177722
 20
109.837908
 10
75.106209
 20
109.833151
 10
75.031113
 20
109.831566
  0
LINE
  5
984
100
AcDbEntity
  8
ALPHA
100
AcDbLine
 10
73.234794
 20
110.840934
 30
0.0
 11
73.408722
 21
110.816374
 31
0.0
  0
LWPOLYLINE
  5
985
100
AcDbEntity
  8
ALPHA
100
AcDbPolyline
 90
        5
 70
     0
 43
0.0
 10
73.204794
 20
110.837803
 10
73.173901
 20
110.838705
 10
73.145153
 20
110.848224
 10
73.121172
 20
110.867173
 10
73.106934
 20
110.894591
  0
LWPOLYLINE
  5
98C
100
AcDbEntity
  8
ALPHA
100
AcDbPolyline
 90
        5
 70
     0
 43
0.0
 10
72.362654
 20
110.894591
 10
72.348413
 20
110.86717
 10
72.324429
 20
110.848221
 10
72.295686
 20
110.838705
 10
72.264794
 20
110.837803
  0
LINE
  5
993
100
AcDbEntity
  8
ALPHA
100
AcDbLine
 10
72.060865
 20
110.816374
 30
0.0
 11
72.234794
 21
110.840934
 31
0.0
  0
LINE
  5
994
100
AcDbEntity
  8
ALPHA
100
AcDbLine
 10
73.234794
 20
110.107719
 30
0.0
 11
73.234794
 21
110.144537
 31
0.0
  0
LINE
  5
995
100
AcDbEntity
  8
ALPHA
100
AcDbLine
 10
73.234794
 20
110.017394
 30
0.0
 11
73.234794
 21
110.107719
 31
0.0
  0
LINE
  5
996
100
AcDbEntity
  8
ALPHA
100
AcDbLine
 10
73.234794
 20
109.98785
 30
0.0
 11
73.234794
 21
110.017394
 31
0.0
  0
LINE
  5
997
100
AcDbEntity
  8
ALPHA
100
AcDbLine
 10
73.104794
 20
109.75335
 30
0.0
 11
73.104794
 21
110.010003
 31
0.0
  0
LINE
  5
998
100
AcDbEntity
  8
ALPHA
100
AcDbLine
 10
72.234794
 20
110.107719
 30
0.0
 11
72.234794
 21
110.144537
 31
0.0
  0
LINE
  5
999
100
AcDbEntity
  8
ALPHA
100
AcDbLine
 10
72.234794
 20
110.017394
 30
0.0
 11
72.234794
 21
110.107719
 31
0.0
  0
LINE
  5
99A
100
AcDbEntity
  8
ALPHA
100
AcDbLine
 10
72.234794
 20
110.017394
 30
0.0
 11
72.234794
 21
109.98785
 31
0.0
  0
LINE
  5
99B
100
AcDbEntity
  8
ALPHA
100
AcDbLine
 10
72.364794
 20
110.914855
 30
0.0
 11
72.364794
 21
112.609526
 31
0.0
  0
LINE
  5
99C
100
AcDbEntity
  8
ALPHA
100
AcDbLine
 10
72.364794
 20
109.75335
 30
0.0
 11
72.364794
 21
110.010003
 31
0.0
  0
LINE
  5
99D
100
AcDbEntity
  8
ALPHA
100
AcDbLine
 10
72.364794
 20
108.038414
 30
0.0
 11
72.364794
 21
109.733086
 31
0.0
  0
LINE
  5
99E
100
AcDbEntity
  8
ALPHA
100
AcDbLine
 10
73.104794
 20
111.191772
 30
0.0
 11
73.104794
 21
110.914855
 31
0.0
  0
LINE
  5
99F
100
AcDbEntity
  8
ALPHA
100
AcDbLine
 10
73.104794
 20
112.554436
 30
0.0
 11
73.104794
 21
111.191772
 31
0.0
  0
LINE
  5
9A0
100
AcDbEntity
  8
ALPHA
100
AcDbLine
 10
73.104794
 20
109.733086
 30
0.0
 11
73.104794
 21
108.038414
 31
0.0
  0
LINE
  5
9A1
100
AcDbEntity
  8
ALPHA
100
AcDbLine
 10
73.234794
 20
110.840934
 30
0.0
 11
73.204794
 21
110.837803
 31
0.0
  0
LWPOLYLINE
  5
9A2
100
AcDbEntity
  8
ALPHA
100
AcDbPolyline
 90
        4
 70
     0
 43
0.0
 10
70.077665
 20
110.972657
 10
70.096309
 20
110.936295
 10
70.114897
 20
110.900052
 10
70.133428
 20
110.863928
  0
LINE
  5
9A8
100
AcDbEntity
  8
ALPHA
100
AcDbLine
 10
72.264794
 20
110.837803
 30
0.0
 11
72.234794
 21
110.840934
 31
0.0
  0
LINE
  5
9A9
100
AcDbEntity
  8
ALPHA
100
AcDbLine
 10
70.434885
 20
109.077139
 30
0.0
 11
70.303767
 21
109.303089
 31
0.0
  0
LWPOLYLINE
  5
9AA
100
AcDbEntity
  8
ALPHA
100
AcDbPolyline
 90
        3
 70
     0
 43
0.0
 10
69.997031
 20
111.216518
 10
70.071836
 20
111.523369
 10
70.209833
 20
111.851462
  0
LWPOLYLINE
  5
9AF
100
AcDbEntity
  8
ALPHA
100
AcDbPolyline
 90
        3
 70
     0
 43
0.0
 10
69.958529
 20
110.968264
 10
69.969266
 20
111.102629
 10
69.997031
 20
111.216518
  0
LWPOLYLINE
  5
9B4
100
AcDbEntity
  8
ALPHA
100
AcDbPolyline
 90
        3
 70
     0
 43
0.0
 10
69.958114
 20
110.379459
 10
69.934794
 20
110.671267
 10
69.958529
 20
110.968264
  0
LWPOLYLINE
  5
9B9
100
AcDbEntity
  8
ALPHA
100
AcDbPolyline
 90
        5
 70
     0
 43
0.0
 10
70.303718
 20
109.303231
 10
70.239976
 20
109.419405
 10
70.071836
 20
109.819164
 10
69.969266
 20
110.239905
 10
69.958114
 20
110.379459
  0
LWPOLYLINE
  5
9C0
100
AcDbEntity
  8
ALPHA
100
AcDbPolyline
 90
       15
 70
     0
 43
0.0
 10
75.034632
 20
109.077018
 10
74.834848
 20
108.781376
 10
74.559393
 20
108.479972
 10
74.23998
 20
108.224257
 10
73.884095
 20
108.02029
 10
73.500497
 20
107.873148
 10
73.098427
 20
107.786373
 10
72.687561
 20
107.76206
 10
72.277873
 20
107.800797
 10
71.879329
 20
107.901601
 10
71.501439
 20
108.062028
 10
71.15336
 20
108.278154
 10
70.843499
 20
108.544681
 10
70.579149
 20
108.85528
 10
70.434952
 20
109.077024
  0
LWPOLYLINE
  5
9D1
100
AcDbEntity
  8
ALPHA
100
AcDbPolyline
 90
        3
 70
     0
 43
0.0
 10
73.106934
 20
110.894591
 10
73.105345
 20
110.904528
 10
73.104794
 20
110.914855
  0
LINE
  5
9D6
100
AcDbEntity
  8
ALPHA
100
AcDbLine
 10
73.408722
 20
110.816374
 30
0.0
 11
75.022955
 21
110.816374
 31
0.0
  0
LINE
  5
9D7
100
AcDbEntity
  8
ALPHA
100
AcDbLine
 10
70.438475
 20
110.816374
 30
0.0
 11
72.060865
 21
110.816374
 31
0.0
  0
LWPOLYLINE
  5
9D8
100
AcDbEntity
  8
ALPHA
100
AcDbPolyline
 90
        3
 70
     0
 43
0.0
 10
72.364794
 20
110.914855
 10
72.364242
 20
110.904528
 10
72.362654
 20
110.894591
  0
LWPOLYLINE
  5
9DD
100
AcDbEntity
  8
ALPHA
100
AcDbPolyline
 90
        7
 70
     0
 43
0.0
 10
70.133428
 20
110.863928
 10
70.148816
 20
110.851555
 10
70.182322
 20
110.839899
 10
70.23084
 20
110.830154
 10
70.291866
 20
110.822715
 10
70.363379
 20
110.817959
 10
70.438475
 20
110.816374
  0
LINE
  5
9E6
100
AcDbEntity
  8
ALPHA
100
AcDbLine
 10
72.364794
 20
112.609526
 30
0.0
 11
72.364794
 21
112.616169
 31
0.0
  0
LINE
  5
9E7
100
AcDbEntity
  8
ALPHA
100
AcDbLine
 10
73.104794
 20
108.038414
 30
0.0
 11
73.104794
 21
108.031797
 31
0.0
  0
LINE
  5
9E8
100
AcDbEntity
  8
ALPHA
100
AcDbLine
 10
72.364794
 20
108.031797
 30
0.0
 11
72.364794
 21
108.038414
 31
0.0
  0
LINE
  5
9E9
100
AcDbEntity
  8
ALPHA
100
AcDbLine
 10
72.234794
 20
110.107719
 30
0.0
 11
72.234794
 21
110.144537
 31
0.0
  0
LINE
  5
9EA
100
AcDbEntity
  8
ALPHA
100
AcDbLine
 10
72.234794
 20
110.017394
 30
0.0
 11
72.234794
 21
110.107719
 31
0.0
  0
LINE
  5
9EB
100
AcDbEntity
  8
ALPHA
100
AcDbLine
 10
72.364794
 20
109.75335
 30
0.0
 11
72.364794
 21
110.010003
 31
0.0
  0
LINE
  5
9EC
100
AcDbEntity
  8
ALPHA
100
AcDbLine
 10
65.055908
 20
91.7691
 30
0.0
 11
65.059794
 21
91.872408
 31
0.0
  0
LINE
  5
9ED
100
AcDbEntity
  8
ALPHA
100
AcDbLine
 10
64.979981
 20
92.489759
 30
0.0
 11
65.011528
 21
92.489759
 31
0.0
  0
LINE
  5
9EE
100
AcDbEntity
  8
ALPHA
100
AcDbLine
 10
59.50806
 20
92.489759
 30
0.0
 11
59.539607
 21
92.489759
 31
0.0
  0
LWPOLYLINE
  5
9EF
100
AcDbEntity
  8
ALPHA
100
AcDbPolyline
 90
        3
 70
     0
 43
0.0
 10
65.059794
 20
91.872408
 10
65.047833
 20
92.18446
 10
65.011528
 20
92.489759
  0
LWPOLYLINE
  5
9F4
100
AcDbEntity
  8
ALPHA
100
AcDbPolyline
 90
        3
 70
     0
 43
0.0
 10
59.50806
 20
92.489759
 10
59.485696
 20
92.328708
 10
59.470312
 20
92.165241
  0
LWPOLYLINE
  5
9F9
100
AcDbEntity
  8
ALPHA
100
AcDbPolyline
 90
        4
 70
     0
 43
0.0
 10
65.011528
 20
92.489759
 10
65.003618
 20
92.536668
 10
64.995076
 20
92.583735
 10
64.985901
 20
92.630953
  0
LWPOLYLINE
  5
9FF
100
AcDbEntity
  8
ALPHA
100
AcDbPolyline
 90
        3
 70
     0
 43
0.0
 10
64.587607
 20
93.486989
 10
64.434034
 20
93.696514
 10
64.265045
 20
93.866029
  0
LWPOLYLINE
  5
A04
100
AcDbEntity
  8
ALPHA
100
AcDbPolyline
 90
        4
 70
     0
 43
0.0
 10
64.985901
 20
92.630953
 10
64.859056
 20
93.011658
 10
64.673216
 20
93.370189
 10
64.587607
 20
93.486989
  0
LWPOLYLINE
  5
A0A
100
AcDbEntity
  8
ALPHA
100
AcDbPolyline
 90
        4
 70
     0
 43
0.0
 10
59.932011
 20
93.487154
 10
59.847385
 20
93.37182
 10
59.66127
 20
93.013402
 10
59.533686
 20
92.630953
  0
LWPOLYLINE
  5
A10
100
AcDbEntity
  8
ALPHA
100
AcDbPolyline
 90
        3
 70
     0
 43
0.0
 10
60.260581
 20
93.872169
 10
60.086064
 20
93.697111
 10
59.932011
 20
93.487154
  0
LWPOLYLINE
  5
A15
100
AcDbEntity
  8
ALPHA
100
AcDbPolyline
 90
        4
 70
     0
 43
0.0
 10
59.533686
 20
92.630953
 10
59.524511
 20
92.583735
 10
59.515969
 20
92.536668
 10
59.50806
 20
92.489759
  0
LINE
  5
A1B
100
AcDbEntity
  8
ALPHA
100
AcDbLine
 10
61.909794
 20
103.397885
 30
0.0
 11
61.909794
 21
103.247885
 31
0.0
  0
LINE
  5
A1C
100
AcDbEntity
  8
ALPHA
100
AcDbLine
 10
59.609794
 20
103.247885
 30
0.0
 11
59.609794
 21
103.397885
 31
0.0
  0
LINE
  5
A1D
100
AcDbEntity
  8
ALPHA
100
AcDbLine
 10
59.609794
 20
99.097885
 30
0.0
 11
59.609794
 21
99.247885
 31
0.0
  0
LINE
  5
A1E
100
AcDbEntity
  8
ALPHA
100
AcDbLine
 10
61.909794
 20
99.247885
 30
0.0
 11
61.909794
 21
99.097885
 31
0.0
  0
LWPOLYLINE
  5
A1F
100
AcDbEntity
  8
ALPHA
100
AcDbPolyline
 90
       16
 70
     0
 43
0.0
 10
69.967021
 20
111.218104
 10
69.964039
 20
111.197957
 10
69.961199
 20
111.177796
 10
69.958502
 20
111.157621
 10
69.955948
 20
111.137432
 10
69.953537
 20
111.117231
 10
69.946823
 20
111.05287
 10
69.941579
 20
110.988456
 10
69.937818
 20
110.924063
 10
69.935552
 20
110.859766
 10
69.934794
 20
110.795642
 10
69.934868
 20
110.77575
 10
69.935088
 20
110.755884
 10
69.935455
 20
110.736046
 10
69.935967
 20
110.716239
 10
69.936626
 20
110.696464
  0
LWPOLYLINE
  5
A31
100
AcDbEntity
  8
ALPHA
100
AcDbPolyline
 90
        6
 70
     0
 43
0.0
 10
69.969134
 20
111.231825
 10
69.968707
 20
111.229082
 10
69.968281
 20
111.226338
 10
69.967859
 20
111.223593
 10
69.967438
 20
111.220849
 10
69.967021
 20
111.218104
  0
LWPOLYLINE
  5
A39
100
AcDbEntity
  8
ALPHA
100
AcDbPolyline
 90
        6
 70
     0
 43
0.0
 10
69.983141
 20
111.313742
 10
69.980153
 20
111.297379
 10
69.977258
 20
111.281006
 10
69.974457
 20
111.264622
 10
69.971749
 20
111.248229
 10
69.969134
 20
111.231825
  0
LWPOLYLINE
  5
A41
100
AcDbEntity
  8
ALPHA
100
AcDbPolyline
 90
        3
 70
     0
 43
0.0
 10
69.98306
 20
111.312526
 10
69.960696
 20
111.140423
 10
69.945312
 20
110.96932
  0
LINE
  5
A46
100
AcDbEntity
  8
ALPHA
100
AcDbLine
 10
69.98306
 20
111.312526
 30
0.0
 11
70.020436
 21
111.312526
 31
0.0
  0
LINE
  5
A47
100
AcDbEntity
  8
ALPHA
100
AcDbLine
 10
69.98306
 20
110.053917
 30
0.0
 11
70.014607
 21
110.053917
 31
0.0
  0
LINE
  5
A48
100
AcDbEntity
  8
ALPHA
100
AcDbLine
 10
69.983676
 20
111.31662
 30
0.0
 11
69.98306
 21
111.312526
 31
0.0
  0
LWPOLYLINE
  5
A49
100
AcDbEntity
  8
ALPHA
100
AcDbPolyline
 90
        4
 70
     0
 43
0.0
 10
69.967864
 20
111.223629
 10
69.958253
 20
111.143761
 10
69.950866
 20
111.058987
 10
69.945312
 20
110.96932
  0
LWPOLYLINE
  5
A4F
100
AcDbEntity
  8
ALPHA
100
AcDbPolyline
 90
        4
 70
     0
 43
0.0
 10
69.98306
 20
110.053917
 10
69.990969
 20
110.007009
 10
69.999511
 20
109.959941
 10
70.008686
 20
109.912724
  0
LWPOLYLINE
  5
A55
100
AcDbEntity
  8
ALPHA
100
AcDbPolyline
 90
        3
 70
     0
 43
0.0
 10
70.407059
 20
109.05658
 10
70.560553
 20
108.847162
 10
70.734937
 20
108.672236
  0
LWPOLYLINE
  5
A5A
100
AcDbEntity
  8
ALPHA
100
AcDbPolyline
 90
        4
 70
     0
 43
0.0
 10
70.008686
 20
109.912724
 10
70.135531
 20
109.532018
 10
70.321372
 20
109.173487
 10
70.407059
 20
109.05658
  0
LWPOLYLINE
  5
A60
100
AcDbEntity
  8
ALPHA
100
AcDbPolyline
 90
        3
 70
     0
 43
0.0
 10
69.945312
 20
110.378436
 10
69.960696
 20
110.214971
 10
69.98306
 20
110.053917
  0
LINE
  5
A65
100
AcDbEntity
  8
ALPHA
100
AcDbLine
 10
70.08488
 20
111.711671
 30
0.0
 11
70.008686
 21
111.465009
 31
0.0
  0
LWPOLYLINE
  5
A66
100
AcDbEntity
  8
ALPHA
100
AcDbPolyline
 90
        4
 70
     0
 43
0.0
 10
70.008686
 20
111.465009
 10
69.999511
 20
111.414016
 10
69.990969
 20
111.363186
 10
69.983676
 20
111.31662
  0
LINE
  5
A6C
100
AcDbEntity
  8
ALPHA
100
AcDbLine
 10
69.967864
 20
111.223629
 30
0.0
 11
69.982981
 21
111.31254
 31
0.0
  0
LINE
  5
A6D
100
AcDbEntity
  8
ALPHA
100
AcDbLine
 10
63.42652
 20
111.937328
 30
0.0
 11
62.759794
 21
111.30529
 31
0.0
  0
LINE
  5
A6E
100
AcDbEntity
  8
ALPHA
100
AcDbLine
 10
61.093068
 20
111.937328
 30
0.0
 11
61.759794
 21
111.30529
 31
0.0
  0
LWPOLYLINE
  5
A6F
100
AcDbEntity
  8
ALPHA
100
AcDbPolyline
 90
        5
 70
     0
 43
0.0
 10
62.631934
 20
110.217706
 10
62.646174
 20
110.257777
 10
62.670162
 20
110.288917
 10
62.698905
 20
110.308621
 10
62.729794
 20
110.317352
  0
LINE
  5
A76
100
AcDbEntity
  8
ALPHA
100
AcDbLine
 10
63.42652
 20
109.639326
 30
0.0
 11
62.759794
 21
110.320483
 31
0.0
  0
LINE
  5
A77
100
AcDbEntity
  8
ALPHA
100
AcDbLine
 10
62.933722
 20
110.295923
 30
0.0
 11
62.759794
 21
110.320483
 31
0.0
  0
LWPOLYLINE
  5
A78
100
AcDbEntity
  8
ALPHA
100
AcDbPolyline
 90
        5
 70
     0
 43
0.0
 10
63.243807
 20
110.580231
 10
63.140427
 20
110.613692
 10
63.042174
 20
110.644949
 10
62.948743
 20
110.67401
 10
62.859794
 20
110.700865
  0
LINE
  5
A7F
100
AcDbEntity
  8
ALPHA
100
AcDbLine
 10
62.859794
 20
110.580231
 30
0.0
 11
62.859794
 21
110.700865
 31
0.0
  0
LINE
  5
A80
100
AcDbEntity
  8
ALPHA
100
AcDbLine
 10
62.859794
 20
110.580231
 30
0.0
 11
63.243807
 21
110.580231
 31
0.0
  0
LWPOLYLINE
  5
A81
100
AcDbEntity
  8
ALPHA
100
AcDbPolyline
 90
        9
 70
     0
 43
0.0
 10
62.629794
 20
108.502771
 10
62.972121
 20
108.582782
 10
63.298488
 20
108.712228
 10
63.60158
 20
108.888212
 10
63.874608
 20
109.106797
 10
64.111458
 20
109.363103
 10
64.306754
 20
109.651296
 10
64.456236
 20
109.96513
 10
64.556113
 20
110.295923
  0
LWPOLYLINE
  5
A8C
100
AcDbEntity
  8
ALPHA
100
AcDbPolyline
 90
        5
 70
     0
 43
0.0
 10
61.789794
 20
110.317352
 10
61.820687
 20
110.308619
 10
61.849435
 20
110.288908
 10
61.873416
 20
110.257772
 10
61.887654
 20
110.217706
  0
LINE
  5
A93
100
AcDbEntity
  8
ALPHA
100
AcDbLine
 10
61.759794
 20
110.320483
 30
0.0
 11
61.585865
 21
110.295923
 31
0.0
  0
LINE
  5
A94
100
AcDbEntity
  8
ALPHA
100
AcDbLine
 10
61.789794
 20
110.317352
 30
0.0
 11
61.789794
 21
110.579349
 31
0.0
  0
LWPOLYLINE
  5
A95
100
AcDbEntity
  8
ALPHA
100
AcDbPolyline
 90
        3
 70
     0
 43
0.0
 10
61.789794
 20
110.579349
 10
61.774828
 20
110.57575
 10
61.759794
 20
110.572075
  0
LINE
  5
A9A
100
AcDbEntity
  8
ALPHA
100
AcDbLine
 10
61.093068
 20
109.639326
 30
0.0
 11
61.759794
 21
110.320483
 31
0.0
  0
LINE
  5
A9B
100
AcDbEntity
  8
ALPHA
100
AcDbLine
 10
59.602665
 20
110.452206
 30
0.0
 11
61.759794
 21
110.452206
 31
0.0
  0
LWPOLYLINE
  5
A9C
100
AcDbEntity
  8
ALPHA
100
AcDbPolyline
 90
        4
 70
     0
 43
0.0
 10
59.658428
 20
110.343477
 10
59.639897
 20
110.3796
 10
59.62131
 20
110.415844
 10
59.602665
 20
110.452206
  0
LINE
  5
AA2
100
AcDbEntity
  8
ALPHA
100
AcDbLine
 10
61.759794
 20
110.320483
 30
0.0
 11
61.789794
 21
110.317352
 31
0.0
  0
LWPOLYLINE
  5
AA3
100
AcDbEntity
  8
ALPHA
100
AcDbPolyline
 90
        4
 70
     0
 43
0.0
 10
64.916922
 20
110.452206
 10
64.898278
 20
110.415844
 10
64.879691
 20
110.379601
 10
64.86116
 20
110.343477
  0
LINE
  5
AA9
100
AcDbEntity
  8
ALPHA
100
AcDbLine
 10
62.759794
 20
110.452206
 30
0.0
 11
64.916922
 21
110.452206
 31
0.0
  0
LWPOLYLINE
  5
AAA
100
AcDbEntity
  8
ALPHA
100
AcDbPolyline
 90
        3
 70
     0
 43
0.0
 10
62.759794
 20
110.572075
 10
62.744763
 20
110.575749
 10
62.729794
 20
110.579349
  0
LINE
  5
AAF
100
AcDbEntity
  8
ALPHA
100
AcDbLine
 10
62.729794
 20
110.317352
 30
0.0
 11
62.729794
 21
110.579349
 31
0.0
  0
LINE
  5
AB0
100
AcDbEntity
  8
ALPHA
100
AcDbLine
 10
62.729794
 20
110.317352
 30
0.0
 11
62.759794
 21
110.320483
 31
0.0
  0
LWPOLYLINE
  5
AB1
100
AcDbEntity
  8
ALPHA
100
AcDbPolyline
 90
        5
 70
     0
 43
0.0
 10
59.602665
 20
110.452206
 10
59.567737
 20
110.697113
 10
59.556031
 20
110.94461
 10
59.567737
 20
111.192107
 10
59.570365
 20
111.210539
  0
LINE
  5
AB8
100
AcDbEntity
  8
ALPHA
100
AcDbLine
 10
61.659794
 20
110.580231
 30
0.0
 11
61.659794
 21
110.700865
 31
0.0
  0
LWPOLYLINE
  5
AB9
100
AcDbEntity
  8
ALPHA
100
AcDbPolyline
 90
        5
 70
     0
 43
0.0
 10
61.659794
 20
110.700865
 10
61.570969
 20
110.674048
 10
61.477579
 20
110.645001
 10
61.379285
 20
110.613732
 10
61.27578
 20
110.580231
  0
LINE
  5
AC0
100
AcDbEntity
  8
ALPHA
100
AcDbLine
 10
61.27578
 20
110.580231
 30
0.0
 11
61.659794
 21
110.580231
 31
0.0
  0
LWPOLYLINE
  5
AC1
100
AcDbEntity
  8
ALPHA
100
AcDbPolyline
 90
        5
 70
     0
 43
0.0
 10
61.27578
 20
110.580231
 10
61.225469
 20
110.759436
 10
61.208517
 20
110.94461
 10
61.225469
 20
111.129784
 10
61.267847
 20
111.280731
  0
LWPOLYLINE
  5
AC8
100
AcDbEntity
  8
ALPHA
100
AcDbPolyline
 90
        3
 70
     0
 43
0.0
 10
60.122963
 20
111.736676
 10
60.063352
 20
111.611524
 10
59.963475
 20
111.280731
  0
LINE
  5
ACD
100
AcDbEntity
  8
ALPHA
100
AcDbLine
 10
60.148361
 20
111.789998
 30
0.0
 11
60.122963
 21
111.736676
 31
0.0
  0
LWPOLYLINE
  5
ACE
100
AcDbEntity
  8
ALPHA
100
AcDbPolyline
 90
        6
 70
     0
 43
0.0
 10
61.659794
 20
110.580231
 10
61.690696
 20
110.575411
 10
61.718572
 20
110.561423
 10
61.740696
 20
110.539636
 10
61.754899
 20
110.512183
 10
61.759794
 20
110.481751
  0
LWPOLYLINE
  5
AD6
100
AcDbEntity
  8
ALPHA
100
AcDbPolyline
 90
        5
 70
     0
 43
0.0
 10
64.95006
 20
111.204665
 10
64.951851
 20
111.192107
 10
64.963556
 20
110.94461
 10
64.951851
 20
110.697113
 10
64.916922
 20
110.452206
  0
LWPOLYLINE
  5
ADD
100
AcDbEntity
  8
ALPHA
100
AcDbPolyline
 90
        4
 70
     0
 43
0.0
 10
64.559703
 20
109.541496
 10
64.588598
 20
109.592612
 10
64.754183
 20
109.957728
 10
64.86116
 20
110.343477
  0
LWPOLYLINE
  5
AE3
100
AcDbEntity
  8
ALPHA
100
AcDbPolyline
 90
        6
 70
     0
 43
0.0
 10
62.759794
 20
110.481751
 10
62.764688
 20
110.512183
 10
62.778892
 20
110.539636
 10
62.801015
 20
110.561423
 10
62.828892
 20
110.575411
 10
62.859794
 20
110.580231
  0
LWPOLYLINE
  5
AEB
100
AcDbEntity
  8
ALPHA
100
AcDbPolyline
 90
        5
 70
     0
 43
0.0
 10
63.251741
 20
111.280731
 10
63.294118
 20
111.129784
 10
63.31107
 20
110.94461
 10
63.294118
 20
110.759436
 10
63.243807
 20
110.580231
  0
LWPOLYLINE
  5
AF2
100
AcDbEntity
  8
ALPHA
100
AcDbPolyline
 90
        4
 70
     0
 43
0.0
 10
62.259794
 20
111.979915
 10
62.385798
 20
111.972452
 10
62.509452
 20
111.950298
 10
62.629794
 20
111.913674
  0
LWPOLYLINE
  5
AF8
100
AcDbEntity
  8
ALPHA
100
AcDbPolyline
 90
        4
 70
     0
 43
0.0
 10
61.889794
 20
111.913674
 10
62.010136
 20
111.950298
 10
62.13379
 20
111.972452
 10
62.259794
 20
111.979915
  0
LINE
  5
AFE
100
AcDbEntity
  8
ALPHA
100
AcDbLine
 10
62.584575
 20
108.496115
 30
0.0
 11
61.935013
 21
108.496115
 31
0.0
  0
LWPOLYLINE
  5
AFF
100
AcDbEntity
  8
ALPHA
100
AcDbPolyline
 90
        4
 70
     0
 43
0.0
 10
62.629794
 20
109.975546
 10
62.509452
 20
109.938923
 10
62.385798
 20
109.916768
 10
62.259794
 20
109.909305
  0
LINE
  5
B05
100
AcDbEntity
  8
ALPHA
100
AcDbLine
 10
62.933722
 20
110.295923
 30
0.0
 11
64.556113
 21
110.295923
 31
0.0
  0
LWPOLYLINE
  5
B06
100
AcDbEntity
  8
ALPHA
100
AcDbPolyline
 90
        4
 70
     0
 43
0.0
 10
62.259794
 20
109.909305
 10
62.13379
 20
109.916768
 10
62.010136
 20
109.938923
 10
61.889794
 20
109.975546
  0
LINE
  5
B0C
100
AcDbEntity
  8
ALPHA
100
AcDbLine
 10
61.889794
 20
108.974995
 30
0.0
 11
62.629794
 21
108.974995
 31
0.0
  0
LINE
  5
B0D
100
AcDbEntity
  8
ALPHA
100
AcDbLine
 10
63.42652
 20
109.639326
 30
0.0
 11
62.933722
 21
110.295923
 31
0.0
  0
LINE
  5
B0E
100
AcDbEntity
  8
ALPHA
100
AcDbLine
 10
62.640177
 20
110.211706
 30
0.0
 11
62.631934
 21
110.217706
 31
0.0
  0
LINE
  5
B0F
100
AcDbEntity
  8
ALPHA
100
AcDbLine
 10
63.42652
 20
109.639326
 30
0.0
 11
62.640177
 21
110.211706
 31
0.0
  0
LWPOLYLINE
  5
B10
100
AcDbEntity
  8
ALPHA
100
AcDbPolyline
 90
        3
 70
     0
 43
0.0
 10
62.629794
 20
110.197442
 10
62.630345
 20
110.207769
 10
62.631934
 20
110.217706
  0
LWPOLYLINE
  5
B15
100
AcDbEntity
  8
ALPHA
100
AcDbPolyline
 90
        3
 70
     0
 43
0.0
 10
61.935013
 20
108.496115
 10
61.912467
 20
108.496124
 10
61.889794
 20
108.496154
  0
LINE
  5
B1A
100
AcDbEntity
  8
ALPHA
100
AcDbLine
 10
63.42652
 20
111.937328
 30
0.0
 11
62.631934
 21
111.358947
 31
0.0
  0
LINE
  5
B1B
100
AcDbEntity
  8
ALPHA
100
AcDbLine
 10
63.42652
 20
111.937328
 30
0.0
 11
62.933722
 21
111.280731
 31
0.0
  0
LWPOLYLINE
  5
B1C
100
AcDbEntity
  8
ALPHA
100
AcDbPolyline
 90
        9
 70
     0
 43
0.0
 10
59.963475
 20
110.295923
 10
60.063352
 20
109.96513
 10
60.212834
 20
109.651296
 10
60.408129
 20
109.363103
 10
60.64498
 20
109.106797
 10
60.918008
 20
108.888212
 10
61.221099
 20
108.712228
 10
61.547467
 20
108.582782
 10
61.889794
 20
108.502771
  0
LWPOLYLINE
  5
B27
100
AcDbEntity
  8
ALPHA
100
AcDbPolyline
 90
        3
 70
     0
 43
0.0
 10
61.887654
 20
110.217706
 10
61.889242
 20
110.207769
 10
61.889794
 20
110.197442
  0
LINE
  5
B2C
100
AcDbEntity
  8
ALPHA
100
AcDbLine
 10
61.879411
 20
110.211706
 30
0.0
 11
61.887654
 21
110.217706
 31
0.0
  0
LINE
  5
B2D
100
AcDbEntity
  8
ALPHA
100
AcDbLine
 10
61.093068
 20
109.639326
 30
0.0
 11
61.879411
 21
110.211706
 31
0.0
  0
LINE
  5
B2E
100
AcDbEntity
  8
ALPHA
100
AcDbLine
 10
61.093068
 20
109.639326
 30
0.0
 11
61.585865
 21
110.295923
 31
0.0
  0
LINE
  5
B2F
100
AcDbEntity
  8
ALPHA
100
AcDbLine
 10
59.963475
 20
110.295923
 30
0.0
 11
61.585865
 21
110.295923
 31
0.0
  0
LWPOLYLINE
  5
B30
100
AcDbEntity
  8
ALPHA
100
AcDbPolyline
 90
        7
 70
     0
 43
0.0
 10
59.963475
 20
110.295923
 10
59.888379
 20
110.297507
 10
59.816866
 20
110.302264
 10
59.75584
 20
110.309703
 10
59.707322
 20
110.319447
 10
59.673816
 20
110.331104
 10
59.658428
 20
110.343477
  0
LWPOLYLINE
  5
B39
100
AcDbEntity
  8
ALPHA
100
AcDbPolyline
 90
        4
 70
     0
 43
0.0
 10
59.959885
 20
109.541496
 10
59.93099
 20
109.592612
 10
59.765405
 20
109.957728
 10
59.658428
 20
110.343477
  0
LINE
  5
B3F
100
AcDbEntity
  8
ALPHA
100
AcDbLine
 10
61.093068
 20
111.937328
 30
0.0
 11
61.585865
 21
111.280731
 31
0.0
  0
LINE
  5
B40
100
AcDbEntity
  8
ALPHA
100
AcDbLine
 10
61.093068
 20
111.937328
 30
0.0
 11
61.887654
 21
111.358947
 31
0.0
  0
LWPOLYLINE
  5
B41
100
AcDbEntity
  8
ALPHA
100
AcDbPolyline
 90
        3
 70
     0
 43
0.0
 10
62.629794
 20
108.496154
 10
62.607122
 20
108.496124
 10
62.584575
 20
108.496115
  0
LWPOLYLINE
  5
B46
100
AcDbEntity
  8
ALPHA
100
AcDbPolyline
 90
       10
 70
     0
 43
0.0
 10
61.648386
 20
111.289559
 10
61.626091
 20
111.22681
 10
61.609794
 20
111.084368
 10
61.626091
 20
110.941927
 10
61.674164
 20
110.806629
 10
61.751603
 20
110.685257
 10
61.854525
 20
110.583899
 10
61.977769
 20
110.507636
 10
62.115155
 20
110.460293
 10
62.259794
 20
110.444243
  0
LWPOLYLINE
  5
B52
100
AcDbEntity
  8
ALPHA
100
AcDbPolyline
 90
        4
 70
     0
 43
0.0
 10
62.259794
 20
111.724494
 10
62.115155
 20
111.708444
 10
61.977769
 20
111.661101
 10
61.889794
 20
111.606662
  0
LWPOLYLINE
  5
B58
100
AcDbEntity
  8
ALPHA
100
AcDbPolyline
 90
       10
 70
     0
 43
0.0
 10
61.659794
 20
110.700865
 10
61.676396
 20
110.704142
 10
61.691434
 20
110.704133
 10
61.707999
 20
110.70036
 10
61.722335
 20
110.693056
 10
61.736072
 20
110.680924
 10
61.746462
 20
110.665994
 10
61.754206
 20
110.647595
 10
61.758227
 20
110.630016
 10
61.759794
 20
110.608893
  0
LWPOLYLINE
  5
B64
100
AcDbEntity
  8
ALPHA
100
AcDbPolyline
 90
       10
 70
     0
 43
0.0
 10
61.789794
 20
110.579349
 10
61.807208
 20
110.581562
 10
61.822444
 20
110.580152
 10
61.839511
 20
110.574277
 10
61.854447
 20
110.564346
 10
61.867893
 20
110.549682
 10
61.877443
 20
110.533451
 10
61.884654
 20
110.513854
 10
61.888398
 20
110.495411
 10
61.889794
 20
110.474359
  0
LWPOLYLINE
  5
B70
100
AcDbEntity
  8
ALPHA
100
AcDbPolyline
 90
       10
 70
     0
 43
0.0
 10
62.871201
 20
111.289559
 10
62.893497
 20
111.22681
 10
62.909794
 20
111.084368
 10
62.893497
 20
110.941927
 10
62.845424
 20
110.806629
 10
62.767984
 20
110.685257
 10
62.665062
 20
110.583899
 10
62.541818
 20
110.507636
 10
62.404432
 20
110.460293
 10
62.259794
 20
110.444243
  0
LWPOLYLINE
  5
B7C
100
AcDbEntity
  8
ALPHA
100
AcDbPolyline
 90
        4
 70
     0
 43
0.0
 10
62.259794
 20
111.724494
 10
62.404432
 20
111.708444
 10
62.541818
 20
111.661101
 10
62.629794
 20
111.606662
  0
LWPOLYLINE
  5
B82
100
AcDbEntity
  8
ALPHA
100
AcDbPolyline
 90
       10
 70
     0
 43
0.0
 10
62.629794
 20
110.474359
 10
62.631182
 20
110.495353
 10
62.634931
 20
110.513846
 10
62.642179
 20
110.533524
 10
62.651764
 20
110.549778
 10
62.665129
 20
110.564336
 10
62.679908
 20
110.574193
 10
62.696834
 20
110.580089
 10
62.712162
 20
110.581565
 10
62.729794
 20
110.579349
  0
LWPOLYLINE
  5
B8E
100
AcDbEntity
  8
ALPHA
100
AcDbPolyline
 90
       10
 70
     0
 43
0.0
 10
62.759794
 20
110.608893
 10
62.761322
 20
110.62976
 10
62.765274
 20
110.647248
 10
62.773029
 20
110.665817
 10
62.783505
 20
110.680912
 10
62.797339
 20
110.693114
 10
62.811652
 20
110.700383
 10
62.828147
 20
110.704133
 10
62.843144
 20
110.704146
 10
62.859794
 20
110.700865
  0
LWPOLYLINE
  5
B9A
100
AcDbEntity
  8
ALPHA
100
AcDbPolyline
 90
        3
 70
     0
 43
0.0
 10
61.935013
 20
108.496115
 10
62.259794
 20
108.473907
 10
62.584575
 20
108.496115
  0
LINE
  5
B9F
100
AcDbEntity
  8
ALPHA
100
AcDbLine
 10
64.396625
 20
111.736676
 30
0.0
 11
64.36977
 21
111.793056
 31
0.0
  0
LWPOLYLINE
  5
BA0
100
AcDbEntity
  8
ALPHA
100
AcDbPolyline
 90
        3
 70
     0
 43
0.0
 10
64.556113
 20
111.280731
 10
64.456236
 20
111.611524
 10
64.396625
 20
111.736676
  0
LWPOLYLINE
  5
BA5
100
AcDbEntity
  8
ALPHA
100
AcDbPolyline
 90
        7
 70
     0
 43
0.0
 10
64.86116
 20
110.343477
 10
64.845771
 20
110.331104
 10
64.812265
 20
110.319447
 10
64.763747
 20
110.309703
 10
64.702722
 20
110.302264
 10
64.631209
 20
110.297507
 10
64.556113
 20
110.295923
  0
LINE
  5
BAE
100
AcDbEntity
  8
ALPHA
100
AcDbLine
 10
62.759794
 20
111.30529
 30
0.0
 11
62.933722
 21
111.280731
 31
0.0
  0
LWPOLYLINE
  5
BAF
100
AcDbEntity
  8
ALPHA
100
AcDbPolyline
 90
        5
 70
     0
 43
0.0
 10
62.729794
 20
111.302159
 10
62.698901
 20
111.303062
 10
62.670153
 20
111.312581
 10
62.646172
 20
111.33153
 10
62.631934
 20
111.358947
  0
LWPOLYLINE
  5
BB6
100
AcDbEntity
  8
ALPHA
100
AcDbPolyline
 90
        5
 70
     0
 43
0.0
 10
61.887654
 20
111.358947
 10
61.873413
 20
111.331526
 10
61.849429
 20
111.312578
 10
61.820686
 20
111.303061
 10
61.789794
 20
111.302159
  0
LINE
  5
BBD
100
AcDbEntity
  8
ALPHA
100
AcDbLine
 10
61.585865
 20
111.280731
 30
0.0
 11
61.759794
 21
111.30529
 31
0.0
  0
LINE
  5
BBE
100
AcDbEntity
  8
ALPHA
100
AcDbLine
 10
62.759794
 20
110.572075
 30
0.0
 11
62.759794
 21
110.608893
 31
0.0
  0
LINE
  5
BBF
100
AcDbEntity
  8
ALPHA
100
AcDbLine
 10
62.759794
 20
110.481751
 30
0.0
 11
62.759794
 21
110.572075
 31
0.0
  0
LINE
  5
BC0
100
AcDbEntity
  8
ALPHA
100
AcDbLine
 10
62.759794
 20
110.452206
 30
0.0
 11
62.759794
 21
110.481751
 31
0.0
  0
LINE
  5
BC1
100
AcDbEntity
  8
ALPHA
100
AcDbLine
 10
62.629794
 20
110.217706
 30
0.0
 11
62.629794
 21
110.474359
 31
0.0
  0
LINE
  5
BC2
100
AcDbEntity
  8
ALPHA
100
AcDbLine
 10
61.759794
 20
110.572075
 30
0.0
 11
61.759794
 21
110.608893
 31
0.0
  0
LINE
  5
BC3
100
AcDbEntity
  8
ALPHA
100
AcDbLine
 10
61.759794
 20
110.481751
 30
0.0
 11
61.759794
 21
110.572075
 31
0.0
  0
LINE
  5
BC4
100
AcDbEntity
  8
ALPHA
100
AcDbLine
 10
61.759794
 20
110.481751
 30
0.0
 11
61.759794
 21
110.452206
 31
0.0
  0
LINE
  5
BC5
100
AcDbEntity
  8
ALPHA
100
AcDbLine
 10
61.889794
 20
111.379211
 30
0.0
 11
61.889794
 21
112.642756
 31
0.0
  0
LINE
  5
BC6
100
AcDbEntity
  8
ALPHA
100
AcDbLine
 10
61.889794
 20
110.217706
 30
0.0
 11
61.889794
 21
110.474359
 31
0.0
  0
LINE
  5
BC7
100
AcDbEntity
  8
ALPHA
100
AcDbLine
 10
61.889794
 20
108.502771
 30
0.0
 11
61.889794
 21
110.197442
 31
0.0
  0
LINE
  5
BC8
100
AcDbEntity
  8
ALPHA
100
AcDbLine
 10
62.629794
 20
111.656128
 30
0.0
 11
62.629794
 21
111.379211
 31
0.0
  0
LINE
  5
BC9
100
AcDbEntity
  8
ALPHA
100
AcDbLine
 10
62.629794
 20
112.65031
 30
0.0
 11
62.629794
 21
111.656128
 31
0.0
  0
LINE
  5
BCA
100
AcDbEntity
  8
ALPHA
100
AcDbLine
 10
62.629794
 20
110.197442
 30
0.0
 11
62.629794
 21
108.502771
 31
0.0
  0
LINE
  5
BCB
100
AcDbEntity
  8
ALPHA
100
AcDbLine
 10
62.759794
 20
111.30529
 30
0.0
 11
62.729794
 21
111.302159
 31
0.0
  0
LINE
  5
BCC
100
AcDbEntity
  8
ALPHA
100
AcDbLine
 10
61.789794
 20
111.302159
 30
0.0
 11
61.759794
 21
111.30529
 31
0.0
  0
LINE
  5
BCD
100
AcDbEntity
  8
ALPHA
100
AcDbLine
 10
59.959885
 20
109.541496
 30
0.0
 11
59.828767
 21
109.767445
 31
0.0
  0
LINE
  5
BCE
100
AcDbEntity
  8
ALPHA
100
AcDbLine
 10
59.486139
 20
110.805967
 30
0.0
 11
59.467689
 21
111.036826
 31
0.0
  0
LWPOLYLINE
  5
BCF
100
AcDbEntity
  8
ALPHA
100
AcDbPolyline
 90
        3
 70
     0
 43
0.0
 10
59.509017
 20
110.643755
 10
59.494266
 20
110.704261
 10
59.486139
 20
110.805967
  0
LINE
  5
BD4
100
AcDbEntity
  8
ALPHA
100
AcDbLine
 10
59.570075
 20
110.393292
 30
0.0
 11
59.509017
 21
110.643755
 31
0.0
  0
LWPOLYLINE
  5
BD5
100
AcDbEntity
  8
ALPHA
100
AcDbPolyline
 90
        3
 70
     0
 43
0.0
 10
59.612071
 20
110.247298
 10
59.596836
 20
110.283521
 10
59.570075
 20
110.393292
  0
LINE
  5
BDA
100
AcDbEntity
  8
ALPHA
100
AcDbLine
 10
59.72749
 20
109.972884
 30
0.0
 11
59.612071
 21
110.247298
 31
0.0
  0
LWPOLYLINE
  5
BDB
100
AcDbEntity
  8
ALPHA
100
AcDbPolyline
 90
        3
 70
     0
 43
0.0
 10
59.777238
 20
109.861413
 10
59.764976
 20
109.883762
 10
59.72749
 20
109.972884
  0
LINE
  5
BE0
100
AcDbEntity
  8
ALPHA
100
AcDbLine
 10
59.785841
 20
109.845734
 30
0.0
 11
59.777238
 21
109.861413
 31
0.0
  0
LINE
  5
BE1
100
AcDbEntity
  8
ALPHA
100
AcDbLine
 10
59.828718
 20
109.767587
 30
0.0
 11
59.785841
 21
109.845734
 31
0.0
  0
LWPOLYLINE
  5
BE2
100
AcDbEntity
  8
ALPHA
100
AcDbPolyline
 90
       15
 70
     0
 43
0.0
 10
64.559632
 20
109.541375
 10
64.359848
 20
109.245733
 10
64.084393
 20
108.944328
 10
63.76498
 20
108.688614
 10
63.409095
 20
108.484647
 10
63.025497
 20
108.337505
 10
62.623427
 20
108.25073
 10
62.212561
 20
108.226417
 10
61.802873
 20
108.265153
 10
61.404329
 20
108.365958
 10
61.026439
 20
108.526385
 10
60.67836
 20
108.742511
 10
60.368499
 20
109.009037
 10
60.104149
 20
109.319637
 10
59.959952
 20
109.541381
  0
LINE
  5
BF3
100
AcDbEntity
  8
ALPHA
100
AcDbLine
 10
64.559703
 20
109.541496
 30
0.0
 11
64.69082
 21
109.767445
 31
0.0
  0
LWPOLYLINE
  5
BF4
100
AcDbEntity
  8
ALPHA
100
AcDbPolyline
 90
        3
 70
     0
 43
0.0
 10
62.631934
 20
111.358947
 10
62.630345
 20
111.368884
 10
62.629794
 20
111.379211
  0
LINE
  5
BF9
100
AcDbEntity
  8
ALPHA
100
AcDbLine
 10
62.933722
 20
111.280731
 30
0.0
 11
64.556113
 21
111.280731
 31
0.0
  0
LINE
  5
BFA
100
AcDbEntity
  8
ALPHA
100
AcDbLine
 10
59.963475
 20
111.280731
 30
0.0
 11
61.585865
 21
111.280731
 31
0.0
  0
LWPOLYLINE
  5
BFB
100
AcDbEntity
  8
ALPHA
100
AcDbPolyline
 90
        3
 70
     0
 43
0.0
 10
61.889794
 20
111.379211
 10
61.889242
 20
111.368884
 10
61.887654
 20
111.358947
  0
LWPOLYLINE
  5
C00
100
AcDbEntity
  8
ALPHA
100
AcDbPolyline
 90
        7
 70
     0
 43
0.0
 10
64.556113
 20
111.280731
 10
64.631209
 20
111.282315
 10
64.702722
 20
111.287072
 10
64.763747
 20
111.294511
 10
64.812265
 20
111.304255
 10
64.845771
 20
111.315912
 10
64.860711
 20
111.327924
  0
LWPOLYLINE
  5
C09
100
AcDbEntity
  8
ALPHA
100
AcDbPolyline
 90
        7
 70
     0
 43
0.0
 10
59.661172
 20
111.326078
 10
59.673816
 20
111.315912
 10
59.707322
 20
111.304255
 10
59.75584
 20
111.294511
 10
59.816866
 20
111.287072
 10
59.888379
 20
111.282315
 10
59.963475
 20
111.280731
  0
LINE
  5
C12
100
AcDbEntity
  8
ALPHA
100
AcDbLine
 10
59.658428
 20
111.328285
 30
0.0
 11
59.661172
 21
111.326078
 31
0.0
  0
LINE
  5
C13
100
AcDbEntity
  8
ALPHA
100
AcDbLine
 10
65.033805
 20
110.810417
 30
0.0
 11
65.050341
 21
111.017338
 31
0.0
  0
LWPOLYLINE
  5
C14
100
AcDbEntity
  8
ALPHA
100
AcDbPolyline
 90
        3
 70
     0
 43
0.0
 10
65.020254
 20
110.683474
 10
65.025321
 20
110.704261
 10
65.033805
 20
110.810417
  0
LINE
  5
C19
100
AcDbEntity
  8
ALPHA
100
AcDbLine
 10
64.923473
 20
110.286476
 30
0.0
 11
65.020254
 21
110.683474
 31
0.0
  0
LWPOLYLINE
  5
C1A
100
AcDbEntity
  8
ALPHA
100
AcDbPolyline
 90
        3
 70
     0
 43
0.0
 10
64.908355
 20
110.24929
 10
64.922752
 20
110.283521
 10
64.923473
 20
110.286476
  0
LINE
  5
C1F
100
AcDbEntity
  8
ALPHA
100
AcDbLine
 10
64.765229
 20
109.909005
 30
0.0
 11
64.908355
 21
110.24929
 31
0.0
  0
LWPOLYLINE
  5
C20
100
AcDbEntity
  8
ALPHA
100
AcDbPolyline
 90
        3
 70
     0
 43
0.0
 10
64.69087
 20
109.767587
 10
64.754612
 20
109.883762
 10
64.765229
 20
109.909005
  0
LINE
  5
C25
100
AcDbEntity
  8
ALPHA
100
AcDbLine
 10
62.629794
 20
108.502771
 30
0.0
 11
62.629794
 21
108.496154
 31
0.0
  0
LINE
  5
C26
100
AcDbEntity
  8
ALPHA
100
AcDbLine
 10
61.889794
 20
108.496154
 30
0.0
 11
61.889794
 21
108.502771
 31
0.0
  0
LINE
  5
C27
100
AcDbEntity
  8
ALPHA
100
AcDbLine
 10
61.759794
 20
110.572075
 30
0.0
 11
61.759794
 21
110.608893
 31
0.0
  0
LINE
  5
C28
100
AcDbEntity
  8
ALPHA
100
AcDbLine
 10
61.759794
 20
110.481751
 30
0.0
 11
61.759794
 21
110.572075
 31
0.0
  0
LINE
  5
C29
100
AcDbEntity
  8
ALPHA
100
AcDbLine
 10
61.889794
 20
110.217706
 30
0.0
 11
61.889794
 21
110.474359
 31
0.0
  0
LINE
  5
C2A
100
AcDbEntity
  8
ALPHA
100
AcDbLine
 10
60.709794
 20
99.247885
 30
0.0
 11
60.709794
 21
103.247885
 31
0.0
  0
LINE
  5
C2B
100
AcDbEntity
  8
ALPHA
100
AcDbLine
 10
60.209794
 20
99.247885
 30
0.0
 11
60.209794
 21
103.247885
 31
0.0
  0
LINE
  5
C2C
100
AcDbEntity
  8
ALPHA
100
AcDbLine
 10
64.309794
 20
99.247885
 30
0.0
 11
64.309794
 21
103.247885
 31
0.0
  0
LINE
  5
C2D
100
AcDbEntity
  8
ALPHA
100
AcDbLine
 10
63.809794
 20
99.247885
 30
0.0
 11
63.809794
 21
103.247885
 31
0.0
  0
LINE
  5
C2E
100
AcDbEntity
  8
ALPHA
100
AcDbLine
 10
60.709794
 20
99.247885
 30
0.0
 11
63.809794
 21
99.247885
 31
0.0
  0
LINE
  5
C2F
100
AcDbEntity
  8
ALPHA
100
AcDbLine
 10
60.209794
 20
99.247885
 30
0.0
 11
60.709794
 21
99.247885
 31
0.0
  0
LINE
  5
C30
100
AcDbEntity
  8
ALPHA
100
AcDbLine
 10
63.809794
 20
99.247885
 30
0.0
 11
64.309794
 21
99.247885
 31
0.0
  0
LINE
  5
C31
100
AcDbEntity
  8
ALPHA
100
AcDbLine
 10
60.209794
 20
99.247885
 30
0.0
 11
58.509794
 21
99.247885
 31
0.0
  0
LINE
  5
C32
100
AcDbEntity
  8
ALPHA
100
AcDbLine
 10
66.009794
 20
99.247885
 30
0.0
 11
64.309794
 21
99.247885
 31
0.0
  0
LINE
  5
C33
100
AcDbEntity
  8
ALPHA
100
AcDbLine
 10
66.009794
 20
103.247885
 30
0.0
 11
64.309794
 21
103.247885
 31
0.0
  0
LINE
  5
C34
100
AcDbEntity
  8
ALPHA
100
AcDbLine
 10
63.809794
 20
103.247885
 30
0.0
 11
64.309794
 21
103.247885
 31
0.0
  0
LINE
  5
C35
100
AcDbEntity
  8
ALPHA
100
AcDbLine
 10
60.709794
 20
103.247885
 30
0.0
 11
63.809794
 21
103.247885
 31
0.0
  0
LINE
  5
C36
100
AcDbEntity
  8
ALPHA
100
AcDbLine
 10
60.209794
 20
103.247885
 30
0.0
 11
60.709794
 21
103.247885
 31
0.0
  0
LINE
  5
C37
100
AcDbEntity
  8
ALPHA
100
AcDbLine
 10
60.209794
 20
103.247885
 30
0.0
 11
58.509794
 21
103.247885
 31
0.0
  0
LINE
  5
C38
100
AcDbEntity
  8
ALPHA
100
AcDbLine
 10
58.509794
 20
99.247885
 30
0.0
 11
58.509794
 21
103.247885
 31
0.0
  0
LINE
  5
C39
100
AcDbEntity
  8
ALPHA
100
AcDbLine
 10
66.009794
 20
99.247885
 30
0.0
 11
66.009794
 21
103.247885
 31
0.0
  0
LWPOLYLINE
  5
C3A
100
AcDbEntity
  8
ALPHA
100
AcDbPolyline
 90
       10
 70
     0
 43
0.0
 10
72.729794
 20
91.816421
 10
72.71238
 20
91.814208
 10
72.697143
 20
91.815618
 10
72.680076
 20
91.821493
 10
72.665141
 20
91.831424
 10
72.651695
 20
91.846088
 10
72.642145
 20
91.86232
 10
72.634933
 20
91.881917
 10
72.63119
 20
91.900359
 10
72.629794
 20
91.921411
  0
LWPOLYLINE
  5
C46
100
AcDbEntity
  8
ALPHA
100
AcDbPolyline
 90
        5
 70
     0
 43
0.0
 10
72.629794
 20
90.482096
 10
72.447825
 20
90.43255
 10
72.259794
 20
90.415855
 10
72.071763
 20
90.43255
 10
71.889794
 20
90.482096
  0
LINE
  5
C4D
100
AcDbEntity
  8
ALPHA
100
AcDbLine
 10
73.42652
 20
90.458443
 30
0.0
 11
72.759794
 21
91.09048
 31
0.0
  0
LINE
  5
C4E
100
AcDbEntity
  8
ALPHA
100
AcDbLine
 10
71.093068
 20
90.458443
 30
0.0
 11
71.759794
 21
90.943754
 31
0.0
  0
LINE
  5
C4F
100
AcDbEntity
  8
ALPHA
100
AcDbLine
 10
71.093068
 20
92.756445
 30
0.0
 11
71.759794
 21
92.075288
 31
0.0
  0
LWPOLYLINE
  5
C50
100
AcDbEntity
  8
ALPHA
100
AcDbPolyline
 90
        6
 70
     0
 43
0.0
 10
72.729794
 20
91.943564
 10
72.698892
 20
91.948384
 10
72.671015
 20
91.962372
 10
72.648892
 20
91.984159
 10
72.634688
 20
92.011613
 10
72.629794
 20
92.042045
  0
LINE
  5
C58
100
AcDbEntity
  8
ALPHA
100
AcDbLine
 10
71.093068
 20
90.458443
 30
0.0
 11
71.680371
 21
91.240957
 31
0.0
  0
LINE
  5
C59
100
AcDbEntity
  8
ALPHA
100
AcDbLine
 10
71.093068
 20
90.458443
 30
0.0
 11
71.759794
 21
91.09048
 31
0.0
  0
LWPOLYLINE
  5
C5A
100
AcDbEntity
  8
ALPHA
100
AcDbPolyline
 90
        5
 70
     0
 43
0.0
 10
72.839217
 20
91.97393
 10
72.804951
 20
91.981629
 10
72.779519
 20
91.999158
 10
72.764684
 20
92.02237
 10
72.759794
 20
92.048875
  0
LINE
  5
C61
100
AcDbEntity
  8
ALPHA
100
AcDbLine
 10
73.42652
 20
92.756445
 30
0.0
 11
72.759794
 21
92.075288
 31
0.0
  0
LWPOLYLINE
  5
C62
100
AcDbEntity
  8
ALPHA
100
AcDbPolyline
 90
        5
 70
     0
 43
0.0
 10
74.908776
 20
91.55989
 10
74.877656
 20
91.95859
 10
74.785027
 20
92.347922
 10
74.633065
 20
92.718739
 10
74.559703
 20
92.854275
  0
LWPOLYLINE
  5
C69
100
AcDbEntity
  8
ALPHA
100
AcDbPolyline
 90
        5
 70
     0
 43
0.0
 10
71.889794
 20
92.420224
 10
72.071763
 20
92.469771
 10
72.259794
 20
92.486466
 10
72.447825
 20
92.469771
 10
72.629794
 20
92.420224
  0
LWPOLYLINE
  5
C70
100
AcDbEntity
  8
ALPHA
100
AcDbPolyline
 90
        3
 70
     0
 43
0.0
 10
69.932247
 20
91.243052
 10
69.932227
 20
91.265391
 10
69.932221
 20
91.287597
  0
LINE
  5
C75
100
AcDbEntity
  8
ALPHA
100
AcDbLine
 10
72.729794
 20
91.943564
 30
0.0
 11
72.729794
 21
91.816421
 31
0.0
  0
LWPOLYLINE
  5
C76
100
AcDbEntity
  8
ALPHA
100
AcDbPolyline
 90
        3
 70
     0
 43
0.0
 10
72.729794
 20
91.816421
 10
72.744759
 20
91.820021
 10
72.759794
 20
91.823695
  0
LWPOLYLINE
  5
C7B
100
AcDbEntity
  8
ALPHA
100
AcDbPolyline
 90
        4
 70
     0
 43
0.0
 10
71.208517
 20
91.45116
 10
71.216096
 20
91.57525
 10
71.238592
 20
91.697025
 10
71.27578
 20
91.815539
  0
LINE
  5
C81
100
AcDbEntity
  8
ALPHA
100
AcDbLine
 10
72.759794
 20
91.943564
 30
0.0
 11
72.729794
 21
91.943564
 31
0.0
  0
LINE
  5
C82
100
AcDbEntity
  8
ALPHA
100
AcDbLine
 10
72.859794
 20
91.971823
 30
0.0
 11
72.859794
 21
91.694906
 31
0.0
  0
LWPOLYLINE
  5
C83
100
AcDbEntity
  8
ALPHA
100
AcDbPolyline
 90
        3
 70
     0
 43
0.0
 10
71.231615
 20
91.243065
 10
71.216096
 20
91.327071
 10
71.208517
 20
91.45116
  0
LINE
  5
C88
100
AcDbEntity
  8
ALPHA
100
AcDbLine
 10
70.259794
 20
91.243065
 30
0.0
 11
70.259794
 21
91.815539
 31
0.0
  0
LWPOLYLINE
  5
C89
100
AcDbEntity
  8
ALPHA
100
AcDbPolyline
 90
        4
 70
     0
 43
0.0
 10
73.243807
 20
91.815539
 10
73.280996
 20
91.697025
 10
73.303492
 20
91.57525
 10
73.31107
 20
91.45116
  0
LWPOLYLINE
  5
C8F
100
AcDbEntity
  8
ALPHA
100
AcDbPolyline
 90
        3
 70
     0
 43
0.0
 10
73.31107
 20
91.45116
 10
73.303492
 20
91.327071
 10
73.287973
 20
91.243065
  0
LWPOLYLINE
  5
C94
100
AcDbEntity
  8
ALPHA
100
AcDbPolyline
 90
        3
 70
     0
 43
0.0
 10
69.932221
 20
91.92729
 10
69.90967
 20
91.607444
 10
69.932221
 20
91.287597
  0
LINE
  5
C99
100
AcDbEntity
  8
ALPHA
100
AcDbLine
 10
74.259794
 20
91.243065
 30
0.0
 11
74.259794
 21
91.815539
 31
0.0
  0
LWPOLYLINE
  5
C9A
100
AcDbEntity
  8
ALPHA
100
AcDbPolyline
 90
        3
 70
     0
 43
0.0
 10
69.932221
 20
91.92729
 10
69.932227
 20
91.949492
 10
69.932247
 20
91.97181
  0
LWPOLYLINE
  5
C9F
100
AcDbEntity
  8
ALPHA
100
AcDbPolyline
 90
        3
 70
     0
 43
0.0
 10
69.932247
 20
91.97181
 10
69.9356
 20
91.971819
 10
69.938979
 20
91.971823
  0
LWPOLYLINE
  5
CA4
100
AcDbEntity
  8
ALPHA
100
AcDbPolyline
 90
        5
 70
     0
 43
0.0
 10
69.959885
 20
92.854275
 10
69.886522
 20
92.718739
 10
69.734561
 20
92.347922
 10
69.641932
 20
91.95859
 10
69.610812
 20
91.55989
  0
LWPOLYLINE
  5
CAB
100
AcDbEntity
  8
ALPHA
100
AcDbPolyline
 90
        9
 70
     0
 43
0.0
 10
71.759794
 20
93.868876
 10
71.423898
 20
93.770517
 10
71.105223
 20
93.623306
 10
70.812584
 20
93.430977
 10
70.552324
 20
93.197725
 10
70.330367
 20
92.928845
 10
70.151668
 20
92.630358
 10
70.020225
 20
92.308949
 10
69.938979
 20
91.971823
  0
LWPOLYLINE
  5
CB6
100
AcDbEntity
  8
ALPHA
100
AcDbPolyline
 90
        3
 70
     0
 43
0.0
 10
74.587367
 20
91.287597
 10
74.587361
 20
91.265391
 10
74.58734
 20
91.243052
  0
LWPOLYLINE
  5
CBB
100
AcDbEntity
  8
ALPHA
100
AcDbPolyline
 90
        9
 70
     0
 43
0.0
 10
74.580608
 20
91.971823
 10
74.499363
 20
92.308949
 10
74.367919
 20
92.630358
 10
74.189221
 20
92.928845
 10
73.967264
 20
93.197725
 10
73.707004
 20
93.430977
 10
73.414365
 20
93.623306
 10
73.09569
 20
93.770517
 10
72.759794
 20
93.868876
  0
LWPOLYLINE
  5
CC6
100
AcDbEntity
  8
ALPHA
100
AcDbPolyline
 90
        6
 70
     0
 43
0.0
 10
71.889794
 20
92.042045
 10
71.884899
 20
92.011613
 10
71.870696
 20
91.984159
 10
71.848572
 20
91.962372
 10
71.820696
 20
91.948384
 10
71.789794
 20
91.943564
  0
LWPOLYLINE
  5
CCE
100
AcDbEntity
  8
ALPHA
100
AcDbPolyline
 90
       10
 70
     0
 43
0.0
 10
71.889794
 20
91.921411
 10
71.888406
 20
91.900418
 10
71.884656
 20
91.881924
 10
71.877408
 20
91.862246
 10
71.867824
 20
91.845993
 10
71.854459
 20
91.831435
 10
71.83968
 20
91.821577
 10
71.822753
 20
91.815682
 10
71.807425
 20
91.814206
 10
71.789794
 20
91.816421
  0
LINE
  5
CDA
100
AcDbEntity
  8
ALPHA
100
AcDbLine
 10
69.620813
 20
91.431757
 30
0.0
 11
69.610812
 21
91.55989
 31
0.0
  0
LWPOLYLINE
  5
CDB
100
AcDbEntity
  8
ALPHA
100
AcDbPolyline
 90
        5
 70
     0
 43
0.0
 10
71.759794
 20
92.048875
 10
71.754902
 20
92.022366
 10
71.740062
 20
91.999151
 10
71.714633
 20
91.981628
 10
71.680371
 20
91.97393
  0
LWPOLYLINE
  5
CE2
100
AcDbEntity
  8
ALPHA
100
AcDbPolyline
 90
       10
 70
     0
 43
0.0
 10
71.759794
 20
91.786877
 10
71.758266
 20
91.76601
 10
71.754313
 20
91.748522
 10
71.746559
 20
91.729953
 10
71.736083
 20
91.714859
 10
71.722248
 20
91.702656
 10
71.707935
 20
91.695387
 10
71.69144
 20
91.691638
 10
71.676443
 20
91.691624
 10
71.659794
 20
91.694906
  0
LWPOLYLINE
  5
CEE
100
AcDbEntity
  8
ALPHA
100
AcDbPolyline
 90
        3
 70
     0
 43
0.0
 10
74.580608
 20
91.971823
 10
74.583987
 20
91.971819
 10
74.58734
 20
91.97181
  0
LINE
  5
CF3
100
AcDbEntity
  8
ALPHA
100
AcDbLine
 10
74.587367
 20
91.92729
 30
0.0
 11
74.587367
 21
91.287597
 31
0.0
  0
LINE
  5
CF4
100
AcDbEntity
  8
ALPHA
100
AcDbLine
 10
71.659794
 20
91.971823
 30
0.0
 11
71.659794
 21
91.694906
 31
0.0
  0
LINE
  5
CF5
100
AcDbEntity
  8
ALPHA
100
AcDbLine
 10
69.938979
 20
91.971823
 30
0.0
 11
71.659794
 21
91.971823
 31
0.0
  0
LINE
  5
CF6
100
AcDbEntity
  8
ALPHA
100
AcDbLine
 10
69.932247
 20
91.97181
 30
0.0
 11
70.259794
 21
91.815539
 31
0.0
  0
LINE
  5
CF7
100
AcDbEntity
  8
ALPHA
100
AcDbLine
 10
70.259794
 20
91.815539
 30
0.0
 11
71.27578
 21
91.815539
 31
0.0
  0
LWPOLYLINE
  5
CF8
100
AcDbEntity
  8
ALPHA
100
AcDbPolyline
 90
        5
 70
     0
 43
0.0
 10
71.27578
 20
91.815539
 10
71.379161
 20
91.782079
 10
71.477413
 20
91.750822
 10
71.570844
 20
91.721761
 10
71.659794
 20
91.694906
  0
LINE
  5
CFF
100
AcDbEntity
  8
ALPHA
100
AcDbLine
 10
74.259794
 20
91.815539
 30
0.0
 11
74.58734
 21
91.97181
 31
0.0
  0
LINE
  5
D00
100
AcDbEntity
  8
ALPHA
100
AcDbLine
 10
72.859794
 20
91.971823
 30
0.0
 11
74.580608
 21
91.971823
 31
0.0
  0
LWPOLYLINE
  5
D01
100
AcDbEntity
  8
ALPHA
100
AcDbPolyline
 90
        5
 70
     0
 43
0.0
 10
72.859794
 20
91.694906
 10
72.948618
 20
91.721722
 10
73.042009
 20
91.75077
 10
73.140303
 20
91.782039
 10
73.243808
 20
91.815539
  0
LINE
  5
D08
100
AcDbEntity
  8
ALPHA
100
AcDbLine
 10
73.243808
 20
91.815539
 30
0.0
 11
74.259794
 21
91.815539
 31
0.0
  0
LINE
  5
D09
100
AcDbEntity
  8
ALPHA
100
AcDbLine
 10
69.932221
 20
91.92729
 30
0.0
 11
69.932221
 21
91.287597
 31
0.0
  0
LWPOLYLINE
  5
D0A
100
AcDbEntity
  8
ALPHA
100
AcDbPolyline
 90
        3
 70
     0
 43
0.0
 10
69.938979
 20
91.243065
 10
70.020225
 20
90.905939
 10
70.057546
 20
90.814679
  0
LINE
  5
D0F
100
AcDbEntity
  8
ALPHA
100
AcDbLine
 10
73.42652
 20
92.756445
 30
0.0
 11
72.759794
 21
92.271134
 31
0.0
  0
LINE
  5
D10
100
AcDbEntity
  8
ALPHA
100
AcDbLine
 10
73.42652
 20
92.756445
 30
0.0
 11
72.839217
 21
91.97393
 31
0.0
  0
LWPOLYLINE
  5
D11
100
AcDbEntity
  8
ALPHA
100
AcDbPolyline
 90
        3
 70
     0
 43
0.0
 10
72.859794
 20
91.971823
 10
72.849307
 20
91.972366
 10
72.839217
 20
91.97393
  0
LWPOLYLINE
  5
D16
100
AcDbEntity
  8
ALPHA
100
AcDbPolyline
 90
        3
 70
     0
 43
0.0
 10
71.680371
 20
91.97393
 10
71.67028
 20
91.972366
 10
71.659794
 20
91.971823
  0
LINE
  5
D1B
100
AcDbEntity
  8
ALPHA
100
AcDbLine
 10
71.093068
 20
92.756445
 30
0.0
 11
71.680371
 21
91.97393
 31
0.0
  0
LINE
  5
D1C
100
AcDbEntity
  8
ALPHA
100
AcDbLine
 10
71.093068
 20
92.756445
 30
0.0
 11
71.759794
 21
92.271134
 31
0.0
  0
LWPOLYLINE
  5
D1D
100
AcDbEntity
  8
ALPHA
100
AcDbPolyline
 90
        3
 70
     0
 43
0.0
 10
71.759794
 20
91.823695
 10
71.774824
 20
91.820022
 10
71.789794
 20
91.816421
  0
LINE
  5
D22
100
AcDbEntity
  8
ALPHA
100
AcDbLine
 10
71.789794
 20
91.943564
 30
0.0
 11
71.789794
 21
91.816421
 31
0.0
  0
LINE
  5
D23
100
AcDbEntity
  8
ALPHA
100
AcDbLine
 10
71.789794
 20
91.943564
 30
0.0
 11
71.759794
 21
91.943564
 31
0.0
  0
LWPOLYLINE
  5
D24
100
AcDbEntity
  8
ALPHA
100
AcDbPolyline
 90
        3
 70
     0
 43
0.0
 10
74.58734
 20
91.97181
 10
74.587361
 20
91.949492
 10
74.587367
 20
91.92729
  0
LWPOLYLINE
  5
D29
100
AcDbEntity
  8
ALPHA
100
AcDbPolyline
 90
        3
 70
     0
 43
0.0
 10
74.448938
 20
90.782638
 10
74.499363
 20
90.905939
 10
74.580608
 20
91.243065
  0
LINE
  5
D2E
100
AcDbEntity
  8
ALPHA
100
AcDbLine
 10
73.42652
 20
90.458443
 30
0.0
 11
72.839217
 21
91.240957
 31
0.0
  0
LINE
  5
D2F
100
AcDbEntity
  8
ALPHA
100
AcDbLine
 10
72.901975
 20
91.243065
 30
0.0
 11
72.909794
 21
91.311402
 31
0.0
  0
LWPOLYLINE
  5
D30
100
AcDbEntity
  8
ALPHA
100
AcDbPolyline
 90
        7
 70
     0
 43
0.0
 10
71.889794
 20
90.789108
 10
71.977769
 20
90.734669
 10
72.115155
 20
90.687326
 10
72.259794
 20
90.671277
 10
72.404432
 20
90.687326
 10
72.541818
 20
90.734669
 10
72.629794
 20
90.789108
  0
LINE
  5
D39
100
AcDbEntity
  8
ALPHA
100
AcDbLine
 10
71.609794
 20
91.311402
 30
0.0
 11
71.617612
 21
91.243065
 31
0.0
  0
LINE
  5
D3A
100
AcDbEntity
  8
ALPHA
100
AcDbLine
 10
73.42652
 20
90.458443
 30
0.0
 11
72.759794
 21
90.943754
 31
0.0
  0
LWPOLYLINE
  5
D3B
100
AcDbEntity
  8
ALPHA
100
AcDbPolyline
 90
        3
 70
     0
 43
0.0
 10
74.587367
 20
91.287597
 10
74.609917
 20
91.607444
 10
74.587367
 20
91.92729
  0
LINE
  5
D40
100
AcDbEntity
  8
ALPHA
100
AcDbLine
 10
74.908776
 20
91.55989
 30
0.0
 11
74.89733
 21
91.413259
 31
0.0
  0
LWPOLYLINE
  5
D41
100
AcDbEntity
  8
ALPHA
100
AcDbPolyline
 90
       15
 70
     0
 43
0.0
 10
71.609794
 20
91.311402
 10
71.626091
 20
91.453843
 10
71.674164
 20
91.589142
 10
71.751603
 20
91.710513
 10
71.854525
 20
91.811872
 10
71.977769
 20
91.888135
 10
72.115155
 20
91.935478
 10
72.259794
 20
91.951527
 10
72.404432
 20
91.935478
 10
72.541818
 20
91.888135
 10
72.665062
 20
91.811872
 10
72.767984
 20
91.710513
 10
72.845424
 20
91.589142
 10
72.893497
 20
91.453843
 10
72.909794
 20
91.311402
  0
LWPOLYLINE
  5
D52
100
AcDbEntity
  8
ALPHA
100
AcDbPolyline
 90
       10
 70
     0
 43
0.0
 10
72.859794
 20
91.694906
 10
72.843191
 20
91.691629
 10
72.828154
 20
91.691637
 10
72.811589
 20
91.69541
 10
72.797253
 20
91.702714
 10
72.783515
 20
91.714847
 10
72.773125
 20
91.729776
 10
72.765382
 20
91.748176
 10
72.76136
 20
91.765755
 10
72.759794
 20
91.786877
  0
LWPOLYLINE
  5
D5E
100
AcDbEntity
  8
ALPHA
100
AcDbPolyline
 90
        6
 70
     0
 43
0.0
 10
71.789794
 20
90.958757
 10
71.820696
 20
90.953937
 10
71.848572
 20
90.939948
 10
71.870696
 20
90.918161
 10
71.884899
 20
90.890708
 10
71.889794
 20
90.860276
  0
LINE
  5
D66
100
AcDbEntity
  8
ALPHA
100
AcDbLine
 10
72.759794
 20
91.09048
 30
0.0
 11
72.759794
 21
90.943754
 31
0.0
  0
LWPOLYLINE
  5
D67
100
AcDbEntity
  8
ALPHA
100
AcDbPolyline
 90
        5
 70
     0
 43
0.0
 10
71.759794
 20
94.067921
 10
72.008479
 20
94.102319
 10
72.259794
 20
94.113847
 10
72.511109
 20
94.102319
 10
72.759794
 20
94.067921
  0
LINE
  5
D6E
100
AcDbEntity
  8
ALPHA
100
AcDbLine
 10
71.759794
 20
92.075288
 30
0.0
 11
71.759794
 21
92.271134
 31
0.0
  0
LWPOLYLINE
  5
D6F
100
AcDbEntity
  8
ALPHA
100
AcDbPolyline
 90
        5
 70
     0
 43
0.0
 10
71.680371
 20
91.240957
 10
71.714637
 20
91.220608
 10
71.740066
 20
91.190895
 10
71.754902
 20
91.157494
 10
71.759794
 20
91.123155
  0
LINE
  5
D76
100
AcDbEntity
  8
ALPHA
100
AcDbLine
 10
71.759794
 20
90.943754
 30
0.0
 11
71.759794
 21
91.09048
 31
0.0
  0
LINE
  5
D77
100
AcDbEntity
  8
ALPHA
100
AcDbLine
 10
72.759794
 20
92.271134
 30
0.0
 11
72.759794
 21
92.075288
 31
0.0
  0
LINE
  5
D78
100
AcDbEntity
  8
ALPHA
100
AcDbLine
 10
72.629794
 20
92.042045
 30
0.0
 11
72.629794
 21
91.921411
 31
0.0
  0
LINE
  5
D79
100
AcDbEntity
  8
ALPHA
100
AcDbLine
 10
72.629794
 20
92.042045
 30
0.0
 11
72.629794
 21
92.420224
 31
0.0
  0
LINE
  5
D7A
100
AcDbEntity
  8
ALPHA
100
AcDbLine
 10
72.759794
 20
91.09048
 30
0.0
 11
72.759794
 21
91.123155
 31
0.0
  0
LINE
  5
D7B
100
AcDbEntity
  8
ALPHA
100
AcDbLine
 10
72.759794
 20
91.823695
 30
0.0
 11
72.759794
 21
91.786877
 31
0.0
  0
LINE
  5
D7C
100
AcDbEntity
  8
ALPHA
100
AcDbLine
 10
72.759794
 20
91.943564
 30
0.0
 11
72.759794
 21
91.823695
 31
0.0
  0
LINE
  5
D7D
100
AcDbEntity
  8
ALPHA
100
AcDbLine
 10
72.759794
 20
92.048875
 30
0.0
 11
72.759794
 21
91.943564
 31
0.0
  0
LINE
  5
D7E
100
AcDbEntity
  8
ALPHA
100
AcDbLine
 10
72.759794
 20
92.048875
 30
0.0
 11
72.759794
 21
92.075288
 31
0.0
  0
LINE
  5
D7F
100
AcDbEntity
  8
ALPHA
100
AcDbLine
 10
72.729794
 20
90.958757
 30
0.0
 11
72.759794
 21
90.958757
 31
0.0
  0
LINE
  5
D80
100
AcDbEntity
  8
ALPHA
100
AcDbLine
 10
72.629794
 20
90.739642
 30
0.0
 11
72.629794
 21
90.860276
 31
0.0
  0
LINE
  5
D81
100
AcDbEntity
  8
ALPHA
100
AcDbLine
 10
72.629794
 20
90.482096
 30
0.0
 11
72.629794
 21
90.739642
 31
0.0
  0
LINE
  5
D82
100
AcDbEntity
  8
ALPHA
100
AcDbLine
 10
71.889794
 20
90.860276
 30
0.0
 11
71.889794
 21
90.482096
 31
0.0
  0
LINE
  5
D83
100
AcDbEntity
  8
ALPHA
100
AcDbLine
 10
71.759794
 20
90.958757
 30
0.0
 11
71.789794
 21
90.958757
 31
0.0
  0
LINE
  5
D84
100
AcDbEntity
  8
ALPHA
100
AcDbLine
 10
71.659794
 20
91.243065
 30
0.0
 11
69.938979
 21
91.243065
 31
0.0
  0
LWPOLYLINE
  5
D85
100
AcDbEntity
  8
ALPHA
100
AcDbPolyline
 90
        7
 70
     0
 43
0.0
 10
72.759794
 20
94.122816
 10
73.156211
 20
94.015664
 10
73.531526
 20
93.84908
 10
73.876037
 20
93.627281
 10
74.181498
 20
93.35566
 10
74.440687
 20
93.040686
 10
74.559673
 20
92.854326
  0
LINE
  5
D8E
100
AcDbEntity
  8
ALPHA
100
AcDbLine
 10
74.580608
 20
91.243065
 30
0.0
 11
72.859794
 21
91.243065
 31
0.0
  0
LINE
  5
D8F
100
AcDbEntity
  8
ALPHA
100
AcDbLine
 10
71.759794
 20
91.823695
 30
0.0
 11
71.759794
 21
91.786877
 31
0.0
  0
LINE
  5
D90
100
AcDbEntity
  8
ALPHA
100
AcDbLine
 10
71.759794
 20
91.943564
 30
0.0
 11
71.759794
 21
91.823695
 31
0.0
  0
LINE
  5
D91
100
AcDbEntity
  8
ALPHA
100
AcDbLine
 10
71.759794
 20
92.048875
 30
0.0
 11
71.759794
 21
91.943564
 31
0.0
  0
LINE
  5
D92
100
AcDbEntity
  8
ALPHA
100
AcDbLine
 10
72.759794
 20
94.122872
 30
0.0
 11
72.759794
 21
93.868876
 31
0.0
  0
LWPOLYLINE
  5
D93
100
AcDbEntity
  8
ALPHA
100
AcDbPolyline
 90
        7
 70
     0
 43
0.0
 10
69.959914
 20
92.854325
 10
70.078349
 20
93.039897
 10
70.337604
 20
93.355156
 10
70.643202
 20
93.627016
 10
70.987876
 20
93.84898
 10
71.363326
 20
94.015646
 10
71.759794
 20
94.122816
  0
LINE
  5
D9C
100
AcDbEntity
  8
ALPHA
100
AcDbLine
 10
71.759794
 20
92.075288
 30
0.0
 11
71.759794
 21
92.048875
 31
0.0
  0
LINE
  5
D9D
100
AcDbEntity
  8
ALPHA
100
AcDbLine
 10
71.759794
 20
91.123155
 30
0.0
 11
71.759794
 21
91.09048
 31
0.0
  0
LINE
  5
D9E
100
AcDbEntity
  8
ALPHA
100
AcDbLine
 10
71.889794
 20
92.042045
 30
0.0
 11
71.889794
 21
91.921411
 31
0.0
  0
LINE
  5
D9F
100
AcDbEntity
  8
ALPHA
100
AcDbLine
 10
71.889794
 20
92.420224
 30
0.0
 11
71.889794
 21
92.042045
 31
0.0
  0
LWPOLYLINE
  5
DA0
100
AcDbEntity
  8
ALPHA
100
AcDbPolyline
 90
        3
 70
     0
 43
0.0
 10
74.77441
 20
92.464939
 10
74.754612
 20
92.512009
 10
74.69087
 20
92.628183
  0
LINE
  5
DA5
100
AcDbEntity
  8
ALPHA
100
AcDbLine
 10
74.879502
 20
92.215078
 30
0.0
 11
74.77441
 21
92.464939
 31
0.0
  0
LWPOLYLINE
  5
DA6
100
AcDbEntity
  8
ALPHA
100
AcDbPolyline
 90
        3
 70
     0
 43
0.0
 10
74.92925
 20
92.085593
 10
74.922752
 20
92.11225
 10
74.879502
 20
92.215078
  0
LINE
  5
DAB
100
AcDbEntity
  8
ALPHA
100
AcDbLine
 10
75.01633
 20
91.728393
 30
0.0
 11
74.92925
 21
92.085593
 31
0.0
  0
LWPOLYLINE
  5
DAC
100
AcDbEntity
  8
ALPHA
100
AcDbPolyline
 90
        3
 70
     0
 43
0.0
 10
75.025571
 20
91.688387
 10
75.025321
 20
91.691509
 10
75.01633
 20
91.728393
  0
LINE
  5
DB1
100
AcDbEntity
  8
ALPHA
100
AcDbLine
 10
75.025773
 20
91.685853
 30
0.0
 11
75.025571
 21
91.688387
 31
0.0
  0
LINE
  5
DB2
100
AcDbEntity
  8
ALPHA
100
AcDbLine
 10
74.559703
 20
92.854275
 30
0.0
 11
74.69082
 21
92.628325
 31
0.0
  0
LINE
  5
DB3
100
AcDbEntity
  8
ALPHA
100
AcDbLine
 10
69.959885
 20
92.854275
 30
0.0
 11
69.828767
 21
92.628325
 31
0.0
  0
LINE
  5
DB4
100
AcDbEntity
  8
ALPHA
100
AcDbLine
 10
69.503129
 20
91.727862
 30
0.0
 11
69.497824
 21
91.706104
 31
0.0
  0
LINE
  5
DB5
100
AcDbEntity
  8
ALPHA
100
AcDbLine
 10
69.590349
 20
92.085643
 30
0.0
 11
69.503129
 21
91.727862
 31
0.0
  0
LWPOLYLINE
  5
DB6
100
AcDbEntity
  8
ALPHA
100
AcDbPolyline
 90
        3
 70
     0
 43
0.0
 10
69.640071
 20
92.215043
 10
69.596836
 20
92.11225
 10
69.590349
 20
92.085643
  0
LINE
  5
DBB
100
AcDbEntity
  8
ALPHA
100
AcDbLine
 10
69.745195
 20
92.46498
 30
0.0
 11
69.640071
 21
92.215043
 31
0.0
  0
LWPOLYLINE
  5
DBC
100
AcDbEntity
  8
ALPHA
100
AcDbPolyline
 90
        3
 70
     0
 43
0.0
 10
69.828718
 20
92.628183
 10
69.764976
 20
92.512009
 10
69.745195
 20
92.46498
  0
LINE
  5
DC1
100
AcDbEntity
  8
ALPHA
100
AcDbLine
 10
71.889794
 20
92.042045
 30
0.0
 11
71.889794
 21
91.921411
 31
0.0
  0
LINE
  5
DC2
100
AcDbEntity
  8
ALPHA
100
AcDbLine
 10
71.759794
 20
91.823695
 30
0.0
 11
71.759794
 21
91.786877
 31
0.0
  0
LINE
  5
DC3
100
AcDbEntity
  8
ALPHA
100
AcDbLine
 10
71.759794
 20
91.943564
 30
0.0
 11
71.759794
 21
91.823695
 31
0.0
  0
LINE
  5
DC4
100
AcDbEntity
  8
ALPHA
100
AcDbLine
 10
71.759794
 20
92.048875
 30
0.0
 11
71.759794
 21
91.943564
 31
0.0
  0
LINE
  5
DC5
100
AcDbEntity
  8
ALPHA
100
AcDbLine
 10
72.759794
 20
92.271134
 30
0.0
 11
72.759794
 21
93.868876
 31
0.0
  0
LINE
  5
DC6
100
AcDbEntity
  8
ALPHA
100
AcDbLine
 10
71.759794
 20
92.271134
 30
0.0
 11
71.759794
 21
93.868876
 31
0.0
  0
LWPOLYLINE
  5
DC7
100
AcDbEntity
  8
ALPHA
100
AcDbPolyline
 90
        3
 70
     0
 43
0.0
 10
72.839217
 20
91.240957
 10
72.849307
 20
91.242522
 10
72.859794
 20
91.243065
  0
LINE
  5
DCC
100
AcDbEntity
  8
ALPHA
100
AcDbLine
 10
72.759794
 20
89.860162
 30
0.0
 11
72.759794
 21
90.943754
 31
0.0
  0
LINE
  5
DCD
100
AcDbEntity
  8
ALPHA
100
AcDbLine
 10
71.759794
 20
89.864534
 30
0.0
 11
71.759794
 21
90.943754
 31
0.0
  0
LWPOLYLINE
  5
DCE
100
AcDbEntity
  8
ALPHA
100
AcDbPolyline
 90
        3
 70
     0
 43
0.0
 10
71.659794
 20
91.243065
 10
71.67028
 20
91.242522
 10
71.680371
 20
91.240957
  0
LINE
  5
DD3
100
AcDbEntity
  8
ALPHA
100
AcDbLine
 10
71.759794
 20
93.868876
 30
0.0
 11
71.759794
 21
94.122872
 31
0.0
  0
LWPOLYLINE
  5
DD4
100
AcDbEntity
  8
ALPHA
100
AcDbPolyline
 90
        6
 70
     0
 43
0.0
 10
72.629794
 20
90.860276
 10
72.634688
 20
90.890708
 10
72.648892
 20
90.918161
 10
72.671015
 20
90.939948
 10
72.698892
 20
90.953937
 10
72.729794
 20
90.958757
  0
LWPOLYLINE
  5
DDC
100
AcDbEntity
  8
ALPHA
100
AcDbPolyline
 90
        3
 70
     0
 43
0.0
 10
69.938979
 20
91.243065
 10
69.9356
 20
91.243062
 10
69.932247
 20
91.243052
  0
LWPOLYLINE
  5
DE1
100
AcDbEntity
  8
ALPHA
100
AcDbPolyline
 90
        3
 70
     0
 43
0.0
 10
74.58734
 20
91.243052
 10
74.583987
 20
91.243062
 10
74.580608
 20
91.243065
  0
LWPOLYLINE
  5
DE6
100
AcDbEntity
  8
ALPHA
100
AcDbPolyline
 90
        5
 70
     0
 43
0.0
 10
72.759794
 20
91.123155
 10
72.764685
 20
91.157494
 10
72.779526
 20
91.190901
 10
72.804955
 20
91.220612
 10
72.839217
 20
91.240957
  0
LINE
  5
DED
100
AcDbEntity
  8
ALPHA
100
AcDbLine
 10
65.033805
 20
110.810417
 30
0.0
 11
65.058008
 21
111.037142
 31
0.0
  0
LINE
  5
DEE
100
AcDbEntity
  8
ALPHA
100
AcDbLine
 10
65.020254
 20
110.683474
 30
0.0
 11
65.033805
 21
110.810417
 31
0.0
  0
LWPOLYLINE
  5
DEF
100
AcDbEntity
  8
ALPHA
100
AcDbPolyline
 90
        4
 70
     0
 43
0.0
 10
64.923473
 20
110.286476
 10
64.924781
 20
110.289693
 10
65.017628
 20
110.658883
 10
65.020254
 20
110.683474
  0
LINE
  5
DF5
100
AcDbEntity
  8
ALPHA
100
AcDbLine
 10
64.908355
 20
110.24929
 30
0.0
 11
64.923473
 21
110.286476
 31
0.0
  0
LWPOLYLINE
  5
DF6
100
AcDbEntity
  8
ALPHA
100
AcDbPolyline
 90
        3
 70
     0
 43
0.0
 10
64.765229
 20
109.909005
 10
64.78123
 20
109.936599
 10
64.908355
 20
110.24929
  0
LINE
  5
DFB
100
AcDbEntity
  8
ALPHA
100
AcDbLine
 10
64.685149
 20
109.770905
 30
0.0
 11
64.765229
 21
109.909005
 31
0.0
  0
LWPOLYLINE
  5
DFC
100
AcDbEntity
  8
ALPHA
100
AcDbPolyline
 90
        3
 70
     0
 43
0.0
 10
59.777238
 20
109.861413
 10
59.780238
 20
109.85469
 10
59.785841
 20
109.845734
  0
LINE
  5
E01
100
AcDbEntity
  8
ALPHA
100
AcDbLine
 10
59.72749
 20
109.972884
 30
0.0
 11
59.777238
 21
109.861413
 31
0.0
  0
LWPOLYLINE
  5
E02
100
AcDbEntity
  8
ALPHA
100
AcDbPolyline
 90
        3
 70
     0
 43
0.0
 10
59.612071
 20
110.247298
 10
59.624849
 20
110.202878
 10
59.72749
 20
109.972884
  0
LINE
  5
E07
100
AcDbEntity
  8
ALPHA
100
AcDbLine
 10
59.570075
 20
110.393292
 30
0.0
 11
59.612071
 21
110.247298
 31
0.0
  0
LWPOLYLINE
  5
E08
100
AcDbEntity
  8
ALPHA
100
AcDbPolyline
 90
        3
 70
     0
 43
0.0
 10
59.509017
 20
110.643755
 10
59.519587
 20
110.56881
 10
59.570075
 20
110.393292
  0
LINE
  5
E0D
100
AcDbEntity
  8
ALPHA
100
AcDbLine
 10
59.486139
 20
110.805967
 30
0.0
 11
59.509017
 21
110.643755
 31
0.0
  0
LWPOLYLINE
  5
E0E
100
AcDbEntity
  8
ALPHA
100
AcDbPolyline
 90
        3
 70
     0
 43
0.0
 10
59.463514
 20
111.029762
 10
59.466455
 20
110.945525
 10
59.486139
 20
110.805967
  0
LWPOLYLINE
  5
E13
100
AcDbEntity
  8
ALPHA
100
AcDbPolyline
 90
        3
 70
     0
 43
0.0
 10
74.879502
 20
92.215078
 10
74.804036
 20
92.411503
 10
74.77441
 20
92.464939
  0
LINE
  5
E18
100
AcDbEntity
  8
ALPHA
100
AcDbLine
 10
74.92925
 20
92.085593
 30
0.0
 11
74.879502
 21
92.215078
 31
0.0
  0
LWPOLYLINE
  5
E19
100
AcDbEntity
  8
ALPHA
100
AcDbPolyline
 90
        3
 70
     0
 43
0.0
 10
75.01633
 20
91.728393
 10
74.940708
 20
92.055772
 10
74.92925
 20
92.085593
  0
LINE
  5
E1E
100
AcDbEntity
  8
ALPHA
100
AcDbLine
 10
75.025571
 20
91.688387
 30
0.0
 11
75.01633
 21
91.728393
 31
0.0
  0
LINE
  5
E1F
100
AcDbEntity
  8
ALPHA
100
AcDbLine
 10
75.026024
 20
91.686426
 30
0.0
 11
75.025571
 21
91.688387
 31
0.0
  0
LINE
  5
E20
100
AcDbEntity
  8
ALPHA
100
AcDbLine
 10
69.503129
 20
91.727862
 30
0.0
 11
69.497996
 21
91.705645
 31
0.0
  0
LWPOLYLINE
  5
E21
100
AcDbEntity
  8
ALPHA
100
AcDbPolyline
 90
        3
 70
     0
 43
0.0
 10
69.590349
 20
92.085643
 10
69.578912
 20
92.055877
 10
69.503129
 20
91.727862
  0
LINE
  5
E26
100
AcDbEntity
  8
ALPHA
100
AcDbLine
 10
69.640071
 20
92.215043
 30
0.0
 11
69.590349
 21
92.085643
 31
0.0
  0
LWPOLYLINE
  5
E27
100
AcDbEntity
  8
ALPHA
100
AcDbPolyline
 90
        3
 70
     0
 43
0.0
 10
69.745195
 20
92.46498
 10
69.715594
 20
92.411592
 10
69.640071
 20
92.215043
  0
ENDSEC
  0
SECTION
  2
OBJECTS
  0
DICTIONARY
  5
170B
100
AcDbDictionary
  3
ACAD_GROUP
350
170C
  3
ACAD_MLINESTYLE
350
1719
  3
ACDBVARIABLEDICTIONARY
350
1729
  0
DICTIONARY
  5
170C
102
{ACAD_REACTORS
330
170B
102
}
100
AcDbDictionary
  0
DICTIONARY
  5
1719
102
{ACAD_REACTORS
330
170B
102
}
100
AcDbDictionary
  3
STANDARD
350
171A
  0
DICTIONARY
  5
1729
102
{ACAD_REACTORS
330
170B
102
}
100
AcDbDictionary
  3
DIMADEC
350
172A
  0
MLINESTYLE
  5
171A
102
{ACAD_REACTORS
330
1719
102
}
100
AcDbMlineStyle
  2
STANDARD
 70
     0
  3

 62
   256
 51
90.0
 52
90.0
 71
     2
 49
0.5
 62
   256
  6
BYLAYER
 49
-0.5
 62
   256
  6
BYLAYER
  0
DICTIONARYVAR
  5
172A
102
{ACAD_REACTORS
330
1729
102
}
100
DictionaryVariables
280
     0
  1
0
  0
ENDSEC
  0
EOF
