  0
SECTION
  2
HEADER
  9
$ACADVER
  1
AC1012
  9
$DWGCODEPAGE
  3
ANSI_1252
  9
$INSBASE
 10
0.0
 20
0.0
 30
0.0
  9
$EXTMIN
 10
26.500965
 20
4.047446
 30
-0.001526
  9
$EXTMAX
 10
167.288581
 20
355.56863
 30
0.0
  9
$LIMMIN
 10
21.500324
 20
168.366123
  9
$LIMMAX
 10
144.764979
 20
237.902791
  9
$ORTHOMODE
 70
     0
  9
$REGENMODE
 70
     1
  9
$FILLMODE
 70
     1
  9
$QTEXTMODE
 70
     0
  9
$MIRRTEXT
 70
     1
  9
$DRAGMODE
 70
     2
  9
$LTSCALE
 40
10.0
  9
$OSMODE
 70
    39
  9
$ATTMODE
 70
     1
  9
$TEXTSIZE
 40
0.2
  9
$TRACEWID
 40
0.05
  9
$TEXTSTYLE
  7
STANDARD
  9
$CLAYER
  8
0
  9
$CELTYPE
  6
CONTINUOUS
  9
$CECOLOR
 62
   256
  9
$CELTSCALE
 40
1.0
  9
$DELOBJ
 70
     1
  9
$DISPSILH
 70
     0
  9
$DIMSCALE
 40
1.0
  9
$DIMASZ
 40
0.18
  9
$DIMEXO
 40
0.0625
  9
$DIMDLI
 40
0.38
  9
$DIMRND
 40
0.0
  9
$DIMDLE
 40
0.0
  9
$DIMEXE
 40
0.18
  9
$DIMTP
 40
0.0
  9
$DIMTM
 40
0.0
  9
$DIMTXT
 40
0.18
  9
$DIMCEN
 40
0.09
  9
$DIMTSZ
 40
0.0
  9
$DIMTOL
 70
     0
  9
$DIMLIM
 70
     0
  9
$DIMTIH
 70
     1
  9
$DIMTOH
 70
     1
  9
$DIMSE1
 70
     0
  9
$DIMSE2
 70
     0
  9
$DIMTAD
 70
     0
  9
$DIMZIN
 70
     0
  9
$DIMBLK
  1

  9
$DIMASO
 70
     1
  9
$DIMSHO
 70
     1
  9
$DIMPOST
  1

  9
$DIMAPOST
  1

  9
$DIMALT
 70
     0
  9
$DIMALTD
 70
     2
  9
$DIMALTF
 40
25.4
  9
$DIMLFAC
 40
1.0
  9
$DIMTOFL
 70
     0
  9
$DIMTVP
 40
0.0
  9
$DIMTIX
 70
     0
  9
$DIMSOXD
 70
     0
  9
$DIMSAH
 70
     0
  9
$DIMBLK1
  1

  9
$DIMBLK2
  1

  9
$DIMSTYLE
  2
STANDARD
  9
$DIMCLRD
 70
     0
  9
$DIMCLRE
 70
     0
  9
$DIMCLRT
 70
     0
  9
$DIMTFAC
 40
1.0
  9
$DIMGAP
 40
0.09
  9
$DIMJUST
 70
     0
  9
$DIMSD1
 70
     0
  9
$DIMSD2
 70
     0
  9
$DIMTOLJ
 70
     1
  9
$DIMTZIN
 70
     0
  9
$DIMALTZ
 70
     0
  9
$DIMALTTZ
 70
     0
  9
$DIMFIT
 70
     3
  9
$DIMUPT
 70
     0
  9
$DIMUNIT
 70
     2
  9
$DIMDEC
 70
     4
  9
$DIMTDEC
 70
     4
  9
$DIMALTU
 70
     2
  9
$DIMALTTD
 70
     2
  9
$DIMTXSTY
  7
STANDARD
  9
$DIMAUNIT
 70
     0
  9
$LUNITS
 70
     2
  9
$LUPREC
 70
     4
  9
$SKETCHINC
 40
0.1
  9
$FILLETRAD
 40
0.0
  9
$AUNITS
 70
     0
  9
$AUPREC
 70
     0
  9
$MENU
  1
acad
  9
$ELEVATION
 40
0.0
  9
$PELEVATION
 40
0.0
  9
$THICKNESS
 40
0.0
  9
$LIMCHECK
 70
     0
  9
$BLIPMODE
 70
     0
  9
$CHAMFERA
 40
0.0
  9
$CHAMFERB
 40
0.0
  9
$CHAMFERC
 40
0.0
  9
$CHAMFERD
 40
0.0
  9
$SKPOLY
 70
     0
  9
$TDCREATE
 40
2453627.679171909
  9
$TDUPDATE
 40
2453689.696656898
  9
$TDINDWG
 40
0.1405768403
  9
$TDUSRTIMER
 40
0.1405762963
  9
$USRTIMER
 70
     1
  9
$ANGBASE
 50
0.0
  9
$ANGDIR
 70
     0
  9
$PDMODE
 70
     0
  9
$PDSIZE
 40
0.0
  9
$PLINEWID
 40
0.0
  9
$COORDS
 70
     0
  9
$SPLFRAME
 70
     0
  9
$SPLINETYPE
 70
     6
  9
$SPLINESEGS
 70
     8
  9
$ATTDIA
 70
     0
  9
$ATTREQ
 70
     1
  9
$HANDLING
 70
     1
  9
$HANDSEED
  5
E2E
  9
$SURFTAB1
 70
     6
  9
$SURFTAB2
 70
     6
  9
$SURFTYPE
 70
     6
  9
$SURFU
 70
     6
  9
$SURFV
 70
     6
  9
$UCSNAME
  2

  9
$UCSORG
 10
0.0
 20
0.0
 30
0.0
  9
$UCSXDIR
 10
1.0
 20
0.0
 30
0.0
  9
$UCSYDIR
 10
0.0
 20
1.0
 30
0.0
  9
$PUCSNAME
  2

  9
$PUCSORG
 10
0.0
 20
0.0
 30
0.0
  9
$PUCSXDIR
 10
1.0
 20
0.0
 30
0.0
  9
$PUCSYDIR
 10
0.0
 20
1.0
 30
0.0
  9
$USERI1
 70
     0
  9
$USERI2
 70
     0
  9
$USERI3
 70
     0
  9
$USERI4
 70
     0
  9
$USERI5
 70
     0
  9
$USERR1
 40
0.0
  9
$USERR2
 40
0.0
  9
$USERR3
 40
0.0
  9
$USERR4
 40
0.0
  9
$USERR5
 40
0.0
  9
$WORLDVIEW
 70
     1
  9
$SHADEDGE
 70
     3
  9
$SHADEDIF
 70
    70
  9
$TILEMODE
 70
     1
  9
$MAXACTVP
 70
    16
  9
$PINSBASE
 10
0.0
 20
0.0
 30
0.0
  9
$PLIMCHECK
 70
     0
  9
$PEXTMIN
 10
1.000000E+20
 20
1.000000E+20
 30
1.000000E+20
  9
$PEXTMAX
 10
-1.000000E+20
 20
-1.000000E+20
 30
-1.000000E+20
  9
$PLIMMIN
 10
0.0
 20
0.0
  9
$PLIMMAX
 10
12.0
 20
9.0
  9
$UNITMODE
 70
     0
  9
$VISRETAIN
 70
     0
  9
$PLINEGEN
 70
     1
  9
$PSLTSCALE
 70
     0
  9
$TREEDEPTH
 70
  3020
  9
$PICKSTYLE
 70
     1
  9
$CMLSTYLE
  2
STANDARD
  9
$CMLJUST
 70
     0
  9
$CMLSCALE
 40
1.0
  9
$SAVEIMAGES
 70
     0
  0
ENDSEC
  0
SECTION
  2
CLASSES
  0
CLASS
  1
LWPOLYLINE
  2
AcDbPolyline
  3
"AutoCAD"
 90
    32768
280
     0
281
     1
  0
CLASS
  1
IMAGE
  2
AcDbRasterImage
  3
ISM
 90
    32895
280
     0
281
     1
  0
CLASS
  1
OLE2FRAME
  2
AcDbOle2Frame
  3
""
 90
    32768
280
     0
281
     1
  0
CLASS
  1
HATCH
  2
AcDbHatch
  3
"ACAD_SEDONA"
 90
    32768
280
     0
281
     1
  0
CLASS
  1
DICTIONARYVAR
  2
AcDbDictionaryVar
  3
"AutoCAD"
 90
    32768
280
     0
281
     0
  0
CLASS
  1
RASTERVARIABLES
  2
AcDbRasterVariables
  3
ISM
 90
    32768
280
     0
281
     0
  0
CLASS
  1
IMAGEDEF
  2
AcDbRasterImageDef
  3
ISM
 90
    32768
280
     0
281
     0
  0
CLASS
  1
IMAGEDEF_REACTOR
  2
AcDbRasterImageDefReactor
  3
ISM
 90
    32769
280
     0
281
     0
  0
CLASS
  1
SPATIAL_FILTER
  2
AcDbSpatialFilter
  3
"Acad"
 90
    32768
280
     0
281
     0
  0
CLASS
  1
XRECORD
  2
AcDbXrecord
  3
"<Built In>"
 90
    32768
280
     0
281
     0
  0
CLASS
  1
SORTENTSTABLE
  2
AcDbSortentsTable
  3
"AutoCAD"
 90
    32768
280
     0
281
     0
  0
CLASS
  1
LAYER_INDEX
  2
AcDbLayerIndex
  3
"Acad"
 90
    32768
280
     0
281
     0
  0
CLASS
  1
SPATIAL_INDEX
  2
AcDbSpatialIndex
  3
"Acad"
 90
    32768
280
     0
281
     0
  0
CLASS
  1
OBJECT_PTR
  2
CAseDLPNTableRecord
  3
"ASE-LPNTableRecord"
 90
    32769
280
     0
281
     0
  0
CLASS
  1
LAYOUT
  2
AcDbLayout
  3
AutoCAD 2000
 90
    32768
280
     0
281
     0
  0
CLASS
  1
PLOTSETTINGS
  2
AcDbPlotSettings
  3
AutoCAD 2000
 90
    32768
280
     0
281
     0
  0
CLASS
  1
ACDBDICTIONARYWDFLT
  2
AcDbDictionaryWithDefault
  3
AutoCAD 2000
 90
    32768
280
     0
281
     0
  0
CLASS
  1
ACDBPLACEHOLDER
  2
AcDbPlaceHolder
  3
AutoCAD 2000
 90
    32768
280
     0
281
     0
  0
CLASS
  1
VBA_PROJECT
  2
AcDbVbaProject
  3
acad
 90
    32768
280
     0
281
     0
  0
CLASS
  1
WIPEOUT
  2
AcDbWipeout
  3
"WipeOut|Product Desc: Object Enabler for WipeOut entity^I^I^I^I^I^I|Company: Autodesk, Inc.^I^I^I^I^I^I|WEB Address: www.autodesk.com"
 90
    32895
280
     0
281
     1
  0
CLASS
  1
WIPEOUTVARIABLES
  2
AcDbWipeoutVariables
  3
"WipeOut|Product Desc:     WipeOut Dbx Application|Company:          Autodesk, Inc.|WEB Address:      www.autodesk.com"
 90
    32768
280
     0
281
     0
  0
CLASS
  1
RTEXT
  2
RText
  3
RText|AutoCAD Express Tool|expresstools@autodesk.com
 90
    32768
280
     0
281
     1
  0
CLASS
  1
ARCALIGNEDTEXT
  2
AcDbArcAlignedText
  3
ATEXT|AutoCAD Express Tool|expresstools@autodesk.com
 90
    32768
280
     0
281
     1
  0
CLASS
  1
TABLESTYLE
  2
AcDbTableStyle
  3
ObjectDBX Classes
 90
    34815
280
     0
281
     0
  0
CLASS
  1
ACAD_PROXY_OBJECT_WRAPPER
  2
AcDbProxyObjectWrapper
  3
AutoCAD 2000
 90
    32768
280
     0
281
     0
  0
CLASS
  1
LONG_TRANSACTION
  2
AcDbLongTransaction
  3
AutoCAD 2000
 90
    32768
280
     0
281
     0
  0
CLASS
  1
LWPOLYLINE
  2
AcDbPolyline
  3
"AutoCAD"
 90
    32768
280
     0
281
     1
  0
CLASS
  1
HATCH
  2
AcDbHatch
  3
"ACAD_SEDONA"
 90
    32768
280
     0
281
     1
  0
CLASS
  1
XRECORD
  2
AcDbXrecord
  3
"<Built In>"
 90
    32768
280
     0
281
     0
  0
ENDSEC
  0
SECTION
  2
TABLES
  0
TABLE
  2
VPORT
  5
7
100
AcDbSymbolTable
 70
     2
  0
VPORT
  5
E2D
100
AcDbSymbolTableRecord
100
AcDbViewportTableRecord
  2
*ACTIVE
 70
     0
 10
0.0
 20
0.0
 11
1.0
 21
1.0
 12
96.894773
 22
179.808038
 13
0.0
 23
0.0
 14
1.0
 24
1.0
 15
0.0
 25
0.0
 16
0.0
 26
0.0
 36
1.0
 17
0.0
 27
0.0
 37
0.0
 40
355.176517
 41
1.673611
 42
50.0
 43
0.0
 44
0.0
 50
0.0
 51
0.0
 71
     0
 72
   100
 73
     1
 74
     2
 75
     0
 76
     0
 77
     0
 78
     0
  0
ENDTAB
  0
TABLE
  2
LTYPE
  5
4
100
AcDbSymbolTable
 70
     2
  0
LTYPE
  5
11
102
{ACAD_XDICTIONARY
360
DEE
102
}
100
AcDbSymbolTableRecord
100
AcDbLinetypeTableRecord
  2
BYBLOCK
 70
     0
  3

 72
    65
 73
     0
 40
0.0
  0
LTYPE
  5
12
102
{ACAD_XDICTIONARY
360
DF0
102
}
100
AcDbSymbolTableRecord
100
AcDbLinetypeTableRecord
  2
BYLAYER
 70
     0
  3

 72
    65
 73
     0
 40
0.0
  0
LTYPE
  5
13
102
{ACAD_XDICTIONARY
360
DF2
102
}
100
AcDbSymbolTableRecord
100
AcDbLinetypeTableRecord
  2
CONTINUOUS
 70
     0
  3
Solid line
 72
    65
 73
     0
 40
0.0
  0
LTYPE
  5
FA
100
AcDbSymbolTableRecord
100
AcDbLinetypeTableRecord
  2
AXES2
 70
     0
  3
___ _ ___ _ ___ _ ___ _ ___ _ ___ _ ___ _ ___ _
 72
    65
 73
     4
 40
1.125
 49
0.75
 74
     0
 49
-0.125
 74
     0
 49
0.125
 74
     0
 49
-0.125
 74
     0
  0
ENDTAB
  0
TABLE
  2
LAYER
  5
2
100
AcDbSymbolTable
 70
     5
  0
LAYER
  5
14
100
AcDbSymbolTableRecord
100
AcDbLayerTableRecord
  2
0
 70
     0
 62
     7
  6
CONTINUOUS
  0
LAYER
  5
FC
100
AcDbSymbolTableRecord
100
AcDbLayerTableRecord
  2
COTATION1
 70
     0
 62
     2
  6
CONTINUOUS
  0
LAYER
  5
FD
100
AcDbSymbolTableRecord
100
AcDbLayerTableRecord
  2
AXE
 70
     0
 62
    80
  6
AXES2
  0
LAYER
  5
FE
102
{ACAD_XDICTIONARY
360
E24
102
}
100
AcDbSymbolTableRecord
100
AcDbLayerTableRecord
  2
DEFPOINTS
 70
     0
 62
     7
  6
CONTINUOUS
  0
LAYER
  5
FF
100
AcDbSymbolTableRecord
100
AcDbLayerTableRecord
  2
ALPHA
 70
     0
 62
   254
  6
CONTINUOUS
  0
ENDTAB
  0
TABLE
  2
STYLE
  5
3
100
AcDbSymbolTable
 70
     2
  0
STYLE
  5
17
102
{ACAD_XDICTIONARY
360
DF4
102
}
100
AcDbSymbolTableRecord
100
AcDbTextStyleTableRecord
  2
STANDARD
 70
     0
 40
0.0
 41
1.0
 50
0.0
 71
     0
 42
0.0
  3
txt
  4

  0
STYLE
  5
101
100
AcDbSymbolTableRecord
100
AcDbTextStyleTableRecord
  2
ROMANS
 70
     0
 40
0.0
 41
1.0
 50
0.0
 71
     0
 42
6.0
  3
romans
  4

  0
ENDTAB
  0
TABLE
  2
VIEW
  5
5
100
AcDbSymbolTable
 70
     0
  0
ENDTAB
  0
TABLE
  2
UCS
  5
6
100
AcDbSymbolTable
 70
     0
  0
ENDTAB
  0
TABLE
  2
APPID
  5
8
100
AcDbSymbolTable
 70
     1
  0
APPID
  5
16
100
AcDbSymbolTableRecord
100
AcDbRegAppTableRecord
  2
ACAD
 70
     0
  0
ENDTAB
  0
TABLE
  2
DIMSTYLE
  5
9
100
AcDbSymbolTable
 70
     2
  0
DIMSTYLE
105
18
102
{ACAD_XDICTIONARY
360
DEC
102
}
100
AcDbSymbolTableRecord
100
AcDbDimStyleTableRecord
  2
STANDARD
 70
     0
  3

  4

  5

  6

  7

 40
1.0
 41
0.18
 42
0.0625
 43
0.38
 44
0.18
 45
0.0
 46
0.0
 47
0.0
 48
0.0
140
0.18
141
0.09
142
0.0
143
25.4
144
1.0
145
0.0
146
1.0
147
0.09
 71
     0
 72
     0
 73
     1
 74
     1
 75
     0
 76
     0
 77
     0
 78
     0
170
     0
171
     2
172
     0
173
     0
174
     0
175
     0
176
     0
177
     0
178
     0
270
     2
271
     4
272
     4
273
     2
274
     2
340
17
275
     0
280
     0
281
     0
282
     0
283
     1
284
     0
285
     0
286
     0
287
     3
288
     0
  0
DIMSTYLE
105
102
102
{ACAD_XDICTIONARY
360
E26
102
}
102
{ACAD_REACTORS
330
D13
330
D17
330
D18
330
D19
102
}
100
AcDbSymbolTableRecord
100
AcDbDimStyleTableRecord
  2
SC_DEFAUT
 70
     0
  3

  4

  5
OPEN30
  6

  7

 40
1.0
 41
5.0
 42
2.0
 43
0.38
 44
2.5
 45
0.0
 46
0.0
 47
0.0
 48
0.0
140
2.5
141
0.0
142
0.0
143
25.4
144
1.0
145
0.0
146
1.0
147
2.0
 71
     0
 72
     0
 73
     1
 74
     1
 75
     0
 76
     0
 77
     1
 78
    12
170
     0
171
     2
172
     0
173
     0
174
     0
175
     0
176
     0
177
     0
178
     0
270
     2
271
     1
272
     1
273
     2
274
     2
340
101
275
     0
280
     0
281
     0
282
     0
283
     1
284
    12
285
    12
286
    12
287
     5
288
     0
  0
ENDTAB
  0
TABLE
  2
BLOCK_RECORD
  5
1
100
AcDbSymbolTable
 70
     5
  0
BLOCK_RECORD
  5
A
102
{ACAD_XDICTIONARY
360
1B0
102
}
100
AcDbSymbolTableRecord
100
AcDbBlockTableRecord
  2
*MODEL_SPACE
  0
BLOCK_RECORD
  5
B
102
{ACAD_XDICTIONARY
360
E1A
102
}
100
AcDbSymbolTableRecord
100
AcDbBlockTableRecord
  2
*PAPER_SPACE
  0
BLOCK_RECORD
  5
CF
100
AcDbSymbolTableRecord
100
AcDbBlockTableRecord
  2
_OPEN30
  0
BLOCK_RECORD
  5
D4B
100
AcDbSymbolTableRecord
100
AcDbBlockTableRecord
  2
*D1
  0
BLOCK_RECORD
  5
D58
100
AcDbSymbolTableRecord
100
AcDbBlockTableRecord
  2
*D2
  0
BLOCK_RECORD
  5
D64
100
AcDbSymbolTableRecord
100
AcDbBlockTableRecord
  2
*D3
  0
BLOCK_RECORD
  5
D71
100
AcDbSymbolTableRecord
100
AcDbBlockTableRecord
  2
*D4
  0
ENDTAB
  0
ENDSEC
  0
SECTION
  2
BLOCKS
  0
BLOCK
  5
D
100
AcDbEntity
  8
0
100
AcDbBlockBegin
  2
*MODEL_SPACE
 70
     0
 10
0.0
 20
0.0
 30
0.0
  3
*MODEL_SPACE
  1

  0
ENDBLK
  5
E
100
AcDbEntity
  8
0
100
AcDbBlockEnd
  0
BLOCK
  5
F
100
AcDbEntity
 67
     1
  8
0
100
AcDbBlockBegin
  2
*PAPER_SPACE
 70
     0
 10
0.0
 20
0.0
 30
0.0
  3
*PAPER_SPACE
  1

  0
ENDBLK
  5
10
100
AcDbEntity
 67
     1
  8
0
100
AcDbBlockEnd
  0
BLOCK
  5
D0
100
AcDbEntity
  8
0
100
AcDbBlockBegin
  2
_OPEN30
 70
     0
 10
0.0
 20
0.0
 30
0.0
  3
_OPEN30
  1

  0
LINE
  5
D1
100
AcDbEntity
  8
COTATION1
 62
     0
100
AcDbLine
 10
-1.0
 20
0.267949
 30
0.0
 11
0.0
 21
0.0
 31
0.0
1001
ACAD
1000
RTLwPs
1070
   158
  0
LINE
  5
D2
100
AcDbEntity
  8
COTATION1
 62
     0
100
AcDbLine
 10
0.0
 20
0.0
 30
0.0
 11
-1.0
 21
-0.267949
 31
0.0
1001
ACAD
1000
RTLwPs
1070
   158
  0
LINE
  5
D3
100
AcDbEntity
  8
COTATION1
 62
     0
100
AcDbLine
 10
0.0
 20
0.0
 30
0.0
 11
-1.0
 21
0.0
 31
0.0
1001
ACAD
1000
RTLwPs
1070
   158
  0
ENDBLK
  5
D4
100
AcDbEntity
  8
0
100
AcDbBlockEnd
  0
BLOCK
  5
D56
100
AcDbEntity
  8
0
100
AcDbBlockBegin
  2
*D1
 70
     1
 10
0.0
 20
0.0
 30
0.0
  3
*D1
  1

1001
ACAD
1000
RTLwPs
1070
   128
  0
LINE
  5
DA5
100
AcDbEntity
  8
COTATION1
 62
     0
100
AcDbLine
 10
120.618801
 20
31.558172
 30
0.0
 11
166.510322
 21
31.558172
 31
0.0
1001
ACAD
1000
RTLwPs
1070
   158
  0
LINE
  5
DA6
100
AcDbEntity
  8
COTATION1
 62
     0
100
AcDbLine
 10
98.106233
 20
345.557903
 30
0.0
 11
166.510322
 21
345.557903
 31
0.0
1001
ACAD
1000
RTLwPs
1070
   158
  0
LINE
  5
DA7
100
AcDbEntity
  8
COTATION1
 62
     0
100
AcDbLine
 10
164.010322
 20
36.558172
 30
0.0
 11
164.010322
 21
185.308037
 31
0.0
1001
ACAD
1000
RTLwPs
1070
   158
  0
LINE
  5
DA8
100
AcDbEntity
  8
COTATION1
 62
     0
100
AcDbLine
 10
164.010322
 20
340.557903
 30
0.0
 11
164.010322
 21
191.808037
 31
0.0
1001
ACAD
1000
RTLwPs
1070
   158
  0
INSERT
  5
DA9
100
AcDbEntity
  8
COTATION1
 62
     0
100
AcDbBlockReference
  2
_OPEN30
 10
164.010322
 20
31.558172
 30
0.0
 41
5.0
 42
5.0
 43
5.0
 50
270.0
1001
ACAD
1000
RTLwPs
1070
   158
  0
INSERT
  5
DAA
100
AcDbEntity
  8
COTATION1
 62
     0
100
AcDbBlockReference
  2
_OPEN30
 10
164.010322
 20
345.557903
 30
0.0
 41
5.0
 42
5.0
 43
5.0
 50
90.0
1001
ACAD
1000
RTLwPs
1070
   158
  0
MTEXT
  5
DAB
100
AcDbEntity
  8
COTATION1
 62
     0
100
AcDbMText
 10
164.010322
 20
188.558037
 30
0.0
 40
2.5
 41
0.0
 71
     5
 72
     1
  1
\A1;314
  7
ROMANS
1001
ACAD
1000
MTEXTBEGIN
1070
    73
1070
     1
1070
    44
1040
1.0
1070
    74
1070
     0
1000
MTEXTEND
  0
POINT
  5
DAC
100
AcDbEntity
  8
DEFPOINTS
 62
     0
100
AcDbPoint
 10
118.618801
 20
31.558172
 30
0.0
1001
ACAD
1000
RTLwPs
1070
   128
  0
POINT
  5
DAD
100
AcDbEntity
  8
DEFPOINTS
 62
     0
100
AcDbPoint
 10
96.106233
 20
345.557903
 30
0.0
1001
ACAD
1000
RTLwPs
1070
   128
  0
POINT
  5
DAE
100
AcDbEntity
  8
DEFPOINTS
 62
     0
100
AcDbPoint
 10
164.010322
 20
345.557903
 30
0.0
1001
ACAD
1000
RTLwPs
1070
   128
  0
ENDBLK
  5
D57
100
AcDbEntity
  8
0
100
AcDbBlockEnd
1001
ACAD
1000
RTLwPs
1070
   128
  0
BLOCK
  5
D62
100
AcDbEntity
  8
0
100
AcDbBlockBegin
  2
*D2
 70
     1
 10
0.0
 20
0.0
 30
0.0
  3
*D2
  1

1001
ACAD
1000
RTLwPs
1070
   128
  0
LINE
  5
DAF
100
AcDbEntity
  8
COTATION1
 62
     0
100
AcDbLine
 10
129.010322
 20
39.613558
 30
0.0
 11
129.010322
 21
4.058172
 31
0.0
1001
ACAD
1000
RTLwPs
1070
   158
  0
LINE
  5
DB0
100
AcDbEntity
  8
COTATION1
 62
     0
100
AcDbLine
 10
49.008462
 20
39.613558
 30
0.0
 11
49.008462
 21
4.058172
 31
0.0
1001
ACAD
1000
RTLwPs
1070
   158
  0
LINE
  5
DB1
100
AcDbEntity
  8
COTATION1
 62
     0
100
AcDbLine
 10
124.010322
 20
6.558172
 30
0.0
 11
54.008462
 21
6.558172
 31
0.0
1001
ACAD
1000
RTLwPs
1070
   158
  0
INSERT
  5
DB2
100
AcDbEntity
  8
COTATION1
 62
     0
100
AcDbBlockReference
  2
_OPEN30
 10
129.010322
 20
6.558172
 30
0.0
 41
5.0
 42
5.0
 43
5.0
1001
ACAD
1000
RTLwPs
1070
   158
  0
INSERT
  5
DB3
100
AcDbEntity
  8
COTATION1
 62
     0
100
AcDbBlockReference
  2
_OPEN30
 10
49.008462
 20
6.558172
 30
0.0
 41
5.0
 42
5.0
 43
5.0
 50
180.0
1001
ACAD
1000
RTLwPs
1070
   158
  0
MTEXT
  5
DB4
100
AcDbEntity
  8
COTATION1
 62
     0
100
AcDbMText
 10
89.009392
 20
9.808172
 30
0.0
 40
2.5
 41
0.0
 71
     5
 72
     1
  1
\A1;80
  7
ROMANS
1001
ACAD
1000
MTEXTBEGIN
1070
    73
1070
     1
1070
    44
1040
1.0
1070
    74
1070
     0
1000
MTEXTEND
  0
POINT
  5
DB5
100
AcDbEntity
  8
DEFPOINTS
 62
     0
100
AcDbPoint
 10
129.010322
 20
41.613558
 30
0.0
1001
ACAD
1000
RTLwPs
1070
   128
  0
POINT
  5
DB6
100
AcDbEntity
  8
DEFPOINTS
 62
     0
100
AcDbPoint
 10
49.008462
 20
41.613558
 30
0.0
1001
ACAD
1000
RTLwPs
1070
   128
  0
POINT
  5
DB7
100
AcDbEntity
  8
DEFPOINTS
 62
     0
100
AcDbPoint
 10
49.008462
 20
6.558172
 30
0.0
1001
ACAD
1000
RTLwPs
1070
   128
  0
ENDBLK
  5
D63
100
AcDbEntity
  8
0
100
AcDbBlockEnd
1001
ACAD
1000
RTLwPs
1070
   128
  0
BLOCK
  5
D6F
100
AcDbEntity
  8
0
100
AcDbBlockBegin
  2
*D3
 70
     1
 10
0.0
 20
0.0
 30
0.0
  3
*D3
  1

1001
ACAD
1000
RTLwPs
1070
   128
  0
LINE
  5
DB8
100
AcDbEntity
  8
COTATION1
 62
     0
100
AcDbLine
 10
120.620868
 20
31.558172
 30
0.0
 11
156.510322
 21
31.558172
 31
0.0
1001
ACAD
1000
RTLwPs
1070
   158
  0
LINE
  5
DB9
100
AcDbEntity
  8
COTATION1
 62
     0
100
AcDbLine
 10
108.328976
 20
221.56362
 30
0.0
 11
156.510322
 21
221.56362
 31
0.0
1001
ACAD
1000
RTLwPs
1070
   158
  0
LINE
  5
DBA
100
AcDbEntity
  8
COTATION1
 62
     0
100
AcDbLine
 10
154.010322
 20
36.558172
 30
0.0
 11
154.010322
 21
123.310896
 31
0.0
1001
ACAD
1000
RTLwPs
1070
   158
  0
LINE
  5
DBB
100
AcDbEntity
  8
COTATION1
 62
     0
100
AcDbLine
 10
154.010322
 20
216.56362
 30
0.0
 11
154.010322
 21
129.810896
 31
0.0
1001
ACAD
1000
RTLwPs
1070
   158
  0
INSERT
  5
DBC
100
AcDbEntity
  8
COTATION1
 62
     0
100
AcDbBlockReference
  2
_OPEN30
 10
154.010322
 20
31.558172
 30
0.0
 41
5.0
 42
5.0
 43
5.0
 50
270.0
1001
ACAD
1000
RTLwPs
1070
   158
  0
INSERT
  5
DBD
100
AcDbEntity
  8
COTATION1
 62
     0
100
AcDbBlockReference
  2
_OPEN30
 10
154.010322
 20
221.56362
 30
0.0
 41
5.0
 42
5.0
 43
5.0
 50
90.0
1001
ACAD
1000
RTLwPs
1070
   158
  0
MTEXT
  5
DBE
100
AcDbEntity
  8
COTATION1
 62
     0
100
AcDbMText
 10
154.010322
 20
126.560896
 30
0.0
 40
2.5
 41
0.0
 71
     5
 72
     1
  1
\A1;190
  7
ROMANS
1001
ACAD
1000
MTEXTBEGIN
1070
    73
1070
     1
1070
    44
1040
1.0
1070
    74
1070
     0
1000
MTEXTEND
  0
POINT
  5
DBF
100
AcDbEntity
  8
DEFPOINTS
 62
     0
100
AcDbPoint
 10
118.620868
 20
31.558172
 30
0.0
1001
ACAD
1000
RTLwPs
1070
   128
  0
POINT
  5
DC0
100
AcDbEntity
  8
DEFPOINTS
 62
     0
100
AcDbPoint
 10
106.328976
 20
221.56362
 30
0.0
1001
ACAD
1000
RTLwPs
1070
   128
  0
POINT
  5
DC1
100
AcDbEntity
  8
DEFPOINTS
 62
     0
100
AcDbPoint
 10
154.010322
 20
221.56362
 30
0.0
1001
ACAD
1000
RTLwPs
1070
   128
  0
ENDBLK
  5
D70
100
AcDbEntity
  8
0
100
AcDbBlockEnd
1001
ACAD
1000
RTLwPs
1070
   128
  0
BLOCK
  5
D7C
100
AcDbEntity
  8
0
100
AcDbBlockBegin
  2
*D4
 70
     1
 10
0.0
 20
0.0
 30
0.0
  3
*D4
  1

1001
ACAD
1000
RTLwPs
1070
   128
  0
LINE
  5
DCC
100
AcDbEntity
  8
COTATION1
 62
     0
100
AcDbLine
 10
70.274577
 20
116.948754
 30
0.0
 11
26.508462
 21
116.948754
 31
0.0
1001
ACAD
1000
RTLwPs
1070
   158
  0
LINE
  5
DCD
100
AcDbEntity
  8
COTATION1
 62
     0
100
AcDbLine
 10
37.008462
 20
146.948754
 30
0.0
 11
26.508462
 21
146.948754
 31
0.0
1001
ACAD
1000
RTLwPs
1070
   158
  0
LINE
  5
DCE
100
AcDbEntity
  8
COTATION1
 62
     0
100
AcDbLine
 10
29.008462
 20
121.948754
 30
0.0
 11
29.008462
 21
128.698754
 31
0.0
1001
ACAD
1000
RTLwPs
1070
   158
  0
LINE
  5
DCF
100
AcDbEntity
  8
COTATION1
 62
     0
100
AcDbLine
 10
29.008462
 20
141.948754
 30
0.0
 11
29.008462
 21
135.198754
 31
0.0
1001
ACAD
1000
RTLwPs
1070
   158
  0
INSERT
  5
DD0
100
AcDbEntity
  8
COTATION1
 62
     0
100
AcDbBlockReference
  2
_OPEN30
 10
29.008462
 20
116.948754
 30
0.0
 41
5.0
 42
5.0
 43
5.0
 50
270.0
1001
ACAD
1000
RTLwPs
1070
   158
  0
INSERT
  5
DD1
100
AcDbEntity
  8
COTATION1
 62
     0
100
AcDbBlockReference
  2
_OPEN30
 10
29.008462
 20
146.948754
 30
0.0
 41
5.0
 42
5.0
 43
5.0
 50
90.0
1001
ACAD
1000
RTLwPs
1070
   158
  0
MTEXT
  5
DD2
100
AcDbEntity
  8
COTATION1
 62
     0
100
AcDbMText
 10
29.008462
 20
131.948754
 30
0.0
 40
2.5
 41
0.0
 71
     5
 72
     1
  1
\A1;30
  7
ROMANS
1001
ACAD
1000
MTEXTBEGIN
1070
    73
1070
     1
1070
    44
1040
1.0
1070
    74
1070
     0
1000
MTEXTEND
  0
POINT
  5
DD3
100
AcDbEntity
  8
DEFPOINTS
 62
     0
100
AcDbPoint
 10
72.274577
 20
116.948754
 30
0.0
1001
ACAD
1000
RTLwPs
1070
   128
  0
POINT
  5
DD4
100
AcDbEntity
  8
DEFPOINTS
 62
     0
100
AcDbPoint
 10
39.008462
 20
146.948754
 30
0.0
1001
ACAD
1000
RTLwPs
1070
   128
  0
POINT
  5
DD5
100
AcDbEntity
  8
DEFPOINTS
 62
     0
100
AcDbPoint
 10
29.008462
 20
146.948754
 30
0.0
1001
ACAD
1000
RTLwPs
1070
   128
  0
ENDBLK
  5
D7D
100
AcDbEntity
  8
0
100
AcDbBlockEnd
1001
ACAD
1000
RTLwPs
1070
   128
  0
ENDSEC
  0
SECTION
  2
ENTITIES
  0
SPLINE
  5
CE4
100
AcDbEntity
  8
ALPHA
100
AcDbSpline
210
0.0
220
0.0
230
1.0
 70
    11
 71
     3
 72
    23
 73
    19
 74
     0
 42
0.0000001
 43
0.0000001
 40
0.0
 40
0.0
 40
0.0
 40
0.0
 40
1.0
 40
1.0
 40
1.0
 40
2.0
 40
2.0
 40
2.0
 40
3.0
 40
3.0
 40
3.0
 40
4.0
 40
4.0
 40
4.0
 40
5.0
 40
5.0
 40
5.0
 40
6.0
 40
6.0
 40
6.0
 40
6.0
 10
54.92818879669238
 20
64.60173945066305
 30
0.0
 10
54.92818879669238
 20
57.81315381833877
 30
0.0
 10
67.93539485137995
 20
52.31298954221569
 30
0.0
 10
83.97991551178023
 20
52.31298954221569
 30
0.0
 10
100.0244361721807
 20
52.31298954221569
 30
0.0
 10
113.0316422268682
 20
57.81315381833877
 30
0.0
 10
113.0316422268682
 20
64.60173945066305
 30
0.0
 10
113.0316422268682
 20
64.60173945066305
 30
0.0
 10
113.0316422268682
 20
164.5568948003944
 30
0.0
 10
113.0316422268682
 20
164.5568948003944
 30
0.0
 10
113.0316422268682
 20
171.3454804327187
 30
0.0
 10
100.0244361721807
 20
176.847144617289
 30
0.0
 10
83.97991551178023
 20
176.847144617289
 30
0.0
 10
67.93539485137995
 20
176.847144617289
 30
0.0
 10
54.92818879669238
 20
171.3454804327187
 30
0.0
 10
54.92818879669238
 20
164.5568948003944
 30
0.0
 10
54.92818879669238
 20
164.5568948003944
 30
0.0
 10
54.92818879669238
 20
64.60173945066305
 30
0.0
 10
54.92818879669238
 20
64.60173945066305
 30
0.0
  0
SPLINE
  5
CE5
100
AcDbEntity
  8
ALPHA
100
AcDbSpline
210
0.0
220
0.0
230
1.0
 70
    11
 71
     3
 72
    23
 73
    19
 74
     0
 42
0.0000001
 43
0.0000001
 40
0.0
 40
0.0
 40
0.0
 40
0.0
 40
1.0
 40
1.0
 40
1.0
 40
2.0
 40
2.0
 40
2.0
 40
3.0
 40
3.0
 40
3.0
 40
4.0
 40
4.0
 40
4.0
 40
5.0
 40
5.0
 40
5.0
 40
6.0
 40
6.0
 40
6.0
 40
6.0
 10
104.092187881165
 20
69.07146662351459
 30
0.0
 10
104.092187881165
 20
66.02515256711803
 30
0.0
 10
95.30122447174125
 20
63.53980426999891
 30
0.0
 10
84.3308940884404
 20
63.48580756589746
 30
0.0
 10
73.36056370513972
 20
63.43331077024306
 30
0.0
 10
64.26361897247375
 20
65.83316428586801
 30
0.0
 10
63.87964240997371
 20
68.87647852537003
 30
0.0
 10
63.87964240997371
 20
68.87647852537003
 30
0.0
 10
63.8661432339482
 20
161.203849466532
 30
0.0
 10
63.8661432339482
 20
161.203849466532
 30
0.0
 10
63.8661432339482
 20
163.6741986791784
 30
0.0
 10
72.8715935513311
 20
166.510525552958
 30
0.0
 10
83.97991551178023
 20
166.510525552958
 30
0.0
 10
95.08823747222953
 20
166.510525552958
 30
0.0
 10
104.092187881165
 20
163.6741986791784
 30
0.0
 10
104.092187881165
 20
161.203849466532
 30
0.0
 10
104.092187881165
 20
161.203849466532
 30
0.0
 10
104.092187881165
 20
69.07146662351459
 30
0.0
 10
104.092187881165
 20
69.07146662351459
 30
0.0
  0
SPLINE
  5
CE6
100
AcDbEntity
  8
ALPHA
100
AcDbSpline
210
0.0
220
0.0
230
-1.0
 70
     8
 71
     3
 72
     8
 73
     4
 74
     0
 42
0.0000001
 43
0.0000001
 40
0.0
 40
0.0
 40
0.0
 40
0.0
 40
1.0
 40
1.0
 40
1.0
 40
1.0
 10
59.39791596954404
 20
31.55817197629772
 30
0.0
 10
54.46171726959284
 20
31.55817197629772
 30
0.0
 10
49.00846162384079
 20
36.06089713498914
 30
0.0
 10
49.00846162384079
 20
41.61355820676641
 30
0.0
  0
SPLINE
  5
CE7
100
AcDbEntity
  8
ALPHA
100
AcDbSpline
210
-1.0
220
0.0
230
0.0
 70
    24
 71
     3
 72
     8
 73
     4
 74
     0
 42
0.0000001
 43
0.0000001
 40
1.0
 40
1.0
 40
1.0
 40
1.0
 40
2.0
 40
2.0
 40
2.0
 40
2.0
 10
49.00846162384079
 20
41.61355820676641
 30
0.0
 10
49.00846162384079
 20
41.61355820676641
 30
0.0
 10
49.00846162384079
 20
184.6913710119421
 30
0.0
 10
49.00846162384079
 20
184.6913710119421
 30
0.0
  0
SPLINE
  5
CE8
100
AcDbEntity
  8
ALPHA
100
AcDbSpline
210
0.0
220
0.0
230
-1.0
 70
     8
 71
     3
 72
     8
 73
     4
 74
     0
 42
0.0000001
 43
0.0000001
 40
2.0
 40
2.0
 40
2.0
 40
2.0
 40
3.0
 40
3.0
 40
3.0
 40
3.0
 10
49.00846162384079
 20
184.6913710119421
 30
0.0
 10
49.0624583279424
 20
191.6411968023475
 30
0.0
 10
54.27722853057935
 20
194.7467572424109
 30
0.0
 10
59.39791596954404
 20
194.7467572424109
 30
0.0
  0
SPLINE
  5
CE9
100
AcDbEntity
  8
ALPHA
100
AcDbSpline
210
0.0
220
1.0
230
0.0
 70
    24
 71
     3
 72
     8
 73
     4
 74
     0
 42
0.0000001
 43
0.0000001
 40
3.0
 40
3.0
 40
3.0
 40
3.0
 40
4.0
 40
4.0
 40
4.0
 40
4.0
 10
59.39791596954404
 20
194.7467572424109
 30
0.0
 10
59.39791596954404
 20
194.7467572424109
 30
0.0
 10
118.6188011929326
 20
194.7467572424109
 30
0.0
 10
118.6188011929326
 20
194.7467572424109
 30
0.0
  0
SPLINE
  5
CEA
100
AcDbEntity
  8
ALPHA
100
AcDbSpline
210
0.0
220
1.0
230
0.0
 70
    24
 71
     3
 72
     8
 73
     4
 74
     0
 42
0.0000001
 43
0.0000001
 40
7.0
 40
7.0
 40
7.0
 40
7.0
 40
8.0
 40
8.0
 40
8.0
 40
8.0
 10
118.6188011929326
 20
31.55817197629772
 30
0.0
 10
118.6188011929326
 20
31.55817197629772
 30
0.0
 10
59.39791596954404
 20
31.55817197629772
 30
0.0
 10
59.39791596954404
 20
31.55817197629772
 30
0.0
  0
POLYLINE
  5
CEB
100
AcDbEntity
  8
ALPHA
100
AcDb2dPolyline
 66
     1
 10
0.0
 20
0.0
 30
0.0
  0
VERTEX
  5
CEC
100
AcDbEntity
  8
ALPHA
100
AcDbVertex
100
AcDb2dVertex
 10
87.330712
 20
221.56362
 30
0.0
  0
VERTEX
  5
CED
100
AcDbEntity
  8
ALPHA
100
AcDbVertex
100
AcDb2dVertex
 10
91.800437
 20
221.56362
 30
0.0
  0
VERTEX
  5
CEE
100
AcDbEntity
  8
ALPHA
100
AcDbVertex
100
AcDb2dVertex
 10
91.800437
 20
194.746757
 30
0.0
  0
VERTEX
  5
CEF
100
AcDbEntity
  8
ALPHA
100
AcDbVertex
100
AcDb2dVertex
 10
87.330712
 20
194.746757
 30
0.0
  0
SEQEND
  5
CF0
100
AcDbEntity
  8
ALPHA
  0
POLYLINE
  5
CF1
100
AcDbEntity
  8
ALPHA
100
AcDb2dPolyline
 66
     1
 10
0.0
 20
0.0
 30
0.0
  0
VERTEX
  5
CF2
100
AcDbEntity
  8
ALPHA
100
AcDbVertex
100
AcDb2dVertex
 10
108.702905
 20
217.093894
 30
0.0
  0
VERTEX
  5
CF3
100
AcDbEntity
  8
ALPHA
100
AcDbVertex
100
AcDb2dVertex
 10
101.998317
 20
217.093894
 30
0.0
  0
VERTEX
  5
CF4
100
AcDbEntity
  8
ALPHA
100
AcDbVertex
100
AcDb2dVertex
 10
101.998317
 20
194.746757
 30
0.0
  0
SEQEND
  5
CF5
100
AcDbEntity
  8
ALPHA
  0
SPLINE
  5
CF6
100
AcDbEntity
  8
ALPHA
100
AcDbSpline
210
0.0
220
1.0
230
0.0
 70
    24
 71
     3
 72
     8
 73
     4
 74
     0
 42
0.0000001
 43
0.0000001
 40
0.4999883674373681
 40
0.4999883674373681
 40
0.4999883674373681
 40
0.4999883674373681
 40
1.0
 40
1.0
 40
1.0
 40
1.0
 10
87.33071197314757
 20
345.5579025518593
 30
0.0
 10
91.71842123436722
 20
345.5579025518593
 30
0.0
 10
96.10623257856742
 20
345.5579025518593
 30
0.0
 10
96.10623257856742
 20
345.5579025518593
 30
0.0
  0
SPLINE
  5
CF7
100
AcDbEntity
  8
ALPHA
100
AcDbSpline
210
0.0
220
0.0
230
1.0
 70
     8
 71
     3
 72
     8
 73
     4
 74
     0
 42
0.0000001
 43
0.0000001
 40
1.0
 40
1.0
 40
1.0
 40
1.0
 40
2.0
 40
2.0
 40
2.0
 40
2.0
 10
96.10623257856742
 20
345.5579025518593
 30
0.0
 10
97.80712875776657
 20
345.5579025518593
 30
0.0
 10
99.4690273173369
 20
343.8885044500527
 30
0.0
 10
99.4690273173369
 20
343.0373064062294
 30
0.0
  0
SPLINE
  5
CF8
100
AcDbEntity
  8
ALPHA
100
AcDbSpline
210
-1.0
220
0.0
230
0.0
 70
    24
 71
     3
 72
     8
 73
     4
 74
     0
 42
0.0000001
 43
0.0000001
 40
2.0
 40
2.0
 40
2.0
 40
2.0
 40
3.0
 40
3.0
 40
3.0
 40
3.0
 10
99.4690273173369
 20
343.0373064062294
 30
0.0
 10
99.4690273173369
 20
343.0373064062294
 30
0.0
 10
99.4690273173369
 20
342.3405989324744
 30
0.0
 10
99.4690273173369
 20
342.3405989324744
 30
0.0
  0
SPLINE
  5
CF9
100
AcDbEntity
  8
ALPHA
100
AcDbSpline
210
0.0
220
0.0
230
1.0
 70
     8
 71
     3
 72
     8
 73
     4
 74
     0
 42
0.0000001
 43
0.0000001
 40
3.0
 40
3.0
 40
3.0
 40
3.0
 40
4.0
 40
4.0
 40
4.0
 40
4.0
 10
99.4690273173369
 20
342.3405989324744
 30
0.0
 10
99.4690273173369
 20
341.4894008886513
 30
0.0
 10
97.80712875776657
 20
340.5189601232702
 30
0.0
 10
96.10623257856742
 20
340.5189601232702
 30
0.0
  0
SPLINE
  5
CFA
100
AcDbEntity
  8
ALPHA
100
AcDbSpline
210
0.0
220
1.0
230
0.0
 70
    24
 71
     3
 72
     8
 73
     4
 74
     0
 42
0.0000001
 43
0.0000001
 40
4.0
 40
4.0
 40
4.0
 40
4.0
 40
4.50001163256263
 40
4.50001163256263
 40
4.50001163256263
 40
4.50001163256263
 10
96.10623257856742
 20
340.5189601232702
 30
0.0
 10
96.10623257856742
 20
340.5189601232702
 30
0.0
 10
91.71842123436727
 20
340.5189601232702
 30
0.0
 10
87.33071197314762
 20
340.5189601232702
 30
0.0
  0
SPLINE
  5
CFB
100
AcDbEntity
  8
ALPHA
100
AcDbSpline
210
0.0
220
0.0
230
1.0
 70
     8
 71
     3
 72
    17
 73
    13
 74
     0
 42
0.0000001
 43
0.0000001
 40
0.486302689267912
 40
0.486302689267912
 40
0.486302689267912
 40
0.486302689267912
 40
1.0
 40
1.0
 40
1.0
 40
2.0
 40
2.0
 40
2.0
 40
3.0
 40
3.0
 40
3.0
 40
3.513697310732088
 40
3.513697310732088
 40
3.513697310732088
 40
3.513697310732088
 10
87.33071197314757
 20
327.2485201360877
 30
0.0
 10
92.21662875439312
 20
327.2485201360877
 30
0.0
 10
97.24016336470015
 20
327.2485201360877
 30
0.0
 10
97.24016336470015
 20
327.2485201360877
 30
0.0
 10
99.13304782514956
 20
327.2485201360877
 30
0.0
 10
100.6659542582549
 20
326.098090357035
 30
0.0
 10
100.6659542582549
 20
324.6791769659219
 30
0.0
 10
100.6659542582549
 20
323.2610135290319
 30
0.0
 10
99.13304782514956
 20
322.1075839330849
 30
0.0
 10
97.24016336470015
 20
322.1075839330849
 30
0.0
 10
97.24016336470015
 20
322.1075839330849
 30
0.0
 10
92.21662875439312
 20
322.1075839330849
 30
0.0
 10
87.33071197314757
 20
322.1075839330849
 30
0.0
  0
SPLINE
  5
CFC
100
AcDbEntity
  8
ALPHA
100
AcDbSpline
210
0.0
220
0.0
230
1.0
 70
     8
 71
     3
 72
    17
 73
    13
 74
     0
 42
0.0000001
 43
0.0000001
 40
0.4877451382447836
 40
0.4877451382447836
 40
0.4877451382447836
 40
0.4877451382447836
 40
1.0
 40
1.0
 40
1.0
 40
2.0
 40
2.0
 40
2.0
 40
3.0
 40
3.0
 40
3.0
 40
3.512254861755216
 40
3.512254861755216
 40
3.512254861755216
 40
3.512254861755216
 10
87.33071197314757
 20
308.7793974706824
 30
0.0
 10
92.41134920131031
 20
308.7793974706824
 30
0.0
 10
97.61964020185837
 20
308.7793974706824
 30
0.0
 10
97.61964020185837
 20
308.7793974706824
 30
0.0
 10
99.7195120280303
 20
308.7793974706824
 30
0.0
 10
101.4249079325712
 20
306.9180110876259
 30
0.0
 10
101.4249079325712
 20
305.6565880834753
 30
0.0
 10
101.4249079325712
 20
304.3959150335485
 30
0.0
 10
99.7195120280303
 20
303.3729774725136
 30
0.0
 10
97.61964020185837
 20
303.3729774725136
 30
0.0
 10
97.61964020185837
 20
303.3729774725136
 30
0.0
 10
92.41134920131026
 20
303.3729774725136
 30
0.0
 10
87.33071197314757
 20
303.3729774725136
 30
0.0
  0
SPLINE
  5
CFD
100
AcDbEntity
  8
ALPHA
100
AcDbSpline
210
0.0
220
0.0
230
1.0
 70
     8
 71
     3
 72
    17
 73
    13
 74
     0
 42
0.0000001
 43
0.0000001
 40
0.4873561973750367
 40
0.4873561973750367
 40
0.4873561973750367
 40
0.4873561973750367
 40
1.0
 40
1.0
 40
1.0
 40
2.0
 40
2.0
 40
2.0
 40
3.0
 40
3.0
 40
3.0
 40
3.512643802624963
 40
3.512643802624963
 40
3.512643802624963
 40
3.512643802624963
 10
87.33071197314757
 20
290.0245422460729
 30
0.0
 10
93.27180590279931
 20
290.0245422460729
 30
0.0
 10
99.36703354292298
 20
290.0245422460729
 30
0.0
 10
99.36703354292298
 20
290.0245422460729
 30
0.0
 10
102.3203532755889
 20
290.0245422460729
 30
0.0
 10
104.7202067912138
 20
288.5853800909217
 30
0.0
 10
104.7202067912138
 20
286.8109883978065
 30
0.0
 10
104.7202067912138
 20
285.0418463842565
 30
0.0
 10
102.3203532755889
 20
283.5996844122107
 30
0.0
 10
99.36703354292298
 20
283.5996844122107
 30
0.0
 10
99.36703354292298
 20
283.5996844122107
 30
0.0
 10
93.27180590279931
 20
283.5996844122107
 30
0.0
 10
87.33071197314757
 20
283.5996844122107
 30
0.0
  0
SPLINE
  5
CFE
100
AcDbEntity
  8
ALPHA
100
AcDbSpline
210
0.0
220
0.0
230
-1.0
 70
     8
 71
     3
 72
    32
 73
    28
 74
     0
 42
0.0000001
 43
0.0000001
 40
8.467681114078978
 40
8.467681114078978
 40
8.467681114078978
 40
8.467681114078978
 40
9.0
 40
9.0
 40
9.0
 40
10.0
 40
10.0
 40
10.0
 40
11.0
 40
11.0
 40
11.0
 40
12.0
 40
12.0
 40
12.0
 40
13.0
 40
13.0
 40
13.0
 40
14.0
 40
14.0
 40
14.0
 40
15.0
 40
15.0
 40
15.0
 40
16.0
 40
16.0
 40
16.0
 40
17.0
 40
17.0
 40
17.0
 40
17.0
 10
87.33071197314757
 20
221.563620371073
 30
0.0
 10
96.51165917664821
 20
221.563620371073
 30
0.0
 10
106.3270514675909
 20
221.563620371073
 30
0.0
 10
106.3270514675909
 20
221.563620371073
 30
0.0
 10
107.5599762112432
 20
221.563620371073
 30
0.0
 10
108.5619150540167
 20
220.5631814367468
 30
0.0
 10
108.5619150540167
 20
219.3287567846474
 30
0.0
 10
108.5619150540167
 20
219.3287567846474
 30
0.0
 10
108.5619150540167
 20
217.0938931982215
 30
0.0
 10
108.5619150540167
 20
217.0938931982215
 30
0.0
 10
108.5619150540167
 20
217.0938931982215
 30
0.0
 10
119.7347330776982
 20
217.0938931982215
 30
0.0
 10
119.7347330776982
 20
217.0938931982215
 30
0.0
 10
120.9691577297978
 20
217.0938931982215
 30
0.0
 10
121.9006008755497
 20
216.0942042181189
 30
0.0
 10
121.9006008755497
 20
214.8590296117959
 30
0.0
 10
121.9006008755497
 20
214.8590296117959
 30
0.0
 10
121.9006008755497
 20
209.5508536169229
 30
0.0
 10
121.9006008755497
 20
209.5508536169229
 30
0.0
 10
120.0512137600713
 20
209.5508536169229
 30
0.0
 10
118.6188011929326
 20
207.5709744665321
 30
0.0
 10
118.6188011929326
 20
206.3380497228797
 30
0.0
 10
118.6188011929326
 20
205.1043750250037
 30
0.0
 10
120.1202095486455
 20
202.9865042974646
 30
0.0
 10
121.969596664124
 20
202.9865042974646
 30
0.0
 10
121.969596664124
 20
202.9865042974646
 30
0.0
 10
121.969596664124
 20
194.1887913000281
 30
0.0
 10
121.969596664124
 20
194.1887913000281
 30
0.0
  0
POLYLINE
  5
CFF
100
AcDbEntity
  8
ALPHA
100
AcDb2dPolyline
 66
     1
 10
0.0
 20
0.0
 30
0.0
  0
VERTEX
  5
D00
100
AcDbEntity
  8
ALPHA
100
AcDbVertex
100
AcDb2dVertex
 10
97.065269
 20
327.24852
 30
0.0
  0
VERTEX
  5
D01
100
AcDbEntity
  8
ALPHA
100
AcDbVertex
100
AcDb2dVertex
 10
96.647298
 20
340.550771
 30
0.0
  0
SEQEND
  5
D02
100
AcDbEntity
  8
ALPHA
  0
POLYLINE
  5
D03
100
AcDbEntity
  8
ALPHA
100
AcDb2dPolyline
 66
     1
 10
0.0
 20
0.0
 30
0.0
  0
VERTEX
  5
D04
100
AcDbEntity
  8
ALPHA
100
AcDbVertex
100
AcDb2dVertex
 10
98.329827
 20
308.708618
 30
0.0
  0
VERTEX
  5
D05
100
AcDbEntity
  8
ALPHA
100
AcDbVertex
100
AcDb2dVertex
 10
98.329098
 20
308.736649
 30
0.0
  0
VERTEX
  5
D06
100
AcDbEntity
  8
ALPHA
100
AcDbVertex
100
AcDb2dVertex
 10
97.34931
 20
322.108866
 30
0.0
  0
SEQEND
  5
D07
100
AcDbEntity
  8
ALPHA
  0
POLYLINE
  5
D08
100
AcDbEntity
  8
ALPHA
100
AcDb2dPolyline
 66
     1
 10
0.0
 20
0.0
 30
0.0
  0
VERTEX
  5
D09
100
AcDbEntity
  8
ALPHA
100
AcDbVertex
100
AcDb2dVertex
 10
99.869576
 20
290.010537
 30
0.0
  0
VERTEX
  5
D0A
100
AcDbEntity
  8
ALPHA
100
AcDbVertex
100
AcDb2dVertex
 10
99.863503
 20
290.159533
 30
0.0
  0
VERTEX
  5
D0B
100
AcDbEntity
  8
ALPHA
100
AcDbVertex
100
AcDb2dVertex
 10
98.46709
 20
303.428474
 30
0.0
  0
VERTEX
  5
D0C
100
AcDbEntity
  8
ALPHA
100
AcDbVertex
100
AcDb2dVertex
 10
98.467053
 20
303.429908
 30
0.0
  0
SEQEND
  5
D0D
100
AcDbEntity
  8
ALPHA
  0
POLYLINE
  5
D0E
100
AcDbEntity
  8
ALPHA
100
AcDb2dPolyline
 66
     1
 10
0.0
 20
0.0
 30
0.0
  0
VERTEX
  5
D0F
100
AcDbEntity
  8
ALPHA
100
AcDbVertex
100
AcDb2dVertex
 10
106.894584
 20
221.490813
 30
0.0
  0
VERTEX
  5
D10
100
AcDbEntity
  8
ALPHA
100
AcDbVertex
100
AcDb2dVertex
 10
101.5389
 20
263.342671
 30
0.0
  0
VERTEX
  5
D11
100
AcDbEntity
  8
ALPHA
100
AcDbVertex
100
AcDb2dVertex
 10
100.129577
 20
283.632169
 30
0.0
  0
SEQEND
  5
D12
100
AcDbEntity
  8
ALPHA
  0
DIMENSION
  5
D13
100
AcDbEntity
  8
COTATION1
100
AcDbDimension
  2
*D1
 10
164.010322
 20
345.557903
 30
0.0
 11
164.010322
 21
188.558037
 31
0.0
 70
    32
  3
SC_DEFAUT
100
AcDbAlignedDimension
 13
118.618801
 23
31.558172
 33
0.0
 14
96.106233
 24
345.557903
 34
0.0
 50
90.0
100
AcDbRotatedDimension
  0
SPLINE
  5
D14
100
AcDbEntity
  8
ALPHA
100
AcDbSpline
210
0.0
220
0.0
230
-1.0
 70
     8
 71
     3
 72
     8
 73
     4
 74
     0
 42
0.0000001
 43
0.0000001
 40
0.0
 40
0.0
 40
0.0
 40
0.0
 40
1.0
 40
1.0
 40
1.0
 40
1.0
 10
118.6208678649024
 20
31.55817197629772
 30
0.0
 10
123.5570665648536
 20
31.55817197629772
 30
0.0
 10
129.0103222106056
 20
36.06089713498914
 30
0.0
 10
129.0103222106056
 20
41.61355820676641
 30
0.0
  0
SPLINE
  5
D15
100
AcDbEntity
  8
ALPHA
100
AcDbSpline
210
-1.0
220
0.0
230
0.0
 70
    24
 71
     3
 72
     8
 73
     4
 74
     0
 42
0.0000001
 43
0.0000001
 40
1.0
 40
1.0
 40
1.0
 40
1.0
 40
2.0
 40
2.0
 40
2.0
 40
2.0
 10
129.0103222106056
 20
41.61355820676641
 30
0.0
 10
129.0103222106056
 20
41.61355820676641
 30
0.0
 10
129.0103222106056
 20
184.6913710119421
 30
0.0
 10
129.0103222106056
 20
184.6913710119421
 30
0.0
  0
SPLINE
  5
D16
100
AcDbEntity
  8
ALPHA
100
AcDbSpline
210
0.0
220
0.0
230
-1.0
 70
     8
 71
     3
 72
     8
 73
     4
 74
     0
 42
0.0000001
 43
0.0000001
 40
2.0
 40
2.0
 40
2.0
 40
2.0
 40
3.0
 40
3.0
 40
3.0
 40
3.0
 10
129.0103222106056
 20
184.6913710119421
 30
0.0
 10
128.956325506504
 20
191.6411968023475
 30
0.0
 10
123.7415553038671
 20
194.7467572424109
 30
0.0
 10
118.6208678649024
 20
194.7467572424109
 30
0.0
  0
DIMENSION
  5
D17
100
AcDbEntity
  8
COTATION1
100
AcDbDimension
  2
*D2
 10
49.008462
 20
6.558172
 30
0.0
 11
89.009392
 21
9.808172
 31
0.0
 70
    32
  3
SC_DEFAUT
100
AcDbAlignedDimension
 13
129.010322
 23
41.613558
 33
0.0
 14
49.008462
 24
41.613558
 34
0.0
100
AcDbRotatedDimension
  0
DIMENSION
  5
D18
100
AcDbEntity
  8
COTATION1
100
AcDbDimension
  2
*D3
 10
154.010322
 20
221.56362
 30
0.0
 11
154.010322
 21
126.560896
 31
0.0
 70
    32
  3
SC_DEFAUT
100
AcDbAlignedDimension
 13
118.620868
 23
31.558172
 33
0.0
 14
106.328976
 24
221.56362
 34
0.0
 50
90.0
100
AcDbRotatedDimension
  0
DIMENSION
  5
D19
100
AcDbEntity
  8
COTATION1
100
AcDbDimension
  2
*D4
 10
29.008462
 20
146.948754
 30
0.0
 11
29.008462
 21
131.948754
 31
0.0
 70
    32
  3
SC_DEFAUT
100
AcDbAlignedDimension
 13
72.274577
 23
116.948754
 33
0.0
 14
39.008462
 24
146.948754
 34
0.0
 50
90.0
100
AcDbRotatedDimension
  0
CIRCLE
  5
D1A
100
AcDbEntity
  8
ALPHA
100
AcDbCircle
 10
87.330712
 20
86.922672
 30
0.0
 40
12.5
  0
CIRCLE
  5
D1B
100
AcDbEntity
  8
ALPHA
100
AcDbCircle
 10
87.330712
 20
146.948754
 30
0.0
 40
15.0
  0
LINE
  5
D1C
100
AcDbEntity
  8
AXE
100
AcDbLine
 10
87.330712
 20
16.558172
 30
0.0
 11
87.330712
 21
355.557903
 31
0.0
  0
TEXT
  5
D1D
100
AcDbEntity
  8
AXE
100
AcDbText
 10
79.854521
 20
16.558172
 30
0.0
 40
8.0
  1
Y
  7
ROMANS
 72
     2
 11
86.330712
 21
16.558172
 31
0.0
100
AcDbText
  0
LINE
  5
D1E
100
AcDbEntity
  8
AXE
100
AcDbLine
 10
39.008462
 20
146.948754
 30
0.0
 11
144.010322
 21
146.948754
 31
0.0
  0
TEXT
  5
D1F
100
AcDbEntity
  8
AXE
100
AcDbText
 10
137.534132
 20
147.948754
 30
0.0
 40
8.0
  1
X
  7
ROMANS
 72
     2
 11
144.010322
 21
147.948754
 31
0.0
100
AcDbText
  0
POLYLINE
  5
D20
100
AcDbEntity
  8
ALPHA
100
AcDb2dPolyline
 66
     1
 10
0.0
 20
0.0
 30
0.0
  0
VERTEX
  5
D21
100
AcDbEntity
  8
ALPHA
100
AcDbVertex
100
AcDb2dVertex
 10
87.330712
 20
221.56362
 30
0.0
  0
VERTEX
  5
D22
100
AcDbEntity
  8
ALPHA
100
AcDbVertex
100
AcDb2dVertex
 10
82.860987
 20
221.56362
 30
0.0
  0
VERTEX
  5
D23
100
AcDbEntity
  8
ALPHA
100
AcDbVertex
100
AcDb2dVertex
 10
82.860987
 20
194.746757
 30
0.0
  0
VERTEX
  5
D24
100
AcDbEntity
  8
ALPHA
100
AcDbVertex
100
AcDb2dVertex
 10
87.330712
 20
194.746757
 30
0.0
  0
SEQEND
  5
D25
100
AcDbEntity
  8
ALPHA
  0
POLYLINE
  5
D26
100
AcDbEntity
  8
ALPHA
100
AcDb2dPolyline
 66
     1
 10
0.0
 20
0.0
 30
0.0
  0
VERTEX
  5
D27
100
AcDbEntity
  8
ALPHA
100
AcDbVertex
100
AcDb2dVertex
 10
65.958519
 20
217.093894
 30
0.0
  0
VERTEX
  5
D28
100
AcDbEntity
  8
ALPHA
100
AcDbVertex
100
AcDb2dVertex
 10
72.663107
 20
217.093894
 30
0.0
  0
VERTEX
  5
D29
100
AcDbEntity
  8
ALPHA
100
AcDbVertex
100
AcDb2dVertex
 10
72.663107
 20
194.746757
 30
0.0
  0
SEQEND
  5
D2A
100
AcDbEntity
  8
ALPHA
  0
SPLINE
  5
D2B
100
AcDbEntity
  8
ALPHA
100
AcDbSpline
210
0.0
220
1.0
230
0.0
 70
    24
 71
     3
 72
     8
 73
     4
 74
     0
 42
0.0000001
 43
0.0000001
 40
0.4999883674373681
 40
0.4999883674373681
 40
0.4999883674373681
 40
0.4999883674373681
 40
1.0
 40
1.0
 40
1.0
 40
1.0
 10
87.33071197314751
 20
345.5579025518593
 30
0.0
 10
82.94300271192787
 20
345.5579025518593
 30
0.0
 10
78.55519136772773
 20
345.5579025518593
 30
0.0
 10
78.55519136772773
 20
345.5579025518593
 30
0.0
  0
SPLINE
  5
D2C
100
AcDbEntity
  8
ALPHA
100
AcDbSpline
210
0.0
220
0.0
230
1.0
 70
     8
 71
     3
 72
     8
 73
     4
 74
     0
 42
0.0000001
 43
0.0000001
 40
1.0
 40
1.0
 40
1.0
 40
1.0
 40
2.0
 40
2.0
 40
2.0
 40
2.0
 10
78.55519136772773
 20
345.5579025518593
 30
0.0
 10
76.85429518852846
 20
345.5579025518593
 30
0.0
 10
75.19239662895813
 20
343.8885044500527
 30
0.0
 10
75.19239662895813
 20
343.0373064062294
 30
0.0
  0
SPLINE
  5
D2D
100
AcDbEntity
  8
ALPHA
100
AcDbSpline
210
-1.0
220
0.0
230
0.0
 70
    24
 71
     3
 72
     8
 73
     4
 74
     0
 42
0.0000001
 43
0.0000001
 40
2.0
 40
2.0
 40
2.0
 40
2.0
 40
3.0
 40
3.0
 40
3.0
 40
3.0
 10
75.19239662895813
 20
343.0373064062294
 30
0.0
 10
75.19239662895813
 20
343.0373064062294
 30
0.0
 10
75.19239662895813
 20
342.3405989324744
 30
0.0
 10
75.19239662895813
 20
342.3405989324744
 30
0.0
  0
SPLINE
  5
D2E
100
AcDbEntity
  8
ALPHA
100
AcDbSpline
210
0.0
220
0.0
230
1.0
 70
     8
 71
     3
 72
     8
 73
     4
 74
     0
 42
0.0000001
 43
0.0000001
 40
3.0
 40
3.0
 40
3.0
 40
3.0
 40
4.0
 40
4.0
 40
4.0
 40
4.0
 10
75.19239662895813
 20
342.3405989324744
 30
0.0
 10
75.19239662895813
 20
341.4894008886513
 30
0.0
 10
76.85429518852846
 20
340.5189601232702
 30
0.0
 10
78.55519136772773
 20
340.5189601232702
 30
0.0
  0
SPLINE
  5
D2F
100
AcDbEntity
  8
ALPHA
100
AcDbSpline
210
0.0
220
1.0
230
0.0
 70
    24
 71
     3
 72
     8
 73
     4
 74
     0
 42
0.0000001
 43
0.0000001
 40
4.0
 40
4.0
 40
4.0
 40
4.0
 40
4.50001163256263
 40
4.50001163256263
 40
4.50001163256263
 40
4.50001163256263
 10
78.55519136772773
 20
340.5189601232702
 30
0.0
 10
78.55519136772773
 20
340.5189601232702
 30
0.0
 10
82.94300271192787
 20
340.5189601232702
 30
0.0
 10
87.33071197314746
 20
340.5189601232702
 30
0.0
  0
SPLINE
  5
D30
100
AcDbEntity
  8
ALPHA
100
AcDbSpline
210
0.0
220
0.0
230
1.0
 70
     8
 71
     3
 72
    17
 73
    13
 74
     0
 42
0.0000001
 43
0.0000001
 40
0.486302689267912
 40
0.486302689267912
 40
0.486302689267912
 40
0.486302689267912
 40
1.0
 40
1.0
 40
1.0
 40
2.0
 40
2.0
 40
2.0
 40
3.0
 40
3.0
 40
3.0
 40
3.513697310732088
 40
3.513697310732088
 40
3.513697310732088
 40
3.513697310732088
 10
87.33071197314757
 20
327.2485201360877
 30
0.0
 10
82.44479519190202
 20
327.2485201360877
 30
0.0
 10
77.42126058159488
 20
327.2485201360877
 30
0.0
 10
77.42126058159488
 20
327.2485201360877
 30
0.0
 10
75.52837612114558
 20
327.2485201360877
 30
0.0
 10
73.9954696880402
 20
326.098090357035
 30
0.0
 10
73.9954696880402
 20
324.6791769659219
 30
0.0
 10
73.9954696880402
 20
323.2610135290319
 30
0.0
 10
75.52837612114558
 20
322.1075839330849
 30
0.0
 10
77.42126058159488
 20
322.1075839330849
 30
0.0
 10
77.42126058159488
 20
322.1075839330849
 30
0.0
 10
82.44479519190202
 20
322.1075839330849
 30
0.0
 10
87.33071197314757
 20
322.1075839330849
 30
0.0
  0
SPLINE
  5
D31
100
AcDbEntity
  8
ALPHA
100
AcDbSpline
210
0.0
220
0.0
230
1.0
 70
     8
 71
     3
 72
    17
 73
    13
 74
     0
 42
0.0000001
 43
0.0000001
 40
0.4877451382447836
 40
0.4877451382447836
 40
0.4877451382447836
 40
0.4877451382447836
 40
1.0
 40
1.0
 40
1.0
 40
2.0
 40
2.0
 40
2.0
 40
3.0
 40
3.0
 40
3.0
 40
3.512254861755216
 40
3.512254861755216
 40
3.512254861755216
 40
3.512254861755216
 10
87.33071197314757
 20
308.7793974706824
 30
0.0
 10
82.25007474498477
 20
308.7793974706824
 30
0.0
 10
77.04178374443677
 20
308.7793974706824
 30
0.0
 10
77.04178374443677
 20
308.7793974706824
 30
0.0
 10
74.94191191826485
 20
308.7793974706824
 30
0.0
 10
73.23651601372382
 20
306.9180110876259
 30
0.0
 10
73.23651601372382
 20
305.6565880834753
 30
0.0
 10
73.23651601372382
 20
304.3959150335485
 30
0.0
 10
74.94191191826485
 20
303.3729774725136
 30
0.0
 10
77.04178374443677
 20
303.3729774725136
 30
0.0
 10
77.04178374443677
 20
303.3729774725136
 30
0.0
 10
82.25007474498477
 20
303.3729774725136
 30
0.0
 10
87.33071197314757
 20
303.3729774725136
 30
0.0
  0
SPLINE
  5
D32
100
AcDbEntity
  8
ALPHA
100
AcDbSpline
210
0.0
220
0.0
230
1.0
 70
     8
 71
     3
 72
    17
 73
    13
 74
     0
 42
0.0000001
 43
0.0000001
 40
0.4873561973750367
 40
0.4873561973750367
 40
0.4873561973750367
 40
0.4873561973750367
 40
1.0
 40
1.0
 40
1.0
 40
2.0
 40
2.0
 40
2.0
 40
3.0
 40
3.0
 40
3.0
 40
3.512643802624963
 40
3.512643802624963
 40
3.512643802624963
 40
3.512643802624963
 10
87.33071197314757
 20
290.0245422460729
 30
0.0
 10
81.38961804349582
 20
290.0245422460729
 30
0.0
 10
75.29439040337218
 20
290.0245422460729
 30
0.0
 10
75.29439040337218
 20
290.0245422460729
 30
0.0
 10
72.34107067070613
 20
290.0245422460729
 30
0.0
 10
69.94121715508123
 20
288.5853800909217
 30
0.0
 10
69.94121715508123
 20
286.8109883978065
 30
0.0
 10
69.94121715508123
 20
285.0418463842565
 30
0.0
 10
72.34107067070613
 20
283.5996844122107
 30
0.0
 10
75.29439040337218
 20
283.5996844122107
 30
0.0
 10
75.29439040337218
 20
283.5996844122107
 30
0.0
 10
81.38961804349582
 20
283.5996844122107
 30
0.0
 10
87.33071197314757
 20
283.5996844122107
 30
0.0
  0
SPLINE
  5
D33
100
AcDbEntity
  8
ALPHA
100
AcDbSpline
210
0.0
220
0.0
230
-1.0
 70
     8
 71
     3
 72
    32
 73
    28
 74
     0
 42
0.0000001
 43
0.0000001
 40
8.467681114078978
 40
8.467681114078978
 40
8.467681114078978
 40
8.467681114078978
 40
9.0
 40
9.0
 40
9.0
 40
10.0
 40
10.0
 40
10.0
 40
11.0
 40
11.0
 40
11.0
 40
12.0
 40
12.0
 40
12.0
 40
13.0
 40
13.0
 40
13.0
 40
14.0
 40
14.0
 40
14.0
 40
15.0
 40
15.0
 40
15.0
 40
16.0
 40
16.0
 40
16.0
 40
17.0
 40
17.0
 40
17.0
 40
17.0
 10
87.33071197314757
 20
221.563620371073
 30
0.0
 10
78.14976476964694
 20
221.563620371073
 30
0.0
 10
68.33437247870415
 20
221.563620371073
 30
0.0
 10
68.33437247870415
 20
221.563620371073
 30
0.0
 10
67.10144773505186
 20
221.563620371073
 30
0.0
 10
66.09950889227838
 20
220.5631814367468
 30
0.0
 10
66.09950889227838
 20
219.3287567846474
 30
0.0
 10
66.09950889227838
 20
219.3287567846474
 30
0.0
 10
66.09950889227838
 20
217.0938931982215
 30
0.0
 10
66.09950889227838
 20
217.0938931982215
 30
0.0
 10
66.09950889227838
 20
217.0938931982215
 30
0.0
 10
54.92669086859684
 20
217.0938931982215
 30
0.0
 10
54.92669086859684
 20
217.0938931982215
 30
0.0
 10
53.69226621649722
 20
217.0938931982215
 30
0.0
 10
52.76082307074529
 20
216.0942042181189
 30
0.0
 10
52.76082307074529
 20
214.8590296117959
 30
0.0
 10
52.76082307074529
 20
214.8590296117959
 30
0.0
 10
52.76082307074529
 20
209.5508536169229
 30
0.0
 10
52.76082307074529
 20
209.5508536169229
 30
0.0
 10
54.61021018622369
 20
209.5508536169229
 30
0.0
 10
56.04262275336242
 20
207.5709744665321
 30
0.0
 10
56.04262275336242
 20
206.3380497228797
 30
0.0
 10
56.04262275336242
 20
205.1043750250037
 30
0.0
 10
54.54121439764953
 20
202.9865042974646
 30
0.0
 10
52.691827282171
 20
202.9865042974646
 30
0.0
 10
52.691827282171
 20
202.9865042974646
 30
0.0
 10
52.69182728217149
 20
192.6353988280397
 30
0.0
 10
52.69182728217149
 20
192.6353988280397
 30
0.0
  0
POLYLINE
  5
D34
100
AcDbEntity
  8
ALPHA
100
AcDb2dPolyline
 66
     1
 10
0.0
 20
0.0
 30
0.0
  0
VERTEX
  5
D35
100
AcDbEntity
  8
ALPHA
100
AcDbVertex
100
AcDb2dVertex
 10
77.596155
 20
327.24852
 30
0.0
  0
VERTEX
  5
D36
100
AcDbEntity
  8
ALPHA
100
AcDbVertex
100
AcDb2dVertex
 10
78.014126
 20
340.550771
 30
0.0
  0
SEQEND
  5
D37
100
AcDbEntity
  8
ALPHA
  0
POLYLINE
  5
D38
100
AcDbEntity
  8
ALPHA
100
AcDb2dPolyline
 66
     1
 10
0.0
 20
0.0
 30
0.0
  0
VERTEX
  5
D39
100
AcDbEntity
  8
ALPHA
100
AcDbVertex
100
AcDb2dVertex
 10
76.331597
 20
308.708618
 30
0.0
  0
VERTEX
  5
D3A
100
AcDbEntity
  8
ALPHA
100
AcDbVertex
100
AcDb2dVertex
 10
76.332326
 20
308.736649
 30
0.0
  0
VERTEX
  5
D3B
100
AcDbEntity
  8
ALPHA
100
AcDbVertex
100
AcDb2dVertex
 10
77.312114
 20
322.108866
 30
0.0
  0
SEQEND
  5
D3C
100
AcDbEntity
  8
ALPHA
  0
POLYLINE
  5
D3D
100
AcDbEntity
  8
ALPHA
100
AcDb2dPolyline
 66
     1
 10
0.0
 20
0.0
 30
0.0
  0
VERTEX
  5
D3E
100
AcDbEntity
  8
ALPHA
100
AcDbVertex
100
AcDb2dVertex
 10
74.791847
 20
290.010537
 30
0.0
  0
VERTEX
  5
D3F
100
AcDbEntity
  8
ALPHA
100
AcDbVertex
100
AcDb2dVertex
 10
74.797921
 20
290.159533
 30
0.0
  0
VERTEX
  5
D40
100
AcDbEntity
  8
ALPHA
100
AcDbVertex
100
AcDb2dVertex
 10
76.194334
 20
303.428474
 30
0.0
  0
VERTEX
  5
D41
100
AcDbEntity
  8
ALPHA
100
AcDbVertex
100
AcDb2dVertex
 10
76.194371
 20
303.429908
 30
0.0
  0
SEQEND
  5
D42
100
AcDbEntity
  8
ALPHA
  0
POLYLINE
  5
D43
100
AcDbEntity
  8
ALPHA
100
AcDb2dPolyline
 66
     1
 10
0.0
 20
0.0
 30
0.0
  0
VERTEX
  5
D44
100
AcDbEntity
  8
ALPHA
100
AcDbVertex
100
AcDb2dVertex
 10
67.771908
 20
221.592868
 30
0.0
  0
VERTEX
  5
D45
100
AcDbEntity
  8
ALPHA
100
AcDbVertex
100
AcDb2dVertex
 10
73.122524
 20
263.342671
 30
0.0
  0
VERTEX
  5
D46
100
AcDbEntity
  8
ALPHA
100
AcDbVertex
100
AcDb2dVertex
 10
74.531847
 20
283.632169
 30
0.0
  0
SEQEND
  5
D47
100
AcDbEntity
  8
ALPHA
  0
LINE
  5
D48
100
AcDbEntity
  8
AXE
100
AcDbLine
 10
72.274577
 20
86.922672
 30
0.0
 11
102.386847
 21
86.922672
 31
0.0
  0
CIRCLE
  5
D49
100
AcDbEntity
  8
ALPHA
100
AcDbCircle
 10
87.330712
 20
116.948754
 30
0.0
 40
12.5
  0
LINE
  5
D4A
100
AcDbEntity
  8
AXE
100
AcDbLine
 10
72.274577
 20
116.948754
 30
0.0
 11
102.386847
 21
116.948754
 31
0.0
  0
ENDSEC
  0
SECTION
  2
OBJECTS
  0
DICTIONARY
  5
19
102
{ACAD_XDICTIONARY
360
E1C
102
}
100
AcDbDictionary
  3
ACAD_COLOR
350
BF
  3
ACAD_GROUP
350
1A
  3
ACAD_LAYOUT
350
1E
  3
ACAD_MATERIAL
350
BE
  3
ACAD_MLINESTYLE
350
1B
  3
ACAD_PLOTSETTINGS
350
22
  3
ACAD_PLOTSTYLENAME
350
1F
  3
ACAD_TABLESTYLE
350
C0
  3
ACAD_WIPEOUT_VARS
350
23
  3
ACDBHEADERROUNDTRIPXREC
350
DF8
  3
ACDBVARIABLEDICTIONARY
350
1D2
  0
DICTIONARY
  5
DEE
100
AcDbDictionary
  3
ACAD_XREC_ROUNDTRIP
360
DEF
  0
DICTIONARY
  5
DF0
100
AcDbDictionary
  3
ACAD_XREC_ROUNDTRIP
360
DF1
  0
DICTIONARY
  5
DF2
100
AcDbDictionary
  3
ACAD_XREC_ROUNDTRIP
360
DF3
  0
DICTIONARY
  5
E24
100
AcDbDictionary
  3
ACAD_XREC_ROUNDTRIP
360
E25
  0
DICTIONARY
  5
DF4
100
AcDbDictionary
  3
ACAD_XREC_ROUNDTRIP
360
DF5
  0
DICTIONARY
  5
DEC
100
AcDbDictionary
  3
ACAD_XREC_ROUNDTRIP
360
DED
  0
DICTIONARY
  5
E26
100
AcDbDictionary
  3
ACAD_XREC_ROUNDTRIP
360
E27
  0
DICTIONARY
  5
1B0
100
AcDbDictionary
  3
ACAD_LAYOUTSELFREF
360
E19
  3
ACAD_SORTENTS
360
1B1
  0
DICTIONARY
  5
E1A
100
AcDbDictionary
  3
ACAD_LAYOUTSELFREF
360
E1B
  0
DICTIONARY
  5
E1C
100
AcDbDictionary
  3
ACAD_XREC_ROUNDTRIP
360
E1D
  0
DICTIONARY
  5
BF
102
{ACAD_REACTORS
330
19
102
}
100
AcDbDictionary
  0
DICTIONARY
  5
1A
102
{ACAD_REACTORS
330
19
102
}
100
AcDbDictionary
  0
DICTIONARY
  5
1E
102
{ACAD_XDICTIONARY
360
E20
102
}
102
{ACAD_REACTORS
330
19
102
}
100
AcDbDictionary
  3
LAYOUT1
350
21
  3
MODEL
350
20
  0
DICTIONARY
  5
BE
102
{ACAD_REACTORS
330
19
102
}
100
AcDbDictionary
  0
DICTIONARY
  5
1B
102
{ACAD_XDICTIONARY
360
E1E
102
}
102
{ACAD_REACTORS
330
19
102
}
100
AcDbDictionary
  3
STANDARD
350
1C
  0
DICTIONARY
  5
22
102
{ACAD_REACTORS
330
19
102
}
100
AcDbDictionary
  0
ACAD_ZOMBIE_OBJECT
  5
1F
102
{ACAD_REACTORS
330
19
102
}
100
AcDbZombieObject
 90
      499
 91
      517
 93
       86
310
405010041939BDC9B585B2
350
1D
340
1D
 94
        0
  0
DICTIONARY
  5
C0
102
{ACAD_XDICTIONARY
360
E22
102
}
102
{ACAD_REACTORS
330
19
102
}
100
AcDbDictionary
  3
STANDARD
350
C1
  0
ACAD_ZOMBIE_OBJECT
  5
23
102
{ACAD_REACTORS
330
19
102
}
100
AcDbZombieObject
 90
      499
 91
      525
 93
       10
310
4040
 94
        0
1001
ACAD
1000
AcadProxyRoundTripData
1071
      521
1071
   851991
1070
     0
  0
DICTIONARY
  5
DF8
102
{ACAD_REACTORS
330
19
102
}
100
AcDbDictionary
  3
CEPSNTYPE
350
E02
  3
DIMSTYLEDATA
350
E06
  3
FINGERPRINTGUID
350
E03
  3
HYPERLINKBASE
350
DFB
  3
INSUNITS
350
E01
  3
LAYOUTDICT
350
DFD
  3
LWETCUNION
350
E00
  3
PLOTSETDICT
350
DFE
  3
PLOTSTYLNAMDICT
350
DFF
  3
PSVPSCALE
350
E05
  3
PUCSBASE
350
E09
  3
PUCSORGBACK
350
E0F
  3
PUCSORGBOTTOM
350
E0B
  3
PUCSORGFRONT
350
E0E
  3
PUCSORGLEFT
350
E0C
  3
PUCSORGRIGHT
350
E0D
  3
PUCSORGTOP
350
E0A
  3
PUCSORTHOREF
350
E07
  3
PUCSORTHOVIEW
350
E08
  3
STYLESHEET
350
DFC
  3
TSTACKALIGN
350
DF9
  3
TSTACKSIZE
350
DFA
  3
UCSBASE
350
E12
  3
UCSORGBACK
350
E18
  3
UCSORGBOTTOM
350
E14
  3
UCSORGFRONT
350
E17
  3
UCSORGLEFT
350
E15
  3
UCSORGRIGHT
350
E16
  3
UCSORGTOP
350
E13
  3
UCSORTHOREF
350
E10
  3
UCSORTHOVIEW
350
E11
  3
VERSIONGUID
350
E04
  0
DICTIONARY
  5
1D2
102
{ACAD_REACTORS
330
19
102
}
100
AcDbDictionary
  3
CTABLESTYLE
350
1D3
  3
DIMASSOC
350
1D4
  3
PROJECTNAME
350
1D5
  0
XRECORD
  5
DEF
102
{ACAD_REACTORS
330
DEE
102
}
100
AcDbXrecord
102
EXTNAMES
  1
BYBLOCK
  2
ByBlock
  0
XRECORD
  5
DF1
102
{ACAD_REACTORS
330
DF0
102
}
100
AcDbXrecord
102
EXTNAMES
  1
BYLAYER
  2
ByLayer
  0
XRECORD
  5
DF3
102
{ACAD_REACTORS
330
DF2
102
}
100
AcDbXrecord
102
EXTNAMES
  1
CONTINUOUS
  2
Continuous
  0
XRECORD
  5
E25
102
{ACAD_REACTORS
330
E24
102
}
100
AcDbXrecord
102
PLOTBIT
280
     0
  0
XRECORD
  5
DF5
102
{ACAD_REACTORS
330
DF4
102
}
100
AcDbXrecord
102
EXTNAMES
  1
STANDARD
  2
Standard
  0
XRECORD
  5
DED
102
{ACAD_REACTORS
330
DEC
102
}
100
AcDbXrecord
102
EXTNAMES
  1
STANDARD
  2
Standard
  0
XRECORD
  5
E27
102
{ACAD_REACTORS
330
E26
102
}
100
AcDbXrecord
102
ACADR14ROUNDTRIP
1000
DSTYLE
1002
{
1070
   279
 70
     2
1070
   341
340
CF
1070
   342
340
CF
1002
}
  0
XRECORD
  5
E19
102
{ACAD_REACTORS
330
1B0
102
}
100
AcDbXrecord
340
A
  0
SORTENTSTABLE
  5
1B1
102
{ACAD_REACTORS
330
1B0
102
}
100
AcDbSortentsTable
330
A
  0
XRECORD
  5
E1B
102
{ACAD_REACTORS
330
E1A
102
}
100
AcDbXrecord
340
B
  0
XRECORD
  5
E1D
102
{ACAD_REACTORS
330
E1C
102
}
100
AcDbXrecord
102
EXTNAMES
  1
ACDBVARIABLEDICTIONARY
  2
AcDbVariableDictionary
  0
DICTIONARY
  5
E20
100
AcDbDictionary
  3
ACAD_XREC_ROUNDTRIP
360
E21
  0
ACAD_ZOMBIE_OBJECT
  5
21
102
{ACAD_XDICTIONARY
360
DE5
102
}
102
{ACAD_REACTORS
330
1E
102
}
100
AcDbZombieObject
 90
      499
 91
      515
 93
      812
310
AAAAAAAAAA5A69074C61796F757431406A800000000000000000000000000000000000000000000A1000000000000008902A6A6A10232D5E076BC5510408CB5781DAF154410232D5E076BC5510408CB5781DAF15C410232D5E076BC5710408CB5781DAF15C40
330
B
330
0
340
0
340
0
 94
        0
  0
ACAD_ZOMBIE_OBJECT
  5
20
102
{ACAD_XDICTIONARY
360
DE3
102
}
102
{ACAD_REACTORS
330
1E
102
}
100
AcDbZombieObject
 90
      499
 91
      515
 93
      420
310
A00012AAAAAAAA5A69054D6F64656CAA80000000000000000000000000000000000000000000000000000000000000002AAAAAAAA0
330
A
330
0
340
0
340
0
 94
        0
  0
DICTIONARY
  5
E1E
100
AcDbDictionary
  3
ACAD_XREC_ROUNDTRIP
360
E1F
  0
MLINESTYLE
  5
1C
102
{ACAD_REACTORS
330
1B
102
}
100
AcDbMlineStyle
  2
STANDARD
 70
     0
  3

 62
     0
 51
90.0
 52
90.0
 71
     2
 49
0.5
 62
   256
  6
BYLAYER
 49
-0.5
 62
   256
  6
BYLAYER
  0
ACAD_ZOMBIE_OBJECT
  5
1D
102
{ACAD_REACTORS
330
1F
102
}
100
AcDbZombieObject
 90
      499
 91
      518
 93
        0
 94
        0
  0
DICTIONARY
  5
E22
100
AcDbDictionary
  3
ACAD_XREC_ROUNDTRIP
360
E23
  0
ACAD_ZOMBIE_OBJECT
  5
C1
102
{ACAD_REACTORS
330
C0
102
}
100
AcDbZombieObject
 90
      499
 91
      525
 93
     1841
310
4214DD185B99185C9928000000000000F83F0000000000003E0FC00000000000004901028000000C1008070000C3001FDFF8000000C1003FBFF000000182007F7FE00000030400FEFFC00000060801FDFF8000000C1003FBFF000000182000000000000000C2020B0000001820100E000186003FBFF000000182007F7FE000
310
00030400FEFFC00000060801FDFF8000000C1003FBFF000000182007F7FE0000003040000000000000012404160000003040201C00030C007F7FE00000030400FEFFC00000060801FDFF8000000C1003FBFF000000182007F7FE00000030400FEFFC000000608000
340
17
340
17
340
17
 94
        0
1001
ACAD
1000
AcadProxyRoundTripData
1071
      524
1071
   851991
1070
     0
  0
XRECORD
  5
E02
102
{ACAD_REACTORS
330
DF8
102
}
100
AcDbXrecord
 90
        0
  0
XRECORD
  5
E06
102
{ACAD_REACTORS
330
DF8
102
}
100
AcDbXrecord
1000
DSTYLE
1002
{
1070
   278
 70
     0
1070
   371
 70
     0
1070
   372
 70
     0
1002
}
  0
XRECORD
  5
E03
102
{ACAD_REACTORS
330
DF8
102
}
100
AcDbXrecord
  1

  0
XRECORD
  5
DFB
102
{ACAD_REACTORS
330
DF8
102
}
100
AcDbXrecord
  1

  0
XRECORD
  5
E01
102
{ACAD_REACTORS
330
DF8
102
}
100
AcDbXrecord
 90
        0
  0
XRECORD
  5
DFD
102
{ACAD_REACTORS
330
DF8
102
}
100
AcDbXrecord
340
1E
  0
XRECORD
  5
E00
102
{ACAD_REACTORS
330
DF8
102
}
100
AcDbXrecord
 90
    10752
  0
XRECORD
  5
DFE
102
{ACAD_REACTORS
330
DF8
102
}
100
AcDbXrecord
340
22
  0
XRECORD
  5
DFF
102
{ACAD_REACTORS
330
DF8
102
}
100
AcDbXrecord
340
1F
  0
XRECORD
  5
E05
102
{ACAD_REACTORS
330
DF8
102
}
100
AcDbXrecord
 40
0.0
  0
XRECORD
  5
E09
102
{ACAD_REACTORS
330
DF8
102
}
100
AcDbXrecord
340
0
  0
XRECORD
  5
E0F
102
{ACAD_REACTORS
330
DF8
102
}
100
AcDbXrecord
 10
0.0
 20
0.0
 30
0.0
  0
XRECORD
  5
E0B
102
{ACAD_REACTORS
330
DF8
102
}
100
AcDbXrecord
 10
0.0
 20
0.0
 30
0.0
  0
XRECORD
  5
E0E
102
{ACAD_REACTORS
330
DF8
102
}
100
AcDbXrecord
 10
0.0
 20
0.0
 30
0.0
  0
XRECORD
  5
E0C
102
{ACAD_REACTORS
330
DF8
102
}
100
AcDbXrecord
 10
0.0
 20
0.0
 30
0.0
  0
XRECORD
  5
E0D
102
{ACAD_REACTORS
330
DF8
102
}
100
AcDbXrecord
 10
0.0
 20
0.0
 30
0.0
  0
XRECORD
  5
E0A
102
{ACAD_REACTORS
330
DF8
102
}
100
AcDbXrecord
 10
0.0
 20
0.0
 30
0.0
  0
XRECORD
  5
E07
102
{ACAD_REACTORS
330
DF8
102
}
100
AcDbXrecord
340
0
  0
XRECORD
  5
E08
102
{ACAD_REACTORS
330
DF8
102
}
100
AcDbXrecord
 70
     0
  0
XRECORD
  5
DFC
102
{ACAD_REACTORS
330
DF8
102
}
100
AcDbXrecord
  1

  0
XRECORD
  5
DF9
102
{ACAD_REACTORS
330
DF8
102
}
100
AcDbXrecord
 90
        1
  0
XRECORD
  5
DFA
102
{ACAD_REACTORS
330
DF8
102
}
100
AcDbXrecord
 90
       70
  0
XRECORD
  5
E12
102
{ACAD_REACTORS
330
DF8
102
}
100
AcDbXrecord
340
0
  0
XRECORD
  5
E18
102
{ACAD_REACTORS
330
DF8
102
}
100
AcDbXrecord
 10
0.0
 20
0.0
 30
0.0
  0
XRECORD
  5
E14
102
{ACAD_REACTORS
330
DF8
102
}
100
AcDbXrecord
 10
0.0
 20
0.0
 30
0.0
  0
XRECORD
  5
E17
102
{ACAD_REACTORS
330
DF8
102
}
100
AcDbXrecord
 10
0.0
 20
0.0
 30
0.0
  0
XRECORD
  5
E15
102
{ACAD_REACTORS
330
DF8
102
}
100
AcDbXrecord
 10
0.0
 20
0.0
 30
0.0
  0
XRECORD
  5
E16
102
{ACAD_REACTORS
330
DF8
102
}
100
AcDbXrecord
 10
0.0
 20
0.0
 30
0.0
  0
XRECORD
  5
E13
102
{ACAD_REACTORS
330
DF8
102
}
100
AcDbXrecord
 10
0.0
 20
0.0
 30
0.0
  0
XRECORD
  5
E10
102
{ACAD_REACTORS
330
DF8
102
}
100
AcDbXrecord
340
0
  0
XRECORD
  5
E11
102
{ACAD_REACTORS
330
DF8
102
}
100
AcDbXrecord
 70
     0
  0
XRECORD
  5
E04
102
{ACAD_REACTORS
330
DF8
102
}
100
AcDbXrecord
  1
{35C24415-C7E5-4887-8E98-4BFA7A89715C}
  0
DICTIONARYVAR
  5
1D3
102
{ACAD_REACTORS
330
1D2
102
}
100
DictionaryVariables
280
     0
  1
STANDARD
  0
DICTIONARYVAR
  5
1D4
102
{ACAD_REACTORS
330
1D2
102
}
100
DictionaryVariables
280
     0
  1
1
  0
DICTIONARYVAR
  5
1D5
102
{ACAD_REACTORS
330
1D2
102
}
100
DictionaryVariables
280
     0
  1

  0
XRECORD
  5
E21
102
{ACAD_REACTORS
330
E20
102
}
100
AcDbXrecord
102
EXTNAMES
  1
LAYOUT1
  2
Layout1
  1
MODEL
  2
Model
  0
DICTIONARY
  5
DE5
100
AcDbDictionary
  3
ACAD_XREC_ROUNDTRIP
360
DE6
  0
DICTIONARY
  5
DE3
100
AcDbDictionary
  3
ACAD_XREC_ROUNDTRIP
360
DE4
  0
XRECORD
  5
E1F
102
{ACAD_REACTORS
330
E1E
102
}
100
AcDbXrecord
102
EXTNAMES
  1
STANDARD
  2
Standard
  0
XRECORD
  5
E23
102
{ACAD_REACTORS
330
E22
102
}
100
AcDbXrecord
102
EXTNAMES
  1
STANDARD
  2
Standard
  0
XRECORD
  5
DE6
102
{ACAD_REACTORS
330
DE5
102
}
100
AcDbXrecord
102
SHADEPLOT
 70
     0
102
SHADEPLOTRESLEVEL
 70
     2
102
SHADEPLOTCUSTOMDPI
 70
   300
  0
XRECORD
  5
DE4
102
{ACAD_REACTORS
330
DE3
102
}
100
AcDbXrecord
102
SHADEPLOT
 70
     0
102
SHADEPLOTRESLEVEL
 70
     2
102
SHADEPLOTCUSTOMDPI
 70
   300
  0
ENDSEC
  0
EOF
