  0
SECTION
  2
HEADER
  9
$ACADVER
  1
AC1009
  9
$INSBASE
 10
-146.27124
 20
-153.796096
 30
0.0
  9
$EXTMIN
 10
1319.648168
 20
85.491586
 30
0.0
  9
$EXTMAX
 10
1467.993026
 20
191.791586
 30
0.0
  9
$LIMMIN
 10
-407.970438
 20
-367.832444
  9
$LIMMAX
 10
429.804077
 20
234.370848
  9
$ORTHOMODE
 70
     1
  9
$REGENMODE
 70
     1
  9
$FILLMODE
 70
     1
  9
$QTEXTMODE
 70
     0
  9
$MIRRTEXT
 70
     1
  9
$DRAGMODE
 70
     2
  9
$LTSCALE
 40
10.0
  9
$OSMODE
 70
    33
  9
$ATTMODE
 70
     1
  9
$TEXTSIZE
 40
6.0
  9
$TRACEWID
 40
1.0
  9
$TEXTSTYLE
  7
ROMANS
  9
$CLAYER
  8
COTATION1
  9
$CELTYPE
  6
BYLAYER
  9
$CECOLOR
 62
   256
  9
$DIMSCALE
 40
1.0
  9
$DIMASZ
 40
3.0
  9
$DIMEXO
 40
1.0
  9
$DIMDLI
 40
0.1
  9
$DIMRND
 40
0.0
  9
$DIMDLE
 40
0.0
  9
$DIMEXE
 40
0.5
  9
$DIMTP
 40
0.0
  9
$DIMTM
 40
0.0
  9
$DIMTXT
 40
3.0
  9
$DIMCEN
 40
0.0
  9
$DIMTSZ
 40
0.0
  9
$DIMTOL
 70
     0
  9
$DIMLIM
 70
     0
  9
$DIMTIH
 70
     0
  9
$DIMTOH
 70
     0
  9
$DIMSE1
 70
     0
  9
$DIMSE2
 70
     0
  9
$DIMTAD
 70
     1
  9
$DIMZIN
 70
    12
  9
$DIMBLK
  1
OPEN30
  9
$DIMASO
 70
     1
  9
$DIMSHO
 70
     1
  9
$DIMPOST
  1

  9
$DIMAPOST
  1

  9
$DIMALT
 70
     0
  9
$DIMALTD
 70
     2
  9
$DIMALTF
 40
25.4
  9
$DIMLFAC
 40
1.0
  9
$DIMTOFL
 70
     0
  9
$DIMTVP
 40
0.0
  9
$DIMTIX
 70
     0
  9
$DIMSOXD
 70
     0
  9
$DIMSAH
 70
     0
  9
$DIMBLK1
  1

  9
$DIMBLK2
  1

  9
$DIMSTYLE
  2
SC_DEFAUT
  9
$DIMCLRD
 70
     0
  9
$DIMCLRE
 70
     0
  9
$DIMCLRT
 70
     0
  9
$DIMTFAC
 40
1.0
  9
$DIMGAP
 40
0.6
  9
$LUNITS
 70
     2
  9
$LUPREC
 70
     1
  9
$SKETCHINC
 40
0.1
  9
$FILLETRAD
 40
2.0
  9
$AUNITS
 70
     0
  9
$AUPREC
 70
     0
  9
$MENU
  1
acad
  9
$ELEVATION
 40
0.0
  9
$PELEVATION
 40
0.0
  9
$THICKNESS
 40
0.0
  9
$LIMCHECK
 70
     0
  9
$BLIPMODE
 70
     0
  9
$CHAMFERA
 40
0.0
  9
$CHAMFERB
 40
0.0
  9
$SKPOLY
 70
     0
  9
$TDCREATE
 40
2450365.355314
  9
$TDUPDATE
 40
2452576.582804
  9
$TDINDWG
 40
1.00472
  9
$TDUSRTIMER
 40
1.00472
  9
$USRTIMER
 70
     1
  9
$ANGBASE
 50
0.0
  9
$ANGDIR
 70
     0
  9
$PDMODE
 70
    32
  9
$PDSIZE
 40
0.0
  9
$PLINEWID
 40
0.0
  9
$COORDS
 70
     2
  9
$SPLFRAME
 70
     0
  9
$SPLINETYPE
 70
     6
  9
$SPLINESEGS
 70
     8
  9
$ATTDIA
 70
     0
  9
$ATTREQ
 70
     1
  9
$HANDLING
 70
     1
  9
$HANDSEED
  5
705D
  9
$SURFTAB1
 70
     6
  9
$SURFTAB2
 70
     6
  9
$SURFTYPE
 70
     6
  9
$SURFU
 70
     6
  9
$SURFV
 70
     6
  9
$UCSNAME
  2

  9
$UCSORG
 10
0.0
 20
0.0
 30
0.0
  9
$UCSXDIR
 10
1.0
 20
0.0
 30
0.0
  9
$UCSYDIR
 10
0.0
 20
1.0
 30
0.0
  9
$PUCSNAME
  2

  9
$PUCSORG
 10
0.0
 20
0.0
 30
0.0
  9
$PUCSXDIR
 10
1.0
 20
0.0
 30
0.0
  9
$PUCSYDIR
 10
0.0
 20
1.0
 30
0.0
  9
$USERI1
 70
     0
  9
$USERI2
 70
     0
  9
$USERI3
 70
     0
  9
$USERI4
 70
     0
  9
$USERI5
 70
     0
  9
$USERR1
 40
0.0
  9
$USERR2
 40
0.0
  9
$USERR3
 40
0.0
  9
$USERR4
 40
0.0
  9
$USERR5
 40
0.0
  9
$WORLDVIEW
 70
     1
  9
$SHADEDGE
 70
     3
  9
$SHADEDIF
 70
    70
  9
$TILEMODE
 70
     1
  9
$MAXACTVP
 70
    16
  9
$PLIMCHECK
 70
     0
  9
$PEXTMIN
 10
1.000000E+020
 20
1.000000E+020
 30
1.000000E+020
  9
$PEXTMAX
 10
-1.000000E+020
 20
-1.000000E+020
 30
-1.000000E+020
  9
$PLIMMIN
 10
0.0
 20
0.0
  9
$PLIMMAX
 10
12.0
 20
9.0
  9
$UNITMODE
 70
     0
  9
$VISRETAIN
 70
     0
  9
$PLINEGEN
 70
     0
  9
$PSLTSCALE
 70
     0
  0
ENDSEC
  0
SECTION
  2
TABLES
  0
TABLE
  2
VPORT
 70
     2
  0
VPORT
  2
*ACTIVE
 70
     0
 10
0.0
 20
0.0
 11
1.0
 21
1.0
 12
1393.840148
 22
138.640962
 13
0.0
 23
0.0
 14
1.0
 24
1.0
 15
10.0
 25
10.0
 16
0.0
 26
0.0
 36
1.0
 17
0.0
 27
0.0
 37
0.0
 40
107.277623
 41
1.63142
 42
50.0
 43
0.0
 44
0.0
 50
0.0
 51
0.0
 71
     0
 72
   100
 73
     1
 74
     0
 75
     0
 76
     0
 77
     0
 78
     0
  0
ENDTAB
  0
TABLE
  2
LTYPE
 70
    25
  0
LTYPE
  2
CONTINUOUS
 70
     0
  3
Solid line
 72
    65
 73
     0
 40
0.0
  0
LTYPE
  2
AXES2
 70
     0
  3
___ _ ___ _ ___ _ ___ _ ___ _ ___ _ ___ _ ___ _
 72
    65
 73
     4
 40
1.125
 49
0.75
 49
-0.125
 49
0.125
 49
-0.125
  0
LTYPE
  2
AXES
 70
     0
  3
____ _ ____ _ ____ _ ____ _ ____ _ ____ _ ____ 
 72
    65
 73
     4
 40
2.0
 49
1.25
 49
-0.25
 49
0.25
 49
-0.25
  0
LTYPE
  2
AXESX2
 70
     0
  3
________  __  ________  __  ________  __  _____
 72
    65
 73
     4
 40
4.0
 49
2.5
 49
-0.5
 49
0.5
 49
-0.5
  0
LTYPE
  2
TIRETPT
 70
     0
  3
__ . __ . __ . __ . __ . __ . __ . __ . __ . __
 72
    65
 73
     4
 40
1.0
 49
0.5
 49
-0.25
 49
0.0
 49
-0.25
  0
LTYPE
  2
TIRETPT2
 70
     0
  3
_._._._._._._._._._._._._._._._._._._._._._._._
 72
    65
 73
     4
 40
0.5
 49
0.25
 49
-0.125
 49
0.0
 49
-0.125
  0
LTYPE
  2
TIRETPTX2
 70
     0
  3
____  .  ____  .  ____  .  ____  .  ____  .  __
 72
    65
 73
     4
 40
2.0
 49
1.0
 49
-0.5
 49
0.0
 49
-0.5
  0
LTYPE
  2
DISCONTINU
 70
     0
  3
__ __ __ __ __ __ __ __ __ __ __ __ __ __ __ __
 72
    65
 73
     2
 40
0.75
 49
0.5
 49
-0.25
  0
LTYPE
  2
DISCONTINU2
 70
     0
  3
_ _ _ _ _ _ _ _ _ _ _ _ _ _ _ _ _ _ _ _ _ _ _ _
 72
    65
 73
     2
 40
0.375
 49
0.25
 49
-0.125
  0
LTYPE
  2
DISCONTINUX2
 70
     0
  3
____  ____  ____  ____  ____  ____  ____  ____ 
 72
    65
 73
     2
 40
1.5
 49
1.0
 49
-0.5
  0
LTYPE
  2
DIVISE
 70
     0
  3
____ . . ____ . . ____ . . ____ . . ____ . . __
 72
    65
 73
     6
 40
1.25
 49
0.5
 49
-0.25
 49
0.0
 49
-0.25
 49
0.0
 49
-0.25
  0
LTYPE
  2
DIVISE2
 70
     0
  3
__..__..__..__..__..__..__..__..__..__..__..__.
 72
    65
 73
     6
 40
0.625
 49
0.25
 49
-0.125
 49
0.0
 49
-0.125
 49
0.0
 49
-0.125
  0
LTYPE
  2
DIVISEX2
 70
     0
  3
________  .  .  ________  .  .  ________  .  . 
 72
    65
 73
     6
 40
2.5
 49
1.0
 49
-0.5
 49
0.0
 49
-0.5
 49
0.0
 49
-0.5
  0
LTYPE
  2
POINTILLE
 70
     0
  3
. . . . . . . . . . . . . . . . . . . . . . . .
 72
    65
 73
     2
 40
0.25
 49
0.0
 49
-0.25
  0
LTYPE
  2
POINTILLE2
 70
     0
  3
...............................................
 72
    65
 73
     2
 40
0.125
 49
0.0
 49
-0.125
  0
LTYPE
  2
POINTILLEX2
 70
     0
  3
.  .  .  .  .  .  .  .  .  .  .  .  .  .  .  . 
 72
    65
 73
     2
 40
0.5
 49
0.0
 49
-0.5
  0
LTYPE
  2
CACHE
 70
     0
  3
__ __ __ __ __ __ __ __ __ __ __ __ __ __ __ __
 72
    65
 73
     2
 40
0.375
 49
0.25
 49
-0.125
  0
LTYPE
  2
CACHE2
 70
     0
  3
_ _ _ _ _ _ _ _ _ _ _ _ _ _ _ _ _ _ _ _ _ _ _ _
 72
    65
 73
     2
 40
0.1875
 49
0.125
 49
-0.0625
  0
LTYPE
  2
CACHEX2
 70
     0
  3
____ ____ ____ ____ ____ ____ ____ ____ ____ __
 72
    65
 73
     2
 40
0.75
 49
0.5
 49
-0.25
  0
LTYPE
  2
FANTOME
 70
     0
  3
______  __  __  ______  __  __  ______  __  __ 
 72
    65
 73
     6
 40
2.5
 49
1.25
 49
-0.25
 49
0.25
 49
-0.25
 49
0.25
 49
-0.25
  0
LTYPE
  2
FANTOME2
 70
     0
  3
___ _ _ ___ _ _ ___ _ _ ___ _ _ ___ _ _ ___ _ _
 72
    65
 73
     6
 40
1.25
 49
0.625
 49
-0.125
 49
0.125
 49
-0.125
 49
0.125
 49
-0.125
  0
LTYPE
  2
FANTOMEX2
 70
     0
  3
____________    ____    ____    ____________   
 72
    65
 73
     6
 40
5.0
 49
2.5
 49
-0.5
 49
0.5
 49
-0.5
 49
0.5
 49
-0.5
  0
LTYPE
  2
0
 70
     0
  3
MEDUSA PEN 0
 72
    65
 73
     0
 40
0.0
  0
LTYPE
  2
AI9-LTYPE1
 70
     0
  3
Illustrator Dash Style No.1
 72
    65
 73
     4
 40
5.64621
 49
4.106333
 49
-0.307975
 49
0.923926
 49
-0.307975
  0
LTYPE
  2
ACAD_ISO04W100
 70
     0
  3
ISO Lang gestrichelt punktiert ____ . ____ . __
 72
    65
 73
     4
 40
30.5
 49
24.0
 49
-3.0
 49
0.5
 49
-3.0
  0
ENDTAB
  0
TABLE
  2
LAYER
 70
    17
  0
LAYER
  2
0
 70
     0
 62
     7
  6
CONTINUOUS
  0
LAYER
  2
TEXTE_MOYEN
 70
     0
 62
   131
  6
CONTINUOUS
  0
LAYER
  2
ALPHA
 70
     0
 62
   254
  6
CONTINUOUS
  0
LAYER
  2
COTATION1
 70
     0
 62
    50
  6
CONTINUOUS
  0
LAYER
  2
AXE
 70
     0
 62
    80
  6
AXES2
  0
LAYER
  2
DEFPOINTS
 70
     0
 62
     7
  6
CONTINUOUS
  0
LAYER
  2
HACHURES1
 70
     0
 62
   130
  6
CONTINUOUS
  0
LAYER
  2
FMULT
 70
     0
 62
   210
  6
CONTINUOUS
  0
LAYER
  2
FDP_CARTOUCHE
 70
     0
 62
   136
  6
CONTINUOUS
  0
LAYER
  2
FDP_TEXTES
 70
     0
 62
   171
  6
CONTINUOUS
  0
LAYER
  2
FDP_LOGO_MG
 70
     0
 62
    30
  6
CONTINUOUS
  0
LAYER
  2
FDP_LOGO_SCH
 70
     0
 62
    90
  6
CONTINUOUS
  0
LAYER
  2
FDP_FDP
 70
     0
 62
   170
  6
CONTINUOUS
  0
LAYER
  2
POINTILLE_COURT2
 70
     0
 62
    41
  6
CACHE2
  0
LAYER
  2
POINTILLE_MOYEN2
 70
     0
 62
   141
  6
CACHE
  0
LAYER
  2
POINTILLE_LONG2
 70
     0
 62
   241
  6
CACHEX2
  0
LAYER
  2
ALPHA_FIN
 70
     0
 62
   255
  6
CONTINUOUS
  0
ENDTAB
  0
TABLE
  2
STYLE
 70
     4
  0
STYLE
  2
ROMANS
 70
     0
 40
0.0
 41
1.0
 50
0.0
 71
     0
 42
6.0
  3
romans
  4

  0
STYLE
  2
STANDARD
 70
     0
 40
0.2
 41
1.0
 50
0.0
 71
     0
 42
0.2
  3
txt
  4

  0
STYLE
  2
CARTOUCHE
 70
     0
 40
0.0
 41
1.0
 50
0.0
 71
     0
 42
0.2
  3
ROMANS.SHX
  4

  0
STYLE
  2
STD
 70
     0
 40
0.0
 41
1.0
 50
0.0
 71
     0
 42
0.0
  3
txt
  4

  0
ENDTAB
  0
TABLE
  2
VIEW
 70
     0
  0
ENDTAB
  0
TABLE
  2
UCS
 70
     0
  0
ENDTAB
  0
TABLE
  2
APPID
 70
     3
  0
APPID
  2
ACAD
 70
     0
  0
APPID
  2
AVE_RENDER
 70
     0
  0
APPID
  2
AVE_MATERIAL
 70
     0
  0
ENDTAB
  0
TABLE
  2
DIMSTYLE
 70
     2
  0
DIMSTYLE
  2
SC_DEFAUT
 70
     0
  3

  4

  5
OPEN30
  6

  7

 40
1.0
 41
3.0
 42
1.0
 43
0.1
 44
0.5
 45
0.0
 46
0.0
 47
0.0
 48
0.0
140
3.0
141
0.0
142
0.0
143
25.4
144
1.0
145
0.0
146
1.0
147
0.6
 71
     0
 72
     0
 73
     0
 74
     0
 75
     0
 76
     0
 77
     1
 78
    12
170
     0
171
     2
172
     0
173
     0
174
     0
175
     0
176
     0
177
     0
178
     0
  0
DIMSTYLE
  2
STANDARD
 70
     0
  3

  4

  5

  6

  7

 40
1.0
 41
0.18
 42
0.0625
 43
0.38
 44
0.18
 45
0.0
 46
0.0
 47
0.0
 48
0.0
140
0.18
141
0.09
142
0.0
143
25.4
144
1.0
145
0.0
146
1.0
147
0.09
 71
     0
 72
     0
 73
     1
 74
     1
 75
     0
 76
     0
 77
     0
 78
     0
170
     0
171
     2
172
     0
173
     0
174
     0
175
     0
176
     0
177
     0
178
     0
  0
ENDTAB
  0
ENDSEC
  0
SECTION
  2
BLOCKS
  0
BLOCK
  8
0
  2
$MODEL_SPACE
 70
     0
 10
0.0
 20
0.0
 30
0.0
  3
$MODEL_SPACE
  1

  0
ENDBLK
  5
704E
  8
0
  0
BLOCK
 67
     1
  8
0
  2
$PAPER_SPACE
 70
     0
 10
0.0
 20
0.0
 30
0.0
  3
$PAPER_SPACE
  1

  0
ENDBLK
  5
704C
 67
     1
  8
0
  0
BLOCK
  8
0
  2
COTE
 70
     0
 10
0.0
 20
0.0
 30
0.0
  3
COTE
  1

  0
ENDBLK
  5
35
  8
0
  0
BLOCK
  8
0
  2
FOND
 70
     0
 10
0.0
 20
0.0
 30
0.0
  3
FOND
  1

  0
ENDBLK
  5
39
  8
0
  0
BLOCK
  8
0
  2
SCH_ISO
 70
     0
 10
0.0
 20
0.0
 30
0.0
  3
SCH_ISO
  1

  0
ENDBLK
  5
24AD
  8
0
  0
BLOCK
  8
0
  2
_OPEN30
 70
     0
 10
0.0
 20
0.0
 30
0.0
  3
_OPEN30
  1

  0
LINE
  5
27E1
  8
COTATION1
 62
     0
 10
-1.0
 20
0.267949
 30
0.0
 11
0.0
 21
0.0
 31
0.0
1001
ACAD
1000
RTLwPs
1070
   158
  0
LINE
  5
27E2
  8
COTATION1
 62
     0
 10
0.0
 20
0.0
 30
0.0
 11
-1.0
 21
-0.267949
 31
0.0
1001
ACAD
1000
RTLwPs
1070
   158
  0
LINE
  5
27E3
  8
COTATION1
 62
     0
 10
0.0
 20
0.0
 30
0.0
 11
-1.0
 21
0.0
 31
0.0
1001
ACAD
1000
RTLwPs
1070
   158
  0
ENDBLK
  5
27E5
  8
0
  0
BLOCK
  8
0
  2
*D4
 70
     1
 10
0.0
 20
0.0
 30
0.0
  3
*D4
  1

  0
LINE
  5
6E8F
  8
COTATION1
 62
     0
 10
1421.553086
 20
144.991586
 30
0.0
 11
1452.853086
 21
144.991586
 31
0.0
1001
ACAD
1000
RTLwPs
1070
   158
  0
LINE
  5
6E90
  8
COTATION1
 62
     0
 10
1433.353086
 20
120.991586
 30
0.0
 11
1452.853086
 21
120.991586
 31
0.0
1001
ACAD
1000
RTLwPs
1070
   158
  0
LINE
  5
6E91
  8
COTATION1
 62
     0
 10
1452.353086
 20
141.991586
 30
0.0
 11
1452.353086
 21
123.991586
 31
0.0
1001
ACAD
1000
RTLwPs
1070
   158
  0
INSERT
  5
6E92
  8
COTATION1
 62
     0
  2
_OPEN30
 10
1452.353086
 20
144.991586
 30
0.0
 41
3.0
 42
3.0
 43
3.0
 50
90.0
1001
ACAD
1000
RTLwPs
1070
   158
  0
INSERT
  5
6E93
  8
COTATION1
 62
     0
  2
_OPEN30
 10
1452.353086
 20
120.991586
 30
0.0
 41
3.0
 42
3.0
 43
3.0
 50
270.0
1001
ACAD
1000
RTLwPs
1070
   158
  0
TEXT
  5
6E94
  8
COTATION1
 62
     0
 10
1451.753086
 20
130.063014
 30
0.0
 40
3.0
  1
24
 50
90.0
1001
ACAD
1000
MTEXTBEGIN
1070
    73
1070
     1
1070
    44
1040
1.0
1070
    74
1070
     0
1000
MTEXTEND
1000
MTEXTBEGIN
1070
    73
1070
     1
1070
    44
1040
1.0
1070
    74
1070
     0
1000
MTEXTEND
1000
MTEXTBEGIN
1070
    73
1070
     1
1070
    44
1040
1.0
1070
    74
1070
     0
1000
MTEXTEND
1000
MTEXTBEGIN
1070
    73
1070
     1
1070
    44
1040
1.0
1070
    74
1070
     0
1000
MTEXTEND
  0
POINT
  5
6E95
  8
DEFPOINTS
 62
     0
 10
1420.553086
 20
144.991586
 30
0.0
  0
POINT
  5
6E96
  8
DEFPOINTS
 62
     0
 10
1432.353086
 20
120.991586
 30
0.0
  0
POINT
  5
6E97
  8
DEFPOINTS
 62
     0
 10
1452.353086
 20
120.991586
 30
0.0
  0
ENDBLK
  5
60A7
  8
0
  0
BLOCK
  8
0
  2
*D5
 70
     1
 10
0.0
 20
0.0
 30
0.0
  3
*D5
  1

  0
LINE
  5
6E74
  8
COTATION1
 62
     0
 10
1353.953086
 20
144.991586
 30
0.0
 11
1462.853086
 21
144.991586
 31
0.0
1001
ACAD
1000
RTLwPs
1070
   158
  0
LINE
  5
6E75
  8
COTATION1
 62
     0
 10
1425.453086
 20
105.191586
 30
0.0
 11
1462.853086
 21
105.191586
 31
0.0
1001
ACAD
1000
RTLwPs
1070
   158
  0
LINE
  5
6E76
  8
COTATION1
 62
     0
 10
1462.353086
 20
141.991586
 30
0.0
 11
1462.353086
 21
108.191586
 31
0.0
1001
ACAD
1000
RTLwPs
1070
   158
  0
INSERT
  5
6E77
  8
COTATION1
 62
     0
  2
_OPEN30
 10
1462.353086
 20
144.991586
 30
0.0
 41
3.0
 42
3.0
 43
3.0
 50
90.0
1001
ACAD
1000
RTLwPs
1070
   158
  0
INSERT
  5
6E78
  8
COTATION1
 62
     0
  2
_OPEN30
 10
1462.353086
 20
105.191586
 30
0.0
 41
3.0
 42
3.0
 43
3.0
 50
270.0
1001
ACAD
1000
RTLwPs
1070
   158
  0
TEXT
  5
6E79
  8
COTATION1
 62
     0
 10
1461.753086
 20
120.091586
 30
0.0
 40
3.0
  1
39.8
 50
90.0
1001
ACAD
1000
MTEXTBEGIN
1070
    73
1070
     1
1070
    44
1040
1.0
1070
    74
1070
     0
1000
MTEXTEND
1000
MTEXTBEGIN
1070
    73
1070
     1
1070
    44
1040
1.0
1070
    74
1070
     0
1000
MTEXTEND
1000
MTEXTBEGIN
1070
    73
1070
     1
1070
    44
1040
1.0
1070
    74
1070
     0
1000
MTEXTEND
1000
MTEXTBEGIN
1070
    73
1070
     1
1070
    44
1040
1.0
1070
    74
1070
     0
1000
MTEXTEND
  0
POINT
  5
6E7A
  8
DEFPOINTS
 62
     0
 10
1352.953086
 20
144.991586
 30
0.0
  0
POINT
  5
6E7B
  8
DEFPOINTS
 62
     0
 10
1424.453086
 20
105.191586
 30
0.0
  0
POINT
  5
6E7C
  8
DEFPOINTS
 62
     0
 10
1462.353086
 20
105.191586
 30
0.0
  0
ENDBLK
  5
60D0
  8
0
  0
BLOCK
  8
0
  2
*D6
 70
     1
 10
0.0
 20
0.0
 30
0.0
  3
*D6
  1

  0
LINE
  5
6E86
  8
COTATION1
 62
     0
 10
1340.153086
 20
120.991586
 30
0.0
 11
1332.748168
 21
120.991586
 31
0.0
1001
ACAD
1000
RTLwPs
1070
   158
  0
LINE
  5
6E87
  8
COTATION1
 62
     0
 10
1352.353086
 20
163.191586
 30
0.0
 11
1332.748168
 21
163.191586
 31
0.0
1001
ACAD
1000
RTLwPs
1070
   158
  0
LINE
  5
6E88
  8
COTATION1
 62
     0
 10
1333.248168
 20
123.991586
 30
0.0
 11
1333.248168
 21
160.191586
 31
0.0
1001
ACAD
1000
RTLwPs
1070
   158
  0
INSERT
  5
6E89
  8
COTATION1
 62
     0
  2
_OPEN30
 10
1333.248168
 20
120.991586
 30
0.0
 41
3.0
 42
3.0
 43
3.0
 50
270.0
1001
ACAD
1000
RTLwPs
1070
   158
  0
INSERT
  5
6E8A
  8
COTATION1
 62
     0
  2
_OPEN30
 10
1333.248168
 20
163.191586
 30
0.0
 41
3.0
 42
3.0
 43
3.0
 50
90.0
1001
ACAD
1000
RTLwPs
1070
   158
  0
TEXT
  5
6E8B
  8
COTATION1
 62
     0
 10
1332.648168
 20
137.091586
 30
0.0
 40
3.0
  1
42.2
 50
90.0
1001
ACAD
1000
MTEXTBEGIN
1070
    73
1070
     1
1070
    44
1040
1.0
1070
    74
1070
     0
1000
MTEXTEND
1000
MTEXTBEGIN
1070
    73
1070
     1
1070
    44
1040
1.0
1070
    74
1070
     0
1000
MTEXTEND
1000
MTEXTBEGIN
1070
    73
1070
     1
1070
    44
1040
1.0
1070
    74
1070
     0
1000
MTEXTEND
1000
MTEXTBEGIN
1070
    73
1070
     1
1070
    44
1040
1.0
1070
    74
1070
     0
1000
MTEXTEND
  0
POINT
  5
6E8C
  8
DEFPOINTS
 62
     0
 10
1341.153086
 20
120.991586
 30
0.0
  0
POINT
  5
6E8D
  8
DEFPOINTS
 62
     0
 10
1353.353086
 20
163.191586
 30
0.0
  0
POINT
  5
6E8E
  8
DEFPOINTS
 62
     0
 10
1333.248168
 20
163.191586
 30
0.0
  0
ENDBLK
  5
610F
  8
0
  0
BLOCK
  8
0
  2
*D7
 70
     1
 10
0.0
 20
0.0
 30
0.0
  3
*D7
  1

  0
LINE
  5
6E6B
  8
COTATION1
 62
     0
 10
1387.053086
 20
151.491586
 30
0.0
 11
1387.053086
 21
178.691586
 31
0.0
1001
ACAD
1000
RTLwPs
1070
   158
  0
LINE
  5
6E6C
  8
COTATION1
 62
     0
 10
1350.453086
 20
161.291586
 30
0.0
 11
1350.453086
 21
178.691586
 31
0.0
1001
ACAD
1000
RTLwPs
1070
   158
  0
LINE
  5
6E6D
  8
COTATION1
 62
     0
 10
1384.053086
 20
178.191586
 30
0.0
 11
1353.453086
 21
178.191586
 31
0.0
1001
ACAD
1000
RTLwPs
1070
   158
  0
INSERT
  5
6E6E
  8
COTATION1
 62
     0
  2
_OPEN30
 10
1387.053086
 20
178.191586
 30
0.0
 41
3.0
 42
3.0
 43
3.0
1001
ACAD
1000
RTLwPs
1070
   158
  0
INSERT
  5
6E6F
  8
COTATION1
 62
     0
  2
_OPEN30
 10
1350.453086
 20
178.191586
 30
0.0
 41
3.0
 42
3.0
 43
3.0
 50
180.0
1001
ACAD
1000
RTLwPs
1070
   158
  0
TEXT
  5
6E70
  8
COTATION1
 62
     0
 10
1363.753086
 20
178.791586
 30
0.0
 40
3.0
  1
36.6
1001
ACAD
1000
MTEXTBEGIN
1070
    73
1070
     1
1070
    44
1040
1.0
1070
    74
1070
     0
1000
MTEXTEND
1000
MTEXTBEGIN
1070
    73
1070
     1
1070
    44
1040
1.0
1070
    74
1070
     0
1000
MTEXTEND
1000
MTEXTBEGIN
1070
    73
1070
     1
1070
    44
1040
1.0
1070
    74
1070
     0
1000
MTEXTEND
1000
MTEXTBEGIN
1070
    73
1070
     1
1070
    44
1040
1.0
1070
    74
1070
     0
1000
MTEXTEND
  0
POINT
  5
6E71
  8
DEFPOINTS
 62
     0
 10
1387.053086
 20
150.491586
 30
0.0
  0
POINT
  5
6E72
  8
DEFPOINTS
 62
     0
 10
1350.453086
 20
160.291586
 30
0.0
  0
POINT
  5
6E73
  8
DEFPOINTS
 62
     0
 10
1350.453086
 20
178.191586
 30
0.0
  0
ENDBLK
  5
6191
  8
0
  0
BLOCK
  8
0
  2
*D8
 70
     1
 10
0.0
 20
0.0
 30
0.0
  3
*D8
  1

  0
LINE
  5
6EA1
  8
COTATION1
 62
     0
 10
1415.053086
 20
151.491586
 30
0.0
 11
1415.053086
 21
178.691586
 31
0.0
1001
ACAD
1000
RTLwPs
1070
   158
  0
LINE
  5
6EA2
  8
COTATION1
 62
     0
 10
1387.053086
 20
151.491586
 30
0.0
 11
1387.053086
 21
178.691586
 31
0.0
1001
ACAD
1000
RTLwPs
1070
   158
  0
LINE
  5
6EA3
  8
COTATION1
 62
     0
 10
1412.053086
 20
178.191586
 30
0.0
 11
1390.053086
 21
178.191586
 31
0.0
1001
ACAD
1000
RTLwPs
1070
   158
  0
INSERT
  5
6EA4
  8
COTATION1
 62
     0
  2
_OPEN30
 10
1415.053086
 20
178.191586
 30
0.0
 41
3.0
 42
3.0
 43
3.0
1001
ACAD
1000
RTLwPs
1070
   158
  0
INSERT
  5
6EA5
  8
COTATION1
 62
     0
  2
_OPEN30
 10
1387.053086
 20
178.191586
 30
0.0
 41
3.0
 42
3.0
 43
3.0
 50
180.0
1001
ACAD
1000
RTLwPs
1070
   158
  0
TEXT
  5
6EA6
  8
COTATION1
 62
     0
 10
1398.195943
 20
178.791586
 30
0.0
 40
3.0
  1
28
1001
ACAD
1000
MTEXTBEGIN
1070
    73
1070
     1
1070
    44
1040
1.0
1070
    74
1070
     0
1000
MTEXTEND
1000
MTEXTBEGIN
1070
    73
1070
     1
1070
    44
1040
1.0
1070
    74
1070
     0
1000
MTEXTEND
1000
MTEXTBEGIN
1070
    73
1070
     1
1070
    44
1040
1.0
1070
    74
1070
     0
1000
MTEXTEND
1000
MTEXTBEGIN
1070
    73
1070
     1
1070
    44
1040
1.0
1070
    74
1070
     0
1000
MTEXTEND
  0
POINT
  5
6EA7
  8
DEFPOINTS
 62
     0
 10
1415.053086
 20
150.491586
 30
0.0
  0
POINT
  5
6EA8
  8
DEFPOINTS
 62
     0
 10
1387.053086
 20
150.491586
 30
0.0
  0
POINT
  5
6EA9
  8
DEFPOINTS
 62
     0
 10
1387.053086
 20
178.191586
 30
0.0
  0
ENDBLK
  5
619D
  8
0
  0
BLOCK
  8
0
  2
*D9
 70
     1
 10
0.0
 20
0.0
 30
0.0
  3
*D9
  1

  0
LINE
  5
6E62
  8
COTATION1
 62
     0
 10
1427.353086
 20
161.291586
 30
0.0
 11
1427.353086
 21
188.691586
 31
0.0
1001
ACAD
1000
RTLwPs
1070
   158
  0
LINE
  5
6E63
  8
COTATION1
 62
     0
 10
1346.153086
 20
134.491586
 30
0.0
 11
1346.153086
 21
188.691586
 31
0.0
1001
ACAD
1000
RTLwPs
1070
   158
  0
LINE
  5
6E64
  8
COTATION1
 62
     0
 10
1424.353086
 20
188.191586
 30
0.0
 11
1349.153086
 21
188.191586
 31
0.0
1001
ACAD
1000
RTLwPs
1070
   158
  0
INSERT
  5
6E65
  8
COTATION1
 62
     0
  2
_OPEN30
 10
1427.353086
 20
188.191586
 30
0.0
 41
3.0
 42
3.0
 43
3.0
1001
ACAD
1000
RTLwPs
1070
   158
  0
INSERT
  5
6E66
  8
COTATION1
 62
     0
  2
_OPEN30
 10
1346.153086
 20
188.191586
 30
0.0
 41
3.0
 42
3.0
 43
3.0
 50
180.0
1001
ACAD
1000
RTLwPs
1070
   158
  0
TEXT
  5
6E67
  8
COTATION1
 62
     0
 10
1381.753086
 20
188.791586
 30
0.0
 40
3.0
  1
81.2
1001
ACAD
1000
MTEXTBEGIN
1070
    73
1070
     1
1070
    44
1040
1.0
1070
    74
1070
     0
1000
MTEXTEND
1000
MTEXTBEGIN
1070
    73
1070
     1
1070
    44
1040
1.0
1070
    74
1070
     0
1000
MTEXTEND
1000
MTEXTBEGIN
1070
    73
1070
     1
1070
    44
1040
1.0
1070
    74
1070
     0
1000
MTEXTEND
1000
MTEXTBEGIN
1070
    73
1070
     1
1070
    44
1040
1.0
1070
    74
1070
     0
1000
MTEXTEND
  0
POINT
  5
6E68
  8
DEFPOINTS
 62
     0
 10
1427.353086
 20
160.291586
 30
0.0
  0
POINT
  5
6E69
  8
DEFPOINTS
 62
     0
 10
1346.153086
 20
133.491586
 30
0.0
  0
POINT
  5
6E6A
  8
DEFPOINTS
 62
     0
 10
1346.153086
 20
188.191586
 30
0.0
  0
ENDBLK
  5
6295
  8
0
  0
BLOCK
  8
0
  2
*D10
 70
     1
 10
0.0
 20
0.0
 30
0.0
  3
*D10
  1

  0
LINE
  5
6E98
  8
COTATION1
 62
     0
 10
1442.353086
 20
162.191586
 30
0.0
 11
1442.353086
 21
188.691586
 31
0.0
1001
ACAD
1000
RTLwPs
1070
   158
  0
LINE
  5
6E99
  8
COTATION1
 62
     0
 10
1427.353086
 20
161.291586
 30
0.0
 11
1427.353086
 21
188.691586
 31
0.0
1001
ACAD
1000
RTLwPs
1070
   158
  0
LINE
  5
6E9A
  8
COTATION1
 62
     0
 10
1439.353086
 20
188.191586
 30
0.0
 11
1430.353086
 21
188.191586
 31
0.0
1001
ACAD
1000
RTLwPs
1070
   158
  0
INSERT
  5
6E9B
  8
COTATION1
 62
     0
  2
_OPEN30
 10
1442.353086
 20
188.191586
 30
0.0
 41
3.0
 42
3.0
 43
3.0
1001
ACAD
1000
RTLwPs
1070
   158
  0
INSERT
  5
6E9C
  8
COTATION1
 62
     0
  2
_OPEN30
 10
1427.353086
 20
188.191586
 30
0.0
 41
3.0
 42
3.0
 43
3.0
 50
180.0
1001
ACAD
1000
RTLwPs
1070
   158
  0
TEXT
  5
6E9D
  8
COTATION1
 62
     0
 10
1431.781657
 20
188.791586
 30
0.0
 40
3.0
  1
15
1001
ACAD
1000
MTEXTBEGIN
1070
    73
1070
     1
1070
    44
1040
1.0
1070
    74
1070
     0
1000
MTEXTEND
1000
MTEXTBEGIN
1070
    73
1070
     1
1070
    44
1040
1.0
1070
    74
1070
     0
1000
MTEXTEND
1000
MTEXTBEGIN
1070
    73
1070
     1
1070
    44
1040
1.0
1070
    74
1070
     0
1000
MTEXTEND
1000
MTEXTBEGIN
1070
    73
1070
     1
1070
    44
1040
1.0
1070
    74
1070
     0
1000
MTEXTEND
  0
POINT
  5
6E9E
  8
DEFPOINTS
 62
     0
 10
1442.353086
 20
161.191586
 30
0.0
  0
POINT
  5
6E9F
  8
DEFPOINTS
 62
     0
 10
1427.353086
 20
160.291586
 30
0.0
  0
POINT
  5
6EA0
  8
DEFPOINTS
 62
     0
 10
1427.353086
 20
188.191586
 30
0.0
  0
ENDBLK
  5
62A1
  8
0
  0
BLOCK
  8
0
  2
*D11
 70
     1
 10
0.0
 20
0.0
 30
0.0
  3
*D11
  1

  0
LINE
  5
6E7D
  8
COTATION1
 62
     0
 10
1352.353086
 20
105.191586
 30
0.0
 11
1322.748168
 21
105.191586
 31
0.0
1001
ACAD
1000
RTLwPs
1070
   158
  0
LINE
  5
6E7E
  8
COTATION1
 62
     0
 10
1352.353086
 20
163.191586
 30
0.0
 11
1322.748168
 21
163.191586
 31
0.0
1001
ACAD
1000
RTLwPs
1070
   158
  0
LINE
  5
6E7F
  8
COTATION1
 62
     0
 10
1323.248168
 20
108.191586
 30
0.0
 11
1323.248168
 21
160.191586
 31
0.0
1001
ACAD
1000
RTLwPs
1070
   158
  0
INSERT
  5
6E80
  8
COTATION1
 62
     0
  2
_OPEN30
 10
1323.248168
 20
105.191586
 30
0.0
 41
3.0
 42
3.0
 43
3.0
 50
270.0
1001
ACAD
1000
RTLwPs
1070
   158
  0
INSERT
  5
6E81
  8
COTATION1
 62
     0
  2
_OPEN30
 10
1323.248168
 20
163.191586
 30
0.0
 41
3.0
 42
3.0
 43
3.0
 50
90.0
1001
ACAD
1000
RTLwPs
1070
   158
  0
TEXT
  5
6E82
  8
COTATION1
 62
     0
 10
1322.648168
 20
131.334443
 30
0.0
 40
3.0
  1
58
 50
90.0
1001
ACAD
1000
MTEXTBEGIN
1070
    73
1070
     1
1070
    44
1040
1.0
1070
    74
1070
     0
1000
MTEXTEND
1000
MTEXTBEGIN
1070
    73
1070
     1
1070
    44
1040
1.0
1070
    74
1070
     0
1000
MTEXTEND
1000
MTEXTBEGIN
1070
    73
1070
     1
1070
    44
1040
1.0
1070
    74
1070
     0
1000
MTEXTEND
1000
MTEXTBEGIN
1070
    73
1070
     1
1070
    44
1040
1.0
1070
    74
1070
     0
1000
MTEXTEND
  0
POINT
  5
6E83
  8
DEFPOINTS
 62
     0
 10
1353.353086
 20
105.191586
 30
0.0
  0
POINT
  5
6E84
  8
DEFPOINTS
 62
     0
 10
1353.353086
 20
163.191586
 30
0.0
  0
POINT
  5
6E85
  8
DEFPOINTS
 62
     0
 10
1323.248168
 20
163.191586
 30
0.0
  0
ENDBLK
  5
6DE9
  8
0
  0
BLOCK
  8
0
  2
*D12
 70
     1
 10
0.0
 20
0.0
 30
0.0
  3
*D12
  1

  0
LINE
  5
6E45
  8
COTATION1
 62
     0
 10
1352.353086
 20
105.191586
 30
0.0
 11
1322.748168
 21
105.191586
 31
0.0
1001
ACAD
1000
RTLwPs
1070
   158
  0
LINE
  5
6E46
  8
COTATION1
 62
     0
 10
1351.053086
 20
99.291586
 30
0.0
 11
1322.748168
 21
99.291586
 31
0.0
1001
ACAD
1000
RTLwPs
1070
   158
  0
LINE
  5
6E47
  8
COTATION1
 62
     0
 10
1323.248168
 20
108.191586
 30
0.0
 11
1323.248168
 21
111.191586
 31
0.0
1001
ACAD
1000
RTLwPs
1070
   158
  0
LINE
  5
6E48
  8
COTATION1
 62
     0
 10
1323.248168
 20
96.291586
 30
0.0
 11
1323.248168
 21
85.948728
 31
0.0
1001
ACAD
1000
RTLwPs
1070
   158
  0
INSERT
  5
6E49
  8
COTATION1
 62
     0
  2
_OPEN30
 10
1323.248168
 20
105.191586
 30
0.0
 41
3.0
 42
3.0
 43
3.0
 50
270.0
1001
ACAD
1000
RTLwPs
1070
   158
  0
INSERT
  5
6E4A
  8
COTATION1
 62
     0
  2
_OPEN30
 10
1323.248168
 20
99.291586
 30
0.0
 41
3.0
 42
3.0
 43
3.0
 50
90.0
1001
ACAD
1000
RTLwPs
1070
   158
  0
TEXT
  5
6E4B
  8
COTATION1
 62
     0
 10
1322.648168
 20
86.120157
 30
0.0
 40
3.0
  1
5.9
 50
90.0
1001
ACAD
1000
MTEXTBEGIN
1070
    73
1070
     1
1070
    44
1040
1.0
1070
    74
1070
     0
1000
MTEXTEND
1000
MTEXTBEGIN
1070
    73
1070
     1
1070
    44
1040
1.0
1070
    74
1070
     0
1000
MTEXTEND
1000
MTEXTBEGIN
1070
    73
1070
     1
1070
    44
1040
1.0
1070
    74
1070
     0
1000
MTEXTEND
1000
MTEXTBEGIN
1070
    73
1070
     1
1070
    44
1040
1.0
1070
    74
1070
     0
1000
MTEXTEND
  0
POINT
  5
6E4C
  8
DEFPOINTS
 62
     0
 10
1353.353086
 20
105.191586
 30
0.0
  0
POINT
  5
6E4D
  8
DEFPOINTS
 62
     0
 10
1352.053086
 20
99.291586
 30
0.0
  0
POINT
  5
6E4E
  8
DEFPOINTS
 62
     0
 10
1323.248168
 20
99.291586
 30
0.0
  0
ENDBLK
  5
6DF6
  8
0
  0
ENDSEC
  0
SECTION
  2
ENTITIES
  0
INSERT
  5
32
  8
0
  2
COTE
 10
0.0
 20
0.0
 30
0.0
  0
INSERT
  5
36
  8
0
  2
FOND
 10
0.0
 20
0.0
 30
0.0
  0
INSERT
  5
24AE
  8
ALPHA
  2
SCH_ISO
 10
-66.27012
 20
-238.940658
 30
0.0
  0
LINE
  5
5F79
  8
ALPHA
 10
1424.453086
 20
105.191586
 30
0.0
 11
1353.353086
 21
105.191586
 31
0.0
  0
LINE
  5
5F7D
  8
ALPHA
 10
1432.853086
 20
163.191586
 30
0.0
 11
1353.353086
 21
163.191586
 31
0.0
  0
LINE
  5
5F7E
  8
AXE
 10
1386.753086
 20
168.191586
 30
0.0
 11
1386.753086
 21
85.491586
 31
0.0
  0
TEXT
  5
5F7F
  8
AXE
 10
1379.276895
 20
85.491586
 30
0.0
 40
8.0
  1
Y
 72
     2
 11
1385.753086
 21
85.491586
 31
0.0
  0
LINE
  5
5F81
  8
ALPHA
 10
1350.453086
 20
160.691586
 30
0.0
 11
1350.453086
 21
108.091586
 31
0.0
  0
LINE
  5
5F8B
  8
AXE
 10
1341.153086
 20
134.191586
 30
0.0
 11
1441.193563
 21
134.191586
 31
0.0
  0
LINE
  5
5F8C
  8
AXE
 10
1392.553086
 20
144.991586
 30
0.0
 11
1381.553086
 21
144.991586
 31
0.0
  0
LINE
  5
5F8D
  8
AXE
 10
1387.053086
 20
139.491586
 30
0.0
 11
1387.053086
 21
150.491586
 31
0.0
  0
ARC
  5
5F8E
  8
ALPHA_FIN
 10
1387.053086
 20
144.991586
 30
0.0
 40
1.99999
 50
270.0
 51
180.0
  0
CIRCLE
  5
5F8F
  8
ALPHA
 10
1387.053086
 20
144.991586
 30
0.0
 40
2.5
  0
TEXT
  5
5F90
  8
AXE
 10
1434.004322
 20
135.191586
 30
0.0
 40
8.0
  1
Z
 72
     2
 11
1440.480512
 21
135.191586
 31
0.0
  0
LINE
  5
5F93
  8
AXE
 10
1447.353086
 20
156.191586
 30
0.0
 11
1422.353086
 21
156.191586
 31
0.0
  0
LINE
  5
5F94
  8
ALPHA
 10
1432.853086
 20
149.191586
 30
0.0
 11
1427.353086
 21
149.191586
 31
0.0
  0
LINE
  5
5F97
  8
ALPHA
 10
1427.353086
 20
160.291586
 30
0.0
 11
1427.353086
 21
108.091586
 31
0.0
  0
CIRCLE
  5
5F98
  8
ALPHA
 10
1415.053086
 20
144.991586
 30
0.0
 40
2.5
  0
ARC
  5
5F99
  8
ALPHA_FIN
 10
1415.053086
 20
144.991586
 30
0.0
 40
1.99999
 50
270.0
 51
180.0
  0
LINE
  5
5F9A
  8
AXE
 10
1420.553086
 20
144.991586
 30
0.0
 11
1409.553086
 21
144.991586
 31
0.0
  0
LINE
  5
5F9B
  8
AXE
 10
1415.053086
 20
139.491586
 30
0.0
 11
1415.053086
 21
150.491586
 31
0.0
  0
LINE
  5
5FA1
  8
ALPHA
 10
1442.353086
 20
156.191586
 30
0.0
 11
1442.353086
 21
151.191586
 31
0.0
  0
LINE
  5
5FA2
  8
ALPHA
 10
1441.353086
 20
156.191586
 30
0.0
 11
1441.353086
 21
150.191586
 31
0.0
  0
LINE
  5
5FA3
  8
ALPHA
 10
1432.853086
 20
163.191586
 30
0.0
 11
1432.853086
 21
149.191586
 31
0.0
  0
LINE
  5
5FA4
  8
ALPHA_FIN
 10
1442.353086
 20
151.191586
 30
0.0
 11
1432.853086
 21
151.191586
 31
0.0
  0
LINE
  5
5FA5
  8
ALPHA
 10
1441.353086
 20
150.191586
 30
0.0
 11
1432.853086
 21
150.191586
 31
0.0
  0
LINE
  5
5FA6
  8
ALPHA
 10
1442.353086
 20
151.191586
 30
0.0
 11
1441.353086
 21
150.191586
 31
0.0
  0
LINE
  5
5FA7
  8
ALPHA
 10
1442.353086
 20
161.191586
 30
0.0
 11
1441.353086
 21
162.191586
 31
0.0
  0
LINE
  5
5FA8
  8
ALPHA
 10
1441.353086
 20
162.191586
 30
0.0
 11
1432.853086
 21
162.191586
 31
0.0
  0
LINE
  5
5FA9
  8
ALPHA_FIN
 10
1442.353086
 20
161.191586
 30
0.0
 11
1432.853086
 21
161.191586
 31
0.0
  0
LINE
  5
5FAA
  8
ALPHA
 10
1441.353086
 20
156.191586
 30
0.0
 11
1441.353086
 21
162.191586
 31
0.0
  0
LINE
  5
5FAB
  8
ALPHA
 10
1442.353086
 20
156.191586
 30
0.0
 11
1442.353086
 21
161.191586
 31
0.0
  0
LINE
  5
5FAE
  8
ALPHA
 10
1346.153086
 20
108.491586
 30
0.0
 11
1346.153086
 21
120.991586
 31
0.0
  0
LINE
  5
5FAF
  8
ALPHA
 10
1350.453086
 20
108.491586
 30
0.0
 11
1346.153086
 21
108.491586
 31
0.0
  0
LINE
  5
5FB0
  8
ALPHA
 10
1350.453086
 20
133.491586
 30
0.0
 11
1346.153086
 21
133.491586
 31
0.0
  0
LINE
  5
5FB1
  8
ALPHA
 10
1346.153086
 20
133.491586
 30
0.0
 11
1346.153086
 21
120.991586
 31
0.0
  0
LINE
  5
5FB2
  8
AXE
 10
1432.353086
 20
120.991586
 30
0.0
 11
1341.153086
 21
120.991586
 31
0.0
  0
LINE
  5
5FB8
  8
ALPHA
 10
1377.053086
 20
105.191586
 30
0.0
 11
1377.053086
 21
103.691586
 31
0.0
  0
LINE
  5
5FBA
  8
ALPHA
 10
1377.053086
 20
99.291586
 30
0.0
 11
1352.053086
 21
99.291586
 31
0.0
  0
LINE
  5
5FBD
  8
ALPHA
 10
1424.453086
 20
108.091586
 30
0.0
 11
1422.953086
 21
108.091586
 31
0.0
  0
LINE
  5
5FBE
  8
ALPHA
 10
1424.453086
 20
108.091586
 30
0.0
 11
1424.453086
 21
109.591586
 31
0.0
  0
CIRCLE
  5
5FBF
  8
ALPHA
 10
1424.453086
 20
108.091586
 30
0.0
 40
2.7
  0
LINE
  5
5FC3
  8
ALPHA
 10
1424.453086
 20
108.091586
 30
0.0
 11
1425.953086
 21
108.091586
 31
0.0
  0
LINE
  5
5FC4
  8
ALPHA
 10
1424.453086
 20
108.091586
 30
0.0
 11
1424.453086
 21
106.591586
 31
0.0
  0
CIRCLE
  5
5FC5
  8
ALPHA
 10
1424.453086
 20
160.291586
 30
0.0
 40
2.7
  0
LINE
  5
5FC6
  8
ALPHA
 10
1424.453086
 20
160.291586
 30
0.0
 11
1424.453086
 21
161.791586
 31
0.0
  0
LINE
  5
5FC7
  8
ALPHA
 10
1424.453086
 20
160.291586
 30
0.0
 11
1425.953086
 21
160.291586
 31
0.0
  0
LINE
  5
5FC8
  8
ALPHA
 10
1424.453086
 20
160.291586
 30
0.0
 11
1422.953086
 21
160.291586
 31
0.0
  0
LINE
  5
5FC9
  8
ALPHA
 10
1424.453086
 20
160.291586
 30
0.0
 11
1424.453086
 21
158.791586
 31
0.0
  0
LINE
  5
6018
  8
ALPHA
 10
1421.615834
 20
107.491586
 30
0.0
 11
1356.190338
 21
107.491586
 31
0.0
  0
ARC
  5
6019
  8
ALPHA
 10
1424.453086
 20
108.091586
 30
0.0
 40
2.9
 50
191.940544
 51
78.059456
  0
LINE
  5
601A
  8
ALPHA
 10
1425.053086
 20
157.454333
 30
0.0
 11
1425.053086
 21
110.928838
 31
0.0
  0
ARC
  5
601B
  8
ALPHA
 10
1424.453086
 20
160.291586
 30
0.0
 40
2.9
 50
281.940544
 51
168.059456
  0
LINE
  5
601D
  8
ALPHA
 10
1421.615834
 20
160.891586
 30
0.0
 11
1356.190338
 21
160.891586
 31
0.0
  0
ARC
  5
6058
  8
ALPHA
 10
1353.353086
 20
108.091586
 30
0.0
 40
2.9
 50
101.940544
 51
348.059456
  0
CIRCLE
  5
6059
  8
ALPHA
 10
1353.353086
 20
108.091586
 30
0.0
 40
2.7
  0
LINE
  5
605A
  8
ALPHA
 10
1353.353086
 20
108.091586
 30
0.0
 11
1353.353086
 21
106.591586
 31
0.0
  0
LINE
  5
605B
  8
ALPHA
 10
1353.353086
 20
108.091586
 30
0.0
 11
1351.853086
 21
108.091586
 31
0.0
  0
LINE
  5
605C
  8
ALPHA
 10
1353.353086
 20
108.091586
 30
0.0
 11
1354.853086
 21
108.091586
 31
0.0
  0
LINE
  5
605D
  8
ALPHA
 10
1353.353086
 20
108.091586
 30
0.0
 11
1353.353086
 21
109.591586
 31
0.0
  0
ARC
  5
605E
  8
ALPHA
 10
1353.353086
 20
160.291586
 30
0.0
 40
2.9
 50
11.940544
 51
258.059456
  0
LINE
  5
605F
  8
ALPHA
 10
1353.353086
 20
160.291586
 30
0.0
 11
1353.353086
 21
158.791586
 31
0.0
  0
LINE
  5
6060
  8
ALPHA
 10
1353.353086
 20
160.291586
 30
0.0
 11
1354.853086
 21
160.291586
 31
0.0
  0
LINE
  5
6061
  8
ALPHA
 10
1353.353086
 20
160.291586
 30
0.0
 11
1351.853086
 21
160.291586
 31
0.0
  0
LINE
  5
6062
  8
ALPHA
 10
1353.353086
 20
160.291586
 30
0.0
 11
1353.353086
 21
161.791586
 31
0.0
  0
CIRCLE
  5
6063
  8
ALPHA
 10
1353.353086
 20
160.291586
 30
0.0
 40
2.7
  0
LINE
  5
6064
  8
ALPHA
 10
1352.753086
 20
157.454333
 30
0.0
 11
1352.753086
 21
110.928838
 31
0.0
  0
DIMENSION
  5
609B
  8
COTATION1
  2
*D4
 10
1452.353086
 20
120.991586
 30
0.0
 11
1450.253086
 21
132.991586
 31
0.0
 13
1420.553086
 23
144.991586
 33
0.0
 14
1432.353086
 24
120.991586
 34
0.0
 50
90.0
  0
DIMENSION
  5
60C4
  8
COTATION1
  2
*D5
 10
1462.353086
 20
105.191586
 30
0.0
 11
1460.253086
 21
125.091586
 31
0.0
 13
1352.953086
 23
144.991586
 33
0.0
 14
1424.453086
 24
105.191586
 34
0.0
 50
90.0
  0
DIMENSION
  5
6103
  8
COTATION1
  2
*D6
 10
1333.248168
 20
163.191586
 30
0.0
 11
1331.148168
 21
142.091586
 31
0.0
 13
1341.153086
 23
120.991586
 33
0.0
 14
1353.353086
 24
163.191586
 34
0.0
 50
90.0
  0
DIMENSION
  5
6184
  8
COTATION1
  2
*D8
 10
1387.053086
 20
178.191586
 30
0.0
 11
1401.053086
 21
180.291586
 31
0.0
 13
1415.053086
 23
150.491586
 33
0.0
 14
1387.053086
 24
150.491586
 34
0.0
 50
180.0
  0
DIMENSION
  5
6185
  8
COTATION1
  2
*D7
 10
1350.453086
 20
178.191586
 30
0.0
 11
1368.753086
 21
180.291586
 31
0.0
 13
1387.053086
 23
150.491586
 33
0.0
 14
1350.453086
 24
160.291586
 34
0.0
 50
180.0
  0
LINE
  5
6256
  8
ALPHA
 10
1376.453086
 20
101.491586
 30
0.0
 11
1376.453086
 21
100.791586
 31
0.0
  0
LINE
  5
6258
  8
ALPHA
 10
1377.053086
 20
100.791586
 30
0.0
 11
1352.053086
 21
100.791586
 31
0.0
  0
LINE
  5
6259
  8
ALPHA
 10
1377.053086
 20
101.491586
 30
0.0
 11
1352.053086
 21
101.491586
 31
0.0
  0
LINE
  5
625A
  8
ALPHA
 10
1377.053086
 20
102.991586
 30
0.0
 11
1352.053086
 21
102.991586
 31
0.0
  0
LINE
  5
625B
  8
ALPHA
 10
1377.053086
 20
103.691586
 30
0.0
 11
1352.053086
 21
103.691586
 31
0.0
  0
LINE
  5
625C
  8
ALPHA
 10
1377.053086
 20
102.991586
 30
0.0
 11
1377.053086
 21
101.491586
 31
0.0
  0
LINE
  5
625D
  8
ALPHA
 10
1377.053086
 20
100.791586
 30
0.0
 11
1377.053086
 21
99.291586
 31
0.0
  0
LINE
  5
625E
  8
ALPHA
 10
1376.453086
 20
103.691586
 30
0.0
 11
1376.453086
 21
102.991586
 31
0.0
  0
LINE
  5
625F
  8
ALPHA
 10
1352.653086
 20
103.691586
 30
0.0
 11
1352.653086
 21
102.991586
 31
0.0
  0
LINE
  5
6260
  8
ALPHA
 10
1352.653086
 20
101.491586
 30
0.0
 11
1352.653086
 21
100.791586
 31
0.0
  0
LINE
  5
6261
  8
ALPHA
 10
1352.053086
 20
102.991586
 30
0.0
 11
1352.053086
 21
101.491586
 31
0.0
  0
LINE
  5
6262
  8
ALPHA
 10
1352.053086
 20
100.791586
 30
0.0
 11
1352.053086
 21
99.291586
 31
0.0
  0
LINE
  5
6263
  8
ALPHA
 10
1352.053086
 20
105.499289
 30
0.0
 11
1352.053086
 21
103.691586
 31
0.0
  0
DIMENSION
  5
6288
  8
COTATION1
  2
*D9
 10
1346.153086
 20
188.191586
 30
0.0
 11
1386.753086
 21
190.291586
 31
0.0
 13
1427.353086
 23
160.291586
 33
0.0
 14
1346.153086
 24
133.491586
 34
0.0
 50
180.0
  0
DIMENSION
  5
6289
  8
COTATION1
  2
*D10
 10
1427.353086
 20
188.191586
 30
0.0
 11
1434.853086
 21
190.291586
 31
0.0
 13
1442.353086
 23
161.191586
 33
0.0
 14
1427.353086
 24
160.291586
 34
0.0
 50
180.0
  0
TEXT
  5
6A33
  8
COTATION1
 10
1454.610998
 20
165.361601
 30
0.0
 40
3.0
  1
M12x1
1001
ACAD
1000
MTEXTBEGIN
1070
    73
1070
     1
1070
    44
1040
1.0
1070
    74
1070
     0
1000
MTEXTEND
1000
MTEXTBEGIN
1070
    73
1070
     1
1070
    44
1040
1.0
1070
    74
1070
     0
1000
MTEXTEND
1000
MTEXTBEGIN
1070
    73
1070
     1
1070
    44
1040
1.0
1070
    74
1070
     0
1000
MTEXTEND
1000
MTEXTBEGIN
1070
    73
1070
     1
1070
    44
1040
1.0
1070
    74
1070
     0
1000
MTEXTEND
1000
MTEXTBEGIN
1070
    73
1070
     1
1070
    44
1040
1.0
1070
    74
1070
     0
1000
MTEXTEND
1000
MTEXTBEGIN
1070
    73
1070
     1
1070
    44
1040
1.0
1070
    74
1070
     0
1000
MTEXTEND
1000
MTEXTBEGIN
1070
    73
1070
     1
1070
    44
1040
1.0
1070
    74
1070
     0
1000
MTEXTEND
1000
MTEXTBEGIN
1070
    73
1070
     1
1070
    44
1040
1.0
1070
    74
1070
     0
1000
MTEXTEND
1000
MTEXTBEGIN
1070
    73
1070
     1
1070
    44
1040
1.0
1070
    74
1070
     0
1000
MTEXTEND
1000
MTEXTBEGIN
1070
    73
1070
     1
1070
    44
1040
1.0
1070
    74
1070
     0
1000
MTEXTEND
1000
MTEXTBEGIN
1070
    73
1070
     1
1070
    44
1040
1.0
1070
    74
1070
     0
1000
MTEXTEND
1000
MTEXTBEGIN
1070
    73
1070
     1
1070
    44
1040
1.0
1070
    74
1070
     0
1000
MTEXTEND
1000
MTEXTBEGIN
1070
    73
1070
     1
1070
    44
1040
1.0
1070
    74
1070
     0
1000
MTEXTEND
1000
MTEXTBEGIN
1070
    73
1070
     1
1070
    44
1040
1.0
1070
    74
1070
     0
1000
MTEXTEND
1000
MTEXTBEGIN
1070
    73
1070
     1
1070
    44
1040
1.0
1070
    74
1070
     0
1000
MTEXTEND
1000
MTEXTBEGIN
1070
    73
1070
     1
1070
    44
1040
1.0
1070
    74
1070
     0
1000
MTEXTEND
1000
MTEXTBEGIN
1070
    73
1070
     1
1070
    44
1040
1.0
1070
    74
1070
     0
1000
MTEXTEND
1000
MTEXTBEGIN
1070
    73
1070
     1
1070
    44
1040
1.0
1070
    74
1070
     0
1000
MTEXTEND
1000
MTEXTBEGIN
1070
    73
1070
     1
1070
    44
1040
1.0
1070
    74
1070
     0
1000
MTEXTEND
1000
MTEXTBEGIN
1070
    73
1070
     1
1070
    44
1040
1.0
1070
    74
1070
     0
1000
MTEXTEND
1000
MTEXTBEGIN
1070
    73
1070
     1
1070
    44
1040
1.0
1070
    74
1070
     0
1000
MTEXTEND
  0
SOLID
  5
6A34
  8
COTATION1
  6
CONTINUOUS
 10
-1444.989082
 20
159.671383
 30
0.0
 11
-1442.142329
 21
158.60087
 31
0.0
 12
-1444.48801
 22
160.536789
 32
0.0
 13
-1444.48801
 23
160.536789
 33
0.0
210
0.0
220
0.0
230
-1.0
1001
ACAD
1000
DSTYLE
1002
{
1070
     5
1000
OPEN30
1070
   342
1005
7C22DF05000027E0
1002
}
  0
POLYLINE
  5
6FE9
  8
COTATION1
 66
     1
 10
0.0
 20
0.0
 30
0.0
 70
   128
1001
ACAD
1000
R13OBJECT
1002
{
1005
6A34
1002
}
  0
VERTEX
  5
7054
  8
COTATION1
 10
1444.738546
 20
160.104086
 30
0.0
  0
VERTEX
  5
7055
  8
COTATION1
 10
1451.821597
 20
164.205188
 30
0.0
  0
VERTEX
  5
7056
  8
COTATION1
 10
1467.993026
 20
164.205188
 30
0.0
  0
SEQEND
  5
7057
  8
COTATION1
  0
SOLID
  5
6A48
  8
COTATION1
  6
CONTINUOUS
 10
-1389.105503
 20
139.864444
 30
0.0
 11
-1388.188485
 21
142.764285
 31
0.0
 12
-1389.996423
 22
140.318603
 32
0.0
 13
-1389.996423
 23
140.318603
 33
0.0
210
0.0
220
0.0
230
-1.0
1001
ACAD
1000
DSTYLE
1002
{
1070
     5
1000
OPEN30
1070
   342
1005
1411DF05000027E0
1002
}
  0
POLYLINE
  5
6FEE
  8
COTATION1
 66
     1
 10
0.0
 20
0.0
 30
0.0
 70
   128
1001
ACAD
1000
R13OBJECT
1002
{
1005
6A48
1002
}
  0
VERTEX
  5
7058
  8
COTATION1
 10
1389.550963
 20
140.091523
 30
0.0
  0
VERTEX
  5
7059
  8
COTATION1
 10
1397.483971
 20
124.529417
 30
0.0
  0
VERTEX
  5
705A
  8
COTATION1
 10
1417.083971
 20
124.529417
 30
0.0
  0
SEQEND
  5
705B
  8
COTATION1
  0
TEXT
  5
6A49
  8
COTATION1
 10
1400.416229
 20
125.68583
 30
0.0
 40
3.0
  1
8xM5x6
1001
ACAD
1000
MTEXTBEGIN
1070
    73
1070
     1
1070
    44
1040
1.0
1070
    74
1070
     0
1000
MTEXTEND
1000
MTEXTBEGIN
1070
    73
1070
     1
1070
    44
1040
1.0
1070
    74
1070
     0
1000
MTEXTEND
1000
MTEXTBEGIN
1070
    73
1070
     1
1070
    44
1040
1.0
1070
    74
1070
     0
1000
MTEXTEND
1000
MTEXTBEGIN
1070
    73
1070
     1
1070
    44
1040
1.0
1070
    74
1070
     0
1000
MTEXTEND
1000
MTEXTBEGIN
1070
    73
1070
     1
1070
    44
1040
1.0
1070
    74
1070
     0
1000
MTEXTEND
1000
MTEXTBEGIN
1070
    73
1070
     1
1070
    44
1040
1.0
1070
    74
1070
     0
1000
MTEXTEND
1000
MTEXTBEGIN
1070
    73
1070
     1
1070
    44
1040
1.0
1070
    74
1070
     0
1000
MTEXTEND
1000
MTEXTBEGIN
1070
    73
1070
     1
1070
    44
1040
1.0
1070
    74
1070
     0
1000
MTEXTEND
1000
MTEXTBEGIN
1070
    73
1070
     1
1070
    44
1040
1.0
1070
    74
1070
     0
1000
MTEXTEND
1000
MTEXTBEGIN
1070
    73
1070
     1
1070
    44
1040
1.0
1070
    74
1070
     0
1000
MTEXTEND
1000
MTEXTBEGIN
1070
    73
1070
     1
1070
    44
1040
1.0
1070
    74
1070
     0
1000
MTEXTEND
1000
MTEXTBEGIN
1070
    73
1070
     1
1070
    44
1040
1.0
1070
    74
1070
     0
1000
MTEXTEND
1000
MTEXTBEGIN
1070
    73
1070
     1
1070
    44
1040
1.0
1070
    74
1070
     0
1000
MTEXTEND
1000
MTEXTBEGIN
1070
    73
1070
     1
1070
    44
1040
1.0
1070
    74
1070
     0
1000
MTEXTEND
1000
MTEXTBEGIN
1070
    73
1070
     1
1070
    44
1040
1.0
1070
    74
1070
     0
1000
MTEXTEND
1000
MTEXTBEGIN
1070
    73
1070
     1
1070
    44
1040
1.0
1070
    74
1070
     0
1000
MTEXTEND
1000
MTEXTBEGIN
1070
    73
1070
     1
1070
    44
1040
1.0
1070
    74
1070
     0
1000
MTEXTEND
1000
MTEXTBEGIN
1070
    73
1070
     1
1070
    44
1040
1.0
1070
    74
1070
     0
1000
MTEXTEND
1000
MTEXTBEGIN
1070
    73
1070
     1
1070
    44
1040
1.0
1070
    74
1070
     0
1000
MTEXTEND
1000
MTEXTBEGIN
1070
    73
1070
     1
1070
    44
1040
1.0
1070
    74
1070
     0
1000
MTEXTEND
1000
MTEXTBEGIN
1070
    73
1070
     1
1070
    44
1040
1.0
1070
    74
1070
     0
1000
MTEXTEND
  0
DIMENSION
  5
6DDC
  8
COTATION1
  2
*D12
 10
1323.248168
 20
99.291586
 30
0.0
 11
1321.148168
 21
89.620157
 31
0.0
 13
1353.353086
 23
105.191586
 33
0.0
 14
1352.053086
 24
99.291586
 34
0.0
 50
90.0
  0
DIMENSION
  5
6DDD
  8
COTATION1
  2
*D11
 10
1323.248168
 20
163.191586
 30
0.0
 11
1321.148168
 21
134.191586
 31
0.0
 13
1353.353086
 23
105.191586
 33
0.0
 14
1353.353086
 24
163.191586
 34
0.0
 50
90.0
  0
ENDSEC
  0
EOF
