  0
SECTION
  2
HEADER
  9
$ACADVER
  1
AC1014
  9
$ACADMAINTVER
 70
     0
  9
$DWGCODEPAGE
  3
ANSI_1252
  9
$INSBASE
 10
216.006577
 20
101.256251
 30
0.0
  9
$EXTMIN
 10
61.457448
 20
103.9139
 30
0.0
  9
$EXTMAX
 10
126.665941
 20
166.658846
 30
0.0
  9
$LIMMIN
 10
0.0
 20
0.0
  9
$LIMMAX
 10
210.0
 20
297.0
  9
$ORTHOMODE
 70
     0
  9
$REGENMODE
 70
     1
  9
$FILLMODE
 70
     1
  9
$QTEXTMODE
 70
     0
  9
$MIRRTEXT
 70
     1
  9
$DRAGMODE
 70
     2
  9
$LTSCALE
 40
16.335
  9
$OSMODE
 70
     1
  9
$ATTMODE
 70
     1
  9
$TEXTSIZE
 40
0.2
  9
$TRACEWID
 40
0.05
  9
$TEXTSTYLE
  7
ROMANS
  9
$CLAYER
  8
COTATION1
  9
$CELTYPE
  6
BYLAYER
  9
$CECOLOR
 62
   256
  9
$CELTSCALE
 40
1.0
  9
$DELOBJ
 70
     1
  9
$DISPSILH
 70
     0
  9
$DIMSCALE
 40
1.0
  9
$DIMASZ
 40
3.0
  9
$DIMEXO
 40
0.0625
  9
$DIMDLI
 40
0.38
  9
$DIMRND
 40
0.01
  9
$DIMDLE
 40
0.0
  9
$DIMEXE
 40
0.18
  9
$DIMTP
 40
0.0
  9
$DIMTM
 40
0.0
  9
$DIMTXT
 40
2.5
  9
$DIMCEN
 40
0.09
  9
$DIMTSZ
 40
0.0
  9
$DIMTOL
 70
     0
  9
$DIMLIM
 70
     0
  9
$DIMTIH
 70
     0
  9
$DIMTOH
 70
     0
  9
$DIMSE1
 70
     0
  9
$DIMSE2
 70
     0
  9
$DIMTAD
 70
     1
  9
$DIMZIN
 70
    12
  9
$DIMBLK
  1

  9
$DIMASO
 70
     1
  9
$DIMSHO
 70
     1
  9
$DIMPOST
  1

  9
$DIMAPOST
  1

  9
$DIMALT
 70
     0
  9
$DIMALTD
 70
     2
  9
$DIMALTF
 40
25.4
  9
$DIMLFAC
 40
1.0
  9
$DIMTOFL
 70
     1
  9
$DIMTVP
 40
0.0
  9
$DIMTIX
 70
     0
  9
$DIMSOXD
 70
     0
  9
$DIMSAH
 70
     0
  9
$DIMBLK1
  1

  9
$DIMBLK2
  1

  9
$DIMSTYLE
  2
SC_STAND
  9
$DIMCLRD
 70
     0
  9
$DIMCLRE
 70
     0
  9
$DIMCLRT
 70
     0
  9
$DIMTFAC
 40
1.0
  9
$DIMGAP
 40
1.0
  9
$DIMJUST
 70
     0
  9
$DIMSD1
 70
     0
  9
$DIMSD2
 70
     0
  9
$DIMTOLJ
 70
     1
  9
$DIMTZIN
 70
    12
  9
$DIMALTZ
 70
    12
  9
$DIMALTTZ
 70
    12
  9
$DIMFIT
 70
     5
  9
$DIMUPT
 70
     0
  9
$DIMUNIT
 70
     2
  9
$DIMDEC
 70
     4
  9
$DIMTDEC
 70
     4
  9
$DIMALTU
 70
     2
  9
$DIMALTTD
 70
     2
  9
$DIMTXSTY
  7
ROMANS
  9
$DIMAUNIT
 70
     0
  9
$LUNITS
 70
     2
  9
$LUPREC
 70
     4
  9
$SKETCHINC
 40
0.1
  9
$FILLETRAD
 40
0.0
  9
$AUNITS
 70
     0
  9
$AUPREC
 70
     0
  9
$MENU
  1
acad
  9
$ELEVATION
 40
0.0
  9
$PELEVATION
 40
0.0
  9
$THICKNESS
 40
0.0
  9
$LIMCHECK
 70
     0
  9
$BLIPMODE
 70
     0
  9
$CHAMFERA
 40
0.0
  9
$CHAMFERB
 40
0.0
  9
$CHAMFERC
 40
0.0
  9
$CHAMFERD
 40
0.0
  9
$SKPOLY
 70
     0
  9
$TDCREATE
 40
2451127.681110995
  9
$TDUPDATE
 40
2451387.897224687
  9
$TDINDWG
 40
0.0003986111
  9
$TDUSRTIMER
 40
0.0003986111
  9
$USRTIMER
 70
     1
  9
$ANGBASE
 50
0.0
  9
$ANGDIR
 70
     0
  9
$PDMODE
 70
     0
  9
$PDSIZE
 40
0.0
  9
$PLINEWID
 40
0.0
  9
$COORDS
 70
     1
  9
$SPLFRAME
 70
     0
  9
$SPLINETYPE
 70
     6
  9
$SPLINESEGS
 70
     8
  9
$ATTDIA
 70
     0
  9
$ATTREQ
 70
     1
  9
$HANDLING
 70
     1
  9
$HANDSEED
  5
42C
  9
$SURFTAB1
 70
     6
  9
$SURFTAB2
 70
     6
  9
$SURFTYPE
 70
     6
  9
$SURFU
 70
     6
  9
$SURFV
 70
     6
  9
$UCSNAME
  2

  9
$UCSORG
 10
0.0
 20
0.0
 30
0.0
  9
$UCSXDIR
 10
1.0
 20
0.0
 30
0.0
  9
$UCSYDIR
 10
0.0
 20
1.0
 30
0.0
  9
$PUCSNAME
  2

  9
$PUCSORG
 10
0.0
 20
0.0
 30
0.0
  9
$PUCSXDIR
 10
1.0
 20
0.0
 30
0.0
  9
$PUCSYDIR
 10
0.0
 20
1.0
 30
0.0
  9
$USERI1
 70
     0
  9
$USERI2
 70
     0
  9
$USERI3
 70
     0
  9
$USERI4
 70
     0
  9
$USERI5
 70
     0
  9
$USERR1
 40
0.0
  9
$USERR2
 40
0.0
  9
$USERR3
 40
0.0
  9
$USERR4
 40
0.0
  9
$USERR5
 40
0.0
  9
$WORLDVIEW
 70
     1
  9
$SHADEDGE
 70
     3
  9
$SHADEDIF
 70
    70
  9
$TILEMODE
 70
     1
  9
$MAXACTVP
 70
    48
  9
$PINSBASE
 10
0.0
 20
0.0
 30
0.0
  9
$PLIMCHECK
 70
     0
  9
$PEXTMIN
 10
1.000000E+20
 20
1.000000E+20
 30
1.000000E+20
  9
$PEXTMAX
 10
-1.000000E+20
 20
-1.000000E+20
 30
-1.000000E+20
  9
$PLIMMIN
 10
0.0
 20
0.0
  9
$PLIMMAX
 10
12.0
 20
9.0
  9
$UNITMODE
 70
     0
  9
$VISRETAIN
 70
     1
  9
$PLINEGEN
 70
     0
  9
$PSLTSCALE
 70
     1
  9
$TREEDEPTH
 70
  3020
  9
$PICKSTYLE
 70
     1
  9
$CMLSTYLE
  2
STANDARD
  9
$CMLJUST
 70
     0
  9
$CMLSCALE
 40
1.0
  9
$PROXYGRAPHICS
 70
     1
  9
$MEASUREMENT
 70
     0
  0
ENDSEC
  0
SECTION
  2
CLASSES
  0
CLASS
  1
DICTIONARYVAR
  2
AcDbDictionaryVar
  3
"AutoCAD"
 90
        0
280
     0
281
     0
  0
CLASS
  1
LWPOLYLINE
  2
AcDbPolyline
  3
"AutoCAD"
 90
        0
280
     0
281
     1
  0
ENDSEC
  0
SECTION
  2
TABLES
  0
TABLE
  2
VPORT
  5
402
100
AcDbSymbolTable
 70
     1
  0
VPORT
  5
427
100
AcDbSymbolTableRecord
100
AcDbViewportTableRecord
  2
*ACTIVE
 70
     0
 10
0.0
 20
0.0
 11
1.0
 21
1.0
 12
258.127119
 22
154.469772
 13
0.0
 23
0.0
 14
1.0
 24
1.0
 15
10.0
 25
10.0
 16
0.0
 26
0.0
 36
1.0
 17
0.0
 27
0.0
 37
0.0
 40
308.939544
 41
1.671053
 42
50.0
 43
0.0
 44
0.0
 50
0.0
 51
0.0
 71
     0
 72
   100
 73
     1
 74
     1
 75
     0
 76
     1
 77
     0
 78
     0
  0
ENDTAB
  0
TABLE
  2
LTYPE
  5
3FF
100
AcDbSymbolTable
 70
     1
  0
LTYPE
  5
40B
100
AcDbSymbolTableRecord
100
AcDbLinetypeTableRecord
  2
BYBLOCK
 70
     0
  3

 72
    65
 73
     0
 40
0.0
  0
LTYPE
  5
40C
100
AcDbSymbolTableRecord
100
AcDbLinetypeTableRecord
  2
BYLAYER
 70
     0
  3

 72
    65
 73
     0
 40
0.0
  0
LTYPE
  5
40D
100
AcDbSymbolTableRecord
100
AcDbLinetypeTableRecord
  2
CONTINUOUS
 70
     0
  3
Solid line
 72
    65
 73
     0
 40
0.0
  0
ENDTAB
  0
TABLE
  2
LAYER
  5
3FC
100
AcDbSymbolTable
 70
     4
  0
LAYER
  5
408
100
AcDbSymbolTableRecord
100
AcDbLayerTableRecord
  2
0
 70
     0
 62
     7
  6
CONTINUOUS
  0
LAYER
  5
41B
100
AcDbSymbolTableRecord
100
AcDbLayerTableRecord
  2
COTATION1
 70
     0
 62
     2
  6
CONTINUOUS
  0
LAYER
  5
41C
100
AcDbSymbolTableRecord
100
AcDbLayerTableRecord
  2
ALPHA
 70
     0
 62
   255
  6
CONTINUOUS
  0
LAYER
  5
41D
100
AcDbSymbolTableRecord
100
AcDbLayerTableRecord
  2
DEFPOINTS
 70
     0
 62
     7
  6
CONTINUOUS
  0
ENDTAB
  0
TABLE
  2
STYLE
  5
3FD
100
AcDbSymbolTable
 70
     2
  0
STYLE
  5
409
100
AcDbSymbolTableRecord
100
AcDbTextStyleTableRecord
  2
STANDARD
 70
     0
 40
0.0
 41
1.0
 50
0.0
 71
     0
 42
0.2
  3
txt
  4

  0
STYLE
  5
418
100
AcDbSymbolTableRecord
100
AcDbTextStyleTableRecord
  2
ROMANS
 70
     0
 40
0.0
 41
1.0
 50
0.0
 71
     0
 42
2.9
  3
romans.shx
  4

  0
ENDTAB
  0
TABLE
  2
VIEW
  5
400
100
AcDbSymbolTable
 70
     0
  0
ENDTAB
  0
TABLE
  2
UCS
  5
401
100
AcDbSymbolTable
 70
     0
  0
ENDTAB
  0
TABLE
  2
APPID
  5
403
100
AcDbSymbolTable
 70
     1
  0
APPID
  5
40A
100
AcDbSymbolTableRecord
100
AcDbRegAppTableRecord
  2
ACAD
 70
     0
  0
ENDTAB
  0
TABLE
  2
DIMSTYLE
  5
404
100
AcDbSymbolTable
 70
     1
  0
DIMSTYLE
105
41A
102
{ACAD_REACTORS
330
3E7
330
3F4
102
}
100
AcDbSymbolTableRecord
100
AcDbDimStyleTableRecord
  2
SC_STAND
 70
     0
  3

  4

  5

  6

  7

 40
1.0
 41
3.0
 42
0.0625
 43
0.38
 44
0.18
 45
0.01
 46
0.0
 47
0.0
 48
0.0
140
2.5
141
0.09
142
0.0
143
25.4
144
1.0
145
0.0
146
1.0
147
1.0
 71
     0
 72
     0
 73
     0
 74
     0
 75
     0
 76
     0
 77
     1
 78
    12
170
     0
171
     2
172
     1
173
     0
174
     0
175
     0
176
     0
177
     0
178
     0
270
     2
271
     4
272
     4
273
     2
274
     2
340
418
275
     0
280
     0
281
     0
282
     0
283
     1
284
    12
285
    12
286
    12
287
     5
288
     0
  0
ENDTAB
  0
TABLE
  2
BLOCK_RECORD
  5
3FB
100
AcDbSymbolTable
 70
     2
  0
BLOCK_RECORD
  5
411
100
AcDbSymbolTableRecord
100
AcDbBlockTableRecord
  2
*MODEL_SPACE
  0
BLOCK_RECORD
  5
40E
100
AcDbSymbolTableRecord
100
AcDbBlockTableRecord
  2
*PAPER_SPACE
  0
BLOCK_RECORD
  5
416
100
AcDbSymbolTableRecord
100
AcDbBlockTableRecord
  2
*D0
  0
BLOCK_RECORD
  5
417
100
AcDbSymbolTableRecord
100
AcDbBlockTableRecord
  2
*D1
  0
ENDTAB
  0
ENDSEC
  0
SECTION
  2
BLOCKS
  0
BLOCK
  5
420
100
AcDbEntity
  8
0
100
AcDbBlockBegin
  2
*MODEL_SPACE
 70
     0
 10
0.0
 20
0.0
 30
0.0
  3
*MODEL_SPACE
  1

  0
ENDBLK
  5
421
100
AcDbEntity
  8
0
100
AcDbBlockEnd
  0
BLOCK
  5
41E
100
AcDbEntity
 67
     1
  8
0
100
AcDbBlockBegin
  2
*PAPER_SPACE
 70
     0
 10
0.0
 20
0.0
 30
0.0
  3
*PAPER_SPACE
  1

  0
ENDBLK
  5
41F
100
AcDbEntity
 67
     1
  8
0
100
AcDbBlockEnd
  0
BLOCK
  5
3DB
100
AcDbEntity
  8
0
100
AcDbBlockBegin
  2
*D0
 70
     1
 10
0.0
 20
0.0
 30
0.0
  3
*D0
  1

  0
LINE
  5
3DC
100
AcDbEntity
  8
0
  6
BYBLOCK
 62
     0
100
AcDbLine
 10
70.457448
 20
132.196346
 30
0.0
 11
70.457448
 21
104.2339
 31
0.0
  0
LINE
  5
3DD
100
AcDbEntity
  8
0
  6
BYBLOCK
 62
     0
100
AcDbLine
 10
107.057448
 20
129.096346
 30
0.0
 11
107.057448
 21
104.2339
 31
0.0
  0
LINE
  5
3DE
100
AcDbEntity
  8
0
  6
BYBLOCK
 62
     0
100
AcDbLine
 10
73.457448
 20
104.4139
 30
0.0
 11
104.057448
 21
104.4139
 31
0.0
  0
SOLID
  5
3DF
100
AcDbEntity
  8
0
  6
BYBLOCK
 62
     0
100
AcDbTrace
 10
73.457448
 20
104.9139
 30
0.0
 11
73.457448
 21
103.9139
 31
0.0
 12
70.457448
 22
104.4139
 32
0.0
 13
70.457448
 23
104.4139
 33
0.0
  0
SOLID
  5
3E0
100
AcDbEntity
  8
0
  6
BYBLOCK
 62
     0
100
AcDbTrace
 10
104.057448
 20
104.9139
 30
0.0
 11
104.057448
 21
103.9139
 31
0.0
 12
107.057448
 22
104.4139
 32
0.0
 13
107.057448
 23
104.4139
 33
0.0
  0
TEXT
  5
3E1
100
AcDbEntity
  8
0
  6
BYBLOCK
 62
     0
100
AcDbText
 10
84.590781
 20
105.4139
 30
0.0
 40
2.5
  1
36.6
  7
ROMANS
100
AcDbText
  0
POINT
  5
3E3
100
AcDbEntity
  8
DEFPOINTS
  6
BYBLOCK
 62
     0
100
AcDbPoint
 10
70.457448
 20
132.258846
 30
0.0
  0
POINT
  5
3E4
100
AcDbEntity
  8
DEFPOINTS
  6
BYBLOCK
 62
     0
100
AcDbPoint
 10
107.057448
 20
129.158846
 30
0.0
  0
POINT
  5
3E5
100
AcDbEntity
  8
DEFPOINTS
  6
BYBLOCK
 62
     0
100
AcDbPoint
 10
107.057448
 20
104.4139
 30
0.0
  0
ENDBLK
  5
3E6
100
AcDbEntity
  8
0
100
AcDbBlockEnd
  0
BLOCK
  5
3E9
100
AcDbEntity
  8
0
100
AcDbBlockBegin
  2
*D1
 70
     1
 10
0.0
 20
0.0
 30
0.0
  3
*D1
  1

  0
LINE
  5
3EA
100
AcDbEntity
  8
0
  6
BYBLOCK
 62
     0
100
AcDbLine
 10
102.998731
 20
127.658846
 30
0.0
 11
126.345941
 21
127.658846
 31
0.0
  0
LINE
  5
3EB
100
AcDbEntity
  8
0
  6
BYBLOCK
 62
     0
100
AcDbLine
 10
102.998731
 20
159.655686
 30
0.0
 11
126.345941
 21
159.655686
 31
0.0
  0
LINE
  5
3EC
100
AcDbEntity
  8
0
  6
BYBLOCK
 62
     0
100
AcDbLine
 10
126.165941
 20
130.658846
 30
0.0
 11
126.165941
 21
156.655686
 31
0.0
  0
SOLID
  5
3ED
100
AcDbEntity
  8
0
  6
BYBLOCK
 62
     0
100
AcDbTrace
 10
125.665941
 20
130.658846
 30
0.0
 11
126.665941
 21
130.658846
 31
0.0
 12
126.165941
 22
127.658846
 32
0.0
 13
126.165941
 23
127.658846
 33
0.0
  0
SOLID
  5
3EE
100
AcDbEntity
  8
0
  6
BYBLOCK
 62
     0
100
AcDbTrace
 10
125.665941
 20
156.655686
 30
0.0
 11
126.665941
 21
156.655686
 31
0.0
 12
126.165941
 22
159.655686
 32
0.0
 13
126.165941
 23
159.655686
 33
0.0
  0
TEXT
  5
3EF
100
AcDbEntity
  8
0
  6
BYBLOCK
 62
     0
100
AcDbText
 10
125.165941
 20
141.276313
 30
0.0
 40
2.5
  1
32
 50
90.0
  7
ROMANS
100
AcDbText
  0
POINT
  5
3F0
100
AcDbEntity
  8
DEFPOINTS
  6
BYBLOCK
 62
     0
100
AcDbPoint
 10
102.936231
 20
127.658846
 30
0.0
  0
POINT
  5
3F1
100
AcDbEntity
  8
DEFPOINTS
  6
BYBLOCK
 62
     0
100
AcDbPoint
 10
102.936231
 20
159.655686
 30
0.0
  0
POINT
  5
3F2
100
AcDbEntity
  8
DEFPOINTS
  6
BYBLOCK
 62
     0
100
AcDbPoint
 10
126.165941
 20
159.655686
 30
0.0
  0
ENDBLK
  5
3F3
100
AcDbEntity
  8
0
100
AcDbBlockEnd
  0
ENDSEC
  0
SECTION
  2
ENTITIES
  0
LINE
  5
1F
100
AcDbEntity
  8
ALPHA
100
AcDbLine
 10
76.657448
 20
143.658846
 30
0.0
 11
76.657448
 21
160.658846
 31
0.0
  0
LINE
  5
21
100
AcDbEntity
  8
ALPHA
100
AcDbLine
 10
83.457448
 20
153.858846
 30
0.0
 11
83.457448
 21
147.845337
 31
0.0
  0
LINE
  5
22
100
AcDbEntity
  8
ALPHA
100
AcDbLine
 10
65.07442
 20
163.748482
 30
0.0
 11
73.237793
 21
133.221128
 31
0.0
  0
LINE
  5
23
100
AcDbEntity
  8
ALPHA
100
AcDbLine
 10
72.114691
 20
160.646717
 30
0.0
 11
76.657448
 21
143.658846
 31
0.0
  0
LINE
  5
24
100
AcDbEntity
  8
ALPHA
100
AcDbLine
 10
107.057448
 20
137.258846
 30
0.0
 11
107.057448
 21
158.155686
 31
0.0
  0
LINE
  5
25
100
AcDbEntity
  8
ALPHA
100
AcDbLine
 10
68.457448
 20
141.058846
 30
0.0
 11
63.457448
 21
141.058846
 31
0.0
  0
LINE
  5
26
100
AcDbEntity
  8
ALPHA
100
AcDbLine
 10
68.457448
 20
146.258846
 30
0.0
 11
63.457448
 21
146.258846
 31
0.0
  0
LINE
  5
27
100
AcDbEntity
  8
ALPHA
100
AcDbLine
 10
68.457448
 20
145.22956
 30
0.0
 11
63.457448
 21
145.22956
 31
0.0
  0
LINE
  5
28
100
AcDbEntity
  8
ALPHA
100
AcDbLine
 10
68.457448
 20
142.088131
 30
0.0
 11
63.457448
 21
142.088131
 31
0.0
  0
LINE
  5
29
100
AcDbEntity
  8
ALPHA
100
AcDbLine
 10
61.457448
 20
142.158846
 30
0.0
 11
61.457448
 21
145.158846
 31
0.0
  0
LINE
  5
2A
100
AcDbEntity
  8
ALPHA
100
AcDbLine
 10
63.457448
 20
142.088131
 30
0.0
 11
63.457448
 21
145.22956
 31
0.0
  0
LINE
  5
2B
100
AcDbEntity
  8
ALPHA
100
AcDbLine
 10
61.457448
 20
142.158846
 30
0.0
 11
63.457448
 21
141.058846
 31
0.0
  0
LINE
  5
2C
100
AcDbEntity
  8
ALPHA
100
AcDbLine
 10
63.457448
 20
142.088131
 30
0.0
 11
61.457448
 21
142.158846
 31
0.0
  0
LINE
  5
2D
100
AcDbEntity
  8
ALPHA
100
AcDbLine
 10
63.457448
 20
142.088131
 30
0.0
 11
63.457448
 21
141.058846
 31
0.0
  0
LINE
  5
2E
100
AcDbEntity
  8
ALPHA
100
AcDbLine
 10
63.457448
 20
146.258846
 30
0.0
 11
61.457448
 21
145.158846
 31
0.0
  0
LINE
  5
2F
100
AcDbEntity
  8
ALPHA
100
AcDbLine
 10
63.457448
 20
145.22956
 30
0.0
 11
61.457448
 21
145.158846
 31
0.0
  0
LINE
  5
30
100
AcDbEntity
  8
ALPHA
100
AcDbLine
 10
63.457448
 20
146.258846
 30
0.0
 11
63.457448
 21
145.22956
 31
0.0
  0
LINE
  5
31
100
AcDbEntity
  8
ALPHA
100
AcDbLine
 10
88.395284
 20
127.39748
 30
0.0
 11
88.12347
 21
125.855943
 31
0.0
  0
LINE
  5
32
100
AcDbEntity
  8
ALPHA
100
AcDbLine
 10
88.395253
 20
127.397305
 30
0.0
 11
88.12347
 21
125.855943
 31
0.0
  0
LINE
  5
33
100
AcDbEntity
  8
ALPHA
100
AcDbLine
 10
88.177488
 20
127.739352
 30
0.0
 11
86.438588
 21
128.205289
 31
0.0
  0
LINE
  5
34
100
AcDbEntity
  8
ALPHA
100
AcDbLine
 10
88.177488
 20
127.739352
 30
0.0
 11
86.438588
 21
128.205289
 31
0.0
  0
LWPOLYLINE
  5
35
100
AcDbEntity
  8
ALPHA
100
AcDbPolyline
 90
        9
 70
     0
 43
0.0
 10
87.845392
 20
125.855943
 10
87.914237
 20
126.246381
 10
87.978205
 20
126.609164
 10
88.035569
 20
126.934491
 10
88.084778
 20
127.213572
 10
88.124504
 20
127.438865
 10
88.153671
 20
127.604282
 10
88.171493
 20
127.705355
 10
88.177488
 20
127.739352
  0
LINE
  5
40
100
AcDbEntity
  8
ALPHA
100
AcDbLine
 10
87.257448
 20
131.623546
 30
0.0
 11
97.078247
 21
127.655686
 31
0.0
  0
LINE
  5
41
100
AcDbEntity
  8
ALPHA
100
AcDbLine
 10
81.040646
 20
130.558846
 30
0.0
 11
76.657448
 21
143.658846
 31
0.0
  0
LINE
  5
42
100
AcDbEntity
  8
ALPHA
100
AcDbLine
 10
70.457448
 20
133.30119
 30
0.0
 11
70.457448
 21
132.364696
 31
0.0
  0
LINE
  5
43
100
AcDbEntity
  8
ALPHA
100
AcDbLine
 10
86.457448
 20
131.158846
 30
0.0
 11
86.457448
 21
135.965442
 31
0.0
  0
LINE
  5
44
100
AcDbEntity
  8
ALPHA
100
AcDbLine
 10
73.573628
 20
131.965255
 30
0.0
 11
73.237793
 21
133.221128
 31
0.0
  0
LINE
  5
45
100
AcDbEntity
  8
ALPHA
100
AcDbLine
 10
80.015797
 20
131.100124
 30
0.0
 11
79.369961
 21
133.515263
 31
0.0
  0
LINE
  5
46
100
AcDbEntity
  8
ALPHA
100
AcDbLine
 10
87.257448
 20
136.002228
 30
0.0
 11
87.257448
 21
131.623546
 31
0.0
  0
LINE
  5
47
100
AcDbEntity
  8
ALPHA
100
AcDbLine
 10
80.015797
 20
131.100124
 30
0.0
 11
74.219464
 21
129.550117
 31
0.0
  0
LINE
  5
48
100
AcDbEntity
  8
ALPHA
100
AcDbLine
 10
77.081819
 20
120.394571
 30
0.0
 11
76.362562
 21
123.084273
 31
0.0
  0
LINE
  5
49
100
AcDbEntity
  8
ALPHA
100
AcDbLine
 10
74.219464
 20
129.550117
 30
0.0
 11
80.015797
 21
131.100124
 31
0.0
  0
ARC
  5
4A
100
AcDbEntity
  8
ALPHA
100
AcDbCircle
 10
78.021802
 20
126.943926
 30
0.0
 40
1.7
100
AcDbArc
 50
134.65105
 51
235.29148
  0
LINE
  5
4B
100
AcDbEntity
  8
ALPHA
100
AcDbLine
 10
75.898639
 20
123.270756
 30
0.0
 11
81.694972
 21
124.820763
 31
0.0
  0
LINE
  5
4C
100
AcDbEntity
  8
ALPHA
100
AcDbLine
 10
74.348631
 20
129.067089
 30
0.0
 11
80.144964
 21
130.617096
 31
0.0
  0
LINE
  5
4D
100
AcDbEntity
  8
ALPHA
100
AcDbLine
 10
74.348631
 20
129.067089
 30
0.0
 11
75.898639
 21
123.270756
 31
0.0
  0
LINE
  5
4E
100
AcDbEntity
  8
ALPHA
100
AcDbLine
 10
76.362562
 20
123.084273
 30
0.0
 11
75.976139
 21
122.980939
 31
0.0
  0
LINE
  5
4F
100
AcDbEntity
  8
ALPHA
100
AcDbLine
 10
75.976139
 20
122.980939
 30
0.0
 11
75.898639
 21
123.270756
 31
0.0
  0
LINE
  5
50
100
AcDbEntity
  8
ALPHA
 62
    80
100
AcDbLine
 10
66.486344
 20
130.644884
 30
0.0
 11
74.294899
 21
129.268025
 31
0.0
  0
LINE
  5
51
100
AcDbEntity
  8
ALPHA
 62
    80
100
AcDbLine
 10
65.913305
 20
127.395018
 30
0.0
 11
75.235313
 21
125.751297
 31
0.0
  0
LINE
  5
54
100
AcDbEntity
  8
ALPHA
100
AcDbLine
 10
74.195158
 20
129.641011
 30
0.0
 11
66.547121
 21
130.989567
 31
0.0
  0
LINE
  5
55
100
AcDbEntity
  8
ALPHA
100
AcDbLine
 10
75.335054
 20
125.378311
 30
0.0
 11
65.852528
 21
127.050336
 31
0.0
  0
LINE
  5
56
100
AcDbEntity
  8
ALPHA
100
AcDbLine
 10
74.195158
 20
129.641011
 30
0.0
 11
66.547121
 21
130.989567
 31
0.0
  0
LINE
  5
57
100
AcDbEntity
  8
ALPHA
100
AcDbLine
 10
75.335054
 20
125.378311
 30
0.0
 11
65.852528
 21
127.050336
 31
0.0
  0
LINE
  5
58
100
AcDbEntity
  8
ALPHA
100
AcDbLine
 10
73.495118
 20
132.258846
 30
0.0
 11
70.457448
 21
132.258846
 31
0.0
  0
LWPOLYLINE
  5
59
100
AcDbEntity
  8
ALPHA
100
AcDbPolyline
 90
        5
 70
     0
 43
0.0
 10
70.457448
 20
132.364667
 10
71.332512
 20
132.389877
 10
72.132112
 20
132.414856
 10
72.862355
 20
132.439702
 10
73.440995
 20
132.461244
  0
LWPOLYLINE
  5
60
100
AcDbEntity
  8
ALPHA
100
AcDbPolyline
 90
       17
 70
     0
 43
0.0
 10
66.486345
 20
130.644884
 10
66.480888
 20
130.613937
 10
66.464726
 20
130.522276
 10
66.438473
 20
130.373392
 10
66.402425
 20
130.168952
 10
66.359215
 20
129.923894
 10
66.309933
 20
129.644405
 10
66.256458
 20
129.341131
 10
66.199825
 20
129.019951
 10
66.144173
 20
128.704333
 10
66.090641
 20
128.400737
 10
66.041268
 20
128.120727
 10
65.997225
 20
127.87095
 10
65.961732
 20
127.669657
 10
65.935307
 20
127.519797
 10
65.918958
 20
127.427076
 10
65.913306
 20
127.395018
  0
LWPOLYLINE
  5
73
100
AcDbEntity
  8
ALPHA
100
AcDbPolyline
 90
       46
 70
     0
 43
0.0
 10
66.480793
 20
130.613404
 10
66.471998
 20
130.563526
 10
66.462726
 20
130.510937
 10
66.452992
 20
130.455735
 10
66.442815
 20
130.398017
 10
66.432211
 20
130.337881
 10
66.421199
 20
130.275429
 10
66.409799
 20
130.210773
 10
66.39803
 20
130.144031
 10
66.385915
 20
130.075321
 10
66.373473
 20
130.004759
 10
66.360725
 20
129.932465
 10
66.347696
 20
129.858569
 10
66.334407
 20
129.783204
 10
66.320882
 20
129.706502
 10
66.307145
 20
129.628596
 10
66.293219
 20
129.549619
 10
66.27913
 20
129.469713
 10
66.264901
 20
129.389018
 10
66.250558
 20
129.307677
 10
66.236127
 20
129.225832
 10
66.221632
 20
129.143625
 10
66.207098
 20
129.0612
 10
66.192551
 20
128.978703
 10
66.178018
 20
128.896278
 10
66.163522
 20
128.81407
 10
66.149091
 20
128.732225
 10
66.134748
 20
128.650884
 10
66.120519
 20
128.57019
 10
66.10643
 20
128.490283
 10
66.092504
 20
128.411307
 10
66.078767
 20
128.3334
 10
66.065242
 20
128.256698
 10
66.051954
 20
128.181333
 10
66.038924
 20
128.107437
 10
66.026176
 20
128.035143
 10
66.013734
 20
127.964582
 10
66.001619
 20
127.895871
 10
65.989851
 20
127.82913
 10
65.97845
 20
127.764474
 10
65.967438
 20
127.702021
 10
65.956834
 20
127.641886
 10
65.946657
 20
127.584168
 10
65.936924
 20
127.528966
 10
65.927651
 20
127.476377
 10
65.918856
 20
127.426499
  0
LINE
  5
A3
100
AcDbEntity
  8
ALPHA
100
AcDbLine
 10
65.847309
 20
127.051256
 30
0.0
 11
65.057448
 21
129.221383
 31
0.0
  0
LWPOLYLINE
  5
A4
100
AcDbEntity
  8
ALPHA
100
AcDbPolyline
 90
       10
 70
     0
 43
0.0
 10
65.913637
 20
127.427419
 10
65.962219
 20
127.702941
 10
66.020957
 20
128.036064
 10
66.087285
 20
128.412227
 10
66.158303
 20
128.814991
 10
66.230908
 20
129.226752
 10
66.301926
 20
129.629516
 10
66.368254
 20
130.005679
 10
66.426992
 20
130.338801
 10
66.475574
 20
130.614324
  0
LWPOLYLINE
  5
B0
100
AcDbEntity
  8
ALPHA
100
AcDbPolyline
 90
       16
 70
     0
 43
0.0
 10
65.852528
 20
127.050336
 10
65.852856
 20
127.052196
 10
65.853776
 20
127.057412
 10
65.855291
 20
127.066002
 10
65.857403
 20
127.077985
 10
65.860117
 20
127.093377
 10
65.863434
 20
127.112184
 10
65.867345
 20
127.134366
 10
65.871842
 20
127.159868
 10
65.876914
 20
127.188636
 10
65.882554
 20
127.220618
 10
65.887466
 20
127.248479
 10
65.892729
 20
127.278326
 10
65.898336
 20
127.310124
 10
65.90428
 20
127.343835
 10
65.910556
 20
127.379425
  0
LWPOLYLINE
  5
C2
100
AcDbEntity
  8
ALPHA
100
AcDbPolyline
 90
        6
 70
     0
 43
0.0
 10
65.910556
 20
127.379425
 10
65.91109
 20
127.382455
 10
65.911626
 20
127.385498
 10
65.912165
 20
127.388554
 10
65.912706
 20
127.391622
 10
65.913249
 20
127.394703
  0
LWPOLYLINE
  5
CA
100
AcDbEntity
  8
ALPHA
100
AcDbPolyline
 90
        6
 70
     0
 43
0.0
 10
65.918856
 20
127.426499
 10
65.917156
 20
127.416857
 10
65.915476
 20
127.407328
 10
65.913815
 20
127.397913
 10
65.912175
 20
127.388612
 10
65.910556
 20
127.379425
  0
LWPOLYLINE
  5
D2
100
AcDbEntity
  8
ALPHA
100
AcDbPolyline
 90
       16
 70
     0
 43
0.0
 10
65.910556
 20
127.379425
 10
65.90428
 20
127.343835
 10
65.898336
 20
127.310124
 10
65.892729
 20
127.278326
 10
65.887466
 20
127.248479
 10
65.882554
 20
127.220618
 10
65.876914
 20
127.188636
 10
65.871842
 20
127.159868
 10
65.867345
 20
127.134366
 10
65.863434
 20
127.112184
 10
65.860117
 20
127.093377
 10
65.857403
 20
127.077985
 10
65.855291
 20
127.066002
 10
65.853776
 20
127.057412
 10
65.852856
 20
127.052196
 10
65.852528
 20
127.050336
  0
LINE
  5
E4
100
AcDbEntity
  8
ALPHA
100
AcDbLine
 10
65.852528
 20
127.050336
 30
0.0
 11
65.847309
 21
127.051256
 31
0.0
  0
LINE
  5
E5
100
AcDbEntity
  8
ALPHA
100
AcDbLine
 10
65.852528
 20
127.050336
 30
0.0
 11
65.847309
 21
127.051256
 31
0.0
  0
LINE
  5
E6
100
AcDbEntity
  8
ALPHA
100
AcDbLine
 10
65.847309
 20
127.051256
 30
0.0
 11
65.854899
 21
127.094297
 31
0.0
  0
LWPOLYLINE
  5
E7
100
AcDbEntity
  8
ALPHA
100
AcDbPolyline
 90
        3
 70
     0
 43
0.0
 10
65.854899
 20
127.094297
 10
65.877335
 20
127.221538
 10
65.908086
 20
127.395939
  0
LINE
  5
EC
100
AcDbEntity
  8
ALPHA
100
AcDbLine
 10
65.908086
 20
127.395939
 30
0.0
 11
65.913637
 21
127.427419
 31
0.0
  0
LWPOLYLINE
  5
ED
100
AcDbEntity
  8
ALPHA
100
AcDbPolyline
 90
        6
 70
     0
 43
0.0
 10
66.4864
 20
130.645199
 10
66.486943
 20
130.64828
 10
66.487484
 20
130.651348
 10
66.488023
 20
130.654404
 10
66.488559
 20
130.657447
 10
66.489094
 20
130.660478
  0
LWPOLYLINE
  5
F5
100
AcDbEntity
  8
ALPHA
100
AcDbPolyline
 90
       16
 70
     0
 43
0.0
 10
66.489094
 20
130.660478
 10
66.495369
 20
130.696067
 10
66.501313
 20
130.729779
 10
66.50692
 20
130.761576
 10
66.512183
 20
130.791423
 10
66.517096
 20
130.819285
 10
66.522735
 20
130.851266
 10
66.527807
 20
130.880035
 10
66.532304
 20
130.905537
 10
66.536215
 20
130.927718
 10
66.539532
 20
130.946526
 10
66.542246
 20
130.961918
 10
66.544358
 20
130.9739
 10
66.545873
 20
130.98249
 10
66.546793
 20
130.987707
 10
66.547121
 20
130.989567
  0
LWPOLYLINE
  5
107
100
AcDbEntity
  8
ALPHA
100
AcDbPolyline
 90
       16
 70
     0
 43
0.0
 10
66.547121
 20
130.989567
 10
66.546793
 20
130.987707
 10
66.545873
 20
130.98249
 10
66.544358
 20
130.9739
 10
66.542246
 20
130.961918
 10
66.539532
 20
130.946526
 10
66.536215
 20
130.927718
 10
66.532304
 20
130.905537
 10
66.527807
 20
130.880035
 10
66.522735
 20
130.851266
 10
66.517096
 20
130.819285
 10
66.512183
 20
130.791423
 10
66.50692
 20
130.761576
 10
66.501313
 20
130.729779
 10
66.495369
 20
130.696067
 10
66.489094
 20
130.660478
  0
LWPOLYLINE
  5
119
100
AcDbEntity
  8
ALPHA
100
AcDbPolyline
 90
        6
 70
     0
 43
0.0
 10
66.489094
 20
130.660478
 10
66.487474
 20
130.651291
 10
66.485834
 20
130.64199
 10
66.484174
 20
130.632574
 10
66.482493
 20
130.623045
 10
66.480793
 20
130.613404
  0
LINE
  5
121
100
AcDbEntity
  8
ALPHA
100
AcDbLine
 10
66.547121
 20
130.989567
 30
0.0
 11
66.541902
 21
130.990487
 31
0.0
  0
LINE
  5
122
100
AcDbEntity
  8
ALPHA
100
AcDbLine
 10
66.547121
 20
130.989567
 30
0.0
 11
66.541902
 21
130.990487
 31
0.0
  0
LINE
  5
123
100
AcDbEntity
  8
ALPHA
100
AcDbLine
 10
66.541902
 20
130.990487
 30
0.0
 11
65.057448
 21
129.221383
 31
0.0
  0
LINE
  5
124
100
AcDbEntity
  8
ALPHA
100
AcDbLine
 10
66.475574
 20
130.614324
 30
0.0
 11
66.481125
 21
130.645804
 31
0.0
  0
LWPOLYLINE
  5
125
100
AcDbEntity
  8
ALPHA
100
AcDbPolyline
 90
        3
 70
     0
 43
0.0
 10
66.481125
 20
130.645804
 10
66.511877
 20
130.820205
 10
66.534313
 20
130.947446
  0
LINE
  5
12A
100
AcDbEntity
  8
ALPHA
100
AcDbLine
 10
66.534313
 20
130.947446
 30
0.0
 11
66.541902
 21
130.990487
 31
0.0
  0
LINE
  5
12B
100
AcDbEntity
  8
ALPHA
100
AcDbLine
 10
70.457448
 20
132.258846
 30
0.0
 11
70.457448
 21
132.364696
 31
0.0
  0
LINE
  5
12C
100
AcDbEntity
  8
ALPHA
100
AcDbLine
 10
74.219464
 20
129.550117
 30
0.0
 11
73.573628
 21
131.965255
 31
0.0
  0
LINE
  5
12D
100
AcDbEntity
  8
ALPHA
100
AcDbLine
 10
74.348631
 20
129.067089
 30
0.0
 11
74.219464
 21
129.550117
 31
0.0
  0
LWPOLYLINE
  5
12E
100
AcDbEntity
  8
ALPHA
100
AcDbPolyline
 90
        9
 70
     0
 43
0.0
 10
84.790829
 20
125.95954
 10
84.73095
 20
125.619948
 10
84.671102
 20
125.280536
 10
84.614981
 20
124.962257
 10
84.565121
 20
124.679488
 10
84.523775
 20
124.445
 10
84.492809
 20
124.269386
 10
84.473623
 20
124.160577
 10
84.467083
 20
124.123487
  0
LWPOLYLINE
  5
139
100
AcDbEntity
  8
ALPHA
100
AcDbPolyline
 90
       31
 70
     0
 43
0.0
 10
84.472634
 20
124.154967
 10
84.481429
 20
124.204845
 10
84.490702
 20
124.257434
 10
84.500435
 20
124.312636
 10
84.510612
 20
124.370354
 10
84.521216
 20
124.43049
 10
84.532228
 20
124.492942
 10
84.543629
 20
124.557598
 10
84.555397
 20
124.624339
 10
84.567512
 20
124.69305
 10
84.579954
 20
124.763612
 10
84.592702
 20
124.835906
 10
84.605732
 20
124.909801
 10
84.619021
 20
124.985167
 10
84.632545
 20
125.061869
 10
84.646282
 20
125.139775
 10
84.660208
 20
125.218751
 10
84.674298
 20
125.298658
 10
84.688526
 20
125.379353
 10
84.702869
 20
125.460693
 10
84.7173
 20
125.542539
 10
84.731796
 20
125.624746
 10
84.746329
 20
125.707171
 10
84.760876
 20
125.789668
 10
84.77541
 20
125.872093
 10
84.789905
 20
125.9543
 10
84.790066
 20
125.955212
 10
84.790226
 20
125.956123
 10
84.790387
 20
125.957034
 10
84.790548
 20
125.957945
 10
84.790708
 20
125.958857
  0
LINE
  5
15A
100
AcDbEntity
  8
ALPHA
100
AcDbLine
 10
87.883467
 20
124.494818
 30
0.0
 11
87.616756
 21
122.982229
 31
0.0
  0
LINE
  5
15B
100
AcDbEntity
  8
ALPHA
100
AcDbLine
 10
87.883467
 20
124.494818
 30
0.0
 11
87.617985
 21
122.989197
 31
0.0
  0
LINE
  5
15C
100
AcDbEntity
  8
ALPHA
100
AcDbLine
 10
85.203782
 20
123.694499
 30
0.0
 11
85.688684
 21
126.444515
 31
0.0
  0
LWPOLYLINE
  5
15D
100
AcDbEntity
  8
ALPHA
100
AcDbPolyline
 90
        9
 70
     0
 43
0.0
 10
87.290063
 20
122.706517
 10
87.296058
 20
122.740514
 10
87.31388
 20
122.841587
 10
87.343047
 20
123.007005
 10
87.382772
 20
123.232298
 10
87.431982
 20
123.511378
 10
87.489346
 20
123.836705
 10
87.553314
 20
124.199489
 10
87.622159
 20
124.589926
  0
LINE
  5
168
100
AcDbEntity
  8
ALPHA
100
AcDbLine
 10
83.957448
 20
123.684759
 30
0.0
 11
83.957448
 21
125.618846
 31
0.0
  0
LINE
  5
169
100
AcDbEntity
  8
ALPHA
100
AcDbLine
 10
82.030807
 20
123.564891
 30
0.0
 11
81.694972
 21
124.820763
 31
0.0
  0
LINE
  5
16A
100
AcDbEntity
  8
ALPHA
100
AcDbLine
 10
82.676643
 20
121.149752
 30
0.0
 11
80.551321
 21
120.581416
 31
0.0
  0
LINE
  5
16B
100
AcDbEntity
  8
ALPHA
100
AcDbLine
 10
82.320624
 20
123.642392
 30
0.0
 11
82.96646
 21
121.227253
 31
0.0
  0
LINE
  5
16C
100
AcDbEntity
  8
ALPHA
100
AcDbLine
 10
80.551321
 20
120.581416
 30
0.0
 11
82.676643
 21
121.149752
 31
0.0
  0
LINE
  5
16D
100
AcDbEntity
  8
ALPHA
100
AcDbLine
 10
82.666307
 20
121.188407
 30
0.0
 11
82.037649
 21
123.539305
 31
0.0
  0
LINE
  5
16E
100
AcDbEntity
  8
ALPHA
100
AcDbLine
 10
80.551321
 20
120.581416
 30
0.0
 11
77.081819
 21
120.394571
 31
0.0
  0
LINE
  5
16F
100
AcDbEntity
  8
ALPHA
100
AcDbLine
 10
82.030807
 20
123.564891
 30
0.0
 11
82.320624
 21
123.642392
 31
0.0
  0
LINE
  5
170
100
AcDbEntity
  8
ALPHA
100
AcDbLine
 10
82.037649
 20
123.539305
 30
0.0
 11
82.030807
 21
123.564891
 31
0.0
  0
LINE
  5
171
100
AcDbEntity
  8
ALPHA
100
AcDbLine
 10
87.290063
 20
122.706517
 30
0.0
 11
85.063916
 21
122.90128
 31
0.0
  0
LINE
  5
172
100
AcDbEntity
  8
ALPHA
100
AcDbLine
 10
87.290063
 20
122.706517
 30
0.0
 11
85.063916
 21
122.90128
 31
0.0
  0
LINE
  5
173
100
AcDbEntity
  8
ALPHA
100
AcDbLine
 10
83.957448
 20
124.213349
 30
0.0
 11
84.467083
 21
124.123487
 31
0.0
  0
LINE
  5
174
100
AcDbEntity
  8
ALPHA
100
AcDbLine
 10
83.957448
 20
124.213349
 30
0.0
 11
84.467083
 21
124.123487
 31
0.0
  0
LWPOLYLINE
  5
175
100
AcDbEntity
  8
ALPHA
100
AcDbPolyline
 90
        6
 70
     0
 43
0.0
 10
84.467028
 20
124.123171
 10
84.466484
 20
124.120091
 10
84.465943
 20
124.117022
 10
84.465405
 20
124.113967
 10
84.464868
 20
124.110924
 10
84.464334
 20
124.107893
  0
LWPOLYLINE
  5
17D
100
AcDbEntity
  8
ALPHA
100
AcDbPolyline
 90
       16
 70
     0
 43
0.0
 10
84.464334
 20
124.107893
 10
84.458058
 20
124.072303
 10
84.452114
 20
124.038592
 10
84.446507
 20
124.006795
 10
84.441244
 20
123.976947
 10
84.436332
 20
123.949086
 10
84.430692
 20
123.917105
 10
84.42562
 20
123.888336
 10
84.421123
 20
123.862834
 10
84.417212
 20
123.840653
 10
84.413896
 20
123.821845
 10
84.411182
 20
123.806453
 10
84.409069
 20
123.794471
 10
84.407554
 20
123.785881
 10
84.406634
 20
123.780664
 10
84.406306
 20
123.778804
  0
LWPOLYLINE
  5
18F
100
AcDbEntity
  8
ALPHA
100
AcDbPolyline
 90
       16
 70
     0
 43
0.0
 10
84.406306
 20
123.778804
 10
84.406634
 20
123.780664
 10
84.407554
 20
123.785881
 10
84.409069
 20
123.794471
 10
84.411182
 20
123.806453
 10
84.413896
 20
123.821845
 10
84.417212
 20
123.840653
 10
84.421123
 20
123.862834
 10
84.42562
 20
123.888336
 10
84.430692
 20
123.917105
 10
84.436332
 20
123.949086
 10
84.441244
 20
123.976947
 10
84.446507
 20
124.006795
 10
84.452114
 20
124.038592
 10
84.458058
 20
124.072303
 10
84.464334
 20
124.107893
  0
LWPOLYLINE
  5
1A1
100
AcDbEntity
  8
ALPHA
100
AcDbPolyline
 90
        6
 70
     0
 43
0.0
 10
84.464334
 20
124.107893
 10
84.465953
 20
124.11708
 10
84.467594
 20
124.126381
 10
84.469254
 20
124.135797
 10
84.470934
 20
124.145325
 10
84.472634
 20
124.154967
  0
LINE
  5
1A9
100
AcDbEntity
  8
ALPHA
100
AcDbLine
 10
85.194152
 20
123.639886
 30
0.0
 11
84.406306
 21
123.778804
 31
0.0
  0
LINE
  5
1AA
100
AcDbEntity
  8
ALPHA
100
AcDbLine
 10
84.406306
 20
123.778804
 30
0.0
 11
83.957448
 21
123.85795
 31
0.0
  0
LINE
  5
1AB
100
AcDbEntity
  8
ALPHA
100
AcDbLine
 10
85.063916
 20
122.90128
 30
0.0
 11
85.194152
 21
123.639886
 31
0.0
  0
LINE
  5
1AC
100
AcDbEntity
  8
ALPHA
100
AcDbLine
 10
85.194152
 20
123.639886
 30
0.0
 11
85.203782
 21
123.694499
 31
0.0
  0
LINE
  5
1AD
100
AcDbEntity
  8
ALPHA
100
AcDbLine
 10
85.194152
 20
123.639886
 30
0.0
 11
84.406306
 21
123.778804
 31
0.0
  0
LINE
  5
1AE
100
AcDbEntity
  8
ALPHA
100
AcDbLine
 10
84.406306
 20
123.778804
 30
0.0
 11
83.957448
 21
123.85795
 31
0.0
  0
LINE
  5
1AF
100
AcDbEntity
  8
ALPHA
100
AcDbLine
 10
83.957448
 20
123.408846
 30
0.0
 11
83.957448
 21
123.68025
 31
0.0
  0
LINE
  5
1B0
100
AcDbEntity
  8
ALPHA
100
AcDbLine
 10
83.957448
 20
123.68025
 30
0.0
 11
83.957448
 21
123.684759
 31
0.0
  0
LINE
  5
1B1
100
AcDbEntity
  8
ALPHA
100
AcDbLine
 10
83.957448
 20
123.408846
 30
0.0
 11
82.383077
 21
123.408846
 31
0.0
  0
LINE
  5
1B2
100
AcDbEntity
  8
ALPHA
100
AcDbLine
 10
82.666307
 20
121.188407
 30
0.0
 11
82.676643
 21
121.149752
 31
0.0
  0
LINE
  5
1B3
100
AcDbEntity
  8
ALPHA
100
AcDbLine
 10
82.676643
 20
121.149752
 30
0.0
 11
82.96646
 21
121.227253
 31
0.0
  0
ARC
  5
1B4
100
AcDbEntity
  8
ALPHA
100
AcDbCircle
 10
87.31621
 20
123.005376
 30
0.0
 40
0.3
100
AcDbArc
 50
265.0
 51
350.0
  0
LINE
  5
1B5
100
AcDbEntity
  8
ALPHA
100
AcDbLine
 10
87.611663
 20
122.953345
 30
0.0
 11
87.616756
 21
122.982229
 31
0.0
  0
LINE
  5
1B6
100
AcDbEntity
  8
ALPHA
100
AcDbLine
 10
87.617985
 20
122.989197
 30
0.0
 11
87.611652
 21
122.953281
 31
0.0
  0
LINE
  5
1B7
100
AcDbEntity
  8
ALPHA
100
AcDbLine
 10
81.283273
 20
126.360332
 30
0.0
 11
82.518314
 21
126.142561
 31
0.0
  0
LINE
  5
1B8
100
AcDbEntity
  8
ALPHA
100
AcDbLine
 10
82.077892
 20
127.458846
 30
0.0
 11
82.579785
 21
125.958846
 31
0.0
  0
LINE
  5
1B9
100
AcDbEntity
  8
ALPHA
100
AcDbLine
 10
84.898602
 20
127.458846
 30
0.0
 11
81.040646
 21
127.458846
 31
0.0
  0
LINE
  5
1BA
100
AcDbEntity
  8
ALPHA
100
AcDbLine
 10
84.898602
 20
128.458846
 30
0.0
 11
81.040646
 21
128.458846
 31
0.0
  0
LINE
  5
1BB
100
AcDbEntity
  8
ALPHA
100
AcDbLine
 10
81.040646
 20
130.558846
 30
0.0
 11
81.040646
 21
128.458846
 31
0.0
  0
LINE
  5
1BC
100
AcDbEntity
  8
ALPHA
100
AcDbLine
 10
80.144964
 20
130.617096
 30
0.0
 11
81.694972
 21
124.820763
 31
0.0
  0
LINE
  5
1BD
100
AcDbEntity
  8
ALPHA
100
AcDbLine
 10
79.148957
 20
126.137876
 30
0.0
 11
79.356666
 21
127.315856
 31
0.0
  0
LINE
  5
1BE
100
AcDbEntity
  8
ALPHA
100
AcDbLine
 10
76.6964
 20
126.625662
 30
0.0
 11
76.776824
 21
127.08177
 31
0.0
  0
LINE
  5
1BF
100
AcDbEntity
  8
ALPHA
100
AcDbLine
 10
76.776824
 20
127.08177
 30
0.0
 11
76.80476
 21
127.240202
 31
0.0
  0
LINE
  5
1C0
100
AcDbEntity
  8
ALPHA
100
AcDbLine
 10
79.357797
 20
127.322271
 30
0.0
 11
79.356666
 21
127.315856
 31
0.0
  0
LINE
  5
1C1
100
AcDbEntity
  8
ALPHA
100
AcDbLine
 10
79.148957
 20
126.137876
 30
0.0
 11
79.145433
 21
126.117891
 31
0.0
  0
LINE
  5
1C2
100
AcDbEntity
  8
ALPHA
100
AcDbLine
 10
76.6964
 20
126.625662
 30
0.0
 11
76.776824
 21
127.08177
 31
0.0
  0
LINE
  5
1C3
100
AcDbEntity
  8
ALPHA
100
AcDbLine
 10
76.88086
 20
127.671787
 30
0.0
 11
76.963646
 21
128.141288
 31
0.0
  0
LINE
  5
1C4
100
AcDbEntity
  8
ALPHA
100
AcDbLine
 10
76.594004
 20
126.044944
 30
0.0
 11
76.6964
 21
126.625662
 31
0.0
  0
LINE
  5
1C5
100
AcDbEntity
  8
ALPHA
100
AcDbLine
 10
76.80476
 20
127.240202
 30
0.0
 11
76.88086
 21
127.671787
 31
0.0
  0
LWPOLYLINE
  5
1C6
100
AcDbEntity
  8
ALPHA
100
AcDbPolyline
 90
        8
 70
     0
 43
0.0
 10
76.776824
 20
127.08177
 10
76.769268
 20
126.963913
 10
76.787565
 20
126.848375
 10
76.829984
 20
126.741622
 10
76.894741
 20
126.647269
 10
76.977103
 20
126.571485
 10
77.074199
 20
126.516343
 10
77.179341
 20
126.485172
  0
LWPOLYLINE
  5
1D0
100
AcDbEntity
  8
ALPHA
100
AcDbPolyline
 90
        8
 70
     0
 43
0.0
 10
77.096759
 20
126.016826
 10
76.993296
 20
126.047594
 10
76.89687
 20
126.102733
 10
76.814688
 20
126.179103
 10
76.749734
 20
126.274877
 10
76.706925
 20
126.384133
 10
76.688439
 20
126.503093
 10
76.6964
 20
126.625662
  0
LINE
  5
1DA
100
AcDbEntity
  8
ALPHA
100
AcDbLine
 10
77.096759
 20
126.016826
 30
0.0
 11
77.179341
 21
126.485172
 31
0.0
  0
LINE
  5
1DB
100
AcDbEntity
  8
ALPHA
100
AcDbLine
 10
79.356666
 20
127.315856
 30
0.0
 11
77.387051
 21
127.663152
 31
0.0
  0
LINE
  5
1DC
100
AcDbEntity
  8
ALPHA
100
AcDbLine
 10
77.461092
 20
128.08306
 30
0.0
 11
77.91553
 21
128.002931
 31
0.0
  0
LINE
  5
1DD
100
AcDbEntity
  8
ALPHA
100
AcDbLine
 10
77.91553
 20
128.002931
 30
0.0
 11
79.13791
 21
127.787392
 31
0.0
  0
LINE
  5
1DE
100
AcDbEntity
  8
ALPHA
100
AcDbLine
 10
77.096759
 20
126.016826
 30
0.0
 11
78.701707
 21
125.733831
 31
0.0
  0
LWPOLYLINE
  5
1DF
100
AcDbEntity
  8
ALPHA
100
AcDbPolyline
 90
        8
 70
     0
 43
0.0
 10
77.387051
 20
127.663152
 10
77.277588
 20
127.669822
 10
77.167489
 20
127.651214
 10
77.064174
 20
127.60817
 10
76.971051
 20
127.541655
 10
76.894679
 20
127.455848
 10
76.837969
 20
127.353536
 10
76.80476
 20
127.240202
  0
LINE
  5
1E9
100
AcDbEntity
  8
ALPHA
100
AcDbLine
 10
77.387051
 20
127.663152
 30
0.0
 11
77.461092
 21
128.08306
 31
0.0
  0
LWPOLYLINE
  5
1EA
100
AcDbEntity
  8
ALPHA
100
AcDbPolyline
 90
        8
 70
     0
 43
0.0
 10
76.88086
 20
127.671787
 10
76.913099
 20
127.781282
 10
76.968756
 20
127.88074
 10
77.044168
 20
127.964401
 10
77.136705
 20
128.029505
 10
77.239929
 20
128.071741
 10
77.350426
 20
128.089949
 10
77.461092
 20
128.08306
  0
LINE
  5
1F4
100
AcDbEntity
  8
ALPHA
100
AcDbLine
 10
79.148957
 20
126.137876
 30
0.0
 11
77.179341
 21
126.485172
 31
0.0
  0
ARC
  5
1F5
100
AcDbEntity
  8
ALPHA
100
AcDbCircle
 10
78.021802
 20
126.943926
 30
0.0
 40
1.4
100
AcDbArc
 50
291.736766
 51
66.758055
  0
LINE
  5
1F6
100
AcDbEntity
  8
ALPHA
100
AcDbLine
 10
78.574262
 20
128.230311
 30
0.0
 11
77.92501
 21
128.056694
 31
0.0
  0
LINE
  5
1F7
100
AcDbEntity
  8
ALPHA
100
AcDbLine
 10
77.92501
 20
128.056694
 30
0.0
 11
76.827064
 21
128.153306
 31
0.0
  0
LINE
  5
1F8
100
AcDbEntity
  8
ALPHA
100
AcDbLine
 10
77.053819
 20
125.546425
 30
0.0
 11
77.69491
 21
125.717861
 31
0.0
  0
LINE
  5
1F9
100
AcDbEntity
  8
ALPHA
100
AcDbLine
 10
77.69491
 20
125.717861
 30
0.0
 11
78.540282
 21
125.643473
 31
0.0
  0
LINE
  5
1FA
100
AcDbEntity
  8
ALPHA
100
AcDbLine
 10
81.040646
 20
128.458846
 30
0.0
 11
81.040646
 21
127.458846
 31
0.0
  0
LINE
  5
1FB
100
AcDbEntity
  8
ALPHA
100
AcDbLine
 10
80.857448
 20
129.683846
 30
0.0
 11
80.857448
 21
129.854663
 31
0.0
  0
LINE
  5
1FC
100
AcDbEntity
  8
ALPHA
100
AcDbLine
 10
80.857448
 20
129.854663
 30
0.0
 11
80.857448
 21
129.858846
 31
0.0
  0
LINE
  5
1FD
100
AcDbEntity
  8
ALPHA
100
AcDbLine
 10
80.857448
 20
129.858846
 30
0.0
 11
80.857448
 21
131.058846
 31
0.0
  0
LINE
  5
1FE
100
AcDbEntity
  8
ALPHA
100
AcDbLine
 10
81.040646
 20
129.683846
 30
0.0
 11
80.857448
 21
129.683846
 31
0.0
  0
LINE
  5
1FF
100
AcDbEntity
  8
ALPHA
100
AcDbLine
 10
81.040646
 20
129.683846
 30
0.0
 11
80.857448
 21
129.683846
 31
0.0
  0
LINE
  5
200
100
AcDbEntity
  8
ALPHA
100
AcDbLine
 10
80.264937
 20
130.168451
 30
0.0
 11
80.28659
 21
130.291247
 31
0.0
  0
LINE
  5
201
100
AcDbEntity
  8
ALPHA
100
AcDbLine
 10
80.28659
 20
130.291247
 30
0.0
 11
80.157448
 21
130.677212
 31
0.0
  0
LINE
  5
202
100
AcDbEntity
  8
ALPHA
100
AcDbLine
 10
80.157448
 20
130.677212
 30
0.0
 11
80.117806
 21
130.719012
 31
0.0
  0
LINE
  5
203
100
AcDbEntity
  8
ALPHA
100
AcDbLine
 10
80.857448
 20
129.9906
 30
0.0
 11
80.312497
 21
129.9906
 31
0.0
  0
LINE
  5
204
100
AcDbEntity
  8
ALPHA
100
AcDbLine
 10
80.015797
 20
131.100124
 30
0.0
 11
80.144964
 21
130.617096
 31
0.0
  0
LINE
  5
205
100
AcDbEntity
  8
ALPHA
100
AcDbLine
 10
80.657448
 20
131.704106
 30
0.0
 11
80.657448
 21
131.258846
 31
0.0
  0
LINE
  5
206
100
AcDbEntity
  8
ALPHA
100
AcDbLine
 10
80.657448
 20
131.258846
 30
0.0
 11
80.881344
 21
131.034949
 31
0.0
  0
LINE
  5
207
100
AcDbEntity
  8
ALPHA
100
AcDbLine
 10
80.788295
 20
131.313044
 30
0.0
 11
80.657448
 21
131.258846
 31
0.0
  0
LINE
  5
208
100
AcDbEntity
  8
ALPHA
100
AcDbLine
 10
86.457448
 20
129.758846
 30
0.0
 11
86.457448
 21
128.258846
 31
0.0
  0
LINE
  5
209
100
AcDbEntity
  8
ALPHA
100
AcDbLine
 10
86.172871
 20
129.265944
 30
0.0
 11
85.321807
 21
127.791858
 31
0.0
  0
LINE
  5
20A
100
AcDbEntity
  8
ALPHA
100
AcDbLine
 10
86.457448
 20
130.158846
 30
0.0
 11
84.975952
 21
127.59282
 31
0.0
  0
LINE
  5
20B
100
AcDbEntity
  8
ALPHA
100
AcDbLine
 10
86.457448
 20
131.158846
 30
0.0
 11
84.898602
 21
128.458846
 31
0.0
  0
LINE
  5
20C
100
AcDbEntity
  8
ALPHA
100
AcDbLine
 10
85.179542
 20
126.045448
 30
0.0
 11
85.352747
 21
125.945448
 31
0.0
  0
LINE
  5
20D
100
AcDbEntity
  8
ALPHA
100
AcDbLine
 10
86.457448
 20
128.258846
 30
0.0
 11
85.129542
 21
125.958846
 31
0.0
  0
LINE
  5
20E
100
AcDbEntity
  8
ALPHA
100
AcDbLine
 10
85.148602
 20
127.891858
 30
0.0
 11
85.321807
 21
127.791858
 31
0.0
  0
LINE
  5
20F
100
AcDbEntity
  8
ALPHA
100
AcDbLine
 10
85.206138
 20
126.091513
 30
0.0
 11
85.379343
 21
125.991513
 31
0.0
  0
LINE
  5
210
100
AcDbEntity
  8
ALPHA
100
AcDbLine
 10
82.579785
 20
125.958846
 30
0.0
 11
82.693547
 21
125.618846
 31
0.0
  0
LINE
  5
211
100
AcDbEntity
  8
ALPHA
100
AcDbLine
 10
83.957448
 20
125.958846
 30
0.0
 11
83.957448
 21
125.618846
 31
0.0
  0
LINE
  5
212
100
AcDbEntity
  8
ALPHA
100
AcDbLine
 10
82.579785
 20
125.958846
 30
0.0
 11
85.129542
 21
125.958846
 31
0.0
  0
LINE
  5
213
100
AcDbEntity
  8
ALPHA
100
AcDbLine
 10
84.975952
 20
127.59282
 30
0.0
 11
84.898602
 21
127.458846
 31
0.0
  0
LWPOLYLINE
  5
214
100
AcDbEntity
  8
ALPHA
100
AcDbPolyline
 90
       11
 70
     0
 43
0.0
 10
84.898602
 20
128.458846
 10
84.926274
 20
128.342454
 10
84.952333
 20
128.22881
 10
84.975381
 20
128.120027
 10
84.994278
 20
128.017409
 10
85.007858
 20
127.923137
 10
85.015391
 20
127.837897
 10
85.016304
 20
127.762204
 10
85.010211
 20
127.696345
 10
84.996777
 20
127.639838
 10
84.975952
 20
127.59282
  0
LINE
  5
221
100
AcDbEntity
  8
ALPHA
100
AcDbLine
 10
83.957448
 20
125.618846
 30
0.0
 11
82.693547
 21
125.618846
 31
0.0
  0
LINE
  5
222
100
AcDbEntity
  8
ALPHA
100
AcDbLine
 10
87.883467
 20
124.494818
 30
0.0
 11
87.622159
 21
124.589926
 31
0.0
  0
LINE
  5
223
100
AcDbEntity
  8
ALPHA
100
AcDbLine
 10
87.845392
 20
125.855943
 30
0.0
 11
88.12347
 21
125.855943
 31
0.0
  0
LINE
  5
224
100
AcDbEntity
  8
ALPHA
100
AcDbLine
 10
87.311129
 20
125.855943
 30
0.0
 11
87.845392
 21
125.855943
 31
0.0
  0
LINE
  5
225
100
AcDbEntity
  8
ALPHA
100
AcDbLine
 10
85.688684
 20
126.444515
 30
0.0
 11
85.709702
 21
126.563712
 31
0.0
  0
LINE
  5
226
100
AcDbEntity
  8
ALPHA
100
AcDbLine
 10
87.120116
 20
124.772655
 30
0.0
 11
87.311129
 21
125.855943
 31
0.0
  0
LINE
  5
227
100
AcDbEntity
  8
ALPHA
100
AcDbLine
 10
87.622159
 20
124.589926
 30
0.0
 11
87.120116
 21
124.772655
 31
0.0
  0
LINE
  5
228
100
AcDbEntity
  8
ALPHA
100
AcDbLine
 10
85.472095
 20
126.552165
 30
0.0
 11
85.6453
 21
126.452165
 31
0.0
  0
LINE
  5
229
100
AcDbEntity
  8
ALPHA
100
AcDbLine
 10
85.764648
 20
127.058882
 30
0.0
 11
85.937853
 21
126.958882
 31
0.0
  0
LINE
  5
22A
100
AcDbEntity
  8
ALPHA
100
AcDbLine
 10
85.871031
 20
127.243143
 30
0.0
 11
86.044236
 21
127.143143
 31
0.0
  0
LINE
  5
22B
100
AcDbEntity
  8
ALPHA
100
AcDbLine
 10
86.136989
 20
127.703795
 30
0.0
 11
86.310194
 21
127.603795
 31
0.0
  0
LINE
  5
22C
100
AcDbEntity
  8
ALPHA
100
AcDbLine
 10
86.429542
 20
128.210512
 30
0.0
 11
86.602747
 21
128.110512
 31
0.0
  0
LINE
  5
22D
100
AcDbEntity
  8
ALPHA
100
AcDbLine
 10
86.602747
 20
128.110512
 30
0.0
 11
86.576151
 21
128.064447
 31
0.0
  0
LINE
  5
22E
100
AcDbEntity
  8
ALPHA
100
AcDbLine
 10
86.576151
 20
128.064447
 30
0.0
 11
86.52296
 21
127.972316
 31
0.0
  0
LINE
  5
22F
100
AcDbEntity
  8
ALPHA
100
AcDbLine
 10
86.52296
 20
127.972316
 30
0.0
 11
86.416577
 21
127.788055
 31
0.0
  0
LINE
  5
230
100
AcDbEntity
  8
ALPHA
100
AcDbLine
 10
86.416577
 20
127.788055
 30
0.0
 11
86.310194
 21
127.603795
 31
0.0
  0
LINE
  5
231
100
AcDbEntity
  8
ALPHA
100
AcDbLine
 10
86.310194
 20
127.603795
 30
0.0
 11
86.257002
 21
127.511664
 31
0.0
  0
LINE
  5
232
100
AcDbEntity
  8
ALPHA
100
AcDbLine
 10
86.257002
 20
127.511664
 30
0.0
 11
86.150619
 21
127.327404
 31
0.0
  0
LINE
  5
233
100
AcDbEntity
  8
ALPHA
100
AcDbLine
 10
86.150619
 20
127.327404
 30
0.0
 11
86.097428
 21
127.235273
 31
0.0
  0
LINE
  5
234
100
AcDbEntity
  8
ALPHA
100
AcDbLine
 10
86.097428
 20
127.235273
 30
0.0
 11
86.044236
 21
127.143143
 31
0.0
  0
LINE
  5
235
100
AcDbEntity
  8
ALPHA
100
AcDbLine
 10
86.044236
 20
127.143143
 30
0.0
 11
85.937853
 21
126.958882
 31
0.0
  0
LINE
  5
236
100
AcDbEntity
  8
ALPHA
100
AcDbLine
 10
85.937853
 20
126.958882
 30
0.0
 11
85.911258
 21
126.912817
 31
0.0
  0
LINE
  5
237
100
AcDbEntity
  8
ALPHA
100
AcDbLine
 10
85.911258
 20
126.912817
 30
0.0
 11
85.858066
 21
126.820687
 31
0.0
  0
LINE
  5
238
100
AcDbEntity
  8
ALPHA
100
AcDbLine
 10
85.858066
 20
126.820687
 30
0.0
 11
85.751683
 21
126.636426
 31
0.0
  0
LINE
  5
239
100
AcDbEntity
  8
ALPHA
100
AcDbLine
 10
85.751683
 20
126.636426
 30
0.0
 11
85.6453
 21
126.452165
 31
0.0
  0
LINE
  5
23A
100
AcDbEntity
  8
ALPHA
100
AcDbLine
 10
85.6453
 20
126.452165
 30
0.0
 11
85.565513
 21
126.31397
 31
0.0
  0
LINE
  5
23B
100
AcDbEntity
  8
ALPHA
100
AcDbLine
 10
85.565513
 20
126.31397
 30
0.0
 11
85.485726
 21
126.175774
 31
0.0
  0
LINE
  5
23C
100
AcDbEntity
  8
ALPHA
100
AcDbLine
 10
85.485726
 20
126.175774
 30
0.0
 11
85.432534
 21
126.083644
 31
0.0
  0
LINE
  5
23D
100
AcDbEntity
  8
ALPHA
100
AcDbLine
 10
85.432534
 20
126.083644
 30
0.0
 11
85.379343
 21
125.991513
 31
0.0
  0
LINE
  5
23E
100
AcDbEntity
  8
ALPHA
100
AcDbLine
 10
85.379343
 20
125.991513
 30
0.0
 11
85.352747
 21
125.945448
 31
0.0
  0
LINE
  5
23F
100
AcDbEntity
  8
ALPHA
100
AcDbLine
 10
85.259329
 20
126.183644
 30
0.0
 11
85.432534
 21
126.083644
 31
0.0
  0
LINE
  5
240
100
AcDbEntity
  8
ALPHA
100
AcDbLine
 10
85.312521
 20
126.275774
 30
0.0
 11
85.485726
 21
126.175774
 31
0.0
  0
LINE
  5
241
100
AcDbEntity
  8
ALPHA
100
AcDbLine
 10
85.392308
 20
126.41397
 30
0.0
 11
85.565513
 21
126.31397
 31
0.0
  0
LINE
  5
242
100
AcDbEntity
  8
ALPHA
100
AcDbLine
 10
85.578478
 20
126.736426
 30
0.0
 11
85.751683
 21
126.636426
 31
0.0
  0
LINE
  5
243
100
AcDbEntity
  8
ALPHA
100
AcDbLine
 10
85.684861
 20
126.920687
 30
0.0
 11
85.858066
 21
126.820687
 31
0.0
  0
LINE
  5
244
100
AcDbEntity
  8
ALPHA
100
AcDbLine
 10
85.738053
 20
127.012817
 30
0.0
 11
85.911258
 21
126.912817
 31
0.0
  0
LINE
  5
245
100
AcDbEntity
  8
ALPHA
100
AcDbLine
 10
85.924223
 20
127.335273
 30
0.0
 11
86.097428
 21
127.235273
 31
0.0
  0
LINE
  5
246
100
AcDbEntity
  8
ALPHA
100
AcDbLine
 10
85.977414
 20
127.427404
 30
0.0
 11
86.150619
 21
127.327404
 31
0.0
  0
LINE
  5
247
100
AcDbEntity
  8
ALPHA
100
AcDbLine
 10
86.083797
 20
127.611664
 30
0.0
 11
86.257002
 21
127.511664
 31
0.0
  0
LINE
  5
248
100
AcDbEntity
  8
ALPHA
100
AcDbLine
 10
86.243372
 20
127.888055
 30
0.0
 11
86.416577
 21
127.788055
 31
0.0
  0
LINE
  5
249
100
AcDbEntity
  8
ALPHA
100
AcDbLine
 10
86.349755
 20
128.072316
 30
0.0
 11
86.52296
 21
127.972316
 31
0.0
  0
LINE
  5
24A
100
AcDbEntity
  8
ALPHA
100
AcDbLine
 10
86.402946
 20
128.164447
 30
0.0
 11
86.576151
 21
128.064447
 31
0.0
  0
LINE
  5
24B
100
AcDbEntity
  8
ALPHA
100
AcDbLine
 10
86.457448
 20
130.158846
 30
0.0
 11
86.457448
 21
130.022947
 31
0.0
  0
LINE
  5
24C
100
AcDbEntity
  8
ALPHA
100
AcDbLine
 10
85.999666
 20
129.365944
 30
0.0
 11
86.172871
 21
129.265944
 31
0.0
  0
LINE
  5
24D
100
AcDbEntity
  8
ALPHA
100
AcDbLine
 10
86.398602
 20
130.056922
 30
0.0
 11
86.571807
 21
129.956922
 31
0.0
  0
LINE
  5
24E
100
AcDbEntity
  8
ALPHA
100
AcDbLine
 10
86.571807
 20
129.956922
 30
0.0
 11
86.385637
 21
129.634466
 31
0.0
  0
LINE
  5
24F
100
AcDbEntity
  8
ALPHA
100
AcDbLine
 10
86.385637
 20
129.634466
 30
0.0
 11
86.172871
 21
129.265944
 31
0.0
  0
LINE
  5
250
100
AcDbEntity
  8
ALPHA
100
AcDbLine
 10
86.457448
 20
131.158846
 30
0.0
 11
86.457448
 21
130.158846
 31
0.0
  0
LINE
  5
251
100
AcDbEntity
  8
ALPHA
100
AcDbLine
 10
86.212432
 20
129.734466
 30
0.0
 11
86.385637
 21
129.634466
 31
0.0
  0
LINE
  5
252
100
AcDbEntity
  8
ALPHA
100
AcDbLine
 10
86.457448
 20
131.946767
 30
0.0
 11
87.257448
 21
131.623546
 31
0.0
  0
LINE
  5
253
100
AcDbEntity
  8
ALPHA
100
AcDbLine
 10
86.457448
 20
131.858846
 30
0.0
 11
86.675061
 21
131.858846
 31
0.0
  0
LINE
  5
254
100
AcDbEntity
  8
ALPHA
100
AcDbLine
 10
73.237793
 20
133.221128
 30
0.0
 11
79.034126
 21
134.771135
 31
0.0
  0
LINE
  5
255
100
AcDbEntity
  8
ALPHA
100
AcDbLine
 10
68.457448
 20
141.058846
 30
0.0
 11
69.957448
 21
140.158846
 31
0.0
  0
LINE
  5
256
100
AcDbEntity
  8
ALPHA
100
AcDbLine
 10
69.957448
 20
141.41064
 30
0.0
 11
69.957448
 21
140.158846
 31
0.0
  0
LINE
  5
257
100
AcDbEntity
  8
ALPHA
100
AcDbLine
 10
70.457448
 20
143.618372
 30
0.0
 11
70.457448
 21
135.717223
 31
0.0
  0
LWPOLYLINE
  5
258
100
AcDbEntity
  8
ALPHA
100
AcDbPolyline
 90
        5
 70
     0
 43
0.0
 10
70.457448
 20
133.31345
 10
71.332208
 20
133.26941
 10
72.131753
 20
133.227609
 10
72.862052
 20
133.187732
 10
73.23465
 20
133.166352
  0
LINE
  5
25F
100
AcDbEntity
  8
ALPHA
100
AcDbLine
 10
70.457448
 20
135.658846
 30
0.0
 11
72.585918
 21
135.658846
 31
0.0
  0
LWPOLYLINE
  5
260
100
AcDbEntity
  8
ALPHA
100
AcDbPolyline
 90
       17
 70
     0
 43
0.0
 10
70.457448
 20
135.717223
 10
70.661628
 20
135.751818
 10
70.843089
 20
135.790953
 10
71.004091
 20
135.833516
 10
71.146546
 20
135.878667
 10
71.272092
 20
135.92576
 10
71.382126
 20
135.974287
 10
71.477844
 20
136.02384
 10
71.560254
 20
136.074068
 10
71.630225
 20
136.12466
 10
71.688506
 20
136.175308
 10
71.735577
 20
136.225464
 10
71.772138
 20
136.274659
 10
71.799008
 20
136.322457
 10
71.817296
 20
136.369048
 10
71.827827
 20
136.414633
 10
71.831186
 20
136.458846
  0
LINE
  5
273
100
AcDbEntity
  8
ALPHA
100
AcDbLine
 10
70.457448
 20
133.313436
 30
0.0
 11
70.457448
 21
135.658846
 31
0.0
  0
LINE
  5
274
100
AcDbEntity
  8
ALPHA
100
AcDbLine
 10
70.457448
 20
133.313436
 30
0.0
 11
70.457448
 21
133.30119
 31
0.0
  0
LINE
  5
275
100
AcDbEntity
  8
ALPHA
100
AcDbLine
 10
70.457448
 20
135.658846
 30
0.0
 11
70.457448
 21
135.717223
 31
0.0
  0
LINE
  5
276
100
AcDbEntity
  8
ALPHA
100
AcDbLine
 10
70.457448
 20
140.158846
 30
0.0
 11
69.957448
 21
140.158846
 31
0.0
  0
LINE
  5
277
100
AcDbEntity
  8
ALPHA
100
AcDbLine
 10
71.831186
 20
138.481205
 30
0.0
 11
71.831186
 21
136.458846
 31
0.0
  0
LINE
  5
278
100
AcDbEntity
  8
ALPHA
100
AcDbLine
 10
71.831186
 20
136.458846
 30
0.0
 11
72.371989
 21
136.458846
 31
0.0
  0
LINE
  5
279
100
AcDbEntity
  8
ALPHA
100
AcDbLine
 10
68.457448
 20
142.088131
 30
0.0
 11
68.457448
 21
145.22956
 31
0.0
  0
LINE
  5
27A
100
AcDbEntity
  8
ALPHA
100
AcDbLine
 10
69.957448
 20
142.211298
 30
0.0
 11
69.957448
 21
145.106394
 31
0.0
  0
LINE
  5
27B
100
AcDbEntity
  8
ALPHA
100
AcDbLine
 10
68.457448
 20
142.088131
 30
0.0
 11
68.457448
 21
141.058846
 31
0.0
  0
LINE
  5
27C
100
AcDbEntity
  8
ALPHA
100
AcDbLine
 10
70.457448
 20
141.41064
 30
0.0
 11
69.957448
 21
141.41064
 31
0.0
  0
LINE
  5
27D
100
AcDbEntity
  8
ALPHA
100
AcDbLine
 10
70.457448
 20
142.211298
 30
0.0
 11
69.957448
 21
142.211298
 31
0.0
  0
LINE
  5
27E
100
AcDbEntity
  8
ALPHA
100
AcDbLine
 10
69.957448
 20
141.41064
 30
0.0
 11
69.957448
 21
142.211298
 31
0.0
  0
LINE
  5
27F
100
AcDbEntity
  8
ALPHA
100
AcDbLine
 10
69.957448
 20
141.41064
 30
0.0
 11
68.457448
 21
142.088131
 31
0.0
  0
LINE
  5
280
100
AcDbEntity
  8
ALPHA
100
AcDbLine
 10
69.957448
 20
142.211298
 30
0.0
 11
68.457448
 21
142.088131
 31
0.0
  0
LINE
  5
281
100
AcDbEntity
  8
ALPHA
100
AcDbLine
 10
69.572454
 20
146.92785
 30
0.0
 11
68.457448
 21
146.258846
 31
0.0
  0
LINE
  5
282
100
AcDbEntity
  8
ALPHA
100
AcDbLine
 10
69.857499
 20
145.861909
 30
0.0
 11
68.457448
 21
145.22956
 31
0.0
  0
LINE
  5
283
100
AcDbEntity
  8
ALPHA
100
AcDbLine
 10
68.457448
 20
146.258846
 30
0.0
 11
68.457448
 21
145.22956
 31
0.0
  0
LINE
  5
284
100
AcDbEntity
  8
ALPHA
100
AcDbLine
 10
70.059533
 20
145.106394
 30
0.0
 11
69.957448
 21
145.106394
 31
0.0
  0
LINE
  5
285
100
AcDbEntity
  8
ALPHA
100
AcDbLine
 10
69.957448
 20
145.106394
 30
0.0
 11
69.957448
 21
145.489519
 31
0.0
  0
LINE
  5
286
100
AcDbEntity
  8
ALPHA
100
AcDbLine
 10
69.957448
 20
145.106394
 30
0.0
 11
68.457448
 21
145.22956
 31
0.0
  0
LINE
  5
287
100
AcDbEntity
  8
ALPHA
100
AcDbLine
 10
81.957448
 20
145.908846
 30
0.0
 11
81.957448
 21
140.155548
 31
0.0
  0
LINE
  5
288
100
AcDbEntity
  8
ALPHA
100
AcDbLine
 10
76.657448
 20
143.658846
 30
0.0
 11
79.034126
 21
134.771135
 31
0.0
  0
LINE
  5
289
100
AcDbEntity
  8
ALPHA
100
AcDbLine
 10
83.957448
 20
139.858846
 30
0.0
 11
83.957448
 21
147.458846
 31
0.0
  0
LINE
  5
28A
100
AcDbEntity
  8
ALPHA
100
AcDbLine
 10
82.871661
 20
139.658632
 30
0.0
 11
81.957448
 21
140.572846
 31
0.0
  0
LINE
  5
28B
100
AcDbEntity
  8
ALPHA
100
AcDbLine
 10
82.611037
 20
140.458846
 30
0.0
 11
82.071448
 21
140.458846
 31
0.0
  0
LINE
  5
28C
100
AcDbEntity
  8
ALPHA
100
AcDbLine
 10
86.065879
 20
136.759048
 30
0.0
 11
82.153232
 21
139.758744
 31
0.0
  0
LINE
  5
28D
100
AcDbEntity
  8
ALPHA
100
AcDbLine
 10
82.657448
 20
140.558846
 30
0.0
 11
81.971448
 21
140.558846
 31
0.0
  0
LINE
  5
28E
100
AcDbEntity
  8
ALPHA
100
AcDbLine
 10
78.796742
 20
135.658846
 30
0.0
 11
79.33421
 21
135.658846
 31
0.0
  0
LINE
  5
28F
100
AcDbEntity
  8
ALPHA
100
AcDbLine
 10
78.582812
 20
136.458846
 30
0.0
 11
79.066534
 21
136.458846
 31
0.0
  0
LINE
  5
290
100
AcDbEntity
  8
ALPHA
100
AcDbLine
 10
79.369961
 20
133.515263
 30
0.0
 11
79.034126
 21
134.771135
 31
0.0
  0
LINE
  5
291
100
AcDbEntity
  8
ALPHA
100
AcDbLine
 10
80.246754
 20
132.931541
 30
0.0
 11
79.526055
 21
132.931541
 31
0.0
  0
ARC
  5
292
100
AcDbEntity
  8
ALPHA
100
AcDbCircle
 10
82.457448
 20
140.155548
 30
0.0
 40
0.5
100
AcDbArc
 50
180.0
 51
232.52382
  0
ARC
  5
293
100
AcDbEntity
  8
ALPHA
100
AcDbCircle
 10
85.457448
 20
135.965442
 30
0.0
 40
1.0
100
AcDbArc
 50
0.0
 51
52.52382
  0
ARC
  5
294
100
AcDbEntity
  8
ALPHA
100
AcDbCircle
 10
86.257448
 20
136.002228
 30
0.0
 40
1.0
100
AcDbArc
 50
0.0
 51
52.0
  0
ARC
  5
295
100
AcDbEntity
  8
ALPHA
100
AcDbCircle
 10
86.757448
 20
133.443361
 30
0.0
 40
0.5
100
AcDbArc
 50
248.0
 51
0.0
  0
LINE
  5
296
100
AcDbEntity
  8
ALPHA
100
AcDbLine
 10
86.570144
 20
132.979769
 30
0.0
 11
86.457448
 21
133.025302
 31
0.0
  0
LINE
  5
297
100
AcDbEntity
  8
ALPHA
100
AcDbLine
 10
83.457448
 20
139.458846
 30
0.0
 11
86.873109
 21
136.790238
 31
0.0
  0
ARC
  5
298
100
AcDbEntity
  8
ALPHA
100
AcDbCircle
 10
84.957448
 20
137.652408
 30
0.0
 40
0.5
100
AcDbArc
 50
52.0
 51
146.517247
  0
ARC
  5
299
100
AcDbEntity
  8
ALPHA
100
AcDbCircle
 10
81.457448
 20
138.244419
 30
0.0
 40
2.0
100
AcDbArc
 50
17.256926
 51
45.0
  0
LINE
  5
29A
100
AcDbEntity
  8
ALPHA
100
AcDbLine
 10
82.957448
 20
139.554101
 30
0.0
 11
82.957448
 21
140.258846
 31
0.0
  0
LINE
  5
29B
100
AcDbEntity
  8
ALPHA
100
AcDbLine
 10
82.957448
 20
140.258846
 30
0.0
 11
82.611037
 21
140.458846
 31
0.0
  0
ARC
  5
29C
100
AcDbEntity
  8
ALPHA
100
AcDbCircle
 10
82.657448
 20
138.858846
 30
0.0
 40
0.8
100
AcDbArc
 50
60.300329
 51
67.775912
  0
ARC
  5
29D
100
AcDbEntity
  8
ALPHA
100
AcDbCircle
 10
82.657448
 20
138.858846
 30
0.0
 40
0.8
100
AcDbArc
 50
45.372056
 51
59.631743
  0
ARC
  5
29E
100
AcDbEntity
  8
ALPHA
100
AcDbCircle
 10
82.657448
 20
138.858846
 30
0.0
 40
0.8
100
AcDbArc
 50
30.368257
 51
44.627944
  0
ARC
  5
29F
100
AcDbEntity
  8
ALPHA
100
AcDbCircle
 10
82.657448
 20
138.858846
 30
0.0
 40
0.8
100
AcDbArc
 50
15.261167
 51
29.699671
  0
ARC
  5
2A0
100
AcDbEntity
  8
ALPHA
100
AcDbCircle
 10
82.657448
 20
138.858846
 30
0.0
 40
0.8
100
AcDbArc
 50
0.0
 51
14.828947
  0
ARC
  5
2A1
100
AcDbEntity
  8
ALPHA
100
AcDbCircle
 10
82.657448
 20
138.858846
 30
0.0
 40
0.8
100
AcDbArc
 50
0.0
 51
67.95811
  0
ARC
  5
2A2
100
AcDbEntity
  8
ALPHA
100
AcDbCircle
 10
82.657448
 20
139.758846
 30
0.0
 40
0.8
100
AcDbArc
 50
9.474286
 51
90.0
  0
ARC
  5
2A3
100
AcDbEntity
  8
ALPHA
100
AcDbCircle
 10
82.657448
 20
139.758846
 30
0.0
 40
0.8
100
AcDbArc
 50
4.736684
 51
9.474286
  0
ARC
  5
2A4
100
AcDbEntity
  8
ALPHA
100
AcDbCircle
 10
82.657448
 20
138.858846
 30
0.0
 40
0.8
100
AcDbArc
 50
0.0
 51
67.95811
  0
LWPOLYLINE
  5
2A5
100
AcDbEntity
  8
ALPHA
100
AcDbPolyline
 90
       13
 70
     0
 43
0.0
 10
83.431892
 20
139.958846
 10
83.412959
 20
139.958846
 10
83.38875
 20
139.958846
 10
83.35958
 20
139.958846
 10
83.325647
 20
139.958846
 10
83.287183
 20
139.958846
 10
83.244446
 20
139.958846
 10
83.197728
 20
139.958846
 10
83.147346
 20
139.958846
 10
83.09364
 20
139.958846
 10
83.036975
 20
139.958846
 10
82.977737
 20
139.958846
 10
82.957448
 20
139.958846
  0
LINE
  5
2B4
100
AcDbEntity
  8
ALPHA
100
AcDbLine
 10
82.657448
 20
140.432051
 30
0.0
 11
82.657448
 21
140.558846
 31
0.0
  0
LINE
  5
2B5
100
AcDbEntity
  8
ALPHA
100
AcDbLine
 10
83.457448
 20
139.858846
 30
0.0
 11
83.457448
 21
139.458846
 31
0.0
  0
LINE
  5
2B6
100
AcDbEntity
  8
ALPHA
100
AcDbLine
 10
83.457448
 20
139.858846
 30
0.0
 11
83.957448
 21
139.858846
 31
0.0
  0
LINE
  5
2B7
100
AcDbEntity
  8
ALPHA
100
AcDbLine
 10
83.457448
 20
139.458846
 30
0.0
 11
83.457448
 21
138.758846
 31
0.0
  0
LINE
  5
2B8
100
AcDbEntity
  8
ALPHA
100
AcDbLine
 10
81.957448
 20
141.794599
 30
0.0
 11
82.727345
 21
141.658846
 31
0.0
  0
LINE
  5
2B9
100
AcDbEntity
  8
ALPHA
100
AcDbLine
 10
82.727345
 20
145.658846
 30
0.0
 11
81.957448
 21
145.523092
 31
0.0
  0
LINE
  5
2BA
100
AcDbEntity
  8
ALPHA
100
AcDbLine
 10
82.611037
 20
146.858846
 30
0.0
 11
82.298407
 21
146.858846
 31
0.0
  0
ARC
  5
2BB
100
AcDbEntity
  8
ALPHA
100
AcDbCircle
 10
83.457448
 20
145.908846
 30
0.0
 40
1.5
100
AcDbArc
 50
104.477512
 51
180.0
  0
LINE
  5
2BC
100
AcDbEntity
  8
ALPHA
100
AcDbLine
 10
82.657448
 20
146.758846
 30
0.0
 11
82.222039
 21
146.758846
 31
0.0
  0
LINE
  5
2BD
100
AcDbEntity
  8
ALPHA
100
AcDbLine
 10
82.727345
 20
141.658846
 30
0.0
 11
83.957448
 21
141.658846
 31
0.0
  0
LINE
  5
2BE
100
AcDbEntity
  8
ALPHA
100
AcDbLine
 10
83.957448
 20
141.558846
 30
0.0
 11
82.902557
 21
141.558846
 31
0.0
  0
LWPOLYLINE
  5
2BF
100
AcDbEntity
  8
ALPHA
100
AcDbPolyline
 90
       13
 70
     0
 43
0.0
 10
82.957585
 20
141.558846
 10
82.944523
 20
141.5597
 10
82.93163
 20
141.562263
 10
82.919239
 20
141.566468
 10
82.907504
 20
141.57225
 10
82.896581
 20
141.579544
 10
82.88675
 20
141.588162
 10
82.87813
 20
141.597984
 10
82.870838
 20
141.608891
 10
82.86506
 20
141.620602
 10
82.86086
 20
141.632964
 10
82.8583
 20
141.645822
 10
82.857448
 20
141.658846
  0
LWPOLYLINE
  5
2CE
100
AcDbEntity
  8
ALPHA
100
AcDbPolyline
 90
       13
 70
     0
 43
0.0
 10
82.902557
 20
141.558846
 10
82.889495
 20
141.5597
 10
82.876602
 20
141.562263
 10
82.864211
 20
141.566468
 10
82.852476
 20
141.57225
 10
82.841553
 20
141.579544
 10
82.831722
 20
141.588162
 10
82.823102
 20
141.597984
 10
82.815809
 20
141.608891
 10
82.810032
 20
141.620602
 10
82.805831
 20
141.632964
 10
82.803272
 20
141.645822
 10
82.802419
 20
141.658846
  0
LINE
  5
2DD
100
AcDbEntity
  8
ALPHA
100
AcDbLine
 10
83.957448
 20
145.658846
 30
0.0
 11
82.727345
 21
145.658846
 31
0.0
  0
LINE
  5
2DE
100
AcDbEntity
  8
ALPHA
100
AcDbLine
 10
82.957448
 20
147.058846
 30
0.0
 11
82.957448
 21
147.322086
 31
0.0
  0
LINE
  5
2DF
100
AcDbEntity
  8
ALPHA
100
AcDbLine
 10
82.957448
 20
147.058846
 30
0.0
 11
82.611037
 21
146.858846
 31
0.0
  0
ARC
  5
2E0
100
AcDbEntity
  8
ALPHA
100
AcDbCircle
 10
82.957448
 20
147.845337
 30
0.0
 40
0.5
100
AcDbArc
 50
284.477512
 51
0.0
  0
LINE
  5
2E1
100
AcDbEntity
  8
ALPHA
100
AcDbLine
 10
83.957448
 20
145.758846
 30
0.0
 11
82.902557
 21
145.758846
 31
0.0
  0
LWPOLYLINE
  5
2E2
100
AcDbEntity
  8
ALPHA
100
AcDbPolyline
 90
       13
 70
     0
 43
0.0
 10
82.957585
 20
145.758846
 10
82.944523
 20
145.757991
 10
82.93163
 20
145.755428
 10
82.919239
 20
145.751223
 10
82.907504
 20
145.745441
 10
82.896581
 20
145.738147
 10
82.88675
 20
145.72953
 10
82.87813
 20
145.719708
 10
82.870838
 20
145.708801
 10
82.86506
 20
145.697089
 10
82.86086
 20
145.684727
 10
82.8583
 20
145.671869
 10
82.857448
 20
145.658846
  0
ARC
  5
2F1
100
AcDbEntity
  8
ALPHA
100
AcDbCircle
 10
82.657448
 20
147.558846
 30
0.0
 40
0.8
100
AcDbArc
 50
350.525714
 51
355.263316
  0
ARC
  5
2F2
100
AcDbEntity
  8
ALPHA
100
AcDbCircle
 10
82.657448
 20
147.558846
 30
0.0
 40
0.8
100
AcDbArc
 50
270.0
 51
350.525714
  0
LWPOLYLINE
  5
2F3
100
AcDbEntity
  8
ALPHA
100
AcDbPolyline
 90
       13
 70
     0
 43
0.0
 10
82.902557
 20
145.758846
 10
82.889495
 20
145.757991
 10
82.876602
 20
145.755428
 10
82.864211
 20
145.751223
 10
82.852476
 20
145.745441
 10
82.841553
 20
145.738147
 10
82.831722
 20
145.72953
 10
82.823102
 20
145.719708
 10
82.815809
 20
145.708801
 10
82.810032
 20
145.697089
 10
82.805831
 20
145.684727
 10
82.803272
 20
145.671869
 10
82.802419
 20
145.658846
  0
LINE
  5
302
100
AcDbEntity
  8
ALPHA
100
AcDbLine
 10
82.657448
 20
146.758846
 30
0.0
 11
82.657448
 21
146.885641
 31
0.0
  0
LWPOLYLINE
  5
303
100
AcDbEntity
  8
ALPHA
100
AcDbPolyline
 90
       10
 70
     0
 43
0.0
 10
83.431892
 20
147.358846
 10
83.412959
 20
147.358846
 10
83.38875
 20
147.358846
 10
83.35958
 20
147.358846
 10
83.325647
 20
147.358846
 10
83.287183
 20
147.358846
 10
83.244446
 20
147.358846
 10
83.197728
 20
147.358846
 10
83.147346
 20
147.358846
 10
83.09364
 20
147.358846
  0
LINE
  5
30F
100
AcDbEntity
  8
ALPHA
100
AcDbLine
 10
83.09364
 20
147.358846
 30
0.0
 11
83.082448
 21
147.358846
 31
0.0
  0
LINE
  5
310
100
AcDbEntity
  8
ALPHA
100
AcDbLine
 10
83.082448
 20
147.358846
 30
0.0
 11
83.07488
 21
147.358846
 31
0.0
  0
LINE
  5
311
100
AcDbEntity
  8
ALPHA
100
AcDbLine
 10
83.457448
 20
147.458846
 30
0.0
 11
83.957448
 21
147.458846
 31
0.0
  0
LINE
  5
312
100
AcDbEntity
  8
ALPHA
100
AcDbLine
 10
83.457448
 20
147.845337
 30
0.0
 11
83.457448
 21
147.458846
 31
0.0
  0
LINE
  5
313
100
AcDbEntity
  8
ALPHA
100
AcDbLine
 10
99.107448
 20
133.358846
 30
0.0
 11
99.107448
 21
131.658846
 31
0.0
  0
LINE
  5
314
100
AcDbEntity
  8
ALPHA
100
AcDbLine
 10
99.007448
 20
136.858846
 30
0.0
 11
99.007448
 21
127.655686
 31
0.0
  0
LINE
  5
315
100
AcDbEntity
  8
ALPHA
100
AcDbLine
 10
106.191422
 20
130.858846
 30
0.0
 11
99.307448
 21
130.858846
 31
0.0
  0
LINE
  5
316
100
AcDbEntity
  8
ALPHA
100
AcDbLine
 10
99.307448
 20
127.658846
 30
0.0
 11
102.936231
 21
127.658846
 31
0.0
  0
LINE
  5
317
100
AcDbEntity
  8
ALPHA
100
AcDbLine
 10
106.191422
 20
131.658846
 30
0.0
 11
99.007448
 21
131.658846
 31
0.0
  0
ARC
  5
318
100
AcDbEntity
  8
ALPHA
100
AcDbCircle
 10
88.099842
 20
127.449575
 30
0.0
 40
0.3
100
AcDbArc
 50
350.0
 51
75.0
  0
LINE
  5
319
100
AcDbEntity
  8
ALPHA
100
AcDbLine
 10
99.307448
 20
130.858846
 30
0.0
 11
99.307448
 21
127.658846
 31
0.0
  0
LINE
  5
31A
100
AcDbEntity
  8
ALPHA
100
AcDbLine
 10
97.078247
 20
127.655686
 30
0.0
 11
99.007448
 21
127.655686
 31
0.0
  0
LINE
  5
31B
100
AcDbEntity
  8
ALPHA
100
AcDbLine
 10
99.007448
 20
127.658846
 30
0.0
 11
99.307448
 21
127.658846
 31
0.0
  0
LINE
  5
31C
100
AcDbEntity
  8
ALPHA
100
AcDbLine
 10
99.307448
 20
130.858846
 30
0.0
 11
99.007448
 21
130.858846
 31
0.0
  0
LINE
  5
31D
100
AcDbEntity
  8
ALPHA
100
AcDbLine
 10
102.936231
 20
127.658846
 30
0.0
 11
107.057448
 21
129.158846
 31
0.0
  0
LINE
  5
31E
100
AcDbEntity
  8
ALPHA
100
AcDbLine
 10
107.057448
 20
130.358846
 30
0.0
 11
107.057448
 21
131.221033
 31
0.0
  0
LINE
  5
31F
100
AcDbEntity
  8
ALPHA
100
AcDbLine
 10
107.057448
 20
129.158846
 30
0.0
 11
107.057448
 21
130.358846
 31
0.0
  0
LINE
  5
320
100
AcDbEntity
  8
ALPHA
100
AcDbLine
 10
107.057448
 20
130.358846
 30
0.0
 11
106.191422
 21
130.858846
 31
0.0
  0
LWPOLYLINE
  5
321
100
AcDbEntity
  8
ALPHA
100
AcDbPolyline
 90
        4
 70
     0
 43
0.0
 10
107.057448
 20
131.221033
 10
106.881278
 20
131.357173
 10
106.698258
 20
131.502713
 10
106.507982
 20
131.658846
  0
LINE
  5
327
100
AcDbEntity
  8
ALPHA
100
AcDbLine
 10
106.507982
 20
131.658846
 30
0.0
 11
106.191422
 21
131.658846
 31
0.0
  0
LWPOLYLINE
  5
328
100
AcDbEntity
  8
ALPHA
100
AcDbPolyline
 90
        4
 70
     0
 43
0.0
 10
106.191422
 20
130.858846
 10
106.191422
 20
130.951512
 10
106.191422
 20
131.223785
 10
106.191422
 20
131.658846
  0
LINE
  5
32E
100
AcDbEntity
  8
ALPHA
100
AcDbLine
 10
105.637832
 20
133.208846
 30
0.0
 11
99.107448
 21
133.208846
 31
0.0
  0
LINE
  5
32F
100
AcDbEntity
  8
ALPHA
100
AcDbLine
 10
105.837832
 20
134.358846
 30
0.0
 11
99.007448
 21
134.358846
 31
0.0
  0
LINE
  5
330
100
AcDbEntity
  8
ALPHA
100
AcDbLine
 10
99.007448
 20
133.358846
 30
0.0
 11
105.837832
 21
133.358846
 31
0.0
  0
LINE
  5
331
100
AcDbEntity
  8
ALPHA
100
AcDbLine
 10
105.564627
 20
136.658846
 30
0.0
 11
99.107448
 21
136.658846
 31
0.0
  0
LINE
  5
332
100
AcDbEntity
  8
ALPHA
100
AcDbLine
 10
105.564627
 20
136.858846
 30
0.0
 11
99.007448
 21
136.858846
 31
0.0
  0
LINE
  5
333
100
AcDbEntity
  8
ALPHA
100
AcDbLine
 10
99.107448
 20
136.658846
 30
0.0
 11
99.107448
 21
134.358846
 31
0.0
  0
LINE
  5
334
100
AcDbEntity
  8
ALPHA
100
AcDbLine
 10
107.057448
 20
137.058846
 30
0.0
 11
105.564627
 21
136.658846
 31
0.0
  0
LINE
  5
335
100
AcDbEntity
  8
ALPHA
100
AcDbLine
 10
106.157448
 20
133.508846
 30
0.0
 11
105.852784
 21
133.332948
 31
0.0
  0
LINE
  5
336
100
AcDbEntity
  8
ALPHA
100
AcDbLine
 10
105.852784
 20
133.332948
 30
0.0
 11
105.637832
 21
133.208846
 31
0.0
  0
LINE
  5
337
100
AcDbEntity
  8
ALPHA
100
AcDbLine
 10
106.157448
 20
133.543376
 30
0.0
 11
106.157448
 21
133.508846
 31
0.0
  0
LINE
  5
338
100
AcDbEntity
  8
ALPHA
100
AcDbLine
 10
105.637832
 20
133.358846
 30
0.0
 11
105.637832
 21
133.208846
 31
0.0
  0
LINE
  5
339
100
AcDbEntity
  8
ALPHA
100
AcDbLine
 10
106.357448
 20
133.658846
 30
0.0
 11
106.357448
 21
134.058846
 31
0.0
  0
LINE
  5
33A
100
AcDbEntity
  8
ALPHA
100
AcDbLine
 10
105.837832
 20
133.358846
 30
0.0
 11
106.357448
 21
133.658846
 31
0.0
  0
LINE
  5
33B
100
AcDbEntity
  8
ALPHA
100
AcDbLine
 10
105.837832
 20
134.358846
 30
0.0
 11
106.357448
 21
134.058846
 31
0.0
  0
LINE
  5
33C
100
AcDbEntity
  8
ALPHA
100
AcDbLine
 10
105.837832
 20
133.358846
 30
0.0
 11
105.837832
 21
134.358846
 31
0.0
  0
LINE
  5
33D
100
AcDbEntity
  8
ALPHA
100
AcDbLine
 10
107.057448
 20
137.258846
 30
0.0
 11
107.057448
 21
137.058846
 31
0.0
  0
LINE
  5
33E
100
AcDbEntity
  8
ALPHA
100
AcDbLine
 10
107.057448
 20
137.258846
 30
0.0
 11
105.564627
 21
136.858846
 31
0.0
  0
ARC
  5
33F
100
AcDbEntity
  8
ALPHA
100
AcDbCircle
 10
65.557448
 20
163.877649
 30
0.0
 40
0.5
100
AcDbArc
 50
104.971265
 51
194.971265
  0
LINE
  5
340
100
AcDbEntity
  8
ALPHA
100
AcDbLine
 10
86.357448
 20
159.655686
 30
0.0
 11
94.857448
 21
159.655686
 31
0.0
  0
LINE
  5
341
100
AcDbEntity
  8
ALPHA
100
AcDbLine
 10
95.007448
 20
159.655686
 30
0.0
 11
85.857448
 21
155.958846
 31
0.0
  0
LINE
  5
342
100
AcDbEntity
  8
ALPHA
100
AcDbLine
 10
77.057448
 20
164.317873
 30
0.0
 11
77.057448
 21
166.158846
 31
0.0
  0
LINE
  5
343
100
AcDbEntity
  8
ALPHA
100
AcDbLine
 10
78.557448
 20
166.158846
 30
0.0
 11
78.557448
 21
164.317873
 31
0.0
  0
LINE
  5
344
100
AcDbEntity
  8
ALPHA
100
AcDbLine
 10
74.957448
 20
162.158846
 30
0.0
 11
76.657448
 21
162.158846
 31
0.0
  0
LINE
  5
345
100
AcDbEntity
  8
ALPHA
100
AcDbLine
 10
74.892933
 20
157.735957
 30
0.0
 11
76.657448
 21
157.735957
 31
0.0
  0
LINE
  5
346
100
AcDbEntity
  8
ALPHA
100
AcDbLine
 10
74.957448
 20
159.658846
 30
0.0
 11
76.657448
 21
159.658846
 31
0.0
  0
LINE
  5
347
100
AcDbEntity
  8
ALPHA
100
AcDbLine
 10
74.657448
 20
157.363551
 30
0.0
 11
74.657448
 21
154.61755
 31
0.0
  0
LINE
  5
348
100
AcDbEntity
  8
ALPHA
100
AcDbLine
 10
73.537913
 20
155.324505
 30
0.0
 11
74.657448
 21
155.324505
 31
0.0
  0
LINE
  5
349
100
AcDbEntity
  8
ALPHA
100
AcDbLine
 10
73.726961
 20
154.61755
 30
0.0
 11
74.657448
 21
154.61755
 31
0.0
  0
LINE
  5
34A
100
AcDbEntity
  8
ALPHA
100
AcDbLine
 10
71.791914
 20
161.154015
 30
0.0
 11
67.759022
 21
164.542419
 31
0.0
  0
ARC
  5
34B
100
AcDbEntity
  8
ALPHA
100
AcDbCircle
 10
67.115744
 20
163.776787
 30
0.0
 40
1.0
100
AcDbArc
 50
49.963285
 51
104.971265
  0
LINE
  5
34C
100
AcDbEntity
  8
ALPHA
100
AcDbLine
 10
65.42828
 20
164.360677
 30
0.0
 11
66.857409
 21
164.742842
 31
0.0
  0
LINE
  5
34D
100
AcDbEntity
  8
ALPHA
100
AcDbLine
 10
74.657448
 20
162.158846
 30
0.0
 11
74.657448
 21
159.658846
 31
0.0
  0
LINE
  5
34E
100
AcDbEntity
  8
ALPHA
100
AcDbLine
 10
74.957448
 20
162.158846
 30
0.0
 11
74.957448
 21
159.658846
 31
0.0
  0
LINE
  5
34F
100
AcDbEntity
  8
ALPHA
100
AcDbLine
 10
72.245154
 20
160.158846
 30
0.0
 11
74.657448
 21
160.158846
 31
0.0
  0
LINE
  5
350
100
AcDbEntity
  8
ALPHA
100
AcDbLine
 10
72.245154
 20
160.158846
 30
0.0
 11
74.657448
 21
160.158846
 31
0.0
  0
LINE
  5
351
100
AcDbEntity
  8
ALPHA
100
AcDbLine
 10
72.323518
 20
159.8658
 30
0.0
 11
74.657448
 21
159.8658
 31
0.0
  0
ARC
  5
352
100
AcDbEntity
  8
ALPHA
100
AcDbCircle
 10
71.148636
 20
160.388383
 30
0.0
 40
1.0
100
AcDbArc
 50
14.971265
 51
49.963285
  0
LINE
  5
353
100
AcDbEntity
  8
ALPHA
100
AcDbLine
 10
74.657448
 20
159.658846
 30
0.0
 11
74.657448
 21
157.43188
 31
0.0
  0
LINE
  5
354
100
AcDbEntity
  8
ALPHA
100
AcDbLine
 10
74.657448
 20
159.658846
 30
0.0
 11
74.657448
 21
157.440854
 31
0.0
  0
LWPOLYLINE
  5
355
100
AcDbEntity
  8
ALPHA
100
AcDbPolyline
 90
       10
 70
     0
 43
0.0
 10
74.657448
 20
157.43188
 10
74.660943
 20
157.479074
 10
74.671359
 20
157.525265
 10
74.688361
 20
157.569147
 10
74.711558
 20
157.609864
 10
74.740123
 20
157.64618
 10
74.773501
 20
157.677586
 10
74.81061
 20
157.703234
 10
74.850812
 20
157.722838
 10
74.892933
 20
157.735957
  0
LINE
  5
361
100
AcDbEntity
  8
ALPHA
100
AcDbLine
 10
74.657448
 20
157.43188
 30
0.0
 11
74.657448
 21
157.363551
 31
0.0
  0
LWPOLYLINE
  5
362
100
AcDbEntity
  8
ALPHA
100
AcDbPolyline
 90
       11
 70
     0
 43
0.0
 10
74.957448
 20
159.658846
 10
74.910517
 20
159.658846
 10
74.864742
 20
159.658846
 10
74.82125
 20
159.658846
 10
74.781112
 20
159.658846
 10
74.745316
 20
159.658846
 10
74.714742
 20
159.658846
 10
74.690146
 20
159.658846
 10
74.672131
 20
159.658846
 10
74.661141
 20
159.658846
 10
74.657448
 20
159.658846
  0
LWPOLYLINE
  5
36F
100
AcDbEntity
  8
ALPHA
100
AcDbPolyline
 90
       15
 70
     0
 43
0.0
 10
74.957448
 20
159.658846
 10
74.957448
 20
159.474171
 10
74.957448
 20
159.291073
 10
74.957448
 20
159.111119
 10
74.957448
 20
158.935844
 10
74.957448
 20
158.766747
 10
74.957448
 20
158.605272
 10
74.957448
 20
158.4528
 10
74.957448
 20
158.310633
 10
74.957448
 20
158.179985
 10
74.957448
 20
158.061974
 10
74.957448
 20
157.957607
 10
74.957448
 20
157.867776
 10
74.957448
 20
157.793249
 10
74.957448
 20
157.735957
  0
LINE
  5
380
100
AcDbEntity
  8
ALPHA
100
AcDbLine
 10
74.957448
 20
162.158846
 30
0.0
 11
74.657448
 21
162.158846
 31
0.0
  0
LINE
  5
381
100
AcDbEntity
  8
ALPHA
100
AcDbLine
 10
85.657448
 20
159.258846
 30
0.0
 11
85.657448
 21
156.458846
 31
0.0
  0
LINE
  5
382
100
AcDbEntity
  8
ALPHA
100
AcDbLine
 10
85.657448
 20
159.258846
 30
0.0
 11
85.657448
 21
156.458846
 31
0.0
  0
LINE
  5
383
100
AcDbEntity
  8
ALPHA
100
AcDbLine
 10
79.757448
 20
158.258846
 30
0.0
 11
79.757448
 21
156.958846
 31
0.0
  0
LINE
  5
384
100
AcDbEntity
  8
ALPHA
100
AcDbLine
 10
84.557448
 20
156.458846
 30
0.0
 11
84.557448
 21
159.258846
 31
0.0
  0
LINE
  5
385
100
AcDbEntity
  8
ALPHA
100
AcDbLine
 10
78.957448
 20
160.658846
 30
0.0
 11
78.957448
 21
156.608846
 31
0.0
  0
LINE
  5
386
100
AcDbEntity
  8
ALPHA
100
AcDbLine
 10
85.857448
 20
155.958846
 30
0.0
 11
85.857448
 21
159.155686
 31
0.0
  0
LINE
  5
387
100
AcDbEntity
  8
ALPHA
100
AcDbLine
 10
82.284753
 20
155.158846
 30
0.0
 11
82.457448
 21
156.047281
 31
0.0
  0
LINE
  5
388
100
AcDbEntity
  8
ALPHA
100
AcDbLine
 10
81.457448
 20
154.608846
 30
0.0
 11
82.457448
 21
154.608846
 31
0.0
  0
LINE
  5
389
100
AcDbEntity
  8
ALPHA
100
AcDbLine
 10
81.457448
 20
154.608846
 30
0.0
 11
78.957448
 21
156.608846
 31
0.0
  0
ARC
  5
38A
100
AcDbEntity
  8
ALPHA
100
AcDbCircle
 10
81.79394
 20
155.25425
 30
0.0
 40
0.5
100
AcDbArc
 50
331.0
 51
349.0
  0
LINE
  5
38B
100
AcDbEntity
  8
ALPHA
100
AcDbLine
 10
82.10613
 20
154.786124
 30
0.0
 11
82.231249
 21
155.011845
 31
0.0
  0
ARC
  5
38C
100
AcDbEntity
  8
ALPHA
100
AcDbCircle
 10
81.974937
 20
154.858846
 30
0.0
 40
0.15
100
AcDbArc
 50
223.743561
 51
331.0
  0
LINE
  5
38D
100
AcDbEntity
  8
ALPHA
100
AcDbLine
 10
79.757448
 20
156.958846
 30
0.0
 11
81.866571
 21
154.755131
 31
0.0
  0
LINE
  5
38E
100
AcDbEntity
  8
ALPHA
100
AcDbLine
 10
85.657448
 20
156.458846
 30
0.0
 11
84.857448
 21
156.458846
 31
0.0
  0
LINE
  5
38F
100
AcDbEntity
  8
ALPHA
100
AcDbLine
 10
85.857448
 20
155.958846
 30
0.0
 11
83.457448
 21
155.958846
 31
0.0
  0
LINE
  5
390
100
AcDbEntity
  8
ALPHA
100
AcDbLine
 10
84.857448
 20
156.458846
 30
0.0
 11
84.857448
 21
155.958846
 31
0.0
  0
LINE
  5
391
100
AcDbEntity
  8
ALPHA
100
AcDbLine
 10
84.857448
 20
156.458846
 30
0.0
 11
84.557448
 21
156.458846
 31
0.0
  0
LINE
  5
392
100
AcDbEntity
  8
ALPHA
100
AcDbLine
 10
84.557448
 20
156.458846
 30
0.0
 11
83.229131
 21
156.458846
 31
0.0
  0
ARC
  5
393
100
AcDbEntity
  8
ALPHA
100
AcDbCircle
 10
83.229131
 20
156.608846
 30
0.0
 40
0.15
100
AcDbArc
 50
180.0
 51
270.0
  0
LINE
  5
394
100
AcDbEntity
  8
ALPHA
100
AcDbLine
 10
83.079131
 20
156.608846
 30
0.0
 11
83.079131
 21
156.658846
 31
0.0
  0
ARC
  5
395
100
AcDbEntity
  8
ALPHA
100
AcDbCircle
 10
82.929131
 20
156.658846
 30
0.0
 40
0.15
100
AcDbArc
 50
0.0
 51
90.0
  0
LINE
  5
396
100
AcDbEntity
  8
ALPHA
100
AcDbLine
 10
82.929131
 20
156.808846
 30
0.0
 11
82.729131
 21
156.808846
 31
0.0
  0
ARC
  5
397
100
AcDbEntity
  8
ALPHA
100
AcDbCircle
 10
82.729131
 20
156.658846
 30
0.0
 40
0.15
100
AcDbArc
 50
90.0
 51
169.0
  0
LINE
  5
398
100
AcDbEntity
  8
ALPHA
100
AcDbLine
 10
82.479133
 20
156.158846
 30
0.0
 11
82.581887
 21
156.687467
 31
0.0
  0
LINE
  5
399
100
AcDbEntity
  8
ALPHA
100
AcDbLine
 10
83.457448
 20
154.158846
 30
0.0
 11
83.457448
 21
155.958846
 31
0.0
  0
LINE
  5
39A
100
AcDbEntity
  8
ALPHA
100
AcDbLine
 10
83.457448
 20
155.958846
 30
0.0
 11
83.457448
 21
156.158846
 31
0.0
  0
LINE
  5
39B
100
AcDbEntity
  8
ALPHA
100
AcDbLine
 10
83.457448
 20
156.458846
 30
0.0
 11
83.457448
 21
156.158846
 31
0.0
  0
LINE
  5
39C
100
AcDbEntity
  8
ALPHA
100
AcDbLine
 10
82.457448
 20
154.158846
 30
0.0
 11
82.457448
 21
154.608846
 31
0.0
  0
LINE
  5
39D
100
AcDbEntity
  8
ALPHA
100
AcDbLine
 10
82.457448
 20
154.608846
 30
0.0
 11
82.457448
 21
156.158846
 31
0.0
  0
LINE
  5
39E
100
AcDbEntity
  8
ALPHA
100
AcDbLine
 10
82.457448
 20
156.158846
 30
0.0
 11
83.457448
 21
156.158846
 31
0.0
  0
LINE
  5
39F
100
AcDbEntity
  8
ALPHA
100
AcDbLine
 10
83.457448
 20
154.158846
 30
0.0
 11
82.457448
 21
154.158846
 31
0.0
  0
LINE
  5
3A0
100
AcDbEntity
  8
ALPHA
100
AcDbLine
 10
82.457448
 20
153.858846
 30
0.0
 11
83.457448
 21
153.858846
 31
0.0
  0
LINE
  5
3A1
100
AcDbEntity
  8
ALPHA
100
AcDbLine
 10
82.457448
 20
154.608846
 30
0.0
 11
82.457448
 21
154.158846
 31
0.0
  0
LINE
  5
3A2
100
AcDbEntity
  8
ALPHA
100
AcDbLine
 10
82.457448
 20
154.158846
 30
0.0
 11
82.457448
 21
153.858846
 31
0.0
  0
LINE
  5
3A3
100
AcDbEntity
  8
ALPHA
100
AcDbLine
 10
83.457448
 20
156.121711
 30
0.0
 11
83.465
 21
156.123317
 31
0.0
  0
LINE
  5
3A4
100
AcDbEntity
  8
ALPHA
100
AcDbLine
 10
83.465
 20
156.123317
 30
0.0
 11
84.457448
 21
156.334268
 31
0.0
  0
LINE
  5
3A5
100
AcDbEntity
  8
ALPHA
100
AcDbLine
 10
84.457448
 20
156.458846
 30
0.0
 11
84.457448
 21
156.334268
 31
0.0
  0
LINE
  5
3A6
100
AcDbEntity
  8
ALPHA
100
AcDbLine
 10
84.857448
 20
156.419291
 30
0.0
 11
84.457448
 21
156.334268
 31
0.0
  0
LINE
  5
3A7
100
AcDbEntity
  8
ALPHA
100
AcDbLine
 10
83.457448
 20
154.158846
 30
0.0
 11
83.457448
 21
153.858846
 31
0.0
  0
LINE
  5
3A8
100
AcDbEntity
  8
ALPHA
100
AcDbLine
 10
82.714922
 20
153.858846
 30
0.0
 11
83.457448
 21
154.158846
 31
0.0
  0
LINE
  5
3A9
100
AcDbEntity
  8
ALPHA
100
AcDbLine
 10
85.657448
 20
156.458846
 30
0.0
 11
85.657448
 21
155.958846
 31
0.0
  0
LINE
  5
3AA
100
AcDbEntity
  8
ALPHA
100
AcDbLine
 10
85.857448
 20
156.631847
 30
0.0
 11
85.657448
 21
156.589336
 31
0.0
  0
LINE
  5
3AB
100
AcDbEntity
  8
ALPHA
100
AcDbLine
 10
84.557448
 20
159.258846
 30
0.0
 11
81.489498
 21
159.258846
 31
0.0
  0
LINE
  5
3AC
100
AcDbEntity
  8
ALPHA
100
AcDbLine
 10
82.457448
 20
162.158846
 30
0.0
 11
78.957448
 21
162.158846
 31
0.0
  0
LINE
  5
3AD
100
AcDbEntity
  8
ALPHA
100
AcDbLine
 10
82.457448
 20
160.29282
 30
0.0
 11
78.957448
 21
160.29282
 31
0.0
  0
LINE
  5
3AE
100
AcDbEntity
  8
ALPHA
100
AcDbLine
 10
78.957448
 20
162.158846
 30
0.0
 11
78.957448
 21
160.658846
 31
0.0
  0
LINE
  5
3AF
100
AcDbEntity
  8
ALPHA
100
AcDbLine
 10
76.657448
 20
162.158846
 30
0.0
 11
76.657448
 21
160.658846
 31
0.0
  0
LINE
  5
3B0
100
AcDbEntity
  8
ALPHA
100
AcDbLine
 10
78.957448
 20
160.658846
 30
0.0
 11
76.657448
 21
160.658846
 31
0.0
  0
LINE
  5
3B1
100
AcDbEntity
  8
ALPHA
100
AcDbLine
 10
79.757448
 20
158.258846
 30
0.0
 11
81.489498
 21
159.258846
 31
0.0
  0
LINE
  5
3B2
100
AcDbEntity
  8
ALPHA
100
AcDbLine
 10
78.557448
 20
163.883647
 30
0.0
 11
78.557448
 21
162.709228
 31
0.0
  0
LINE
  5
3B3
100
AcDbEntity
  8
ALPHA
100
AcDbLine
 10
78.557448
 20
162.709228
 30
0.0
 11
78.557448
 21
162.490056
 31
0.0
  0
LINE
  5
3B4
100
AcDbEntity
  8
ALPHA
100
AcDbLine
 10
77.057448
 20
162.490056
 30
0.0
 11
77.057448
 21
162.709228
 31
0.0
  0
LINE
  5
3B5
100
AcDbEntity
  8
ALPHA
100
AcDbLine
 10
77.057448
 20
163.883647
 30
0.0
 11
77.057448
 21
164.317873
 31
0.0
  0
LINE
  5
3B6
100
AcDbEntity
  8
ALPHA
100
AcDbLine
 10
78.557448
 20
164.317873
 30
0.0
 11
78.557448
 21
163.883647
 31
0.0
  0
LINE
  5
3B7
100
AcDbEntity
  8
ALPHA
100
AcDbLine
 10
78.557448
 20
162.158846
 30
0.0
 11
78.557448
 21
162.490056
 31
0.0
  0
LINE
  5
3B8
100
AcDbEntity
  8
ALPHA
100
AcDbLine
 10
77.057448
 20
162.158846
 30
0.0
 11
77.057448
 21
162.490056
 31
0.0
  0
LINE
  5
3B9
100
AcDbEntity
  8
ALPHA
100
AcDbLine
 10
77.057448
 20
163.883647
 30
0.0
 11
77.057448
 21
162.709228
 31
0.0
  0
LINE
  5
3BA
100
AcDbEntity
  8
ALPHA
100
AcDbLine
 10
77.057448
 20
163.883647
 30
0.0
 11
78.557448
 21
163.883647
 31
0.0
  0
LINE
  5
3BB
100
AcDbEntity
  8
ALPHA
100
AcDbLine
 10
78.557448
 20
162.490056
 30
0.0
 11
77.057448
 21
162.490056
 31
0.0
  0
LINE
  5
3BC
100
AcDbEntity
  8
ALPHA
100
AcDbLine
 10
78.557448
 20
162.709228
 30
0.0
 11
77.057448
 21
162.709228
 31
0.0
  0
LINE
  5
3BD
100
AcDbEntity
  8
ALPHA
100
AcDbLine
 10
77.057448
 20
164.317873
 30
0.0
 11
78.557448
 21
164.317873
 31
0.0
  0
LINE
  5
3BE
100
AcDbEntity
  8
ALPHA
100
AcDbLine
 10
76.657448
 20
162.158846
 30
0.0
 11
78.957448
 21
162.158846
 31
0.0
  0
LINE
  5
3BF
100
AcDbEntity
  8
ALPHA
100
AcDbLine
 10
78.957448
 20
162.158846
 30
0.0
 11
76.657448
 21
162.158846
 31
0.0
  0
LINE
  5
3C0
100
AcDbEntity
  8
ALPHA
100
AcDbLine
 10
83.457448
 20
162.158846
 30
0.0
 11
83.457448
 21
160.29282
 31
0.0
  0
LINE
  5
3C1
100
AcDbEntity
  8
ALPHA
100
AcDbLine
 10
82.457448
 20
162.158846
 30
0.0
 11
82.457448
 21
160.29282
 31
0.0
  0
LINE
  5
3C2
100
AcDbEntity
  8
ALPHA
100
AcDbLine
 10
85.657448
 20
159.258846
 30
0.0
 11
84.857448
 21
159.258846
 31
0.0
  0
LINE
  5
3C3
100
AcDbEntity
  8
ALPHA
100
AcDbLine
 10
84.857448
 20
159.258846
 30
0.0
 11
84.557448
 21
159.258846
 31
0.0
  0
LINE
  5
3C4
100
AcDbEntity
  8
ALPHA
100
AcDbLine
 10
83.457448
 20
160.29282
 30
0.0
 11
83.457448
 21
159.258846
 31
0.0
  0
LINE
  5
3C5
100
AcDbEntity
  8
ALPHA
100
AcDbLine
 10
82.457448
 20
160.29282
 30
0.0
 11
83.457448
 21
160.29282
 31
0.0
  0
LINE
  5
3C6
100
AcDbEntity
  8
ALPHA
100
AcDbLine
 10
82.457448
 20
160.29282
 30
0.0
 11
82.457448
 21
159.258846
 31
0.0
  0
LINE
  5
3C7
100
AcDbEntity
  8
ALPHA
100
AcDbLine
 10
85.657448
 20
158.28238
 30
0.0
 11
85.857448
 21
158.335969
 31
0.0
  0
LINE
  5
3C8
100
AcDbEntity
  8
ALPHA
100
AcDbLine
 10
86.357448
 20
159.655686
 30
0.0
 11
85.857448
 21
159.155686
 31
0.0
  0
LINE
  5
3C9
100
AcDbEntity
  8
ALPHA
100
AcDbLine
 10
83.457448
 20
162.158846
 30
0.0
 11
82.457448
 21
162.158846
 31
0.0
  0
LINE
  5
3CA
100
AcDbEntity
  8
ALPHA
100
AcDbLine
 10
78.557448
 20
166.158846
 30
0.0
 11
78.557448
 21
166.658846
 31
0.0
  0
LINE
  5
3CB
100
AcDbEntity
  8
ALPHA
100
AcDbLine
 10
77.057448
 20
166.658846
 30
0.0
 11
78.557448
 21
166.658846
 31
0.0
  0
LINE
  5
3CC
100
AcDbEntity
  8
ALPHA
100
AcDbLine
 10
77.057448
 20
166.158846
 30
0.0
 11
77.057448
 21
166.658846
 31
0.0
  0
LINE
  5
3CD
100
AcDbEntity
  8
ALPHA
100
AcDbLine
 10
77.057448
 20
166.158846
 30
0.0
 11
78.557448
 21
166.158846
 31
0.0
  0
LINE
  5
3CE
100
AcDbEntity
  8
ALPHA
100
AcDbLine
 10
102.936231
 20
159.655686
 30
0.0
 11
95.007448
 21
159.655686
 31
0.0
  0
LINE
  5
3CF
100
AcDbEntity
  8
ALPHA
100
AcDbLine
 10
92.660514
 20
160.158846
 30
0.0
 11
96.350611
 21
160.158846
 31
0.0
  0
LINE
  5
3D0
100
AcDbEntity
  8
ALPHA
100
AcDbLine
 10
90.794489
 20
159.658846
 30
0.0
 11
92.660514
 21
160.158846
 31
0.0
  0
LINE
  5
3D1
100
AcDbEntity
  8
ALPHA
100
AcDbLine
 10
96.540235
 20
160.091316
 30
0.0
 11
97.070425
 21
159.658846
 31
0.0
  0
ARC
  5
3D2
100
AcDbEntity
  8
ALPHA
100
AcDbCircle
 10
96.350611
 20
159.858846
 30
0.0
 40
0.3
100
AcDbArc
 50
50.796206
 51
90.0
  0
LINE
  5
3D3
100
AcDbEntity
  8
ALPHA
100
AcDbLine
 10
94.857448
 20
159.655686
 30
0.0
 11
94.857448
 21
159.595082
 31
0.0
  0
LINE
  5
3D4
100
AcDbEntity
  8
ALPHA
100
AcDbLine
 10
95.007448
 20
159.658846
 30
0.0
 11
94.857448
 21
159.658846
 31
0.0
  0
LINE
  5
3D5
100
AcDbEntity
  8
ALPHA
100
AcDbLine
 10
102.936231
 20
159.655686
 30
0.0
 11
107.057448
 21
158.155686
 31
0.0
  0
DIMENSION
  5
3E7
100
AcDbEntity
  8
COTATION1
100
AcDbDimension
  2
*D0
 10
107.057448
 20
104.4139
 30
0.0
 11
88.757448
 21
106.6639
 31
0.0
  3
SC_STAND
100
AcDbAlignedDimension
 13
70.457448
 23
132.258846
 33
0.0
 14
107.057448
 24
129.158846
 34
0.0
100
AcDbRotatedDimension
  0
DIMENSION
  5
3F4
100
AcDbEntity
  8
COTATION1
100
AcDbDimension
  2
*D1
 10
126.165941
 20
159.655686
 30
0.0
 11
123.915941
 21
143.657266
 31
0.0
  3
SC_STAND
100
AcDbAlignedDimension
 13
102.936231
 23
127.658846
 33
0.0
 14
102.936231
 24
159.655686
 34
0.0
 50
90.0
100
AcDbRotatedDimension
  0
ENDSEC
  0
SECTION
  2
OBJECTS
  0
DICTIONARY
  5
406
100
AcDbDictionary
  3
ACAD_GROUP
350
407
  3
ACAD_MLINESTYLE
350
414
  3
ACDBVARIABLEDICTIONARY
350
422
  0
DICTIONARY
  5
407
102
{ACAD_REACTORS
330
406
102
}
100
AcDbDictionary
  0
DICTIONARY
  5
414
102
{ACAD_REACTORS
330
406
102
}
100
AcDbDictionary
  3
STANDARD
350
415
  0
DICTIONARY
  5
422
102
{ACAD_REACTORS
330
406
102
}
100
AcDbDictionary
  3
DIMADEC
350
423
  0
MLINESTYLE
  5
415
102
{ACAD_REACTORS
330
414
102
}
100
AcDbMlineStyle
  2
STANDARD
 70
     0
  3

 62
   256
 51
90.0
 52
90.0
 71
     2
 49
0.5
 62
   256
  6
BYLAYER
 49
-0.5
 62
   256
  6
BYLAYER
  0
DICTIONARYVAR
  5
423
102
{ACAD_REACTORS
330
422
102
}
100
DictionaryVariables
280
     0
  1
0
  0
ENDSEC
  0
EOF
