  0
SECTION
  2
HEADER
  9
$ACADVER
  1
AC1014
  9
$ACADMAINTVER
 70
     0
  9
$DWGCODEPAGE
  3
ANSI_1252
  9
$INSBASE
 10
93.894301
 20
236.06014
 30
0.0
  9
$EXTMIN
 10
-10.95973
 20
-15.363295
 30
0.0
  9
$EXTMAX
 10
64.769461
 20
198.835647
 30
0.0
  9
$LIMMIN
 10
0.0
 20
0.0
  9
$LIMMAX
 10
210.0
 20
297.0
  9
$ORTHOMODE
 70
     0
  9
$REGENMODE
 70
     1
  9
$FILLMODE
 70
     1
  9
$QTEXTMODE
 70
     0
  9
$MIRRTEXT
 70
     0
  9
$DRAGMODE
 70
     1
  9
$LTSCALE
 40
7.0
  9
$OSMODE
 70
  4095
  9
$ATTMODE
 70
     1
  9
$TEXTSIZE
 40
2.5
  9
$TRACEWID
 40
0.05
  9
$TEXTSTYLE
  7
STANDARD
  9
$CLAYER
  8
COTATION1
  9
$CELTYPE
  6
BYLAYER
  9
$CECOLOR
 62
   256
  9
$CELTSCALE
 40
1.0
  9
$DELOBJ
 70
     1
  9
$DISPSILH
 70
     0
  9
$DIMSCALE
 40
1.0
  9
$DIMASZ
 40
3.0
  9
$DIMEXO
 40
0.0625
  9
$DIMDLI
 40
0.38
  9
$DIMRND
 40
0.01
  9
$DIMDLE
 40
0.0
  9
$DIMEXE
 40
0.18
  9
$DIMTP
 40
0.0
  9
$DIMTM
 40
0.0
  9
$DIMTXT
 40
2.5
  9
$DIMCEN
 40
0.09
  9
$DIMTSZ
 40
0.0
  9
$DIMTOL
 70
     0
  9
$DIMLIM
 70
     0
  9
$DIMTIH
 70
     0
  9
$DIMTOH
 70
     0
  9
$DIMSE1
 70
     0
  9
$DIMSE2
 70
     0
  9
$DIMTAD
 70
     1
  9
$DIMZIN
 70
    12
  9
$DIMBLK
  1

  9
$DIMASO
 70
     1
  9
$DIMSHO
 70
     0
  9
$DIMPOST
  1

  9
$DIMAPOST
  1

  9
$DIMALT
 70
     0
  9
$DIMALTD
 70
     2
  9
$DIMALTF
 40
25.4
  9
$DIMLFAC
 40
1.0
  9
$DIMTOFL
 70
     1
  9
$DIMTVP
 40
0.0
  9
$DIMTIX
 70
     0
  9
$DIMSOXD
 70
     0
  9
$DIMSAH
 70
     0
  9
$DIMBLK1
  1

  9
$DIMBLK2
  1

  9
$DIMSTYLE
  2
SC_STAND
  9
$DIMCLRD
 70
     0
  9
$DIMCLRE
 70
     0
  9
$DIMCLRT
 70
     0
  9
$DIMTFAC
 40
1.0
  9
$DIMGAP
 40
1.0
  9
$DIMJUST
 70
     0
  9
$DIMSD1
 70
     0
  9
$DIMSD2
 70
     0
  9
$DIMTOLJ
 70
     1
  9
$DIMTZIN
 70
    12
  9
$DIMALTZ
 70
    12
  9
$DIMALTTZ
 70
    12
  9
$DIMFIT
 70
     5
  9
$DIMUPT
 70
     0
  9
$DIMUNIT
 70
     2
  9
$DIMDEC
 70
     3
  9
$DIMTDEC
 70
     3
  9
$DIMALTU
 70
     2
  9
$DIMALTTD
 70
     2
  9
$DIMTXSTY
  7
STANDARD
  9
$DIMAUNIT
 70
     0
  9
$LUNITS
 70
     2
  9
$LUPREC
 70
     3
  9
$SKETCHINC
 40
0.1
  9
$FILLETRAD
 40
0.0625
  9
$AUNITS
 70
     0
  9
$AUPREC
 70
     0
  9
$MENU
  1
ACAD
  9
$ELEVATION
 40
0.0
  9
$PELEVATION
 40
0.0
  9
$THICKNESS
 40
0.0
  9
$LIMCHECK
 70
     0
  9
$BLIPMODE
 70
     1
  9
$CHAMFERA
 40
0.0
  9
$CHAMFERB
 40
0.0
  9
$CHAMFERC
 40
0.0
  9
$CHAMFERD
 40
0.0
  9
$SKPOLY
 70
     0
  9
$TDCREATE
 40
2450953.590960648
  9
$TDUPDATE
 40
2453664.507474491
  9
$TDINDWG
 40
0.0427825694
  9
$TDUSRTIMER
 40
0.0427825694
  9
$USRTIMER
 70
     1
  9
$ANGBASE
 50
0.0
  9
$ANGDIR
 70
     0
  9
$PDMODE
 70
     0
  9
$PDSIZE
 40
0.0
  9
$PLINEWID
 40
0.0
  9
$COORDS
 70
     0
  9
$SPLFRAME
 70
     0
  9
$SPLINETYPE
 70
     6
  9
$SPLINESEGS
 70
     8
  9
$ATTDIA
 70
     0
  9
$ATTREQ
 70
     1
  9
$HANDLING
 70
     1
  9
$HANDSEED
  5
93F6
  9
$SURFTAB1
 70
     6
  9
$SURFTAB2
 70
     6
  9
$SURFTYPE
 70
     6
  9
$SURFU
 70
     6
  9
$SURFV
 70
     6
  9
$UCSNAME
  2

  9
$UCSORG
 10
0.0
 20
0.0
 30
0.0
  9
$UCSXDIR
 10
1.0
 20
0.0
 30
0.0
  9
$UCSYDIR
 10
0.0
 20
1.0
 30
0.0
  9
$PUCSNAME
  2

  9
$PUCSORG
 10
0.0
 20
0.0
 30
0.0
  9
$PUCSXDIR
 10
1.0
 20
0.0
 30
0.0
  9
$PUCSYDIR
 10
0.0
 20
1.0
 30
0.0
  9
$USERI1
 70
     0
  9
$USERI2
 70
     0
  9
$USERI3
 70
     0
  9
$USERI4
 70
     0
  9
$USERI5
 70
     0
  9
$USERR1
 40
0.0
  9
$USERR2
 40
0.0
  9
$USERR3
 40
0.0
  9
$USERR4
 40
0.0
  9
$USERR5
 40
0.0
  9
$WORLDVIEW
 70
     1
  9
$SHADEDGE
 70
     3
  9
$SHADEDIF
 70
    70
  9
$TILEMODE
 70
     1
  9
$MAXACTVP
 70
    32
  9
$PINSBASE
 10
0.0
 20
0.0
 30
0.0
  9
$PLIMCHECK
 70
     0
  9
$PEXTMIN
 10
-3.174999
 20
-3.175
 30
0.0
  9
$PEXTMAX
 10
203.812116
 20
370.276807
 30
0.0
  9
$PLIMMIN
 10
-3.175
 20
-3.175
  9
$PLIMMAX
 10
203.812115
 20
370.276807
  9
$UNITMODE
 70
     0
  9
$VISRETAIN
 70
     0
  9
$PLINEGEN
 70
     0
  9
$PSLTSCALE
 70
     1
  9
$TREEDEPTH
 70
  3020
  9
$PICKSTYLE
 70
     1
  9
$CMLSTYLE
  2
STANDARD
  9
$CMLJUST
 70
     0
  9
$CMLSCALE
 40
1.0
  9
$PROXYGRAPHICS
 70
     1
  9
$MEASUREMENT
 70
     0
  0
ENDSEC
  0
SECTION
  2
CLASSES
  0
CLASS
  1
DICTIONARYVAR
  2
AcDbDictionaryVar
  3
"AutoCAD"
 90
        0
280
     0
281
     0
  0
CLASS
  1
HATCH
  2
AcDbHatch
  3
"ACAD_SEDONA"
 90
        0
280
     0
281
     1
  0
CLASS
  1
LWPOLYLINE
  2
AcDbPolyline
  3
"AutoCAD"
 90
        0
280
     0
281
     1
  0
ENDSEC
  0
SECTION
  2
TABLES
  0
TABLE
  2
VPORT
  5
F4
100
AcDbSymbolTable
 70
     2
  0
VPORT
  5
93F5
100
AcDbSymbolTableRecord
100
AcDbViewportTableRecord
  2
*ACTIVE
 70
     0
 10
0.0
 20
0.0
 11
1.0
 21
1.0
 12
26.910096
 22
91.74335
 13
0.0
 23
0.0
 14
1.0
 24
1.0
 15
10.0
 25
10.0
 16
0.0
 26
0.0
 36
1.0
 17
0.0
 27
0.0
 37
0.0
 40
215.898439
 41
1.643603
 42
50.0
 43
0.0
 44
0.0
 50
0.0
 51
0.0
 71
     0
 72
   100
 73
     1
 74
     1
 75
     0
 76
     1
 77
     0
 78
     0
  0
ENDTAB
  0
TABLE
  2
LTYPE
  5
F1
100
AcDbSymbolTable
 70
     5
  0
LTYPE
  5
FD
100
AcDbSymbolTableRecord
100
AcDbLinetypeTableRecord
  2
BYBLOCK
 70
     0
  3

 72
    65
 73
     0
 40
0.0
  0
LTYPE
  5
FE
100
AcDbSymbolTableRecord
100
AcDbLinetypeTableRecord
  2
BYLAYER
 70
     0
  3

 72
    65
 73
     0
 40
0.0
  0
LTYPE
  5
FF
100
AcDbSymbolTableRecord
100
AcDbLinetypeTableRecord
  2
CONTINUOUS
 70
     0
  3
Solid line
 72
    65
 73
     0
 40
0.0
  0
LTYPE
  5
112
100
AcDbSymbolTableRecord
100
AcDbLinetypeTableRecord
  2
AXES2
 70
     0
  3
___ _ ___ _ ___ _ ___ _ ___ _ ___ _ ___ _ ___ _
 72
    65
 73
     4
 40
1.125
 49
0.75
 74
     0
 49
-0.125
 74
     0
 49
0.125
 74
     0
 49
-0.125
 74
     0
  0
ENDTAB
  0
TABLE
  2
LAYER
  5
EE
100
AcDbSymbolTable
 70
     7
  0
LAYER
  5
FA
100
AcDbSymbolTableRecord
100
AcDbLayerTableRecord
  2
0
 70
     0
 62
     7
  6
CONTINUOUS
  0
LAYER
  5
12C
100
AcDbSymbolTableRecord
100
AcDbLayerTableRecord
  2
ALPHA
 70
     0
 62
   255
  6
CONTINUOUS
  0
LAYER
  5
12F
100
AcDbSymbolTableRecord
100
AcDbLayerTableRecord
  2
COTATION1
 70
     0
 62
     2
  6
CONTINUOUS
  0
LAYER
  5
13B
100
AcDbSymbolTableRecord
100
AcDbLayerTableRecord
  2
ASHADE
 70
     0
 62
     7
  6
CONTINUOUS
  0
LAYER
  5
13E
100
AcDbSymbolTableRecord
100
AcDbLayerTableRecord
  2
DEFPOINTS
 70
     0
 62
     7
  6
CONTINUOUS
  0
ENDTAB
  0
TABLE
  2
STYLE
  5
EF
100
AcDbSymbolTable
 70
     2
  0
STYLE
  5
FB
100
AcDbSymbolTableRecord
100
AcDbTextStyleTableRecord
  2
STANDARD
 70
     0
 40
0.0
 41
1.0
 50
0.0
 71
     0
 42
2.5
  3
txt
  4

  0
ENDTAB
  0
TABLE
  2
VIEW
  5
F2
100
AcDbSymbolTable
 70
     0
  0
ENDTAB
  0
TABLE
  2
UCS
  5
F3
100
AcDbSymbolTable
 70
     0
  0
ENDTAB
  0
TABLE
  2
APPID
  5
F5
100
AcDbSymbolTable
 70
     3
  0
APPID
  5
FC
100
AcDbSymbolTableRecord
100
AcDbRegAppTableRecord
  2
ACAD
 70
     0
  0
APPID
  5
127
100
AcDbSymbolTableRecord
100
AcDbRegAppTableRecord
  2
AVE_RENDER
 70
     0
  0
APPID
  5
128
100
AcDbSymbolTableRecord
100
AcDbRegAppTableRecord
  2
AVE_MATERIAL
 70
     0
  0
ENDTAB
  0
TABLE
  2
DIMSTYLE
  5
F6
100
AcDbSymbolTable
 70
     2
  0
DIMSTYLE
105
129
100
AcDbSymbolTableRecord
100
AcDbDimStyleTableRecord
  2
STANDARD
 70
     0
  3

  4

  5

  6

  7

 40
1.0
 41
0.18
 42
0.0625
 43
0.38
 44
0.18
 45
0.0
 46
0.0
 47
0.0
 48
0.0
140
0.18
141
0.09
142
0.0
143
25.4
144
1.0
145
0.0
146
1.0
147
0.09
 71
     0
 72
     0
 73
     1
 74
     1
 75
     0
 76
     0
 77
     0
 78
     0
170
     0
171
     2
172
     0
173
     0
174
     0
175
     0
176
     0
177
     0
178
     0
270
     2
271
     3
272
     3
273
     2
274
     2
340
FB
275
     0
280
     0
281
     0
282
     0
283
     1
284
    12
285
    12
286
    12
287
     5
288
     0
  0
DIMSTYLE
105
12A
102
{ACAD_REACTORS
330
9335
330
9342
330
934F
330
9367
330
938A
330
93B0
330
93CE
102
}
100
AcDbSymbolTableRecord
100
AcDbDimStyleTableRecord
  2
SC_STAND
 70
     0
  3

  4

  5

  6

  7

 40
1.0
 41
3.0
 42
0.0625
 43
0.38
 44
0.18
 45
0.01
 46
0.0
 47
0.0
 48
0.0
140
2.5
141
0.09
142
0.0
143
25.4
144
1.0
145
0.0
146
1.0
147
1.0
 71
     0
 72
     0
 73
     0
 74
     0
 75
     0
 76
     0
 77
     1
 78
    12
170
     0
171
     2
172
     1
173
     0
174
     0
175
     0
176
     0
177
     0
178
     0
270
     2
271
     3
272
     3
273
     2
274
     2
340
FB
275
     0
280
     0
281
     0
282
     0
283
     1
284
    12
285
    12
286
    12
287
     5
288
     0
  0
ENDTAB
  0
TABLE
  2
BLOCK_RECORD
  5
ED
100
AcDbSymbolTable
 70
    14
  0
BLOCK_RECORD
  5
103
100
AcDbSymbolTableRecord
100
AcDbBlockTableRecord
  2
*MODEL_SPACE
  0
BLOCK_RECORD
  5
100
100
AcDbSymbolTableRecord
100
AcDbBlockTableRecord
  2
*PAPER_SPACE
  0
BLOCK_RECORD
  5
108
100
AcDbSymbolTableRecord
100
AcDbBlockTableRecord
  2
AVE_RENDER
  0
BLOCK_RECORD
  5
109
100
AcDbSymbolTableRecord
100
AcDbBlockTableRecord
  2
AVE_GLOBAL
  0
BLOCK_RECORD
  5
10A
100
AcDbSymbolTableRecord
100
AcDbBlockTableRecord
  2
SCH_IS
  0
BLOCK_RECORD
  5
9329
100
AcDbSymbolTableRecord
100
AcDbBlockTableRecord
  2
*D7
  0
BLOCK_RECORD
  5
9336
100
AcDbSymbolTableRecord
100
AcDbBlockTableRecord
  2
*D8
  0
BLOCK_RECORD
  5
9343
100
AcDbSymbolTableRecord
100
AcDbBlockTableRecord
  2
*D9
  0
BLOCK_RECORD
  5
935B
100
AcDbSymbolTableRecord
100
AcDbBlockTableRecord
  2
*D10
  0
BLOCK_RECORD
  5
937E
100
AcDbSymbolTableRecord
100
AcDbBlockTableRecord
  2
*D11
  0
BLOCK_RECORD
  5
93A1
100
AcDbSymbolTableRecord
100
AcDbBlockTableRecord
  2
*D12
  0
BLOCK_RECORD
  5
93BF
100
AcDbSymbolTableRecord
100
AcDbBlockTableRecord
  2
*D13
  0
ENDTAB
  0
ENDSEC
  0
SECTION
  2
BLOCKS
  0
BLOCK
  5
141
100
AcDbEntity
  8
0
100
AcDbBlockBegin
  2
*MODEL_SPACE
 70
     0
 10
0.0
 20
0.0
 30
0.0
  3
*MODEL_SPACE
  1

  0
ENDBLK
  5
142
100
AcDbEntity
  8
0
100
AcDbBlockEnd
  0
BLOCK
  5
13F
100
AcDbEntity
 67
     1
  8
0
100
AcDbBlockBegin
  2
*PAPER_SPACE
 70
     0
 10
0.0
 20
0.0
 30
0.0
  3
*PAPER_SPACE
  1

  0
ENDBLK
  5
140
100
AcDbEntity
 67
     1
  8
0
100
AcDbBlockEnd
  0
BLOCK
  5
8D
100
AcDbEntity
  8
0
100
AcDbBlockBegin
  2
AVE_RENDER
 70
     0
 10
0.0
 20
0.0
 30
0.0
  3
AVE_RENDER
  1
AVE_RENDER
  0
ENDBLK
  5
8E
100
AcDbEntity
  8
0
100
AcDbBlockEnd
  0
BLOCK
  5
90
100
AcDbEntity
  8
0
100
AcDbBlockBegin
  2
AVE_GLOBAL
 70
     0
 10
0.0
 20
0.0
 30
0.0
  3
AVE_GLOBAL
  1
AVE_GLOBAL
  0
ENDBLK
  5
91
100
AcDbEntity
  8
0
100
AcDbBlockEnd
  0
BLOCK
  5
C9
100
AcDbEntity
  8
0
100
AcDbBlockBegin
  2
SCH_IS
 70
     0
 10
0.0
 20
0.0
 30
0.0
  3
SCH_IS
  1

  0
INSERT
  5
C0
100
AcDbEntity
  8
ASHADE
 62
     1
100
AcDbBlockReference
  2
AVE_RENDER
 10
0.0
 20
0.0
 30
0.0
1001
AVE_RENDER
1002
{
1070
     6
1000
Pref
1070
    50
1070
    20
1070
     1
1070
     0
1000

1070
    10
1070
     1
1070
    30
1040
25.4
1070
     1
1040
0.3
1040
0.7
1040
0.0
1040
10.0
1010
-1.0
1020
-1.0
1030
-1.0
1040
0.3
1070
    49
1070
     0
1070
     0
1010
1.0
1020
1.0
1030
1.0
1040
45.0
1070
     1
1070
     0
1000
WCS
1040
0.0
1002
}
  0
INSERT
  5
C1
100
AcDbEntity
  8
ASHADE
 62
     3
100
AcDbBlockReference
  2
AVE_RENDER
 10
0.0
 20
0.0
 30
0.0
1001
AVE_RENDER
1002
{
1070
     0
1000
Full Opt
1070
     0
1070
     1
1070
     1
1070
     1
1070
     0
1070
     0
1070
     0
1070
     1
1070
     1
1040
0.0001
1040
0.0001
1002
}
  0
INSERT
  5
C2
100
AcDbEntity
  8
ASHADE
 62
     4
100
AcDbBlockReference
  2
AVE_RENDER
 10
0.0
 20
0.0
 30
0.0
1001
AVE_RENDER
1002
{
1070
     0
1000
Quick Opt
1070
     0
1070
     1
1070
     1
1070
     1
1070
     0
1070
     0
1070
     1
1002
}
  0
INSERT
  5
C3
100
AcDbEntity
  8
ASHADE
 62
     5
100
AcDbBlockReference
  2
AVE_RENDER
 10
0.0
 20
0.0
 30
0.0
1001
AVE_RENDER
1002
{
1070
     1
1000
Scanl Opt
1070
     2
1070
     0
1070
     2
1040
2.0
1040
4.0
1070
     0
1070
     1
1070
     0
1040
0.03
1002
}
  0
INSERT
  5
C4
100
AcDbEntity
  8
ASHADE
 62
     6
100
AcDbBlockReference
  2
AVE_RENDER
 10
0.0
 20
0.0
 30
0.0
1001
AVE_RENDER
1002
{
1070
     2
1000
Raytr Opt
1070
     2
1070
     0
1070
     2
1040
2.0
1040
4.0
1070
     0
1070
     1
1070
     1
1040
0.03
1070
     3
1040
0.03
1002
}
  0
INSERT
  5
C5
100
AcDbEntity
  8
ASHADE
 62
     7
100
AcDbBlockReference
  2
AVE_RENDER
 10
0.0
 20
0.0
 30
0.0
1001
AVE_RENDER
1002
{
1070
     0
1000
RFile Opt
1070
     5
1070
   640
1070
   480
1070
 10000
1070
     3
1070
    32
1070
    24
1070
     0
1070
     0
1070
     0
1070
     1
1070
     0
1070
     0
1070
     0
1002
}
  0
INSERT
  5
C6
100
AcDbEntity
  8
ASHADE
 62
     8
100
AcDbBlockReference
  2
AVE_RENDER
 10
0.0
 20
0.0
 30
0.0
1001
AVE_RENDER
1002
{
1070
     0
1000
Fog Opt
1070
     0
1070
     0
1040
0.0
1040
1.0
1040
0.0
1040
1.0
1010
0.5
1020
0.5
1030
0.5
1002
}
  0
INSERT
  5
C7
100
AcDbEntity
  8
ASHADE
 62
     9
100
AcDbBlockReference
  2
AVE_RENDER
 10
0.0
 20
0.0
 30
0.0
1001
AVE_RENDER
1002
{
1070
     0
1000
BG Opt
1070
     0
1070
     1
1010
0.0
1020
0.0
1030
0.0
1010
1.0
1020
0.0
1030
0.0
1010
0.0
1020
1.0
1030
0.0
1010
0.0
1020
0.0
1030
1.0
1040
0.5
1040
0.33
1040
0.0
1000

1070
     1
1000

1070
     1
1070
     1
1040
1.0
1040
1.0
1040
0.0
1040
0.0
1070
     0
1002
}
  0
INSERT
  5
C8
100
AcDbEntity
  8
ASHADE
 62
     1
100
AcDbBlockReference
  2
AVE_GLOBAL
 10
0.0
 20
0.0
 30
0.0
1001
AVE_MATERIAL
1002
{
1000
*GLOBAL*
1000
1
1000
Finition globale.
1002
{
1002
}
1002
{
1070
    63
1002
{
1002
{
1010
-1.0
1020
-1.0
1030
-1.0
1002
}
1040
0.1
1000

1040
0.0
1002
{
1002
}
1040
0.0
1002
{
1002
}
1040
0.0
1002
}
1002
{
1002
{
1010
-1.0
1020
-1.0
1030
-1.0
1002
}
1040
0.7
1000

1040
0.0
1002
{
1002
}
1040
0.0
1002
{
1002
}
1040
0.0
1002
}
1002
{
1002
{
1010
-1.0
1020
-1.0
1030
-1.0
1002
}
1040
0.2
1000

1040
0.0
1002
{
1002
}
1040
0.0
1002
{
1002
}
1040
0.0
1002
}
1002
{
1070
     0
1002
{
1070
     1
1002
{
1040
1.0
1040
1.0
1000

1040
0.0
1002
{
1002
}
1040
0.0
1002
{
1002
}
1040
0.0
1002
}
1002
}
1040
1.0
1040
0.0
1040
0.0
1002
}
1002
{
1040
1.0
1040
1.0
1000

1040
0.0
1002
{
1002
}
1040
0.0
1002
{
1002
}
1040
0.0
1002
}
1002
{
1040
0.5
1040
1.0
1000

1040
0.0
1002
{
1002
}
1040
0.0
1002
{
1002
}
1040
0.0
1002
}
1002
{
1070
     0
1040
0.0
1002
{
1002
}
1040
1.0
1002
{
1002
}
1040
0.0
1002
}
1002
{
1040
0.0
1002
{
1002
{
1010
0.0
1020
0.0
1030
0.0
1002
}
1040
1.0
1000

1040
0.0
1002
{
1002
}
1040
0.0
1002
{
1002
}
1040
0.0
1002
}
1002
}
1002
{
1002
{
1070
     1
1002
{
1040
0.0
1040
1.0
1000

1040
0.0
1002
{
1002
}
1040
0.0
1002
{
1002
}
1040
0.0
1002
}
1002
}
1040
0.0
1002
{
1002
}
1010
1.0
1020
0.0
1030
0.0
1010
0.0
1020
1.0
1030
0.0
1010
0.0
1020
0.0
1030
1.0
1070
     0
1002
}
1002
{
1002
{
1040
1.0
1040
1.0
1002
{
1070
     1
1002
{
1040
1.0
1040
1.0
1000

1040
0.0
1002
{
1002
}
1040
0.0
1002
{
1002
}
1040
0.0
1002
}
1002
}
1002
}
1070
     0
1040
0.0
1002
{
1002
}
1002
}
1002
{
1002
}
1002
}
1002
{
1071
        3
1070
     3
1070
     0
1002
{
1070
     2
1070
     0
1070
     0
1040
0.0
1002
}
1070
     0
1070
     2
1002
{
1002
}
1002
}
1002
{
1040
8030.0
1040
190.300003
1040
0.305
1040
228.0
1040
545.0
1040
14.0
1040
17.4
1040
0.456
1002
}
1002
}
  0
ENDBLK
  5
CA
100
AcDbEntity
  8
0
100
AcDbBlockEnd
  0
BLOCK
  5
932A
100
AcDbEntity
  8
0
100
AcDbBlockBegin
  2
*D7
 70
     1
 10
0.0
 20
0.0
 30
0.0
  3
*D7
  1

  0
LINE
  5
932B
100
AcDbEntity
  8
0
  6
BYBLOCK
 62
     0
100
AcDbLine
 10
-0.080571
 20
181.480266
 30
0.0
 11
-0.080571
 21
195.515647
 31
0.0
  0
LINE
  5
932C
100
AcDbEntity
  8
0
  6
BYBLOCK
 62
     0
100
AcDbLine
 10
50.119293
 20
181.480266
 30
0.0
 11
50.119293
 21
195.515647
 31
0.0
  0
LINE
  5
932D
100
AcDbEntity
  8
0
  6
BYBLOCK
 62
     0
100
AcDbLine
 10
2.919429
 20
195.335647
 30
0.0
 11
47.119293
 21
195.335647
 31
0.0
  0
SOLID
  5
932E
100
AcDbEntity
  8
0
  6
BYBLOCK
 62
     0
100
AcDbTrace
 10
2.919429
 20
195.835647
 30
0.0
 11
2.919429
 21
194.835647
 31
0.0
 12
-0.080571
 22
195.335647
 32
0.0
 13
-0.080571
 23
195.335647
 33
0.0
  0
SOLID
  5
932F
100
AcDbEntity
  8
0
  6
BYBLOCK
 62
     0
100
AcDbTrace
 10
47.119293
 20
195.835647
 30
0.0
 11
47.119293
 21
194.835647
 31
0.0
 12
50.119293
 22
195.335647
 32
0.0
 13
50.119293
 23
195.335647
 33
0.0
  0
MTEXT
  5
9330
100
AcDbEntity
  8
0
  6
BYBLOCK
 62
     0
100
AcDbMText
 10
25.019361
 20
197.585647
 30
0.0
 40
2.5
 41
0.0
 71
     5
 72
     1
  1
\A1;50.2
  0
POINT
  5
9331
100
AcDbEntity
  8
DEFPOINTS
  6
BYBLOCK
 62
     0
100
AcDbPoint
 10
-0.080571
 20
181.417766
 30
0.0
  0
POINT
  5
9332
100
AcDbEntity
  8
DEFPOINTS
  6
BYBLOCK
 62
     0
100
AcDbPoint
 10
50.119293
 20
181.417766
 30
0.0
  0
POINT
  5
9333
100
AcDbEntity
  8
DEFPOINTS
  6
BYBLOCK
 62
     0
100
AcDbPoint
 10
50.119293
 20
195.335647
 30
0.0
  0
ENDBLK
  5
9334
100
AcDbEntity
  8
0
100
AcDbBlockEnd
  0
BLOCK
  5
9337
100
AcDbEntity
  8
0
100
AcDbBlockBegin
  2
*D8
 70
     1
 10
0.0
 20
0.0
 30
0.0
  3
*D8
  1

  0
LINE
  5
9338
100
AcDbEntity
  8
0
  6
BYBLOCK
 62
     0
100
AcDbLine
 10
25.081861
 20
145.933799
 30
0.0
 11
60.019461
 21
145.933799
 31
0.0
  0
LINE
  5
9339
100
AcDbEntity
  8
0
  6
BYBLOCK
 62
     0
100
AcDbLine
 10
25.081861
 20
111.933807
 30
0.0
 11
60.019461
 21
111.933807
 31
0.0
  0
LINE
  5
933A
100
AcDbEntity
  8
0
  6
BYBLOCK
 62
     0
100
AcDbLine
 10
59.839461
 20
142.933799
 30
0.0
 11
59.839461
 21
114.933807
 31
0.0
  0
SOLID
  5
933B
100
AcDbEntity
  8
0
  6
BYBLOCK
 62
     0
100
AcDbTrace
 10
59.339461
 20
142.933799
 30
0.0
 11
60.339461
 21
142.933799
 31
0.0
 12
59.839461
 22
145.933799
 32
0.0
 13
59.839461
 23
145.933799
 33
0.0
  0
SOLID
  5
933C
100
AcDbEntity
  8
0
  6
BYBLOCK
 62
     0
100
AcDbTrace
 10
59.339461
 20
114.933807
 30
0.0
 11
60.339461
 21
114.933807
 31
0.0
 12
59.839461
 22
111.933807
 32
0.0
 13
59.839461
 23
111.933807
 33
0.0
  0
MTEXT
  5
933D
100
AcDbEntity
  8
0
  6
BYBLOCK
 62
     0
100
AcDbMText
 10
57.589461
 20
128.933803
 30
0.0
 40
2.5
 41
0.0
 71
     5
 72
     1
  1
\A1;34
 11
0.0
 21
1.0
 31
0.0
  0
POINT
  5
933E
100
AcDbEntity
  8
DEFPOINTS
  6
BYBLOCK
 62
     0
100
AcDbPoint
 10
25.019361
 20
145.933799
 30
0.0
  0
POINT
  5
933F
100
AcDbEntity
  8
DEFPOINTS
  6
BYBLOCK
 62
     0
100
AcDbPoint
 10
25.019361
 20
111.933807
 30
0.0
  0
POINT
  5
9340
100
AcDbEntity
  8
DEFPOINTS
  6
BYBLOCK
 62
     0
100
AcDbPoint
 10
59.839461
 20
111.933807
 30
0.0
  0
ENDBLK
  5
9341
100
AcDbEntity
  8
0
100
AcDbBlockEnd
  0
BLOCK
  5
9350
100
AcDbEntity
  8
0
100
AcDbBlockBegin
  2
*D9
 70
     1
 10
0.0
 20
0.0
 30
0.0
  3
*D9
  1

  0
LINE
  5
9351
100
AcDbEntity
  8
0
  6
BYBLOCK
 62
     0
100
AcDbLine
 10
39.33181
 20
38.933784
 30
0.0
 11
60.199461
 21
38.933784
 31
0.0
  0
LINE
  5
9352
100
AcDbEntity
  8
0
  6
BYBLOCK
 62
     0
100
AcDbLine
 10
53.903022
 20
111.933807
 30
0.0
 11
60.199461
 21
111.933807
 31
0.0
  0
LINE
  5
9353
100
AcDbEntity
  8
0
  6
BYBLOCK
 62
     0
100
AcDbLine
 10
60.019461
 20
41.933784
 30
0.0
 11
60.019461
 21
108.933807
 31
0.0
  0
SOLID
  5
9354
100
AcDbEntity
  8
0
  6
BYBLOCK
 62
     0
100
AcDbTrace
 10
59.519461
 20
41.933784
 30
0.0
 11
60.519461
 21
41.933784
 31
0.0
 12
60.019461
 22
38.933784
 32
0.0
 13
60.019461
 23
38.933784
 33
0.0
  0
SOLID
  5
9355
100
AcDbEntity
  8
0
  6
BYBLOCK
 62
     0
100
AcDbTrace
 10
59.519461
 20
108.933807
 30
0.0
 11
60.519461
 21
108.933807
 31
0.0
 12
60.019461
 22
111.933807
 32
0.0
 13
60.019461
 23
111.933807
 33
0.0
  0
MTEXT
  5
9356
100
AcDbEntity
  8
0
  6
BYBLOCK
 62
     0
100
AcDbMText
 10
57.769461
 20
75.433795
 30
0.0
 40
2.5
 41
0.0
 71
     5
 72
     1
  1
\A1;73
 11
0.0
 21
1.0
 31
0.0
  0
POINT
  5
9357
100
AcDbEntity
  8
DEFPOINTS
  6
BYBLOCK
 62
     0
100
AcDbPoint
 10
39.26931
 20
38.933784
 30
0.0
  0
POINT
  5
9358
100
AcDbEntity
  8
DEFPOINTS
  6
BYBLOCK
 62
     0
100
AcDbPoint
 10
53.840522
 20
111.933807
 30
0.0
  0
POINT
  5
9359
100
AcDbEntity
  8
DEFPOINTS
  6
BYBLOCK
 62
     0
100
AcDbPoint
 10
60.019461
 20
111.933807
 30
0.0
  0
ENDBLK
  5
935A
100
AcDbEntity
  8
0
100
AcDbBlockEnd
  0
BLOCK
  5
9373
100
AcDbEntity
  8
0
100
AcDbBlockBegin
  2
*D10
 70
     1
 10
0.0
 20
0.0
 30
0.0
  3
*D10
  1

  0
LINE
  5
9374
100
AcDbEntity
  8
0
  6
BYBLOCK
 62
     0
100
AcDbLine
 10
8.519076
 20
36.621637
 30
0.0
 11
8.519076
 21
-7.838277
 31
0.0
  0
LINE
  5
9375
100
AcDbEntity
  8
0
  6
BYBLOCK
 62
     0
100
AcDbLine
 10
41.519302
 20
36.621637
 30
0.0
 11
41.519302
 21
-7.838277
 31
0.0
  0
LINE
  5
9376
100
AcDbEntity
  8
0
  6
BYBLOCK
 62
     0
100
AcDbLine
 10
11.519076
 20
-7.658277
 30
0.0
 11
38.519302
 21
-7.658277
 31
0.0
  0
SOLID
  5
9377
100
AcDbEntity
  8
0
  6
BYBLOCK
 62
     0
100
AcDbTrace
 10
11.519076
 20
-7.158277
 30
0.0
 11
11.519076
 21
-8.158277
 31
0.0
 12
8.519076
 22
-7.658277
 32
0.0
 13
8.519076
 23
-7.658277
 33
0.0
  0
SOLID
  5
9378
100
AcDbEntity
  8
0
  6
BYBLOCK
 62
     0
100
AcDbTrace
 10
38.519302
 20
-7.158277
 30
0.0
 11
38.519302
 21
-8.158277
 31
0.0
 12
41.519302
 22
-7.658277
 32
0.0
 13
41.519302
 23
-7.658277
 33
0.0
  0
MTEXT
  5
9379
100
AcDbEntity
  8
0
  6
BYBLOCK
 62
     0
100
AcDbMText
 10
25.019189
 20
-5.408277
 30
0.0
 40
2.5
 41
0.0
 71
     5
 72
     1
  1
\A1;33
  0
POINT
  5
937A
100
AcDbEntity
  8
DEFPOINTS
  6
BYBLOCK
 62
     0
100
AcDbPoint
 10
8.519076
 20
36.684137
 30
0.0
  0
POINT
  5
937B
100
AcDbEntity
  8
DEFPOINTS
  6
BYBLOCK
 62
     0
100
AcDbPoint
 10
41.519302
 20
36.684137
 30
0.0
  0
POINT
  5
937C
100
AcDbEntity
  8
DEFPOINTS
  6
BYBLOCK
 62
     0
100
AcDbPoint
 10
41.519302
 20
-7.658277
 30
0.0
  0
ENDBLK
  5
937D
100
AcDbEntity
  8
0
100
AcDbBlockEnd
  0
BLOCK
  5
9396
100
AcDbEntity
  8
0
100
AcDbBlockBegin
  2
*D11
 70
     1
 10
0.0
 20
0.0
 30
0.0
  3
*D11
  1

  0
LINE
  5
9397
100
AcDbEntity
  8
0
  6
BYBLOCK
 62
     0
100
AcDbLine
 10
5.519087
 20
36.621637
 30
0.0
 11
5.519087
 21
-15.043295
 31
0.0
  0
LINE
  5
9398
100
AcDbEntity
  8
0
  6
BYBLOCK
 62
     0
100
AcDbLine
 10
44.519291
 20
36.621637
 30
0.0
 11
44.519291
 21
-15.043295
 31
0.0
  0
LINE
  5
9399
100
AcDbEntity
  8
0
  6
BYBLOCK
 62
     0
100
AcDbLine
 10
8.519087
 20
-14.863295
 30
0.0
 11
41.519291
 21
-14.863295
 31
0.0
  0
SOLID
  5
939A
100
AcDbEntity
  8
0
  6
BYBLOCK
 62
     0
100
AcDbTrace
 10
8.519087
 20
-14.363295
 30
0.0
 11
8.519087
 21
-15.363295
 31
0.0
 12
5.519087
 22
-14.863295
 32
0.0
 13
5.519087
 23
-14.863295
 33
0.0
  0
SOLID
  5
939B
100
AcDbEntity
  8
0
  6
BYBLOCK
 62
     0
100
AcDbTrace
 10
41.519291
 20
-14.363295
 30
0.0
 11
41.519291
 21
-15.363295
 31
0.0
 12
44.519291
 22
-14.863295
 32
0.0
 13
44.519291
 23
-14.863295
 33
0.0
  0
MTEXT
  5
939C
100
AcDbEntity
  8
0
  6
BYBLOCK
 62
     0
100
AcDbMText
 10
25.019189
 20
-12.613295
 30
0.0
 40
2.5
 41
0.0
 71
     5
 72
     1
  1
\A1;39
  0
POINT
  5
939D
100
AcDbEntity
  8
DEFPOINTS
  6
BYBLOCK
 62
     0
100
AcDbPoint
 10
5.519087
 20
36.684137
 30
0.0
  0
POINT
  5
939E
100
AcDbEntity
  8
DEFPOINTS
  6
BYBLOCK
 62
     0
100
AcDbPoint
 10
44.519291
 20
36.684137
 30
0.0
  0
POINT
  5
939F
100
AcDbEntity
  8
DEFPOINTS
  6
BYBLOCK
 62
     0
100
AcDbPoint
 10
44.519291
 20
-14.863295
 30
0.0
  0
ENDBLK
  5
93A0
100
AcDbEntity
  8
0
100
AcDbBlockEnd
  0
BLOCK
  5
93B1
100
AcDbEntity
  8
0
100
AcDbBlockBegin
  2
*D12
 70
     1
 10
0.0
 20
0.0
 30
0.0
  3
*D12
  1

  0
LINE
  5
93B2
100
AcDbEntity
  8
0
  6
BYBLOCK
 62
     0
100
AcDbLine
 10
47.825693
 20
34.433628
 30
0.0
 11
60.199461
 21
34.433628
 31
0.0
  0
LINE
  5
93B3
100
AcDbEntity
  8
0
  6
BYBLOCK
 62
     0
100
AcDbLine
 10
54.818389
 20
38.933784
 30
0.0
 11
60.199461
 21
38.933784
 31
0.0
  0
LINE
  5
93B4
100
AcDbEntity
  8
0
  6
BYBLOCK
 62
     0
100
AcDbLine
 10
60.019461
 20
31.433628
 30
0.0
 11
60.019461
 21
28.433628
 31
0.0
  0
LINE
  5
93B5
100
AcDbEntity
  8
0
  6
BYBLOCK
 62
     0
100
AcDbLine
 10
60.019461
 20
41.933784
 30
0.0
 11
60.019461
 21
44.933784
 31
0.0
  0
MTEXT
  5
93B6
100
AcDbEntity
  8
0
  6
BYBLOCK
 62
     0
100
AcDbMText
 10
63.519461
 20
36.683706
 30
0.0
 40
2.5
 41
0.0
 71
     5
 72
     1
  1
\A1;4.5
 11
0.0
 21
1.0
 31
0.0
  0
LINE
  5
93B7
100
AcDbEntity
  8
0
  6
BYBLOCK
 62
     0
100
AcDbLine
 10
60.019461
 20
34.433628
 30
0.0
 11
60.019461
 21
38.933784
 31
0.0
  0
LINE
  5
93B8
100
AcDbEntity
  8
0
  6
BYBLOCK
 62
     0
100
AcDbLine
 10
60.019461
 20
34.433628
 30
0.0
 11
60.019461
 21
38.933784
 31
0.0
  0
SOLID
  5
93B9
100
AcDbEntity
  8
0
  6
BYBLOCK
 62
     0
100
AcDbTrace
 10
59.519461
 20
31.433628
 30
0.0
 11
60.519461
 21
31.433628
 31
0.0
 12
60.019461
 22
34.433628
 32
0.0
 13
60.019461
 23
34.433628
 33
0.0
  0
SOLID
  5
93BA
100
AcDbEntity
  8
0
  6
BYBLOCK
 62
     0
100
AcDbTrace
 10
59.519461
 20
41.933784
 30
0.0
 11
60.519461
 21
41.933784
 31
0.0
 12
60.019461
 22
38.933784
 32
0.0
 13
60.019461
 23
38.933784
 33
0.0
  0
POINT
  5
93BB
100
AcDbEntity
  8
DEFPOINTS
  6
BYBLOCK
 62
     0
100
AcDbPoint
 10
47.763193
 20
34.433628
 30
0.0
  0
POINT
  5
93BC
100
AcDbEntity
  8
DEFPOINTS
  6
BYBLOCK
 62
     0
100
AcDbPoint
 10
54.755889
 20
38.933784
 30
0.0
  0
POINT
  5
93BD
100
AcDbEntity
  8
DEFPOINTS
  6
BYBLOCK
 62
     0
100
AcDbPoint
 10
60.019461
 20
38.933784
 30
0.0
  0
ENDBLK
  5
93BE
100
AcDbEntity
  8
0
100
AcDbBlockEnd
  0
BLOCK
  5
93DD
100
AcDbEntity
  8
0
100
AcDbBlockBegin
  2
*D13
 70
     1
 10
0.0
 20
0.0
 30
0.0
  3
*D13
  1

  0
LINE
  5
93DE
100
AcDbEntity
  8
0
  6
BYBLOCK
 62
     0
100
AcDbLine
 10
5.456587
 20
41.18412
 30
0.0
 11
-6.38973
 21
41.18412
 31
0.0
  0
LINE
  5
93DF
100
AcDbEntity
  8
0
  6
BYBLOCK
 62
     0
100
AcDbLine
 10
5.456587
 20
36.684137
 30
0.0
 11
-6.38973
 21
36.684137
 31
0.0
  0
LINE
  5
93E0
100
AcDbEntity
  8
0
  6
BYBLOCK
 62
     0
100
AcDbLine
 10
-6.20973
 20
44.18412
 30
0.0
 11
-6.20973
 21
47.18412
 31
0.0
  0
LINE
  5
93E1
100
AcDbEntity
  8
0
  6
BYBLOCK
 62
     0
100
AcDbLine
 10
-6.20973
 20
33.684137
 30
0.0
 11
-6.20973
 21
30.684137
 31
0.0
  0
MTEXT
  5
93E2
100
AcDbEntity
  8
0
  6
BYBLOCK
 62
     0
100
AcDbMText
 10
-9.70973
 20
38.934128
 30
0.0
 40
2.5
 41
0.0
 71
     5
 72
     1
  1
\A1;4.5
 11
0.0
 21
1.0
 31
0.0
  0
LINE
  5
93E3
100
AcDbEntity
  8
0
  6
BYBLOCK
 62
     0
100
AcDbLine
 10
-6.20973
 20
41.18412
 30
0.0
 11
-6.20973
 21
36.684137
 31
0.0
  0
LINE
  5
93E4
100
AcDbEntity
  8
0
  6
BYBLOCK
 62
     0
100
AcDbLine
 10
-6.20973
 20
41.18412
 30
0.0
 11
-6.20973
 21
36.684137
 31
0.0
  0
SOLID
  5
93E5
100
AcDbEntity
  8
0
  6
BYBLOCK
 62
     0
100
AcDbTrace
 10
-6.70973
 20
44.18412
 30
0.0
 11
-5.70973
 21
44.18412
 31
0.0
 12
-6.20973
 22
41.18412
 32
0.0
 13
-6.20973
 23
41.18412
 33
0.0
  0
SOLID
  5
93E6
100
AcDbEntity
  8
0
  6
BYBLOCK
 62
     0
100
AcDbTrace
 10
-6.70973
 20
33.684137
 30
0.0
 11
-5.70973
 21
33.684137
 31
0.0
 12
-6.20973
 22
36.684137
 32
0.0
 13
-6.20973
 23
36.684137
 33
0.0
  0
POINT
  5
93E7
100
AcDbEntity
  8
DEFPOINTS
  6
BYBLOCK
 62
     0
100
AcDbPoint
 10
5.519087
 20
41.18412
 30
0.0
  0
POINT
  5
93E8
100
AcDbEntity
  8
DEFPOINTS
  6
BYBLOCK
 62
     0
100
AcDbPoint
 10
5.519087
 20
36.684137
 30
0.0
  0
POINT
  5
93E9
100
AcDbEntity
  8
DEFPOINTS
  6
BYBLOCK
 62
     0
100
AcDbPoint
 10
-6.20973
 20
36.684137
 30
0.0
  0
ENDBLK
  5
93EA
100
AcDbEntity
  8
0
100
AcDbBlockEnd
  0
ENDSEC
  0
SECTION
  2
ENTITIES
  0
INSERT
  5
CC
100
AcDbEntity
  8
0
100
AcDbBlockReference
  2
SCH_IS
 10
-68.718396
 20
-140.042541
 30
0.0
  0
INSERT
  5
EC
100
AcDbEntity
  8
COTATION1
100
AcDbBlockReference
  2
SCH_IS
 10
0.0
 20
0.0
 30
0.0
  0
POLYLINE
  5
8E0D
100
AcDbEntity
  8
ALPHA
100
AcDb2dPolyline
 66
     1
 10
0.0
 20
0.0
 30
0.0
  0
VERTEX
  5
8E0E
100
AcDbEntity
  8
ALPHA
100
AcDbVertex
100
AcDb2dVertex
 10
18.07603
 20
171.267567
 30
0.0
 42
1.0
  0
VERTEX
  5
8E0F
100
AcDbEntity
  8
ALPHA
100
AcDbVertex
100
AcDb2dVertex
 10
3.465552
 20
171.267567
 30
0.0
 42
1.0
  0
VERTEX
  5
8E10
100
AcDbEntity
  8
ALPHA
100
AcDbVertex
100
AcDb2dVertex
 10
18.07603
 20
171.267567
 30
0.0
  0
SEQEND
  5
8E11
100
AcDbEntity
  8
ALPHA
  0
POLYLINE
  5
8E12
100
AcDbEntity
  8
ALPHA
100
AcDb2dPolyline
 66
     1
 10
0.0
 20
0.0
 30
0.0
  0
VERTEX
  5
8E13
100
AcDbEntity
  8
ALPHA
100
AcDbVertex
100
AcDb2dVertex
 10
17.061966
 20
171.267567
 30
0.0
 42
1.0
  0
VERTEX
  5
8E14
100
AcDbEntity
  8
ALPHA
100
AcDbVertex
100
AcDb2dVertex
 10
4.479616
 20
171.267567
 30
0.0
 42
1.0
  0
VERTEX
  5
8E15
100
AcDbEntity
  8
ALPHA
100
AcDbVertex
100
AcDb2dVertex
 10
17.061966
 20
171.267567
 30
0.0
  0
SEQEND
  5
8E16
100
AcDbEntity
  8
ALPHA
  0
POLYLINE
  5
8E17
100
AcDbEntity
  8
ALPHA
100
AcDb2dPolyline
 66
     1
 10
0.0
 20
0.0
 30
0.0
  0
VERTEX
  5
8E18
100
AcDbEntity
  8
ALPHA
100
AcDbVertex
100
AcDb2dVertex
 10
16.452701
 20
171.267739
 30
0.0
 42
1.0
  0
VERTEX
  5
8E19
100
AcDbEntity
  8
ALPHA
100
AcDbVertex
100
AcDb2dVertex
 10
5.088881
 20
171.267739
 30
0.0
 42
1.0
  0
VERTEX
  5
8E1A
100
AcDbEntity
  8
ALPHA
100
AcDbVertex
100
AcDb2dVertex
 10
16.452701
 20
171.267739
 30
0.0
  0
SEQEND
  5
8E1B
100
AcDbEntity
  8
ALPHA
  0
POLYLINE
  5
8E1C
100
AcDbEntity
  8
ALPHA
100
AcDb2dPolyline
 66
     1
 10
0.0
 20
0.0
 30
0.0
  0
VERTEX
  5
8E1D
100
AcDbEntity
  8
ALPHA
100
AcDbVertex
100
AcDb2dVertex
 10
15.032029
 20
171.267998
 30
0.0
 42
1.0
  0
VERTEX
  5
8E1E
100
AcDbEntity
  8
ALPHA
100
AcDbVertex
100
AcDb2dVertex
 10
6.509552
 20
171.267998
 30
0.0
 42
1.0
  0
VERTEX
  5
8E1F
100
AcDbEntity
  8
ALPHA
100
AcDbVertex
100
AcDb2dVertex
 10
15.032029
 20
171.267998
 30
0.0
  0
SEQEND
  5
8E20
100
AcDbEntity
  8
ALPHA
  0
POLYLINE
  5
8E21
100
AcDbEntity
  8
ALPHA
100
AcDb2dPolyline
 66
     1
 10
0.0
 20
0.0
 30
0.0
  0
VERTEX
  5
8E22
100
AcDbEntity
  8
ALPHA
100
AcDbVertex
100
AcDb2dVertex
 10
9.933719
 20
172.98977
 30
0.0
 42
1.0
  0
VERTEX
  5
8E23
100
AcDbEntity
  8
ALPHA
100
AcDbVertex
100
AcDb2dVertex
 10
8.310218
 20
172.98977
 30
0.0
 42
1.0
  0
VERTEX
  5
8E24
100
AcDbEntity
  8
ALPHA
100
AcDbVertex
100
AcDb2dVertex
 10
9.933719
 20
172.98977
 30
0.0
  0
SEQEND
  5
8E25
100
AcDbEntity
  8
ALPHA
  0
POLYLINE
  5
8E26
100
AcDbEntity
  8
ALPHA
100
AcDb2dPolyline
 66
     1
 10
0.0
 20
0.0
 30
0.0
  0
VERTEX
  5
8E27
100
AcDbEntity
  8
ALPHA
100
AcDbVertex
100
AcDb2dVertex
 10
13.3044
 20
172.98977
 30
0.0
 42
1.0
  0
VERTEX
  5
8E28
100
AcDbEntity
  8
ALPHA
100
AcDbVertex
100
AcDb2dVertex
 10
11.680899
 20
172.98977
 30
0.0
 42
1.0
  0
VERTEX
  5
8E29
100
AcDbEntity
  8
ALPHA
100
AcDbVertex
100
AcDb2dVertex
 10
13.3044
 20
172.98977
 30
0.0
  0
SEQEND
  5
8E2A
100
AcDbEntity
  8
ALPHA
  0
POLYLINE
  5
8E2B
100
AcDbEntity
  8
ALPHA
100
AcDb2dPolyline
 66
     1
 10
0.0
 20
0.0
 30
0.0
  0
VERTEX
  5
8E2C
100
AcDbEntity
  8
ALPHA
100
AcDbVertex
100
AcDb2dVertex
 10
9.933805
 20
169.545278
 30
0.0
 42
1.0
  0
VERTEX
  5
8E2D
100
AcDbEntity
  8
ALPHA
100
AcDbVertex
100
AcDb2dVertex
 10
8.310131
 20
169.545278
 30
0.0
 42
1.0
  0
VERTEX
  5
8E2E
100
AcDbEntity
  8
ALPHA
100
AcDbVertex
100
AcDb2dVertex
 10
9.933805
 20
169.545278
 30
0.0
  0
SEQEND
  5
8E2F
100
AcDbEntity
  8
ALPHA
  0
POLYLINE
  5
8E30
100
AcDbEntity
  8
ALPHA
100
AcDb2dPolyline
 66
     1
 10
0.0
 20
0.0
 30
0.0
  0
VERTEX
  5
8E31
100
AcDbEntity
  8
ALPHA
100
AcDbVertex
100
AcDb2dVertex
 10
11.581939
 20
171.267481
 30
0.0
 42
1.0
  0
VERTEX
  5
8E32
100
AcDbEntity
  8
ALPHA
100
AcDbVertex
100
AcDb2dVertex
 10
9.959643
 20
171.267481
 30
0.0
 42
1.0
  0
VERTEX
  5
8E33
100
AcDbEntity
  8
ALPHA
100
AcDbVertex
100
AcDb2dVertex
 10
11.581939
 20
171.267481
 30
0.0
  0
SEQEND
  5
8E34
100
AcDbEntity
  8
ALPHA
  0
POLYLINE
  5
8E35
100
AcDbEntity
  8
ALPHA
100
AcDb2dPolyline
 66
     1
 10
0.0
 20
0.0
 30
0.0
  0
VERTEX
  5
8E36
100
AcDbEntity
  8
ALPHA
100
AcDbVertex
100
AcDb2dVertex
 10
13.304486
 20
169.545278
 30
0.0
 42
1.0
  0
VERTEX
  5
8E37
100
AcDbEntity
  8
ALPHA
100
AcDbVertex
100
AcDb2dVertex
 10
11.680813
 20
169.545278
 30
0.0
 42
1.0
  0
VERTEX
  5
8E38
100
AcDbEntity
  8
ALPHA
100
AcDbVertex
100
AcDb2dVertex
 10
13.304486
 20
169.545278
 30
0.0
  0
SEQEND
  5
8E39
100
AcDbEntity
  8
ALPHA
  0
POLYLINE
  5
8E3A
100
AcDbEntity
  8
ALPHA
100
AcDb2dPolyline
 66
     1
 10
0.0
 20
0.0
 30
0.0
  0
VERTEX
  5
8E3B
100
AcDbEntity
  8
ALPHA
100
AcDbVertex
100
AcDb2dVertex
 10
21.36644
 20
175.716046
 30
0.0
 42
1.0
  0
VERTEX
  5
8E3C
100
AcDbEntity
  8
ALPHA
100
AcDbVertex
100
AcDb2dVertex
 10
17.612148
 20
175.716046
 30
0.0
 42
1.0
  0
VERTEX
  5
8E3D
100
AcDbEntity
  8
ALPHA
100
AcDbVertex
100
AcDb2dVertex
 10
21.36644
 20
175.716046
 30
0.0
  0
SEQEND
  5
8E3E
100
AcDbEntity
  8
ALPHA
  0
POLYLINE
  5
8E3F
100
AcDbEntity
  8
ALPHA
100
AcDb2dPolyline
 66
     1
 10
0.0
 20
0.0
 30
0.0
  0
VERTEX
  5
8E40
100
AcDbEntity
  8
ALPHA
100
AcDbVertex
100
AcDb2dVertex
 10
21.366354
 20
166.783344
 30
0.0
 42
1.0
  0
VERTEX
  5
8E41
100
AcDbEntity
  8
ALPHA
100
AcDbVertex
100
AcDb2dVertex
 10
17.612234
 20
166.783344
 30
0.0
 42
1.0
  0
VERTEX
  5
8E42
100
AcDbEntity
  8
ALPHA
100
AcDbVertex
100
AcDb2dVertex
 10
21.366354
 20
166.783344
 30
0.0
  0
SEQEND
  5
8E43
100
AcDbEntity
  8
ALPHA
  0
POLYLINE
  5
8E44
100
AcDbEntity
  8
ALPHA
100
AcDb2dPolyline
 66
     1
 10
0.0
 20
0.0
 30
0.0
  0
VERTEX
  5
8E45
100
AcDbEntity
  8
ALPHA
100
AcDbVertex
100
AcDb2dVertex
 10
46.632082
 20
171.267567
 30
0.0
 42
1.0
  0
VERTEX
  5
8E46
100
AcDbEntity
  8
ALPHA
100
AcDbVertex
100
AcDb2dVertex
 10
32.021604
 20
171.267567
 30
0.0
 42
1.0
  0
VERTEX
  5
8E47
100
AcDbEntity
  8
ALPHA
100
AcDbVertex
100
AcDb2dVertex
 10
46.632082
 20
171.267567
 30
0.0
  0
SEQEND
  5
8E48
100
AcDbEntity
  8
ALPHA
  0
POLYLINE
  5
8E49
100
AcDbEntity
  8
ALPHA
100
AcDb2dPolyline
 66
     1
 10
0.0
 20
0.0
 30
0.0
  0
VERTEX
  5
8E4A
100
AcDbEntity
  8
ALPHA
100
AcDbVertex
100
AcDb2dVertex
 10
45.618018
 20
171.267567
 30
0.0
 42
1.0
  0
VERTEX
  5
8E4B
100
AcDbEntity
  8
ALPHA
100
AcDbVertex
100
AcDb2dVertex
 10
33.035668
 20
171.267567
 30
0.0
 42
1.0
  0
VERTEX
  5
8E4C
100
AcDbEntity
  8
ALPHA
100
AcDbVertex
100
AcDb2dVertex
 10
45.618018
 20
171.267567
 30
0.0
  0
SEQEND
  5
8E4D
100
AcDbEntity
  8
ALPHA
  0
POLYLINE
  5
8E4E
100
AcDbEntity
  8
ALPHA
100
AcDb2dPolyline
 66
     1
 10
0.0
 20
0.0
 30
0.0
  0
VERTEX
  5
8E4F
100
AcDbEntity
  8
ALPHA
100
AcDbVertex
100
AcDb2dVertex
 10
45.008753
 20
171.267739
 30
0.0
 42
1.0
  0
VERTEX
  5
8E50
100
AcDbEntity
  8
ALPHA
100
AcDbVertex
100
AcDb2dVertex
 10
33.644933
 20
171.267739
 30
0.0
 42
1.0
  0
VERTEX
  5
8E51
100
AcDbEntity
  8
ALPHA
100
AcDbVertex
100
AcDb2dVertex
 10
45.008753
 20
171.267739
 30
0.0
  0
SEQEND
  5
8E52
100
AcDbEntity
  8
ALPHA
  0
POLYLINE
  5
8E53
100
AcDbEntity
  8
ALPHA
100
AcDb2dPolyline
 66
     1
 10
0.0
 20
0.0
 30
0.0
  0
VERTEX
  5
8E54
100
AcDbEntity
  8
ALPHA
100
AcDbVertex
100
AcDb2dVertex
 10
43.588081
 20
171.267998
 30
0.0
 42
1.0
  0
VERTEX
  5
8E55
100
AcDbEntity
  8
ALPHA
100
AcDbVertex
100
AcDb2dVertex
 10
35.065604
 20
171.267998
 30
0.0
 42
1.0
  0
VERTEX
  5
8E56
100
AcDbEntity
  8
ALPHA
100
AcDbVertex
100
AcDb2dVertex
 10
43.588081
 20
171.267998
 30
0.0
  0
SEQEND
  5
8E57
100
AcDbEntity
  8
ALPHA
  0
POLYLINE
  5
8E58
100
AcDbEntity
  8
ALPHA
100
AcDb2dPolyline
 66
     1
 10
0.0
 20
0.0
 30
0.0
  0
VERTEX
  5
8E59
100
AcDbEntity
  8
ALPHA
100
AcDbVertex
100
AcDb2dVertex
 10
41.788794
 20
172.98977
 30
0.0
 42
1.0
  0
VERTEX
  5
8E5A
100
AcDbEntity
  8
ALPHA
100
AcDbVertex
100
AcDb2dVertex
 10
40.165293
 20
172.98977
 30
0.0
 42
1.0
  0
VERTEX
  5
8E5B
100
AcDbEntity
  8
ALPHA
100
AcDbVertex
100
AcDb2dVertex
 10
41.788794
 20
172.98977
 30
0.0
  0
SEQEND
  5
8E5C
100
AcDbEntity
  8
ALPHA
  0
POLYLINE
  5
8E5D
100
AcDbEntity
  8
ALPHA
100
AcDb2dPolyline
 66
     1
 10
0.0
 20
0.0
 30
0.0
  0
VERTEX
  5
8E5E
100
AcDbEntity
  8
ALPHA
100
AcDbVertex
100
AcDb2dVertex
 10
38.416046
 20
172.98977
 30
0.0
 42
1.0
  0
VERTEX
  5
8E5F
100
AcDbEntity
  8
ALPHA
100
AcDbVertex
100
AcDb2dVertex
 10
36.792544
 20
172.98977
 30
0.0
 42
1.0
  0
VERTEX
  5
8E60
100
AcDbEntity
  8
ALPHA
100
AcDbVertex
100
AcDb2dVertex
 10
38.416046
 20
172.98977
 30
0.0
  0
SEQEND
  5
8E61
100
AcDbEntity
  8
ALPHA
  0
POLYLINE
  5
8E62
100
AcDbEntity
  8
ALPHA
100
AcDb2dPolyline
 66
     1
 10
0.0
 20
0.0
 30
0.0
  0
VERTEX
  5
8E63
100
AcDbEntity
  8
ALPHA
100
AcDbVertex
100
AcDb2dVertex
 10
41.78888
 20
169.545278
 30
0.0
 42
1.0
  0
VERTEX
  5
8E64
100
AcDbEntity
  8
ALPHA
100
AcDbVertex
100
AcDb2dVertex
 10
40.165207
 20
169.545278
 30
0.0
 42
1.0
  0
VERTEX
  5
8E65
100
AcDbEntity
  8
ALPHA
100
AcDbVertex
100
AcDb2dVertex
 10
41.78888
 20
169.545278
 30
0.0
  0
SEQEND
  5
8E66
100
AcDbEntity
  8
ALPHA
  0
POLYLINE
  5
8E67
100
AcDbEntity
  8
ALPHA
100
AcDb2dPolyline
 66
     1
 10
0.0
 20
0.0
 30
0.0
  0
VERTEX
  5
8E68
100
AcDbEntity
  8
ALPHA
100
AcDbVertex
100
AcDb2dVertex
 10
40.137991
 20
171.267481
 30
0.0
 42
1.0
  0
VERTEX
  5
8E69
100
AcDbEntity
  8
ALPHA
100
AcDbVertex
100
AcDb2dVertex
 10
38.515695
 20
171.267481
 30
0.0
 42
1.0
  0
VERTEX
  5
8E6A
100
AcDbEntity
  8
ALPHA
100
AcDbVertex
100
AcDb2dVertex
 10
40.137991
 20
171.267481
 30
0.0
  0
SEQEND
  5
8E6B
100
AcDbEntity
  8
ALPHA
  0
POLYLINE
  5
8E6C
100
AcDbEntity
  8
ALPHA
100
AcDb2dPolyline
 66
     1
 10
0.0
 20
0.0
 30
0.0
  0
VERTEX
  5
8E6D
100
AcDbEntity
  8
ALPHA
100
AcDbVertex
100
AcDb2dVertex
 10
38.416132
 20
169.545278
 30
0.0
 42
1.0
  0
VERTEX
  5
8E6E
100
AcDbEntity
  8
ALPHA
100
AcDbVertex
100
AcDb2dVertex
 10
36.792458
 20
169.545278
 30
0.0
 42
1.0
  0
VERTEX
  5
8E6F
100
AcDbEntity
  8
ALPHA
100
AcDbVertex
100
AcDb2dVertex
 10
38.416132
 20
169.545278
 30
0.0
  0
SEQEND
  5
8E70
100
AcDbEntity
  8
ALPHA
  0
POLYLINE
  5
8E71
100
AcDbEntity
  8
ALPHA
100
AcDb2dPolyline
 66
     1
 10
0.0
 20
0.0
 30
0.0
  0
VERTEX
  5
8E72
100
AcDbEntity
  8
ALPHA
100
AcDbVertex
100
AcDb2dVertex
 10
32.486175
 20
175.716046
 30
0.0
 42
1.0
  0
VERTEX
  5
8E73
100
AcDbEntity
  8
ALPHA
100
AcDbVertex
100
AcDb2dVertex
 10
28.731882
 20
175.716046
 30
0.0
 42
1.0
  0
VERTEX
  5
8E74
100
AcDbEntity
  8
ALPHA
100
AcDbVertex
100
AcDb2dVertex
 10
32.486175
 20
175.716046
 30
0.0
  0
SEQEND
  5
8E75
100
AcDbEntity
  8
ALPHA
  0
POLYLINE
  5
8E76
100
AcDbEntity
  8
ALPHA
100
AcDb2dPolyline
 66
     1
 10
0.0
 20
0.0
 30
0.0
  0
VERTEX
  5
8E77
100
AcDbEntity
  8
ALPHA
100
AcDbVertex
100
AcDb2dVertex
 10
32.486089
 20
166.783344
 30
0.0
 42
1.0
  0
VERTEX
  5
8E78
100
AcDbEntity
  8
ALPHA
100
AcDbVertex
100
AcDb2dVertex
 10
28.731968
 20
166.783344
 30
0.0
 42
1.0
  0
VERTEX
  5
8E79
100
AcDbEntity
  8
ALPHA
100
AcDbVertex
100
AcDb2dVertex
 10
32.486089
 20
166.783344
 30
0.0
  0
SEQEND
  5
8E7A
100
AcDbEntity
  8
ALPHA
  0
POLYLINE
  5
8E7B
100
AcDbEntity
  8
ALPHA
100
AcDb2dPolyline
 66
     1
 10
0.0
 20
0.0
 30
0.0
  0
VERTEX
  5
8E7C
100
AcDbEntity
  8
ALPHA
100
AcDbVertex
100
AcDb2dVertex
 10
18.076374
 20
147.089198
 30
0.0
 42
1.0
  0
VERTEX
  5
8E7D
100
AcDbEntity
  8
ALPHA
100
AcDbVertex
100
AcDb2dVertex
 10
3.465207
 20
147.089198
 30
0.0
 42
1.0
  0
VERTEX
  5
8E7E
100
AcDbEntity
  8
ALPHA
100
AcDbVertex
100
AcDb2dVertex
 10
18.076374
 20
147.089198
 30
0.0
  0
SEQEND
  5
8E7F
100
AcDbEntity
  8
ALPHA
  0
POLYLINE
  5
8E80
100
AcDbEntity
  8
ALPHA
100
AcDb2dPolyline
 66
     1
 10
0.0
 20
0.0
 30
0.0
  0
VERTEX
  5
8E81
100
AcDbEntity
  8
ALPHA
100
AcDbVertex
100
AcDb2dVertex
 10
17.061621
 20
147.089715
 30
0.0
 42
1.0
  0
VERTEX
  5
8E82
100
AcDbEntity
  8
ALPHA
100
AcDbVertex
100
AcDb2dVertex
 10
4.47996
 20
147.089715
 30
0.0
 42
1.0
  0
VERTEX
  5
8E83
100
AcDbEntity
  8
ALPHA
100
AcDbVertex
100
AcDb2dVertex
 10
17.061621
 20
147.089715
 30
0.0
  0
SEQEND
  5
8E84
100
AcDbEntity
  8
ALPHA
  0
POLYLINE
  5
8E85
100
AcDbEntity
  8
ALPHA
100
AcDb2dPolyline
 66
     1
 10
0.0
 20
0.0
 30
0.0
  0
VERTEX
  5
8E86
100
AcDbEntity
  8
ALPHA
100
AcDbVertex
100
AcDb2dVertex
 10
16.452873
 20
147.089198
 30
0.0
 42
1.0
  0
VERTEX
  5
8E87
100
AcDbEntity
  8
ALPHA
100
AcDbVertex
100
AcDb2dVertex
 10
5.088709
 20
147.089198
 30
0.0
 42
1.0
  0
VERTEX
  5
8E88
100
AcDbEntity
  8
ALPHA
100
AcDbVertex
100
AcDb2dVertex
 10
16.452873
 20
147.089198
 30
0.0
  0
SEQEND
  5
8E89
100
AcDbEntity
  8
ALPHA
  0
POLYLINE
  5
8E8A
100
AcDbEntity
  8
ALPHA
100
AcDb2dPolyline
 66
     1
 10
0.0
 20
0.0
 30
0.0
  0
VERTEX
  5
8E8B
100
AcDbEntity
  8
ALPHA
100
AcDbVertex
100
AcDb2dVertex
 10
15.032718
 20
147.089284
 30
0.0
 42
1.0
  0
VERTEX
  5
8E8C
100
AcDbEntity
  8
ALPHA
100
AcDbVertex
100
AcDb2dVertex
 10
6.508863
 20
147.089284
 30
0.0
 42
1.0
  0
VERTEX
  5
8E8D
100
AcDbEntity
  8
ALPHA
100
AcDbVertex
100
AcDb2dVertex
 10
15.032718
 20
147.089284
 30
0.0
  0
SEQEND
  5
8E8E
100
AcDbEntity
  8
ALPHA
  0
POLYLINE
  5
8E8F
100
AcDbEntity
  8
ALPHA
100
AcDb2dPolyline
 66
     1
 10
0.0
 20
0.0
 30
0.0
  0
VERTEX
  5
8E90
100
AcDbEntity
  8
ALPHA
100
AcDbVertex
100
AcDb2dVertex
 10
9.933805
 20
148.811659
 30
0.0
 42
1.0
  0
VERTEX
  5
8E91
100
AcDbEntity
  8
ALPHA
100
AcDbVertex
100
AcDb2dVertex
 10
8.310131
 20
148.811659
 30
0.0
 42
1.0
  0
VERTEX
  5
8E92
100
AcDbEntity
  8
ALPHA
100
AcDbVertex
100
AcDb2dVertex
 10
9.933805
 20
148.811659
 30
0.0
  0
SEQEND
  5
8E93
100
AcDbEntity
  8
ALPHA
  0
POLYLINE
  5
8E94
100
AcDbEntity
  8
ALPHA
100
AcDb2dPolyline
 66
     1
 10
0.0
 20
0.0
 30
0.0
  0
VERTEX
  5
8E95
100
AcDbEntity
  8
ALPHA
100
AcDbVertex
100
AcDb2dVertex
 10
13.304486
 20
148.811659
 30
0.0
 42
1.0
  0
VERTEX
  5
8E96
100
AcDbEntity
  8
ALPHA
100
AcDbVertex
100
AcDb2dVertex
 10
11.680813
 20
148.811659
 30
0.0
 42
1.0
  0
VERTEX
  5
8E97
100
AcDbEntity
  8
ALPHA
100
AcDbVertex
100
AcDb2dVertex
 10
13.304486
 20
148.811659
 30
0.0
  0
SEQEND
  5
8E98
100
AcDbEntity
  8
ALPHA
  0
POLYLINE
  5
8E99
100
AcDbEntity
  8
ALPHA
100
AcDb2dPolyline
 66
     1
 10
0.0
 20
0.0
 30
0.0
  0
VERTEX
  5
8E9A
100
AcDbEntity
  8
ALPHA
100
AcDbVertex
100
AcDb2dVertex
 10
9.933719
 20
145.366822
 30
0.0
 42
1.0
  0
VERTEX
  5
8E9B
100
AcDbEntity
  8
ALPHA
100
AcDbVertex
100
AcDb2dVertex
 10
8.310218
 20
145.366822
 30
0.0
 42
1.0
  0
VERTEX
  5
8E9C
100
AcDbEntity
  8
ALPHA
100
AcDbVertex
100
AcDb2dVertex
 10
9.933719
 20
145.366822
 30
0.0
  0
SEQEND
  5
8E9D
100
AcDbEntity
  8
ALPHA
  0
POLYLINE
  5
8E9E
100
AcDbEntity
  8
ALPHA
100
AcDb2dPolyline
 66
     1
 10
0.0
 20
0.0
 30
0.0
  0
VERTEX
  5
8E9F
100
AcDbEntity
  8
ALPHA
100
AcDbVertex
100
AcDb2dVertex
 10
11.582025
 20
147.089198
 30
0.0
 42
1.0
  0
VERTEX
  5
8EA0
100
AcDbEntity
  8
ALPHA
100
AcDbVertex
100
AcDb2dVertex
 10
9.959557
 20
147.089198
 30
0.0
 42
1.0
  0
VERTEX
  5
8EA1
100
AcDbEntity
  8
ALPHA
100
AcDbVertex
100
AcDb2dVertex
 10
11.582025
 20
147.089198
 30
0.0
  0
SEQEND
  5
8EA2
100
AcDbEntity
  8
ALPHA
  0
POLYLINE
  5
8EA3
100
AcDbEntity
  8
ALPHA
100
AcDb2dPolyline
 66
     1
 10
0.0
 20
0.0
 30
0.0
  0
VERTEX
  5
8EA4
100
AcDbEntity
  8
ALPHA
100
AcDbVertex
100
AcDb2dVertex
 10
13.3044
 20
145.366822
 30
0.0
 42
1.0
  0
VERTEX
  5
8EA5
100
AcDbEntity
  8
ALPHA
100
AcDbVertex
100
AcDb2dVertex
 10
11.680899
 20
145.366822
 30
0.0
 42
1.0
  0
VERTEX
  5
8EA6
100
AcDbEntity
  8
ALPHA
100
AcDbVertex
100
AcDb2dVertex
 10
13.3044
 20
145.366822
 30
0.0
  0
SEQEND
  5
8EA7
100
AcDbEntity
  8
ALPHA
  0
POLYLINE
  5
8EA8
100
AcDbEntity
  8
ALPHA
100
AcDb2dPolyline
 66
     1
 10
0.0
 20
0.0
 30
0.0
  0
VERTEX
  5
8EA9
100
AcDbEntity
  8
ALPHA
100
AcDbVertex
100
AcDb2dVertex
 10
21.36644
 20
151.537677
 30
0.0
 42
1.0
  0
VERTEX
  5
8EAA
100
AcDbEntity
  8
ALPHA
100
AcDbVertex
100
AcDb2dVertex
 10
17.612148
 20
151.537677
 30
0.0
 42
1.0
  0
VERTEX
  5
8EAB
100
AcDbEntity
  8
ALPHA
100
AcDbVertex
100
AcDb2dVertex
 10
21.36644
 20
151.537677
 30
0.0
  0
SEQEND
  5
8EAC
100
AcDbEntity
  8
ALPHA
  0
POLYLINE
  5
8EAD
100
AcDbEntity
  8
ALPHA
100
AcDb2dPolyline
 66
     1
 10
0.0
 20
0.0
 30
0.0
  0
VERTEX
  5
8EAE
100
AcDbEntity
  8
ALPHA
100
AcDbVertex
100
AcDb2dVertex
 10
21.36644
 20
142.605234
 30
0.0
 42
1.0
  0
VERTEX
  5
8EAF
100
AcDbEntity
  8
ALPHA
100
AcDbVertex
100
AcDb2dVertex
 10
17.612148
 20
142.605234
 30
0.0
 42
1.0
  0
VERTEX
  5
8EB0
100
AcDbEntity
  8
ALPHA
100
AcDbVertex
100
AcDb2dVertex
 10
21.36644
 20
142.605234
 30
0.0
  0
SEQEND
  5
8EB1
100
AcDbEntity
  8
ALPHA
  0
POLYLINE
  5
8EB2
100
AcDbEntity
  8
ALPHA
100
AcDb2dPolyline
 66
     1
 10
0.0
 20
0.0
 30
0.0
  0
VERTEX
  5
8EB3
100
AcDbEntity
  8
ALPHA
100
AcDbVertex
100
AcDb2dVertex
 10
46.632426
 20
147.089198
 30
0.0
 42
1.0
  0
VERTEX
  5
8EB4
100
AcDbEntity
  8
ALPHA
100
AcDbVertex
100
AcDb2dVertex
 10
32.021259
 20
147.089198
 30
0.0
 42
1.0
  0
VERTEX
  5
8EB5
100
AcDbEntity
  8
ALPHA
100
AcDbVertex
100
AcDb2dVertex
 10
46.632426
 20
147.089198
 30
0.0
  0
SEQEND
  5
8EB6
100
AcDbEntity
  8
ALPHA
  0
POLYLINE
  5
8EB7
100
AcDbEntity
  8
ALPHA
100
AcDb2dPolyline
 66
     1
 10
0.0
 20
0.0
 30
0.0
  0
VERTEX
  5
8EB8
100
AcDbEntity
  8
ALPHA
100
AcDbVertex
100
AcDb2dVertex
 10
45.617673
 20
147.089715
 30
0.0
 42
1.0
  0
VERTEX
  5
8EB9
100
AcDbEntity
  8
ALPHA
100
AcDbVertex
100
AcDb2dVertex
 10
33.036012
 20
147.089715
 30
0.0
 42
1.0
  0
VERTEX
  5
8EBA
100
AcDbEntity
  8
ALPHA
100
AcDbVertex
100
AcDb2dVertex
 10
45.617673
 20
147.089715
 30
0.0
  0
SEQEND
  5
8EBB
100
AcDbEntity
  8
ALPHA
  0
POLYLINE
  5
8EBC
100
AcDbEntity
  8
ALPHA
100
AcDb2dPolyline
 66
     1
 10
0.0
 20
0.0
 30
0.0
  0
VERTEX
  5
8EBD
100
AcDbEntity
  8
ALPHA
100
AcDbVertex
100
AcDb2dVertex
 10
45.008925
 20
147.089198
 30
0.0
 42
1.0
  0
VERTEX
  5
8EBE
100
AcDbEntity
  8
ALPHA
100
AcDbVertex
100
AcDb2dVertex
 10
33.644761
 20
147.089198
 30
0.0
 42
1.0
  0
VERTEX
  5
8EBF
100
AcDbEntity
  8
ALPHA
100
AcDbVertex
100
AcDb2dVertex
 10
45.008925
 20
147.089198
 30
0.0
  0
SEQEND
  5
8EC0
100
AcDbEntity
  8
ALPHA
  0
POLYLINE
  5
8EC1
100
AcDbEntity
  8
ALPHA
100
AcDb2dPolyline
 66
     1
 10
0.0
 20
0.0
 30
0.0
  0
VERTEX
  5
8EC2
100
AcDbEntity
  8
ALPHA
100
AcDbVertex
100
AcDb2dVertex
 10
43.58877
 20
147.089284
 30
0.0
 42
1.0
  0
VERTEX
  5
8EC3
100
AcDbEntity
  8
ALPHA
100
AcDbVertex
100
AcDb2dVertex
 10
35.064915
 20
147.089284
 30
0.0
 42
1.0
  0
VERTEX
  5
8EC4
100
AcDbEntity
  8
ALPHA
100
AcDbVertex
100
AcDb2dVertex
 10
43.58877
 20
147.089284
 30
0.0
  0
SEQEND
  5
8EC5
100
AcDbEntity
  8
ALPHA
  0
POLYLINE
  5
8EC6
100
AcDbEntity
  8
ALPHA
100
AcDb2dPolyline
 66
     1
 10
0.0
 20
0.0
 30
0.0
  0
VERTEX
  5
8EC7
100
AcDbEntity
  8
ALPHA
100
AcDbVertex
100
AcDb2dVertex
 10
41.78888
 20
148.811659
 30
0.0
 42
1.0
  0
VERTEX
  5
8EC8
100
AcDbEntity
  8
ALPHA
100
AcDbVertex
100
AcDb2dVertex
 10
40.165207
 20
148.811659
 30
0.0
 42
1.0
  0
VERTEX
  5
8EC9
100
AcDbEntity
  8
ALPHA
100
AcDbVertex
100
AcDb2dVertex
 10
41.78888
 20
148.811659
 30
0.0
  0
SEQEND
  5
8ECA
100
AcDbEntity
  8
ALPHA
  0
POLYLINE
  5
8ECB
100
AcDbEntity
  8
ALPHA
100
AcDb2dPolyline
 66
     1
 10
0.0
 20
0.0
 30
0.0
  0
VERTEX
  5
8ECC
100
AcDbEntity
  8
ALPHA
100
AcDbVertex
100
AcDb2dVertex
 10
38.416132
 20
148.811659
 30
0.0
 42
1.0
  0
VERTEX
  5
8ECD
100
AcDbEntity
  8
ALPHA
100
AcDbVertex
100
AcDb2dVertex
 10
36.792458
 20
148.811659
 30
0.0
 42
1.0
  0
VERTEX
  5
8ECE
100
AcDbEntity
  8
ALPHA
100
AcDbVertex
100
AcDb2dVertex
 10
38.416132
 20
148.811659
 30
0.0
  0
SEQEND
  5
8ECF
100
AcDbEntity
  8
ALPHA
  0
POLYLINE
  5
8ED0
100
AcDbEntity
  8
ALPHA
100
AcDb2dPolyline
 66
     1
 10
0.0
 20
0.0
 30
0.0
  0
VERTEX
  5
8ED1
100
AcDbEntity
  8
ALPHA
100
AcDbVertex
100
AcDb2dVertex
 10
41.788794
 20
145.366822
 30
0.0
 42
1.0
  0
VERTEX
  5
8ED2
100
AcDbEntity
  8
ALPHA
100
AcDbVertex
100
AcDb2dVertex
 10
40.165293
 20
145.366822
 30
0.0
 42
1.0
  0
VERTEX
  5
8ED3
100
AcDbEntity
  8
ALPHA
100
AcDbVertex
100
AcDb2dVertex
 10
41.788794
 20
145.366822
 30
0.0
  0
SEQEND
  5
8ED4
100
AcDbEntity
  8
ALPHA
  0
POLYLINE
  5
8ED5
100
AcDbEntity
  8
ALPHA
100
AcDb2dPolyline
 66
     1
 10
0.0
 20
0.0
 30
0.0
  0
VERTEX
  5
8ED6
100
AcDbEntity
  8
ALPHA
100
AcDbVertex
100
AcDb2dVertex
 10
40.138077
 20
147.089198
 30
0.0
 42
1.0
  0
VERTEX
  5
8ED7
100
AcDbEntity
  8
ALPHA
100
AcDbVertex
100
AcDb2dVertex
 10
38.515609
 20
147.089198
 30
0.0
 42
1.0
  0
VERTEX
  5
8ED8
100
AcDbEntity
  8
ALPHA
100
AcDbVertex
100
AcDb2dVertex
 10
40.138077
 20
147.089198
 30
0.0
  0
SEQEND
  5
8ED9
100
AcDbEntity
  8
ALPHA
  0
POLYLINE
  5
8EDA
100
AcDbEntity
  8
ALPHA
100
AcDb2dPolyline
 66
     1
 10
0.0
 20
0.0
 30
0.0
  0
VERTEX
  5
8EDB
100
AcDbEntity
  8
ALPHA
100
AcDbVertex
100
AcDb2dVertex
 10
38.416046
 20
145.366822
 30
0.0
 42
1.0
  0
VERTEX
  5
8EDC
100
AcDbEntity
  8
ALPHA
100
AcDbVertex
100
AcDb2dVertex
 10
36.792544
 20
145.366822
 30
0.0
 42
1.0
  0
VERTEX
  5
8EDD
100
AcDbEntity
  8
ALPHA
100
AcDbVertex
100
AcDb2dVertex
 10
38.416046
 20
145.366822
 30
0.0
  0
SEQEND
  5
8EDE
100
AcDbEntity
  8
ALPHA
  0
POLYLINE
  5
8EDF
100
AcDbEntity
  8
ALPHA
100
AcDb2dPolyline
 66
     1
 10
0.0
 20
0.0
 30
0.0
  0
VERTEX
  5
8EE0
100
AcDbEntity
  8
ALPHA
100
AcDbVertex
100
AcDb2dVertex
 10
32.486175
 20
151.537677
 30
0.0
 42
1.0
  0
VERTEX
  5
8EE1
100
AcDbEntity
  8
ALPHA
100
AcDbVertex
100
AcDb2dVertex
 10
28.731882
 20
151.537677
 30
0.0
 42
1.0
  0
VERTEX
  5
8EE2
100
AcDbEntity
  8
ALPHA
100
AcDbVertex
100
AcDb2dVertex
 10
32.486175
 20
151.537677
 30
0.0
  0
SEQEND
  5
8EE3
100
AcDbEntity
  8
ALPHA
  0
POLYLINE
  5
8EE4
100
AcDbEntity
  8
ALPHA
100
AcDb2dPolyline
 66
     1
 10
0.0
 20
0.0
 30
0.0
  0
VERTEX
  5
8EE5
100
AcDbEntity
  8
ALPHA
100
AcDbVertex
100
AcDb2dVertex
 10
32.486175
 20
142.605234
 30
0.0
 42
1.0
  0
VERTEX
  5
8EE6
100
AcDbEntity
  8
ALPHA
100
AcDbVertex
100
AcDb2dVertex
 10
28.731882
 20
142.605234
 30
0.0
 42
1.0
  0
VERTEX
  5
8EE7
100
AcDbEntity
  8
ALPHA
100
AcDbVertex
100
AcDb2dVertex
 10
32.486175
 20
142.605234
 30
0.0
  0
SEQEND
  5
8EE8
100
AcDbEntity
  8
ALPHA
  0
POLYLINE
  5
8EE9
100
AcDbEntity
  8
ALPHA
100
AcDb2dPolyline
 66
     1
 10
0.0
 20
0.0
 30
0.0
  0
VERTEX
  5
8EEA
100
AcDbEntity
  8
ALPHA
100
AcDbVertex
100
AcDb2dVertex
 10
18.076546
 20
122.911001
 30
0.0
 42
1.0
  0
VERTEX
  5
8EEB
100
AcDbEntity
  8
ALPHA
100
AcDbVertex
100
AcDb2dVertex
 10
3.465035
 20
122.911001
 30
0.0
 42
1.0
  0
VERTEX
  5
8EEC
100
AcDbEntity
  8
ALPHA
100
AcDbVertex
100
AcDb2dVertex
 10
18.076546
 20
122.911001
 30
0.0
  0
SEQEND
  5
8EED
100
AcDbEntity
  8
ALPHA
  0
POLYLINE
  5
8EEE
100
AcDbEntity
  8
ALPHA
100
AcDb2dPolyline
 66
     1
 10
0.0
 20
0.0
 30
0.0
  0
VERTEX
  5
8EEF
100
AcDbEntity
  8
ALPHA
100
AcDbVertex
100
AcDb2dVertex
 10
17.06188
 20
122.911431
 30
0.0
 42
1.0
  0
VERTEX
  5
8EF0
100
AcDbEntity
  8
ALPHA
100
AcDbVertex
100
AcDb2dVertex
 10
4.479702
 20
122.911431
 30
0.0
 42
1.0
  0
VERTEX
  5
8EF1
100
AcDbEntity
  8
ALPHA
100
AcDbVertex
100
AcDb2dVertex
 10
17.06188
 20
122.911431
 30
0.0
  0
SEQEND
  5
8EF2
100
AcDbEntity
  8
ALPHA
  0
POLYLINE
  5
8EF3
100
AcDbEntity
  8
ALPHA
100
AcDb2dPolyline
 66
     1
 10
0.0
 20
0.0
 30
0.0
  0
VERTEX
  5
8EF4
100
AcDbEntity
  8
ALPHA
100
AcDbVertex
100
AcDb2dVertex
 10
16.452528
 20
122.911001
 30
0.0
 42
1.0
  0
VERTEX
  5
8EF5
100
AcDbEntity
  8
ALPHA
100
AcDbVertex
100
AcDb2dVertex
 10
5.089053
 20
122.911001
 30
0.0
 42
1.0
  0
VERTEX
  5
8EF6
100
AcDbEntity
  8
ALPHA
100
AcDbVertex
100
AcDb2dVertex
 10
16.452528
 20
122.911001
 30
0.0
  0
SEQEND
  5
8EF7
100
AcDbEntity
  8
ALPHA
  0
POLYLINE
  5
8EF8
100
AcDbEntity
  8
ALPHA
100
AcDb2dPolyline
 66
     1
 10
0.0
 20
0.0
 30
0.0
  0
VERTEX
  5
8EF9
100
AcDbEntity
  8
ALPHA
100
AcDbVertex
100
AcDb2dVertex
 10
15.031685
 20
122.91057
 30
0.0
 42
1.0
  0
VERTEX
  5
8EFA
100
AcDbEntity
  8
ALPHA
100
AcDbVertex
100
AcDb2dVertex
 10
6.509897
 20
122.91057
 30
0.0
 42
1.0
  0
VERTEX
  5
8EFB
100
AcDbEntity
  8
ALPHA
100
AcDbVertex
100
AcDb2dVertex
 10
15.031685
 20
122.91057
 30
0.0
  0
SEQEND
  5
8EFC
100
AcDbEntity
  8
ALPHA
  0
POLYLINE
  5
8EFD
100
AcDbEntity
  8
ALPHA
100
AcDb2dPolyline
 66
     1
 10
0.0
 20
0.0
 30
0.0
  0
VERTEX
  5
8EFE
100
AcDbEntity
  8
ALPHA
100
AcDbVertex
100
AcDb2dVertex
 10
9.933977
 20
124.633462
 30
0.0
 42
1.0
  0
VERTEX
  5
8EFF
100
AcDbEntity
  8
ALPHA
100
AcDbVertex
100
AcDb2dVertex
 10
8.309959
 20
124.633462
 30
0.0
 42
1.0
  0
VERTEX
  5
8F00
100
AcDbEntity
  8
ALPHA
100
AcDbVertex
100
AcDb2dVertex
 10
9.933977
 20
124.633462
 30
0.0
  0
SEQEND
  5
8F01
100
AcDbEntity
  8
ALPHA
  0
POLYLINE
  5
8F02
100
AcDbEntity
  8
ALPHA
100
AcDb2dPolyline
 66
     1
 10
0.0
 20
0.0
 30
0.0
  0
VERTEX
  5
8F03
100
AcDbEntity
  8
ALPHA
100
AcDbVertex
100
AcDb2dVertex
 10
13.304659
 20
124.633462
 30
0.0
 42
1.0
  0
VERTEX
  5
8F04
100
AcDbEntity
  8
ALPHA
100
AcDbVertex
100
AcDb2dVertex
 10
11.680641
 20
124.633462
 30
0.0
 42
1.0
  0
VERTEX
  5
8F05
100
AcDbEntity
  8
ALPHA
100
AcDbVertex
100
AcDb2dVertex
 10
13.304659
 20
124.633462
 30
0.0
  0
SEQEND
  5
8F06
100
AcDbEntity
  8
ALPHA
  0
POLYLINE
  5
8F07
100
AcDbEntity
  8
ALPHA
100
AcDb2dPolyline
 66
     1
 10
0.0
 20
0.0
 30
0.0
  0
VERTEX
  5
8F08
100
AcDbEntity
  8
ALPHA
100
AcDbVertex
100
AcDb2dVertex
 10
9.933977
 20
121.188711
 30
0.0
 42
1.0
  0
VERTEX
  5
8F09
100
AcDbEntity
  8
ALPHA
100
AcDbVertex
100
AcDb2dVertex
 10
8.309959
 20
121.188711
 30
0.0
 42
1.0
  0
VERTEX
  5
8F0A
100
AcDbEntity
  8
ALPHA
100
AcDbVertex
100
AcDb2dVertex
 10
9.933977
 20
121.188711
 30
0.0
  0
SEQEND
  5
8F0B
100
AcDbEntity
  8
ALPHA
  0
POLYLINE
  5
8F0C
100
AcDbEntity
  8
ALPHA
100
AcDb2dPolyline
 66
     1
 10
0.0
 20
0.0
 30
0.0
  0
VERTEX
  5
8F0D
100
AcDbEntity
  8
ALPHA
100
AcDbVertex
100
AcDb2dVertex
 10
11.58323
 20
122.911001
 30
0.0
 42
1.0
  0
VERTEX
  5
8F0E
100
AcDbEntity
  8
ALPHA
100
AcDbVertex
100
AcDb2dVertex
 10
9.958351
 20
122.911001
 30
0.0
 42
1.0
  0
VERTEX
  5
8F0F
100
AcDbEntity
  8
ALPHA
100
AcDbVertex
100
AcDb2dVertex
 10
11.58323
 20
122.911001
 30
0.0
  0
SEQEND
  5
8F10
100
AcDbEntity
  8
ALPHA
  0
POLYLINE
  5
8F11
100
AcDbEntity
  8
ALPHA
100
AcDb2dPolyline
 66
     1
 10
0.0
 20
0.0
 30
0.0
  0
VERTEX
  5
8F12
100
AcDbEntity
  8
ALPHA
100
AcDbVertex
100
AcDb2dVertex
 10
13.304659
 20
121.188711
 30
0.0
 42
1.0
  0
VERTEX
  5
8F13
100
AcDbEntity
  8
ALPHA
100
AcDbVertex
100
AcDb2dVertex
 10
11.680641
 20
121.188711
 30
0.0
 42
1.0
  0
VERTEX
  5
8F14
100
AcDbEntity
  8
ALPHA
100
AcDbVertex
100
AcDb2dVertex
 10
13.304659
 20
121.188711
 30
0.0
  0
SEQEND
  5
8F15
100
AcDbEntity
  8
ALPHA
  0
POLYLINE
  5
8F16
100
AcDbEntity
  8
ALPHA
100
AcDb2dPolyline
 66
     1
 10
0.0
 20
0.0
 30
0.0
  0
VERTEX
  5
8F17
100
AcDbEntity
  8
ALPHA
100
AcDbVertex
100
AcDb2dVertex
 10
21.366785
 20
127.358619
 30
0.0
 42
1.0
  0
VERTEX
  5
8F18
100
AcDbEntity
  8
ALPHA
100
AcDbVertex
100
AcDb2dVertex
 10
17.611803
 20
127.358619
 30
0.0
 42
1.0
  0
VERTEX
  5
8F19
100
AcDbEntity
  8
ALPHA
100
AcDbVertex
100
AcDb2dVertex
 10
21.366785
 20
127.358619
 30
0.0
  0
SEQEND
  5
8F1A
100
AcDbEntity
  8
ALPHA
  0
POLYLINE
  5
8F1B
100
AcDbEntity
  8
ALPHA
100
AcDb2dPolyline
 66
     1
 10
0.0
 20
0.0
 30
0.0
  0
VERTEX
  5
8F1C
100
AcDbEntity
  8
ALPHA
100
AcDbVertex
100
AcDb2dVertex
 10
21.36644
 20
118.427381
 30
0.0
 42
1.0
  0
VERTEX
  5
8F1D
100
AcDbEntity
  8
ALPHA
100
AcDbVertex
100
AcDb2dVertex
 10
17.612148
 20
118.427381
 30
0.0
 42
1.0
  0
VERTEX
  5
8F1E
100
AcDbEntity
  8
ALPHA
100
AcDbVertex
100
AcDb2dVertex
 10
21.36644
 20
118.427381
 30
0.0
  0
SEQEND
  5
8F1F
100
AcDbEntity
  8
ALPHA
  0
POLYLINE
  5
8F20
100
AcDbEntity
  8
ALPHA
100
AcDb2dPolyline
 66
     1
 10
0.0
 20
0.0
 30
0.0
  0
VERTEX
  5
8F21
100
AcDbEntity
  8
ALPHA
100
AcDbVertex
100
AcDb2dVertex
 10
46.632598
 20
122.911001
 30
0.0
 42
1.0
  0
VERTEX
  5
8F22
100
AcDbEntity
  8
ALPHA
100
AcDbVertex
100
AcDb2dVertex
 10
32.021087
 20
122.911001
 30
0.0
 42
1.0
  0
VERTEX
  5
8F23
100
AcDbEntity
  8
ALPHA
100
AcDbVertex
100
AcDb2dVertex
 10
46.632598
 20
122.911001
 30
0.0
  0
SEQEND
  5
8F24
100
AcDbEntity
  8
ALPHA
  0
POLYLINE
  5
8F25
100
AcDbEntity
  8
ALPHA
100
AcDb2dPolyline
 66
     1
 10
0.0
 20
0.0
 30
0.0
  0
VERTEX
  5
8F26
100
AcDbEntity
  8
ALPHA
100
AcDbVertex
100
AcDb2dVertex
 10
45.617932
 20
122.911431
 30
0.0
 42
1.0
  0
VERTEX
  5
8F27
100
AcDbEntity
  8
ALPHA
100
AcDbVertex
100
AcDb2dVertex
 10
33.035754
 20
122.911431
 30
0.0
 42
1.0
  0
VERTEX
  5
8F28
100
AcDbEntity
  8
ALPHA
100
AcDbVertex
100
AcDb2dVertex
 10
45.617932
 20
122.911431
 30
0.0
  0
SEQEND
  5
8F29
100
AcDbEntity
  8
ALPHA
  0
POLYLINE
  5
8F2A
100
AcDbEntity
  8
ALPHA
100
AcDb2dPolyline
 66
     1
 10
0.0
 20
0.0
 30
0.0
  0
VERTEX
  5
8F2B
100
AcDbEntity
  8
ALPHA
100
AcDbVertex
100
AcDb2dVertex
 10
45.00858
 20
122.911001
 30
0.0
 42
1.0
  0
VERTEX
  5
8F2C
100
AcDbEntity
  8
ALPHA
100
AcDbVertex
100
AcDb2dVertex
 10
33.645105
 20
122.911001
 30
0.0
 42
1.0
  0
VERTEX
  5
8F2D
100
AcDbEntity
  8
ALPHA
100
AcDbVertex
100
AcDb2dVertex
 10
45.00858
 20
122.911001
 30
0.0
  0
SEQEND
  5
8F2E
100
AcDbEntity
  8
ALPHA
  0
POLYLINE
  5
8F2F
100
AcDbEntity
  8
ALPHA
100
AcDb2dPolyline
 66
     1
 10
0.0
 20
0.0
 30
0.0
  0
VERTEX
  5
8F30
100
AcDbEntity
  8
ALPHA
100
AcDbVertex
100
AcDb2dVertex
 10
43.587737
 20
122.91057
 30
0.0
 42
1.0
  0
VERTEX
  5
8F31
100
AcDbEntity
  8
ALPHA
100
AcDbVertex
100
AcDb2dVertex
 10
35.065949
 20
122.91057
 30
0.0
 42
1.0
  0
VERTEX
  5
8F32
100
AcDbEntity
  8
ALPHA
100
AcDbVertex
100
AcDb2dVertex
 10
43.587737
 20
122.91057
 30
0.0
  0
SEQEND
  5
8F33
100
AcDbEntity
  8
ALPHA
  0
POLYLINE
  5
8F34
100
AcDbEntity
  8
ALPHA
100
AcDb2dPolyline
 66
     1
 10
0.0
 20
0.0
 30
0.0
  0
VERTEX
  5
8F35
100
AcDbEntity
  8
ALPHA
100
AcDbVertex
100
AcDb2dVertex
 10
41.789053
 20
124.633462
 30
0.0
 42
1.0
  0
VERTEX
  5
8F36
100
AcDbEntity
  8
ALPHA
100
AcDbVertex
100
AcDb2dVertex
 10
40.165035
 20
124.633462
 30
0.0
 42
1.0
  0
VERTEX
  5
8F37
100
AcDbEntity
  8
ALPHA
100
AcDbVertex
100
AcDb2dVertex
 10
41.789053
 20
124.633462
 30
0.0
  0
SEQEND
  5
8F38
100
AcDbEntity
  8
ALPHA
  0
POLYLINE
  5
8F39
100
AcDbEntity
  8
ALPHA
100
AcDb2dPolyline
 66
     1
 10
0.0
 20
0.0
 30
0.0
  0
VERTEX
  5
8F3A
100
AcDbEntity
  8
ALPHA
100
AcDbVertex
100
AcDb2dVertex
 10
38.416304
 20
124.633462
 30
0.0
 42
1.0
  0
VERTEX
  5
8F3B
100
AcDbEntity
  8
ALPHA
100
AcDbVertex
100
AcDb2dVertex
 10
36.792286
 20
124.633462
 30
0.0
 42
1.0
  0
VERTEX
  5
8F3C
100
AcDbEntity
  8
ALPHA
100
AcDbVertex
100
AcDb2dVertex
 10
38.416304
 20
124.633462
 30
0.0
  0
SEQEND
  5
8F3D
100
AcDbEntity
  8
ALPHA
  0
POLYLINE
  5
8F3E
100
AcDbEntity
  8
ALPHA
100
AcDb2dPolyline
 66
     1
 10
0.0
 20
0.0
 30
0.0
  0
VERTEX
  5
8F3F
100
AcDbEntity
  8
ALPHA
100
AcDbVertex
100
AcDb2dVertex
 10
41.789053
 20
121.188711
 30
0.0
 42
1.0
  0
VERTEX
  5
8F40
100
AcDbEntity
  8
ALPHA
100
AcDbVertex
100
AcDb2dVertex
 10
40.165035
 20
121.188711
 30
0.0
 42
1.0
  0
VERTEX
  5
8F41
100
AcDbEntity
  8
ALPHA
100
AcDbVertex
100
AcDb2dVertex
 10
41.789053
 20
121.188711
 30
0.0
  0
SEQEND
  5
8F42
100
AcDbEntity
  8
ALPHA
  0
POLYLINE
  5
8F43
100
AcDbEntity
  8
ALPHA
100
AcDb2dPolyline
 66
     1
 10
0.0
 20
0.0
 30
0.0
  0
VERTEX
  5
8F44
100
AcDbEntity
  8
ALPHA
100
AcDbVertex
100
AcDb2dVertex
 10
40.139282
 20
122.911001
 30
0.0
 42
1.0
  0
VERTEX
  5
8F45
100
AcDbEntity
  8
ALPHA
100
AcDbVertex
100
AcDb2dVertex
 10
38.514403
 20
122.911001
 30
0.0
 42
1.0
  0
VERTEX
  5
8F46
100
AcDbEntity
  8
ALPHA
100
AcDbVertex
100
AcDb2dVertex
 10
40.139282
 20
122.911001
 30
0.0
  0
SEQEND
  5
8F47
100
AcDbEntity
  8
ALPHA
  0
POLYLINE
  5
8F48
100
AcDbEntity
  8
ALPHA
100
AcDb2dPolyline
 66
     1
 10
0.0
 20
0.0
 30
0.0
  0
VERTEX
  5
8F49
100
AcDbEntity
  8
ALPHA
100
AcDbVertex
100
AcDb2dVertex
 10
38.416304
 20
121.188711
 30
0.0
 42
1.0
  0
VERTEX
  5
8F4A
100
AcDbEntity
  8
ALPHA
100
AcDbVertex
100
AcDb2dVertex
 10
36.792286
 20
121.188711
 30
0.0
 42
1.0
  0
VERTEX
  5
8F4B
100
AcDbEntity
  8
ALPHA
100
AcDbVertex
100
AcDb2dVertex
 10
38.416304
 20
121.188711
 30
0.0
  0
SEQEND
  5
8F4C
100
AcDbEntity
  8
ALPHA
  0
POLYLINE
  5
8F4D
100
AcDbEntity
  8
ALPHA
100
AcDb2dPolyline
 66
     1
 10
0.0
 20
0.0
 30
0.0
  0
VERTEX
  5
8F4E
100
AcDbEntity
  8
ALPHA
100
AcDbVertex
100
AcDb2dVertex
 10
32.48652
 20
127.358619
 30
0.0
 42
1.0
  0
VERTEX
  5
8F4F
100
AcDbEntity
  8
ALPHA
100
AcDbVertex
100
AcDb2dVertex
 10
28.731538
 20
127.358619
 30
0.0
 42
1.0
  0
VERTEX
  5
8F50
100
AcDbEntity
  8
ALPHA
100
AcDbVertex
100
AcDb2dVertex
 10
32.48652
 20
127.358619
 30
0.0
  0
SEQEND
  5
8F51
100
AcDbEntity
  8
ALPHA
  0
POLYLINE
  5
8F52
100
AcDbEntity
  8
ALPHA
100
AcDb2dPolyline
 66
     1
 10
0.0
 20
0.0
 30
0.0
  0
VERTEX
  5
8F53
100
AcDbEntity
  8
ALPHA
100
AcDbVertex
100
AcDb2dVertex
 10
32.486175
 20
118.427381
 30
0.0
 42
1.0
  0
VERTEX
  5
8F54
100
AcDbEntity
  8
ALPHA
100
AcDbVertex
100
AcDb2dVertex
 10
28.731882
 20
118.427381
 30
0.0
 42
1.0
  0
VERTEX
  5
8F55
100
AcDbEntity
  8
ALPHA
100
AcDbVertex
100
AcDb2dVertex
 10
32.486175
 20
118.427381
 30
0.0
  0
SEQEND
  5
8F56
100
AcDbEntity
  8
ALPHA
  0
POLYLINE
  5
8F57
100
AcDbEntity
  8
ALPHA
100
AcDb2dPolyline
 66
     1
 10
0.0
 20
0.0
 30
0.0
  0
VERTEX
  5
8F58
100
AcDbEntity
  8
ALPHA
100
AcDbVertex
100
AcDb2dVertex
 10
18.076116
 20
98.732546
 30
0.0
 42
1.0
  0
VERTEX
  5
8F59
100
AcDbEntity
  8
ALPHA
100
AcDbVertex
100
AcDb2dVertex
 10
3.465466
 20
98.732546
 30
0.0
 42
1.0
  0
VERTEX
  5
8F5A
100
AcDbEntity
  8
ALPHA
100
AcDbVertex
100
AcDb2dVertex
 10
18.076116
 20
98.732546
 30
0.0
  0
SEQEND
  5
8F5B
100
AcDbEntity
  8
ALPHA
  0
POLYLINE
  5
8F5C
100
AcDbEntity
  8
ALPHA
100
AcDb2dPolyline
 66
     1
 10
0.0
 20
0.0
 30
0.0
  0
VERTEX
  5
8F5D
100
AcDbEntity
  8
ALPHA
100
AcDbVertex
100
AcDb2dVertex
 10
17.060932
 20
98.732459
 30
0.0
 42
1.0
  0
VERTEX
  5
8F5E
100
AcDbEntity
  8
ALPHA
100
AcDbVertex
100
AcDb2dVertex
 10
4.480649
 20
98.732459
 30
0.0
 42
1.0
  0
VERTEX
  5
8F5F
100
AcDbEntity
  8
ALPHA
100
AcDbVertex
100
AcDb2dVertex
 10
17.060932
 20
98.732459
 30
0.0
  0
SEQEND
  5
8F60
100
AcDbEntity
  8
ALPHA
  0
POLYLINE
  5
8F61
100
AcDbEntity
  8
ALPHA
100
AcDb2dPolyline
 66
     1
 10
0.0
 20
0.0
 30
0.0
  0
VERTEX
  5
8F62
100
AcDbEntity
  8
ALPHA
100
AcDbVertex
100
AcDb2dVertex
 10
16.452959
 20
98.732546
 30
0.0
 42
1.0
  0
VERTEX
  5
8F63
100
AcDbEntity
  8
ALPHA
100
AcDbVertex
100
AcDb2dVertex
 10
5.088623
 20
98.732546
 30
0.0
 42
1.0
  0
VERTEX
  5
8F64
100
AcDbEntity
  8
ALPHA
100
AcDbVertex
100
AcDb2dVertex
 10
16.452959
 20
98.732546
 30
0.0
  0
SEQEND
  5
8F65
100
AcDbEntity
  8
ALPHA
  0
POLYLINE
  5
8F66
100
AcDbEntity
  8
ALPHA
100
AcDb2dPolyline
 66
     1
 10
0.0
 20
0.0
 30
0.0
  0
VERTEX
  5
8F67
100
AcDbEntity
  8
ALPHA
100
AcDbVertex
100
AcDb2dVertex
 10
15.032116
 20
98.732976
 30
0.0
 42
1.0
  0
VERTEX
  5
8F68
100
AcDbEntity
  8
ALPHA
100
AcDbVertex
100
AcDb2dVertex
 10
6.509466
 20
98.732976
 30
0.0
 42
1.0
  0
VERTEX
  5
8F69
100
AcDbEntity
  8
ALPHA
100
AcDbVertex
100
AcDb2dVertex
 10
15.032116
 20
98.732976
 30
0.0
  0
SEQEND
  5
8F6A
100
AcDbEntity
  8
ALPHA
  0
POLYLINE
  5
8F6B
100
AcDbEntity
  8
ALPHA
100
AcDb2dPolyline
 66
     1
 10
0.0
 20
0.0
 30
0.0
  0
VERTEX
  5
8F6C
100
AcDbEntity
  8
ALPHA
100
AcDbVertex
100
AcDb2dVertex
 10
9.93346
 20
100.454921
 30
0.0
 42
1.0
  0
VERTEX
  5
8F6D
100
AcDbEntity
  8
ALPHA
100
AcDbVertex
100
AcDb2dVertex
 10
8.310476
 20
100.454921
 30
0.0
 42
1.0
  0
VERTEX
  5
8F6E
100
AcDbEntity
  8
ALPHA
100
AcDbVertex
100
AcDb2dVertex
 10
9.93346
 20
100.454921
 30
0.0
  0
SEQEND
  5
8F6F
100
AcDbEntity
  8
ALPHA
  0
POLYLINE
  5
8F70
100
AcDbEntity
  8
ALPHA
100
AcDb2dPolyline
 66
     1
 10
0.0
 20
0.0
 30
0.0
  0
VERTEX
  5
8F71
100
AcDbEntity
  8
ALPHA
100
AcDbVertex
100
AcDb2dVertex
 10
13.304142
 20
100.454921
 30
0.0
 42
1.0
  0
VERTEX
  5
8F72
100
AcDbEntity
  8
ALPHA
100
AcDbVertex
100
AcDb2dVertex
 10
11.681157
 20
100.454921
 30
0.0
 42
1.0
  0
VERTEX
  5
8F73
100
AcDbEntity
  8
ALPHA
100
AcDbVertex
100
AcDb2dVertex
 10
13.304142
 20
100.454921
 30
0.0
  0
SEQEND
  5
8F74
100
AcDbEntity
  8
ALPHA
  0
POLYLINE
  5
8F75
100
AcDbEntity
  8
ALPHA
100
AcDb2dPolyline
 66
     1
 10
0.0
 20
0.0
 30
0.0
  0
VERTEX
  5
8F76
100
AcDbEntity
  8
ALPHA
100
AcDbVertex
100
AcDb2dVertex
 10
9.933977
 20
97.010515
 30
0.0
 42
1.0
  0
VERTEX
  5
8F77
100
AcDbEntity
  8
ALPHA
100
AcDbVertex
100
AcDb2dVertex
 10
8.309959
 20
97.010515
 30
0.0
 42
1.0
  0
VERTEX
  5
8F78
100
AcDbEntity
  8
ALPHA
100
AcDbVertex
100
AcDb2dVertex
 10
9.933977
 20
97.010515
 30
0.0
  0
SEQEND
  5
8F79
100
AcDbEntity
  8
ALPHA
  0
POLYLINE
  5
8F7A
100
AcDbEntity
  8
ALPHA
100
AcDb2dPolyline
 66
     1
 10
0.0
 20
0.0
 30
0.0
  0
VERTEX
  5
8F7B
100
AcDbEntity
  8
ALPHA
100
AcDbVertex
100
AcDb2dVertex
 10
11.582886
 20
98.732459
 30
0.0
 42
1.0
  0
VERTEX
  5
8F7C
100
AcDbEntity
  8
ALPHA
100
AcDbVertex
100
AcDb2dVertex
 10
9.958696
 20
98.732459
 30
0.0
 42
1.0
  0
VERTEX
  5
8F7D
100
AcDbEntity
  8
ALPHA
100
AcDbVertex
100
AcDb2dVertex
 10
11.582886
 20
98.732459
 30
0.0
  0
SEQEND
  5
8F7E
100
AcDbEntity
  8
ALPHA
  0
POLYLINE
  5
8F7F
100
AcDbEntity
  8
ALPHA
100
AcDb2dPolyline
 66
     1
 10
0.0
 20
0.0
 30
0.0
  0
VERTEX
  5
8F80
100
AcDbEntity
  8
ALPHA
100
AcDbVertex
100
AcDb2dVertex
 10
13.304659
 20
97.010515
 30
0.0
 42
1.0
  0
VERTEX
  5
8F81
100
AcDbEntity
  8
ALPHA
100
AcDbVertex
100
AcDb2dVertex
 10
11.680641
 20
97.010515
 30
0.0
 42
1.0
  0
VERTEX
  5
8F82
100
AcDbEntity
  8
ALPHA
100
AcDbVertex
100
AcDb2dVertex
 10
13.304659
 20
97.010515
 30
0.0
  0
SEQEND
  5
8F83
100
AcDbEntity
  8
ALPHA
  0
POLYLINE
  5
8F84
100
AcDbEntity
  8
ALPHA
100
AcDb2dPolyline
 66
     1
 10
0.0
 20
0.0
 30
0.0
  0
VERTEX
  5
8F85
100
AcDbEntity
  8
ALPHA
100
AcDbVertex
100
AcDb2dVertex
 10
21.36644
 20
103.181111
 30
0.0
 42
1.0
  0
VERTEX
  5
8F86
100
AcDbEntity
  8
ALPHA
100
AcDbVertex
100
AcDb2dVertex
 10
17.612148
 20
103.181111
 30
0.0
 42
1.0
  0
VERTEX
  5
8F87
100
AcDbEntity
  8
ALPHA
100
AcDbVertex
100
AcDb2dVertex
 10
21.36644
 20
103.181111
 30
0.0
  0
SEQEND
  5
8F88
100
AcDbEntity
  8
ALPHA
  0
POLYLINE
  5
8F89
100
AcDbEntity
  8
ALPHA
100
AcDb2dPolyline
 66
     1
 10
0.0
 20
0.0
 30
0.0
  0
VERTEX
  5
8F8A
100
AcDbEntity
  8
ALPHA
100
AcDbVertex
100
AcDb2dVertex
 10
21.366354
 20
94.248237
 30
0.0
 42
1.0
  0
VERTEX
  5
8F8B
100
AcDbEntity
  8
ALPHA
100
AcDbVertex
100
AcDb2dVertex
 10
17.612234
 20
94.248237
 30
0.0
 42
1.0
  0
VERTEX
  5
8F8C
100
AcDbEntity
  8
ALPHA
100
AcDbVertex
100
AcDb2dVertex
 10
21.366354
 20
94.248237
 30
0.0
  0
SEQEND
  5
8F8D
100
AcDbEntity
  8
ALPHA
  0
POLYLINE
  5
8F8E
100
AcDbEntity
  8
ALPHA
100
AcDb2dPolyline
 66
     1
 10
0.0
 20
0.0
 30
0.0
  0
VERTEX
  5
8F8F
100
AcDbEntity
  8
ALPHA
100
AcDbVertex
100
AcDb2dVertex
 10
46.632168
 20
98.732546
 30
0.0
 42
1.0
  0
VERTEX
  5
8F90
100
AcDbEntity
  8
ALPHA
100
AcDbVertex
100
AcDb2dVertex
 10
32.021518
 20
98.732546
 30
0.0
 42
1.0
  0
VERTEX
  5
8F91
100
AcDbEntity
  8
ALPHA
100
AcDbVertex
100
AcDb2dVertex
 10
46.632168
 20
98.732546
 30
0.0
  0
SEQEND
  5
8F92
100
AcDbEntity
  8
ALPHA
  0
POLYLINE
  5
8F93
100
AcDbEntity
  8
ALPHA
100
AcDb2dPolyline
 66
     1
 10
0.0
 20
0.0
 30
0.0
  0
VERTEX
  5
8F94
100
AcDbEntity
  8
ALPHA
100
AcDbVertex
100
AcDb2dVertex
 10
45.616984
 20
98.732459
 30
0.0
 42
1.0
  0
VERTEX
  5
8F95
100
AcDbEntity
  8
ALPHA
100
AcDbVertex
100
AcDb2dVertex
 10
33.036701
 20
98.732459
 30
0.0
 42
1.0
  0
VERTEX
  5
8F96
100
AcDbEntity
  8
ALPHA
100
AcDbVertex
100
AcDb2dVertex
 10
45.616984
 20
98.732459
 30
0.0
  0
SEQEND
  5
8F97
100
AcDbEntity
  8
ALPHA
  0
POLYLINE
  5
8F98
100
AcDbEntity
  8
ALPHA
100
AcDb2dPolyline
 66
     1
 10
0.0
 20
0.0
 30
0.0
  0
VERTEX
  5
8F99
100
AcDbEntity
  8
ALPHA
100
AcDbVertex
100
AcDb2dVertex
 10
45.009011
 20
98.732546
 30
0.0
 42
1.0
  0
VERTEX
  5
8F9A
100
AcDbEntity
  8
ALPHA
100
AcDbVertex
100
AcDb2dVertex
 10
33.644675
 20
98.732546
 30
0.0
 42
1.0
  0
VERTEX
  5
8F9B
100
AcDbEntity
  8
ALPHA
100
AcDbVertex
100
AcDb2dVertex
 10
45.009011
 20
98.732546
 30
0.0
  0
SEQEND
  5
8F9C
100
AcDbEntity
  8
ALPHA
  0
POLYLINE
  5
8F9D
100
AcDbEntity
  8
ALPHA
100
AcDb2dPolyline
 66
     1
 10
0.0
 20
0.0
 30
0.0
  0
VERTEX
  5
8F9E
100
AcDbEntity
  8
ALPHA
100
AcDbVertex
100
AcDb2dVertex
 10
43.588168
 20
98.732976
 30
0.0
 42
1.0
  0
VERTEX
  5
8F9F
100
AcDbEntity
  8
ALPHA
100
AcDbVertex
100
AcDb2dVertex
 10
35.065518
 20
98.732976
 30
0.0
 42
1.0
  0
VERTEX
  5
8FA0
100
AcDbEntity
  8
ALPHA
100
AcDbVertex
100
AcDb2dVertex
 10
43.588168
 20
98.732976
 30
0.0
  0
SEQEND
  5
8FA1
100
AcDbEntity
  8
ALPHA
  0
POLYLINE
  5
8FA2
100
AcDbEntity
  8
ALPHA
100
AcDb2dPolyline
 66
     1
 10
0.0
 20
0.0
 30
0.0
  0
VERTEX
  5
8FA3
100
AcDbEntity
  8
ALPHA
100
AcDbVertex
100
AcDb2dVertex
 10
41.788536
 20
100.454921
 30
0.0
 42
1.0
  0
VERTEX
  5
8FA4
100
AcDbEntity
  8
ALPHA
100
AcDbVertex
100
AcDb2dVertex
 10
40.165551
 20
100.454921
 30
0.0
 42
1.0
  0
VERTEX
  5
8FA5
100
AcDbEntity
  8
ALPHA
100
AcDbVertex
100
AcDb2dVertex
 10
41.788536
 20
100.454921
 30
0.0
  0
SEQEND
  5
8FA6
100
AcDbEntity
  8
ALPHA
  0
POLYLINE
  5
8FA7
100
AcDbEntity
  8
ALPHA
100
AcDb2dPolyline
 66
     1
 10
0.0
 20
0.0
 30
0.0
  0
VERTEX
  5
8FA8
100
AcDbEntity
  8
ALPHA
100
AcDbVertex
100
AcDb2dVertex
 10
38.415787
 20
100.454921
 30
0.0
 42
1.0
  0
VERTEX
  5
8FA9
100
AcDbEntity
  8
ALPHA
100
AcDbVertex
100
AcDb2dVertex
 10
36.792803
 20
100.454921
 30
0.0
 42
1.0
  0
VERTEX
  5
8FAA
100
AcDbEntity
  8
ALPHA
100
AcDbVertex
100
AcDb2dVertex
 10
38.415787
 20
100.454921
 30
0.0
  0
SEQEND
  5
8FAB
100
AcDbEntity
  8
ALPHA
  0
POLYLINE
  5
8FAC
100
AcDbEntity
  8
ALPHA
100
AcDb2dPolyline
 66
     1
 10
0.0
 20
0.0
 30
0.0
  0
VERTEX
  5
8FAD
100
AcDbEntity
  8
ALPHA
100
AcDbVertex
100
AcDb2dVertex
 10
41.789053
 20
97.010515
 30
0.0
 42
1.0
  0
VERTEX
  5
8FAE
100
AcDbEntity
  8
ALPHA
100
AcDbVertex
100
AcDb2dVertex
 10
40.165035
 20
97.010515
 30
0.0
 42
1.0
  0
VERTEX
  5
8FAF
100
AcDbEntity
  8
ALPHA
100
AcDbVertex
100
AcDb2dVertex
 10
41.789053
 20
97.010515
 30
0.0
  0
SEQEND
  5
8FB0
100
AcDbEntity
  8
ALPHA
  0
POLYLINE
  5
8FB1
100
AcDbEntity
  8
ALPHA
100
AcDb2dPolyline
 66
     1
 10
0.0
 20
0.0
 30
0.0
  0
VERTEX
  5
8FB2
100
AcDbEntity
  8
ALPHA
100
AcDbVertex
100
AcDb2dVertex
 10
40.138938
 20
98.732459
 30
0.0
 42
1.0
  0
VERTEX
  5
8FB3
100
AcDbEntity
  8
ALPHA
100
AcDbVertex
100
AcDb2dVertex
 10
38.514748
 20
98.732459
 30
0.0
 42
1.0
  0
VERTEX
  5
8FB4
100
AcDbEntity
  8
ALPHA
100
AcDbVertex
100
AcDb2dVertex
 10
40.138938
 20
98.732459
 30
0.0
  0
SEQEND
  5
8FB5
100
AcDbEntity
  8
ALPHA
  0
POLYLINE
  5
8FB6
100
AcDbEntity
  8
ALPHA
100
AcDb2dPolyline
 66
     1
 10
0.0
 20
0.0
 30
0.0
  0
VERTEX
  5
8FB7
100
AcDbEntity
  8
ALPHA
100
AcDbVertex
100
AcDb2dVertex
 10
38.416304
 20
97.010515
 30
0.0
 42
1.0
  0
VERTEX
  5
8FB8
100
AcDbEntity
  8
ALPHA
100
AcDbVertex
100
AcDb2dVertex
 10
36.792286
 20
97.010515
 30
0.0
 42
1.0
  0
VERTEX
  5
8FB9
100
AcDbEntity
  8
ALPHA
100
AcDbVertex
100
AcDb2dVertex
 10
38.416304
 20
97.010515
 30
0.0
  0
SEQEND
  5
8FBA
100
AcDbEntity
  8
ALPHA
  0
POLYLINE
  5
8FBB
100
AcDbEntity
  8
ALPHA
100
AcDb2dPolyline
 66
     1
 10
0.0
 20
0.0
 30
0.0
  0
VERTEX
  5
8FBC
100
AcDbEntity
  8
ALPHA
100
AcDbVertex
100
AcDb2dVertex
 10
32.486175
 20
103.181111
 30
0.0
 42
1.0
  0
VERTEX
  5
8FBD
100
AcDbEntity
  8
ALPHA
100
AcDbVertex
100
AcDb2dVertex
 10
28.731882
 20
103.181111
 30
0.0
 42
1.0
  0
VERTEX
  5
8FBE
100
AcDbEntity
  8
ALPHA
100
AcDbVertex
100
AcDb2dVertex
 10
32.486175
 20
103.181111
 30
0.0
  0
SEQEND
  5
8FBF
100
AcDbEntity
  8
ALPHA
  0
POLYLINE
  5
8FC0
100
AcDbEntity
  8
ALPHA
100
AcDb2dPolyline
 66
     1
 10
0.0
 20
0.0
 30
0.0
  0
VERTEX
  5
8FC1
100
AcDbEntity
  8
ALPHA
100
AcDbVertex
100
AcDb2dVertex
 10
32.486089
 20
94.248237
 30
0.0
 42
1.0
  0
VERTEX
  5
8FC2
100
AcDbEntity
  8
ALPHA
100
AcDbVertex
100
AcDb2dVertex
 10
28.731968
 20
94.248237
 30
0.0
 42
1.0
  0
VERTEX
  5
8FC3
100
AcDbEntity
  8
ALPHA
100
AcDbVertex
100
AcDb2dVertex
 10
32.486089
 20
94.248237
 30
0.0
  0
SEQEND
  5
8FC4
100
AcDbEntity
  8
ALPHA
  0
POLYLINE
  5
8FC5
100
AcDbEntity
  8
ALPHA
100
AcDb2dPolyline
 66
     1
 10
0.0
 20
0.0
 30
0.0
  0
VERTEX
  5
8FC6
100
AcDbEntity
  8
ALPHA
100
AcDbVertex
100
AcDb2dVertex
 10
8.264828
 20
76.774024
 30
0.0
 42
1.0
  0
VERTEX
  5
8FC7
100
AcDbEntity
  8
ALPHA
100
AcDbVertex
100
AcDb2dVertex
 10
4.7653
 20
76.774024
 30
0.0
 42
1.0
  0
VERTEX
  5
8FC8
100
AcDbEntity
  8
ALPHA
100
AcDbVertex
100
AcDb2dVertex
 10
8.264828
 20
76.774024
 30
0.0
  0
SEQEND
  5
8FC9
100
AcDbEntity
  8
ALPHA
  0
POLYLINE
  5
8FCA
100
AcDbEntity
  8
ALPHA
100
AcDb2dPolyline
 66
     1
 10
0.0
 20
0.0
 30
0.0
  0
VERTEX
  5
8FCB
100
AcDbEntity
  8
ALPHA
100
AcDbVertex
100
AcDb2dVertex
 10
45.887683
 20
47.324658
 30
0.0
 42
1.0
  0
VERTEX
  5
8FCC
100
AcDbEntity
  8
ALPHA
100
AcDbVertex
100
AcDb2dVertex
 10
42.389188
 20
47.324658
 30
0.0
 42
1.0
  0
VERTEX
  5
8FCD
100
AcDbEntity
  8
ALPHA
100
AcDbVertex
100
AcDb2dVertex
 10
45.887683
 20
47.324658
 30
0.0
  0
SEQEND
  5
8FCE
100
AcDbEntity
  8
ALPHA
  0
POLYLINE
  5
8FCF
100
AcDbEntity
  8
ALPHA
100
AcDb2dPolyline
 66
     1
 10
0.0
 20
0.0
 30
0.0
  0
VERTEX
  5
8FD0
100
AcDbEntity
  8
ALPHA
100
AcDbVertex
100
AcDb2dVertex
 10
27.269353
 20
111.933807
 30
0.0
 42
1.0
  0
VERTEX
  5
8FD1
100
AcDbEntity
  8
ALPHA
100
AcDbVertex
100
AcDb2dVertex
 10
22.769369
 20
111.933807
 30
0.0
 42
1.0
  0
VERTEX
  5
8FD2
100
AcDbEntity
  8
ALPHA
100
AcDbVertex
100
AcDb2dVertex
 10
27.269353
 20
111.933807
 30
0.0
  0
SEQEND
  5
8FD3
100
AcDbEntity
  8
ALPHA
  0
POLYLINE
  5
8FD4
100
AcDbEntity
  8
ALPHA
100
AcDb2dPolyline
 66
     1
 10
0.0
 20
0.0
 30
0.0
  0
VERTEX
  5
8FD5
100
AcDbEntity
  8
ALPHA
100
AcDbVertex
100
AcDb2dVertex
 10
27.269353
 20
145.933799
 30
0.0
 42
1.0
  0
VERTEX
  5
8FD6
100
AcDbEntity
  8
ALPHA
100
AcDbVertex
100
AcDb2dVertex
 10
22.769369
 20
145.933799
 30
0.0
 42
1.0
  0
VERTEX
  5
8FD7
100
AcDbEntity
  8
ALPHA
100
AcDbVertex
100
AcDb2dVertex
 10
27.269353
 20
145.933799
 30
0.0
  0
SEQEND
  5
8FD8
100
AcDbEntity
  8
ALPHA
  0
POLYLINE
  5
8FD9
100
AcDbEntity
  8
ALPHA
100
AcDb2dPolyline
 66
     1
 10
0.0
 20
0.0
 30
0.0
  0
VERTEX
  5
8FDA
100
AcDbEntity
  8
ALPHA
100
AcDbVertex
100
AcDb2dVertex
 10
14.018138
 20
3.89544
 30
0.0
  0
VERTEX
  5
8FDB
100
AcDbEntity
  8
ALPHA
100
AcDbVertex
100
AcDb2dVertex
 10
36.109813
 20
0.458613
 30
0.0
  0
SEQEND
  5
8FDC
100
AcDbEntity
  8
ALPHA
  0
POLYLINE
  5
8FDD
100
AcDbEntity
  8
ALPHA
100
AcDb2dPolyline
 66
     1
 10
0.0
 20
0.0
 30
0.0
  0
VERTEX
  5
8FDE
100
AcDbEntity
  8
ALPHA
100
AcDbVertex
100
AcDb2dVertex
 10
17.582778
 20
17.778831
 30
0.0
  0
VERTEX
  5
8FDF
100
AcDbEntity
  8
ALPHA
100
AcDbVertex
100
AcDb2dVertex
 10
17.046032
 20
18.704872
 30
0.0
  0
SEQEND
  5
8FE0
100
AcDbEntity
  8
ALPHA
  0
POLYLINE
  5
8FE1
100
AcDbEntity
  8
ALPHA
100
AcDb2dPolyline
 66
     1
 10
0.0
 20
0.0
 30
0.0
  0
VERTEX
  5
8FE2
100
AcDbEntity
  8
ALPHA
100
AcDbVertex
100
AcDb2dVertex
 10
34.063426
 20
18.704872
 30
0.0
  0
VERTEX
  5
8FE3
100
AcDbEntity
  8
ALPHA
100
AcDbVertex
100
AcDb2dVertex
 10
34.719028
 20
17.723365
 30
0.0
  0
SEQEND
  5
8FE4
100
AcDbEntity
  8
ALPHA
  0
POLYLINE
  5
8FE5
100
AcDbEntity
  8
ALPHA
100
AcDb2dPolyline
 66
     1
 10
0.0
 20
0.0
 30
0.0
  0
VERTEX
  5
8FE6
100
AcDbEntity
  8
ALPHA
100
AcDbVertex
100
AcDb2dVertex
 10
14.772614
 20
35.722438
 30
0.0
  0
VERTEX
  5
8FE7
100
AcDbEntity
  8
ALPHA
100
AcDbVertex
100
AcDb2dVertex
 10
14.772614
 20
30.48641
 30
0.0
  0
SEQEND
  5
8FE8
100
AcDbEntity
  8
ALPHA
  0
POLYLINE
  5
8FE9
100
AcDbEntity
  8
ALPHA
100
AcDb2dPolyline
 66
     1
 10
0.0
 20
0.0
 30
0.0
  0
VERTEX
  5
8FEA
100
AcDbEntity
  8
ALPHA
100
AcDbVertex
100
AcDb2dVertex
 10
35.027019
 20
35.722438
 30
0.0
  0
VERTEX
  5
8FEB
100
AcDbEntity
  8
ALPHA
100
AcDbVertex
100
AcDb2dVertex
 10
35.027019
 20
30.48641
 30
0.0
  0
SEQEND
  5
8FEC
100
AcDbEntity
  8
ALPHA
  0
POLYLINE
  5
8FED
100
AcDbEntity
  8
ALPHA
100
AcDb2dPolyline
 66
     1
 10
0.0
 20
0.0
 30
0.0
  0
VERTEX
  5
8FEE
100
AcDbEntity
  8
ALPHA
100
AcDbVertex
100
AcDb2dVertex
 10
37.272188
 20
66.568962
 30
0.0
  0
VERTEX
  5
8FEF
100
AcDbEntity
  8
ALPHA
100
AcDbVertex
100
AcDb2dVertex
 10
37.208711
 20
67.751871
 30
0.0
  0
VERTEX
  5
8FF0
100
AcDbEntity
  8
ALPHA
100
AcDbVertex
100
AcDb2dVertex
 10
37.0224
 20
68.900615
 30
0.0
  0
VERTEX
  5
8FF1
100
AcDbEntity
  8
ALPHA
100
AcDbVertex
100
AcDb2dVertex
 10
36.719435
 20
70.009378
 30
0.0
  0
VERTEX
  5
8FF2
100
AcDbEntity
  8
ALPHA
100
AcDbVertex
100
AcDb2dVertex
 10
36.305995
 20
71.072342
 30
0.0
  0
VERTEX
  5
8FF3
100
AcDbEntity
  8
ALPHA
100
AcDbVertex
100
AcDb2dVertex
 10
35.788259
 20
72.083693
 30
0.0
  0
VERTEX
  5
8FF4
100
AcDbEntity
  8
ALPHA
100
AcDbVertex
100
AcDb2dVertex
 10
35.172407
 20
73.037614
 30
0.0
  0
VERTEX
  5
8FF5
100
AcDbEntity
  8
ALPHA
100
AcDbVertex
100
AcDb2dVertex
 10
34.464618
 20
73.928288
 30
0.0
  0
VERTEX
  5
8FF6
100
AcDbEntity
  8
ALPHA
100
AcDbVertex
100
AcDb2dVertex
 10
33.671073
 20
74.749901
 30
0.0
  0
VERTEX
  5
8FF7
100
AcDbEntity
  8
ALPHA
100
AcDbVertex
100
AcDb2dVertex
 10
32.797949
 20
75.496635
 30
0.0
  0
VERTEX
  5
8FF8
100
AcDbEntity
  8
ALPHA
100
AcDbVertex
100
AcDb2dVertex
 10
31.851428
 20
76.162675
 30
0.0
  0
VERTEX
  5
8FF9
100
AcDbEntity
  8
ALPHA
100
AcDbVertex
100
AcDb2dVertex
 10
30.837687
 20
76.742204
 30
0.0
  0
VERTEX
  5
8FFA
100
AcDbEntity
  8
ALPHA
100
AcDbVertex
100
AcDb2dVertex
 10
29.762908
 20
77.229406
 30
0.0
  0
VERTEX
  5
8FFB
100
AcDbEntity
  8
ALPHA
100
AcDbVertex
100
AcDb2dVertex
 10
28.633269
 20
77.618466
 30
0.0
  0
VERTEX
  5
8FFC
100
AcDbEntity
  8
ALPHA
100
AcDbVertex
100
AcDb2dVertex
 10
27.454949
 20
77.903566
 30
0.0
  0
VERTEX
  5
8FFD
100
AcDbEntity
  8
ALPHA
100
AcDbVertex
100
AcDb2dVertex
 10
26.234128
 20
78.078892
 30
0.0
  0
VERTEX
  5
8FFE
100
AcDbEntity
  8
ALPHA
100
AcDbVertex
100
AcDb2dVertex
 10
24.976987
 20
78.138626
 30
0.0
  0
VERTEX
  5
8FFF
100
AcDbEntity
  8
ALPHA
100
AcDbVertex
100
AcDb2dVertex
 10
23.71989
 20
78.078892
 30
0.0
  0
VERTEX
  5
9000
100
AcDbEntity
  8
ALPHA
100
AcDbVertex
100
AcDb2dVertex
 10
22.499079
 20
77.903566
 30
0.0
  0
VERTEX
  5
9001
100
AcDbEntity
  8
ALPHA
100
AcDbVertex
100
AcDb2dVertex
 10
21.320737
 20
77.618466
 30
0.0
  0
VERTEX
  5
9002
100
AcDbEntity
  8
ALPHA
100
AcDbVertex
100
AcDb2dVertex
 10
20.191049
 20
77.229406
 30
0.0
  0
VERTEX
  5
9003
100
AcDbEntity
  8
ALPHA
100
AcDbVertex
100
AcDb2dVertex
 10
19.116199
 20
76.742204
 30
0.0
  0
VERTEX
  5
9004
100
AcDbEntity
  8
ALPHA
100
AcDbVertex
100
AcDb2dVertex
 10
18.10237
 20
76.162675
 30
0.0
  0
VERTEX
  5
9005
100
AcDbEntity
  8
ALPHA
100
AcDbVertex
100
AcDb2dVertex
 10
17.155747
 20
75.496635
 30
0.0
  0
VERTEX
  5
9006
100
AcDbEntity
  8
ALPHA
100
AcDbVertex
100
AcDb2dVertex
 10
16.282513
 20
74.749901
 30
0.0
  0
VERTEX
  5
9007
100
AcDbEntity
  8
ALPHA
100
AcDbVertex
100
AcDb2dVertex
 10
15.488853
 20
73.928288
 30
0.0
  0
VERTEX
  5
9008
100
AcDbEntity
  8
ALPHA
100
AcDbVertex
100
AcDb2dVertex
 10
14.780951
 20
73.037614
 30
0.0
  0
VERTEX
  5
9009
100
AcDbEntity
  8
ALPHA
100
AcDbVertex
100
AcDb2dVertex
 10
14.16499
 20
72.083693
 30
0.0
  0
VERTEX
  5
900A
100
AcDbEntity
  8
ALPHA
100
AcDbVertex
100
AcDb2dVertex
 10
13.647155
 20
71.072342
 30
0.0
  0
VERTEX
  5
900B
100
AcDbEntity
  8
ALPHA
100
AcDbVertex
100
AcDb2dVertex
 10
13.23363
 20
70.009378
 30
0.0
  0
VERTEX
  5
900C
100
AcDbEntity
  8
ALPHA
100
AcDbVertex
100
AcDb2dVertex
 10
12.930598
 20
68.900615
 30
0.0
  0
VERTEX
  5
900D
100
AcDbEntity
  8
ALPHA
100
AcDbVertex
100
AcDb2dVertex
 10
12.744244
 20
67.751871
 30
0.0
  0
VERTEX
  5
900E
100
AcDbEntity
  8
ALPHA
100
AcDbVertex
100
AcDb2dVertex
 10
12.680752
 20
66.568962
 30
0.0
  0
SEQEND
  5
900F
100
AcDbEntity
  8
ALPHA
  0
POLYLINE
  5
9010
100
AcDbEntity
  8
ALPHA
100
AcDb2dPolyline
 66
     1
 10
0.0
 20
0.0
 30
0.0
  0
VERTEX
  5
9011
100
AcDbEntity
  8
ALPHA
100
AcDbVertex
100
AcDb2dVertex
 10
12.680752
 20
66.568962
 30
0.0
  0
VERTEX
  5
9012
100
AcDbEntity
  8
ALPHA
100
AcDbVertex
100
AcDb2dVertex
 10
12.842671
 20
59.598156
 30
0.0
  0
SEQEND
  5
9013
100
AcDbEntity
  8
ALPHA
  0
POLYLINE
  5
9014
100
AcDbEntity
  8
ALPHA
100
AcDb2dPolyline
 66
     1
 10
0.0
 20
0.0
 30
0.0
  0
VERTEX
  5
9015
100
AcDbEntity
  8
ALPHA
100
AcDbVertex
100
AcDb2dVertex
 10
12.842671
 20
59.598156
 30
0.0
  0
VERTEX
  5
9016
100
AcDbEntity
  8
ALPHA
100
AcDbVertex
100
AcDb2dVertex
 10
12.842671
 20
42.215237
 30
0.0
  0
SEQEND
  5
9017
100
AcDbEntity
  8
ALPHA
  0
POLYLINE
  5
9018
100
AcDbEntity
  8
ALPHA
100
AcDb2dPolyline
 66
     1
 10
0.0
 20
0.0
 30
0.0
  0
VERTEX
  5
9019
100
AcDbEntity
  8
ALPHA
100
AcDbVertex
100
AcDb2dVertex
 10
12.842671
 20
42.215237
 30
0.0
  0
VERTEX
  5
901A
100
AcDbEntity
  8
ALPHA
100
AcDbVertex
100
AcDb2dVertex
 10
37.293892
 20
42.215237
 30
0.0
  0
SEQEND
  5
901B
100
AcDbEntity
  8
ALPHA
  0
POLYLINE
  5
901C
100
AcDbEntity
  8
ALPHA
100
AcDb2dPolyline
 66
     1
 10
0.0
 20
0.0
 30
0.0
  0
VERTEX
  5
901D
100
AcDbEntity
  8
ALPHA
100
AcDbVertex
100
AcDb2dVertex
 10
37.293892
 20
42.215237
 30
0.0
  0
VERTEX
  5
901E
100
AcDbEntity
  8
ALPHA
100
AcDbVertex
100
AcDb2dVertex
 10
37.293892
 20
62.407976
 30
0.0
  0
SEQEND
  5
901F
100
AcDbEntity
  8
ALPHA
  0
POLYLINE
  5
9020
100
AcDbEntity
  8
ALPHA
100
AcDb2dPolyline
 66
     1
 10
0.0
 20
0.0
 30
0.0
  0
VERTEX
  5
9021
100
AcDbEntity
  8
ALPHA
100
AcDbVertex
100
AcDb2dVertex
 10
37.293892
 20
62.407976
 30
0.0
  0
VERTEX
  5
9022
100
AcDbEntity
  8
ALPHA
100
AcDbVertex
100
AcDb2dVertex
 10
37.272188
 20
66.568962
 30
0.0
  0
SEQEND
  5
9023
100
AcDbEntity
  8
ALPHA
  0
POLYLINE
  5
9024
100
AcDbEntity
  8
ALPHA
100
AcDb2dPolyline
 66
     1
 10
0.0
 20
0.0
 30
0.0
  0
VERTEX
  5
9025
100
AcDbEntity
  8
ALPHA
100
AcDbVertex
100
AcDb2dVertex
 10
1.266461
 20
72.87297
 30
0.0
  0
VERTEX
  5
9026
100
AcDbEntity
  8
ALPHA
100
AcDbVertex
100
AcDb2dVertex
 10
6.546759
 20
72.87297
 30
0.0
  0
SEQEND
  5
9027
100
AcDbEntity
  8
ALPHA
  0
POLYLINE
  5
9028
100
AcDbEntity
  8
ALPHA
100
AcDb2dPolyline
 66
     1
 10
0.0
 20
0.0
 30
0.0
  0
VERTEX
  5
9029
100
AcDbEntity
  8
ALPHA
100
AcDbVertex
100
AcDb2dVertex
 10
6.546759
 20
72.87297
 30
0.0
  0
VERTEX
  5
902A
100
AcDbEntity
  8
ALPHA
100
AcDbVertex
100
AcDb2dVertex
 10
7.634564
 20
72.932803
 30
0.0
  0
VERTEX
  5
902B
100
AcDbEntity
  8
ALPHA
100
AcDbVertex
100
AcDb2dVertex
 10
8.564137
 20
73.107209
 30
0.0
  0
VERTEX
  5
902C
100
AcDbEntity
  8
ALPHA
100
AcDbVertex
100
AcDb2dVertex
 10
8.970858
 20
73.234989
 30
0.0
  0
VERTEX
  5
902D
100
AcDbEntity
  8
ALPHA
100
AcDbVertex
100
AcDb2dVertex
 10
9.339545
 20
73.388545
 30
0.0
  0
VERTEX
  5
902E
100
AcDbEntity
  8
ALPHA
100
AcDbVertex
100
AcDb2dVertex
 10
9.670708
 20
73.566924
 30
0.0
  0
VERTEX
  5
902F
100
AcDbEntity
  8
ALPHA
100
AcDbVertex
100
AcDb2dVertex
 10
9.964854
 20
73.769168
 30
0.0
  0
VERTEX
  5
9030
100
AcDbEntity
  8
ALPHA
100
AcDbVertex
100
AcDb2dVertex
 10
10.222491
 20
73.994324
 30
0.0
  0
VERTEX
  5
9031
100
AcDbEntity
  8
ALPHA
100
AcDbVertex
100
AcDb2dVertex
 10
10.444128
 20
74.241436
 30
0.0
  0
VERTEX
  5
9032
100
AcDbEntity
  8
ALPHA
100
AcDbVertex
100
AcDb2dVertex
 10
10.630272
 20
74.509549
 30
0.0
  0
VERTEX
  5
9033
100
AcDbEntity
  8
ALPHA
100
AcDbVertex
100
AcDb2dVertex
 10
10.781433
 20
74.797707
 30
0.0
  0
VERTEX
  5
9034
100
AcDbEntity
  8
ALPHA
100
AcDbVertex
100
AcDb2dVertex
 10
10.898118
 20
75.104955
 30
0.0
  0
VERTEX
  5
9035
100
AcDbEntity
  8
ALPHA
100
AcDbVertex
100
AcDb2dVertex
 10
10.980835
 20
75.430338
 30
0.0
  0
VERTEX
  5
9036
100
AcDbEntity
  8
ALPHA
100
AcDbVertex
100
AcDb2dVertex
 10
11.030092
 20
75.7729
 30
0.0
  0
VERTEX
  5
9037
100
AcDbEntity
  8
ALPHA
100
AcDbVertex
100
AcDb2dVertex
 10
11.046398
 20
76.131686
 30
0.0
  0
VERTEX
  5
9038
100
AcDbEntity
  8
ALPHA
100
AcDbVertex
100
AcDb2dVertex
 10
11.046398
 20
80.691097
 30
0.0
  0
SEQEND
  5
9039
100
AcDbEntity
  8
ALPHA
  0
POLYLINE
  5
903A
100
AcDbEntity
  8
ALPHA
100
AcDb2dPolyline
 66
     1
 10
0.0
 20
0.0
 30
0.0
  0
VERTEX
  5
903B
100
AcDbEntity
  8
ALPHA
100
AcDbVertex
100
AcDb2dVertex
 10
48.524214
 20
50.940803
 30
0.0
  0
VERTEX
  5
903C
100
AcDbEntity
  8
ALPHA
100
AcDbVertex
100
AcDb2dVertex
 10
41.917899
 20
50.940803
 30
0.0
  0
SEQEND
  5
903D
100
AcDbEntity
  8
ALPHA
  0
POLYLINE
  5
903E
100
AcDbEntity
  8
ALPHA
100
AcDb2dPolyline
 66
     1
 10
0.0
 20
0.0
 30
0.0
  0
VERTEX
  5
903F
100
AcDbEntity
  8
ALPHA
100
AcDbVertex
100
AcDb2dVertex
 10
41.917899
 20
50.940803
 30
0.0
  0
VERTEX
  5
9040
100
AcDbEntity
  8
ALPHA
100
AcDbVertex
100
AcDb2dVertex
 10
40.889739
 20
50.880739
 30
0.0
  0
VERTEX
  5
9041
100
AcDbEntity
  8
ALPHA
100
AcDbVertex
100
AcDb2dVertex
 10
40.011098
 20
50.705659
 30
0.0
  0
VERTEX
  5
9042
100
AcDbEntity
  8
ALPHA
100
AcDbVertex
100
AcDb2dVertex
 10
39.626649
 20
50.577384
 30
0.0
  0
VERTEX
  5
9043
100
AcDbEntity
  8
ALPHA
100
AcDbVertex
100
AcDb2dVertex
 10
39.278144
 20
50.423229
 30
0.0
  0
VERTEX
  5
9044
100
AcDbEntity
  8
ALPHA
100
AcDbVertex
100
AcDb2dVertex
 10
38.965102
 20
50.244154
 30
0.0
  0
VERTEX
  5
9045
100
AcDbEntity
  8
ALPHA
100
AcDbVertex
100
AcDb2dVertex
 10
38.687046
 20
50.041116
 30
0.0
  0
VERTEX
  5
9046
100
AcDbEntity
  8
ALPHA
100
AcDbVertex
100
AcDb2dVertex
 10
38.443495
 20
49.815075
 30
0.0
  0
VERTEX
  5
9047
100
AcDbEntity
  8
ALPHA
100
AcDbVertex
100
AcDb2dVertex
 10
38.233972
 20
49.566987
 30
0.0
  0
VERTEX
  5
9048
100
AcDbEntity
  8
ALPHA
100
AcDbVertex
100
AcDb2dVertex
 10
38.057997
 20
49.297812
 30
0.0
  0
VERTEX
  5
9049
100
AcDbEntity
  8
ALPHA
100
AcDbVertex
100
AcDb2dVertex
 10
37.915091
 20
49.008508
 30
0.0
  0
VERTEX
  5
904A
100
AcDbEntity
  8
ALPHA
100
AcDbVertex
100
AcDb2dVertex
 10
37.804776
 20
48.700033
 30
0.0
  0
VERTEX
  5
904B
100
AcDbEntity
  8
ALPHA
100
AcDbVertex
100
AcDb2dVertex
 10
37.726572
 20
48.373346
 30
0.0
  0
VERTEX
  5
904C
100
AcDbEntity
  8
ALPHA
100
AcDbVertex
100
AcDb2dVertex
 10
37.680001
 20
48.029405
 30
0.0
  0
VERTEX
  5
904D
100
AcDbEntity
  8
ALPHA
100
AcDbVertex
100
AcDb2dVertex
 10
37.664584
 20
47.669168
 30
0.0
  0
VERTEX
  5
904E
100
AcDbEntity
  8
ALPHA
100
AcDbVertex
100
AcDb2dVertex
 10
37.664584
 20
43.086502
 30
0.0
  0
SEQEND
  5
904F
100
AcDbEntity
  8
ALPHA
  0
POLYLINE
  5
9050
100
AcDbEntity
  8
ALPHA
100
AcDb2dPolyline
 66
     1
 10
0.0
 20
0.0
 30
0.0
  0
VERTEX
  5
9051
100
AcDbEntity
  8
ALPHA
100
AcDbVertex
100
AcDb2dVertex
 10
34.063426
 20
30.48641
 30
0.0
  0
VERTEX
  5
9052
100
AcDbEntity
  8
ALPHA
100
AcDbVertex
100
AcDb2dVertex
 10
34.063426
 20
18.704872
 30
0.0
  0
SEQEND
  5
9053
100
AcDbEntity
  8
ALPHA
  0
POLYLINE
  5
9054
100
AcDbEntity
  8
ALPHA
100
AcDb2dPolyline
 66
     1
 10
0.0
 20
0.0
 30
0.0
  0
VERTEX
  5
9055
100
AcDbEntity
  8
ALPHA
100
AcDbVertex
100
AcDb2dVertex
 10
34.063426
 20
18.704872
 30
0.0
  0
VERTEX
  5
9056
100
AcDbEntity
  8
ALPHA
100
AcDbVertex
100
AcDb2dVertex
 10
33.193539
 20
17.778831
 30
0.0
  0
SEQEND
  5
9057
100
AcDbEntity
  8
ALPHA
  0
POLYLINE
  5
9058
100
AcDbEntity
  8
ALPHA
100
AcDb2dPolyline
 66
     1
 10
0.0
 20
0.0
 30
0.0
  0
VERTEX
  5
9059
100
AcDbEntity
  8
ALPHA
100
AcDbVertex
100
AcDb2dVertex
 10
17.046032
 20
30.48641
 30
0.0
  0
VERTEX
  5
905A
100
AcDbEntity
  8
ALPHA
100
AcDbVertex
100
AcDb2dVertex
 10
17.046032
 20
18.704872
 30
0.0
  0
SEQEND
  5
905B
100
AcDbEntity
  8
ALPHA
  0
POLYLINE
  5
905C
100
AcDbEntity
  8
ALPHA
100
AcDb2dPolyline
 66
     1
 10
0.0
 20
0.0
 30
0.0
  0
VERTEX
  5
905D
100
AcDbEntity
  8
ALPHA
100
AcDbVertex
100
AcDb2dVertex
 10
17.046032
 20
18.704872
 30
0.0
  0
VERTEX
  5
905E
100
AcDbEntity
  8
ALPHA
100
AcDbVertex
100
AcDb2dVertex
 10
17.00228
 20
18.647684
 30
0.0
  0
SEQEND
  5
905F
100
AcDbEntity
  8
ALPHA
  0
POLYLINE
  5
9060
100
AcDbEntity
  8
ALPHA
100
AcDb2dPolyline
 66
     1
 10
0.0
 20
0.0
 30
0.0
  0
VERTEX
  5
9061
100
AcDbEntity
  8
ALPHA
100
AcDbVertex
100
AcDb2dVertex
 10
17.00228
 20
18.647684
 30
0.0
  0
VERTEX
  5
9062
100
AcDbEntity
  8
ALPHA
100
AcDbVertex
100
AcDb2dVertex
 10
16.35908
 20
17.778831
 30
0.0
  0
SEQEND
  5
9063
100
AcDbEntity
  8
ALPHA
  0
POLYLINE
  5
9064
100
AcDbEntity
  8
ALPHA
100
AcDb2dPolyline
 66
     1
 10
0.0
 20
0.0
 30
0.0
  0
VERTEX
  5
9065
100
AcDbEntity
  8
ALPHA
100
AcDbVertex
100
AcDb2dVertex
 10
15.244936
 20
36.20079
 30
0.0
  0
VERTEX
  5
9066
100
AcDbEntity
  8
ALPHA
100
AcDbVertex
100
AcDb2dVertex
 10
15.244936
 20
42.215237
 30
0.0
  0
SEQEND
  5
9067
100
AcDbEntity
  8
ALPHA
  0
POLYLINE
  5
9068
100
AcDbEntity
  8
ALPHA
100
AcDb2dPolyline
 66
     1
 10
0.0
 20
0.0
 30
0.0
  0
VERTEX
  5
9069
100
AcDbEntity
  8
ALPHA
100
AcDbVertex
100
AcDb2dVertex
 10
15.244936
 20
42.215237
 30
0.0
  0
VERTEX
  5
906A
100
AcDbEntity
  8
ALPHA
100
AcDbVertex
100
AcDb2dVertex
 10
35.045278
 20
42.215237
 30
0.0
  0
SEQEND
  5
906B
100
AcDbEntity
  8
ALPHA
  0
POLYLINE
  5
906C
100
AcDbEntity
  8
ALPHA
100
AcDb2dPolyline
 66
     1
 10
0.0
 20
0.0
 30
0.0
  0
VERTEX
  5
906D
100
AcDbEntity
  8
ALPHA
100
AcDbVertex
100
AcDb2dVertex
 10
35.045278
 20
42.215237
 30
0.0
  0
VERTEX
  5
906E
100
AcDbEntity
  8
ALPHA
100
AcDbVertex
100
AcDb2dVertex
 10
35.045278
 20
36.20079
 30
0.0
  0
SEQEND
  5
906F
100
AcDbEntity
  8
ALPHA
  0
POLYLINE
  5
9070
100
AcDbEntity
  8
ALPHA
100
AcDb2dPolyline
 66
     1
 10
0.0
 20
0.0
 30
0.0
  0
VERTEX
  5
9071
100
AcDbEntity
  8
ALPHA
100
AcDbVertex
100
AcDb2dVertex
 10
15.244936
 20
36.20079
 30
0.0
  0
VERTEX
  5
9072
100
AcDbEntity
  8
ALPHA
100
AcDbVertex
100
AcDb2dVertex
 10
15.244936
 20
35.723472
 30
0.0
  0
SEQEND
  5
9073
100
AcDbEntity
  8
ALPHA
  0
POLYLINE
  5
9074
100
AcDbEntity
  8
ALPHA
100
AcDb2dPolyline
 66
     1
 10
0.0
 20
0.0
 30
0.0
  0
VERTEX
  5
9075
100
AcDbEntity
  8
ALPHA
100
AcDbVertex
100
AcDb2dVertex
 10
15.244936
 20
35.723472
 30
0.0
  0
VERTEX
  5
9076
100
AcDbEntity
  8
ALPHA
100
AcDbVertex
100
AcDb2dVertex
 10
35.045278
 20
35.723472
 30
0.0
  0
SEQEND
  5
9077
100
AcDbEntity
  8
ALPHA
  0
POLYLINE
  5
9078
100
AcDbEntity
  8
ALPHA
100
AcDb2dPolyline
 66
     1
 10
0.0
 20
0.0
 30
0.0
  0
VERTEX
  5
9079
100
AcDbEntity
  8
ALPHA
100
AcDbVertex
100
AcDb2dVertex
 10
35.045278
 20
35.723472
 30
0.0
  0
VERTEX
  5
907A
100
AcDbEntity
  8
ALPHA
100
AcDbVertex
100
AcDb2dVertex
 10
35.045278
 20
36.20079
 30
0.0
  0
SEQEND
  5
907B
100
AcDbEntity
  8
ALPHA
  0
POLYLINE
  5
907C
100
AcDbEntity
  8
ALPHA
100
AcDb2dPolyline
 66
     1
 10
0.0
 20
0.0
 30
0.0
  0
VERTEX
  5
907D
100
AcDbEntity
  8
ALPHA
100
AcDbVertex
100
AcDb2dVertex
 10
13.772158
 20
34.433628
 30
0.0
  0
VERTEX
  5
907E
100
AcDbEntity
  8
ALPHA
100
AcDbVertex
100
AcDb2dVertex
 10
13.772158
 20
30.48641
 30
0.0
  0
SEQEND
  5
907F
100
AcDbEntity
  8
ALPHA
  0
POLYLINE
  5
9080
100
AcDbEntity
  8
ALPHA
100
AcDb2dPolyline
 66
     1
 10
0.0
 20
0.0
 30
0.0
  0
VERTEX
  5
9081
100
AcDbEntity
  8
ALPHA
100
AcDbVertex
100
AcDb2dVertex
 10
13.772158
 20
30.48641
 30
0.0
  0
VERTEX
  5
9082
100
AcDbEntity
  8
ALPHA
100
AcDbVertex
100
AcDb2dVertex
 10
36.027475
 20
30.48641
 30
0.0
  0
SEQEND
  5
9083
100
AcDbEntity
  8
ALPHA
  0
POLYLINE
  5
9084
100
AcDbEntity
  8
ALPHA
100
AcDb2dPolyline
 66
     1
 10
0.0
 20
0.0
 30
0.0
  0
VERTEX
  5
9085
100
AcDbEntity
  8
ALPHA
100
AcDbVertex
100
AcDb2dVertex
 10
36.027475
 20
30.48641
 30
0.0
  0
VERTEX
  5
9086
100
AcDbEntity
  8
ALPHA
100
AcDbVertex
100
AcDb2dVertex
 10
36.027475
 20
34.433628
 30
0.0
  0
SEQEND
  5
9087
100
AcDbEntity
  8
ALPHA
  0
POLYLINE
  5
9088
100
AcDbEntity
  8
ALPHA
100
AcDb2dPolyline
 66
     1
 10
0.0
 20
0.0
 30
0.0
  0
VERTEX
  5
9089
100
AcDbEntity
  8
ALPHA
100
AcDbVertex
100
AcDb2dVertex
 10
13.772158
 20
34.433628
 30
0.0
  0
VERTEX
  5
908A
100
AcDbEntity
  8
ALPHA
100
AcDbVertex
100
AcDb2dVertex
 10
13.772158
 20
35.722438
 30
0.0
  0
SEQEND
  5
908B
100
AcDbEntity
  8
ALPHA
  0
POLYLINE
  5
908C
100
AcDbEntity
  8
ALPHA
100
AcDb2dPolyline
 66
     1
 10
0.0
 20
0.0
 30
0.0
  0
VERTEX
  5
908D
100
AcDbEntity
  8
ALPHA
100
AcDbVertex
100
AcDb2dVertex
 10
13.772158
 20
35.722438
 30
0.0
  0
VERTEX
  5
908E
100
AcDbEntity
  8
ALPHA
100
AcDbVertex
100
AcDb2dVertex
 10
36.027475
 20
35.722438
 30
0.0
  0
SEQEND
  5
908F
100
AcDbEntity
  8
ALPHA
  0
POLYLINE
  5
9090
100
AcDbEntity
  8
ALPHA
100
AcDb2dPolyline
 66
     1
 10
0.0
 20
0.0
 30
0.0
  0
VERTEX
  5
9091
100
AcDbEntity
  8
ALPHA
100
AcDbVertex
100
AcDb2dVertex
 10
36.027475
 20
35.722438
 30
0.0
  0
VERTEX
  5
9092
100
AcDbEntity
  8
ALPHA
100
AcDbVertex
100
AcDb2dVertex
 10
36.027475
 20
34.433628
 30
0.0
  0
SEQEND
  5
9093
100
AcDbEntity
  8
ALPHA
  0
POLYLINE
  5
9094
100
AcDbEntity
  8
ALPHA
100
AcDb2dPolyline
 66
     1
 10
0.0
 20
0.0
 30
0.0
  0
VERTEX
  5
9095
100
AcDbEntity
  8
ALPHA
100
AcDbVertex
100
AcDb2dVertex
 10
38.809045
 20
30.48641
 30
0.0
  0
VERTEX
  5
9096
100
AcDbEntity
  8
ALPHA
100
AcDbVertex
100
AcDb2dVertex
 10
11.154919
 20
30.48641
 30
0.0
  0
SEQEND
  5
9097
100
AcDbEntity
  8
ALPHA
  0
POLYLINE
  5
9098
100
AcDbEntity
  8
ALPHA
100
AcDb2dPolyline
 66
     1
 10
0.0
 20
0.0
 30
0.0
  0
VERTEX
  5
9099
100
AcDbEntity
  8
ALPHA
100
AcDbVertex
100
AcDb2dVertex
 10
11.154919
 20
30.48641
 30
0.0
  0
VERTEX
  5
909A
100
AcDbEntity
  8
ALPHA
100
AcDbVertex
100
AcDb2dVertex
 10
11.154919
 20
19.359096
 30
0.0
  0
SEQEND
  5
909B
100
AcDbEntity
  8
ALPHA
  0
POLYLINE
  5
909C
100
AcDbEntity
  8
ALPHA
100
AcDb2dPolyline
 66
     1
 10
0.0
 20
0.0
 30
0.0
  0
VERTEX
  5
909D
100
AcDbEntity
  8
ALPHA
100
AcDbVertex
100
AcDb2dVertex
 10
11.154919
 20
19.359096
 30
0.0
  0
VERTEX
  5
909E
100
AcDbEntity
  8
ALPHA
100
AcDbVertex
100
AcDb2dVertex
 10
12.583945
 20
17.723365
 30
0.0
  0
SEQEND
  5
909F
100
AcDbEntity
  8
ALPHA
  0
POLYLINE
  5
90A0
100
AcDbEntity
  8
ALPHA
100
AcDb2dPolyline
 66
     1
 10
0.0
 20
0.0
 30
0.0
  0
VERTEX
  5
90A1
100
AcDbEntity
  8
ALPHA
100
AcDbVertex
100
AcDb2dVertex
 10
12.583945
 20
17.723365
 30
0.0
  0
VERTEX
  5
90A2
100
AcDbEntity
  8
ALPHA
100
AcDbVertex
100
AcDb2dVertex
 10
37.336611
 20
17.723365
 30
0.0
  0
SEQEND
  5
90A3
100
AcDbEntity
  8
ALPHA
  0
POLYLINE
  5
90A4
100
AcDbEntity
  8
ALPHA
100
AcDb2dPolyline
 66
     1
 10
0.0
 20
0.0
 30
0.0
  0
VERTEX
  5
90A5
100
AcDbEntity
  8
ALPHA
100
AcDbVertex
100
AcDb2dVertex
 10
37.336611
 20
17.723365
 30
0.0
  0
VERTEX
  5
90A6
100
AcDbEntity
  8
ALPHA
100
AcDbVertex
100
AcDb2dVertex
 10
38.809045
 20
19.359096
 30
0.0
  0
SEQEND
  5
90A7
100
AcDbEntity
  8
ALPHA
  0
POLYLINE
  5
90A8
100
AcDbEntity
  8
ALPHA
100
AcDb2dPolyline
 66
     1
 10
0.0
 20
0.0
 30
0.0
  0
VERTEX
  5
90A9
100
AcDbEntity
  8
ALPHA
100
AcDbVertex
100
AcDb2dVertex
 10
38.809045
 20
19.359096
 30
0.0
  0
VERTEX
  5
90AA
100
AcDbEntity
  8
ALPHA
100
AcDbVertex
100
AcDb2dVertex
 10
38.809045
 20
30.48641
 30
0.0
  0
SEQEND
  5
90AB
100
AcDbEntity
  8
ALPHA
  0
POLYLINE
  5
90AC
100
AcDbEntity
  8
ALPHA
100
AcDb2dPolyline
 66
     1
 10
0.0
 20
0.0
 30
0.0
  0
VERTEX
  5
90AD
100
AcDbEntity
  8
ALPHA
100
AcDbVertex
100
AcDb2dVertex
 10
12.506085
 20
17.723365
 30
0.0
  0
VERTEX
  5
90AE
100
AcDbEntity
  8
ALPHA
100
AcDbVertex
100
AcDb2dVertex
 10
12.506085
 20
16.0866
 30
0.0
  0
SEQEND
  5
90AF
100
AcDbEntity
  8
ALPHA
  0
POLYLINE
  5
90B0
100
AcDbEntity
  8
ALPHA
100
AcDb2dPolyline
 66
     1
 10
0.0
 20
0.0
 30
0.0
  0
VERTEX
  5
90B1
100
AcDbEntity
  8
ALPHA
100
AcDbVertex
100
AcDb2dVertex
 10
12.506085
 20
16.0866
 30
0.0
  0
VERTEX
  5
90B2
100
AcDbEntity
  8
ALPHA
100
AcDbVertex
100
AcDb2dVertex
 10
12.556569
 20
15.166212
 30
0.0
  0
VERTEX
  5
90B3
100
AcDbEntity
  8
ALPHA
100
AcDbVertex
100
AcDb2dVertex
 10
12.624708
 20
14.752022
 30
0.0
  0
VERTEX
  5
90B4
100
AcDbEntity
  8
ALPHA
100
AcDbVertex
100
AcDb2dVertex
 10
12.72592
 20
14.368504
 30
0.0
  0
VERTEX
  5
90B5
100
AcDbEntity
  8
ALPHA
100
AcDbVertex
100
AcDb2dVertex
 10
12.863562
 20
14.015658
 30
0.0
  0
VERTEX
  5
90B6
100
AcDbEntity
  8
ALPHA
100
AcDbVertex
100
AcDb2dVertex
 10
13.040991
 20
13.693486
 30
0.0
  0
VERTEX
  5
90B7
100
AcDbEntity
  8
ALPHA
100
AcDbVertex
100
AcDb2dVertex
 10
13.261562
 20
13.401991
 30
0.0
  0
VERTEX
  5
90B8
100
AcDbEntity
  8
ALPHA
100
AcDbVertex
100
AcDb2dVertex
 10
13.528633
 20
13.141172
 30
0.0
  0
VERTEX
  5
90B9
100
AcDbEntity
  8
ALPHA
100
AcDbVertex
100
AcDb2dVertex
 10
13.845559
 20
12.911033
 30
0.0
  0
VERTEX
  5
90BA
100
AcDbEntity
  8
ALPHA
100
AcDbVertex
100
AcDb2dVertex
 10
14.215697
 20
12.711574
 30
0.0
  0
VERTEX
  5
90BB
100
AcDbEntity
  8
ALPHA
100
AcDbVertex
100
AcDb2dVertex
 10
14.642404
 20
12.542796
 30
0.0
  0
VERTEX
  5
90BC
100
AcDbEntity
  8
ALPHA
100
AcDbVertex
100
AcDb2dVertex
 10
15.129036
 20
12.404702
 30
0.0
  0
VERTEX
  5
90BD
100
AcDbEntity
  8
ALPHA
100
AcDbVertex
100
AcDb2dVertex
 10
16.2955
 20
12.220571
 30
0.0
  0
VERTEX
  5
90BE
100
AcDbEntity
  8
ALPHA
100
AcDbVertex
100
AcDb2dVertex
 10
17.741942
 20
12.159191
 30
0.0
  0
VERTEX
  5
90BF
100
AcDbEntity
  8
ALPHA
100
AcDbVertex
100
AcDb2dVertex
 10
32.142785
 20
12.159191
 30
0.0
  0
SEQEND
  5
90C0
100
AcDbEntity
  8
ALPHA
  0
POLYLINE
  5
90C1
100
AcDbEntity
  8
ALPHA
100
AcDb2dPolyline
 66
     1
 10
0.0
 20
0.0
 30
0.0
  0
VERTEX
  5
90C2
100
AcDbEntity
  8
ALPHA
100
AcDbVertex
100
AcDb2dVertex
 10
32.142785
 20
12.159191
 30
0.0
  0
VERTEX
  5
90C3
100
AcDbEntity
  8
ALPHA
100
AcDbVertex
100
AcDb2dVertex
 10
34.065671
 20
12.256353
 30
0.0
  0
VERTEX
  5
90C4
100
AcDbEntity
  8
ALPHA
100
AcDbVertex
100
AcDb2dVertex
 10
34.950311
 20
12.418078
 30
0.0
  0
VERTEX
  5
90C5
100
AcDbEntity
  8
ALPHA
100
AcDbVertex
100
AcDb2dVertex
 10
35.360016
 20
12.538971
 30
0.0
  0
VERTEX
  5
90C6
100
AcDbEntity
  8
ALPHA
100
AcDbVertex
100
AcDb2dVertex
 10
35.742867
 20
12.691027
 30
0.0
  0
VERTEX
  5
90C7
100
AcDbEntity
  8
ALPHA
100
AcDbVertex
100
AcDb2dVertex
 10
36.095031
 20
12.877602
 30
0.0
  0
VERTEX
  5
90C8
100
AcDbEntity
  8
ALPHA
100
AcDbVertex
100
AcDb2dVertex
 10
36.412675
 20
13.10205
 30
0.0
  0
VERTEX
  5
90C9
100
AcDbEntity
  8
ALPHA
100
AcDbVertex
100
AcDb2dVertex
 10
36.691966
 20
13.367729
 30
0.0
  0
VERTEX
  5
90CA
100
AcDbEntity
  8
ALPHA
100
AcDbVertex
100
AcDb2dVertex
 10
36.929072
 20
13.677993
 30
0.0
  0
VERTEX
  5
90CB
100
AcDbEntity
  8
ALPHA
100
AcDbVertex
100
AcDb2dVertex
 10
37.12016
 20
14.0362
 30
0.0
  0
VERTEX
  5
90CC
100
AcDbEntity
  8
ALPHA
100
AcDbVertex
100
AcDb2dVertex
 10
37.261397
 20
14.445705
 30
0.0
  0
VERTEX
  5
90CD
100
AcDbEntity
  8
ALPHA
100
AcDbVertex
100
AcDb2dVertex
 10
37.34895
 20
14.909863
 30
0.0
  0
VERTEX
  5
90CE
100
AcDbEntity
  8
ALPHA
100
AcDbVertex
100
AcDb2dVertex
 10
37.378986
 20
15.432032
 30
0.0
  0
VERTEX
  5
90CF
100
AcDbEntity
  8
ALPHA
100
AcDbVertex
100
AcDb2dVertex
 10
37.378986
 20
17.710015
 30
0.0
  0
VERTEX
  5
90D0
100
AcDbEntity
  8
ALPHA
100
AcDbVertex
100
AcDb2dVertex
 10
37.378986
 20
17.812949
 30
0.0
  0
VERTEX
  5
90D1
100
AcDbEntity
  8
ALPHA
100
AcDbVertex
100
AcDb2dVertex
 10
37.378986
 20
17.827811
 30
0.0
  0
VERTEX
  5
90D2
100
AcDbEntity
  8
ALPHA
100
AcDbVertex
100
AcDb2dVertex
 10
37.378986
 20
17.826362
 30
0.0
  0
VERTEX
  5
90D3
100
AcDbEntity
  8
ALPHA
100
AcDbVertex
100
AcDb2dVertex
 10
37.378986
 20
17.798805
 30
0.0
  0
VERTEX
  5
90D4
100
AcDbEntity
  8
ALPHA
100
AcDbVertex
100
AcDb2dVertex
 10
37.378986
 20
17.784836
 30
0.0
  0
VERTEX
  5
90D5
100
AcDbEntity
  8
ALPHA
100
AcDbVertex
100
AcDb2dVertex
 10
37.378986
 20
17.778831
 30
0.0
  0
SEQEND
  5
90D6
100
AcDbEntity
  8
ALPHA
  0
POLYLINE
  5
90D7
100
AcDbEntity
  8
ALPHA
100
AcDb2dPolyline
 66
     1
 10
0.0
 20
0.0
 30
0.0
  0
VERTEX
  5
90D8
100
AcDbEntity
  8
ALPHA
100
AcDbVertex
100
AcDb2dVertex
 10
19.418325
 20
3.40417
 30
0.0
  0
VERTEX
  5
90D9
100
AcDbEntity
  8
ALPHA
100
AcDbVertex
100
AcDb2dVertex
 10
19.418325
 20
12.241529
 30
0.0
  0
SEQEND
  5
90DA
100
AcDbEntity
  8
ALPHA
  0
POLYLINE
  5
90DB
100
AcDbEntity
  8
ALPHA
100
AcDb2dPolyline
 66
     1
 10
0.0
 20
0.0
 30
0.0
  0
VERTEX
  5
90DC
100
AcDbEntity
  8
ALPHA
100
AcDbVertex
100
AcDb2dVertex
 10
19.418325
 20
12.241529
 30
0.0
  0
VERTEX
  5
90DD
100
AcDbEntity
  8
ALPHA
100
AcDbVertex
100
AcDb2dVertex
 10
31.199863
 20
12.241529
 30
0.0
  0
SEQEND
  5
90DE
100
AcDbEntity
  8
ALPHA
  0
POLYLINE
  5
90DF
100
AcDbEntity
  8
ALPHA
100
AcDb2dPolyline
 66
     1
 10
0.0
 20
0.0
 30
0.0
  0
VERTEX
  5
90E0
100
AcDbEntity
  8
ALPHA
100
AcDbVertex
100
AcDb2dVertex
 10
31.199863
 20
12.241529
 30
0.0
  0
VERTEX
  5
90E1
100
AcDbEntity
  8
ALPHA
100
AcDbVertex
100
AcDb2dVertex
 10
31.199863
 20
0.949884
 30
0.0
  0
SEQEND
  5
90E2
100
AcDbEntity
  8
ALPHA
  0
POLYLINE
  5
90E3
100
AcDbEntity
  8
ALPHA
100
AcDb2dPolyline
 66
     1
 10
0.0
 20
0.0
 30
0.0
  0
VERTEX
  5
90E4
100
AcDbEntity
  8
ALPHA
100
AcDbVertex
100
AcDb2dVertex
 10
44.519291
 20
41.18412
 30
0.0
  0
VERTEX
  5
90E5
100
AcDbEntity
  8
ALPHA
100
AcDbVertex
100
AcDb2dVertex
 10
44.749341
 20
41.172504
 30
0.0
  0
VERTEX
  5
90E6
100
AcDbEntity
  8
ALPHA
100
AcDbVertex
100
AcDb2dVertex
 10
44.972745
 20
41.138408
 30
0.0
  0
VERTEX
  5
90E7
100
AcDbEntity
  8
ALPHA
100
AcDbVertex
100
AcDb2dVertex
 10
45.188373
 20
41.082964
 30
0.0
  0
VERTEX
  5
90E8
100
AcDbEntity
  8
ALPHA
100
AcDbVertex
100
AcDb2dVertex
 10
45.395093
 20
41.007301
 30
0.0
  0
VERTEX
  5
90E9
100
AcDbEntity
  8
ALPHA
100
AcDbVertex
100
AcDb2dVertex
 10
45.591775
 20
40.91255
 30
0.0
  0
VERTEX
  5
90EA
100
AcDbEntity
  8
ALPHA
100
AcDbVertex
100
AcDb2dVertex
 10
45.777287
 20
40.799841
 30
0.0
  0
VERTEX
  5
90EB
100
AcDbEntity
  8
ALPHA
100
AcDbVertex
100
AcDb2dVertex
 10
45.950499
 20
40.670306
 30
0.0
  0
VERTEX
  5
90EC
100
AcDbEntity
  8
ALPHA
100
AcDbVertex
100
AcDb2dVertex
 10
46.110279
 20
40.525074
 30
0.0
  0
VERTEX
  5
90ED
100
AcDbEntity
  8
ALPHA
100
AcDbVertex
100
AcDb2dVertex
 10
46.255497
 20
40.365275
 30
0.0
  0
VERTEX
  5
90EE
100
AcDbEntity
  8
ALPHA
100
AcDbVertex
100
AcDb2dVertex
 10
46.385022
 20
40.19204
 30
0.0
  0
VERTEX
  5
90EF
100
AcDbEntity
  8
ALPHA
100
AcDbVertex
100
AcDb2dVertex
 10
46.497723
 20
40.006501
 30
0.0
  0
VERTEX
  5
90F0
100
AcDbEntity
  8
ALPHA
100
AcDbVertex
100
AcDb2dVertex
 10
46.592468
 20
39.809786
 30
0.0
  0
VERTEX
  5
90F1
100
AcDbEntity
  8
ALPHA
100
AcDbVertex
100
AcDb2dVertex
 10
46.668128
 20
39.603026
 30
0.0
  0
VERTEX
  5
90F2
100
AcDbEntity
  8
ALPHA
100
AcDbVertex
100
AcDb2dVertex
 10
46.723571
 20
39.387352
 30
0.0
  0
VERTEX
  5
90F3
100
AcDbEntity
  8
ALPHA
100
AcDbVertex
100
AcDb2dVertex
 10
46.757666
 20
39.163895
 30
0.0
  0
VERTEX
  5
90F4
100
AcDbEntity
  8
ALPHA
100
AcDbVertex
100
AcDb2dVertex
 10
46.769283
 20
38.933784
 30
0.0
  0
VERTEX
  5
90F5
100
AcDbEntity
  8
ALPHA
100
AcDbVertex
100
AcDb2dVertex
 10
46.757666
 20
38.703794
 30
0.0
  0
VERTEX
  5
90F6
100
AcDbEntity
  8
ALPHA
100
AcDbVertex
100
AcDb2dVertex
 10
46.723571
 20
38.480443
 30
0.0
  0
VERTEX
  5
90F7
100
AcDbEntity
  8
ALPHA
100
AcDbVertex
100
AcDb2dVertex
 10
46.668128
 20
38.264861
 30
0.0
  0
VERTEX
  5
90F8
100
AcDbEntity
  8
ALPHA
100
AcDbVertex
100
AcDb2dVertex
 10
46.592468
 20
38.058181
 30
0.0
  0
VERTEX
  5
90F9
100
AcDbEntity
  8
ALPHA
100
AcDbVertex
100
AcDb2dVertex
 10
46.497723
 20
37.861532
 30
0.0
  0
VERTEX
  5
90FA
100
AcDbEntity
  8
ALPHA
100
AcDbVertex
100
AcDb2dVertex
 10
46.385022
 20
37.676048
 30
0.0
  0
VERTEX
  5
90FB
100
AcDbEntity
  8
ALPHA
100
AcDbVertex
100
AcDb2dVertex
 10
46.255497
 20
37.502859
 30
0.0
  0
VERTEX
  5
90FC
100
AcDbEntity
  8
ALPHA
100
AcDbVertex
100
AcDb2dVertex
 10
46.110279
 20
37.343097
 30
0.0
  0
VERTEX
  5
90FD
100
AcDbEntity
  8
ALPHA
100
AcDbVertex
100
AcDb2dVertex
 10
45.950499
 20
37.197893
 30
0.0
  0
VERTEX
  5
90FE
100
AcDbEntity
  8
ALPHA
100
AcDbVertex
100
AcDb2dVertex
 10
45.777287
 20
37.068379
 30
0.0
  0
VERTEX
  5
90FF
100
AcDbEntity
  8
ALPHA
100
AcDbVertex
100
AcDb2dVertex
 10
45.591775
 20
36.955686
 30
0.0
  0
VERTEX
  5
9100
100
AcDbEntity
  8
ALPHA
100
AcDbVertex
100
AcDb2dVertex
 10
45.395093
 20
36.860945
 30
0.0
  0
VERTEX
  5
9101
100
AcDbEntity
  8
ALPHA
100
AcDbVertex
100
AcDb2dVertex
 10
45.188373
 20
36.785289
 30
0.0
  0
VERTEX
  5
9102
100
AcDbEntity
  8
ALPHA
100
AcDbVertex
100
AcDb2dVertex
 10
44.972745
 20
36.729847
 30
0.0
  0
VERTEX
  5
9103
100
AcDbEntity
  8
ALPHA
100
AcDbVertex
100
AcDb2dVertex
 10
44.749341
 20
36.695753
 30
0.0
  0
VERTEX
  5
9104
100
AcDbEntity
  8
ALPHA
100
AcDbVertex
100
AcDb2dVertex
 10
44.519291
 20
36.684137
 30
0.0
  0
SEQEND
  5
9105
100
AcDbEntity
  8
ALPHA
  0
POLYLINE
  5
9106
100
AcDbEntity
  8
ALPHA
100
AcDb2dPolyline
 66
     1
 10
0.0
 20
0.0
 30
0.0
  0
VERTEX
  5
9107
100
AcDbEntity
  8
ALPHA
100
AcDbVertex
100
AcDb2dVertex
 10
44.519291
 20
36.684137
 30
0.0
  0
VERTEX
  5
9108
100
AcDbEntity
  8
ALPHA
100
AcDbVertex
100
AcDb2dVertex
 10
41.519302
 20
36.684137
 30
0.0
  0
SEQEND
  5
9109
100
AcDbEntity
  8
ALPHA
  0
POLYLINE
  5
910A
100
AcDbEntity
  8
ALPHA
100
AcDb2dPolyline
 66
     1
 10
0.0
 20
0.0
 30
0.0
  0
VERTEX
  5
910B
100
AcDbEntity
  8
ALPHA
100
AcDbVertex
100
AcDb2dVertex
 10
41.519302
 20
36.684137
 30
0.0
  0
VERTEX
  5
910C
100
AcDbEntity
  8
ALPHA
100
AcDbVertex
100
AcDb2dVertex
 10
41.289251
 20
36.695753
 30
0.0
  0
VERTEX
  5
910D
100
AcDbEntity
  8
ALPHA
100
AcDbVertex
100
AcDb2dVertex
 10
41.065847
 20
36.729847
 30
0.0
  0
VERTEX
  5
910E
100
AcDbEntity
  8
ALPHA
100
AcDbVertex
100
AcDb2dVertex
 10
40.850219
 20
36.785289
 30
0.0
  0
VERTEX
  5
910F
100
AcDbEntity
  8
ALPHA
100
AcDbVertex
100
AcDb2dVertex
 10
40.643499
 20
36.860945
 30
0.0
  0
VERTEX
  5
9110
100
AcDbEntity
  8
ALPHA
100
AcDbVertex
100
AcDb2dVertex
 10
40.446818
 20
36.955686
 30
0.0
  0
VERTEX
  5
9111
100
AcDbEntity
  8
ALPHA
100
AcDbVertex
100
AcDb2dVertex
 10
40.261305
 20
37.068379
 30
0.0
  0
VERTEX
  5
9112
100
AcDbEntity
  8
ALPHA
100
AcDbVertex
100
AcDb2dVertex
 10
40.088094
 20
37.197893
 30
0.0
  0
VERTEX
  5
9113
100
AcDbEntity
  8
ALPHA
100
AcDbVertex
100
AcDb2dVertex
 10
39.928313
 20
37.343097
 30
0.0
  0
VERTEX
  5
9114
100
AcDbEntity
  8
ALPHA
100
AcDbVertex
100
AcDb2dVertex
 10
39.783095
 20
37.502859
 30
0.0
  0
VERTEX
  5
9115
100
AcDbEntity
  8
ALPHA
100
AcDbVertex
100
AcDb2dVertex
 10
39.65357
 20
37.676048
 30
0.0
  0
VERTEX
  5
9116
100
AcDbEntity
  8
ALPHA
100
AcDbVertex
100
AcDb2dVertex
 10
39.54087
 20
37.861532
 30
0.0
  0
VERTEX
  5
9117
100
AcDbEntity
  8
ALPHA
100
AcDbVertex
100
AcDb2dVertex
 10
39.446124
 20
38.058181
 30
0.0
  0
VERTEX
  5
9118
100
AcDbEntity
  8
ALPHA
100
AcDbVertex
100
AcDb2dVertex
 10
39.370464
 20
38.264861
 30
0.0
  0
VERTEX
  5
9119
100
AcDbEntity
  8
ALPHA
100
AcDbVertex
100
AcDb2dVertex
 10
39.315021
 20
38.480443
 30
0.0
  0
VERTEX
  5
911A
100
AcDbEntity
  8
ALPHA
100
AcDbVertex
100
AcDb2dVertex
 10
39.280926
 20
38.703794
 30
0.0
  0
VERTEX
  5
911B
100
AcDbEntity
  8
ALPHA
100
AcDbVertex
100
AcDb2dVertex
 10
39.26931
 20
38.933784
 30
0.0
  0
VERTEX
  5
911C
100
AcDbEntity
  8
ALPHA
100
AcDbVertex
100
AcDb2dVertex
 10
39.280926
 20
39.163895
 30
0.0
  0
VERTEX
  5
911D
100
AcDbEntity
  8
ALPHA
100
AcDbVertex
100
AcDb2dVertex
 10
39.315021
 20
39.387352
 30
0.0
  0
VERTEX
  5
911E
100
AcDbEntity
  8
ALPHA
100
AcDbVertex
100
AcDb2dVertex
 10
39.370464
 20
39.603026
 30
0.0
  0
VERTEX
  5
911F
100
AcDbEntity
  8
ALPHA
100
AcDbVertex
100
AcDb2dVertex
 10
39.446124
 20
39.809786
 30
0.0
  0
VERTEX
  5
9120
100
AcDbEntity
  8
ALPHA
100
AcDbVertex
100
AcDb2dVertex
 10
39.54087
 20
40.006501
 30
0.0
  0
VERTEX
  5
9121
100
AcDbEntity
  8
ALPHA
100
AcDbVertex
100
AcDb2dVertex
 10
39.65357
 20
40.19204
 30
0.0
  0
VERTEX
  5
9122
100
AcDbEntity
  8
ALPHA
100
AcDbVertex
100
AcDb2dVertex
 10
39.783095
 20
40.365275
 30
0.0
  0
VERTEX
  5
9123
100
AcDbEntity
  8
ALPHA
100
AcDbVertex
100
AcDb2dVertex
 10
39.928313
 20
40.525074
 30
0.0
  0
VERTEX
  5
9124
100
AcDbEntity
  8
ALPHA
100
AcDbVertex
100
AcDb2dVertex
 10
40.088094
 20
40.670306
 30
0.0
  0
VERTEX
  5
9125
100
AcDbEntity
  8
ALPHA
100
AcDbVertex
100
AcDb2dVertex
 10
40.261305
 20
40.799841
 30
0.0
  0
VERTEX
  5
9126
100
AcDbEntity
  8
ALPHA
100
AcDbVertex
100
AcDb2dVertex
 10
40.446818
 20
40.91255
 30
0.0
  0
VERTEX
  5
9127
100
AcDbEntity
  8
ALPHA
100
AcDbVertex
100
AcDb2dVertex
 10
40.643499
 20
41.007301
 30
0.0
  0
VERTEX
  5
9128
100
AcDbEntity
  8
ALPHA
100
AcDbVertex
100
AcDb2dVertex
 10
40.850219
 20
41.082964
 30
0.0
  0
VERTEX
  5
9129
100
AcDbEntity
  8
ALPHA
100
AcDbVertex
100
AcDb2dVertex
 10
41.065847
 20
41.138408
 30
0.0
  0
VERTEX
  5
912A
100
AcDbEntity
  8
ALPHA
100
AcDbVertex
100
AcDb2dVertex
 10
41.289251
 20
41.172504
 30
0.0
  0
VERTEX
  5
912B
100
AcDbEntity
  8
ALPHA
100
AcDbVertex
100
AcDb2dVertex
 10
41.519302
 20
41.18412
 30
0.0
  0
SEQEND
  5
912C
100
AcDbEntity
  8
ALPHA
  0
POLYLINE
  5
912D
100
AcDbEntity
  8
ALPHA
100
AcDb2dPolyline
 66
     1
 10
0.0
 20
0.0
 30
0.0
  0
VERTEX
  5
912E
100
AcDbEntity
  8
ALPHA
100
AcDbVertex
100
AcDb2dVertex
 10
41.519302
 20
41.18412
 30
0.0
  0
VERTEX
  5
912F
100
AcDbEntity
  8
ALPHA
100
AcDbVertex
100
AcDb2dVertex
 10
44.519291
 20
41.18412
 30
0.0
  0
SEQEND
  5
9130
100
AcDbEntity
  8
ALPHA
  0
POLYLINE
  5
9131
100
AcDbEntity
  8
ALPHA
100
AcDb2dPolyline
 66
     1
 10
0.0
 20
0.0
 30
0.0
  0
VERTEX
  5
9132
100
AcDbEntity
  8
ALPHA
100
AcDbVertex
100
AcDb2dVertex
 10
8.519076
 20
41.18412
 30
0.0
  0
VERTEX
  5
9133
100
AcDbEntity
  8
ALPHA
100
AcDbVertex
100
AcDb2dVertex
 10
8.749187
 20
41.172504
 30
0.0
  0
VERTEX
  5
9134
100
AcDbEntity
  8
ALPHA
100
AcDbVertex
100
AcDb2dVertex
 10
8.972645
 20
41.138408
 30
0.0
  0
VERTEX
  5
9135
100
AcDbEntity
  8
ALPHA
100
AcDbVertex
100
AcDb2dVertex
 10
9.188319
 20
41.082964
 30
0.0
  0
VERTEX
  5
9136
100
AcDbEntity
  8
ALPHA
100
AcDbVertex
100
AcDb2dVertex
 10
9.395078
 20
41.007301
 30
0.0
  0
VERTEX
  5
9137
100
AcDbEntity
  8
ALPHA
100
AcDbVertex
100
AcDb2dVertex
 10
9.591793
 20
40.91255
 30
0.0
  0
VERTEX
  5
9138
100
AcDbEntity
  8
ALPHA
100
AcDbVertex
100
AcDb2dVertex
 10
9.777333
 20
40.799841
 30
0.0
  0
VERTEX
  5
9139
100
AcDbEntity
  8
ALPHA
100
AcDbVertex
100
AcDb2dVertex
 10
9.950567
 20
40.670306
 30
0.0
  0
VERTEX
  5
913A
100
AcDbEntity
  8
ALPHA
100
AcDbVertex
100
AcDb2dVertex
 10
10.110366
 20
40.525074
 30
0.0
  0
VERTEX
  5
913B
100
AcDbEntity
  8
ALPHA
100
AcDbVertex
100
AcDb2dVertex
 10
10.255598
 20
40.365275
 30
0.0
  0
VERTEX
  5
913C
100
AcDbEntity
  8
ALPHA
100
AcDbVertex
100
AcDb2dVertex
 10
10.385134
 20
40.19204
 30
0.0
  0
VERTEX
  5
913D
100
AcDbEntity
  8
ALPHA
100
AcDbVertex
100
AcDb2dVertex
 10
10.497842
 20
40.006501
 30
0.0
  0
VERTEX
  5
913E
100
AcDbEntity
  8
ALPHA
100
AcDbVertex
100
AcDb2dVertex
 10
10.592593
 20
39.809786
 30
0.0
  0
VERTEX
  5
913F
100
AcDbEntity
  8
ALPHA
100
AcDbVertex
100
AcDb2dVertex
 10
10.668256
 20
39.603026
 30
0.0
  0
VERTEX
  5
9140
100
AcDbEntity
  8
ALPHA
100
AcDbVertex
100
AcDb2dVertex
 10
10.723701
 20
39.387352
 30
0.0
  0
VERTEX
  5
9141
100
AcDbEntity
  8
ALPHA
100
AcDbVertex
100
AcDb2dVertex
 10
10.757796
 20
39.163895
 30
0.0
  0
VERTEX
  5
9142
100
AcDbEntity
  8
ALPHA
100
AcDbVertex
100
AcDb2dVertex
 10
10.769413
 20
38.933784
 30
0.0
  0
VERTEX
  5
9143
100
AcDbEntity
  8
ALPHA
100
AcDbVertex
100
AcDb2dVertex
 10
10.757796
 20
38.703794
 30
0.0
  0
VERTEX
  5
9144
100
AcDbEntity
  8
ALPHA
100
AcDbVertex
100
AcDb2dVertex
 10
10.723701
 20
38.480443
 30
0.0
  0
VERTEX
  5
9145
100
AcDbEntity
  8
ALPHA
100
AcDbVertex
100
AcDb2dVertex
 10
10.668256
 20
38.264861
 30
0.0
  0
VERTEX
  5
9146
100
AcDbEntity
  8
ALPHA
100
AcDbVertex
100
AcDb2dVertex
 10
10.592593
 20
38.058181
 30
0.0
  0
VERTEX
  5
9147
100
AcDbEntity
  8
ALPHA
100
AcDbVertex
100
AcDb2dVertex
 10
10.497842
 20
37.861532
 30
0.0
  0
VERTEX
  5
9148
100
AcDbEntity
  8
ALPHA
100
AcDbVertex
100
AcDb2dVertex
 10
10.385134
 20
37.676048
 30
0.0
  0
VERTEX
  5
9149
100
AcDbEntity
  8
ALPHA
100
AcDbVertex
100
AcDb2dVertex
 10
10.255598
 20
37.502859
 30
0.0
  0
VERTEX
  5
914A
100
AcDbEntity
  8
ALPHA
100
AcDbVertex
100
AcDb2dVertex
 10
10.110366
 20
37.343097
 30
0.0
  0
VERTEX
  5
914B
100
AcDbEntity
  8
ALPHA
100
AcDbVertex
100
AcDb2dVertex
 10
9.950567
 20
37.197893
 30
0.0
  0
VERTEX
  5
914C
100
AcDbEntity
  8
ALPHA
100
AcDbVertex
100
AcDb2dVertex
 10
9.777333
 20
37.068379
 30
0.0
  0
VERTEX
  5
914D
100
AcDbEntity
  8
ALPHA
100
AcDbVertex
100
AcDb2dVertex
 10
9.591793
 20
36.955686
 30
0.0
  0
VERTEX
  5
914E
100
AcDbEntity
  8
ALPHA
100
AcDbVertex
100
AcDb2dVertex
 10
9.395078
 20
36.860945
 30
0.0
  0
VERTEX
  5
914F
100
AcDbEntity
  8
ALPHA
100
AcDbVertex
100
AcDb2dVertex
 10
9.188319
 20
36.785289
 30
0.0
  0
VERTEX
  5
9150
100
AcDbEntity
  8
ALPHA
100
AcDbVertex
100
AcDb2dVertex
 10
8.972645
 20
36.729847
 30
0.0
  0
VERTEX
  5
9151
100
AcDbEntity
  8
ALPHA
100
AcDbVertex
100
AcDb2dVertex
 10
8.749187
 20
36.695753
 30
0.0
  0
VERTEX
  5
9152
100
AcDbEntity
  8
ALPHA
100
AcDbVertex
100
AcDb2dVertex
 10
8.519076
 20
36.684137
 30
0.0
  0
SEQEND
  5
9153
100
AcDbEntity
  8
ALPHA
  0
POLYLINE
  5
9154
100
AcDbEntity
  8
ALPHA
100
AcDb2dPolyline
 66
     1
 10
0.0
 20
0.0
 30
0.0
  0
VERTEX
  5
9155
100
AcDbEntity
  8
ALPHA
100
AcDbVertex
100
AcDb2dVertex
 10
8.519076
 20
36.684137
 30
0.0
  0
VERTEX
  5
9156
100
AcDbEntity
  8
ALPHA
100
AcDbVertex
100
AcDb2dVertex
 10
5.519087
 20
36.684137
 30
0.0
  0
SEQEND
  5
9157
100
AcDbEntity
  8
ALPHA
  0
POLYLINE
  5
9158
100
AcDbEntity
  8
ALPHA
100
AcDb2dPolyline
 66
     1
 10
0.0
 20
0.0
 30
0.0
  0
VERTEX
  5
9159
100
AcDbEntity
  8
ALPHA
100
AcDbVertex
100
AcDb2dVertex
 10
5.519087
 20
36.684137
 30
0.0
  0
VERTEX
  5
915A
100
AcDbEntity
  8
ALPHA
100
AcDbVertex
100
AcDb2dVertex
 10
5.289098
 20
36.695753
 30
0.0
  0
VERTEX
  5
915B
100
AcDbEntity
  8
ALPHA
100
AcDbVertex
100
AcDb2dVertex
 10
5.065746
 20
36.729847
 30
0.0
  0
VERTEX
  5
915C
100
AcDbEntity
  8
ALPHA
100
AcDbVertex
100
AcDb2dVertex
 10
4.850165
 20
36.785289
 30
0.0
  0
VERTEX
  5
915D
100
AcDbEntity
  8
ALPHA
100
AcDbVertex
100
AcDb2dVertex
 10
4.643484
 20
36.860945
 30
0.0
  0
VERTEX
  5
915E
100
AcDbEntity
  8
ALPHA
100
AcDbVertex
100
AcDb2dVertex
 10
4.446836
 20
36.955686
 30
0.0
  0
VERTEX
  5
915F
100
AcDbEntity
  8
ALPHA
100
AcDbVertex
100
AcDb2dVertex
 10
4.261352
 20
37.068379
 30
0.0
  0
VERTEX
  5
9160
100
AcDbEntity
  8
ALPHA
100
AcDbVertex
100
AcDb2dVertex
 10
4.088163
 20
37.197893
 30
0.0
  0
VERTEX
  5
9161
100
AcDbEntity
  8
ALPHA
100
AcDbVertex
100
AcDb2dVertex
 10
3.928401
 20
37.343097
 30
0.0
  0
VERTEX
  5
9162
100
AcDbEntity
  8
ALPHA
100
AcDbVertex
100
AcDb2dVertex
 10
3.783197
 20
37.502859
 30
0.0
  0
VERTEX
  5
9163
100
AcDbEntity
  8
ALPHA
100
AcDbVertex
100
AcDb2dVertex
 10
3.653682
 20
37.676048
 30
0.0
  0
VERTEX
  5
9164
100
AcDbEntity
  8
ALPHA
100
AcDbVertex
100
AcDb2dVertex
 10
3.540989
 20
37.861532
 30
0.0
  0
VERTEX
  5
9165
100
AcDbEntity
  8
ALPHA
100
AcDbVertex
100
AcDb2dVertex
 10
3.446249
 20
38.058181
 30
0.0
  0
VERTEX
  5
9166
100
AcDbEntity
  8
ALPHA
100
AcDbVertex
100
AcDb2dVertex
 10
3.370592
 20
38.264861
 30
0.0
  0
VERTEX
  5
9167
100
AcDbEntity
  8
ALPHA
100
AcDbVertex
100
AcDb2dVertex
 10
3.315151
 20
38.480443
 30
0.0
  0
VERTEX
  5
9168
100
AcDbEntity
  8
ALPHA
100
AcDbVertex
100
AcDb2dVertex
 10
3.281056
 20
38.703794
 30
0.0
  0
VERTEX
  5
9169
100
AcDbEntity
  8
ALPHA
100
AcDbVertex
100
AcDb2dVertex
 10
3.26944
 20
38.933784
 30
0.0
  0
VERTEX
  5
916A
100
AcDbEntity
  8
ALPHA
100
AcDbVertex
100
AcDb2dVertex
 10
3.281056
 20
39.163895
 30
0.0
  0
VERTEX
  5
916B
100
AcDbEntity
  8
ALPHA
100
AcDbVertex
100
AcDb2dVertex
 10
3.315151
 20
39.387352
 30
0.0
  0
VERTEX
  5
916C
100
AcDbEntity
  8
ALPHA
100
AcDbVertex
100
AcDb2dVertex
 10
3.370592
 20
39.603026
 30
0.0
  0
VERTEX
  5
916D
100
AcDbEntity
  8
ALPHA
100
AcDbVertex
100
AcDb2dVertex
 10
3.446249
 20
39.809786
 30
0.0
  0
VERTEX
  5
916E
100
AcDbEntity
  8
ALPHA
100
AcDbVertex
100
AcDb2dVertex
 10
3.540989
 20
40.006501
 30
0.0
  0
VERTEX
  5
916F
100
AcDbEntity
  8
ALPHA
100
AcDbVertex
100
AcDb2dVertex
 10
3.653682
 20
40.19204
 30
0.0
  0
VERTEX
  5
9170
100
AcDbEntity
  8
ALPHA
100
AcDbVertex
100
AcDb2dVertex
 10
3.783197
 20
40.365275
 30
0.0
  0
VERTEX
  5
9171
100
AcDbEntity
  8
ALPHA
100
AcDbVertex
100
AcDb2dVertex
 10
3.928401
 20
40.525074
 30
0.0
  0
VERTEX
  5
9172
100
AcDbEntity
  8
ALPHA
100
AcDbVertex
100
AcDb2dVertex
 10
4.088163
 20
40.670306
 30
0.0
  0
VERTEX
  5
9173
100
AcDbEntity
  8
ALPHA
100
AcDbVertex
100
AcDb2dVertex
 10
4.261352
 20
40.799841
 30
0.0
  0
VERTEX
  5
9174
100
AcDbEntity
  8
ALPHA
100
AcDbVertex
100
AcDb2dVertex
 10
4.446836
 20
40.91255
 30
0.0
  0
VERTEX
  5
9175
100
AcDbEntity
  8
ALPHA
100
AcDbVertex
100
AcDb2dVertex
 10
4.643484
 20
41.007301
 30
0.0
  0
VERTEX
  5
9176
100
AcDbEntity
  8
ALPHA
100
AcDbVertex
100
AcDb2dVertex
 10
4.850165
 20
41.082964
 30
0.0
  0
VERTEX
  5
9177
100
AcDbEntity
  8
ALPHA
100
AcDbVertex
100
AcDb2dVertex
 10
5.065746
 20
41.138408
 30
0.0
  0
VERTEX
  5
9178
100
AcDbEntity
  8
ALPHA
100
AcDbVertex
100
AcDb2dVertex
 10
5.289098
 20
41.172504
 30
0.0
  0
VERTEX
  5
9179
100
AcDbEntity
  8
ALPHA
100
AcDbVertex
100
AcDb2dVertex
 10
5.519087
 20
41.18412
 30
0.0
  0
SEQEND
  5
917A
100
AcDbEntity
  8
ALPHA
  0
POLYLINE
  5
917B
100
AcDbEntity
  8
ALPHA
100
AcDb2dPolyline
 66
     1
 10
0.0
 20
0.0
 30
0.0
  0
VERTEX
  5
917C
100
AcDbEntity
  8
ALPHA
100
AcDbVertex
100
AcDb2dVertex
 10
5.519087
 20
41.18412
 30
0.0
  0
VERTEX
  5
917D
100
AcDbEntity
  8
ALPHA
100
AcDbVertex
100
AcDb2dVertex
 10
8.519076
 20
41.18412
 30
0.0
  0
SEQEND
  5
917E
100
AcDbEntity
  8
ALPHA
  0
POLYLINE
  5
917F
100
AcDbEntity
  8
ALPHA
100
AcDb2dPolyline
 66
     1
 10
0.0
 20
0.0
 30
0.0
  0
VERTEX
  5
9180
100
AcDbEntity
  8
ALPHA
100
AcDbVertex
100
AcDb2dVertex
 10
48.73471
 20
50.942353
 30
0.0
  0
VERTEX
  5
9181
100
AcDbEntity
  8
ALPHA
100
AcDbVertex
100
AcDb2dVertex
 10
45.618621
 20
50.942353
 30
0.0
  0
SEQEND
  5
9182
100
AcDbEntity
  8
ALPHA
  0
POLYLINE
  5
9183
100
AcDbEntity
  8
ALPHA
100
AcDb2dPolyline
 66
     1
 10
0.0
 20
0.0
 30
0.0
  0
VERTEX
  5
9184
100
AcDbEntity
  8
ALPHA
100
AcDbVertex
100
AcDb2dVertex
 10
45.618621
 20
50.942353
 30
0.0
  0
VERTEX
  5
9185
100
AcDbEntity
  8
ALPHA
100
AcDbVertex
100
AcDb2dVertex
 10
45.618621
 20
80.560011
 30
0.0
  0
SEQEND
  5
9186
100
AcDbEntity
  8
ALPHA
  0
POLYLINE
  5
9187
100
AcDbEntity
  8
ALPHA
100
AcDb2dPolyline
 66
     1
 10
0.0
 20
0.0
 30
0.0
  0
VERTEX
  5
9188
100
AcDbEntity
  8
ALPHA
100
AcDbVertex
100
AcDb2dVertex
 10
49.077152
 20
43.541771
 30
0.0
  0
VERTEX
  5
9189
100
AcDbEntity
  8
ALPHA
100
AcDbVertex
100
AcDb2dVertex
 10
40.384143
 20
43.541771
 30
0.0
  0
SEQEND
  5
918A
100
AcDbEntity
  8
ALPHA
  0
POLYLINE
  5
918B
100
AcDbEntity
  8
ALPHA
100
AcDb2dPolyline
 66
     1
 10
0.0
 20
0.0
 30
0.0
  0
VERTEX
  5
918C
100
AcDbEntity
  8
ALPHA
100
AcDbVertex
100
AcDb2dVertex
 10
40.384143
 20
43.541771
 30
0.0
  0
VERTEX
  5
918D
100
AcDbEntity
  8
ALPHA
100
AcDbVertex
100
AcDb2dVertex
 10
40.019081
 20
43.524353
 30
0.0
  0
VERTEX
  5
918E
100
AcDbEntity
  8
ALPHA
100
AcDbVertex
100
AcDb2dVertex
 10
39.664581
 20
43.473228
 30
0.0
  0
VERTEX
  5
918F
100
AcDbEntity
  8
ALPHA
100
AcDbVertex
100
AcDb2dVertex
 10
39.322434
 20
43.390092
 30
0.0
  0
VERTEX
  5
9190
100
AcDbEntity
  8
ALPHA
100
AcDbVertex
100
AcDb2dVertex
 10
38.994434
 20
43.276642
 30
0.0
  0
VERTEX
  5
9191
100
AcDbEntity
  8
ALPHA
100
AcDbVertex
100
AcDb2dVertex
 10
38.682373
 20
43.134572
 30
0.0
  0
VERTEX
  5
9192
100
AcDbEntity
  8
ALPHA
100
AcDbVertex
100
AcDb2dVertex
 10
38.388044
 20
42.96558
 30
0.0
  0
VERTEX
  5
9193
100
AcDbEntity
  8
ALPHA
100
AcDbVertex
100
AcDb2dVertex
 10
38.113238
 20
42.771361
 30
0.0
  0
VERTEX
  5
9194
100
AcDbEntity
  8
ALPHA
100
AcDbVertex
100
AcDb2dVertex
 10
37.859749
 20
42.55361
 30
0.0
  0
VERTEX
  5
9195
100
AcDbEntity
  8
ALPHA
100
AcDbVertex
100
AcDb2dVertex
 10
37.629369
 20
42.314025
 30
0.0
  0
VERTEX
  5
9196
100
AcDbEntity
  8
ALPHA
100
AcDbVertex
100
AcDb2dVertex
 10
37.42389
 20
42.054299
 30
0.0
  0
VERTEX
  5
9197
100
AcDbEntity
  8
ALPHA
100
AcDbVertex
100
AcDb2dVertex
 10
37.245106
 20
41.77613
 30
0.0
  0
VERTEX
  5
9198
100
AcDbEntity
  8
ALPHA
100
AcDbVertex
100
AcDb2dVertex
 10
37.094809
 20
41.481214
 30
0.0
  0
VERTEX
  5
9199
100
AcDbEntity
  8
ALPHA
100
AcDbVertex
100
AcDb2dVertex
 10
36.97479
 20
41.171246
 30
0.0
  0
VERTEX
  5
919A
100
AcDbEntity
  8
ALPHA
100
AcDbVertex
100
AcDb2dVertex
 10
36.886843
 20
40.847922
 30
0.0
  0
VERTEX
  5
919B
100
AcDbEntity
  8
ALPHA
100
AcDbVertex
100
AcDb2dVertex
 10
36.832761
 20
40.512938
 30
0.0
  0
VERTEX
  5
919C
100
AcDbEntity
  8
ALPHA
100
AcDbVertex
100
AcDb2dVertex
 10
36.814335
 20
40.167989
 30
0.0
  0
SEQEND
  5
919D
100
AcDbEntity
  8
ALPHA
  0
POLYLINE
  5
919E
100
AcDbEntity
  8
ALPHA
100
AcDb2dPolyline
 66
     1
 10
0.0
 20
0.0
 30
0.0
  0
VERTEX
  5
919F
100
AcDbEntity
  8
ALPHA
100
AcDbVertex
100
AcDb2dVertex
 10
36.814335
 20
40.167989
 30
0.0
  0
VERTEX
  5
91A0
100
AcDbEntity
  8
ALPHA
100
AcDbVertex
100
AcDb2dVertex
 10
36.814335
 20
36.200617
 30
0.0
  0
SEQEND
  5
91A1
100
AcDbEntity
  8
ALPHA
  0
POLYLINE
  5
91A2
100
AcDbEntity
  8
ALPHA
100
AcDb2dPolyline
 66
     1
 10
0.0
 20
0.0
 30
0.0
  0
VERTEX
  5
91A3
100
AcDbEntity
  8
ALPHA
100
AcDbVertex
100
AcDb2dVertex
 10
1.238212
 20
43.541771
 30
0.0
  0
VERTEX
  5
91A4
100
AcDbEntity
  8
ALPHA
100
AcDbVertex
100
AcDb2dVertex
 10
9.93191
 20
43.541771
 30
0.0
  0
SEQEND
  5
91A5
100
AcDbEntity
  8
ALPHA
  0
POLYLINE
  5
91A6
100
AcDbEntity
  8
ALPHA
100
AcDb2dPolyline
 66
     1
 10
0.0
 20
0.0
 30
0.0
  0
VERTEX
  5
91A7
100
AcDbEntity
  8
ALPHA
100
AcDbVertex
100
AcDb2dVertex
 10
9.93191
 20
43.541771
 30
0.0
  0
VERTEX
  5
91A8
100
AcDbEntity
  8
ALPHA
100
AcDbVertex
100
AcDb2dVertex
 10
10.296782
 20
43.524353
 30
0.0
  0
VERTEX
  5
91A9
100
AcDbEntity
  8
ALPHA
100
AcDbVertex
100
AcDb2dVertex
 10
10.651101
 20
43.473228
 30
0.0
  0
VERTEX
  5
91AA
100
AcDbEntity
  8
ALPHA
100
AcDbVertex
100
AcDb2dVertex
 10
10.993076
 20
43.390092
 30
0.0
  0
VERTEX
  5
91AB
100
AcDbEntity
  8
ALPHA
100
AcDbVertex
100
AcDb2dVertex
 10
11.320913
 20
43.276642
 30
0.0
  0
VERTEX
  5
91AC
100
AcDbEntity
  8
ALPHA
100
AcDbVertex
100
AcDb2dVertex
 10
11.632822
 20
43.134572
 30
0.0
  0
VERTEX
  5
91AD
100
AcDbEntity
  8
ALPHA
100
AcDbVertex
100
AcDb2dVertex
 10
11.92701
 20
42.96558
 30
0.0
  0
VERTEX
  5
91AE
100
AcDbEntity
  8
ALPHA
100
AcDbVertex
100
AcDb2dVertex
 10
12.201685
 20
42.771361
 30
0.0
  0
VERTEX
  5
91AF
100
AcDbEntity
  8
ALPHA
100
AcDbVertex
100
AcDb2dVertex
 10
12.455055
 20
42.55361
 30
0.0
  0
VERTEX
  5
91B0
100
AcDbEntity
  8
ALPHA
100
AcDbVertex
100
AcDb2dVertex
 10
12.685328
 20
42.314025
 30
0.0
  0
VERTEX
  5
91B1
100
AcDbEntity
  8
ALPHA
100
AcDbVertex
100
AcDb2dVertex
 10
12.890712
 20
42.054299
 30
0.0
  0
VERTEX
  5
91B2
100
AcDbEntity
  8
ALPHA
100
AcDbVertex
100
AcDb2dVertex
 10
13.069415
 20
41.77613
 30
0.0
  0
VERTEX
  5
91B3
100
AcDbEntity
  8
ALPHA
100
AcDbVertex
100
AcDb2dVertex
 10
13.219645
 20
41.481214
 30
0.0
  0
VERTEX
  5
91B4
100
AcDbEntity
  8
ALPHA
100
AcDbVertex
100
AcDb2dVertex
 10
13.339611
 20
41.171246
 30
0.0
  0
VERTEX
  5
91B5
100
AcDbEntity
  8
ALPHA
100
AcDbVertex
100
AcDb2dVertex
 10
13.427519
 20
40.847922
 30
0.0
  0
VERTEX
  5
91B6
100
AcDbEntity
  8
ALPHA
100
AcDbVertex
100
AcDb2dVertex
 10
13.481578
 20
40.512938
 30
0.0
  0
VERTEX
  5
91B7
100
AcDbEntity
  8
ALPHA
100
AcDbVertex
100
AcDb2dVertex
 10
13.499995
 20
40.167989
 30
0.0
  0
SEQEND
  5
91B8
100
AcDbEntity
  8
ALPHA
  0
POLYLINE
  5
91B9
100
AcDbEntity
  8
ALPHA
100
AcDb2dPolyline
 66
     1
 10
0.0
 20
0.0
 30
0.0
  0
VERTEX
  5
91BA
100
AcDbEntity
  8
ALPHA
100
AcDbVertex
100
AcDb2dVertex
 10
13.499995
 20
40.167989
 30
0.0
  0
VERTEX
  5
91BB
100
AcDbEntity
  8
ALPHA
100
AcDbVertex
100
AcDb2dVertex
 10
13.499995
 20
36.200617
 30
0.0
  0
SEQEND
  5
91BC
100
AcDbEntity
  8
ALPHA
  0
POLYLINE
  5
91BD
100
AcDbEntity
  8
ALPHA
100
AcDb2dPolyline
 66
     1
 10
0.0
 20
0.0
 30
0.0
  0
VERTEX
  5
91BE
100
AcDbEntity
  8
ALPHA
100
AcDbVertex
100
AcDb2dVertex
 10
1.238212
 20
77.654762
 30
0.0
  0
VERTEX
  5
91BF
100
AcDbEntity
  8
ALPHA
100
AcDbVertex
100
AcDb2dVertex
 10
1.254623
 20
77.962209
 30
0.0
  0
VERTEX
  5
91C0
100
AcDbEntity
  8
ALPHA
100
AcDbVertex
100
AcDb2dVertex
 10
1.302792
 20
78.260777
 30
0.0
  0
VERTEX
  5
91C1
100
AcDbEntity
  8
ALPHA
100
AcDbVertex
100
AcDb2dVertex
 10
1.381122
 20
78.548953
 30
0.0
  0
VERTEX
  5
91C2
100
AcDbEntity
  8
ALPHA
100
AcDbVertex
100
AcDb2dVertex
 10
1.488013
 20
78.825225
 30
0.0
  0
VERTEX
  5
91C3
100
AcDbEntity
  8
ALPHA
100
AcDbVertex
100
AcDb2dVertex
 10
1.62187
 20
79.088084
 30
0.0
  0
VERTEX
  5
91C4
100
AcDbEntity
  8
ALPHA
100
AcDbVertex
100
AcDb2dVertex
 10
1.781093
 20
79.336016
 30
0.0
  0
VERTEX
  5
91C5
100
AcDbEntity
  8
ALPHA
100
AcDbVertex
100
AcDb2dVertex
 10
1.964085
 20
79.56751
 30
0.0
  0
VERTEX
  5
91C6
100
AcDbEntity
  8
ALPHA
100
AcDbVertex
100
AcDb2dVertex
 10
2.169249
 20
79.781054
 30
0.0
  0
VERTEX
  5
91C7
100
AcDbEntity
  8
ALPHA
100
AcDbVertex
100
AcDb2dVertex
 10
2.394986
 20
79.975137
 30
0.0
  0
VERTEX
  5
91C8
100
AcDbEntity
  8
ALPHA
100
AcDbVertex
100
AcDb2dVertex
 10
2.639699
 20
80.148246
 30
0.0
  0
VERTEX
  5
91C9
100
AcDbEntity
  8
ALPHA
100
AcDbVertex
100
AcDb2dVertex
 10
2.901791
 20
80.298871
 30
0.0
  0
VERTEX
  5
91CA
100
AcDbEntity
  8
ALPHA
100
AcDbVertex
100
AcDb2dVertex
 10
3.179663
 20
80.425499
 30
0.0
  0
VERTEX
  5
91CB
100
AcDbEntity
  8
ALPHA
100
AcDbVertex
100
AcDb2dVertex
 10
3.471718
 20
80.526619
 30
0.0
  0
VERTEX
  5
91CC
100
AcDbEntity
  8
ALPHA
100
AcDbVertex
100
AcDb2dVertex
 10
3.776357
 20
80.60072
 30
0.0
  0
VERTEX
  5
91CD
100
AcDbEntity
  8
ALPHA
100
AcDbVertex
100
AcDb2dVertex
 10
4.091985
 20
80.646288
 30
0.0
  0
VERTEX
  5
91CE
100
AcDbEntity
  8
ALPHA
100
AcDbVertex
100
AcDb2dVertex
 10
4.417001
 20
80.661814
 30
0.0
  0
SEQEND
  5
91CF
100
AcDbEntity
  8
ALPHA
  0
POLYLINE
  5
91D0
100
AcDbEntity
  8
ALPHA
100
AcDb2dPolyline
 66
     1
 10
0.0
 20
0.0
 30
0.0
  0
VERTEX
  5
91D1
100
AcDbEntity
  8
ALPHA
100
AcDbVertex
100
AcDb2dVertex
 10
4.417001
 20
80.661814
 30
0.0
  0
VERTEX
  5
91D2
100
AcDbEntity
  8
ALPHA
100
AcDbVertex
100
AcDb2dVertex
 10
45.897329
 20
80.661814
 30
0.0
  0
SEQEND
  5
91D3
100
AcDbEntity
  8
ALPHA
  0
POLYLINE
  5
91D4
100
AcDbEntity
  8
ALPHA
100
AcDb2dPolyline
 66
     1
 10
0.0
 20
0.0
 30
0.0
  0
VERTEX
  5
91D5
100
AcDbEntity
  8
ALPHA
100
AcDbVertex
100
AcDb2dVertex
 10
45.897329
 20
80.661814
 30
0.0
  0
VERTEX
  5
91D6
100
AcDbEntity
  8
ALPHA
100
AcDbVertex
100
AcDb2dVertex
 10
46.222414
 20
80.646288
 30
0.0
  0
VERTEX
  5
91D7
100
AcDbEntity
  8
ALPHA
100
AcDbVertex
100
AcDb2dVertex
 10
46.538116
 20
80.60072
 30
0.0
  0
VERTEX
  5
91D8
100
AcDbEntity
  8
ALPHA
100
AcDbVertex
100
AcDb2dVertex
 10
46.842836
 20
80.526619
 30
0.0
  0
VERTEX
  5
91D9
100
AcDbEntity
  8
ALPHA
100
AcDbVertex
100
AcDb2dVertex
 10
47.134974
 20
80.425499
 30
0.0
  0
VERTEX
  5
91DA
100
AcDbEntity
  8
ALPHA
100
AcDbVertex
100
AcDb2dVertex
 10
47.412932
 20
80.298871
 30
0.0
  0
VERTEX
  5
91DB
100
AcDbEntity
  8
ALPHA
100
AcDbVertex
100
AcDb2dVertex
 10
47.675109
 20
80.148246
 30
0.0
  0
VERTEX
  5
91DC
100
AcDbEntity
  8
ALPHA
100
AcDbVertex
100
AcDb2dVertex
 10
47.919908
 20
79.975137
 30
0.0
  0
VERTEX
  5
91DD
100
AcDbEntity
  8
ALPHA
100
AcDbVertex
100
AcDb2dVertex
 10
48.145727
 20
79.781054
 30
0.0
  0
VERTEX
  5
91DE
100
AcDbEntity
  8
ALPHA
100
AcDbVertex
100
AcDb2dVertex
 10
48.35097
 20
79.56751
 30
0.0
  0
VERTEX
  5
91DF
100
AcDbEntity
  8
ALPHA
100
AcDbVertex
100
AcDb2dVertex
 10
48.534035
 20
79.336016
 30
0.0
  0
VERTEX
  5
91E0
100
AcDbEntity
  8
ALPHA
100
AcDbVertex
100
AcDb2dVertex
 10
48.693324
 20
79.088084
 30
0.0
  0
VERTEX
  5
91E1
100
AcDbEntity
  8
ALPHA
100
AcDbVertex
100
AcDb2dVertex
 10
48.827237
 20
78.825225
 30
0.0
  0
VERTEX
  5
91E2
100
AcDbEntity
  8
ALPHA
100
AcDbVertex
100
AcDb2dVertex
 10
48.934176
 20
78.548953
 30
0.0
  0
VERTEX
  5
91E3
100
AcDbEntity
  8
ALPHA
100
AcDbVertex
100
AcDb2dVertex
 10
49.012541
 20
78.260777
 30
0.0
  0
VERTEX
  5
91E4
100
AcDbEntity
  8
ALPHA
100
AcDbVertex
100
AcDb2dVertex
 10
49.060733
 20
77.962209
 30
0.0
  0
VERTEX
  5
91E5
100
AcDbEntity
  8
ALPHA
100
AcDbVertex
100
AcDb2dVertex
 10
49.077152
 20
77.654762
 30
0.0
  0
SEQEND
  5
91E6
100
AcDbEntity
  8
ALPHA
  0
POLYLINE
  5
91E7
100
AcDbEntity
  8
ALPHA
100
AcDb2dPolyline
 66
     1
 10
0.0
 20
0.0
 30
0.0
  0
VERTEX
  5
91E8
100
AcDbEntity
  8
ALPHA
100
AcDbVertex
100
AcDb2dVertex
 10
15.244936
 20
36.200617
 30
0.0
  0
VERTEX
  5
91E9
100
AcDbEntity
  8
ALPHA
100
AcDbVertex
100
AcDb2dVertex
 10
3.376582
 20
36.200617
 30
0.0
  0
SEQEND
  5
91EA
100
AcDbEntity
  8
ALPHA
  0
POLYLINE
  5
91EB
100
AcDbEntity
  8
ALPHA
100
AcDb2dPolyline
 66
     1
 10
0.0
 20
0.0
 30
0.0
  0
VERTEX
  5
91EC
100
AcDbEntity
  8
ALPHA
100
AcDbVertex
100
AcDb2dVertex
 10
3.376582
 20
36.200617
 30
0.0
  0
VERTEX
  5
91ED
100
AcDbEntity
  8
ALPHA
100
AcDbVertex
100
AcDb2dVertex
 10
3.147799
 20
36.211496
 30
0.0
  0
VERTEX
  5
91EE
100
AcDbEntity
  8
ALPHA
100
AcDbVertex
100
AcDb2dVertex
 10
2.925609
 20
36.243426
 30
0.0
  0
VERTEX
  5
91EF
100
AcDbEntity
  8
ALPHA
100
AcDbVertex
100
AcDb2dVertex
 10
2.71114
 20
36.295344
 30
0.0
  0
VERTEX
  5
91F0
100
AcDbEntity
  8
ALPHA
100
AcDbVertex
100
AcDb2dVertex
 10
2.505517
 20
36.366189
 30
0.0
  0
VERTEX
  5
91F1
100
AcDbEntity
  8
ALPHA
100
AcDbVertex
100
AcDb2dVertex
 10
2.309868
 20
36.4549
 30
0.0
  0
VERTEX
  5
91F2
100
AcDbEntity
  8
ALPHA
100
AcDbVertex
100
AcDb2dVertex
 10
2.12532
 20
36.560416
 30
0.0
  0
VERTEX
  5
91F3
100
AcDbEntity
  8
ALPHA
100
AcDbVertex
100
AcDb2dVertex
 10
1.953
 20
36.681673
 30
0.0
  0
VERTEX
  5
91F4
100
AcDbEntity
  8
ALPHA
100
AcDbVertex
100
AcDb2dVertex
 10
1.794035
 20
36.817612
 30
0.0
  0
VERTEX
  5
91F5
100
AcDbEntity
  8
ALPHA
100
AcDbVertex
100
AcDb2dVertex
 10
1.649551
 20
36.967171
 30
0.0
  0
VERTEX
  5
91F6
100
AcDbEntity
  8
ALPHA
100
AcDbVertex
100
AcDb2dVertex
 10
1.520675
 20
37.129288
 30
0.0
  0
VERTEX
  5
91F7
100
AcDbEntity
  8
ALPHA
100
AcDbVertex
100
AcDb2dVertex
 10
1.408535
 20
37.302901
 30
0.0
  0
VERTEX
  5
91F8
100
AcDbEntity
  8
ALPHA
100
AcDbVertex
100
AcDb2dVertex
 10
1.314257
 20
37.486949
 30
0.0
  0
VERTEX
  5
91F9
100
AcDbEntity
  8
ALPHA
100
AcDbVertex
100
AcDb2dVertex
 10
1.238968
 20
37.68037
 30
0.0
  0
VERTEX
  5
91FA
100
AcDbEntity
  8
ALPHA
100
AcDbVertex
100
AcDb2dVertex
 10
1.183795
 20
37.882104
 30
0.0
  0
VERTEX
  5
91FB
100
AcDbEntity
  8
ALPHA
100
AcDbVertex
100
AcDb2dVertex
 10
1.149864
 20
38.091087
 30
0.0
  0
VERTEX
  5
91FC
100
AcDbEntity
  8
ALPHA
100
AcDbVertex
100
AcDb2dVertex
 10
1.138304
 20
38.30626
 30
0.0
  0
SEQEND
  5
91FD
100
AcDbEntity
  8
ALPHA
  0
POLYLINE
  5
91FE
100
AcDbEntity
  8
ALPHA
100
AcDb2dPolyline
 66
     1
 10
0.0
 20
0.0
 30
0.0
  0
VERTEX
  5
91FF
100
AcDbEntity
  8
ALPHA
100
AcDbVertex
100
AcDb2dVertex
 10
1.138304
 20
38.30626
 30
0.0
  0
VERTEX
  5
9200
100
AcDbEntity
  8
ALPHA
100
AcDbVertex
100
AcDb2dVertex
 10
1.138304
 20
179.679715
 30
0.0
  0
SEQEND
  5
9201
100
AcDbEntity
  8
ALPHA
  0
POLYLINE
  5
9202
100
AcDbEntity
  8
ALPHA
100
AcDb2dPolyline
 66
     1
 10
0.0
 20
0.0
 30
0.0
  0
VERTEX
  5
9203
100
AcDbEntity
  8
ALPHA
100
AcDbVertex
100
AcDb2dVertex
 10
1.138304
 20
179.679715
 30
0.0
  0
VERTEX
  5
9204
100
AcDbEntity
  8
ALPHA
100
AcDbVertex
100
AcDb2dVertex
 10
1.149864
 20
179.895022
 30
0.0
  0
VERTEX
  5
9205
100
AcDbEntity
  8
ALPHA
100
AcDbVertex
100
AcDb2dVertex
 10
1.183795
 20
180.104089
 30
0.0
  0
VERTEX
  5
9206
100
AcDbEntity
  8
ALPHA
100
AcDbVertex
100
AcDb2dVertex
 10
1.238968
 20
180.305861
 30
0.0
  0
VERTEX
  5
9207
100
AcDbEntity
  8
ALPHA
100
AcDbVertex
100
AcDb2dVertex
 10
1.314257
 20
180.499282
 30
0.0
  0
VERTEX
  5
9208
100
AcDbEntity
  8
ALPHA
100
AcDbVertex
100
AcDb2dVertex
 10
1.408535
 20
180.683296
 30
0.0
  0
VERTEX
  5
9209
100
AcDbEntity
  8
ALPHA
100
AcDbVertex
100
AcDb2dVertex
 10
1.520675
 20
180.856848
 30
0.0
  0
VERTEX
  5
920A
100
AcDbEntity
  8
ALPHA
100
AcDbVertex
100
AcDb2dVertex
 10
1.649551
 20
181.018881
 30
0.0
  0
VERTEX
  5
920B
100
AcDbEntity
  8
ALPHA
100
AcDbVertex
100
AcDb2dVertex
 10
1.794035
 20
181.168341
 30
0.0
  0
VERTEX
  5
920C
100
AcDbEntity
  8
ALPHA
100
AcDbVertex
100
AcDb2dVertex
 10
1.953
 20
181.304171
 30
0.0
  0
VERTEX
  5
920D
100
AcDbEntity
  8
ALPHA
100
AcDbVertex
100
AcDb2dVertex
 10
2.12532
 20
181.425315
 30
0.0
  0
VERTEX
  5
920E
100
AcDbEntity
  8
ALPHA
100
AcDbVertex
100
AcDb2dVertex
 10
2.309868
 20
181.530719
 30
0.0
  0
VERTEX
  5
920F
100
AcDbEntity
  8
ALPHA
100
AcDbVertex
100
AcDb2dVertex
 10
2.505517
 20
181.619325
 30
0.0
  0
VERTEX
  5
9210
100
AcDbEntity
  8
ALPHA
100
AcDbVertex
100
AcDb2dVertex
 10
2.71114
 20
181.690079
 30
0.0
  0
VERTEX
  5
9211
100
AcDbEntity
  8
ALPHA
100
AcDbVertex
100
AcDb2dVertex
 10
2.925609
 20
181.741925
 30
0.0
  0
VERTEX
  5
9212
100
AcDbEntity
  8
ALPHA
100
AcDbVertex
100
AcDb2dVertex
 10
3.147799
 20
181.773806
 30
0.0
  0
VERTEX
  5
9213
100
AcDbEntity
  8
ALPHA
100
AcDbVertex
100
AcDb2dVertex
 10
3.376582
 20
181.784668
 30
0.0
  0
SEQEND
  5
9214
100
AcDbEntity
  8
ALPHA
  0
POLYLINE
  5
9215
100
AcDbEntity
  8
ALPHA
100
AcDb2dPolyline
 66
     1
 10
0.0
 20
0.0
 30
0.0
  0
VERTEX
  5
9216
100
AcDbEntity
  8
ALPHA
100
AcDbVertex
100
AcDb2dVertex
 10
3.376582
 20
181.784668
 30
0.0
  0
VERTEX
  5
9217
100
AcDbEntity
  8
ALPHA
100
AcDbVertex
100
AcDb2dVertex
 10
46.661796
 20
181.784668
 30
0.0
  0
SEQEND
  5
9218
100
AcDbEntity
  8
ALPHA
  0
POLYLINE
  5
9219
100
AcDbEntity
  8
ALPHA
100
AcDb2dPolyline
 66
     1
 10
0.0
 20
0.0
 30
0.0
  0
VERTEX
  5
921A
100
AcDbEntity
  8
ALPHA
100
AcDbVertex
100
AcDb2dVertex
 10
46.661796
 20
181.784668
 30
0.0
  0
VERTEX
  5
921B
100
AcDbEntity
  8
ALPHA
100
AcDbVertex
100
AcDb2dVertex
 10
46.890503
 20
181.773806
 30
0.0
  0
VERTEX
  5
921C
100
AcDbEntity
  8
ALPHA
100
AcDbVertex
100
AcDb2dVertex
 10
47.112596
 20
181.741925
 30
0.0
  0
VERTEX
  5
921D
100
AcDbEntity
  8
ALPHA
100
AcDbVertex
100
AcDb2dVertex
 10
47.326952
 20
181.690079
 30
0.0
  0
VERTEX
  5
921E
100
AcDbEntity
  8
ALPHA
100
AcDbVertex
100
AcDb2dVertex
 10
47.532447
 20
181.619325
 30
0.0
  0
VERTEX
  5
921F
100
AcDbEntity
  8
ALPHA
100
AcDbVertex
100
AcDb2dVertex
 10
47.727958
 20
181.530719
 30
0.0
  0
VERTEX
  5
9220
100
AcDbEntity
  8
ALPHA
100
AcDbVertex
100
AcDb2dVertex
 10
47.912361
 20
181.425315
 30
0.0
  0
VERTEX
  5
9221
100
AcDbEntity
  8
ALPHA
100
AcDbVertex
100
AcDb2dVertex
 10
48.084534
 20
181.304171
 30
0.0
  0
VERTEX
  5
9222
100
AcDbEntity
  8
ALPHA
100
AcDbVertex
100
AcDb2dVertex
 10
48.243353
 20
181.168341
 30
0.0
  0
VERTEX
  5
9223
100
AcDbEntity
  8
ALPHA
100
AcDbVertex
100
AcDb2dVertex
 10
48.387694
 20
181.018881
 30
0.0
  0
VERTEX
  5
9224
100
AcDbEntity
  8
ALPHA
100
AcDbVertex
100
AcDb2dVertex
 10
48.516434
 20
180.856848
 30
0.0
  0
VERTEX
  5
9225
100
AcDbEntity
  8
ALPHA
100
AcDbVertex
100
AcDb2dVertex
 10
48.628451
 20
180.683296
 30
0.0
  0
VERTEX
  5
9226
100
AcDbEntity
  8
ALPHA
100
AcDbVertex
100
AcDb2dVertex
 10
48.722619
 20
180.499282
 30
0.0
  0
VERTEX
  5
9227
100
AcDbEntity
  8
ALPHA
100
AcDbVertex
100
AcDb2dVertex
 10
48.797817
 20
180.305861
 30
0.0
  0
VERTEX
  5
9228
100
AcDbEntity
  8
ALPHA
100
AcDbVertex
100
AcDb2dVertex
 10
48.852921
 20
180.104089
 30
0.0
  0
VERTEX
  5
9229
100
AcDbEntity
  8
ALPHA
100
AcDbVertex
100
AcDb2dVertex
 10
48.886807
 20
179.895022
 30
0.0
  0
VERTEX
  5
922A
100
AcDbEntity
  8
ALPHA
100
AcDbVertex
100
AcDb2dVertex
 10
48.898352
 20
179.679715
 30
0.0
  0
SEQEND
  5
922B
100
AcDbEntity
  8
ALPHA
  0
POLYLINE
  5
922C
100
AcDbEntity
  8
ALPHA
100
AcDb2dPolyline
 66
     1
 10
0.0
 20
0.0
 30
0.0
  0
VERTEX
  5
922D
100
AcDbEntity
  8
ALPHA
100
AcDbVertex
100
AcDb2dVertex
 10
48.898352
 20
179.679715
 30
0.0
  0
VERTEX
  5
922E
100
AcDbEntity
  8
ALPHA
100
AcDbVertex
100
AcDb2dVertex
 10
48.898352
 20
38.30626
 30
0.0
  0
SEQEND
  5
922F
100
AcDbEntity
  8
ALPHA
  0
POLYLINE
  5
9230
100
AcDbEntity
  8
ALPHA
100
AcDb2dPolyline
 66
     1
 10
0.0
 20
0.0
 30
0.0
  0
VERTEX
  5
9231
100
AcDbEntity
  8
ALPHA
100
AcDbVertex
100
AcDb2dVertex
 10
48.898352
 20
38.30626
 30
0.0
  0
VERTEX
  5
9232
100
AcDbEntity
  8
ALPHA
100
AcDbVertex
100
AcDb2dVertex
 10
48.886807
 20
38.091087
 30
0.0
  0
VERTEX
  5
9233
100
AcDbEntity
  8
ALPHA
100
AcDbVertex
100
AcDb2dVertex
 10
48.852921
 20
37.882104
 30
0.0
  0
VERTEX
  5
9234
100
AcDbEntity
  8
ALPHA
100
AcDbVertex
100
AcDb2dVertex
 10
48.797817
 20
37.68037
 30
0.0
  0
VERTEX
  5
9235
100
AcDbEntity
  8
ALPHA
100
AcDbVertex
100
AcDb2dVertex
 10
48.722619
 20
37.486949
 30
0.0
  0
VERTEX
  5
9236
100
AcDbEntity
  8
ALPHA
100
AcDbVertex
100
AcDb2dVertex
 10
48.628451
 20
37.302901
 30
0.0
  0
VERTEX
  5
9237
100
AcDbEntity
  8
ALPHA
100
AcDbVertex
100
AcDb2dVertex
 10
48.516434
 20
37.129288
 30
0.0
  0
VERTEX
  5
9238
100
AcDbEntity
  8
ALPHA
100
AcDbVertex
100
AcDb2dVertex
 10
48.387694
 20
36.967171
 30
0.0
  0
VERTEX
  5
9239
100
AcDbEntity
  8
ALPHA
100
AcDbVertex
100
AcDb2dVertex
 10
48.243353
 20
36.817612
 30
0.0
  0
VERTEX
  5
923A
100
AcDbEntity
  8
ALPHA
100
AcDbVertex
100
AcDb2dVertex
 10
48.084534
 20
36.681673
 30
0.0
  0
VERTEX
  5
923B
100
AcDbEntity
  8
ALPHA
100
AcDbVertex
100
AcDb2dVertex
 10
47.912361
 20
36.560416
 30
0.0
  0
VERTEX
  5
923C
100
AcDbEntity
  8
ALPHA
100
AcDbVertex
100
AcDb2dVertex
 10
47.727958
 20
36.4549
 30
0.0
  0
VERTEX
  5
923D
100
AcDbEntity
  8
ALPHA
100
AcDbVertex
100
AcDb2dVertex
 10
47.532447
 20
36.366189
 30
0.0
  0
VERTEX
  5
923E
100
AcDbEntity
  8
ALPHA
100
AcDbVertex
100
AcDb2dVertex
 10
47.326952
 20
36.295344
 30
0.0
  0
VERTEX
  5
923F
100
AcDbEntity
  8
ALPHA
100
AcDbVertex
100
AcDb2dVertex
 10
47.112596
 20
36.243426
 30
0.0
  0
VERTEX
  5
9240
100
AcDbEntity
  8
ALPHA
100
AcDbVertex
100
AcDb2dVertex
 10
46.890503
 20
36.211496
 30
0.0
  0
VERTEX
  5
9241
100
AcDbEntity
  8
ALPHA
100
AcDbVertex
100
AcDb2dVertex
 10
46.661796
 20
36.200617
 30
0.0
  0
SEQEND
  5
9242
100
AcDbEntity
  8
ALPHA
  0
POLYLINE
  5
9243
100
AcDbEntity
  8
ALPHA
100
AcDb2dPolyline
 66
     1
 10
0.0
 20
0.0
 30
0.0
  0
VERTEX
  5
9244
100
AcDbEntity
  8
ALPHA
100
AcDbVertex
100
AcDb2dVertex
 10
46.661796
 20
36.200617
 30
0.0
  0
VERTEX
  5
9245
100
AcDbEntity
  8
ALPHA
100
AcDbVertex
100
AcDb2dVertex
 10
35.027019
 20
36.200617
 30
0.0
  0
SEQEND
  5
9246
100
AcDbEntity
  8
ALPHA
  0
POLYLINE
  5
9247
100
AcDbEntity
  8
ALPHA
100
AcDb2dPolyline
 66
     1
 10
0.0
 20
0.0
 30
0.0
  0
VERTEX
  5
9248
100
AcDbEntity
  8
ALPHA
100
AcDbVertex
100
AcDb2dVertex
 10
30.363738
 20
90.984354
 30
0.0
  0
VERTEX
  5
9249
100
AcDbEntity
  8
ALPHA
100
AcDbVertex
100
AcDb2dVertex
 10
48.32371
 20
90.984354
 30
0.0
  0
SEQEND
  5
924A
100
AcDbEntity
  8
ALPHA
  0
POLYLINE
  5
924B
100
AcDbEntity
  8
ALPHA
100
AcDb2dPolyline
 66
     1
 10
0.0
 20
0.0
 30
0.0
  0
VERTEX
  5
924C
100
AcDbEntity
  8
ALPHA
100
AcDbVertex
100
AcDb2dVertex
 10
48.32371
 20
90.984354
 30
0.0
  0
VERTEX
  5
924D
100
AcDbEntity
  8
ALPHA
100
AcDbVertex
100
AcDb2dVertex
 10
48.32371
 20
82.325278
 30
0.0
  0
SEQEND
  5
924E
100
AcDbEntity
  8
ALPHA
  0
POLYLINE
  5
924F
100
AcDbEntity
  8
ALPHA
100
AcDb2dPolyline
 66
     1
 10
0.0
 20
0.0
 30
0.0
  0
VERTEX
  5
9250
100
AcDbEntity
  8
ALPHA
100
AcDbVertex
100
AcDb2dVertex
 10
48.32371
 20
82.325278
 30
0.0
  0
VERTEX
  5
9251
100
AcDbEntity
  8
ALPHA
100
AcDbVertex
100
AcDb2dVertex
 10
30.363738
 20
82.325278
 30
0.0
  0
SEQEND
  5
9252
100
AcDbEntity
  8
ALPHA
  0
POLYLINE
  5
9253
100
AcDbEntity
  8
ALPHA
100
AcDb2dPolyline
 66
     1
 10
0.0
 20
0.0
 30
0.0
  0
VERTEX
  5
9254
100
AcDbEntity
  8
ALPHA
100
AcDbVertex
100
AcDb2dVertex
 10
30.363738
 20
82.325278
 30
0.0
  0
VERTEX
  5
9255
100
AcDbEntity
  8
ALPHA
100
AcDbVertex
100
AcDb2dVertex
 10
30.363738
 20
90.984354
 30
0.0
  0
SEQEND
  5
9256
100
AcDbEntity
  8
ALPHA
  0
POLYLINE
  5
9257
100
AcDbEntity
  8
ALPHA
100
AcDb2dPolyline
 66
     1
 10
0.0
 20
0.0
 30
0.0
  0
VERTEX
  5
9258
100
AcDbEntity
  8
ALPHA
100
AcDbVertex
100
AcDb2dVertex
 10
1.779781
 20
82.324417
 30
0.0
  0
VERTEX
  5
9259
100
AcDbEntity
  8
ALPHA
100
AcDbVertex
100
AcDb2dVertex
 10
19.737685
 20
82.324417
 30
0.0
  0
SEQEND
  5
925A
100
AcDbEntity
  8
ALPHA
  0
POLYLINE
  5
925B
100
AcDbEntity
  8
ALPHA
100
AcDb2dPolyline
 66
     1
 10
0.0
 20
0.0
 30
0.0
  0
VERTEX
  5
925C
100
AcDbEntity
  8
ALPHA
100
AcDbVertex
100
AcDb2dVertex
 10
19.737685
 20
82.324417
 30
0.0
  0
VERTEX
  5
925D
100
AcDbEntity
  8
ALPHA
100
AcDbVertex
100
AcDb2dVertex
 10
19.737685
 20
90.983492
 30
0.0
  0
SEQEND
  5
925E
100
AcDbEntity
  8
ALPHA
  0
POLYLINE
  5
925F
100
AcDbEntity
  8
ALPHA
100
AcDb2dPolyline
 66
     1
 10
0.0
 20
0.0
 30
0.0
  0
VERTEX
  5
9260
100
AcDbEntity
  8
ALPHA
100
AcDbVertex
100
AcDb2dVertex
 10
19.737685
 20
90.983492
 30
0.0
  0
VERTEX
  5
9261
100
AcDbEntity
  8
ALPHA
100
AcDbVertex
100
AcDb2dVertex
 10
1.779781
 20
90.983492
 30
0.0
  0
SEQEND
  5
9262
100
AcDbEntity
  8
ALPHA
  0
POLYLINE
  5
9263
100
AcDbEntity
  8
ALPHA
100
AcDb2dPolyline
 66
     1
 10
0.0
 20
0.0
 30
0.0
  0
VERTEX
  5
9264
100
AcDbEntity
  8
ALPHA
100
AcDbVertex
100
AcDb2dVertex
 10
1.779781
 20
90.983492
 30
0.0
  0
VERTEX
  5
9265
100
AcDbEntity
  8
ALPHA
100
AcDbVertex
100
AcDb2dVertex
 10
1.779781
 20
82.324417
 30
0.0
  0
SEQEND
  5
9266
100
AcDbEntity
  8
ALPHA
  0
POLYLINE
  5
9267
100
AcDbEntity
  8
ALPHA
100
AcDb2dPolyline
 66
     1
 10
0.0
 20
0.0
 30
0.0
  0
VERTEX
  5
9268
100
AcDbEntity
  8
ALPHA
100
AcDbVertex
100
AcDb2dVertex
 10
30.363738
 20
115.162378
 30
0.0
  0
VERTEX
  5
9269
100
AcDbEntity
  8
ALPHA
100
AcDbVertex
100
AcDb2dVertex
 10
48.32371
 20
115.162378
 30
0.0
  0
SEQEND
  5
926A
100
AcDbEntity
  8
ALPHA
  0
POLYLINE
  5
926B
100
AcDbEntity
  8
ALPHA
100
AcDb2dPolyline
 66
     1
 10
0.0
 20
0.0
 30
0.0
  0
VERTEX
  5
926C
100
AcDbEntity
  8
ALPHA
100
AcDbVertex
100
AcDb2dVertex
 10
48.32371
 20
115.162378
 30
0.0
  0
VERTEX
  5
926D
100
AcDbEntity
  8
ALPHA
100
AcDbVertex
100
AcDb2dVertex
 10
48.32371
 20
106.266108
 30
0.0
  0
SEQEND
  5
926E
100
AcDbEntity
  8
ALPHA
  0
POLYLINE
  5
926F
100
AcDbEntity
  8
ALPHA
100
AcDb2dPolyline
 66
     1
 10
0.0
 20
0.0
 30
0.0
  0
VERTEX
  5
9270
100
AcDbEntity
  8
ALPHA
100
AcDbVertex
100
AcDb2dVertex
 10
48.32371
 20
106.266108
 30
0.0
  0
VERTEX
  5
9271
100
AcDbEntity
  8
ALPHA
100
AcDbVertex
100
AcDb2dVertex
 10
30.363738
 20
106.266108
 30
0.0
  0
SEQEND
  5
9272
100
AcDbEntity
  8
ALPHA
  0
POLYLINE
  5
9273
100
AcDbEntity
  8
ALPHA
100
AcDb2dPolyline
 66
     1
 10
0.0
 20
0.0
 30
0.0
  0
VERTEX
  5
9274
100
AcDbEntity
  8
ALPHA
100
AcDbVertex
100
AcDb2dVertex
 10
30.363738
 20
106.266108
 30
0.0
  0
VERTEX
  5
9275
100
AcDbEntity
  8
ALPHA
100
AcDbVertex
100
AcDb2dVertex
 10
30.363738
 20
115.162378
 30
0.0
  0
SEQEND
  5
9276
100
AcDbEntity
  8
ALPHA
  0
POLYLINE
  5
9277
100
AcDbEntity
  8
ALPHA
100
AcDb2dPolyline
 66
     1
 10
0.0
 20
0.0
 30
0.0
  0
VERTEX
  5
9278
100
AcDbEntity
  8
ALPHA
100
AcDbVertex
100
AcDb2dVertex
 10
1.779781
 20
106.266108
 30
0.0
  0
VERTEX
  5
9279
100
AcDbEntity
  8
ALPHA
100
AcDbVertex
100
AcDb2dVertex
 10
19.737685
 20
106.266108
 30
0.0
  0
SEQEND
  5
927A
100
AcDbEntity
  8
ALPHA
  0
POLYLINE
  5
927B
100
AcDbEntity
  8
ALPHA
100
AcDb2dPolyline
 66
     1
 10
0.0
 20
0.0
 30
0.0
  0
VERTEX
  5
927C
100
AcDbEntity
  8
ALPHA
100
AcDbVertex
100
AcDb2dVertex
 10
19.737685
 20
106.266108
 30
0.0
  0
VERTEX
  5
927D
100
AcDbEntity
  8
ALPHA
100
AcDbVertex
100
AcDb2dVertex
 10
19.737685
 20
115.162378
 30
0.0
  0
SEQEND
  5
927E
100
AcDbEntity
  8
ALPHA
  0
POLYLINE
  5
927F
100
AcDbEntity
  8
ALPHA
100
AcDb2dPolyline
 66
     1
 10
0.0
 20
0.0
 30
0.0
  0
VERTEX
  5
9280
100
AcDbEntity
  8
ALPHA
100
AcDbVertex
100
AcDb2dVertex
 10
19.737685
 20
115.162378
 30
0.0
  0
VERTEX
  5
9281
100
AcDbEntity
  8
ALPHA
100
AcDbVertex
100
AcDb2dVertex
 10
1.779781
 20
115.162378
 30
0.0
  0
SEQEND
  5
9282
100
AcDbEntity
  8
ALPHA
  0
POLYLINE
  5
9283
100
AcDbEntity
  8
ALPHA
100
AcDb2dPolyline
 66
     1
 10
0.0
 20
0.0
 30
0.0
  0
VERTEX
  5
9284
100
AcDbEntity
  8
ALPHA
100
AcDbVertex
100
AcDb2dVertex
 10
1.779781
 20
115.162378
 30
0.0
  0
VERTEX
  5
9285
100
AcDbEntity
  8
ALPHA
100
AcDbVertex
100
AcDb2dVertex
 10
1.779781
 20
106.266108
 30
0.0
  0
SEQEND
  5
9286
100
AcDbEntity
  8
ALPHA
  0
POLYLINE
  5
9287
100
AcDbEntity
  8
ALPHA
100
AcDb2dPolyline
 66
     1
 10
0.0
 20
0.0
 30
0.0
  0
VERTEX
  5
9288
100
AcDbEntity
  8
ALPHA
100
AcDbVertex
100
AcDb2dVertex
 10
30.363738
 20
139.340231
 30
0.0
  0
VERTEX
  5
9289
100
AcDbEntity
  8
ALPHA
100
AcDbVertex
100
AcDb2dVertex
 10
48.32371
 20
139.340231
 30
0.0
  0
SEQEND
  5
928A
100
AcDbEntity
  8
ALPHA
  0
POLYLINE
  5
928B
100
AcDbEntity
  8
ALPHA
100
AcDb2dPolyline
 66
     1
 10
0.0
 20
0.0
 30
0.0
  0
VERTEX
  5
928C
100
AcDbEntity
  8
ALPHA
100
AcDbVertex
100
AcDb2dVertex
 10
48.32371
 20
139.340231
 30
0.0
  0
VERTEX
  5
928D
100
AcDbEntity
  8
ALPHA
100
AcDbVertex
100
AcDb2dVertex
 10
48.32371
 20
130.444133
 30
0.0
  0
SEQEND
  5
928E
100
AcDbEntity
  8
ALPHA
  0
POLYLINE
  5
928F
100
AcDbEntity
  8
ALPHA
100
AcDb2dPolyline
 66
     1
 10
0.0
 20
0.0
 30
0.0
  0
VERTEX
  5
9290
100
AcDbEntity
  8
ALPHA
100
AcDbVertex
100
AcDb2dVertex
 10
48.32371
 20
130.444133
 30
0.0
  0
VERTEX
  5
9291
100
AcDbEntity
  8
ALPHA
100
AcDbVertex
100
AcDb2dVertex
 10
30.363738
 20
130.444133
 30
0.0
  0
SEQEND
  5
9292
100
AcDbEntity
  8
ALPHA
  0
POLYLINE
  5
9293
100
AcDbEntity
  8
ALPHA
100
AcDb2dPolyline
 66
     1
 10
0.0
 20
0.0
 30
0.0
  0
VERTEX
  5
9294
100
AcDbEntity
  8
ALPHA
100
AcDbVertex
100
AcDb2dVertex
 10
30.363738
 20
130.444133
 30
0.0
  0
VERTEX
  5
9295
100
AcDbEntity
  8
ALPHA
100
AcDbVertex
100
AcDb2dVertex
 10
30.363738
 20
139.340231
 30
0.0
  0
SEQEND
  5
9296
100
AcDbEntity
  8
ALPHA
  0
POLYLINE
  5
9297
100
AcDbEntity
  8
ALPHA
100
AcDb2dPolyline
 66
     1
 10
0.0
 20
0.0
 30
0.0
  0
VERTEX
  5
9298
100
AcDbEntity
  8
ALPHA
100
AcDbVertex
100
AcDb2dVertex
 10
1.779781
 20
130.444133
 30
0.0
  0
VERTEX
  5
9299
100
AcDbEntity
  8
ALPHA
100
AcDbVertex
100
AcDb2dVertex
 10
19.737685
 20
130.444133
 30
0.0
  0
SEQEND
  5
929A
100
AcDbEntity
  8
ALPHA
  0
POLYLINE
  5
929B
100
AcDbEntity
  8
ALPHA
100
AcDb2dPolyline
 66
     1
 10
0.0
 20
0.0
 30
0.0
  0
VERTEX
  5
929C
100
AcDbEntity
  8
ALPHA
100
AcDbVertex
100
AcDb2dVertex
 10
19.737685
 20
130.444133
 30
0.0
  0
VERTEX
  5
929D
100
AcDbEntity
  8
ALPHA
100
AcDbVertex
100
AcDb2dVertex
 10
19.737685
 20
139.340231
 30
0.0
  0
SEQEND
  5
929E
100
AcDbEntity
  8
ALPHA
  0
POLYLINE
  5
929F
100
AcDbEntity
  8
ALPHA
100
AcDb2dPolyline
 66
     1
 10
0.0
 20
0.0
 30
0.0
  0
VERTEX
  5
92A0
100
AcDbEntity
  8
ALPHA
100
AcDbVertex
100
AcDb2dVertex
 10
19.737685
 20
139.340231
 30
0.0
  0
VERTEX
  5
92A1
100
AcDbEntity
  8
ALPHA
100
AcDbVertex
100
AcDb2dVertex
 10
1.779781
 20
139.340231
 30
0.0
  0
SEQEND
  5
92A2
100
AcDbEntity
  8
ALPHA
  0
POLYLINE
  5
92A3
100
AcDbEntity
  8
ALPHA
100
AcDb2dPolyline
 66
     1
 10
0.0
 20
0.0
 30
0.0
  0
VERTEX
  5
92A4
100
AcDbEntity
  8
ALPHA
100
AcDbVertex
100
AcDb2dVertex
 10
1.779781
 20
139.340231
 30
0.0
  0
VERTEX
  5
92A5
100
AcDbEntity
  8
ALPHA
100
AcDbVertex
100
AcDb2dVertex
 10
1.779781
 20
130.444133
 30
0.0
  0
SEQEND
  5
92A6
100
AcDbEntity
  8
ALPHA
  0
POLYLINE
  5
92A7
100
AcDbEntity
  8
ALPHA
100
AcDb2dPolyline
 66
     1
 10
0.0
 20
0.0
 30
0.0
  0
VERTEX
  5
92A8
100
AcDbEntity
  8
ALPHA
100
AcDbVertex
100
AcDb2dVertex
 10
30.363738
 20
163.519978
 30
0.0
  0
VERTEX
  5
92A9
100
AcDbEntity
  8
ALPHA
100
AcDbVertex
100
AcDb2dVertex
 10
48.32371
 20
163.519978
 30
0.0
  0
SEQEND
  5
92AA
100
AcDbEntity
  8
ALPHA
  0
POLYLINE
  5
92AB
100
AcDbEntity
  8
ALPHA
100
AcDb2dPolyline
 66
     1
 10
0.0
 20
0.0
 30
0.0
  0
VERTEX
  5
92AC
100
AcDbEntity
  8
ALPHA
100
AcDbVertex
100
AcDb2dVertex
 10
48.32371
 20
163.519978
 30
0.0
  0
VERTEX
  5
92AD
100
AcDbEntity
  8
ALPHA
100
AcDbVertex
100
AcDb2dVertex
 10
48.32371
 20
154.622502
 30
0.0
  0
SEQEND
  5
92AE
100
AcDbEntity
  8
ALPHA
  0
POLYLINE
  5
92AF
100
AcDbEntity
  8
ALPHA
100
AcDb2dPolyline
 66
     1
 10
0.0
 20
0.0
 30
0.0
  0
VERTEX
  5
92B0
100
AcDbEntity
  8
ALPHA
100
AcDbVertex
100
AcDb2dVertex
 10
48.32371
 20
154.622502
 30
0.0
  0
VERTEX
  5
92B1
100
AcDbEntity
  8
ALPHA
100
AcDbVertex
100
AcDb2dVertex
 10
30.363738
 20
154.622502
 30
0.0
  0
SEQEND
  5
92B2
100
AcDbEntity
  8
ALPHA
  0
POLYLINE
  5
92B3
100
AcDbEntity
  8
ALPHA
100
AcDb2dPolyline
 66
     1
 10
0.0
 20
0.0
 30
0.0
  0
VERTEX
  5
92B4
100
AcDbEntity
  8
ALPHA
100
AcDbVertex
100
AcDb2dVertex
 10
30.363738
 20
154.622502
 30
0.0
  0
VERTEX
  5
92B5
100
AcDbEntity
  8
ALPHA
100
AcDbVertex
100
AcDb2dVertex
 10
30.363738
 20
163.519978
 30
0.0
  0
SEQEND
  5
92B6
100
AcDbEntity
  8
ALPHA
  0
POLYLINE
  5
92B7
100
AcDbEntity
  8
ALPHA
100
AcDb2dPolyline
 66
     1
 10
0.0
 20
0.0
 30
0.0
  0
VERTEX
  5
92B8
100
AcDbEntity
  8
ALPHA
100
AcDbVertex
100
AcDb2dVertex
 10
1.779781
 20
154.622502
 30
0.0
  0
VERTEX
  5
92B9
100
AcDbEntity
  8
ALPHA
100
AcDbVertex
100
AcDb2dVertex
 10
19.737685
 20
154.622502
 30
0.0
  0
SEQEND
  5
92BA
100
AcDbEntity
  8
ALPHA
  0
POLYLINE
  5
92BB
100
AcDbEntity
  8
ALPHA
100
AcDb2dPolyline
 66
     1
 10
0.0
 20
0.0
 30
0.0
  0
VERTEX
  5
92BC
100
AcDbEntity
  8
ALPHA
100
AcDbVertex
100
AcDb2dVertex
 10
19.737685
 20
154.622502
 30
0.0
  0
VERTEX
  5
92BD
100
AcDbEntity
  8
ALPHA
100
AcDbVertex
100
AcDb2dVertex
 10
19.737685
 20
163.519978
 30
0.0
  0
SEQEND
  5
92BE
100
AcDbEntity
  8
ALPHA
  0
POLYLINE
  5
92BF
100
AcDbEntity
  8
ALPHA
100
AcDb2dPolyline
 66
     1
 10
0.0
 20
0.0
 30
0.0
  0
VERTEX
  5
92C0
100
AcDbEntity
  8
ALPHA
100
AcDbVertex
100
AcDb2dVertex
 10
19.737685
 20
163.519978
 30
0.0
  0
VERTEX
  5
92C1
100
AcDbEntity
  8
ALPHA
100
AcDbVertex
100
AcDb2dVertex
 10
1.779781
 20
163.519978
 30
0.0
  0
SEQEND
  5
92C2
100
AcDbEntity
  8
ALPHA
  0
POLYLINE
  5
92C3
100
AcDbEntity
  8
ALPHA
100
AcDb2dPolyline
 66
     1
 10
0.0
 20
0.0
 30
0.0
  0
VERTEX
  5
92C4
100
AcDbEntity
  8
ALPHA
100
AcDbVertex
100
AcDb2dVertex
 10
1.779781
 20
163.519978
 30
0.0
  0
VERTEX
  5
92C5
100
AcDbEntity
  8
ALPHA
100
AcDbVertex
100
AcDb2dVertex
 10
1.779781
 20
154.622502
 30
0.0
  0
SEQEND
  5
92C6
100
AcDbEntity
  8
ALPHA
  0
POLYLINE
  5
92C7
100
AcDbEntity
  8
ALPHA
100
AcDb2dPolyline
 66
     1
 10
0.0
 20
0.0
 30
0.0
  0
VERTEX
  5
92C8
100
AcDbEntity
  8
ALPHA
100
AcDbVertex
100
AcDb2dVertex
 10
13.772158
 20
34.433628
 30
0.0
  0
VERTEX
  5
92C9
100
AcDbEntity
  8
ALPHA
100
AcDbVertex
100
AcDb2dVertex
 10
2.273463
 20
34.433628
 30
0.0
  0
SEQEND
  5
92CA
100
AcDbEntity
  8
ALPHA
  0
POLYLINE
  5
92CB
100
AcDbEntity
  8
ALPHA
100
AcDb2dPolyline
 66
     1
 10
0.0
 20
0.0
 30
0.0
  0
VERTEX
  5
92CC
100
AcDbEntity
  8
ALPHA
100
AcDbVertex
100
AcDb2dVertex
 10
2.273463
 20
34.433628
 30
0.0
  0
VERTEX
  5
92CD
100
AcDbEntity
  8
ALPHA
100
AcDbVertex
100
AcDb2dVertex
 10
2.032649
 20
34.445066
 30
0.0
  0
VERTEX
  5
92CE
100
AcDbEntity
  8
ALPHA
100
AcDbVertex
100
AcDb2dVertex
 10
1.798822
 20
34.478637
 30
0.0
  0
VERTEX
  5
92CF
100
AcDbEntity
  8
ALPHA
100
AcDbVertex
100
AcDb2dVertex
 10
1.573159
 20
34.533228
 30
0.0
  0
VERTEX
  5
92D0
100
AcDbEntity
  8
ALPHA
100
AcDbVertex
100
AcDb2dVertex
 10
1.356841
 20
34.607726
 30
0.0
  0
VERTEX
  5
92D1
100
AcDbEntity
  8
ALPHA
100
AcDbVertex
100
AcDb2dVertex
 10
1.151049
 20
34.701019
 30
0.0
  0
VERTEX
  5
92D2
100
AcDbEntity
  8
ALPHA
100
AcDbVertex
100
AcDb2dVertex
 10
0.956961
 20
34.811993
 30
0.0
  0
VERTEX
  5
92D3
100
AcDbEntity
  8
ALPHA
100
AcDbVertex
100
AcDb2dVertex
 10
0.775759
 20
34.939536
 30
0.0
  0
VERTEX
  5
92D4
100
AcDbEntity
  8
ALPHA
100
AcDbVertex
100
AcDb2dVertex
 10
0.60862
 20
35.082533
 30
0.0
  0
VERTEX
  5
92D5
100
AcDbEntity
  8
ALPHA
100
AcDbVertex
100
AcDb2dVertex
 10
0.456727
 20
35.239873
 30
0.0
  0
VERTEX
  5
92D6
100
AcDbEntity
  8
ALPHA
100
AcDbVertex
100
AcDb2dVertex
 10
0.321258
 20
35.410442
 30
0.0
  0
VERTEX
  5
92D7
100
AcDbEntity
  8
ALPHA
100
AcDbVertex
100
AcDb2dVertex
 10
0.203393
 20
35.593127
 30
0.0
  0
VERTEX
  5
92D8
100
AcDbEntity
  8
ALPHA
100
AcDbVertex
100
AcDb2dVertex
 10
0.104312
 20
35.786816
 30
0.0
  0
VERTEX
  5
92D9
100
AcDbEntity
  8
ALPHA
100
AcDbVertex
100
AcDb2dVertex
 10
0.025196
 20
35.990394
 30
0.0
  0
VERTEX
  5
92DA
100
AcDbEntity
  8
ALPHA
100
AcDbVertex
100
AcDb2dVertex
 10
-0.032777
 20
36.20275
 30
0.0
  0
VERTEX
  5
92DB
100
AcDbEntity
  8
ALPHA
100
AcDbVertex
100
AcDb2dVertex
 10
-0.068426
 20
36.42277
 30
0.0
  0
VERTEX
  5
92DC
100
AcDbEntity
  8
ALPHA
100
AcDbVertex
100
AcDb2dVertex
 10
-0.080571
 20
36.649341
 30
0.0
  0
SEQEND
  5
92DD
100
AcDbEntity
  8
ALPHA
  0
POLYLINE
  5
92DE
100
AcDbEntity
  8
ALPHA
100
AcDb2dPolyline
 66
     1
 10
0.0
 20
0.0
 30
0.0
  0
VERTEX
  5
92DF
100
AcDbEntity
  8
ALPHA
100
AcDbVertex
100
AcDb2dVertex
 10
-0.080571
 20
36.649341
 30
0.0
  0
VERTEX
  5
92E0
100
AcDbEntity
  8
ALPHA
100
AcDbVertex
100
AcDb2dVertex
 10
-0.080571
 20
181.417766
 30
0.0
  0
SEQEND
  5
92E1
100
AcDbEntity
  8
ALPHA
  0
POLYLINE
  5
92E2
100
AcDbEntity
  8
ALPHA
100
AcDb2dPolyline
 66
     1
 10
0.0
 20
0.0
 30
0.0
  0
VERTEX
  5
92E3
100
AcDbEntity
  8
ALPHA
100
AcDbVertex
100
AcDb2dVertex
 10
-0.080571
 20
181.417766
 30
0.0
  0
VERTEX
  5
92E4
100
AcDbEntity
  8
ALPHA
100
AcDbVertex
100
AcDb2dVertex
 10
-0.068426
 20
181.644282
 30
0.0
  0
VERTEX
  5
92E5
100
AcDbEntity
  8
ALPHA
100
AcDbVertex
100
AcDb2dVertex
 10
-0.032777
 20
181.864265
 30
0.0
  0
VERTEX
  5
92E6
100
AcDbEntity
  8
ALPHA
100
AcDbVertex
100
AcDb2dVertex
 10
0.025196
 20
182.0766
 30
0.0
  0
VERTEX
  5
92E7
100
AcDbEntity
  8
ALPHA
100
AcDbVertex
100
AcDb2dVertex
 10
0.104312
 20
182.280173
 30
0.0
  0
VERTEX
  5
92E8
100
AcDbEntity
  8
ALPHA
100
AcDbVertex
100
AcDb2dVertex
 10
0.203393
 20
182.473867
 30
0.0
  0
VERTEX
  5
92E9
100
AcDbEntity
  8
ALPHA
100
AcDbVertex
100
AcDb2dVertex
 10
0.321258
 20
182.656568
 30
0.0
  0
VERTEX
  5
92EA
100
AcDbEntity
  8
ALPHA
100
AcDbVertex
100
AcDb2dVertex
 10
0.456727
 20
182.827161
 30
0.0
  0
VERTEX
  5
92EB
100
AcDbEntity
  8
ALPHA
100
AcDbVertex
100
AcDb2dVertex
 10
0.60862
 20
182.98453
 30
0.0
  0
VERTEX
  5
92EC
100
AcDbEntity
  8
ALPHA
100
AcDbVertex
100
AcDb2dVertex
 10
0.775759
 20
183.127562
 30
0.0
  0
VERTEX
  5
92ED
100
AcDbEntity
  8
ALPHA
100
AcDbVertex
100
AcDb2dVertex
 10
0.956961
 20
183.25514
 30
0.0
  0
VERTEX
  5
92EE
100
AcDbEntity
  8
ALPHA
100
AcDbVertex
100
AcDb2dVertex
 10
1.151049
 20
183.36615
 30
0.0
  0
VERTEX
  5
92EF
100
AcDbEntity
  8
ALPHA
100
AcDbVertex
100
AcDb2dVertex
 10
1.356841
 20
183.459477
 30
0.0
  0
VERTEX
  5
92F0
100
AcDbEntity
  8
ALPHA
100
AcDbVertex
100
AcDb2dVertex
 10
1.573159
 20
183.534006
 30
0.0
  0
VERTEX
  5
92F1
100
AcDbEntity
  8
ALPHA
100
AcDbVertex
100
AcDb2dVertex
 10
1.798822
 20
183.588621
 30
0.0
  0
VERTEX
  5
92F2
100
AcDbEntity
  8
ALPHA
100
AcDbVertex
100
AcDb2dVertex
 10
2.032649
 20
183.622208
 30
0.0
  0
VERTEX
  5
92F3
100
AcDbEntity
  8
ALPHA
100
AcDbVertex
100
AcDb2dVertex
 10
2.273463
 20
183.633651
 30
0.0
  0
SEQEND
  5
92F4
100
AcDbEntity
  8
ALPHA
  0
POLYLINE
  5
92F5
100
AcDbEntity
  8
ALPHA
100
AcDb2dPolyline
 66
     1
 10
0.0
 20
0.0
 30
0.0
  0
VERTEX
  5
92F6
100
AcDbEntity
  8
ALPHA
100
AcDbVertex
100
AcDb2dVertex
 10
2.273463
 20
183.633651
 30
0.0
  0
VERTEX
  5
92F7
100
AcDbEntity
  8
ALPHA
100
AcDbVertex
100
AcDb2dVertex
 10
47.763193
 20
183.633651
 30
0.0
  0
SEQEND
  5
92F8
100
AcDbEntity
  8
ALPHA
  0
POLYLINE
  5
92F9
100
AcDbEntity
  8
ALPHA
100
AcDb2dPolyline
 66
     1
 10
0.0
 20
0.0
 30
0.0
  0
VERTEX
  5
92FA
100
AcDbEntity
  8
ALPHA
100
AcDbVertex
100
AcDb2dVertex
 10
47.763193
 20
183.633651
 30
0.0
  0
VERTEX
  5
92FB
100
AcDbEntity
  8
ALPHA
100
AcDbVertex
100
AcDb2dVertex
 10
48.004143
 20
183.622219
 30
0.0
  0
VERTEX
  5
92FC
100
AcDbEntity
  8
ALPHA
100
AcDbVertex
100
AcDb2dVertex
 10
48.238121
 20
183.588663
 30
0.0
  0
VERTEX
  5
92FD
100
AcDbEntity
  8
ALPHA
100
AcDbVertex
100
AcDb2dVertex
 10
48.463943
 20
183.534094
 30
0.0
  0
VERTEX
  5
92FE
100
AcDbEntity
  8
ALPHA
100
AcDbVertex
100
AcDb2dVertex
 10
48.680428
 20
183.459623
 30
0.0
  0
VERTEX
  5
92FF
100
AcDbEntity
  8
ALPHA
100
AcDbVertex
100
AcDb2dVertex
 10
48.886391
 20
183.366359
 30
0.0
  0
VERTEX
  5
9300
100
AcDbEntity
  8
ALPHA
100
AcDbVertex
100
AcDb2dVertex
 10
49.080651
 20
183.255413
 30
0.0
  0
VERTEX
  5
9301
100
AcDbEntity
  8
ALPHA
100
AcDbVertex
100
AcDb2dVertex
 10
49.262024
 20
183.127896
 30
0.0
  0
VERTEX
  5
9302
100
AcDbEntity
  8
ALPHA
100
AcDbVertex
100
AcDb2dVertex
 10
49.429327
 20
182.984918
 30
0.0
  0
VERTEX
  5
9303
100
AcDbEntity
  8
ALPHA
100
AcDbVertex
100
AcDb2dVertex
 10
49.581377
 20
182.82759
 30
0.0
  0
VERTEX
  5
9304
100
AcDbEntity
  8
ALPHA
100
AcDbVertex
100
AcDb2dVertex
 10
49.716992
 20
182.657022
 30
0.0
  0
VERTEX
  5
9305
100
AcDbEntity
  8
ALPHA
100
AcDbVertex
100
AcDb2dVertex
 10
49.834989
 20
182.474325
 30
0.0
  0
VERTEX
  5
9306
100
AcDbEntity
  8
ALPHA
100
AcDbVertex
100
AcDb2dVertex
 10
49.934184
 20
182.280609
 30
0.0
  0
VERTEX
  5
9307
100
AcDbEntity
  8
ALPHA
100
AcDbVertex
100
AcDb2dVertex
 10
50.013395
 20
182.076984
 30
0.0
  0
VERTEX
  5
9308
100
AcDbEntity
  8
ALPHA
100
AcDbVertex
100
AcDb2dVertex
 10
50.071439
 20
181.864562
 30
0.0
  0
VERTEX
  5
9309
100
AcDbEntity
  8
ALPHA
100
AcDbVertex
100
AcDb2dVertex
 10
50.107133
 20
181.644452
 30
0.0
  0
VERTEX
  5
930A
100
AcDbEntity
  8
ALPHA
100
AcDbVertex
100
AcDb2dVertex
 10
50.119293
 20
181.417766
 30
0.0
  0
SEQEND
  5
930B
100
AcDbEntity
  8
ALPHA
  0
POLYLINE
  5
930C
100
AcDbEntity
  8
ALPHA
100
AcDb2dPolyline
 66
     1
 10
0.0
 20
0.0
 30
0.0
  0
VERTEX
  5
930D
100
AcDbEntity
  8
ALPHA
100
AcDbVertex
100
AcDb2dVertex
 10
50.119293
 20
181.417766
 30
0.0
  0
VERTEX
  5
930E
100
AcDbEntity
  8
ALPHA
100
AcDbVertex
100
AcDb2dVertex
 10
50.119293
 20
36.649341
 30
0.0
  0
SEQEND
  5
930F
100
AcDbEntity
  8
ALPHA
  0
POLYLINE
  5
9310
100
AcDbEntity
  8
ALPHA
100
AcDb2dPolyline
 66
     1
 10
0.0
 20
0.0
 30
0.0
  0
VERTEX
  5
9311
100
AcDbEntity
  8
ALPHA
100
AcDbVertex
100
AcDb2dVertex
 10
50.119293
 20
36.649341
 30
0.0
  0
VERTEX
  5
9312
100
AcDbEntity
  8
ALPHA
100
AcDbVertex
100
AcDb2dVertex
 10
50.107133
 20
36.42277
 30
0.0
  0
VERTEX
  5
9313
100
AcDbEntity
  8
ALPHA
100
AcDbVertex
100
AcDb2dVertex
 10
50.071439
 20
36.20275
 30
0.0
  0
VERTEX
  5
9314
100
AcDbEntity
  8
ALPHA
100
AcDbVertex
100
AcDb2dVertex
 10
50.013395
 20
35.990394
 30
0.0
  0
VERTEX
  5
9315
100
AcDbEntity
  8
ALPHA
100
AcDbVertex
100
AcDb2dVertex
 10
49.934184
 20
35.786816
 30
0.0
  0
VERTEX
  5
9316
100
AcDbEntity
  8
ALPHA
100
AcDbVertex
100
AcDb2dVertex
 10
49.834989
 20
35.593127
 30
0.0
  0
VERTEX
  5
9317
100
AcDbEntity
  8
ALPHA
100
AcDbVertex
100
AcDb2dVertex
 10
49.716992
 20
35.410442
 30
0.0
  0
VERTEX
  5
9318
100
AcDbEntity
  8
ALPHA
100
AcDbVertex
100
AcDb2dVertex
 10
49.581377
 20
35.239873
 30
0.0
  0
VERTEX
  5
9319
100
AcDbEntity
  8
ALPHA
100
AcDbVertex
100
AcDb2dVertex
 10
49.429327
 20
35.082533
 30
0.0
  0
VERTEX
  5
931A
100
AcDbEntity
  8
ALPHA
100
AcDbVertex
100
AcDb2dVertex
 10
49.262024
 20
34.939536
 30
0.0
  0
VERTEX
  5
931B
100
AcDbEntity
  8
ALPHA
100
AcDbVertex
100
AcDb2dVertex
 10
49.080651
 20
34.811993
 30
0.0
  0
VERTEX
  5
931C
100
AcDbEntity
  8
ALPHA
100
AcDbVertex
100
AcDb2dVertex
 10
48.886391
 20
34.701019
 30
0.0
  0
VERTEX
  5
931D
100
AcDbEntity
  8
ALPHA
100
AcDbVertex
100
AcDb2dVertex
 10
48.680428
 20
34.607726
 30
0.0
  0
VERTEX
  5
931E
100
AcDbEntity
  8
ALPHA
100
AcDbVertex
100
AcDb2dVertex
 10
48.463943
 20
34.533228
 30
0.0
  0
VERTEX
  5
931F
100
AcDbEntity
  8
ALPHA
100
AcDbVertex
100
AcDb2dVertex
 10
48.238121
 20
34.478637
 30
0.0
  0
VERTEX
  5
9320
100
AcDbEntity
  8
ALPHA
100
AcDbVertex
100
AcDb2dVertex
 10
48.004143
 20
34.445066
 30
0.0
  0
VERTEX
  5
9321
100
AcDbEntity
  8
ALPHA
100
AcDbVertex
100
AcDb2dVertex
 10
47.763193
 20
34.433628
 30
0.0
  0
SEQEND
  5
9322
100
AcDbEntity
  8
ALPHA
  0
POLYLINE
  5
9323
100
AcDbEntity
  8
ALPHA
100
AcDb2dPolyline
 66
     1
 10
0.0
 20
0.0
 30
0.0
  0
VERTEX
  5
9324
100
AcDbEntity
  8
ALPHA
100
AcDbVertex
100
AcDb2dVertex
 10
47.763193
 20
34.433628
 30
0.0
  0
VERTEX
  5
9325
100
AcDbEntity
  8
ALPHA
100
AcDbVertex
100
AcDb2dVertex
 10
36.027475
 20
34.433628
 30
0.0
  0
SEQEND
  5
9326
100
AcDbEntity
  8
ALPHA
  0
LEADER
  5
9327
100
AcDbEntity
  8
COTATION1
100
AcDbLeader
  3
SC_STAND
 73
     0
 74
     0
 75
     1
 40
2.5
 41
12.5
 76
     3
 10
25.323667
 20
148.163117
 30
0.0
 10
30.693566
 20
187.502485
 30
0.0
 10
33.693566
 20
187.502485
 30
0.0
 77
   256
340
9328
  0
MTEXT
  5
9328
102
{ACAD_REACTORS
330
9327
102
}
100
AcDbEntity
  8
COTATION1
100
AcDbMText
 10
34.693566
 20
189.752485
 30
0.0
 40
2.5
 41
0.0
 71
     4
 72
     1
  1
\A1;2x%%c4.5
  0
DIMENSION
  5
9335
100
AcDbEntity
  8
COTATION1
100
AcDbDimension
  2
*D7
 10
50.119293
 20
195.335647
 30
0.0
 11
25.019361
 21
197.585647
 31
0.0
 70
    32
  3
SC_STAND
100
AcDbAlignedDimension
 13
-0.080571
 23
181.417766
 33
0.0
 14
50.119293
 24
181.417766
 34
0.0
100
AcDbRotatedDimension
  0
DIMENSION
  5
9342
100
AcDbEntity
  8
COTATION1
100
AcDbDimension
  2
*D8
 10
59.839461
 20
111.933807
 30
0.0
 11
57.589461
 21
128.933803
 31
0.0
 70
    32
  3
SC_STAND
100
AcDbAlignedDimension
 13
25.019361
 23
145.933799
 33
0.0
 14
25.019361
 24
111.933807
 34
0.0
 50
90.0
100
AcDbRotatedDimension
  0
DIMENSION
  5
934F
100
AcDbEntity
  8
COTATION1
100
AcDbDimension
  2
*D9
 10
60.019461
 20
111.933807
 30
0.0
 11
57.769461
 21
75.433795
 31
0.0
 70
    32
  3
SC_STAND
100
AcDbAlignedDimension
 13
39.26931
 23
38.933784
 33
0.0
 14
53.840522
 24
111.933807
 34
0.0
 50
90.0
100
AcDbRotatedDimension
  0
DIMENSION
  5
9367
100
AcDbEntity
  8
COTATION1
100
AcDbDimension
  2
*D10
 10
41.519302
 20
-7.658277
 30
0.0
 11
25.019189
 21
-5.408277
 31
0.0
 70
    32
  3
SC_STAND
100
AcDbAlignedDimension
 13
8.519076
 23
36.684137
 33
0.0
 14
41.519302
 24
36.684137
 34
0.0
100
AcDbRotatedDimension
  0
DIMENSION
  5
938A
100
AcDbEntity
  8
COTATION1
100
AcDbDimension
  2
*D11
 10
44.519291
 20
-14.863295
 30
0.0
 11
25.019189
 21
-12.613295
 31
0.0
 70
    32
  3
SC_STAND
100
AcDbAlignedDimension
 13
5.519087
 23
36.684137
 33
0.0
 14
44.519291
 24
36.684137
 34
0.0
100
AcDbRotatedDimension
  0
DIMENSION
  5
93B0
100
AcDbEntity
  8
COTATION1
100
AcDbDimension
  2
*D12
 10
60.019461
 20
38.933784
 30
0.0
 11
63.519461
 21
36.683706
 31
0.0
 70
    32
  3
SC_STAND
100
AcDbAlignedDimension
 13
47.763193
 23
34.433628
 33
0.0
 14
54.755889
 24
38.933784
 34
0.0
 50
90.0
100
AcDbRotatedDimension
  0
DIMENSION
  5
93CE
100
AcDbEntity
  8
COTATION1
100
AcDbDimension
  2
*D13
 10
-6.20973
 20
36.684137
 30
0.0
 11
-9.70973
 21
38.934128
 31
0.0
 70
    32
  3
SC_STAND
100
AcDbAlignedDimension
 13
5.519087
 23
41.18412
 33
0.0
 14
5.519087
 24
36.684137
 34
0.0
 50
90.0
100
AcDbRotatedDimension
  0
ENDSEC
  0
SECTION
  2
OBJECTS
  0
DICTIONARY
  5
F8
100
AcDbDictionary
  3
ACAD_GROUP
350
F9
  3
ACAD_MLINESTYLE
350
106
  3
ACDBVARIABLEDICTIONARY
350
143
  0
DICTIONARY
  5
F9
102
{ACAD_REACTORS
330
F8
102
}
100
AcDbDictionary
  0
DICTIONARY
  5
106
102
{ACAD_REACTORS
330
F8
102
}
100
AcDbDictionary
  3
STANDARD
350
107
  0
DICTIONARY
  5
143
102
{ACAD_REACTORS
330
F8
102
}
100
AcDbDictionary
  3
DIMADEC
350
144
  0
MLINESTYLE
  5
107
102
{ACAD_REACTORS
330
106
102
}
100
AcDbMlineStyle
  2
STANDARD
 70
     0
  3

 62
   256
 51
90.0
 52
90.0
 71
     2
 49
0.5
 62
   256
  6
BYLAYER
 49
-0.5
 62
   256
  6
BYLAYER
  0
DICTIONARYVAR
  5
144
102
{ACAD_REACTORS
330
143
102
}
100
DictionaryVariables
280
     0
  1
0
  0
ENDSEC
  0
EOF
