  0
SECTION
  2
HEADER
  9
$ACADVER
  1
AC1014
  9
$ACADMAINTVER
 70
     0
  9
$DWGCODEPAGE
  3
ANSI_1252
  9
$INSBASE
 10
0.0
 20
0.0
 30
0.0
  9
$EXTMIN
 10
92.451051
 20
152.0
 30
0.0
  9
$EXTMAX
 10
120.5
 20
180.917426
 30
0.0
  9
$LIMMIN
 10
0.0
 20
0.0
  9
$LIMMAX
 10
210.0
 20
297.0
  9
$ORTHOMODE
 70
     0
  9
$REGENMODE
 70
     1
  9
$FILLMODE
 70
     1
  9
$QTEXTMODE
 70
     0
  9
$MIRRTEXT
 70
     1
  9
$DRAGMODE
 70
     2
  9
$LTSCALE
 40
10.0
  9
$OSMODE
 70
     0
  9
$ATTMODE
 70
     1
  9
$TEXTSIZE
 40
2.9
  9
$TRACEWID
 40
0.05
  9
$TEXTSTYLE
  7
ROMANS
  9
$CLAYER
  8
COTATION1
  9
$CELTYPE
  6
BYLAYER
  9
$CECOLOR
 62
   256
  9
$CELTSCALE
 40
1.0
  9
$DELOBJ
 70
     1
  9
$DISPSILH
 70
     0
  9
$DIMSCALE
 40
1.0
  9
$DIMASZ
 40
3.0
  9
$DIMEXO
 40
0.0625
  9
$DIMDLI
 40
0.38
  9
$DIMRND
 40
0.01
  9
$DIMDLE
 40
0.0
  9
$DIMEXE
 40
0.18
  9
$DIMTP
 40
0.0
  9
$DIMTM
 40
0.0
  9
$DIMTXT
 40
2.5
  9
$DIMCEN
 40
0.09
  9
$DIMTSZ
 40
0.0
  9
$DIMTOL
 70
     0
  9
$DIMLIM
 70
     0
  9
$DIMTIH
 70
     0
  9
$DIMTOH
 70
     0
  9
$DIMSE1
 70
     0
  9
$DIMSE2
 70
     0
  9
$DIMTAD
 70
     1
  9
$DIMZIN
 70
    12
  9
$DIMBLK
  1

  9
$DIMASO
 70
     1
  9
$DIMSHO
 70
     1
  9
$DIMPOST
  1

  9
$DIMAPOST
  1

  9
$DIMALT
 70
     0
  9
$DIMALTD
 70
     2
  9
$DIMALTF
 40
25.4
  9
$DIMLFAC
 40
1.0
  9
$DIMTOFL
 70
     1
  9
$DIMTVP
 40
0.0
  9
$DIMTIX
 70
     0
  9
$DIMSOXD
 70
     0
  9
$DIMSAH
 70
     0
  9
$DIMBLK1
  1

  9
$DIMBLK2
  1

  9
$DIMSTYLE
  2
SC_STAND
  9
$DIMCLRD
 70
     0
  9
$DIMCLRE
 70
     0
  9
$DIMCLRT
 70
     0
  9
$DIMTFAC
 40
1.0
  9
$DIMGAP
 40
1.0
  9
$DIMJUST
 70
     0
  9
$DIMSD1
 70
     0
  9
$DIMSD2
 70
     0
  9
$DIMTOLJ
 70
     1
  9
$DIMTZIN
 70
    12
  9
$DIMALTZ
 70
    12
  9
$DIMALTTZ
 70
    12
  9
$DIMFIT
 70
     5
  9
$DIMUPT
 70
     0
  9
$DIMUNIT
 70
     2
  9
$DIMDEC
 70
     4
  9
$DIMTDEC
 70
     4
  9
$DIMALTU
 70
     2
  9
$DIMALTTD
 70
     2
  9
$DIMTXSTY
  7
ROMANS
  9
$DIMAUNIT
 70
     0
  9
$LUNITS
 70
     2
  9
$LUPREC
 70
     4
  9
$SKETCHINC
 40
0.1
  9
$FILLETRAD
 40
0.0
  9
$AUNITS
 70
     0
  9
$AUPREC
 70
     0
  9
$MENU
  1
.
  9
$ELEVATION
 40
0.0
  9
$PELEVATION
 40
0.0
  9
$THICKNESS
 40
0.0
  9
$LIMCHECK
 70
     0
  9
$BLIPMODE
 70
     1
  9
$CHAMFERA
 40
0.0
  9
$CHAMFERB
 40
0.0
  9
$CHAMFERC
 40
0.0
  9
$CHAMFERD
 40
0.0
  9
$SKPOLY
 70
     0
  9
$TDCREATE
 40
2450987.594236574
  9
$TDUPDATE
 40
2451387.898663564
  9
$TDINDWG
 40
0.0007629630
  9
$TDUSRTIMER
 40
0.0007629630
  9
$USRTIMER
 70
     1
  9
$ANGBASE
 50
0.0
  9
$ANGDIR
 70
     0
  9
$PDMODE
 70
     0
  9
$PDSIZE
 40
0.0
  9
$PLINEWID
 40
0.0
  9
$COORDS
 70
     1
  9
$SPLFRAME
 70
     0
  9
$SPLINETYPE
 70
     6
  9
$SPLINESEGS
 70
     8
  9
$ATTDIA
 70
     1
  9
$ATTREQ
 70
     1
  9
$HANDLING
 70
     1
  9
$HANDSEED
  5
1DA1
  9
$SURFTAB1
 70
     6
  9
$SURFTAB2
 70
     6
  9
$SURFTYPE
 70
     6
  9
$SURFU
 70
     6
  9
$SURFV
 70
     6
  9
$UCSNAME
  2

  9
$UCSORG
 10
0.0
 20
0.0
 30
0.0
  9
$UCSXDIR
 10
1.0
 20
0.0
 30
0.0
  9
$UCSYDIR
 10
0.0
 20
1.0
 30
0.0
  9
$PUCSNAME
  2

  9
$PUCSORG
 10
0.0
 20
0.0
 30
0.0
  9
$PUCSXDIR
 10
1.0
 20
0.0
 30
0.0
  9
$PUCSYDIR
 10
0.0
 20
1.0
 30
0.0
  9
$USERI1
 70
     0
  9
$USERI2
 70
     0
  9
$USERI3
 70
     0
  9
$USERI4
 70
     0
  9
$USERI5
 70
     0
  9
$USERR1
 40
0.0
  9
$USERR2
 40
0.0
  9
$USERR3
 40
0.0
  9
$USERR4
 40
0.0
  9
$USERR5
 40
0.0
  9
$WORLDVIEW
 70
     1
  9
$SHADEDGE
 70
     3
  9
$SHADEDIF
 70
    70
  9
$TILEMODE
 70
     1
  9
$MAXACTVP
 70
    16
  9
$PINSBASE
 10
0.0
 20
0.0
 30
0.0
  9
$PLIMCHECK
 70
     0
  9
$PEXTMIN
 10
0.0
 20
0.0
 30
0.0
  9
$PEXTMAX
 10
420.0
 20
297.0
 30
0.0
  9
$PLIMMIN
 10
0.0
 20
0.0
  9
$PLIMMAX
 10
420.0
 20
297.0
  9
$UNITMODE
 70
     0
  9
$VISRETAIN
 70
     0
  9
$PLINEGEN
 70
     0
  9
$PSLTSCALE
 70
     1
  9
$TREEDEPTH
 70
  3020
  9
$PICKSTYLE
 70
     1
  9
$CMLSTYLE
  2
STANDARD
  9
$CMLJUST
 70
     0
  9
$CMLSCALE
 40
1.0
  9
$PROXYGRAPHICS
 70
     1
  9
$MEASUREMENT
 70
     0
  0
ENDSEC
  0
SECTION
  2
CLASSES
  0
CLASS
  1
DICTIONARYVAR
  2
AcDbDictionaryVar
  3
"AutoCAD"
 90
        0
280
     0
281
     0
  0
CLASS
  1
LWPOLYLINE
  2
AcDbPolyline
  3
"AutoCAD"
 90
        0
280
     0
281
     1
  0
ENDSEC
  0
SECTION
  2
TABLES
  0
TABLE
  2
VPORT
  5
1D46
100
AcDbSymbolTable
 70
     1
  0
VPORT
  5
1D9C
100
AcDbSymbolTableRecord
100
AcDbViewportTableRecord
  2
*ACTIVE
 70
     0
 10
0.0
 20
0.0
 11
1.0
 21
1.0
 12
257.127367
 22
153.871495
 13
0.0
 23
0.0
 14
2.5
 24
2.5
 15
10.0
 25
10.0
 16
0.0
 26
0.0
 36
1.0
 17
0.0
 27
0.0
 37
0.0
 40
307.74299
 41
1.671053
 42
50.0
 43
0.0
 44
0.0
 50
0.0
 51
0.0
 71
     0
 72
   100
 73
     1
 74
     1
 75
     0
 76
     1
 77
     0
 78
     0
  0
ENDTAB
  0
TABLE
  2
LTYPE
  5
1D43
100
AcDbSymbolTable
 70
    23
  0
LTYPE
  5
1D4F
100
AcDbSymbolTableRecord
100
AcDbLinetypeTableRecord
  2
BYBLOCK
 70
     0
  3

 72
    65
 73
     0
 40
0.0
  0
LTYPE
  5
1D50
100
AcDbSymbolTableRecord
100
AcDbLinetypeTableRecord
  2
BYLAYER
 70
     0
  3

 72
    65
 73
     0
 40
0.0
  0
LTYPE
  5
1D51
100
AcDbSymbolTableRecord
100
AcDbLinetypeTableRecord
  2
CONTINUOUS
 70
     0
  3
Solid line
 72
    65
 73
     0
 40
0.0
  0
LTYPE
  5
1D62
100
AcDbSymbolTableRecord
100
AcDbLinetypeTableRecord
  2
AXES
 70
     0
  3
____ _ ____ _ ____ _ ____ _ ____ _ ____ _ ____ 
 72
    65
 73
     4
 40
2.0
 49
1.25
 74
     0
 49
-0.25
 74
     0
 49
0.25
 74
     0
 49
-0.25
 74
     0
  0
LTYPE
  5
1D63
100
AcDbSymbolTableRecord
100
AcDbLinetypeTableRecord
  2
AXES2
 70
     0
  3
___ _ ___ _ ___ _ ___ _ ___ _ ___ _ ___ _ ___ _
 72
    65
 73
     4
 40
1.125
 49
0.75
 74
     0
 49
-0.125
 74
     0
 49
0.125
 74
     0
 49
-0.125
 74
     0
  0
LTYPE
  5
1D64
100
AcDbSymbolTableRecord
100
AcDbLinetypeTableRecord
  2
AXESX2
 70
     0
  3
________  __  ________  __  ________  __  _____
 72
    65
 73
     4
 40
4.0
 49
2.5
 74
     0
 49
-0.5
 74
     0
 49
0.5
 74
     0
 49
-0.5
 74
     0
  0
LTYPE
  5
1D65
100
AcDbSymbolTableRecord
100
AcDbLinetypeTableRecord
  2
TIRETPT
 70
     0
  3
__ . __ . __ . __ . __ . __ . __ . __ . __ . __
 72
    65
 73
     4
 40
1.0
 49
0.5
 74
     0
 49
-0.25
 74
     0
 49
0.0
 74
     0
 49
-0.25
 74
     0
  0
LTYPE
  5
1D66
100
AcDbSymbolTableRecord
100
AcDbLinetypeTableRecord
  2
TIRETPT2
 70
     0
  3
_._._._._._._._._._._._._._._._._._._._._._._._
 72
    65
 73
     4
 40
0.5
 49
0.25
 74
     0
 49
-0.125
 74
     0
 49
0.0
 74
     0
 49
-0.125
 74
     0
  0
LTYPE
  5
1D67
100
AcDbSymbolTableRecord
100
AcDbLinetypeTableRecord
  2
TIRETPTX2
 70
     0
  3
____  .  ____  .  ____  .  ____  .  ____  .  __
 72
    65
 73
     4
 40
2.0
 49
1.0
 74
     0
 49
-0.5
 74
     0
 49
0.0
 74
     0
 49
-0.5
 74
     0
  0
LTYPE
  5
1D68
100
AcDbSymbolTableRecord
100
AcDbLinetypeTableRecord
  2
DISCONTINU
 70
     0
  3
__ __ __ __ __ __ __ __ __ __ __ __ __ __ __ __
 72
    65
 73
     2
 40
0.75
 49
0.5
 74
     0
 49
-0.25
 74
     0
  0
LTYPE
  5
1D69
100
AcDbSymbolTableRecord
100
AcDbLinetypeTableRecord
  2
DISCONTINU2
 70
     0
  3
_ _ _ _ _ _ _ _ _ _ _ _ _ _ _ _ _ _ _ _ _ _ _ _
 72
    65
 73
     2
 40
0.375
 49
0.25
 74
     0
 49
-0.125
 74
     0
  0
LTYPE
  5
1D6A
100
AcDbSymbolTableRecord
100
AcDbLinetypeTableRecord
  2
DISCONTINUX2
 70
     0
  3
____  ____  ____  ____  ____  ____  ____  ____ 
 72
    65
 73
     2
 40
1.5
 49
1.0
 74
     0
 49
-0.5
 74
     0
  0
LTYPE
  5
1D6B
100
AcDbSymbolTableRecord
100
AcDbLinetypeTableRecord
  2
DIVISE
 70
     0
  3
____ . . ____ . . ____ . . ____ . . ____ . . __
 72
    65
 73
     6
 40
1.25
 49
0.5
 74
     0
 49
-0.25
 74
     0
 49
0.0
 74
     0
 49
-0.25
 74
     0
 49
0.0
 74
     0
 49
-0.25
 74
     0
  0
LTYPE
  5
1D6C
100
AcDbSymbolTableRecord
100
AcDbLinetypeTableRecord
  2
DIVISE2
 70
     0
  3
__..__..__..__..__..__..__..__..__..__..__..__.
 72
    65
 73
     6
 40
0.625
 49
0.25
 74
     0
 49
-0.125
 74
     0
 49
0.0
 74
     0
 49
-0.125
 74
     0
 49
0.0
 74
     0
 49
-0.125
 74
     0
  0
LTYPE
  5
1D6D
100
AcDbSymbolTableRecord
100
AcDbLinetypeTableRecord
  2
DIVISEX2
 70
     0
  3
________  .  .  ________  .  .  ________  .  . 
 72
    65
 73
     6
 40
2.5
 49
1.0
 74
     0
 49
-0.5
 74
     0
 49
0.0
 74
     0
 49
-0.5
 74
     0
 49
0.0
 74
     0
 49
-0.5
 74
     0
  0
LTYPE
  5
1D6E
100
AcDbSymbolTableRecord
100
AcDbLinetypeTableRecord
  2
POINTILLE
 70
     0
  3
. . . . . . . . . . . . . . . . . . . . . . . .
 72
    65
 73
     2
 40
0.25
 49
0.0
 74
     0
 49
-0.25
 74
     0
  0
LTYPE
  5
1D6F
100
AcDbSymbolTableRecord
100
AcDbLinetypeTableRecord
  2
POINTILLE2
 70
     0
  3
...............................................
 72
    65
 73
     2
 40
0.125
 49
0.0
 74
     0
 49
-0.125
 74
     0
  0
LTYPE
  5
1D70
100
AcDbSymbolTableRecord
100
AcDbLinetypeTableRecord
  2
POINTILLEX2
 70
     0
  3
.  .  .  .  .  .  .  .  .  .  .  .  .  .  .  . 
 72
    65
 73
     2
 40
0.5
 49
0.0
 74
     0
 49
-0.5
 74
     0
  0
LTYPE
  5
1D71
100
AcDbSymbolTableRecord
100
AcDbLinetypeTableRecord
  2
CACHE
 70
     0
  3
__ __ __ __ __ __ __ __ __ __ __ __ __ __ __ __
 72
    65
 73
     2
 40
0.375
 49
0.25
 74
     0
 49
-0.125
 74
     0
  0
LTYPE
  5
1D72
100
AcDbSymbolTableRecord
100
AcDbLinetypeTableRecord
  2
CACHE2
 70
     0
  3
_ _ _ _ _ _ _ _ _ _ _ _ _ _ _ _ _ _ _ _ _ _ _ _
 72
    65
 73
     2
 40
0.1875
 49
0.125
 74
     0
 49
-0.0625
 74
     0
  0
LTYPE
  5
1D73
100
AcDbSymbolTableRecord
100
AcDbLinetypeTableRecord
  2
CACHEX2
 70
     0
  3
____ ____ ____ ____ ____ ____ ____ ____ ____ __
 72
    65
 73
     2
 40
0.75
 49
0.5
 74
     0
 49
-0.25
 74
     0
  0
LTYPE
  5
1D74
100
AcDbSymbolTableRecord
100
AcDbLinetypeTableRecord
  2
FANTOME
 70
     0
  3
______  __  __  ______  __  __  ______  __  __ 
 72
    65
 73
     6
 40
2.5
 49
1.25
 74
     0
 49
-0.25
 74
     0
 49
0.25
 74
     0
 49
-0.25
 74
     0
 49
0.25
 74
     0
 49
-0.25
 74
     0
  0
LTYPE
  5
1D75
100
AcDbSymbolTableRecord
100
AcDbLinetypeTableRecord
  2
FANTOME2
 70
     0
  3
___ _ _ ___ _ _ ___ _ _ ___ _ _ ___ _ _ ___ _ _
 72
    65
 73
     6
 40
1.25
 49
0.625
 74
     0
 49
-0.125
 74
     0
 49
0.125
 74
     0
 49
-0.125
 74
     0
 49
0.125
 74
     0
 49
-0.125
 74
     0
  0
LTYPE
  5
1D76
100
AcDbSymbolTableRecord
100
AcDbLinetypeTableRecord
  2
FANTOMEX2
 70
     0
  3
____________    ____    ____    ____________   
 72
    65
 73
     6
 40
5.0
 49
2.5
 74
     0
 49
-0.5
 74
     0
 49
0.5
 74
     0
 49
-0.5
 74
     0
 49
0.5
 74
     0
 49
-0.5
 74
     0
  0
LTYPE
  5
1D77
100
AcDbSymbolTableRecord
100
AcDbLinetypeTableRecord
  2
0
 70
     0
  3
MEDUSA PEN 0
 72
    65
 73
     0
 40
0.0
  0
ENDTAB
  0
TABLE
  2
LAYER
  5
1D40
100
AcDbSymbolTable
 70
    21
  0
LAYER
  5
1D4C
100
AcDbSymbolTableRecord
100
AcDbLayerTableRecord
  2
0
 70
     0
 62
   255
  6
CONTINUOUS
  0
LAYER
  5
1D7F
100
AcDbSymbolTableRecord
100
AcDbLayerTableRecord
  2
AXE
 70
     0
 62
    80
  6
AXES2
  0
LAYER
  5
1D80
100
AcDbSymbolTableRecord
100
AcDbLayerTableRecord
  2
CONSTRUCTION
 70
     0
 62
     6
  6
CONTINUOUS
  0
LAYER
  5
1D81
100
AcDbSymbolTableRecord
100
AcDbLayerTableRecord
  2
COTATION1
 70
     0
 62
     2
  6
CONTINUOUS
  0
LAYER
  5
1D82
100
AcDbSymbolTableRecord
100
AcDbLayerTableRecord
  2
HACHURES
 70
     0
 62
     9
  6
CONTINUOUS
  0
LAYER
  5
1D83
100
AcDbSymbolTableRecord
100
AcDbLayerTableRecord
  2
FMULT
 70
     0
 62
     6
  6
CONTINUOUS
  0
LAYER
  5
1D84
100
AcDbSymbolTableRecord
100
AcDbLayerTableRecord
  2
TEXTE
 70
     0
 62
   131
  6
CONTINUOUS
  0
LAYER
  5
1D85
100
AcDbSymbolTableRecord
100
AcDbLayerTableRecord
  2
FDP_CARTOUCHE
 70
     0
 62
     4
  6
CONTINUOUS
  0
LAYER
  5
1D86
100
AcDbSymbolTableRecord
100
AcDbLayerTableRecord
  2
FDP_TEXTES
 70
     0
 62
     5
  6
CONTINUOUS
  0
LAYER
  5
1D87
100
AcDbSymbolTableRecord
100
AcDbLayerTableRecord
  2
FDP_LOGO_MG
 70
     0
 62
    30
  6
CONTINUOUS
  0
LAYER
  5
1D88
100
AcDbSymbolTableRecord
100
AcDbLayerTableRecord
  2
FDP_LOGO_SCH
 70
     0
 62
     3
  6
CONTINUOUS
  0
LAYER
  5
1D89
100
AcDbSymbolTableRecord
100
AcDbLayerTableRecord
  2
FDP_FDP
 70
     0
 62
     5
  6
CONTINUOUS
  0
LAYER
  5
1D8A
100
AcDbSymbolTableRecord
100
AcDbLayerTableRecord
  2
COTATION2
 70
     0
 62
     2
  6
CONTINUOUS
  0
LAYER
  5
1D8B
100
AcDbSymbolTableRecord
100
AcDbLayerTableRecord
  2
COTATION3
 70
     0
 62
     2
  6
CONTINUOUS
  0
LAYER
  5
1D8C
100
AcDbSymbolTableRecord
100
AcDbLayerTableRecord
  2
COTATION4
 70
     0
 62
     2
  6
CONTINUOUS
  0
LAYER
  5
1D8D
100
AcDbSymbolTableRecord
100
AcDbLayerTableRecord
  2
ASHADE
 70
     0
 62
     7
  6
CONTINUOUS
  0
LAYER
  5
1D8E
100
AcDbSymbolTableRecord
100
AcDbLayerTableRecord
  2
POINTILLE_COURT
 70
     0
 62
    40
  6
CACHE2
  0
LAYER
  5
1D8F
100
AcDbSymbolTableRecord
100
AcDbLayerTableRecord
  2
POINTILLE_MOYEN
 70
     0
 62
   140
  6
CACHE
  0
LAYER
  5
1D90
100
AcDbSymbolTableRecord
100
AcDbLayerTableRecord
  2
POINTILLE_LONG
 70
     0
 62
   240
  6
CACHEX2
  0
LAYER
  5
1D91
100
AcDbSymbolTableRecord
100
AcDbLayerTableRecord
  2
ALPHA
 70
     0
 62
   255
  6
CONTINUOUS
  0
LAYER
  5
1D92
100
AcDbSymbolTableRecord
100
AcDbLayerTableRecord
  2
DEFPOINTS
 70
     0
 62
     7
  6
CONTINUOUS
  0
ENDTAB
  0
TABLE
  2
STYLE
  5
1D41
100
AcDbSymbolTable
 70
     4
  0
STYLE
  5
1D4D
100
AcDbSymbolTableRecord
100
AcDbTextStyleTableRecord
  2
STANDARD
 70
     0
 40
0.0
 41
1.0
 50
0.0
 71
     0
 42
0.2
  3
txt
  4

  0
STYLE
  5
1D5F
100
AcDbSymbolTableRecord
100
AcDbTextStyleTableRecord
  2
ROMANS
 70
     0
 40
0.0
 41
1.0
 50
0.0
 71
     0
 42
2.9
  3
romans.shx
  4

  0
STYLE
  5
1D60
100
AcDbSymbolTableRecord
100
AcDbTextStyleTableRecord
  2
INFOCAR
 70
     0
 40
0.0
 41
1.34
 50
0.0
 71
     0
 42
2.0
  3
ROMANS.SHX
  4

  0
STYLE
  5
1D61
100
AcDbSymbolTableRecord
100
AcDbTextStyleTableRecord
  2
CARTOUCHE
 70
     0
 40
0.0
 41
1.0
 50
0.0
 71
     0
 42
0.2
  3
ROMANS.SHX
  4

  0
ENDTAB
  0
TABLE
  2
VIEW
  5
1D44
100
AcDbSymbolTable
 70
     0
  0
ENDTAB
  0
TABLE
  2
UCS
  5
1D45
100
AcDbSymbolTable
 70
     0
  0
ENDTAB
  0
TABLE
  2
APPID
  5
1D47
100
AcDbSymbolTable
 70
     3
  0
APPID
  5
1D4E
100
AcDbSymbolTableRecord
100
AcDbRegAppTableRecord
  2
ACAD
 70
     0
  0
APPID
  5
1D79
100
AcDbSymbolTableRecord
100
AcDbRegAppTableRecord
  2
AVE_RENDER
 70
     0
  0
APPID
  5
1D7A
100
AcDbSymbolTableRecord
100
AcDbRegAppTableRecord
  2
AVE_MATERIAL
 70
     0
  0
ENDTAB
  0
TABLE
  2
DIMSTYLE
  5
1D48
100
AcDbSymbolTable
 70
     2
  0
DIMSTYLE
105
1D7B
100
AcDbSymbolTableRecord
100
AcDbDimStyleTableRecord
  2
STANDARD
 70
     0
  3

  4

  5

  6

  7

 40
1.0
 41
0.18
 42
0.0625
 43
0.38
 44
0.18
 45
0.0
 46
0.0
 47
0.0
 48
0.0
140
0.18
141
0.09
142
0.0
143
25.4
144
1.0
145
0.0
146
1.0
147
0.09
 71
     0
 72
     0
 73
     1
 74
     1
 75
     0
 76
     0
 77
     0
 78
     0
170
     0
171
     2
172
     0
173
     0
174
     0
175
     0
176
     0
177
     0
178
     0
270
     2
271
     4
272
     4
273
     2
274
     2
340
1D5F
275
     0
280
     0
281
     0
282
     0
283
     1
284
    12
285
    12
286
    12
287
     5
288
     0
  0
DIMSTYLE
105
1D7C
102
{ACAD_REACTORS
330
1C9C
330
1CA9
102
}
100
AcDbSymbolTableRecord
100
AcDbDimStyleTableRecord
  2
SC_STAND
 70
     0
  3

  4

  5

  6

  7

 40
1.0
 41
3.0
 42
0.0625
 43
0.38
 44
0.18
 45
0.01
 46
0.0
 47
0.0
 48
0.0
140
2.5
141
0.09
142
0.0
143
25.4
144
1.0
145
0.0
146
1.0
147
1.0
 71
     0
 72
     0
 73
     0
 74
     0
 75
     0
 76
     0
 77
     1
 78
    12
170
     0
171
     2
172
     1
173
     0
174
     0
175
     0
176
     0
177
     0
178
     0
270
     2
271
     4
272
     4
273
     2
274
     2
340
1D5F
275
     0
280
     0
281
     0
282
     0
283
     1
284
    12
285
    12
286
    12
287
     5
288
     0
  0
ENDTAB
  0
TABLE
  2
BLOCK_RECORD
  5
1D3F
100
AcDbSymbolTable
 70
     5
  0
BLOCK_RECORD
  5
1D55
100
AcDbSymbolTableRecord
100
AcDbBlockTableRecord
  2
*MODEL_SPACE
  0
BLOCK_RECORD
  5
1D52
100
AcDbSymbolTableRecord
100
AcDbBlockTableRecord
  2
*PAPER_SPACE
  0
BLOCK_RECORD
  5
1D5A
100
AcDbSymbolTableRecord
100
AcDbBlockTableRecord
  2
AVE_RENDER
  0
BLOCK_RECORD
  5
1D5B
100
AcDbSymbolTableRecord
100
AcDbBlockTableRecord
  2
AVE_GLOBAL
  0
BLOCK_RECORD
  5
1D5C
100
AcDbSymbolTableRecord
100
AcDbBlockTableRecord
  2
A$CF211
  0
BLOCK_RECORD
  5
1D5D
100
AcDbSymbolTableRecord
100
AcDbBlockTableRecord
  2
*D3
  0
BLOCK_RECORD
  5
1D5E
100
AcDbSymbolTableRecord
100
AcDbBlockTableRecord
  2
*D4
  0
ENDTAB
  0
ENDSEC
  0
SECTION
  2
BLOCKS
  0
BLOCK
  5
1D95
100
AcDbEntity
  8
0
100
AcDbBlockBegin
  2
*MODEL_SPACE
 70
     0
 10
0.0
 20
0.0
 30
0.0
  3
*MODEL_SPACE
  1

  0
ENDBLK
  5
1D96
100
AcDbEntity
  8
0
100
AcDbBlockEnd
  0
BLOCK
  5
1D93
100
AcDbEntity
 67
     1
  8
0
100
AcDbBlockBegin
  2
*PAPER_SPACE
 70
     0
 10
0.0
 20
0.0
 30
0.0
  3
*PAPER_SPACE
  1

  0
ENDBLK
  5
1D94
100
AcDbEntity
 67
     1
  8
0
100
AcDbBlockEnd
  0
BLOCK
  5
163A
100
AcDbEntity
  8
0
100
AcDbBlockBegin
  2
AVE_RENDER
 70
     0
 10
0.0
 20
0.0
 30
0.0
  3
AVE_RENDER
  1
AVE_RENDER
  0
ENDBLK
  5
163B
100
AcDbEntity
  8
0
100
AcDbBlockEnd
  0
BLOCK
  5
1648
100
AcDbEntity
  8
0
100
AcDbBlockBegin
  2
AVE_GLOBAL
 70
     0
 10
0.0
 20
0.0
 30
0.0
  3
AVE_GLOBAL
  1
AVE_GLOBAL
  0
ENDBLK
  5
1649
100
AcDbEntity
  8
0
100
AcDbBlockEnd
  0
BLOCK
  5
19B4
100
AcDbEntity
  8
0
100
AcDbBlockBegin
  2
A$CF211
 70
     0
 10
0.0
 20
0.0
 30
0.0
  3
A$CF211
  1

  0
LINE
  5
16DB
100
AcDbEntity
  8
0
100
AcDbLine
 10
6.463711
 20
1.527596
 30
0.0
 11
11.463711
 21
1.527596
 31
0.0
  0
LINE
  5
16DC
100
AcDbEntity
  8
0
100
AcDbLine
 10
12.463711
 20
1.527596
 30
0.0
 11
17.463711
 21
1.527596
 31
0.0
  0
LINE
  5
16DD
100
AcDbEntity
  8
0
100
AcDbLine
 10
12.463711
 20
17.827596
 30
0.0
 11
17.463711
 21
17.827596
 31
0.0
  0
LINE
  5
16DE
100
AcDbEntity
  8
0
100
AcDbLine
 10
6.463711
 20
17.827596
 30
0.0
 11
11.463711
 21
17.827596
 31
0.0
  0
LINE
  5
16DF
100
AcDbEntity
  8
0
100
AcDbLine
 10
0.463711
 20
1.527596
 30
0.0
 11
5.463711
 21
1.527596
 31
0.0
  0
LINE
  5
16E0
100
AcDbEntity
  8
0
100
AcDbLine
 10
0.463711
 20
17.827596
 30
0.0
 11
5.463711
 21
17.827596
 31
0.0
  0
LINE
  5
16E1
100
AcDbEntity
  8
0
100
AcDbLine
 10
6.463711
 20
1.927596
 30
0.0
 11
5.463711
 21
1.927596
 31
0.0
  0
LINE
  5
16E2
100
AcDbEntity
  8
0
100
AcDbLine
 10
11.463711
 20
1.927596
 30
0.0
 11
6.463711
 21
1.927596
 31
0.0
  0
LINE
  5
16E3
100
AcDbEntity
  8
0
100
AcDbLine
 10
1.863711
 20
1.927596
 30
0.0
 11
0.463711
 21
1.927596
 31
0.0
  0
LINE
  5
16E4
100
AcDbEntity
  8
0
100
AcDbLine
 10
5.463711
 20
1.927596
 30
0.0
 11
4.063711
 21
1.927596
 31
0.0
  0
LINE
  5
16E5
100
AcDbEntity
  8
0
100
AcDbLine
 10
12.463711
 20
1.927596
 30
0.0
 11
11.463711
 21
1.927596
 31
0.0
  0
LINE
  5
16E6
100
AcDbEntity
  8
0
100
AcDbLine
 10
6.463711
 20
17.827596
 30
0.0
 11
6.463711
 21
17.427596
 31
0.0
  0
LINE
  5
16E7
100
AcDbEntity
  8
0
100
AcDbLine
 10
13.863711
 20
1.927596
 30
0.0
 11
12.463711
 21
1.927596
 31
0.0
  0
LINE
  5
16E8
100
AcDbEntity
  8
0
100
AcDbLine
 10
17.463711
 20
1.927596
 30
0.0
 11
16.063711
 21
1.927596
 31
0.0
  0
LINE
  5
16E9
100
AcDbEntity
  8
0
100
AcDbLine
 10
6.463711
 20
1.927596
 30
0.0
 11
6.463711
 21
1.527596
 31
0.0
  0
LINE
  5
16EA
100
AcDbEntity
  8
0
100
AcDbLine
 10
5.463711
 20
17.827596
 30
0.0
 11
5.463711
 21
17.427596
 31
0.0
  0
LINE
  5
16EB
100
AcDbEntity
  8
0
100
AcDbLine
 10
5.463711
 20
1.927596
 30
0.0
 11
5.463711
 21
1.527596
 31
0.0
  0
LINE
  5
16EC
100
AcDbEntity
  8
0
100
AcDbLine
 10
12.463711
 20
17.827596
 30
0.0
 11
12.463711
 21
17.427596
 31
0.0
  0
LINE
  5
16ED
100
AcDbEntity
  8
0
100
AcDbLine
 10
12.463711
 20
1.927596
 30
0.0
 11
12.463711
 21
1.527596
 31
0.0
  0
LINE
  5
16EE
100
AcDbEntity
  8
0
100
AcDbLine
 10
11.463711
 20
17.827596
 30
0.0
 11
11.463711
 21
17.427596
 31
0.0
  0
LINE
  5
16EF
100
AcDbEntity
  8
0
100
AcDbLine
 10
11.463711
 20
1.927596
 30
0.0
 11
11.463711
 21
1.527596
 31
0.0
  0
LINE
  5
16F0
100
AcDbEntity
  8
0
100
AcDbLine
 10
11.988711
 20
16.458451
 30
0.0
 11
11.988711
 21
15.317576
 31
0.0
  0
LINE
  5
16F1
100
AcDbEntity
  8
0
100
AcDbLine
 10
11.988711
 20
2.89674
 30
0.0
 11
11.988711
 21
4.037616
 31
0.0
  0
LINE
  5
16F2
100
AcDbEntity
  8
0
100
AcDbLine
 10
6.463711
 20
1.527596
 30
0.0
 11
6.463711
 21
1.077596
 31
0.0
  0
LINE
  5
16F3
100
AcDbEntity
  8
0
100
AcDbLine
 10
6.463711
 20
1.077596
 30
0.0
 11
11.463711
 21
1.077596
 31
0.0
  0
LINE
  5
16F4
100
AcDbEntity
  8
0
100
AcDbLine
 10
11.463711
 20
1.527596
 30
0.0
 11
11.463711
 21
1.077596
 31
0.0
  0
LINE
  5
16F5
100
AcDbEntity
  8
0
100
AcDbLine
 10
12.463711
 20
1.527596
 30
0.0
 11
12.463711
 21
1.077596
 31
0.0
  0
LINE
  5
16F6
100
AcDbEntity
  8
0
100
AcDbLine
 10
12.463711
 20
1.077596
 30
0.0
 11
17.463711
 21
1.077596
 31
0.0
  0
LINE
  5
16F7
100
AcDbEntity
  8
0
100
AcDbLine
 10
17.463711
 20
1.077596
 30
0.0
 11
17.463711
 21
1.527596
 31
0.0
  0
LINE
  5
16F8
100
AcDbEntity
  8
0
100
AcDbLine
 10
0.463711
 20
1.077596
 30
0.0
 11
5.463711
 21
1.077596
 31
0.0
  0
LINE
  5
16F9
100
AcDbEntity
  8
0
100
AcDbLine
 10
5.463711
 20
1.527596
 30
0.0
 11
5.463711
 21
1.077596
 31
0.0
  0
LINE
  5
16FA
100
AcDbEntity
  8
0
100
AcDbLine
 10
0.463711
 20
1.527596
 30
0.0
 11
0.463711
 21
1.077596
 31
0.0
  0
LINE
  5
16FB
100
AcDbEntity
  8
0
100
AcDbLine
 10
5.938711
 20
2.89674
 30
0.0
 11
5.938711
 21
4.037616
 31
0.0
  0
LINE
  5
16FC
100
AcDbEntity
  8
0
100
AcDbLine
 10
16.063711
 20
17.427596
 30
0.0
 11
17.463711
 21
17.427596
 31
0.0
  0
LINE
  5
16FD
100
AcDbEntity
  8
0
100
AcDbLine
 10
12.463711
 20
17.427596
 30
0.0
 11
13.863711
 21
17.427596
 31
0.0
  0
LINE
  5
16FE
100
AcDbEntity
  8
0
100
AcDbLine
 10
5.938711
 20
16.458451
 30
0.0
 11
5.938711
 21
15.317576
 31
0.0
  0
LINE
  5
16FF
100
AcDbEntity
  8
0
100
AcDbLine
 10
12.463711
 20
17.427596
 30
0.0
 11
11.463711
 21
17.427596
 31
0.0
  0
LINE
  5
1700
100
AcDbEntity
  8
0
100
AcDbLine
 10
6.463711
 20
17.427596
 30
0.0
 11
11.463711
 21
17.427596
 31
0.0
  0
LINE
  5
1701
100
AcDbEntity
  8
0
100
AcDbLine
 10
6.463711
 20
17.427596
 30
0.0
 11
5.463711
 21
17.427596
 31
0.0
  0
LINE
  5
1702
100
AcDbEntity
  8
0
100
AcDbLine
 10
4.063711
 20
17.427596
 30
0.0
 11
5.463711
 21
17.427596
 31
0.0
  0
LINE
  5
1703
100
AcDbEntity
  8
0
100
AcDbLine
 10
0.463711
 20
17.427596
 30
0.0
 11
1.863711
 21
17.427596
 31
0.0
  0
LINE
  5
1704
100
AcDbEntity
  8
0
100
AcDbLine
 10
17.463711
 20
17.827596
 30
0.0
 11
17.463711
 21
18.277596
 31
0.0
  0
LINE
  5
1705
100
AcDbEntity
  8
0
100
AcDbLine
 10
17.463711
 20
18.277596
 30
0.0
 11
12.463711
 21
18.277596
 31
0.0
  0
LINE
  5
1706
100
AcDbEntity
  8
0
100
AcDbLine
 10
12.463711
 20
18.277596
 30
0.0
 11
12.463711
 21
17.827596
 31
0.0
  0
LINE
  5
1707
100
AcDbEntity
  8
0
100
AcDbLine
 10
11.463711
 20
18.277596
 30
0.0
 11
11.463711
 21
17.827596
 31
0.0
  0
LINE
  5
1708
100
AcDbEntity
  8
0
100
AcDbLine
 10
11.463711
 20
18.277596
 30
0.0
 11
6.463711
 21
18.277596
 31
0.0
  0
LINE
  5
1709
100
AcDbEntity
  8
0
100
AcDbLine
 10
6.463711
 20
18.277596
 30
0.0
 11
6.463711
 21
17.827596
 31
0.0
  0
LINE
  5
170A
100
AcDbEntity
  8
0
100
AcDbLine
 10
5.463711
 20
18.277596
 30
0.0
 11
5.463711
 21
17.827596
 31
0.0
  0
LINE
  5
170B
100
AcDbEntity
  8
0
100
AcDbLine
 10
5.463711
 20
18.277596
 30
0.0
 11
0.463711
 21
18.277596
 31
0.0
  0
LINE
  5
170C
100
AcDbEntity
  8
0
100
AcDbLine
 10
0.463711
 20
18.277596
 30
0.0
 11
0.463711
 21
17.827596
 31
0.0
  0
LINE
  5
170D
100
AcDbEntity
  8
0
100
AcDbLine
 10
4.963711
 20
18.277596
 30
0.0
 11
4.963711
 21
18.577596
 31
0.0
  0
LINE
  5
170E
100
AcDbEntity
  8
0
100
AcDbLine
 10
5.463711
 20
19.077596
 30
0.0
 11
12.463711
 21
19.077596
 31
0.0
  0
LINE
  5
170F
100
AcDbEntity
  8
0
100
AcDbLine
 10
12.963711
 20
18.577596
 30
0.0
 11
12.963711
 21
18.277596
 31
0.0
  0
LINE
  5
1710
100
AcDbEntity
  8
0
100
AcDbLine
 10
17.463711
 20
17.827596
 30
0.0
 11
17.463711
 21
17.427596
 31
0.0
  0
LINE
  5
1711
100
AcDbEntity
  8
0
100
AcDbLine
 10
12.463711
 20
18.277596
 30
0.0
 11
11.463711
 21
18.277596
 31
0.0
  0
LINE
  5
1712
100
AcDbEntity
  8
0
100
AcDbLine
 10
6.463711
 20
18.277596
 30
0.0
 11
5.463711
 21
18.277596
 31
0.0
  0
LINE
  5
1713
100
AcDbEntity
  8
0
100
AcDbLine
 10
0.463711
 20
17.827596
 30
0.0
 11
0.463711
 21
17.427596
 31
0.0
  0
LINE
  5
1714
100
AcDbEntity
  8
0
100
AcDbLine
 10
0.463711
 20
1.927596
 30
0.0
 11
0.463711
 21
1.527596
 31
0.0
  0
LINE
  5
1715
100
AcDbEntity
  8
0
100
AcDbLine
 10
6.463711
 20
1.077596
 30
0.0
 11
5.463711
 21
1.077596
 31
0.0
  0
LINE
  5
1716
100
AcDbEntity
  8
0
100
AcDbLine
 10
12.463711
 20
1.077596
 30
0.0
 11
11.463711
 21
1.077596
 31
0.0
  0
LINE
  5
1717
100
AcDbEntity
  8
0
100
AcDbLine
 10
17.463711
 20
1.927596
 30
0.0
 11
17.463711
 21
1.527596
 31
0.0
  0
ARC
  5
1718
100
AcDbEntity
  8
0
100
AcDbCircle
 10
8.963711
 20
9.677596
 30
0.0
 40
6.4
100
AcDbArc
 50
241.527847
 51
241.793142
  0
ARC
  5
1719
100
AcDbEntity
  8
0
100
AcDbCircle
 10
8.963711
 20
9.677596
 30
0.0
 40
7.425
100
AcDbArc
 50
245.957924
 51
249.394692
  0
ARC
  5
171A
100
AcDbEntity
  8
0
100
AcDbCircle
 10
8.963711
 20
9.677596
 30
0.0
 40
7.425
100
AcDbArc
 50
290.605308
 51
294.042076
  0
ARC
  5
171B
100
AcDbEntity
  8
0
100
AcDbCircle
 10
8.963711
 20
9.677596
 30
0.0
 40
6.4
100
AcDbArc
 50
298.206858
 51
298.472153
  0
ARC
  5
171C
100
AcDbEntity
  8
0
100
AcDbCircle
 10
8.963711
 20
9.677596
 30
0.0
 40
7.425
100
AcDbArc
 50
110.605308
 51
114.042076
  0
ARC
  5
171D
100
AcDbEntity
  8
0
100
AcDbCircle
 10
8.963711
 20
9.677596
 30
0.0
 40
6.4
100
AcDbArc
 50
118.206858
 51
118.472153
  0
ARC
  5
171E
100
AcDbEntity
  8
0
100
AcDbCircle
 10
8.963711
 20
9.677596
 30
0.0
 40
6.4
100
AcDbArc
 50
61.527847
 51
61.793142
  0
ARC
  5
171F
100
AcDbEntity
  8
0
100
AcDbCircle
 10
8.963711
 20
9.677596
 30
0.0
 40
7.425
100
AcDbArc
 50
65.957924
 51
69.394692
  0
LINE
  5
1720
100
AcDbEntity
  8
0
100
AcDbLine
 10
5.463711
 20
19.077596
 30
0.0
 11
4.963711
 21
18.577596
 31
0.0
  0
LINE
  5
1721
100
AcDbEntity
  8
0
100
AcDbLine
 10
12.963711
 20
18.577596
 30
0.0
 11
12.463711
 21
19.077596
 31
0.0
  0
LINE
  5
1722
100
AcDbEntity
  8
0
100
AcDbLine
 10
5.913711
 20
16.627596
 30
0.0
 11
6.350643
 21
16.627596
 31
0.0
  0
ARC
  5
1723
100
AcDbEntity
  8
0
100
AcDbCircle
 10
8.963711
 20
9.677596
 30
0.0
 40
7.425
100
AcDbArc
 50
107.014848
 51
110.605308
  0
LINE
  5
1724
100
AcDbEntity
  8
0
100
AcDbLine
 10
6.791011
 20
16.777596
 30
0.0
 11
11.136411
 21
16.777596
 31
0.0
  0
ARC
  5
1725
100
AcDbEntity
  8
0
100
AcDbCircle
 10
8.963711
 20
9.677596
 30
0.0
 40
7.425
100
AcDbArc
 50
69.394692
 51
72.985152
  0
LINE
  5
1726
100
AcDbEntity
  8
0
100
AcDbLine
 10
11.576779
 20
16.627596
 30
0.0
 11
12.013711
 21
16.627596
 31
0.0
  0
LINE
  5
1727
100
AcDbEntity
  8
0
100
AcDbLine
 10
17.863711
 20
17.427596
 30
0.0
 11
17.863711
 21
17.377596
 31
0.0
  0
LINE
  5
1728
100
AcDbEntity
  8
0
100
AcDbLine
 10
17.463711
 20
17.427596
 30
0.0
 11
17.863711
 21
17.427596
 31
0.0
  0
LINE
  5
1729
100
AcDbEntity
  8
0
100
AcDbLine
 10
0.063711
 20
17.427596
 30
0.0
 11
0.463711
 21
17.427596
 31
0.0
  0
LINE
  5
172A
100
AcDbEntity
  8
0
100
AcDbLine
 10
0.063711
 20
17.377596
 30
0.0
 11
0.063711
 21
17.427596
 31
0.0
  0
LINE
  5
172B
100
AcDbEntity
  8
0
100
AcDbLine
 10
0.063711
 20
1.927596
 30
0.0
 11
0.063711
 21
1.977596
 31
0.0
  0
LINE
  5
172C
100
AcDbEntity
  8
0
100
AcDbLine
 10
0.463711
 20
1.927596
 30
0.0
 11
0.063711
 21
1.927596
 31
0.0
  0
LINE
  5
172D
100
AcDbEntity
  8
0
100
AcDbLine
 10
17.863711
 20
1.927596
 30
0.0
 11
17.463711
 21
1.927596
 31
0.0
  0
LINE
  5
172E
100
AcDbEntity
  8
0
100
AcDbLine
 10
17.863711
 20
1.977596
 30
0.0
 11
17.863711
 21
1.927596
 31
0.0
  0
LINE
  5
172F
100
AcDbEntity
  8
0
100
AcDbLine
 10
11.576779
 20
2.727596
 30
0.0
 11
12.013711
 21
2.727596
 31
0.0
  0
ARC
  5
1730
100
AcDbEntity
  8
0
100
AcDbCircle
 10
8.963711
 20
9.677596
 30
0.0
 40
7.425
100
AcDbArc
 50
249.394692
 51
290.605308
  0
LINE
  5
1731
100
AcDbEntity
  8
0
100
AcDbLine
 10
5.913711
 20
2.727596
 30
0.0
 11
6.350643
 21
2.727596
 31
0.0
  0
LINE
  5
1732
100
AcDbEntity
  8
0
100
AcDbLine
 10
5.261829
 20
0.883247
 30
0.0
 11
5.067481
 21
1.077596
 31
0.0
  0
LINE
  5
1733
100
AcDbEntity
  8
0
100
AcDbLine
 10
4.766854
 20
0.388273
 30
0.0
 11
5.261829
 21
0.883247
 31
0.0
  0
LINE
  5
1734
100
AcDbEntity
  8
0
100
AcDbLine
 10
4.108121
 20
1.047006
 30
0.0
 11
4.077531
 21
1.077596
 31
0.0
  0
LINE
  5
1735
100
AcDbEntity
  8
0
100
AcDbLine
 10
4.766854
 20
0.388273
 30
0.0
 11
4.108121
 21
1.047006
 31
0.0
  0
LINE
  5
1736
100
AcDbEntity
  8
0
100
AcDbLine
 10
5.261829
 20
0.883247
 30
0.0
 11
5.067481
 21
1.077596
 31
0.0
  0
LINE
  5
1737
100
AcDbEntity
  8
0
100
AcDbLine
 10
4.108121
 20
1.047006
 30
0.0
 11
4.077531
 21
1.077596
 31
0.0
  0
LINE
  5
1738
100
AcDbEntity
  8
0
100
AcDbLine
 10
4.766854
 20
0.388273
 30
0.0
 11
4.108121
 21
1.047006
 31
0.0
  0
LINE
  5
1739
100
AcDbEntity
  8
0
100
AcDbLine
 10
13.819301
 20
1.047006
 30
0.0
 11
13.160567
 21
0.388273
 31
0.0
  0
LINE
  5
173A
100
AcDbEntity
  8
0
100
AcDbLine
 10
13.849891
 20
1.077596
 30
0.0
 11
13.819301
 21
1.047006
 31
0.0
  0
LINE
  5
173B
100
AcDbEntity
  8
0
100
AcDbLine
 10
12.859941
 20
1.077596
 30
0.0
 11
12.665593
 21
0.883247
 31
0.0
  0
LINE
  5
173C
100
AcDbEntity
  8
0
100
AcDbLine
 10
13.819301
 20
1.047006
 30
0.0
 11
13.160567
 21
0.388273
 31
0.0
  0
LINE
  5
173D
100
AcDbEntity
  8
0
100
AcDbLine
 10
13.849891
 20
1.077596
 30
0.0
 11
13.819301
 21
1.047006
 31
0.0
  0
LINE
  5
173E
100
AcDbEntity
  8
0
100
AcDbLine
 10
13.160567
 20
0.388273
 30
0.0
 11
12.665593
 21
0.883247
 31
0.0
  0
LINE
  5
173F
100
AcDbEntity
  8
0
100
AcDbLine
 10
12.859941
 20
1.077596
 30
0.0
 11
12.665593
 21
0.883247
 31
0.0
  0
LINE
  5
1740
100
AcDbEntity
  8
0
100
AcDbLine
 10
5.460121
 20
14.81857
 30
0.0
 11
5.460121
 21
14.877596
 31
0.0
  0
LINE
  5
1741
100
AcDbEntity
  8
0
100
AcDbLine
 10
5.460121
 20
13.477596
 30
0.0
 11
5.460121
 21
13.536622
 31
0.0
  0
LINE
  5
1742
100
AcDbEntity
  8
0
100
AcDbLine
 10
1.863711
 20
7.527596
 30
0.0
 11
4.463711
 21
7.527596
 31
0.0
  0
LINE
  5
1743
100
AcDbEntity
  8
0
100
AcDbLine
 10
5.460121
 20
5.81857
 30
0.0
 11
5.460121
 21
5.877596
 31
0.0
  0
LINE
  5
1744
100
AcDbEntity
  8
0
100
AcDbLine
 10
5.460121
 20
4.477596
 30
0.0
 11
5.460121
 21
4.536622
 31
0.0
  0
LINE
  5
1745
100
AcDbEntity
  8
0
100
AcDbLine
 10
1.863711
 20
11.827596
 30
0.0
 11
4.463711
 21
11.827596
 31
0.0
  0
LINE
  5
1746
100
AcDbEntity
  8
0
100
AcDbLine
 10
1.863711
 20
3.677596
 30
0.0
 11
4.463711
 21
3.677596
 31
0.0
  0
LINE
  5
1747
100
AcDbEntity
  8
0
100
AcDbLine
 10
4.463711
 20
3.677596
 30
0.0
 11
4.463711
 21
2.977596
 31
0.0
  0
LINE
  5
1748
100
AcDbEntity
  8
0
100
AcDbLine
 10
1.863711
 20
2.977596
 30
0.0
 11
4.463711
 21
2.977596
 31
0.0
  0
LINE
  5
1749
100
AcDbEntity
  8
0
100
AcDbLine
 10
1.863711
 20
1.977596
 30
0.0
 11
1.863711
 21
2.977596
 31
0.0
  0
LINE
  5
174A
100
AcDbEntity
  8
0
100
AcDbLine
 10
1.863711
 20
1.577596
 30
0.0
 11
1.863711
 21
1.977596
 31
0.0
  0
LINE
  5
174B
100
AcDbEntity
  8
0
100
AcDbLine
 10
5.163711
 20
1.977596
 30
0.0
 11
5.163711
 21
4.477596
 31
0.0
  0
LINE
  5
174C
100
AcDbEntity
  8
0
100
AcDbLine
 10
5.163711
 20
4.477596
 30
0.0
 11
4.703711
 21
4.477596
 31
0.0
  0
LINE
  5
174D
100
AcDbEntity
  8
0
100
AcDbLine
 10
4.703711
 20
4.477596
 30
0.0
 11
4.703711
 21
5.877596
 31
0.0
  0
LINE
  5
174E
100
AcDbEntity
  8
0
100
AcDbLine
 10
5.163711
 20
5.877596
 30
0.0
 11
4.703711
 21
5.877596
 31
0.0
  0
LINE
  5
174F
100
AcDbEntity
  8
0
100
AcDbLine
 10
5.163711
 20
13.477596
 30
0.0
 11
4.703711
 21
13.477596
 31
0.0
  0
LINE
  5
1750
100
AcDbEntity
  8
0
100
AcDbLine
 10
4.703711
 20
13.477596
 30
0.0
 11
4.703711
 21
14.877596
 31
0.0
  0
LINE
  5
1751
100
AcDbEntity
  8
0
100
AcDbLine
 10
5.163711
 20
14.877596
 30
0.0
 11
4.703711
 21
14.877596
 31
0.0
  0
LINE
  5
1752
100
AcDbEntity
  8
0
100
AcDbLine
 10
5.163711
 20
17.377596
 30
0.0
 11
5.163711
 21
14.877596
 31
0.0
  0
LINE
  5
1753
100
AcDbEntity
  8
0
100
AcDbLine
 10
4.063711
 20
17.377596
 30
0.0
 11
5.163711
 21
17.377596
 31
0.0
  0
LINE
  5
1754
100
AcDbEntity
  8
0
100
AcDbLine
 10
1.863711
 20
17.777596
 30
0.0
 11
4.063711
 21
17.777596
 31
0.0
  0
LINE
  5
1755
100
AcDbEntity
  8
0
100
AcDbLine
 10
1.863711
 20
17.377596
 30
0.0
 11
1.863711
 21
17.777596
 31
0.0
  0
LINE
  5
1756
100
AcDbEntity
  8
0
100
AcDbLine
 10
1.863711
 20
16.377596
 30
0.0
 11
1.863711
 21
17.377596
 31
0.0
  0
LINE
  5
1757
100
AcDbEntity
  8
0
100
AcDbLine
 10
1.863711
 20
16.377596
 30
0.0
 11
4.463711
 21
16.377596
 31
0.0
  0
LINE
  5
1758
100
AcDbEntity
  8
0
100
AcDbLine
 10
4.463711
 20
16.377596
 30
0.0
 11
4.463711
 21
15.677596
 31
0.0
  0
LINE
  5
1759
100
AcDbEntity
  8
0
100
AcDbLine
 10
1.863711
 20
15.677596
 30
0.0
 11
4.463711
 21
15.677596
 31
0.0
  0
LINE
  5
175A
100
AcDbEntity
  8
0
100
AcDbLine
 10
1.863711
 20
14.868788
 30
0.0
 11
1.863711
 21
15.677596
 31
0.0
  0
LINE
  5
175B
100
AcDbEntity
  8
0
100
AcDbLine
 10
1.863711
 20
13.486403
 30
0.0
 11
1.863711
 21
14.868788
 31
0.0
  0
LINE
  5
175C
100
AcDbEntity
  8
0
100
AcDbLine
 10
1.863711
 20
12.59996
 30
0.0
 11
1.863711
 21
13.486403
 31
0.0
  0
LINE
  5
175D
100
AcDbEntity
  8
0
100
AcDbLine
 10
1.863711
 20
5.868788
 30
0.0
 11
1.863711
 21
6.755231
 31
0.0
  0
LINE
  5
175E
100
AcDbEntity
  8
0
100
AcDbLine
 10
1.863711
 20
4.486403
 30
0.0
 11
1.863711
 21
5.868788
 31
0.0
  0
LINE
  5
175F
100
AcDbEntity
  8
0
100
AcDbLine
 10
1.863711
 20
3.677596
 30
0.0
 11
1.863711
 21
4.486403
 31
0.0
  0
LINE
  5
1760
100
AcDbEntity
  8
0
100
AcDbLine
 10
1.863711
 20
6.755231
 30
0.0
 11
4.463711
 21
6.755231
 31
0.0
  0
LINE
  5
1761
100
AcDbEntity
  8
0
100
AcDbLine
 10
1.863711
 20
11.177596
 30
0.0
 11
1.863711
 21
11.827596
 31
0.0
  0
LINE
  5
1762
100
AcDbEntity
  8
0
100
AcDbLine
 10
1.863711
 20
8.177596
 30
0.0
 11
1.863711
 21
11.177596
 31
0.0
  0
LINE
  5
1763
100
AcDbEntity
  8
0
100
AcDbLine
 10
1.863711
 20
7.527596
 30
0.0
 11
1.863711
 21
8.177596
 31
0.0
  0
LINE
  5
1764
100
AcDbEntity
  8
0
100
AcDbLine
 10
5.913711
 20
1.977596
 30
0.0
 11
5.163711
 21
1.977596
 31
0.0
  0
LINE
  5
1765
100
AcDbEntity
  8
0
100
AcDbLine
 10
4.063711
 20
1.977596
 30
0.0
 11
5.163711
 21
1.977596
 31
0.0
  0
LINE
  5
1766
100
AcDbEntity
  8
0
100
AcDbLine
 10
5.913711
 20
17.377596
 30
0.0
 11
5.163711
 21
17.377596
 31
0.0
  0
LINE
  5
1767
100
AcDbEntity
  8
0
100
AcDbLine
 10
5.913711
 20
7.477596
 30
0.0
 11
5.913711
 21
5.877596
 31
0.0
  0
LINE
  5
1768
100
AcDbEntity
  8
0
100
AcDbLine
 10
5.913711
 20
4.477596
 30
0.0
 11
5.913711
 21
5.877596
 31
0.0
  0
LINE
  5
1769
100
AcDbEntity
  8
0
100
AcDbLine
 10
5.913711
 20
4.477596
 30
0.0
 11
5.913711
 21
1.977596
 31
0.0
  0
LINE
  5
176A
100
AcDbEntity
  8
0
100
AcDbLine
 10
4.063711
 20
1.977596
 30
0.0
 11
4.063711
 21
1.577596
 31
0.0
  0
LINE
  5
176B
100
AcDbEntity
  8
0
100
AcDbLine
 10
4.063711
 20
17.777596
 30
0.0
 11
4.063711
 21
17.377596
 31
0.0
  0
LINE
  5
176C
100
AcDbEntity
  8
0
100
AcDbLine
 10
1.863711
 20
1.577596
 30
0.0
 11
4.063711
 21
1.577596
 31
0.0
  0
LINE
  5
176D
100
AcDbEntity
  8
0
100
AcDbLine
 10
4.463711
 20
7.527596
 30
0.0
 11
4.463711
 21
6.755231
 31
0.0
  0
LINE
  5
176E
100
AcDbEntity
  8
0
100
AcDbLine
 10
5.913711
 20
17.377596
 30
0.0
 11
5.913711
 21
14.877596
 31
0.0
  0
LINE
  5
176F
100
AcDbEntity
  8
0
100
AcDbLine
 10
4.463711
 20
12.59996
 30
0.0
 11
4.463711
 21
11.827596
 31
0.0
  0
LINE
  5
1770
100
AcDbEntity
  8
0
100
AcDbLine
 10
5.913711
 20
13.477596
 30
0.0
 11
5.913711
 21
14.877596
 31
0.0
  0
LINE
  5
1771
100
AcDbEntity
  8
0
100
AcDbLine
 10
5.913711
 20
13.477596
 30
0.0
 11
5.913711
 21
11.877596
 31
0.0
  0
LINE
  5
1772
100
AcDbEntity
  8
0
100
AcDbLine
 10
5.913711
 20
7.477596
 30
0.0
 11
5.913711
 21
11.877596
 31
0.0
  0
LINE
  5
1773
100
AcDbEntity
  8
0
100
AcDbLine
 10
4.388711
 20
6.927596
 30
0.0
 11
4.463711
 21
6.927596
 31
0.0
  0
LINE
  5
1774
100
AcDbEntity
  8
0
100
AcDbLine
 10
4.388711
 20
12.427596
 30
0.0
 11
4.463711
 21
12.427596
 31
0.0
  0
LINE
  5
1775
100
AcDbEntity
  8
0
100
AcDbLine
 10
1.863711
 20
11.977596
 30
0.0
 11
1.863711
 21
11.827596
 31
0.0
  0
LINE
  5
1776
100
AcDbEntity
  8
0
100
AcDbLine
 10
5.913711
 20
4.477596
 30
0.0
 11
5.163711
 21
4.477596
 31
0.0
  0
LINE
  5
1777
100
AcDbEntity
  8
0
100
AcDbLine
 10
5.913711
 20
14.877596
 30
0.0
 11
5.163711
 21
14.877596
 31
0.0
  0
LINE
  5
1778
100
AcDbEntity
  8
0
100
AcDbLine
 10
1.863711
 20
7.527596
 30
0.0
 11
1.863711
 21
7.377596
 31
0.0
  0
LINE
  5
1779
100
AcDbEntity
  8
0
100
AcDbLine
 10
4.113711
 20
16.277596
 30
0.0
 11
4.113711
 21
16.377596
 31
0.0
  0
LINE
  5
177A
100
AcDbEntity
  8
0
100
AcDbLine
 10
4.113711
 20
15.677596
 30
0.0
 11
4.113711
 21
15.777596
 31
0.0
  0
LINE
  5
177B
100
AcDbEntity
  8
0
100
AcDbLine
 10
4.113711
 20
3.577596
 30
0.0
 11
4.113711
 21
3.677596
 31
0.0
  0
LINE
  5
177C
100
AcDbEntity
  8
0
100
AcDbLine
 10
4.113711
 20
2.977596
 30
0.0
 11
4.113711
 21
3.077596
 31
0.0
  0
LINE
  5
177D
100
AcDbEntity
  8
0
100
AcDbLine
 10
4.313711
 20
15.777596
 30
0.0
 11
4.313711
 21
15.677596
 31
0.0
  0
LINE
  5
177E
100
AcDbEntity
  8
0
100
AcDbLine
 10
4.313711
 20
16.377596
 30
0.0
 11
4.313711
 21
16.277596
 31
0.0
  0
LINE
  5
177F
100
AcDbEntity
  8
0
100
AcDbLine
 10
4.313711
 20
3.577596
 30
0.0
 11
4.313711
 21
3.677596
 31
0.0
  0
LINE
  5
1780
100
AcDbEntity
  8
0
100
AcDbLine
 10
4.313711
 20
2.977596
 30
0.0
 11
4.313711
 21
3.077596
 31
0.0
  0
LINE
  5
1781
100
AcDbEntity
  8
0
100
AcDbLine
 10
5.913711
 20
13.477596
 30
0.0
 11
5.163711
 21
13.477596
 31
0.0
  0
LINE
  5
1782
100
AcDbEntity
  8
0
100
AcDbLine
 10
5.913711
 20
5.877596
 30
0.0
 11
5.163711
 21
5.877596
 31
0.0
  0
LINE
  5
1783
100
AcDbEntity
  8
0
100
AcDbLine
 10
5.113711
 20
14.823307
 30
0.0
 11
5.113711
 21
14.877596
 31
0.0
  0
LINE
  5
1784
100
AcDbEntity
  8
0
100
AcDbLine
 10
5.113711
 20
13.477596
 30
0.0
 11
5.113711
 21
13.531885
 31
0.0
  0
LINE
  5
1785
100
AcDbEntity
  8
0
100
AcDbLine
 10
5.113711
 20
5.823307
 30
0.0
 11
5.113711
 21
5.877596
 31
0.0
  0
LINE
  5
1786
100
AcDbEntity
  8
0
100
AcDbLine
 10
5.113711
 20
4.477596
 30
0.0
 11
5.113711
 21
4.531885
 31
0.0
  0
LINE
  5
1787
100
AcDbEntity
  8
0
100
AcDbLine
 10
5.163711
 20
5.877596
 30
0.0
 11
5.163711
 21
13.477596
 31
0.0
  0
LINE
  5
1788
100
AcDbEntity
  8
0
100
AcDbLine
 10
5.163711
 20
11.877596
 30
0.0
 11
5.913711
 21
11.877596
 31
0.0
  0
LINE
  5
1789
100
AcDbEntity
  8
0
100
AcDbLine
 10
5.913711
 20
7.477596
 30
0.0
 11
5.163711
 21
7.477596
 31
0.0
  0
LINE
  5
178A
100
AcDbEntity
  8
0
100
AcDbLine
 10
1.863711
 20
12.59996
 30
0.0
 11
4.463711
 21
12.59996
 31
0.0
  0
LINE
  5
178B
100
AcDbEntity
  8
0
100
AcDbLine
 10
17.460121
 20
14.81857
 30
0.0
 11
17.460121
 21
14.877596
 31
0.0
  0
LINE
  5
178C
100
AcDbEntity
  8
0
100
AcDbLine
 10
17.460121
 20
13.477596
 30
0.0
 11
17.460121
 21
13.536622
 31
0.0
  0
LINE
  5
178D
100
AcDbEntity
  8
0
100
AcDbLine
 10
13.863711
 20
7.527596
 30
0.0
 11
16.463711
 21
7.527596
 31
0.0
  0
LINE
  5
178E
100
AcDbEntity
  8
0
100
AcDbLine
 10
17.460121
 20
5.81857
 30
0.0
 11
17.460121
 21
5.877596
 31
0.0
  0
LINE
  5
178F
100
AcDbEntity
  8
0
100
AcDbLine
 10
17.460121
 20
4.477596
 30
0.0
 11
17.460121
 21
4.536622
 31
0.0
  0
LINE
  5
1790
100
AcDbEntity
  8
0
100
AcDbLine
 10
13.863711
 20
11.827596
 30
0.0
 11
16.463711
 21
11.827596
 31
0.0
  0
LINE
  5
1791
100
AcDbEntity
  8
0
100
AcDbLine
 10
13.863711
 20
3.677596
 30
0.0
 11
16.463711
 21
3.677596
 31
0.0
  0
LINE
  5
1792
100
AcDbEntity
  8
0
100
AcDbLine
 10
16.463711
 20
3.677596
 30
0.0
 11
16.463711
 21
2.977596
 31
0.0
  0
LINE
  5
1793
100
AcDbEntity
  8
0
100
AcDbLine
 10
13.863711
 20
2.977596
 30
0.0
 11
16.463711
 21
2.977596
 31
0.0
  0
LINE
  5
1794
100
AcDbEntity
  8
0
100
AcDbLine
 10
13.863711
 20
1.977596
 30
0.0
 11
13.863711
 21
2.977596
 31
0.0
  0
LINE
  5
1795
100
AcDbEntity
  8
0
100
AcDbLine
 10
13.863711
 20
1.577596
 30
0.0
 11
13.863711
 21
1.977596
 31
0.0
  0
LINE
  5
1796
100
AcDbEntity
  8
0
100
AcDbLine
 10
17.163711
 20
1.977596
 30
0.0
 11
17.163711
 21
4.477596
 31
0.0
  0
LINE
  5
1797
100
AcDbEntity
  8
0
100
AcDbLine
 10
17.163711
 20
4.477596
 30
0.0
 11
16.703711
 21
4.477596
 31
0.0
  0
LINE
  5
1798
100
AcDbEntity
  8
0
100
AcDbLine
 10
16.703711
 20
4.477596
 30
0.0
 11
16.703711
 21
5.877596
 31
0.0
  0
LINE
  5
1799
100
AcDbEntity
  8
0
100
AcDbLine
 10
17.163711
 20
5.877596
 30
0.0
 11
16.703711
 21
5.877596
 31
0.0
  0
LINE
  5
179A
100
AcDbEntity
  8
0
100
AcDbLine
 10
17.163711
 20
13.477596
 30
0.0
 11
16.703711
 21
13.477596
 31
0.0
  0
LINE
  5
179B
100
AcDbEntity
  8
0
100
AcDbLine
 10
16.703711
 20
13.477596
 30
0.0
 11
16.703711
 21
14.877596
 31
0.0
  0
LINE
  5
179C
100
AcDbEntity
  8
0
100
AcDbLine
 10
17.163711
 20
14.877596
 30
0.0
 11
16.703711
 21
14.877596
 31
0.0
  0
LINE
  5
179D
100
AcDbEntity
  8
0
100
AcDbLine
 10
17.163711
 20
17.377596
 30
0.0
 11
17.163711
 21
14.877596
 31
0.0
  0
LINE
  5
179E
100
AcDbEntity
  8
0
100
AcDbLine
 10
16.063711
 20
17.377596
 30
0.0
 11
17.163711
 21
17.377596
 31
0.0
  0
LINE
  5
179F
100
AcDbEntity
  8
0
100
AcDbLine
 10
13.863711
 20
17.777596
 30
0.0
 11
16.063711
 21
17.777596
 31
0.0
  0
LINE
  5
17A0
100
AcDbEntity
  8
0
100
AcDbLine
 10
13.863711
 20
17.377596
 30
0.0
 11
13.863711
 21
17.777596
 31
0.0
  0
LINE
  5
17A1
100
AcDbEntity
  8
0
100
AcDbLine
 10
13.863711
 20
16.377596
 30
0.0
 11
13.863711
 21
17.377596
 31
0.0
  0
LINE
  5
17A2
100
AcDbEntity
  8
0
100
AcDbLine
 10
13.863711
 20
16.377596
 30
0.0
 11
16.463711
 21
16.377596
 31
0.0
  0
LINE
  5
17A3
100
AcDbEntity
  8
0
100
AcDbLine
 10
16.463711
 20
16.377596
 30
0.0
 11
16.463711
 21
15.677596
 31
0.0
  0
LINE
  5
17A4
100
AcDbEntity
  8
0
100
AcDbLine
 10
13.863711
 20
15.677596
 30
0.0
 11
16.463711
 21
15.677596
 31
0.0
  0
LINE
  5
17A5
100
AcDbEntity
  8
0
100
AcDbLine
 10
13.863711
 20
14.868788
 30
0.0
 11
13.863711
 21
15.677596
 31
0.0
  0
LINE
  5
17A6
100
AcDbEntity
  8
0
100
AcDbLine
 10
13.863711
 20
13.486403
 30
0.0
 11
13.863711
 21
14.868788
 31
0.0
  0
LINE
  5
17A7
100
AcDbEntity
  8
0
100
AcDbLine
 10
13.863711
 20
12.59996
 30
0.0
 11
13.863711
 21
13.486403
 31
0.0
  0
LINE
  5
17A8
100
AcDbEntity
  8
0
100
AcDbLine
 10
13.863711
 20
5.868788
 30
0.0
 11
13.863711
 21
6.755231
 31
0.0
  0
LINE
  5
17A9
100
AcDbEntity
  8
0
100
AcDbLine
 10
13.863711
 20
4.486403
 30
0.0
 11
13.863711
 21
5.868788
 31
0.0
  0
LINE
  5
17AA
100
AcDbEntity
  8
0
100
AcDbLine
 10
13.863711
 20
3.677596
 30
0.0
 11
13.863711
 21
4.486403
 31
0.0
  0
LINE
  5
17AB
100
AcDbEntity
  8
0
100
AcDbLine
 10
13.863711
 20
6.755231
 30
0.0
 11
16.463711
 21
6.755231
 31
0.0
  0
LINE
  5
17AC
100
AcDbEntity
  8
0
100
AcDbLine
 10
13.863711
 20
11.177596
 30
0.0
 11
13.863711
 21
11.827596
 31
0.0
  0
LINE
  5
17AD
100
AcDbEntity
  8
0
100
AcDbLine
 10
13.863711
 20
8.177596
 30
0.0
 11
13.863711
 21
11.177596
 31
0.0
  0
LINE
  5
17AE
100
AcDbEntity
  8
0
100
AcDbLine
 10
13.863711
 20
7.527596
 30
0.0
 11
13.863711
 21
8.177596
 31
0.0
  0
LINE
  5
17AF
100
AcDbEntity
  8
0
100
AcDbLine
 10
17.913711
 20
1.977596
 30
0.0
 11
17.163711
 21
1.977596
 31
0.0
  0
LINE
  5
17B0
100
AcDbEntity
  8
0
100
AcDbLine
 10
16.063711
 20
1.977596
 30
0.0
 11
17.163711
 21
1.977596
 31
0.0
  0
LINE
  5
17B1
100
AcDbEntity
  8
0
100
AcDbLine
 10
17.913711
 20
17.377596
 30
0.0
 11
17.163711
 21
17.377596
 31
0.0
  0
LINE
  5
17B2
100
AcDbEntity
  8
0
100
AcDbLine
 10
17.913711
 20
7.477596
 30
0.0
 11
17.913711
 21
5.877596
 31
0.0
  0
LINE
  5
17B3
100
AcDbEntity
  8
0
100
AcDbLine
 10
17.913711
 20
4.477596
 30
0.0
 11
17.913711
 21
5.877596
 31
0.0
  0
LINE
  5
17B4
100
AcDbEntity
  8
0
100
AcDbLine
 10
17.913711
 20
4.477596
 30
0.0
 11
17.913711
 21
1.977596
 31
0.0
  0
LINE
  5
17B5
100
AcDbEntity
  8
0
100
AcDbLine
 10
16.063711
 20
1.977596
 30
0.0
 11
16.063711
 21
1.577596
 31
0.0
  0
LINE
  5
17B6
100
AcDbEntity
  8
0
100
AcDbLine
 10
16.063711
 20
17.777596
 30
0.0
 11
16.063711
 21
17.377596
 31
0.0
  0
LINE
  5
17B7
100
AcDbEntity
  8
0
100
AcDbLine
 10
13.863711
 20
1.577596
 30
0.0
 11
16.063711
 21
1.577596
 31
0.0
  0
LINE
  5
17B8
100
AcDbEntity
  8
0
100
AcDbLine
 10
16.463711
 20
7.527596
 30
0.0
 11
16.463711
 21
6.755231
 31
0.0
  0
LINE
  5
17B9
100
AcDbEntity
  8
0
100
AcDbLine
 10
17.913711
 20
17.377596
 30
0.0
 11
17.913711
 21
14.877596
 31
0.0
  0
LINE
  5
17BA
100
AcDbEntity
  8
0
100
AcDbLine
 10
16.463711
 20
12.59996
 30
0.0
 11
16.463711
 21
11.827596
 31
0.0
  0
LINE
  5
17BB
100
AcDbEntity
  8
0
100
AcDbLine
 10
17.913711
 20
13.477596
 30
0.0
 11
17.913711
 21
14.877596
 31
0.0
  0
LINE
  5
17BC
100
AcDbEntity
  8
0
100
AcDbLine
 10
17.913711
 20
13.477596
 30
0.0
 11
17.913711
 21
11.877596
 31
0.0
  0
LINE
  5
17BD
100
AcDbEntity
  8
0
100
AcDbLine
 10
17.913711
 20
7.477596
 30
0.0
 11
17.913711
 21
11.877596
 31
0.0
  0
LINE
  5
17BE
100
AcDbEntity
  8
0
100
AcDbLine
 10
16.388711
 20
6.927596
 30
0.0
 11
16.463711
 21
6.927596
 31
0.0
  0
LINE
  5
17BF
100
AcDbEntity
  8
0
100
AcDbLine
 10
16.388711
 20
12.427596
 30
0.0
 11
16.463711
 21
12.427596
 31
0.0
  0
LINE
  5
17C0
100
AcDbEntity
  8
0
100
AcDbLine
 10
13.863711
 20
11.977596
 30
0.0
 11
13.863711
 21
11.827596
 31
0.0
  0
LINE
  5
17C1
100
AcDbEntity
  8
0
100
AcDbLine
 10
17.913711
 20
4.477596
 30
0.0
 11
17.163711
 21
4.477596
 31
0.0
  0
LINE
  5
17C2
100
AcDbEntity
  8
0
100
AcDbLine
 10
17.913711
 20
14.877596
 30
0.0
 11
17.163711
 21
14.877596
 31
0.0
  0
LINE
  5
17C3
100
AcDbEntity
  8
0
100
AcDbLine
 10
13.863711
 20
7.527596
 30
0.0
 11
13.863711
 21
7.377596
 31
0.0
  0
LINE
  5
17C4
100
AcDbEntity
  8
0
100
AcDbLine
 10
16.113711
 20
16.277596
 30
0.0
 11
16.113711
 21
16.377596
 31
0.0
  0
LINE
  5
17C5
100
AcDbEntity
  8
0
100
AcDbLine
 10
16.113711
 20
15.677596
 30
0.0
 11
16.113711
 21
15.777596
 31
0.0
  0
LINE
  5
17C6
100
AcDbEntity
  8
0
100
AcDbLine
 10
16.113711
 20
3.577596
 30
0.0
 11
16.113711
 21
3.677596
 31
0.0
  0
LINE
  5
17C7
100
AcDbEntity
  8
0
100
AcDbLine
 10
16.113711
 20
2.977596
 30
0.0
 11
16.113711
 21
3.077596
 31
0.0
  0
LINE
  5
17C8
100
AcDbEntity
  8
0
100
AcDbLine
 10
16.313711
 20
15.777596
 30
0.0
 11
16.313711
 21
15.677596
 31
0.0
  0
LINE
  5
17C9
100
AcDbEntity
  8
0
100
AcDbLine
 10
16.313711
 20
16.377596
 30
0.0
 11
16.313711
 21
16.277596
 31
0.0
  0
LINE
  5
17CA
100
AcDbEntity
  8
0
100
AcDbLine
 10
16.313711
 20
3.577596
 30
0.0
 11
16.313711
 21
3.677596
 31
0.0
  0
LINE
  5
17CB
100
AcDbEntity
  8
0
100
AcDbLine
 10
16.313711
 20
2.977596
 30
0.0
 11
16.313711
 21
3.077596
 31
0.0
  0
LINE
  5
17CC
100
AcDbEntity
  8
0
100
AcDbLine
 10
17.913711
 20
13.477596
 30
0.0
 11
17.163711
 21
13.477596
 31
0.0
  0
LINE
  5
17CD
100
AcDbEntity
  8
0
100
AcDbLine
 10
17.913711
 20
5.877596
 30
0.0
 11
17.163711
 21
5.877596
 31
0.0
  0
LINE
  5
17CE
100
AcDbEntity
  8
0
100
AcDbLine
 10
17.113711
 20
14.823307
 30
0.0
 11
17.113711
 21
14.877596
 31
0.0
  0
LINE
  5
17CF
100
AcDbEntity
  8
0
100
AcDbLine
 10
17.113711
 20
13.477596
 30
0.0
 11
17.113711
 21
13.531885
 31
0.0
  0
LINE
  5
17D0
100
AcDbEntity
  8
0
100
AcDbLine
 10
17.113711
 20
5.823307
 30
0.0
 11
17.113711
 21
5.877596
 31
0.0
  0
LINE
  5
17D1
100
AcDbEntity
  8
0
100
AcDbLine
 10
17.113711
 20
4.477596
 30
0.0
 11
17.113711
 21
4.531885
 31
0.0
  0
LINE
  5
17D2
100
AcDbEntity
  8
0
100
AcDbLine
 10
17.163711
 20
5.877596
 30
0.0
 11
17.163711
 21
13.477596
 31
0.0
  0
LINE
  5
17D3
100
AcDbEntity
  8
0
100
AcDbLine
 10
17.163711
 20
11.877596
 30
0.0
 11
17.913711
 21
11.877596
 31
0.0
  0
LINE
  5
17D4
100
AcDbEntity
  8
0
100
AcDbLine
 10
17.913711
 20
7.477596
 30
0.0
 11
17.163711
 21
7.477596
 31
0.0
  0
LINE
  5
17D5
100
AcDbEntity
  8
0
100
AcDbLine
 10
13.863711
 20
12.59996
 30
0.0
 11
16.463711
 21
12.59996
 31
0.0
  0
LINE
  5
17D6
100
AcDbEntity
  8
0
100
AcDbLine
 10
5.120891
 20
4.531885
 30
0.0
 11
5.120891
 21
5.823307
 31
0.0
  0
LINE
  5
17D7
100
AcDbEntity
  8
0
100
AcDbLine
 10
1.863711
 20
11.827596
 30
0.0
 11
1.463711
 21
11.827596
 31
0.0
  0
LINE
  5
17D8
100
AcDbEntity
  8
0
100
AcDbLine
 10
5.120891
 20
14.823307
 30
0.0
 11
5.120891
 21
13.531885
 31
0.0
  0
LINE
  5
17D9
100
AcDbEntity
  8
0
100
AcDbLine
 10
1.863711
 20
7.527596
 30
0.0
 11
1.463711
 21
7.527596
 31
0.0
  0
LINE
  5
17DA
100
AcDbEntity
  8
0
100
AcDbLine
 10
1.463711
 20
15.677596
 30
0.0
 11
1.463711
 21
16.377596
 31
0.0
  0
LINE
  5
17DB
100
AcDbEntity
  8
0
100
AcDbLine
 10
1.863711
 20
16.377596
 30
0.0
 11
1.463711
 21
16.377596
 31
0.0
  0
LINE
  5
17DC
100
AcDbEntity
  8
0
100
AcDbLine
 10
1.463711
 20
15.677596
 30
0.0
 11
1.863711
 21
15.677596
 31
0.0
  0
LINE
  5
17DD
100
AcDbEntity
  8
0
100
AcDbLine
 10
1.863711
 20
15.677596
 30
0.0
 11
1.863711
 21
14.868788
 31
0.0
  0
LINE
  5
17DE
100
AcDbEntity
  8
0
100
AcDbLine
 10
0.013711
 20
1.977596
 30
0.0
 11
0.763711
 21
1.977596
 31
0.0
  0
LINE
  5
17DF
100
AcDbEntity
  8
0
100
AcDbLine
 10
1.863711
 20
14.868788
 30
0.0
 11
0.763711
 21
14.884148
 31
0.0
  0
LINE
  5
17E0
100
AcDbEntity
  8
0
100
AcDbLine
 10
0.013711
 20
11.877596
 30
0.0
 11
0.013711
 21
17.377596
 31
0.0
  0
LINE
  5
17E1
100
AcDbEntity
  8
0
100
AcDbLine
 10
1.863711
 20
4.486403
 30
0.0
 11
1.863711
 21
3.677596
 31
0.0
  0
LINE
  5
17E2
100
AcDbEntity
  8
0
100
AcDbLine
 10
1.463711
 20
3.677596
 30
0.0
 11
1.863711
 21
3.677596
 31
0.0
  0
LINE
  5
17E3
100
AcDbEntity
  8
0
100
AcDbLine
 10
1.463711
 20
2.977596
 30
0.0
 11
1.463711
 21
3.677596
 31
0.0
  0
LINE
  5
17E4
100
AcDbEntity
  8
0
100
AcDbLine
 10
1.463711
 20
2.977596
 30
0.0
 11
1.863711
 21
2.977596
 31
0.0
  0
LINE
  5
17E5
100
AcDbEntity
  8
0
100
AcDbLine
 10
1.863711
 20
1.977596
 30
0.0
 11
0.763711
 21
1.977596
 31
0.0
  0
LINE
  5
17E6
100
AcDbEntity
  8
0
100
AcDbLine
 10
1.863711
 20
4.486403
 30
0.0
 11
0.763711
 21
4.471044
 31
0.0
  0
LINE
  5
17E7
100
AcDbEntity
  8
0
100
AcDbLine
 10
1.863711
 20
11.177596
 30
0.0
 11
0.763711
 21
11.177596
 31
0.0
  0
LINE
  5
17E8
100
AcDbEntity
  8
0
100
AcDbLine
 10
1.863711
 20
13.486403
 30
0.0
 11
0.763711
 21
13.471044
 31
0.0
  0
LINE
  5
17E9
100
AcDbEntity
  8
0
100
AcDbLine
 10
1.863711
 20
13.486403
 30
0.0
 11
1.863711
 21
12.59996
 31
0.0
  0
LINE
  5
17EA
100
AcDbEntity
  8
0
100
AcDbLine
 10
1.863711
 20
12.59996
 30
0.0
 11
1.463711
 21
12.59996
 31
0.0
  0
LINE
  5
17EB
100
AcDbEntity
  8
0
100
AcDbLine
 10
0.013711
 20
1.977596
 30
0.0
 11
0.013711
 21
7.477596
 31
0.0
  0
LINE
  5
17EC
100
AcDbEntity
  8
0
100
AcDbLine
 10
1.863711
 20
8.177596
 30
0.0
 11
0.763711
 21
8.177596
 31
0.0
  0
LINE
  5
17ED
100
AcDbEntity
  8
0
100
AcDbLine
 10
0.013711
 20
7.477596
 30
0.0
 11
0.013711
 21
11.877596
 31
0.0
  0
LINE
  5
17EE
100
AcDbEntity
  8
0
100
AcDbLine
 10
1.863711
 20
7.527596
 30
0.0
 11
1.863711
 21
8.177596
 31
0.0
  0
LINE
  5
17EF
100
AcDbEntity
  8
0
100
AcDbLine
 10
1.863711
 20
7.377596
 30
0.0
 11
1.863711
 21
7.527596
 31
0.0
  0
LINE
  5
17F0
100
AcDbEntity
  8
0
100
AcDbLine
 10
1.863711
 20
3.077596
 30
0.0
 11
1.863711
 21
2.977596
 31
0.0
  0
LINE
  5
17F1
100
AcDbEntity
  8
0
100
AcDbLine
 10
1.863711
 20
3.677596
 30
0.0
 11
1.863711
 21
3.577596
 31
0.0
  0
LINE
  5
17F2
100
AcDbEntity
  8
0
100
AcDbLine
 10
1.863711
 20
6.755231
 30
0.0
 11
1.863711
 21
5.868788
 31
0.0
  0
LINE
  5
17F3
100
AcDbEntity
  8
0
100
AcDbLine
 10
1.863711
 20
1.977596
 30
0.0
 11
1.863711
 21
2.977596
 31
0.0
  0
LINE
  5
17F4
100
AcDbEntity
  8
0
100
AcDbLine
 10
1.863711
 20
5.868788
 30
0.0
 11
0.763711
 21
5.884148
 31
0.0
  0
LINE
  5
17F5
100
AcDbEntity
  8
0
100
AcDbLine
 10
0.013711
 20
17.377596
 30
0.0
 11
0.763711
 21
17.377596
 31
0.0
  0
LINE
  5
17F6
100
AcDbEntity
  8
0
100
AcDbLine
 10
1.863711
 20
17.377596
 30
0.0
 11
0.763711
 21
17.377596
 31
0.0
  0
LINE
  5
17F7
100
AcDbEntity
  8
0
100
AcDbLine
 10
1.463711
 20
6.755231
 30
0.0
 11
1.463711
 21
7.527596
 31
0.0
  0
LINE
  5
17F8
100
AcDbEntity
  8
0
100
AcDbLine
 10
1.463711
 20
11.827596
 30
0.0
 11
1.463711
 21
12.59996
 31
0.0
  0
LINE
  5
17F9
100
AcDbEntity
  8
0
100
AcDbLine
 10
1.538711
 20
6.927596
 30
0.0
 11
1.463711
 21
6.927596
 31
0.0
  0
LINE
  5
17FA
100
AcDbEntity
  8
0
100
AcDbLine
 10
1.538711
 20
12.427596
 30
0.0
 11
1.463711
 21
12.427596
 31
0.0
  0
LINE
  5
17FB
100
AcDbEntity
  8
0
100
AcDbLine
 10
1.613711
 20
16.277596
 30
0.0
 11
1.613711
 21
16.377596
 31
0.0
  0
LINE
  5
17FC
100
AcDbEntity
  8
0
100
AcDbLine
 10
1.613711
 20
15.677596
 30
0.0
 11
1.613711
 21
15.777596
 31
0.0
  0
LINE
  5
17FD
100
AcDbEntity
  8
0
100
AcDbLine
 10
1.613711
 20
3.577596
 30
0.0
 11
1.613711
 21
3.677596
 31
0.0
  0
LINE
  5
17FE
100
AcDbEntity
  8
0
100
AcDbLine
 10
1.613711
 20
2.977596
 30
0.0
 11
1.613711
 21
3.077596
 31
0.0
  0
LINE
  5
17FF
100
AcDbEntity
  8
0
100
AcDbLine
 10
4.813711
 20
13.527596
 30
0.0
 11
4.703034
 21
13.52605
 31
0.0
  0
LINE
  5
1800
100
AcDbEntity
  8
0
100
AcDbLine
 10
5.120891
 20
13.531885
 30
0.0
 11
4.813711
 21
13.527596
 31
0.0
  0
LINE
  5
1801
100
AcDbEntity
  8
0
100
AcDbLine
 10
4.703034
 20
14.829141
 30
0.0
 11
4.813711
 21
14.827596
 31
0.0
  0
LINE
  5
1802
100
AcDbEntity
  8
0
100
AcDbLine
 10
4.813711
 20
14.827596
 30
0.0
 11
5.120891
 21
14.823307
 31
0.0
  0
LINE
  5
1803
100
AcDbEntity
  8
0
100
AcDbLine
 10
4.813711
 20
14.827596
 30
0.0
 11
4.813711
 21
13.527596
 31
0.0
  0
LINE
  5
1804
100
AcDbEntity
  8
0
100
AcDbLine
 10
5.813711
 20
14.813632
 30
0.0
 11
5.813711
 21
13.541559
 31
0.0
  0
LINE
  5
1805
100
AcDbEntity
  8
0
100
AcDbLine
 10
5.813711
 20
13.541559
 30
0.0
 11
5.120891
 21
13.531885
 31
0.0
  0
LINE
  5
1806
100
AcDbEntity
  8
0
100
AcDbLine
 10
5.813711
 20
14.813632
 30
0.0
 11
5.120891
 21
14.823307
 31
0.0
  0
LINE
  5
1807
100
AcDbEntity
  8
0
100
AcDbLine
 10
4.703034
 20
4.52605
 30
0.0
 11
4.813711
 21
4.527596
 31
0.0
  0
LINE
  5
1808
100
AcDbEntity
  8
0
100
AcDbLine
 10
4.813711
 20
4.527596
 30
0.0
 11
5.120891
 21
4.531885
 31
0.0
  0
LINE
  5
1809
100
AcDbEntity
  8
0
100
AcDbLine
 10
4.813711
 20
5.827596
 30
0.0
 11
5.120891
 21
5.823307
 31
0.0
  0
LINE
  5
180A
100
AcDbEntity
  8
0
100
AcDbLine
 10
4.703034
 20
5.829141
 30
0.0
 11
4.813711
 21
5.827596
 31
0.0
  0
LINE
  5
180B
100
AcDbEntity
  8
0
100
AcDbLine
 10
4.813711
 20
4.527596
 30
0.0
 11
4.813711
 21
5.827596
 31
0.0
  0
LINE
  5
180C
100
AcDbEntity
  8
0
100
AcDbLine
 10
5.813711
 20
4.541559
 30
0.0
 11
5.813711
 21
5.813632
 31
0.0
  0
LINE
  5
180D
100
AcDbEntity
  8
0
100
AcDbLine
 10
5.813711
 20
4.541559
 30
0.0
 11
5.120891
 21
4.531885
 31
0.0
  0
LINE
  5
180E
100
AcDbEntity
  8
0
100
AcDbLine
 10
5.813711
 20
5.813632
 30
0.0
 11
5.120891
 21
5.823307
 31
0.0
  0
LINE
  5
180F
100
AcDbEntity
  8
0
100
AcDbLine
 10
1.863711
 20
16.377596
 30
0.0
 11
1.863711
 21
17.377596
 31
0.0
  0
LINE
  5
1810
100
AcDbEntity
  8
0
100
AcDbLine
 10
1.863711
 20
15.777596
 30
0.0
 11
1.863711
 21
15.677596
 31
0.0
  0
LINE
  5
1811
100
AcDbEntity
  8
0
100
AcDbLine
 10
1.863711
 20
16.377596
 30
0.0
 11
1.863711
 21
16.277596
 31
0.0
  0
LINE
  5
1812
100
AcDbEntity
  8
0
100
AcDbLine
 10
1.863711
 20
11.827596
 30
0.0
 11
1.863711
 21
11.977596
 31
0.0
  0
LINE
  5
1813
100
AcDbEntity
  8
0
100
AcDbLine
 10
1.863711
 20
11.177596
 30
0.0
 11
1.863711
 21
11.827596
 31
0.0
  0
LINE
  5
1814
100
AcDbEntity
  8
0
100
AcDbLine
 10
0.763711
 20
17.377596
 30
0.0
 11
0.763711
 21
14.884148
 31
0.0
  0
LINE
  5
1815
100
AcDbEntity
  8
0
100
AcDbLine
 10
0.763711
 20
13.471044
 30
0.0
 11
0.763711
 21
14.884148
 31
0.0
  0
LINE
  5
1816
100
AcDbEntity
  8
0
100
AcDbLine
 10
0.763711
 20
13.471044
 30
0.0
 11
0.763711
 21
11.177596
 31
0.0
  0
LINE
  5
1817
100
AcDbEntity
  8
0
100
AcDbLine
 10
0.763711
 20
8.177596
 30
0.0
 11
0.763711
 21
5.884148
 31
0.0
  0
LINE
  5
1818
100
AcDbEntity
  8
0
100
AcDbLine
 10
0.763711
 20
4.471044
 30
0.0
 11
0.763711
 21
5.884148
 31
0.0
  0
LINE
  5
1819
100
AcDbEntity
  8
0
100
AcDbLine
 10
0.763711
 20
4.471044
 30
0.0
 11
0.763711
 21
1.977596
 31
0.0
  0
LINE
  5
181A
100
AcDbEntity
  8
0
100
AcDbLine
 10
0.763711
 20
7.477596
 30
0.0
 11
0.013711
 21
7.477596
 31
0.0
  0
LINE
  5
181B
100
AcDbEntity
  8
0
100
AcDbLine
 10
0.013711
 20
11.877596
 30
0.0
 11
0.763711
 21
11.877596
 31
0.0
  0
LINE
  5
181C
100
AcDbEntity
  8
0
100
AcDbLine
 10
1.863711
 20
6.755231
 30
0.0
 11
1.463711
 21
6.755231
 31
0.0
  0
LINE
  5
181D
100
AcDbEntity
  8
0
100
AcDbLine
 10
17.120891
 20
4.531885
 30
0.0
 11
17.120891
 21
5.823307
 31
0.0
  0
LINE
  5
181E
100
AcDbEntity
  8
0
100
AcDbLine
 10
13.863711
 20
11.827596
 30
0.0
 11
13.463711
 21
11.827596
 31
0.0
  0
LINE
  5
181F
100
AcDbEntity
  8
0
100
AcDbLine
 10
17.120891
 20
14.823307
 30
0.0
 11
17.120891
 21
13.531885
 31
0.0
  0
LINE
  5
1820
100
AcDbEntity
  8
0
100
AcDbLine
 10
13.863711
 20
7.527596
 30
0.0
 11
13.463711
 21
7.527596
 31
0.0
  0
LINE
  5
1821
100
AcDbEntity
  8
0
100
AcDbLine
 10
13.463711
 20
15.677596
 30
0.0
 11
13.463711
 21
16.377596
 31
0.0
  0
LINE
  5
1822
100
AcDbEntity
  8
0
100
AcDbLine
 10
13.863711
 20
16.377596
 30
0.0
 11
13.463711
 21
16.377596
 31
0.0
  0
LINE
  5
1823
100
AcDbEntity
  8
0
100
AcDbLine
 10
13.463711
 20
15.677596
 30
0.0
 11
13.863711
 21
15.677596
 31
0.0
  0
LINE
  5
1824
100
AcDbEntity
  8
0
100
AcDbLine
 10
13.863711
 20
15.677596
 30
0.0
 11
13.863711
 21
14.868788
 31
0.0
  0
LINE
  5
1825
100
AcDbEntity
  8
0
100
AcDbLine
 10
12.013711
 20
1.977596
 30
0.0
 11
12.763711
 21
1.977596
 31
0.0
  0
LINE
  5
1826
100
AcDbEntity
  8
0
100
AcDbLine
 10
13.863711
 20
14.868788
 30
0.0
 11
12.763711
 21
14.884148
 31
0.0
  0
LINE
  5
1827
100
AcDbEntity
  8
0
100
AcDbLine
 10
12.013711
 20
11.877596
 30
0.0
 11
12.013711
 21
17.377596
 31
0.0
  0
LINE
  5
1828
100
AcDbEntity
  8
0
100
AcDbLine
 10
13.863711
 20
4.486403
 30
0.0
 11
13.863711
 21
3.677596
 31
0.0
  0
LINE
  5
1829
100
AcDbEntity
  8
0
100
AcDbLine
 10
13.463711
 20
3.677596
 30
0.0
 11
13.863711
 21
3.677596
 31
0.0
  0
LINE
  5
182A
100
AcDbEntity
  8
0
100
AcDbLine
 10
13.463711
 20
2.977596
 30
0.0
 11
13.463711
 21
3.677596
 31
0.0
  0
LINE
  5
182B
100
AcDbEntity
  8
0
100
AcDbLine
 10
13.463711
 20
2.977596
 30
0.0
 11
13.863711
 21
2.977596
 31
0.0
  0
LINE
  5
182C
100
AcDbEntity
  8
0
100
AcDbLine
 10
13.863711
 20
1.977596
 30
0.0
 11
12.763711
 21
1.977596
 31
0.0
  0
LINE
  5
182D
100
AcDbEntity
  8
0
100
AcDbLine
 10
13.863711
 20
4.486403
 30
0.0
 11
12.763711
 21
4.471044
 31
0.0
  0
LINE
  5
182E
100
AcDbEntity
  8
0
100
AcDbLine
 10
13.863711
 20
11.177596
 30
0.0
 11
12.763711
 21
11.177596
 31
0.0
  0
LINE
  5
182F
100
AcDbEntity
  8
0
100
AcDbLine
 10
13.863711
 20
13.486403
 30
0.0
 11
12.763711
 21
13.471044
 31
0.0
  0
LINE
  5
1830
100
AcDbEntity
  8
0
100
AcDbLine
 10
13.863711
 20
13.486403
 30
0.0
 11
13.863711
 21
12.59996
 31
0.0
  0
LINE
  5
1831
100
AcDbEntity
  8
0
100
AcDbLine
 10
13.863711
 20
12.59996
 30
0.0
 11
13.463711
 21
12.59996
 31
0.0
  0
LINE
  5
1832
100
AcDbEntity
  8
0
100
AcDbLine
 10
12.013711
 20
1.977596
 30
0.0
 11
12.013711
 21
7.477596
 31
0.0
  0
LINE
  5
1833
100
AcDbEntity
  8
0
100
AcDbLine
 10
13.863711
 20
8.177596
 30
0.0
 11
12.763711
 21
8.177596
 31
0.0
  0
LINE
  5
1834
100
AcDbEntity
  8
0
100
AcDbLine
 10
12.013711
 20
7.477596
 30
0.0
 11
12.013711
 21
11.877596
 31
0.0
  0
LINE
  5
1835
100
AcDbEntity
  8
0
100
AcDbLine
 10
13.863711
 20
7.527596
 30
0.0
 11
13.863711
 21
8.177596
 31
0.0
  0
LINE
  5
1836
100
AcDbEntity
  8
0
100
AcDbLine
 10
13.863711
 20
7.377596
 30
0.0
 11
13.863711
 21
7.527596
 31
0.0
  0
LINE
  5
1837
100
AcDbEntity
  8
0
100
AcDbLine
 10
13.863711
 20
3.077596
 30
0.0
 11
13.863711
 21
2.977596
 31
0.0
  0
LINE
  5
1838
100
AcDbEntity
  8
0
100
AcDbLine
 10
13.863711
 20
3.677596
 30
0.0
 11
13.863711
 21
3.577596
 31
0.0
  0
LINE
  5
1839
100
AcDbEntity
  8
0
100
AcDbLine
 10
13.863711
 20
6.755231
 30
0.0
 11
13.863711
 21
5.868788
 31
0.0
  0
LINE
  5
183A
100
AcDbEntity
  8
0
100
AcDbLine
 10
13.863711
 20
1.977596
 30
0.0
 11
13.863711
 21
2.977596
 31
0.0
  0
LINE
  5
183B
100
AcDbEntity
  8
0
100
AcDbLine
 10
13.863711
 20
5.868788
 30
0.0
 11
12.763711
 21
5.884148
 31
0.0
  0
LINE
  5
183C
100
AcDbEntity
  8
0
100
AcDbLine
 10
12.013711
 20
17.377596
 30
0.0
 11
12.763711
 21
17.377596
 31
0.0
  0
LINE
  5
183D
100
AcDbEntity
  8
0
100
AcDbLine
 10
13.863711
 20
17.377596
 30
0.0
 11
12.763711
 21
17.377596
 31
0.0
  0
LINE
  5
183E
100
AcDbEntity
  8
0
100
AcDbLine
 10
13.463711
 20
6.755231
 30
0.0
 11
13.463711
 21
7.527596
 31
0.0
  0
LINE
  5
183F
100
AcDbEntity
  8
0
100
AcDbLine
 10
13.463711
 20
11.827596
 30
0.0
 11
13.463711
 21
12.59996
 31
0.0
  0
LINE
  5
1840
100
AcDbEntity
  8
0
100
AcDbLine
 10
13.538711
 20
6.927596
 30
0.0
 11
13.463711
 21
6.927596
 31
0.0
  0
LINE
  5
1841
100
AcDbEntity
  8
0
100
AcDbLine
 10
13.538711
 20
12.427596
 30
0.0
 11
13.463711
 21
12.427596
 31
0.0
  0
LINE
  5
1842
100
AcDbEntity
  8
0
100
AcDbLine
 10
13.613711
 20
16.277596
 30
0.0
 11
13.613711
 21
16.377596
 31
0.0
  0
LINE
  5
1843
100
AcDbEntity
  8
0
100
AcDbLine
 10
13.613711
 20
15.677596
 30
0.0
 11
13.613711
 21
15.777596
 31
0.0
  0
LINE
  5
1844
100
AcDbEntity
  8
0
100
AcDbLine
 10
13.613711
 20
3.577596
 30
0.0
 11
13.613711
 21
3.677596
 31
0.0
  0
LINE
  5
1845
100
AcDbEntity
  8
0
100
AcDbLine
 10
13.613711
 20
2.977596
 30
0.0
 11
13.613711
 21
3.077596
 31
0.0
  0
LINE
  5
1846
100
AcDbEntity
  8
0
100
AcDbLine
 10
16.813711
 20
13.527596
 30
0.0
 11
16.703034
 21
13.52605
 31
0.0
  0
LINE
  5
1847
100
AcDbEntity
  8
0
100
AcDbLine
 10
17.120891
 20
13.531885
 30
0.0
 11
16.813711
 21
13.527596
 31
0.0
  0
LINE
  5
1848
100
AcDbEntity
  8
0
100
AcDbLine
 10
16.703034
 20
14.829141
 30
0.0
 11
16.813711
 21
14.827596
 31
0.0
  0
LINE
  5
1849
100
AcDbEntity
  8
0
100
AcDbLine
 10
16.813711
 20
14.827596
 30
0.0
 11
17.120891
 21
14.823307
 31
0.0
  0
LINE
  5
184A
100
AcDbEntity
  8
0
100
AcDbLine
 10
16.813711
 20
14.827596
 30
0.0
 11
16.813711
 21
13.527596
 31
0.0
  0
LINE
  5
184B
100
AcDbEntity
  8
0
100
AcDbLine
 10
17.813711
 20
14.813632
 30
0.0
 11
17.813711
 21
13.541559
 31
0.0
  0
LINE
  5
184C
100
AcDbEntity
  8
0
100
AcDbLine
 10
17.813711
 20
13.541559
 30
0.0
 11
17.120891
 21
13.531885
 31
0.0
  0
LINE
  5
184D
100
AcDbEntity
  8
0
100
AcDbLine
 10
17.813711
 20
14.813632
 30
0.0
 11
17.120891
 21
14.823307
 31
0.0
  0
LINE
  5
184E
100
AcDbEntity
  8
0
100
AcDbLine
 10
16.703034
 20
4.52605
 30
0.0
 11
16.813711
 21
4.527596
 31
0.0
  0
LINE
  5
184F
100
AcDbEntity
  8
0
100
AcDbLine
 10
16.813711
 20
4.527596
 30
0.0
 11
17.120891
 21
4.531885
 31
0.0
  0
LINE
  5
1850
100
AcDbEntity
  8
0
100
AcDbLine
 10
16.813711
 20
5.827596
 30
0.0
 11
17.120891
 21
5.823307
 31
0.0
  0
LINE
  5
1851
100
AcDbEntity
  8
0
100
AcDbLine
 10
16.703034
 20
5.829141
 30
0.0
 11
16.813711
 21
5.827596
 31
0.0
  0
LINE
  5
1852
100
AcDbEntity
  8
0
100
AcDbLine
 10
16.813711
 20
4.527596
 30
0.0
 11
16.813711
 21
5.827596
 31
0.0
  0
LINE
  5
1853
100
AcDbEntity
  8
0
100
AcDbLine
 10
17.813711
 20
4.541559
 30
0.0
 11
17.813711
 21
5.813632
 31
0.0
  0
LINE
  5
1854
100
AcDbEntity
  8
0
100
AcDbLine
 10
17.813711
 20
4.541559
 30
0.0
 11
17.120891
 21
4.531885
 31
0.0
  0
LINE
  5
1855
100
AcDbEntity
  8
0
100
AcDbLine
 10
17.813711
 20
5.813632
 30
0.0
 11
17.120891
 21
5.823307
 31
0.0
  0
LINE
  5
1856
100
AcDbEntity
  8
0
100
AcDbLine
 10
13.863711
 20
16.377596
 30
0.0
 11
13.863711
 21
17.377596
 31
0.0
  0
LINE
  5
1857
100
AcDbEntity
  8
0
100
AcDbLine
 10
13.863711
 20
15.777596
 30
0.0
 11
13.863711
 21
15.677596
 31
0.0
  0
LINE
  5
1858
100
AcDbEntity
  8
0
100
AcDbLine
 10
13.863711
 20
16.377596
 30
0.0
 11
13.863711
 21
16.277596
 31
0.0
  0
LINE
  5
1859
100
AcDbEntity
  8
0
100
AcDbLine
 10
13.863711
 20
11.827596
 30
0.0
 11
13.863711
 21
11.977596
 31
0.0
  0
LINE
  5
185A
100
AcDbEntity
  8
0
100
AcDbLine
 10
13.863711
 20
11.177596
 30
0.0
 11
13.863711
 21
11.827596
 31
0.0
  0
LINE
  5
185B
100
AcDbEntity
  8
0
100
AcDbLine
 10
12.763711
 20
17.377596
 30
0.0
 11
12.763711
 21
14.884148
 31
0.0
  0
LINE
  5
185C
100
AcDbEntity
  8
0
100
AcDbLine
 10
12.763711
 20
13.471044
 30
0.0
 11
12.763711
 21
14.884148
 31
0.0
  0
LINE
  5
185D
100
AcDbEntity
  8
0
100
AcDbLine
 10
12.763711
 20
13.471044
 30
0.0
 11
12.763711
 21
11.177596
 31
0.0
  0
LINE
  5
185E
100
AcDbEntity
  8
0
100
AcDbLine
 10
12.763711
 20
8.177596
 30
0.0
 11
12.763711
 21
5.884148
 31
0.0
  0
LINE
  5
185F
100
AcDbEntity
  8
0
100
AcDbLine
 10
12.763711
 20
4.471044
 30
0.0
 11
12.763711
 21
5.884148
 31
0.0
  0
LINE
  5
1860
100
AcDbEntity
  8
0
100
AcDbLine
 10
12.763711
 20
4.471044
 30
0.0
 11
12.763711
 21
1.977596
 31
0.0
  0
LINE
  5
1861
100
AcDbEntity
  8
0
100
AcDbLine
 10
12.763711
 20
7.477596
 30
0.0
 11
12.013711
 21
7.477596
 31
0.0
  0
LINE
  5
1862
100
AcDbEntity
  8
0
100
AcDbLine
 10
12.013711
 20
11.877596
 30
0.0
 11
12.763711
 21
11.877596
 31
0.0
  0
LINE
  5
1863
100
AcDbEntity
  8
0
100
AcDbLine
 10
13.863711
 20
6.755231
 30
0.0
 11
13.463711
 21
6.755231
 31
0.0
  0
LINE
  5
1864
100
AcDbEntity
  8
0
100
AcDbLine
 10
7.013711
 20
2.877596
 30
0.0
 11
6.813711
 21
2.877596
 31
0.0
  0
ARC
  5
1865
100
AcDbEntity
  8
0
100
AcDbCircle
 10
6.813711
 20
15.677596
 30
0.0
 40
0.8
100
AcDbArc
 50
90.0
 51
180.0
  0
LINE
  5
1866
100
AcDbEntity
  8
0
100
AcDbLine
 10
7.013711
 20
16.477596
 30
0.0
 11
6.813711
 21
16.477596
 31
0.0
  0
LINE
  5
1867
100
AcDbEntity
  8
0
100
AcDbLine
 10
7.013711
 20
11.177596
 30
0.0
 11
6.013711
 21
11.177596
 31
0.0
  0
LINE
  5
1868
100
AcDbEntity
  8
0
100
AcDbLine
 10
7.013711
 20
15.577596
 30
0.0
 11
6.013711
 21
15.577596
 31
0.0
  0
ARC
  5
1869
100
AcDbEntity
  8
0
100
AcDbCircle
 10
6.813711
 20
3.677596
 30
0.0
 40
0.8
100
AcDbArc
 50
180.0
 51
270.0
  0
LINE
  5
186A
100
AcDbEntity
  8
0
100
AcDbLine
 10
7.013711
 20
8.177596
 30
0.0
 11
6.013711
 21
8.177596
 31
0.0
  0
LINE
  5
186B
100
AcDbEntity
  8
0
100
AcDbLine
 10
7.013711
 20
3.777596
 30
0.0
 11
6.013711
 21
3.777596
 31
0.0
  0
LINE
  5
186C
100
AcDbEntity
  8
0
100
AcDbLine
 10
7.513711
 20
7.387596
 30
0.0
 11
7.513711
 21
7.677596
 31
0.0
  0
LINE
  5
186D
100
AcDbEntity
  8
0
100
AcDbLine
 10
7.513711
 20
6.577596
 30
0.0
 11
7.513711
 21
6.887596
 31
0.0
  0
LINE
  5
186E
100
AcDbEntity
  8
0
100
AcDbLine
 10
7.513711
 20
12.467596
 30
0.0
 11
7.513711
 21
12.777596
 31
0.0
  0
LINE
  5
186F
100
AcDbEntity
  8
0
100
AcDbLine
 10
7.513711
 20
11.677596
 30
0.0
 11
7.513711
 21
11.967596
 31
0.0
  0
LINE
  5
1870
100
AcDbEntity
  8
0
100
AcDbLine
 10
6.013711
 20
3.677596
 30
0.0
 11
6.013711
 21
3.777596
 31
0.0
  0
LINE
  5
1871
100
AcDbEntity
  8
0
100
AcDbLine
 10
6.013711
 20
3.777596
 30
0.0
 11
6.013711
 21
8.177596
 31
0.0
  0
LINE
  5
1872
100
AcDbEntity
  8
0
100
AcDbLine
 10
6.013711
 20
8.177596
 30
0.0
 11
6.013711
 21
11.177596
 31
0.0
  0
LINE
  5
1873
100
AcDbEntity
  8
0
100
AcDbLine
 10
6.013711
 20
11.177596
 30
0.0
 11
6.013711
 21
15.577596
 31
0.0
  0
LINE
  5
1874
100
AcDbEntity
  8
0
100
AcDbLine
 10
6.013711
 20
15.677596
 30
0.0
 11
6.013711
 21
15.577596
 31
0.0
  0
LINE
  5
1875
100
AcDbEntity
  8
0
100
AcDbLine
 10
7.013711
 20
11.677596
 30
0.0
 11
7.013711
 21
12.777596
 31
0.0
  0
LINE
  5
1876
100
AcDbEntity
  8
0
100
AcDbLine
 10
7.013711
 20
6.577596
 30
0.0
 11
7.013711
 21
7.677596
 31
0.0
  0
LINE
  5
1877
100
AcDbEntity
  8
0
 62
     4
100
AcDbLine
 10
8.763711
 20
13.627596
 30
0.0
 11
8.263711
 21
13.627596
 31
0.0
  0
LINE
  5
1878
100
AcDbEntity
  8
0
 62
     4
100
AcDbLine
 10
8.763711
 20
14.377596
 30
0.0
 11
8.763711
 21
13.627596
 31
0.0
  0
LINE
  5
1879
100
AcDbEntity
  8
0
 62
     4
100
AcDbLine
 10
8.763711
 20
14.377596
 30
0.0
 11
9.513711
 21
14.377596
 31
0.0
  0
LINE
  5
187A
100
AcDbEntity
  8
0
 62
     4
100
AcDbLine
 10
7.513711
 20
4.477596
 30
0.0
 11
9.513711
 21
4.477596
 31
0.0
  0
LINE
  5
187B
100
AcDbEntity
  8
0
 62
     4
100
AcDbLine
 10
9.513711
 20
4.477596
 30
0.0
 11
9.513711
 21
4.977596
 31
0.0
  0
LINE
  5
187C
100
AcDbEntity
  8
0
 62
     4
100
AcDbLine
 10
9.513711
 20
4.977596
 30
0.0
 11
7.513711
 21
4.977596
 31
0.0
  0
LINE
  5
187D
100
AcDbEntity
  8
0
 62
     4
100
AcDbLine
 10
7.513711
 20
4.977596
 30
0.0
 11
7.513711
 21
4.477596
 31
0.0
  0
LINE
  5
187E
100
AcDbEntity
  8
0
 62
     4
100
AcDbLine
 10
9.513711
 20
14.377596
 30
0.0
 11
9.513711
 21
14.877596
 31
0.0
  0
LINE
  5
187F
100
AcDbEntity
  8
0
 62
     4
100
AcDbLine
 10
9.513711
 20
14.877596
 30
0.0
 11
8.763711
 21
14.877596
 31
0.0
  0
LINE
  5
1880
100
AcDbEntity
  8
0
 62
     4
100
AcDbLine
 10
8.763711
 20
15.627596
 30
0.0
 11
8.763711
 21
14.877596
 31
0.0
  0
LINE
  5
1881
100
AcDbEntity
  8
0
 62
     4
100
AcDbLine
 10
8.263711
 20
15.627596
 30
0.0
 11
8.763711
 21
15.627596
 31
0.0
  0
LINE
  5
1882
100
AcDbEntity
  8
0
 62
     4
100
AcDbLine
 10
8.263711
 20
14.877596
 30
0.0
 11
8.263711
 21
15.627596
 31
0.0
  0
LINE
  5
1883
100
AcDbEntity
  8
0
 62
     4
100
AcDbLine
 10
8.263711
 20
14.877596
 30
0.0
 11
7.513711
 21
14.877596
 31
0.0
  0
LINE
  5
1884
100
AcDbEntity
  8
0
 62
     4
100
AcDbLine
 10
7.513711
 20
14.877596
 30
0.0
 11
7.513711
 21
14.377596
 31
0.0
  0
LINE
  5
1885
100
AcDbEntity
  8
0
 62
     4
100
AcDbLine
 10
7.513711
 20
14.377596
 30
0.0
 11
8.263711
 21
14.377596
 31
0.0
  0
LINE
  5
1886
100
AcDbEntity
  8
0
 62
     4
100
AcDbLine
 10
8.263711
 20
13.627596
 30
0.0
 11
8.263711
 21
14.377596
 31
0.0
  0
LINE
  5
1887
100
AcDbEntity
  8
0
100
AcDbLine
 10
7.513711
 20
6.727596
 30
0.0
 11
7.824379
 21
6.727596
 31
0.0
  0
LINE
  5
1888
100
AcDbEntity
  8
0
100
AcDbLine
 10
7.513711
 20
12.627596
 30
0.0
 11
7.913711
 21
12.627596
 31
0.0
  0
LINE
  5
1889
100
AcDbEntity
  8
0
100
AcDbLine
 10
11.163711
 20
16.476032
 30
0.0
 11
11.163711
 21
2.87916
 31
0.0
  0
LINE
  5
188A
100
AcDbEntity
  8
0
100
AcDbLine
 10
7.013711
 20
6.577596
 30
0.0
 11
9.563711
 21
6.577596
 31
0.0
  0
LINE
  5
188B
100
AcDbEntity
  8
0
100
AcDbLine
 10
9.563711
 20
6.887596
 30
0.0
 11
9.563711
 21
6.577596
 31
0.0
  0
LINE
  5
188C
100
AcDbEntity
  8
0
100
AcDbLine
 10
9.563711
 20
7.677596
 30
0.0
 11
9.563711
 21
7.387596
 31
0.0
  0
LINE
  5
188D
100
AcDbEntity
  8
0
100
AcDbLine
 10
7.013711
 20
7.677596
 30
0.0
 11
9.563711
 21
7.677596
 31
0.0
  0
LINE
  5
188E
100
AcDbEntity
  8
0
100
AcDbLine
 10
7.013711
 20
11.677596
 30
0.0
 11
9.563711
 21
11.677596
 31
0.0
  0
LINE
  5
188F
100
AcDbEntity
  8
0
100
AcDbLine
 10
9.563711
 20
11.967596
 30
0.0
 11
9.563711
 21
11.677596
 31
0.0
  0
LINE
  5
1890
100
AcDbEntity
  8
0
100
AcDbLine
 10
9.563711
 20
12.777596
 30
0.0
 11
9.563711
 21
12.467596
 31
0.0
  0
LINE
  5
1891
100
AcDbEntity
  8
0
100
AcDbLine
 10
7.013711
 20
12.777596
 30
0.0
 11
9.563711
 21
12.777596
 31
0.0
  0
LINE
  5
1892
100
AcDbEntity
  8
0
100
AcDbLine
 10
7.013711
 20
16.477596
 30
0.0
 11
11.113711
 21
16.477596
 31
0.0
  0
LINE
  5
1893
100
AcDbEntity
  8
0
100
AcDbLine
 10
7.013711
 20
2.877596
 30
0.0
 11
11.113711
 21
2.877596
 31
0.0
  0
LINE
  5
1894
100
AcDbEntity
  8
0
100
AcDbLine
 10
11.913711
 20
3.677596
 30
0.0
 11
11.913711
 21
15.677596
 31
0.0
  0
LINE
  5
1895
100
AcDbEntity
  8
0
100
AcDbLine
 10
7.013711
 20
6.577596
 30
0.0
 11
7.013711
 21
2.877596
 31
0.0
  0
ARC
  5
1896
100
AcDbEntity
  8
0
100
AcDbCircle
 10
11.113711
 20
15.677596
 30
0.0
 40
0.8
100
AcDbArc
 50
86.416678
 51
90.0
  0
ARC
  5
1897
100
AcDbEntity
  8
0
100
AcDbCircle
 10
11.113711
 20
3.677596
 30
0.0
 40
0.8
100
AcDbArc
 50
270.0
 51
273.583322
  0
LINE
  5
1898
100
AcDbEntity
  8
0
100
AcDbLine
 10
7.013711
 20
16.477596
 30
0.0
 11
7.013711
 21
12.777596
 31
0.0
  0
ARC
  5
1899
100
AcDbEntity
  8
0
100
AcDbCircle
 10
11.113711
 20
3.677596
 30
0.0
 40
0.8
100
AcDbArc
 50
273.583322
 51
0.0
  0
ARC
  5
189A
100
AcDbEntity
  8
0
100
AcDbCircle
 10
11.113711
 20
15.677596
 30
0.0
 40
0.8
100
AcDbArc
 50
0.0
 51
86.416678
  0
LINE
  5
189B
100
AcDbEntity
  8
0
100
AcDbLine
 10
7.013711
 20
11.677596
 30
0.0
 11
7.013711
 21
7.677596
 31
0.0
  0
LINE
  5
189C
100
AcDbEntity
  8
0
100
AcDbLine
 10
15.888711
 20
3.480406
 30
0.0
 11
14.038711
 21
3.480406
 31
0.0
  0
LINE
  5
189D
100
AcDbEntity
  8
0
100
AcDbLine
 10
15.888711
 20
3.174786
 30
0.0
 11
14.038711
 21
3.174786
 31
0.0
  0
LINE
  5
189E
100
AcDbEntity
  8
0
100
AcDbLine
 10
15.888711
 20
6.974786
 30
0.0
 11
14.038711
 21
6.974786
 31
0.0
  0
LINE
  5
189F
100
AcDbEntity
  8
0
100
AcDbLine
 10
15.888711
 20
7.280406
 30
0.0
 11
14.038711
 21
7.280406
 31
0.0
  0
LINE
  5
18A0
100
AcDbEntity
  8
0
100
AcDbLine
 10
14.038711
 20
3.174786
 30
0.0
 11
14.038711
 21
3.480406
 31
0.0
  0
LINE
  5
18A1
100
AcDbEntity
  8
0
100
AcDbLine
 10
14.038711
 20
3.174786
 30
0.0
 11
13.538711
 21
3.077596
 31
0.0
  0
LINE
  5
18A2
100
AcDbEntity
  8
0
100
AcDbLine
 10
14.038711
 20
3.480406
 30
0.0
 11
13.538711
 21
3.577596
 31
0.0
  0
LINE
  5
18A3
100
AcDbEntity
  8
0
100
AcDbLine
 10
14.038711
 20
6.974786
 30
0.0
 11
14.038711
 21
7.280406
 31
0.0
  0
LINE
  5
18A4
100
AcDbEntity
  8
0
100
AcDbLine
 10
14.038711
 20
6.974786
 30
0.0
 11
13.538711
 21
6.877596
 31
0.0
  0
LINE
  5
18A5
100
AcDbEntity
  8
0
100
AcDbLine
 10
14.038711
 20
7.280406
 30
0.0
 11
13.538711
 21
7.377596
 31
0.0
  0
LINE
  5
18A6
100
AcDbEntity
  8
0
100
AcDbLine
 10
15.888711
 20
6.974786
 30
0.0
 11
15.888711
 21
7.280406
 31
0.0
  0
LINE
  5
18A7
100
AcDbEntity
  8
0
100
AcDbLine
 10
15.888711
 20
7.280406
 30
0.0
 11
16.388711
 21
7.377596
 31
0.0
  0
LINE
  5
18A8
100
AcDbEntity
  8
0
100
AcDbLine
 10
15.888711
 20
6.974786
 30
0.0
 11
16.388711
 21
6.877596
 31
0.0
  0
LINE
  5
18A9
100
AcDbEntity
  8
0
100
AcDbLine
 10
15.888711
 20
3.174786
 30
0.0
 11
15.888711
 21
3.480406
 31
0.0
  0
LINE
  5
18AA
100
AcDbEntity
  8
0
100
AcDbLine
 10
15.888711
 20
3.480406
 30
0.0
 11
16.388711
 21
3.577596
 31
0.0
  0
LWPOLYLINE
  5
18AB
100
AcDbEntity
  8
0
 62
     9
100
AcDbPolyline
 90
        8
 70
     0
 43
0.0
 10
14.963711
 20
3.027596
 10
14.804022
 20
3.027596
 10
14.654587
 20
3.027596
 10
14.523799
 20
3.027596
 10
14.418751
 20
3.027596
 10
14.345093
 20
3.027596
 10
14.307086
 20
3.027596
 10
14.302273
 20
3.027596
  0
LINE
  5
18B5
100
AcDbEntity
  8
0
100
AcDbLine
 10
15.888711
 20
3.174786
 30
0.0
 11
16.388711
 21
3.077596
 31
0.0
  0
LINE
  5
18B6
100
AcDbEntity
  8
0
 62
     9
100
AcDbLine
 10
16.388711
 20
6.849488
 30
0.0
 11
13.538711
 21
6.849488
 31
0.0
  0
LWPOLYLINE
  5
18B7
100
AcDbEntity
  8
0
 62
     9
100
AcDbPolyline
 90
        8
 70
     0
 43
0.0
 10
15.625149
 20
3.027596
 10
15.620336
 20
3.027596
 10
15.582329
 20
3.027596
 10
15.508671
 20
3.027596
 10
15.403623
 20
3.027596
 10
15.272835
 20
3.027596
 10
15.123399
 20
3.027596
 10
14.963711
 20
3.027596
  0
ARC
  5
18C1
100
AcDbEntity
  8
0
100
AcDbCircle
 10
16.213711
 20
3.877596
 30
0.0
 40
0.3
100
AcDbArc
 50
270.0
 51
289.550658
  0
LINE
  5
18C2
100
AcDbEntity
  8
0
100
AcDbLine
 10
16.388711
 20
3.577596
 30
0.0
 11
13.538711
 21
3.577596
 31
0.0
  0
LINE
  5
18C3
100
AcDbEntity
  8
0
100
AcDbLine
 10
16.388711
 20
3.077596
 30
0.0
 11
13.538711
 21
3.077596
 31
0.0
  0
LINE
  5
18C4
100
AcDbEntity
  8
0
100
AcDbLine
 10
16.388711
 20
6.877596
 30
0.0
 11
13.538711
 21
6.877596
 31
0.0
  0
LINE
  5
18C5
100
AcDbEntity
  8
0
100
AcDbLine
 10
16.388711
 20
7.377596
 30
0.0
 11
13.538711
 21
7.377596
 31
0.0
  0
LINE
  5
18C6
100
AcDbEntity
  8
0
100
AcDbLine
 10
17.013711
 20
4.530389
 30
0.0
 11
17.013711
 21
4.477596
 31
0.0
  0
LINE
  5
18C7
100
AcDbEntity
  8
0
100
AcDbLine
 10
13.538711
 20
3.077596
 30
0.0
 11
13.538711
 21
3.577596
 31
0.0
  0
LINE
  5
18C8
100
AcDbEntity
  8
0
100
AcDbLine
 10
13.538711
 20
6.877596
 30
0.0
 11
13.538711
 21
7.377596
 31
0.0
  0
LINE
  5
18C9
100
AcDbEntity
  8
0
100
AcDbLine
 10
16.388711
 20
6.877596
 30
0.0
 11
16.388711
 21
7.377596
 31
0.0
  0
LINE
  5
18CA
100
AcDbEntity
  8
0
100
AcDbLine
 10
16.388711
 20
3.077596
 30
0.0
 11
16.388711
 21
3.577596
 31
0.0
  0
LINE
  5
18CB
100
AcDbEntity
  8
0
100
AcDbLine
 10
17.013711
 20
5.877596
 30
0.0
 11
17.013711
 21
5.824803
 31
0.0
  0
LINE
  5
18CC
100
AcDbEntity
  8
0
100
AcDbLine
 10
16.388711
 20
6.877596
 30
0.0
 11
16.388711
 21
6.849488
 31
0.0
  0
LINE
  5
18CD
100
AcDbEntity
  8
0
100
AcDbLine
 10
13.538711
 20
6.877596
 30
0.0
 11
13.538711
 21
6.849488
 31
0.0
  0
ARC
  5
18CE
100
AcDbEntity
  8
0
100
AcDbCircle
 10
14.963711
 20
3.777596
 30
0.0
 40
1.0
100
AcDbArc
 50
306.55629
 51
311.409622
  0
ARC
  5
18CF
100
AcDbEntity
  8
0
100
AcDbCircle
 10
14.963711
 20
3.777596
 30
0.0
 40
1.0
100
AcDbArc
 50
228.590378
 51
233.44371
  0
LINE
  5
18D0
100
AcDbEntity
  8
0
100
AcDbLine
 10
13.538711
 20
6.755231
 30
0.0
 11
13.538711
 21
6.849488
 31
0.0
  0
LINE
  5
18D1
100
AcDbEntity
  8
0
100
AcDbLine
 10
16.388711
 20
6.755231
 30
0.0
 11
16.388711
 21
6.849488
 31
0.0
  0
ARC
  5
18D2
100
AcDbEntity
  8
0
100
AcDbCircle
 10
14.169986
 20
2.877596
 30
0.0
 40
0.2
100
AcDbArc
 50
48.590378
 51
90.0
  0
ARC
  5
18D3
100
AcDbEntity
  8
0
100
AcDbCircle
 10
15.757436
 20
2.877596
 30
0.0
 40
0.2
100
AcDbArc
 50
90.0
 51
131.409622
  0
LINE
  5
18D4
100
AcDbEntity
  8
0
100
AcDbLine
 10
14.038711
 20
15.874786
 30
0.0
 11
15.888711
 21
15.874786
 31
0.0
  0
LINE
  5
18D5
100
AcDbEntity
  8
0
100
AcDbLine
 10
14.038711
 20
16.180406
 30
0.0
 11
15.888711
 21
16.180406
 31
0.0
  0
LINE
  5
18D6
100
AcDbEntity
  8
0
100
AcDbLine
 10
14.038711
 20
12.380406
 30
0.0
 11
15.888711
 21
12.380406
 31
0.0
  0
LINE
  5
18D7
100
AcDbEntity
  8
0
100
AcDbLine
 10
14.038711
 20
12.074786
 30
0.0
 11
15.888711
 21
12.074786
 31
0.0
  0
LINE
  5
18D8
100
AcDbEntity
  8
0
100
AcDbLine
 10
15.888711
 20
16.180406
 30
0.0
 11
15.888711
 21
15.874786
 31
0.0
  0
LINE
  5
18D9
100
AcDbEntity
  8
0
100
AcDbLine
 10
15.888711
 20
16.180406
 30
0.0
 11
16.388711
 21
16.277596
 31
0.0
  0
LINE
  5
18DA
100
AcDbEntity
  8
0
100
AcDbLine
 10
15.888711
 20
15.874786
 30
0.0
 11
16.388711
 21
15.777596
 31
0.0
  0
LINE
  5
18DB
100
AcDbEntity
  8
0
100
AcDbLine
 10
15.888711
 20
12.380406
 30
0.0
 11
15.888711
 21
12.074786
 31
0.0
  0
LINE
  5
18DC
100
AcDbEntity
  8
0
100
AcDbLine
 10
15.888711
 20
12.380406
 30
0.0
 11
16.388711
 21
12.477596
 31
0.0
  0
LINE
  5
18DD
100
AcDbEntity
  8
0
100
AcDbLine
 10
15.888711
 20
12.074786
 30
0.0
 11
16.388711
 21
11.977596
 31
0.0
  0
LINE
  5
18DE
100
AcDbEntity
  8
0
100
AcDbLine
 10
14.038711
 20
12.380406
 30
0.0
 11
14.038711
 21
12.074786
 31
0.0
  0
LINE
  5
18DF
100
AcDbEntity
  8
0
100
AcDbLine
 10
14.038711
 20
12.074786
 30
0.0
 11
13.538711
 21
11.977596
 31
0.0
  0
LINE
  5
18E0
100
AcDbEntity
  8
0
100
AcDbLine
 10
14.038711
 20
12.380406
 30
0.0
 11
13.538711
 21
12.477596
 31
0.0
  0
LINE
  5
18E1
100
AcDbEntity
  8
0
100
AcDbLine
 10
14.038711
 20
16.180406
 30
0.0
 11
14.038711
 21
15.874786
 31
0.0
  0
LINE
  5
18E2
100
AcDbEntity
  8
0
100
AcDbLine
 10
14.038711
 20
15.874786
 30
0.0
 11
13.538711
 21
15.777596
 31
0.0
  0
LWPOLYLINE
  5
18E3
100
AcDbEntity
  8
0
 62
     9
100
AcDbPolyline
 90
        8
 70
     0
 43
0.0
 10
14.963711
 20
16.327596
 10
15.123399
 20
16.327596
 10
15.272835
 20
16.327596
 10
15.403623
 20
16.327596
 10
15.508671
 20
16.327596
 10
15.582329
 20
16.327596
 10
15.620336
 20
16.327596
 10
15.625149
 20
16.327596
  0
LINE
  5
18ED
100
AcDbEntity
  8
0
100
AcDbLine
 10
14.038711
 20
16.180406
 30
0.0
 11
13.538711
 21
16.277596
 31
0.0
  0
LINE
  5
18EE
100
AcDbEntity
  8
0
 62
     9
100
AcDbLine
 10
13.538711
 20
12.505704
 30
0.0
 11
16.388711
 21
12.505704
 31
0.0
  0
LWPOLYLINE
  5
18EF
100
AcDbEntity
  8
0
 62
     9
100
AcDbPolyline
 90
        8
 70
     0
 43
0.0
 10
14.302273
 20
16.327596
 10
14.307086
 20
16.327596
 10
14.345093
 20
16.327596
 10
14.418751
 20
16.327596
 10
14.523799
 20
16.327596
 10
14.654587
 20
16.327596
 10
14.804022
 20
16.327596
 10
14.963711
 20
16.327596
  0
ARC
  5
18F9
100
AcDbEntity
  8
0
100
AcDbCircle
 10
13.713711
 20
15.477596
 30
0.0
 40
0.3
100
AcDbArc
 50
90.0
 51
109.550658
  0
LINE
  5
18FA
100
AcDbEntity
  8
0
100
AcDbLine
 10
13.538711
 20
15.777596
 30
0.0
 11
16.388711
 21
15.777596
 31
0.0
  0
LINE
  5
18FB
100
AcDbEntity
  8
0
100
AcDbLine
 10
13.538711
 20
16.277596
 30
0.0
 11
16.388711
 21
16.277596
 31
0.0
  0
LINE
  5
18FC
100
AcDbEntity
  8
0
100
AcDbLine
 10
13.538711
 20
12.477596
 30
0.0
 11
16.388711
 21
12.477596
 31
0.0
  0
LINE
  5
18FD
100
AcDbEntity
  8
0
100
AcDbLine
 10
13.538711
 20
11.977596
 30
0.0
 11
16.388711
 21
11.977596
 31
0.0
  0
LINE
  5
18FE
100
AcDbEntity
  8
0
100
AcDbLine
 10
16.388711
 20
16.277596
 30
0.0
 11
16.388711
 21
15.777596
 31
0.0
  0
LINE
  5
18FF
100
AcDbEntity
  8
0
100
AcDbLine
 10
16.388711
 20
12.477596
 30
0.0
 11
16.388711
 21
11.977596
 31
0.0
  0
LINE
  5
1900
100
AcDbEntity
  8
0
100
AcDbLine
 10
13.538711
 20
12.477596
 30
0.0
 11
13.538711
 21
11.977596
 31
0.0
  0
LINE
  5
1901
100
AcDbEntity
  8
0
100
AcDbLine
 10
13.538711
 20
16.277596
 30
0.0
 11
13.538711
 21
15.777596
 31
0.0
  0
LINE
  5
1902
100
AcDbEntity
  8
0
100
AcDbLine
 10
13.538711
 20
12.477596
 30
0.0
 11
13.538711
 21
12.505704
 31
0.0
  0
LINE
  5
1903
100
AcDbEntity
  8
0
100
AcDbLine
 10
16.388711
 20
12.477596
 30
0.0
 11
16.388711
 21
12.505704
 31
0.0
  0
ARC
  5
1904
100
AcDbEntity
  8
0
100
AcDbCircle
 10
14.963711
 20
15.577596
 30
0.0
 40
1.0
100
AcDbArc
 50
126.55629
 51
131.409622
  0
ARC
  5
1905
100
AcDbEntity
  8
0
100
AcDbCircle
 10
14.963711
 20
15.577596
 30
0.0
 40
1.0
100
AcDbArc
 50
48.590378
 51
53.44371
  0
LINE
  5
1906
100
AcDbEntity
  8
0
100
AcDbLine
 10
16.388711
 20
12.59996
 30
0.0
 11
16.388711
 21
12.505704
 31
0.0
  0
LINE
  5
1907
100
AcDbEntity
  8
0
100
AcDbLine
 10
13.538711
 20
12.59996
 30
0.0
 11
13.538711
 21
12.505704
 31
0.0
  0
ARC
  5
1908
100
AcDbEntity
  8
0
100
AcDbCircle
 10
15.757436
 20
16.477596
 30
0.0
 40
0.2
100
AcDbArc
 50
228.590378
 51
270.0
  0
ARC
  5
1909
100
AcDbEntity
  8
0
100
AcDbCircle
 10
14.169986
 20
16.477596
 30
0.0
 40
0.2
100
AcDbArc
 50
270.0
 51
311.409622
  0
LINE
  5
190A
100
AcDbEntity
  8
0
100
AcDbLine
 10
3.888711
 20
7.280406
 30
0.0
 11
2.038711
 21
7.280406
 31
0.0
  0
LINE
  5
190B
100
AcDbEntity
  8
0
100
AcDbLine
 10
2.038711
 20
3.174786
 30
0.0
 11
2.038711
 21
3.480406
 31
0.0
  0
LINE
  5
190C
100
AcDbEntity
  8
0
100
AcDbLine
 10
2.038711
 20
3.174786
 30
0.0
 11
1.538711
 21
3.077596
 31
0.0
  0
LINE
  5
190D
100
AcDbEntity
  8
0
100
AcDbLine
 10
3.888711
 20
3.480406
 30
0.0
 11
2.038711
 21
3.480406
 31
0.0
  0
LINE
  5
190E
100
AcDbEntity
  8
0
100
AcDbLine
 10
3.888711
 20
3.174786
 30
0.0
 11
2.038711
 21
3.174786
 31
0.0
  0
LINE
  5
190F
100
AcDbEntity
  8
0
100
AcDbLine
 10
2.038711
 20
3.480406
 30
0.0
 11
1.538711
 21
3.577596
 31
0.0
  0
LINE
  5
1910
100
AcDbEntity
  8
0
100
AcDbLine
 10
2.038711
 20
6.974786
 30
0.0
 11
2.038711
 21
7.280406
 31
0.0
  0
LINE
  5
1911
100
AcDbEntity
  8
0
100
AcDbLine
 10
2.038711
 20
6.974786
 30
0.0
 11
1.538711
 21
6.877596
 31
0.0
  0
LWPOLYLINE
  5
1912
100
AcDbEntity
  8
0
 62
     9
100
AcDbPolyline
 90
        8
 70
     0
 43
0.0
 10
3.625149
 20
3.027596
 10
3.608611
 20
3.027596
 10
3.559929
 20
3.027596
 10
3.481639
 20
3.027596
 10
3.377542
 20
3.027596
 10
3.25245
 20
3.027596
 10
3.112225
 20
3.027596
 10
2.963711
 20
3.027596
  0
LINE
  5
191C
100
AcDbEntity
  8
0
100
AcDbLine
 10
2.038711
 20
7.280406
 30
0.0
 11
1.538711
 21
7.377596
 31
0.0
  0
LINE
  5
191D
100
AcDbEntity
  8
0
100
AcDbLine
 10
3.888711
 20
6.974786
 30
0.0
 11
3.888711
 21
7.280406
 31
0.0
  0
LINE
  5
191E
100
AcDbEntity
  8
0
100
AcDbLine
 10
3.888711
 20
7.280406
 30
0.0
 11
4.388711
 21
7.377596
 31
0.0
  0
LINE
  5
191F
100
AcDbEntity
  8
0
 62
     9
100
AcDbLine
 10
4.388711
 20
6.849488
 30
0.0
 11
1.538711
 21
6.849488
 31
0.0
  0
LINE
  5
1920
100
AcDbEntity
  8
0
100
AcDbLine
 10
3.888711
 20
6.974786
 30
0.0
 11
4.388711
 21
6.877596
 31
0.0
  0
LINE
  5
1921
100
AcDbEntity
  8
0
100
AcDbLine
 10
3.888711
 20
6.974786
 30
0.0
 11
2.038711
 21
6.974786
 31
0.0
  0
LINE
  5
1922
100
AcDbEntity
  8
0
100
AcDbLine
 10
3.888711
 20
3.174786
 30
0.0
 11
3.888711
 21
3.480406
 31
0.0
  0
LINE
  5
1923
100
AcDbEntity
  8
0
100
AcDbLine
 10
3.888711
 20
3.480406
 30
0.0
 11
4.388711
 21
3.577596
 31
0.0
  0
LINE
  5
1924
100
AcDbEntity
  8
0
100
AcDbLine
 10
3.888711
 20
3.174786
 30
0.0
 11
4.388711
 21
3.077596
 31
0.0
  0
LWPOLYLINE
  5
1925
100
AcDbEntity
  8
0
 62
     9
100
AcDbPolyline
 90
        8
 70
     0
 43
0.0
 10
2.963711
 20
3.027596
 10
2.815197
 20
3.027596
 10
2.674972
 20
3.027596
 10
2.54988
 20
3.027596
 10
2.445783
 20
3.027596
 10
2.367493
 20
3.027596
 10
2.318811
 20
3.027596
 10
2.302273
 20
3.027596
  0
LINE
  5
192F
100
AcDbEntity
  8
0
100
AcDbLine
 10
5.013711
 20
4.530389
 30
0.0
 11
5.013711
 21
4.477596
 31
0.0
  0
ARC
  5
1930
100
AcDbEntity
  8
0
100
AcDbCircle
 10
4.213711
 20
3.877596
 30
0.0
 40
0.3
100
AcDbArc
 50
270.0
 51
289.621061
  0
LINE
  5
1931
100
AcDbEntity
  8
0
100
AcDbLine
 10
4.388711
 20
3.577596
 30
0.0
 11
1.538711
 21
3.577596
 31
0.0
  0
LINE
  5
1932
100
AcDbEntity
  8
0
100
AcDbLine
 10
4.388711
 20
3.077596
 30
0.0
 11
1.538711
 21
3.077596
 31
0.0
  0
LINE
  5
1933
100
AcDbEntity
  8
0
100
AcDbLine
 10
1.963711
 20
3.677596
 30
0.0
 11
1.963711
 21
3.577596
 31
0.0
  0
LINE
  5
1934
100
AcDbEntity
  8
0
100
AcDbLine
 10
3.963711
 20
3.677596
 30
0.0
 11
3.963711
 21
3.577596
 31
0.0
  0
LINE
  5
1935
100
AcDbEntity
  8
0
100
AcDbLine
 10
4.388711
 20
6.877596
 30
0.0
 11
1.538711
 21
6.877596
 31
0.0
  0
LINE
  5
1936
100
AcDbEntity
  8
0
100
AcDbLine
 10
5.013711
 20
5.877596
 30
0.0
 11
5.013711
 21
5.824803
 31
0.0
  0
LINE
  5
1937
100
AcDbEntity
  8
0
100
AcDbLine
 10
4.388711
 20
7.377596
 30
0.0
 11
1.538711
 21
7.377596
 31
0.0
  0
LINE
  5
1938
100
AcDbEntity
  8
0
100
AcDbLine
 10
1.538711
 20
3.077596
 30
0.0
 11
1.538711
 21
3.577596
 31
0.0
  0
LINE
  5
1939
100
AcDbEntity
  8
0
100
AcDbLine
 10
1.538711
 20
6.877596
 30
0.0
 11
1.538711
 21
7.377596
 31
0.0
  0
LINE
  5
193A
100
AcDbEntity
  8
0
100
AcDbLine
 10
4.388711
 20
6.877596
 30
0.0
 11
4.388711
 21
7.377596
 31
0.0
  0
LINE
  5
193B
100
AcDbEntity
  8
0
100
AcDbLine
 10
4.388711
 20
3.077596
 30
0.0
 11
4.388711
 21
3.577596
 31
0.0
  0
LINE
  5
193C
100
AcDbEntity
  8
0
100
AcDbLine
 10
4.388711
 20
6.877596
 30
0.0
 11
4.388711
 21
6.849488
 31
0.0
  0
LINE
  5
193D
100
AcDbEntity
  8
0
100
AcDbLine
 10
1.538711
 20
6.877596
 30
0.0
 11
1.538711
 21
6.849488
 31
0.0
  0
ARC
  5
193E
100
AcDbEntity
  8
0
100
AcDbCircle
 10
2.963711
 20
3.777596
 30
0.0
 40
1.0
100
AcDbArc
 50
306.55629
 51
311.409622
  0
ARC
  5
193F
100
AcDbEntity
  8
0
100
AcDbCircle
 10
2.963711
 20
3.777596
 30
0.0
 40
1.0
100
AcDbArc
 50
228.590378
 51
233.44371
  0
LINE
  5
1940
100
AcDbEntity
  8
0
100
AcDbLine
 10
1.538711
 20
6.755231
 30
0.0
 11
1.538711
 21
6.849488
 31
0.0
  0
LINE
  5
1941
100
AcDbEntity
  8
0
100
AcDbLine
 10
4.388711
 20
6.755231
 30
0.0
 11
4.388711
 21
6.849488
 31
0.0
  0
ARC
  5
1942
100
AcDbEntity
  8
0
100
AcDbCircle
 10
2.169986
 20
2.877596
 30
0.0
 40
0.2
100
AcDbArc
 50
48.590378
 51
90.0
  0
ARC
  5
1943
100
AcDbEntity
  8
0
100
AcDbCircle
 10
3.757436
 20
2.877596
 30
0.0
 40
0.2
100
AcDbArc
 50
90.0
 51
131.409622
  0
LINE
  5
1944
100
AcDbEntity
  8
0
100
AcDbLine
 10
2.038711
 20
12.074786
 30
0.0
 11
3.888711
 21
12.074786
 31
0.0
  0
LINE
  5
1945
100
AcDbEntity
  8
0
100
AcDbLine
 10
3.888711
 20
16.180406
 30
0.0
 11
3.888711
 21
15.874786
 31
0.0
  0
LINE
  5
1946
100
AcDbEntity
  8
0
100
AcDbLine
 10
3.888711
 20
16.180406
 30
0.0
 11
4.388711
 21
16.277596
 31
0.0
  0
LINE
  5
1947
100
AcDbEntity
  8
0
100
AcDbLine
 10
2.038711
 20
15.874786
 30
0.0
 11
3.888711
 21
15.874786
 31
0.0
  0
LINE
  5
1948
100
AcDbEntity
  8
0
100
AcDbLine
 10
2.038711
 20
16.180406
 30
0.0
 11
3.888711
 21
16.180406
 31
0.0
  0
LINE
  5
1949
100
AcDbEntity
  8
0
100
AcDbLine
 10
3.888711
 20
15.874786
 30
0.0
 11
4.388711
 21
15.777596
 31
0.0
  0
LINE
  5
194A
100
AcDbEntity
  8
0
100
AcDbLine
 10
3.888711
 20
12.380406
 30
0.0
 11
3.888711
 21
12.074786
 31
0.0
  0
LINE
  5
194B
100
AcDbEntity
  8
0
100
AcDbLine
 10
3.888711
 20
12.380406
 30
0.0
 11
4.388711
 21
12.477596
 31
0.0
  0
LWPOLYLINE
  5
194C
100
AcDbEntity
  8
0
 62
     9
100
AcDbPolyline
 90
        8
 70
     0
 43
0.0
 10
2.302273
 20
16.327596
 10
2.318811
 20
16.327596
 10
2.367493
 20
16.327596
 10
2.445783
 20
16.327596
 10
2.54988
 20
16.327596
 10
2.674972
 20
16.327596
 10
2.815197
 20
16.327596
 10
2.963711
 20
16.327596
  0
LINE
  5
1956
100
AcDbEntity
  8
0
100
AcDbLine
 10
3.888711
 20
12.074786
 30
0.0
 11
4.388711
 21
11.977596
 31
0.0
  0
LINE
  5
1957
100
AcDbEntity
  8
0
100
AcDbLine
 10
2.038711
 20
12.380406
 30
0.0
 11
2.038711
 21
12.074786
 31
0.0
  0
LINE
  5
1958
100
AcDbEntity
  8
0
100
AcDbLine
 10
2.038711
 20
12.074786
 30
0.0
 11
1.538711
 21
11.977596
 31
0.0
  0
LINE
  5
1959
100
AcDbEntity
  8
0
 62
     9
100
AcDbLine
 10
1.538711
 20
12.505704
 30
0.0
 11
4.388711
 21
12.505704
 31
0.0
  0
LINE
  5
195A
100
AcDbEntity
  8
0
100
AcDbLine
 10
2.038711
 20
12.380406
 30
0.0
 11
1.538711
 21
12.477596
 31
0.0
  0
LINE
  5
195B
100
AcDbEntity
  8
0
100
AcDbLine
 10
2.038711
 20
12.380406
 30
0.0
 11
3.888711
 21
12.380406
 31
0.0
  0
LINE
  5
195C
100
AcDbEntity
  8
0
100
AcDbLine
 10
2.038711
 20
16.180406
 30
0.0
 11
2.038711
 21
15.874786
 31
0.0
  0
LINE
  5
195D
100
AcDbEntity
  8
0
100
AcDbLine
 10
2.038711
 20
15.874786
 30
0.0
 11
1.538711
 21
15.777596
 31
0.0
  0
LINE
  5
195E
100
AcDbEntity
  8
0
100
AcDbLine
 10
2.038711
 20
16.180406
 30
0.0
 11
1.538711
 21
16.277596
 31
0.0
  0
LWPOLYLINE
  5
195F
100
AcDbEntity
  8
0
 62
     9
100
AcDbPolyline
 90
        8
 70
     0
 43
0.0
 10
2.963711
 20
16.327596
 10
3.112225
 20
16.327596
 10
3.25245
 20
16.327596
 10
3.377542
 20
16.327596
 10
3.481639
 20
16.327596
 10
3.559929
 20
16.327596
 10
3.608611
 20
16.327596
 10
3.625149
 20
16.327596
  0
ARC
  5
1969
100
AcDbEntity
  8
0
100
AcDbCircle
 10
1.713711
 20
15.477596
 30
0.0
 40
0.3
100
AcDbArc
 50
90.0
 51
109.621061
  0
LINE
  5
196A
100
AcDbEntity
  8
0
100
AcDbLine
 10
1.538711
 20
15.777596
 30
0.0
 11
4.388711
 21
15.777596
 31
0.0
  0
LINE
  5
196B
100
AcDbEntity
  8
0
100
AcDbLine
 10
1.538711
 20
16.277596
 30
0.0
 11
4.388711
 21
16.277596
 31
0.0
  0
LINE
  5
196C
100
AcDbEntity
  8
0
100
AcDbLine
 10
3.963711
 20
15.677596
 30
0.0
 11
3.963711
 21
15.777596
 31
0.0
  0
LINE
  5
196D
100
AcDbEntity
  8
0
100
AcDbLine
 10
1.963711
 20
15.677596
 30
0.0
 11
1.963711
 21
15.777596
 31
0.0
  0
LINE
  5
196E
100
AcDbEntity
  8
0
100
AcDbLine
 10
1.538711
 20
12.477596
 30
0.0
 11
4.388711
 21
12.477596
 31
0.0
  0
LINE
  5
196F
100
AcDbEntity
  8
0
100
AcDbLine
 10
1.538711
 20
11.977596
 30
0.0
 11
4.388711
 21
11.977596
 31
0.0
  0
LINE
  5
1970
100
AcDbEntity
  8
0
100
AcDbLine
 10
4.388711
 20
16.277596
 30
0.0
 11
4.388711
 21
15.777596
 31
0.0
  0
LINE
  5
1971
100
AcDbEntity
  8
0
100
AcDbLine
 10
4.388711
 20
12.477596
 30
0.0
 11
4.388711
 21
11.977596
 31
0.0
  0
LINE
  5
1972
100
AcDbEntity
  8
0
100
AcDbLine
 10
1.538711
 20
12.477596
 30
0.0
 11
1.538711
 21
11.977596
 31
0.0
  0
LINE
  5
1973
100
AcDbEntity
  8
0
100
AcDbLine
 10
1.538711
 20
16.277596
 30
0.0
 11
1.538711
 21
15.777596
 31
0.0
  0
LINE
  5
1974
100
AcDbEntity
  8
0
100
AcDbLine
 10
1.538711
 20
12.477596
 30
0.0
 11
1.538711
 21
12.505704
 31
0.0
  0
LINE
  5
1975
100
AcDbEntity
  8
0
100
AcDbLine
 10
4.388711
 20
12.477596
 30
0.0
 11
4.388711
 21
12.505704
 31
0.0
  0
ARC
  5
1976
100
AcDbEntity
  8
0
100
AcDbCircle
 10
2.963711
 20
15.577596
 30
0.0
 40
1.0
100
AcDbArc
 50
126.55629
 51
131.409622
  0
ARC
  5
1977
100
AcDbEntity
  8
0
100
AcDbCircle
 10
2.963711
 20
15.577596
 30
0.0
 40
1.0
100
AcDbArc
 50
48.590378
 51
53.44371
  0
LINE
  5
1978
100
AcDbEntity
  8
0
100
AcDbLine
 10
4.388711
 20
12.59996
 30
0.0
 11
4.388711
 21
12.505704
 31
0.0
  0
LINE
  5
1979
100
AcDbEntity
  8
0
100
AcDbLine
 10
1.538711
 20
12.59996
 30
0.0
 11
1.538711
 21
12.505704
 31
0.0
  0
ARC
  5
197A
100
AcDbEntity
  8
0
100
AcDbCircle
 10
3.757436
 20
16.477596
 30
0.0
 40
0.2
100
AcDbArc
 50
228.590378
 51
270.0
  0
ARC
  5
197B
100
AcDbEntity
  8
0
100
AcDbCircle
 10
2.169986
 20
16.477596
 30
0.0
 40
0.2
100
AcDbArc
 50
270.0
 51
311.409622
  0
LINE
  5
197C
100
AcDbEntity
  8
0
100
AcDbLine
 10
7.663711
 20
11.967596
 30
0.0
 11
7.663711
 21
11.677596
 31
0.0
  0
LINE
  5
197D
100
AcDbEntity
  8
0
100
AcDbLine
 10
7.663711
 20
7.677596
 30
0.0
 11
7.663711
 21
7.387596
 31
0.0
  0
ARC
  5
197E
100
AcDbEntity
  8
0
100
AcDbCircle
 10
9.108358
 20
9.677596
 30
0.0
 40
3.4
100
AcDbArc
 50
202.34729
 51
204.462611
  0
LINE
  5
197F
100
AcDbEntity
  8
0
100
AcDbLine
 10
5.963711
 20
8.384849
 30
0.0
 11
5.963711
 21
10.970343
 31
0.0
  0
ARC
  5
1980
100
AcDbEntity
  8
0
100
AcDbCircle
 10
9.108358
 20
9.677596
 30
0.0
 40
3.4
100
AcDbArc
 50
155.537389
 51
157.65271
  0
LINE
  5
1981
100
AcDbEntity
  8
0
100
AcDbLine
 10
7.913711
 20
12.467596
 30
0.0
 11
7.913711
 21
12.777596
 31
0.0
  0
LINE
  5
1982
100
AcDbEntity
  8
0
100
AcDbLine
 10
7.913711
 20
11.677596
 30
0.0
 11
7.913711
 21
11.967596
 31
0.0
  0
LINE
  5
1983
100
AcDbEntity
  8
0
100
AcDbLine
 10
7.913711
 20
7.387596
 30
0.0
 11
7.913711
 21
7.677596
 31
0.0
  0
LINE
  5
1984
100
AcDbEntity
  8
0
100
AcDbLine
 10
7.913711
 20
6.828206
 30
0.0
 11
7.913711
 21
6.887596
 31
0.0
  0
LINE
  5
1985
100
AcDbEntity
  8
0
100
AcDbLine
 10
9.563711
 20
6.707596
 30
0.0
 11
9.418015
 21
6.707596
 31
0.0
  0
LINE
  5
1986
100
AcDbEntity
  8
0
100
AcDbLine
 10
8.763711
 20
12.757596
 30
0.0
 11
8.763711
 21
12.609511
 31
0.0
  0
LINE
  5
1987
100
AcDbEntity
  8
0
100
AcDbLine
 10
8.763711
 20
7.677596
 30
0.0
 11
8.763711
 21
7.387596
 31
0.0
  0
LINE
  5
1988
100
AcDbEntity
  8
0
100
AcDbLine
 10
8.763711
 20
12.757596
 30
0.0
 11
9.563711
 21
12.757596
 31
0.0
  0
ARC
  5
1989
100
AcDbEntity
  8
0
100
AcDbCircle
 10
8.613711
 20
6.117596
 30
0.0
 40
1.0
100
AcDbArc
 50
129.548053
 51
152.543357
  0
ARC
  5
198A
100
AcDbEntity
  8
0
100
AcDbCircle
 10
8.613711
 20
6.117596
 30
0.0
 40
1.0
100
AcDbArc
 50
27.456643
 51
49.090909
  0
ARC
  5
198B
100
AcDbEntity
  8
0
100
AcDbCircle
 10
8.613711
 20
6.117596
 30
0.0
 40
1.0
100
AcDbArc
 50
49.090909
 51
49.801943
  0
ARC
  5
198C
100
AcDbEntity
  8
0
100
AcDbCircle
 10
8.613711
 20
6.117596
 30
0.0
 40
1.0
100
AcDbArc
 50
49.801943
 51
50.451947
  0
LINE
  5
198D
100
AcDbEntity
  8
0
100
AcDbLine
 10
9.763711
 20
7.299432
 30
0.0
 11
7.963711
 21
7.299432
 31
0.0
  0
LINE
  5
198E
100
AcDbEntity
  8
0
100
AcDbLine
 10
7.963711
 20
7.299432
 30
0.0
 11
7.463711
 21
7.387596
 31
0.0
  0
LINE
  5
198F
100
AcDbEntity
  8
0
100
AcDbLine
 10
9.763711
 20
7.299432
 30
0.0
 11
9.763711
 21
6.975759
 31
0.0
  0
LINE
  5
1990
100
AcDbEntity
  8
0
100
AcDbLine
 10
9.763711
 20
6.975759
 30
0.0
 11
7.963711
 21
6.975759
 31
0.0
  0
LINE
  5
1991
100
AcDbEntity
  8
0
100
AcDbLine
 10
7.963711
 20
7.299432
 30
0.0
 11
7.963711
 21
6.975759
 31
0.0
  0
LINE
  5
1992
100
AcDbEntity
  8
0
100
AcDbLine
 10
7.963711
 20
6.975759
 30
0.0
 11
7.463711
 21
6.887596
 31
0.0
  0
LINE
  5
1993
100
AcDbEntity
  8
0
 62
     9
100
AcDbLine
 10
7.363711
 20
6.887596
 30
0.0
 11
7.363711
 21
7.387596
 31
0.0
  0
LINE
  5
1994
100
AcDbEntity
  8
0
100
AcDbLine
 10
10.263711
 20
7.387596
 30
0.0
 11
9.763711
 21
7.299432
 31
0.0
  0
LINE
  5
1995
100
AcDbEntity
  8
0
100
AcDbLine
 10
10.263711
 20
6.887596
 30
0.0
 11
9.763711
 21
6.975759
 31
0.0
  0
LINE
  5
1996
100
AcDbEntity
  8
0
100
AcDbLine
 10
10.263711
 20
6.887596
 30
0.0
 11
7.463711
 21
6.887596
 31
0.0
  0
LINE
  5
1997
100
AcDbEntity
  8
0
100
AcDbLine
 10
10.263711
 20
7.387596
 30
0.0
 11
7.463711
 21
7.387596
 31
0.0
  0
LINE
  5
1998
100
AcDbEntity
  8
0
100
AcDbLine
 10
10.263711
 20
7.387596
 30
0.0
 11
10.263711
 21
6.887596
 31
0.0
  0
LINE
  5
1999
100
AcDbEntity
  8
0
100
AcDbLine
 10
7.463711
 20
7.387596
 30
0.0
 11
7.463711
 21
6.887596
 31
0.0
  0
LINE
  5
199A
100
AcDbEntity
  8
0
100
AcDbLine
 10
7.163711
 20
6.887596
 30
0.0
 11
7.163711
 21
7.387596
 31
0.0
  0
LINE
  5
199B
100
AcDbEntity
  8
0
100
AcDbLine
 10
7.363711
 20
6.887596
 30
0.0
 11
7.163711
 21
6.887596
 31
0.0
  0
LINE
  5
199C
100
AcDbEntity
  8
0
100
AcDbLine
 10
7.363711
 20
7.387596
 30
0.0
 11
7.163711
 21
7.387596
 31
0.0
  0
LINE
  5
199D
100
AcDbEntity
  8
0
100
AcDbLine
 10
7.363711
 20
7.387596
 30
0.0
 11
7.463711
 21
7.387596
 31
0.0
  0
LINE
  5
199E
100
AcDbEntity
  8
0
100
AcDbLine
 10
7.463711
 20
6.887596
 30
0.0
 11
7.363711
 21
6.887596
 31
0.0
  0
LINE
  5
199F
100
AcDbEntity
  8
0
100
AcDbLine
 10
9.763711
 20
12.379432
 30
0.0
 11
7.963711
 21
12.379432
 31
0.0
  0
LINE
  5
19A0
100
AcDbEntity
  8
0
100
AcDbLine
 10
7.963711
 20
12.379432
 30
0.0
 11
7.463711
 21
12.467596
 31
0.0
  0
LINE
  5
19A1
100
AcDbEntity
  8
0
100
AcDbLine
 10
9.763711
 20
12.379432
 30
0.0
 11
9.763711
 21
12.055759
 31
0.0
  0
LINE
  5
19A2
100
AcDbEntity
  8
0
100
AcDbLine
 10
9.763711
 20
12.055759
 30
0.0
 11
7.963711
 21
12.055759
 31
0.0
  0
LINE
  5
19A3
100
AcDbEntity
  8
0
100
AcDbLine
 10
7.963711
 20
12.379432
 30
0.0
 11
7.963711
 21
12.055759
 31
0.0
  0
LINE
  5
19A4
100
AcDbEntity
  8
0
100
AcDbLine
 10
7.963711
 20
12.055759
 30
0.0
 11
7.463711
 21
11.967596
 31
0.0
  0
LINE
  5
19A5
100
AcDbEntity
  8
0
 62
     9
100
AcDbLine
 10
7.363711
 20
11.967596
 30
0.0
 11
7.363711
 21
12.467596
 31
0.0
  0
LINE
  5
19A6
100
AcDbEntity
  8
0
100
AcDbLine
 10
10.263711
 20
12.467596
 30
0.0
 11
9.763711
 21
12.379432
 31
0.0
  0
LINE
  5
19A7
100
AcDbEntity
  8
0
100
AcDbLine
 10
10.263711
 20
11.967596
 30
0.0
 11
9.763711
 21
12.055759
 31
0.0
  0
LINE
  5
19A8
100
AcDbEntity
  8
0
100
AcDbLine
 10
10.263711
 20
11.967596
 30
0.0
 11
7.463711
 21
11.967596
 31
0.0
  0
LINE
  5
19A9
100
AcDbEntity
  8
0
100
AcDbLine
 10
10.263711
 20
12.467596
 30
0.0
 11
7.463711
 21
12.467596
 31
0.0
  0
LINE
  5
19AA
100
AcDbEntity
  8
0
100
AcDbLine
 10
10.263711
 20
12.467596
 30
0.0
 11
10.263711
 21
11.967596
 31
0.0
  0
LINE
  5
19AB
100
AcDbEntity
  8
0
100
AcDbLine
 10
7.463711
 20
12.467596
 30
0.0
 11
7.463711
 21
11.967596
 31
0.0
  0
LINE
  5
19AC
100
AcDbEntity
  8
0
100
AcDbLine
 10
7.163711
 20
11.967596
 30
0.0
 11
7.163711
 21
12.467596
 31
0.0
  0
LINE
  5
19AD
100
AcDbEntity
  8
0
100
AcDbLine
 10
7.363711
 20
11.967596
 30
0.0
 11
7.163711
 21
11.967596
 31
0.0
  0
LINE
  5
19AE
100
AcDbEntity
  8
0
100
AcDbLine
 10
7.363711
 20
12.467596
 30
0.0
 11
7.163711
 21
12.467596
 31
0.0
  0
LINE
  5
19AF
100
AcDbEntity
  8
0
100
AcDbLine
 10
7.363711
 20
12.467596
 30
0.0
 11
7.463711
 21
12.467596
 31
0.0
  0
LINE
  5
19B0
100
AcDbEntity
  8
0
100
AcDbLine
 10
7.463711
 20
11.967596
 30
0.0
 11
7.363711
 21
11.967596
 31
0.0
  0
ARC
  5
19B1
100
AcDbEntity
  8
0
100
AcDbCircle
 10
8.913711
 20
11.927596
 30
0.0
 40
0.7
100
AcDbArc
 50
90.0
 51
129.411417
  0
ARC
  5
19B2
100
AcDbEntity
  8
0
100
AcDbCircle
 10
8.913711
 20
11.927596
 30
0.0
 40
0.7
100
AcDbArc
 50
176.71612
 51
200.97988
  0
ARC
  5
19B3
100
AcDbEntity
  8
0
100
AcDbCircle
 10
8.913711
 20
11.927596
 30
0.0
 40
0.7
100
AcDbArc
 50
50.588583
 51
90.0
  0
ENDBLK
  5
19B5
100
AcDbEntity
  8
0
100
AcDbBlockEnd
  0
BLOCK
  5
1C91
100
AcDbEntity
  8
0
100
AcDbBlockBegin
  2
*D3
 70
     1
 10
0.0
 20
0.0
 30
0.0
  3
*D3
  1
AVE_RENDER
  0
LINE
  5
1C92
100
AcDbEntity
  8
0
  6
BYBLOCK
 62
     0
100
AcDbLine
 10
92.451051
 20
163.754926
 30
0.0
 11
92.451051
 21
152.32
 31
0.0
  0
LINE
  5
1C93
100
AcDbEntity
  8
0
  6
BYBLOCK
 62
     0
100
AcDbLine
 10
110.351051
 20
163.754926
 30
0.0
 11
110.351051
 21
152.32
 31
0.0
  0
LINE
  5
1C94
100
AcDbEntity
  8
0
  6
BYBLOCK
 62
     0
100
AcDbLine
 10
95.451051
 20
152.5
 30
0.0
 11
107.351051
 21
152.5
 31
0.0
  0
SOLID
  5
1C95
100
AcDbEntity
  8
0
  6
BYBLOCK
 62
     0
100
AcDbTrace
 10
95.451051
 20
153.0
 30
0.0
 11
95.451051
 21
152.0
 31
0.0
 12
92.451051
 22
152.5
 32
0.0
 13
92.451051
 23
152.5
 33
0.0
  0
SOLID
  5
1C96
100
AcDbEntity
  8
0
  6
BYBLOCK
 62
     0
100
AcDbTrace
 10
107.351051
 20
153.0
 30
0.0
 11
107.351051
 21
152.0
 31
0.0
 12
110.351051
 22
152.5
 32
0.0
 13
110.351051
 23
152.5
 33
0.0
  0
TEXT
  5
1C97
100
AcDbEntity
  8
0
  6
BYBLOCK
 62
     0
100
AcDbText
 10
97.115337
 20
153.5
 30
0.0
 40
2.5
  1
17.9
  7
ROMANS
100
AcDbText
  0
POINT
  5
1C98
100
AcDbEntity
  8
DEFPOINTS
  6
BYBLOCK
 62
     0
100
AcDbPoint
 10
92.451051
 20
163.817426
 30
0.0
  0
POINT
  5
1C99
100
AcDbEntity
  8
DEFPOINTS
  6
BYBLOCK
 62
     0
100
AcDbPoint
 10
110.351051
 20
163.817426
 30
0.0
  0
POINT
  5
1C9A
100
AcDbEntity
  8
DEFPOINTS
  6
BYBLOCK
 62
     0
100
AcDbPoint
 10
110.351051
 20
152.5
 30
0.0
  0
ENDBLK
  5
1C9B
100
AcDbEntity
  8
0
100
AcDbBlockEnd
  0
BLOCK
  5
1C9E
100
AcDbEntity
  8
0
100
AcDbBlockBegin
  2
*D4
 70
     1
 10
0.0
 20
0.0
 30
0.0
  3
*D4
  1
AVE_RENDER
  0
LINE
  5
1C9F
100
AcDbEntity
  8
0
  6
BYBLOCK
 62
     0
100
AcDbLine
 10
109.963551
 20
162.917426
 30
0.0
 11
120.18
 21
162.917426
 31
0.0
  0
LINE
  5
1CA0
100
AcDbEntity
  8
0
  6
BYBLOCK
 62
     0
100
AcDbLine
 10
109.963551
 20
180.117426
 30
0.0
 11
120.18
 21
180.117426
 31
0.0
  0
LINE
  5
1CA1
100
AcDbEntity
  8
0
  6
BYBLOCK
 62
     0
100
AcDbLine
 10
120.0
 20
165.917426
 30
0.0
 11
120.0
 21
177.117426
 31
0.0
  0
SOLID
  5
1CA2
100
AcDbEntity
  8
0
  6
BYBLOCK
 62
     0
100
AcDbTrace
 10
119.5
 20
165.917426
 30
0.0
 11
120.5
 21
165.917426
 31
0.0
 12
120.0
 22
162.917426
 32
0.0
 13
120.0
 23
162.917426
 33
0.0
  0
SOLID
  5
1CA3
100
AcDbEntity
  8
0
  6
BYBLOCK
 62
     0
100
AcDbTrace
 10
119.5
 20
177.117426
 30
0.0
 11
120.5
 21
177.117426
 31
0.0
 12
120.0
 22
180.117426
 32
0.0
 13
120.0
 23
180.117426
 33
0.0
  0
TEXT
  5
1CA4
100
AcDbEntity
  8
0
  6
BYBLOCK
 62
     0
100
AcDbText
 10
119.0
 20
167.172188
 30
0.0
 40
2.5
  1
17.2
 50
90.0
  7
ROMANS
100
AcDbText
  0
POINT
  5
1CA5
100
AcDbEntity
  8
DEFPOINTS
  6
BYBLOCK
 62
     0
100
AcDbPoint
 10
109.901051
 20
162.917426
 30
0.0
  0
POINT
  5
1CA6
100
AcDbEntity
  8
DEFPOINTS
  6
BYBLOCK
 62
     0
100
AcDbPoint
 10
109.901051
 20
180.117426
 30
0.0
  0
POINT
  5
1CA7
100
AcDbEntity
  8
DEFPOINTS
  6
BYBLOCK
 62
     0
100
AcDbPoint
 10
120.0
 20
180.117426
 30
0.0
  0
ENDBLK
  5
1CA8
100
AcDbEntity
  8
0
100
AcDbBlockEnd
  0
ENDSEC
  0
SECTION
  2
ENTITIES
  0
INSERT
  5
163C
100
AcDbEntity
  8
ALPHA
100
AcDbBlockReference
  2
AVE_RENDER
 10
0.0
 20
0.0
 30
0.0
1001
AVE_RENDER
1002
{
1070
     6
1000
Pref
1070
    50
1070
    20
1070
     1
1070
     0
1000

1070
    10
1070
     1
1070
    30
1040
25.4
1070
     1
1040
0.3
1040
0.7
1040
0.0
1040
10.0
1010
-1.0
1020
-1.0
1030
-1.0
1040
0.3
1070
    49
1070
     0
1070
     0
1010
1.0
1020
1.0
1030
1.0
1040
45.0
1070
     1
1070
     0
1000
WCS
1040
0.0
1002
}
  0
INSERT
  5
163D
100
AcDbEntity
  8
ALPHA
100
AcDbBlockReference
  2
AVE_RENDER
 10
0.0
 20
0.0
 30
0.0
1001
AVE_RENDER
1002
{
1070
     0
1000
Full Opt
1070
     0
1070
     1
1070
     1
1070
     1
1070
     0
1070
     0
1070
     0
1070
     1
1070
     1
1040
0.0001
1040
0.0001
1002
}
  0
INSERT
  5
163E
100
AcDbEntity
  8
ALPHA
100
AcDbBlockReference
  2
AVE_RENDER
 10
0.0
 20
0.0
 30
0.0
1001
AVE_RENDER
1002
{
1070
     0
1000
Quick Opt
1070
     0
1070
     1
1070
     1
1070
     1
1070
     0
1070
     0
1070
     1
1002
}
  0
INSERT
  5
163F
100
AcDbEntity
  8
ALPHA
100
AcDbBlockReference
  2
AVE_RENDER
 10
0.0
 20
0.0
 30
0.0
1001
AVE_RENDER
1002
{
1070
     1
1000
Scanl Opt
1070
     2
1070
     0
1070
     2
1040
2.0
1040
4.0
1070
     0
1070
     1
1070
     0
1040
0.03
1002
}
  0
INSERT
  5
1640
100
AcDbEntity
  8
ALPHA
100
AcDbBlockReference
  2
AVE_RENDER
 10
0.0
 20
0.0
 30
0.0
1001
AVE_RENDER
1002
{
1070
     2
1000
Raytr Opt
1070
     2
1070
     0
1070
     2
1040
2.0
1040
4.0
1070
     0
1070
     1
1070
     1
1040
0.03
1070
     3
1040
0.03
1002
}
  0
INSERT
  5
1641
100
AcDbEntity
  8
ALPHA
100
AcDbBlockReference
  2
AVE_RENDER
 10
0.0
 20
0.0
 30
0.0
1001
AVE_RENDER
1002
{
1070
     0
1000
RFile Opt
1070
     5
1070
   640
1070
   480
1070
 10000
1070
     3
1070
    32
1070
    24
1070
     0
1070
     0
1070
     0
1070
     1
1070
     0
1070
     0
1070
     0
1002
}
  0
INSERT
  5
1642
100
AcDbEntity
  8
ALPHA
100
AcDbBlockReference
  2
AVE_RENDER
 10
0.0
 20
0.0
 30
0.0
1001
AVE_RENDER
1002
{
1070
     0
1000
Fog Opt
1070
     0
1070
     0
1040
0.0
1040
1.0
1040
0.0
1040
1.0
1010
0.5
1020
0.5
1030
0.5
1002
}
  0
INSERT
  5
1643
100
AcDbEntity
  8
ALPHA
100
AcDbBlockReference
  2
AVE_RENDER
 10
0.0
 20
0.0
 30
0.0
1001
AVE_RENDER
1002
{
1070
     0
1000
BG Opt
1070
     0
1070
     1
1010
0.0
1020
0.0
1030
0.0
1010
1.0
1020
0.0
1030
0.0
1010
0.0
1020
1.0
1030
0.0
1010
0.0
1020
0.0
1030
1.0
1040
0.5
1040
0.33
1040
0.0
1000

1070
     1
1000

1070
     1
1070
     1
1040
1.0
1040
1.0
1040
0.0
1040
0.0
1070
     0
1002
}
  0
INSERT
  5
164A
100
AcDbEntity
  8
ALPHA
100
AcDbBlockReference
  2
AVE_GLOBAL
 10
0.0
 20
0.0
 30
0.0
1001
AVE_MATERIAL
1002
{
1000
*GLOBAL*
1000
1
1000
Finition globale.
1002
{
1002
}
1002
{
1070
    63
1002
{
1002
{
1010
-1.0
1020
-1.0
1030
-1.0
1002
}
1040
0.1
1000

1040
0.0
1002
{
1002
}
1040
0.0
1002
{
1002
}
1040
0.0
1002
}
1002
{
1002
{
1010
-1.0
1020
-1.0
1030
-1.0
1002
}
1040
0.7
1000

1040
0.0
1002
{
1002
}
1040
0.0
1002
{
1002
}
1040
0.0
1002
}
1002
{
1002
{
1010
-1.0
1020
-1.0
1030
-1.0
1002
}
1040
0.2
1000

1040
0.0
1002
{
1002
}
1040
0.0
1002
{
1002
}
1040
0.0
1002
}
1002
{
1070
     0
1002
{
1070
     1
1002
{
1040
1.0
1040
1.0
1000

1040
0.0
1002
{
1002
}
1040
0.0
1002
{
1002
}
1040
0.0
1002
}
1002
}
1040
1.0
1040
0.0
1040
0.0
1002
}
1002
{
1040
1.0
1040
1.0
1000

1040
0.0
1002
{
1002
}
1040
0.0
1002
{
1002
}
1040
0.0
1002
}
1002
{
1040
0.5
1040
1.0
1000

1040
0.0
1002
{
1002
}
1040
0.0
1002
{
1002
}
1040
0.0
1002
}
1002
{
1070
     0
1040
0.0
1002
{
1002
}
1040
1.0
1002
{
1002
}
1040
0.0
1002
}
1002
{
1040
0.0
1002
{
1002
{
1010
0.0
1020
0.0
1030
0.0
1002
}
1040
1.0
1000

1040
0.0
1002
{
1002
}
1040
0.0
1002
{
1002
}
1040
0.0
1002
}
1002
}
1002
{
1002
{
1070
     1
1002
{
1040
0.0
1040
1.0
1000

1040
0.0
1002
{
1002
}
1040
0.0
1002
{
1002
}
1040
0.0
1002
}
1002
}
1040
0.0
1002
{
1002
}
1010
1.0
1020
0.0
1030
0.0
1010
0.0
1020
1.0
1030
0.0
1010
0.0
1020
0.0
1030
1.0
1070
     0
1002
}
1002
{
1002
{
1040
1.0
1040
1.0
1002
{
1070
     1
1002
{
1040
1.0
1040
1.0
1000

1040
0.0
1002
{
1002
}
1040
0.0
1002
{
1002
}
1040
0.0
1002
}
1002
}
1002
}
1070
     0
1040
0.0
1002
{
1002
}
1002
}
1002
{
1002
}
1002
}
1002
{
1071
        3
1070
     3
1070
     0
1002
{
1070
     2
1070
     0
1070
     0
1040
0.0
1002
}
1070
     0
1070
     2
1002
{
1002
}
1002
}
1002
{
1040
8030.0
1040
190.300003
1040
0.305
1040
228.0
1040
545.0
1040
14.0
1040
17.4
1040
0.456
1002
}
1002
}
  0
LINE
  5
19B7
100
AcDbEntity
  8
ALPHA
100
AcDbLine
 10
98.901051
 20
163.367426
 30
0.0
 11
103.901051
 21
163.367426
 31
0.0
  0
LINE
  5
19B8
100
AcDbEntity
  8
ALPHA
100
AcDbLine
 10
104.901051
 20
163.367426
 30
0.0
 11
109.901051
 21
163.367426
 31
0.0
  0
LINE
  5
19B9
100
AcDbEntity
  8
ALPHA
100
AcDbLine
 10
104.901051
 20
179.667426
 30
0.0
 11
109.901051
 21
179.667426
 31
0.0
  0
LINE
  5
19BA
100
AcDbEntity
  8
ALPHA
100
AcDbLine
 10
98.901051
 20
179.667426
 30
0.0
 11
103.901051
 21
179.667426
 31
0.0
  0
LINE
  5
19BB
100
AcDbEntity
  8
ALPHA
100
AcDbLine
 10
92.901051
 20
163.367426
 30
0.0
 11
97.901051
 21
163.367426
 31
0.0
  0
LINE
  5
19BC
100
AcDbEntity
  8
ALPHA
100
AcDbLine
 10
92.901051
 20
179.667426
 30
0.0
 11
97.901051
 21
179.667426
 31
0.0
  0
LINE
  5
19BD
100
AcDbEntity
  8
ALPHA
100
AcDbLine
 10
98.901051
 20
163.767426
 30
0.0
 11
97.901051
 21
163.767426
 31
0.0
  0
LINE
  5
19BE
100
AcDbEntity
  8
ALPHA
100
AcDbLine
 10
103.901051
 20
163.767426
 30
0.0
 11
98.901051
 21
163.767426
 31
0.0
  0
LINE
  5
19BF
100
AcDbEntity
  8
ALPHA
100
AcDbLine
 10
94.301051
 20
163.767426
 30
0.0
 11
92.901051
 21
163.767426
 31
0.0
  0
LINE
  5
19C0
100
AcDbEntity
  8
ALPHA
100
AcDbLine
 10
97.901051
 20
163.767426
 30
0.0
 11
96.501051
 21
163.767426
 31
0.0
  0
LINE
  5
19C1
100
AcDbEntity
  8
ALPHA
100
AcDbLine
 10
104.901051
 20
163.767426
 30
0.0
 11
103.901051
 21
163.767426
 31
0.0
  0
LINE
  5
19C2
100
AcDbEntity
  8
ALPHA
100
AcDbLine
 10
98.901051
 20
179.667426
 30
0.0
 11
98.901051
 21
179.267426
 31
0.0
  0
LINE
  5
19C3
100
AcDbEntity
  8
ALPHA
100
AcDbLine
 10
106.301051
 20
163.767426
 30
0.0
 11
104.901051
 21
163.767426
 31
0.0
  0
LINE
  5
19C4
100
AcDbEntity
  8
ALPHA
100
AcDbLine
 10
109.901051
 20
163.767426
 30
0.0
 11
108.501051
 21
163.767426
 31
0.0
  0
LINE
  5
19C5
100
AcDbEntity
  8
ALPHA
100
AcDbLine
 10
98.901051
 20
163.767426
 30
0.0
 11
98.901051
 21
163.367426
 31
0.0
  0
LINE
  5
19C6
100
AcDbEntity
  8
ALPHA
100
AcDbLine
 10
97.901051
 20
179.667426
 30
0.0
 11
97.901051
 21
179.267426
 31
0.0
  0
LINE
  5
19C7
100
AcDbEntity
  8
ALPHA
100
AcDbLine
 10
97.901051
 20
163.767426
 30
0.0
 11
97.901051
 21
163.367426
 31
0.0
  0
LINE
  5
19C8
100
AcDbEntity
  8
ALPHA
100
AcDbLine
 10
104.901051
 20
179.667426
 30
0.0
 11
104.901051
 21
179.267426
 31
0.0
  0
LINE
  5
19C9
100
AcDbEntity
  8
ALPHA
100
AcDbLine
 10
104.901051
 20
163.767426
 30
0.0
 11
104.901051
 21
163.367426
 31
0.0
  0
LINE
  5
19CA
100
AcDbEntity
  8
ALPHA
100
AcDbLine
 10
103.901051
 20
179.667426
 30
0.0
 11
103.901051
 21
179.267426
 31
0.0
  0
LINE
  5
19CB
100
AcDbEntity
  8
ALPHA
100
AcDbLine
 10
103.901051
 20
163.767426
 30
0.0
 11
103.901051
 21
163.367426
 31
0.0
  0
LINE
  5
19CC
100
AcDbEntity
  8
ALPHA
100
AcDbLine
 10
104.426051
 20
178.298282
 30
0.0
 11
104.426051
 21
177.157406
 31
0.0
  0
LINE
  5
19CD
100
AcDbEntity
  8
ALPHA
100
AcDbLine
 10
104.426051
 20
164.736571
 30
0.0
 11
104.426051
 21
165.877446
 31
0.0
  0
LINE
  5
19CE
100
AcDbEntity
  8
ALPHA
100
AcDbLine
 10
98.901051
 20
163.367426
 30
0.0
 11
98.901051
 21
162.917426
 31
0.0
  0
LINE
  5
19CF
100
AcDbEntity
  8
ALPHA
100
AcDbLine
 10
98.901051
 20
162.917426
 30
0.0
 11
103.901051
 21
162.917426
 31
0.0
  0
LINE
  5
19D0
100
AcDbEntity
  8
ALPHA
100
AcDbLine
 10
103.901051
 20
163.367426
 30
0.0
 11
103.901051
 21
162.917426
 31
0.0
  0
LINE
  5
19D1
100
AcDbEntity
  8
ALPHA
100
AcDbLine
 10
104.901051
 20
163.367426
 30
0.0
 11
104.901051
 21
162.917426
 31
0.0
  0
LINE
  5
19D2
100
AcDbEntity
  8
ALPHA
100
AcDbLine
 10
104.901051
 20
162.917426
 30
0.0
 11
109.901051
 21
162.917426
 31
0.0
  0
LINE
  5
19D3
100
AcDbEntity
  8
ALPHA
100
AcDbLine
 10
109.901051
 20
162.917426
 30
0.0
 11
109.901051
 21
163.367426
 31
0.0
  0
LINE
  5
19D4
100
AcDbEntity
  8
ALPHA
100
AcDbLine
 10
92.901051
 20
162.917426
 30
0.0
 11
97.901051
 21
162.917426
 31
0.0
  0
LINE
  5
19D5
100
AcDbEntity
  8
ALPHA
100
AcDbLine
 10
97.901051
 20
163.367426
 30
0.0
 11
97.901051
 21
162.917426
 31
0.0
  0
LINE
  5
19D6
100
AcDbEntity
  8
ALPHA
100
AcDbLine
 10
92.901051
 20
163.367426
 30
0.0
 11
92.901051
 21
162.917426
 31
0.0
  0
LINE
  5
19D7
100
AcDbEntity
  8
ALPHA
100
AcDbLine
 10
98.376051
 20
164.736571
 30
0.0
 11
98.376051
 21
165.877446
 31
0.0
  0
LINE
  5
19D8
100
AcDbEntity
  8
ALPHA
100
AcDbLine
 10
108.501051
 20
179.267426
 30
0.0
 11
109.901051
 21
179.267426
 31
0.0
  0
LINE
  5
19D9
100
AcDbEntity
  8
ALPHA
100
AcDbLine
 10
104.901051
 20
179.267426
 30
0.0
 11
106.301051
 21
179.267426
 31
0.0
  0
LINE
  5
19DA
100
AcDbEntity
  8
ALPHA
100
AcDbLine
 10
98.376051
 20
178.298282
 30
0.0
 11
98.376051
 21
177.157406
 31
0.0
  0
LINE
  5
19DB
100
AcDbEntity
  8
ALPHA
100
AcDbLine
 10
104.901051
 20
179.267426
 30
0.0
 11
103.901051
 21
179.267426
 31
0.0
  0
LINE
  5
19DC
100
AcDbEntity
  8
ALPHA
100
AcDbLine
 10
98.901051
 20
179.267426
 30
0.0
 11
103.901051
 21
179.267426
 31
0.0
  0
LINE
  5
19DD
100
AcDbEntity
  8
ALPHA
100
AcDbLine
 10
98.901051
 20
179.267426
 30
0.0
 11
97.901051
 21
179.267426
 31
0.0
  0
LINE
  5
19DE
100
AcDbEntity
  8
ALPHA
100
AcDbLine
 10
96.501051
 20
179.267426
 30
0.0
 11
97.901051
 21
179.267426
 31
0.0
  0
LINE
  5
19DF
100
AcDbEntity
  8
ALPHA
100
AcDbLine
 10
92.901051
 20
179.267426
 30
0.0
 11
94.301051
 21
179.267426
 31
0.0
  0
LINE
  5
19E0
100
AcDbEntity
  8
ALPHA
100
AcDbLine
 10
109.901051
 20
179.667426
 30
0.0
 11
109.901051
 21
180.117426
 31
0.0
  0
LINE
  5
19E1
100
AcDbEntity
  8
ALPHA
100
AcDbLine
 10
109.901051
 20
180.117426
 30
0.0
 11
104.901051
 21
180.117426
 31
0.0
  0
LINE
  5
19E2
100
AcDbEntity
  8
ALPHA
100
AcDbLine
 10
104.901051
 20
180.117426
 30
0.0
 11
104.901051
 21
179.667426
 31
0.0
  0
LINE
  5
19E3
100
AcDbEntity
  8
ALPHA
100
AcDbLine
 10
103.901051
 20
180.117426
 30
0.0
 11
103.901051
 21
179.667426
 31
0.0
  0
LINE
  5
19E4
100
AcDbEntity
  8
ALPHA
100
AcDbLine
 10
103.901051
 20
180.117426
 30
0.0
 11
98.901051
 21
180.117426
 31
0.0
  0
LINE
  5
19E5
100
AcDbEntity
  8
ALPHA
100
AcDbLine
 10
98.901051
 20
180.117426
 30
0.0
 11
98.901051
 21
179.667426
 31
0.0
  0
LINE
  5
19E6
100
AcDbEntity
  8
ALPHA
100
AcDbLine
 10
97.901051
 20
180.117426
 30
0.0
 11
97.901051
 21
179.667426
 31
0.0
  0
LINE
  5
19E7
100
AcDbEntity
  8
ALPHA
100
AcDbLine
 10
97.901051
 20
180.117426
 30
0.0
 11
92.901051
 21
180.117426
 31
0.0
  0
LINE
  5
19E8
100
AcDbEntity
  8
ALPHA
100
AcDbLine
 10
92.901051
 20
180.117426
 30
0.0
 11
92.901051
 21
179.667426
 31
0.0
  0
LINE
  5
19E9
100
AcDbEntity
  8
ALPHA
100
AcDbLine
 10
97.401051
 20
180.117426
 30
0.0
 11
97.401051
 21
180.417426
 31
0.0
  0
LINE
  5
19EA
100
AcDbEntity
  8
ALPHA
100
AcDbLine
 10
97.901051
 20
180.917426
 30
0.0
 11
104.901051
 21
180.917426
 31
0.0
  0
LINE
  5
19EB
100
AcDbEntity
  8
ALPHA
100
AcDbLine
 10
105.401051
 20
180.417426
 30
0.0
 11
105.401051
 21
180.117426
 31
0.0
  0
LINE
  5
19EC
100
AcDbEntity
  8
ALPHA
100
AcDbLine
 10
109.901051
 20
179.667426
 30
0.0
 11
109.901051
 21
179.267426
 31
0.0
  0
LINE
  5
19ED
100
AcDbEntity
  8
ALPHA
100
AcDbLine
 10
104.901051
 20
180.117426
 30
0.0
 11
103.901051
 21
180.117426
 31
0.0
  0
LINE
  5
19EE
100
AcDbEntity
  8
ALPHA
100
AcDbLine
 10
98.901051
 20
180.117426
 30
0.0
 11
97.901051
 21
180.117426
 31
0.0
  0
LINE
  5
19EF
100
AcDbEntity
  8
ALPHA
100
AcDbLine
 10
92.901051
 20
179.667426
 30
0.0
 11
92.901051
 21
179.267426
 31
0.0
  0
LINE
  5
19F0
100
AcDbEntity
  8
ALPHA
100
AcDbLine
 10
92.901051
 20
163.767426
 30
0.0
 11
92.901051
 21
163.367426
 31
0.0
  0
LINE
  5
19F1
100
AcDbEntity
  8
ALPHA
100
AcDbLine
 10
98.901051
 20
162.917426
 30
0.0
 11
97.901051
 21
162.917426
 31
0.0
  0
LINE
  5
19F2
100
AcDbEntity
  8
ALPHA
100
AcDbLine
 10
104.901051
 20
162.917426
 30
0.0
 11
103.901051
 21
162.917426
 31
0.0
  0
LINE
  5
19F3
100
AcDbEntity
  8
ALPHA
100
AcDbLine
 10
109.901051
 20
163.767426
 30
0.0
 11
109.901051
 21
163.367426
 31
0.0
  0
ARC
  5
19F4
100
AcDbEntity
  8
ALPHA
100
AcDbCircle
 10
101.401051
 20
171.517426
 30
0.0
 40
6.4
100
AcDbArc
 50
241.527847
 51
241.793142
  0
ARC
  5
19F5
100
AcDbEntity
  8
ALPHA
100
AcDbCircle
 10
101.401051
 20
171.517426
 30
0.0
 40
7.425
100
AcDbArc
 50
245.957924
 51
249.394692
  0
ARC
  5
19F6
100
AcDbEntity
  8
ALPHA
100
AcDbCircle
 10
101.401051
 20
171.517426
 30
0.0
 40
7.425
100
AcDbArc
 50
290.605308
 51
294.042076
  0
ARC
  5
19F7
100
AcDbEntity
  8
ALPHA
100
AcDbCircle
 10
101.401051
 20
171.517426
 30
0.0
 40
6.4
100
AcDbArc
 50
298.206858
 51
298.472153
  0
ARC
  5
19F8
100
AcDbEntity
  8
ALPHA
100
AcDbCircle
 10
101.401051
 20
171.517426
 30
0.0
 40
7.425
100
AcDbArc
 50
110.605308
 51
114.042076
  0
ARC
  5
19F9
100
AcDbEntity
  8
ALPHA
100
AcDbCircle
 10
101.401051
 20
171.517426
 30
0.0
 40
6.4
100
AcDbArc
 50
118.206858
 51
118.472153
  0
ARC
  5
19FA
100
AcDbEntity
  8
ALPHA
100
AcDbCircle
 10
101.401051
 20
171.517426
 30
0.0
 40
6.4
100
AcDbArc
 50
61.527847
 51
61.793142
  0
ARC
  5
19FB
100
AcDbEntity
  8
ALPHA
100
AcDbCircle
 10
101.401051
 20
171.517426
 30
0.0
 40
7.425
100
AcDbArc
 50
65.957924
 51
69.394692
  0
LINE
  5
19FC
100
AcDbEntity
  8
ALPHA
100
AcDbLine
 10
97.901051
 20
180.917426
 30
0.0
 11
97.401051
 21
180.417426
 31
0.0
  0
LINE
  5
19FD
100
AcDbEntity
  8
ALPHA
100
AcDbLine
 10
105.401051
 20
180.417426
 30
0.0
 11
104.901051
 21
180.917426
 31
0.0
  0
LINE
  5
19FE
100
AcDbEntity
  8
ALPHA
100
AcDbLine
 10
98.351051
 20
178.467426
 30
0.0
 11
98.787983
 21
178.467426
 31
0.0
  0
ARC
  5
19FF
100
AcDbEntity
  8
ALPHA
100
AcDbCircle
 10
101.401051
 20
171.517426
 30
0.0
 40
7.425
100
AcDbArc
 50
107.014848
 51
110.605308
  0
LINE
  5
1A00
100
AcDbEntity
  8
ALPHA
100
AcDbLine
 10
99.228351
 20
178.617426
 30
0.0
 11
103.573751
 21
178.617426
 31
0.0
  0
ARC
  5
1A01
100
AcDbEntity
  8
ALPHA
100
AcDbCircle
 10
101.401051
 20
171.517426
 30
0.0
 40
7.425
100
AcDbArc
 50
69.394692
 51
72.985152
  0
LINE
  5
1A02
100
AcDbEntity
  8
ALPHA
100
AcDbLine
 10
104.014119
 20
178.467426
 30
0.0
 11
104.451051
 21
178.467426
 31
0.0
  0
LINE
  5
1A03
100
AcDbEntity
  8
ALPHA
100
AcDbLine
 10
110.301051
 20
179.267426
 30
0.0
 11
110.301051
 21
179.217426
 31
0.0
  0
LINE
  5
1A04
100
AcDbEntity
  8
ALPHA
100
AcDbLine
 10
109.901051
 20
179.267426
 30
0.0
 11
110.301051
 21
179.267426
 31
0.0
  0
LINE
  5
1A05
100
AcDbEntity
  8
ALPHA
100
AcDbLine
 10
92.501051
 20
179.267426
 30
0.0
 11
92.901051
 21
179.267426
 31
0.0
  0
LINE
  5
1A06
100
AcDbEntity
  8
ALPHA
100
AcDbLine
 10
92.501051
 20
179.217426
 30
0.0
 11
92.501051
 21
179.267426
 31
0.0
  0
LINE
  5
1A07
100
AcDbEntity
  8
ALPHA
100
AcDbLine
 10
92.501051
 20
163.767426
 30
0.0
 11
92.501051
 21
163.817426
 31
0.0
  0
LINE
  5
1A08
100
AcDbEntity
  8
ALPHA
100
AcDbLine
 10
92.901051
 20
163.767426
 30
0.0
 11
92.501051
 21
163.767426
 31
0.0
  0
LINE
  5
1A09
100
AcDbEntity
  8
ALPHA
100
AcDbLine
 10
110.301051
 20
163.767426
 30
0.0
 11
109.901051
 21
163.767426
 31
0.0
  0
LINE
  5
1A0A
100
AcDbEntity
  8
ALPHA
100
AcDbLine
 10
110.301051
 20
163.817426
 30
0.0
 11
110.301051
 21
163.767426
 31
0.0
  0
LINE
  5
1A0B
100
AcDbEntity
  8
ALPHA
100
AcDbLine
 10
104.014119
 20
164.567426
 30
0.0
 11
104.451051
 21
164.567426
 31
0.0
  0
ARC
  5
1A0C
100
AcDbEntity
  8
ALPHA
100
AcDbCircle
 10
101.401051
 20
171.517426
 30
0.0
 40
7.425
100
AcDbArc
 50
249.394692
 51
290.605308
  0
LINE
  5
1A0D
100
AcDbEntity
  8
ALPHA
100
AcDbLine
 10
98.351051
 20
164.567426
 30
0.0
 11
98.787983
 21
164.567426
 31
0.0
  0
LINE
  5
1A0E
100
AcDbEntity
  8
ALPHA
100
AcDbLine
 10
97.699169
 20
162.723078
 30
0.0
 11
97.504821
 21
162.917426
 31
0.0
  0
LINE
  5
1A0F
100
AcDbEntity
  8
ALPHA
100
AcDbLine
 10
97.204195
 20
162.228103
 30
0.0
 11
97.699169
 21
162.723078
 31
0.0
  0
LINE
  5
1A10
100
AcDbEntity
  8
ALPHA
100
AcDbLine
 10
96.545461
 20
162.886836
 30
0.0
 11
96.514871
 21
162.917426
 31
0.0
  0
LINE
  5
1A11
100
AcDbEntity
  8
ALPHA
100
AcDbLine
 10
97.204195
 20
162.228103
 30
0.0
 11
96.545461
 21
162.886836
 31
0.0
  0
LINE
  5
1A12
100
AcDbEntity
  8
ALPHA
100
AcDbLine
 10
97.699169
 20
162.723078
 30
0.0
 11
97.504821
 21
162.917426
 31
0.0
  0
LINE
  5
1A13
100
AcDbEntity
  8
ALPHA
100
AcDbLine
 10
96.545461
 20
162.886836
 30
0.0
 11
96.514871
 21
162.917426
 31
0.0
  0
LINE
  5
1A14
100
AcDbEntity
  8
ALPHA
100
AcDbLine
 10
97.204195
 20
162.228103
 30
0.0
 11
96.545461
 21
162.886836
 31
0.0
  0
LINE
  5
1A15
100
AcDbEntity
  8
ALPHA
100
AcDbLine
 10
106.256641
 20
162.886836
 30
0.0
 11
105.597908
 21
162.228103
 31
0.0
  0
LINE
  5
1A16
100
AcDbEntity
  8
ALPHA
100
AcDbLine
 10
106.287231
 20
162.917426
 30
0.0
 11
106.256641
 21
162.886836
 31
0.0
  0
LINE
  5
1A17
100
AcDbEntity
  8
ALPHA
100
AcDbLine
 10
105.297282
 20
162.917426
 30
0.0
 11
105.102933
 21
162.723078
 31
0.0
  0
LINE
  5
1A18
100
AcDbEntity
  8
ALPHA
100
AcDbLine
 10
106.256641
 20
162.886836
 30
0.0
 11
105.597908
 21
162.228103
 31
0.0
  0
LINE
  5
1A19
100
AcDbEntity
  8
ALPHA
100
AcDbLine
 10
106.287231
 20
162.917426
 30
0.0
 11
106.256641
 21
162.886836
 31
0.0
  0
LINE
  5
1A1A
100
AcDbEntity
  8
ALPHA
100
AcDbLine
 10
105.597908
 20
162.228103
 30
0.0
 11
105.102933
 21
162.723078
 31
0.0
  0
LINE
  5
1A1B
100
AcDbEntity
  8
ALPHA
100
AcDbLine
 10
105.297282
 20
162.917426
 30
0.0
 11
105.102933
 21
162.723078
 31
0.0
  0
LINE
  5
1A1C
100
AcDbEntity
  8
ALPHA
100
AcDbLine
 10
97.897461
 20
176.6584
 30
0.0
 11
97.897461
 21
176.717426
 31
0.0
  0
LINE
  5
1A1D
100
AcDbEntity
  8
ALPHA
100
AcDbLine
 10
97.897461
 20
175.317426
 30
0.0
 11
97.897461
 21
175.376452
 31
0.0
  0
LINE
  5
1A1E
100
AcDbEntity
  8
ALPHA
100
AcDbLine
 10
94.301051
 20
169.367426
 30
0.0
 11
96.901051
 21
169.367426
 31
0.0
  0
LINE
  5
1A1F
100
AcDbEntity
  8
ALPHA
100
AcDbLine
 10
97.897461
 20
167.6584
 30
0.0
 11
97.897461
 21
167.717426
 31
0.0
  0
LINE
  5
1A20
100
AcDbEntity
  8
ALPHA
100
AcDbLine
 10
97.897461
 20
166.317426
 30
0.0
 11
97.897461
 21
166.376452
 31
0.0
  0
LINE
  5
1A21
100
AcDbEntity
  8
ALPHA
100
AcDbLine
 10
94.301051
 20
173.667426
 30
0.0
 11
96.901051
 21
173.667426
 31
0.0
  0
LINE
  5
1A22
100
AcDbEntity
  8
ALPHA
100
AcDbLine
 10
94.301051
 20
165.517426
 30
0.0
 11
96.901051
 21
165.517426
 31
0.0
  0
LINE
  5
1A23
100
AcDbEntity
  8
ALPHA
100
AcDbLine
 10
96.901051
 20
165.517426
 30
0.0
 11
96.901051
 21
164.817426
 31
0.0
  0
LINE
  5
1A24
100
AcDbEntity
  8
ALPHA
100
AcDbLine
 10
94.301051
 20
164.817426
 30
0.0
 11
96.901051
 21
164.817426
 31
0.0
  0
LINE
  5
1A25
100
AcDbEntity
  8
ALPHA
100
AcDbLine
 10
94.301051
 20
163.817426
 30
0.0
 11
94.301051
 21
164.817426
 31
0.0
  0
LINE
  5
1A26
100
AcDbEntity
  8
ALPHA
100
AcDbLine
 10
94.301051
 20
163.417426
 30
0.0
 11
94.301051
 21
163.817426
 31
0.0
  0
LINE
  5
1A27
100
AcDbEntity
  8
ALPHA
100
AcDbLine
 10
97.601051
 20
163.817426
 30
0.0
 11
97.601051
 21
166.317426
 31
0.0
  0
LINE
  5
1A28
100
AcDbEntity
  8
ALPHA
100
AcDbLine
 10
97.601051
 20
166.317426
 30
0.0
 11
97.141051
 21
166.317426
 31
0.0
  0
LINE
  5
1A29
100
AcDbEntity
  8
ALPHA
100
AcDbLine
 10
97.141051
 20
166.317426
 30
0.0
 11
97.141051
 21
167.717426
 31
0.0
  0
LINE
  5
1A2A
100
AcDbEntity
  8
ALPHA
100
AcDbLine
 10
97.601051
 20
167.717426
 30
0.0
 11
97.141051
 21
167.717426
 31
0.0
  0
LINE
  5
1A2B
100
AcDbEntity
  8
ALPHA
100
AcDbLine
 10
97.601051
 20
175.317426
 30
0.0
 11
97.141051
 21
175.317426
 31
0.0
  0
LINE
  5
1A2C
100
AcDbEntity
  8
ALPHA
100
AcDbLine
 10
97.141051
 20
175.317426
 30
0.0
 11
97.141051
 21
176.717426
 31
0.0
  0
LINE
  5
1A2D
100
AcDbEntity
  8
ALPHA
100
AcDbLine
 10
97.601051
 20
176.717426
 30
0.0
 11
97.141051
 21
176.717426
 31
0.0
  0
LINE
  5
1A2E
100
AcDbEntity
  8
ALPHA
100
AcDbLine
 10
97.601051
 20
179.217426
 30
0.0
 11
97.601051
 21
176.717426
 31
0.0
  0
LINE
  5
1A2F
100
AcDbEntity
  8
ALPHA
100
AcDbLine
 10
96.501051
 20
179.217426
 30
0.0
 11
97.601051
 21
179.217426
 31
0.0
  0
LINE
  5
1A30
100
AcDbEntity
  8
ALPHA
100
AcDbLine
 10
94.301051
 20
179.617426
 30
0.0
 11
96.501051
 21
179.617426
 31
0.0
  0
LINE
  5
1A31
100
AcDbEntity
  8
ALPHA
100
AcDbLine
 10
94.301051
 20
179.217426
 30
0.0
 11
94.301051
 21
179.617426
 31
0.0
  0
LINE
  5
1A32
100
AcDbEntity
  8
ALPHA
100
AcDbLine
 10
94.301051
 20
178.217426
 30
0.0
 11
94.301051
 21
179.217426
 31
0.0
  0
LINE
  5
1A33
100
AcDbEntity
  8
ALPHA
100
AcDbLine
 10
94.301051
 20
178.217426
 30
0.0
 11
96.901051
 21
178.217426
 31
0.0
  0
LINE
  5
1A34
100
AcDbEntity
  8
ALPHA
100
AcDbLine
 10
96.901051
 20
178.217426
 30
0.0
 11
96.901051
 21
177.517426
 31
0.0
  0
LINE
  5
1A35
100
AcDbEntity
  8
ALPHA
100
AcDbLine
 10
94.301051
 20
177.517426
 30
0.0
 11
96.901051
 21
177.517426
 31
0.0
  0
LINE
  5
1A36
100
AcDbEntity
  8
ALPHA
100
AcDbLine
 10
94.301051
 20
176.708619
 30
0.0
 11
94.301051
 21
177.517426
 31
0.0
  0
LINE
  5
1A37
100
AcDbEntity
  8
ALPHA
100
AcDbLine
 10
94.301051
 20
175.326234
 30
0.0
 11
94.301051
 21
176.708619
 31
0.0
  0
LINE
  5
1A38
100
AcDbEntity
  8
ALPHA
100
AcDbLine
 10
94.301051
 20
174.439791
 30
0.0
 11
94.301051
 21
175.326234
 31
0.0
  0
LINE
  5
1A39
100
AcDbEntity
  8
ALPHA
100
AcDbLine
 10
94.301051
 20
167.708619
 30
0.0
 11
94.301051
 21
168.595062
 31
0.0
  0
LINE
  5
1A3A
100
AcDbEntity
  8
ALPHA
100
AcDbLine
 10
94.301051
 20
166.326234
 30
0.0
 11
94.301051
 21
167.708619
 31
0.0
  0
LINE
  5
1A3B
100
AcDbEntity
  8
ALPHA
100
AcDbLine
 10
94.301051
 20
165.517426
 30
0.0
 11
94.301051
 21
166.326234
 31
0.0
  0
LINE
  5
1A3C
100
AcDbEntity
  8
ALPHA
100
AcDbLine
 10
94.301051
 20
168.595062
 30
0.0
 11
96.901051
 21
168.595062
 31
0.0
  0
LINE
  5
1A3D
100
AcDbEntity
  8
ALPHA
100
AcDbLine
 10
94.301051
 20
173.017426
 30
0.0
 11
94.301051
 21
173.667426
 31
0.0
  0
LINE
  5
1A3E
100
AcDbEntity
  8
ALPHA
100
AcDbLine
 10
94.301051
 20
170.017426
 30
0.0
 11
94.301051
 21
173.017426
 31
0.0
  0
LINE
  5
1A3F
100
AcDbEntity
  8
ALPHA
100
AcDbLine
 10
94.301051
 20
169.367426
 30
0.0
 11
94.301051
 21
170.017426
 31
0.0
  0
LINE
  5
1A40
100
AcDbEntity
  8
ALPHA
100
AcDbLine
 10
98.351051
 20
163.817426
 30
0.0
 11
97.601051
 21
163.817426
 31
0.0
  0
LINE
  5
1A41
100
AcDbEntity
  8
ALPHA
100
AcDbLine
 10
96.501051
 20
163.817426
 30
0.0
 11
97.601051
 21
163.817426
 31
0.0
  0
LINE
  5
1A42
100
AcDbEntity
  8
ALPHA
100
AcDbLine
 10
98.351051
 20
179.217426
 30
0.0
 11
97.601051
 21
179.217426
 31
0.0
  0
LINE
  5
1A43
100
AcDbEntity
  8
ALPHA
100
AcDbLine
 10
98.351051
 20
169.317426
 30
0.0
 11
98.351051
 21
167.717426
 31
0.0
  0
LINE
  5
1A44
100
AcDbEntity
  8
ALPHA
100
AcDbLine
 10
98.351051
 20
166.317426
 30
0.0
 11
98.351051
 21
167.717426
 31
0.0
  0
LINE
  5
1A45
100
AcDbEntity
  8
ALPHA
100
AcDbLine
 10
98.351051
 20
166.317426
 30
0.0
 11
98.351051
 21
163.817426
 31
0.0
  0
LINE
  5
1A46
100
AcDbEntity
  8
ALPHA
100
AcDbLine
 10
96.501051
 20
163.817426
 30
0.0
 11
96.501051
 21
163.417426
 31
0.0
  0
LINE
  5
1A47
100
AcDbEntity
  8
ALPHA
100
AcDbLine
 10
96.501051
 20
179.617426
 30
0.0
 11
96.501051
 21
179.217426
 31
0.0
  0
LINE
  5
1A48
100
AcDbEntity
  8
ALPHA
100
AcDbLine
 10
94.301051
 20
163.417426
 30
0.0
 11
96.501051
 21
163.417426
 31
0.0
  0
LINE
  5
1A49
100
AcDbEntity
  8
ALPHA
100
AcDbLine
 10
96.901051
 20
169.367426
 30
0.0
 11
96.901051
 21
168.595062
 31
0.0
  0
LINE
  5
1A4A
100
AcDbEntity
  8
ALPHA
100
AcDbLine
 10
98.351051
 20
179.217426
 30
0.0
 11
98.351051
 21
176.717426
 31
0.0
  0
LINE
  5
1A4B
100
AcDbEntity
  8
ALPHA
100
AcDbLine
 10
96.901051
 20
174.439791
 30
0.0
 11
96.901051
 21
173.667426
 31
0.0
  0
LINE
  5
1A4C
100
AcDbEntity
  8
ALPHA
100
AcDbLine
 10
98.351051
 20
175.317426
 30
0.0
 11
98.351051
 21
176.717426
 31
0.0
  0
LINE
  5
1A4D
100
AcDbEntity
  8
ALPHA
100
AcDbLine
 10
98.351051
 20
175.317426
 30
0.0
 11
98.351051
 21
173.717426
 31
0.0
  0
LINE
  5
1A4E
100
AcDbEntity
  8
ALPHA
100
AcDbLine
 10
98.351051
 20
169.317426
 30
0.0
 11
98.351051
 21
173.717426
 31
0.0
  0
LINE
  5
1A4F
100
AcDbEntity
  8
ALPHA
100
AcDbLine
 10
96.826051
 20
168.767426
 30
0.0
 11
96.901051
 21
168.767426
 31
0.0
  0
LINE
  5
1A50
100
AcDbEntity
  8
ALPHA
100
AcDbLine
 10
96.826051
 20
174.267426
 30
0.0
 11
96.901051
 21
174.267426
 31
0.0
  0
LINE
  5
1A51
100
AcDbEntity
  8
ALPHA
100
AcDbLine
 10
94.301051
 20
173.817426
 30
0.0
 11
94.301051
 21
173.667426
 31
0.0
  0
LINE
  5
1A52
100
AcDbEntity
  8
ALPHA
100
AcDbLine
 10
98.351051
 20
166.317426
 30
0.0
 11
97.601051
 21
166.317426
 31
0.0
  0
LINE
  5
1A53
100
AcDbEntity
  8
ALPHA
100
AcDbLine
 10
98.351051
 20
176.717426
 30
0.0
 11
97.601051
 21
176.717426
 31
0.0
  0
LINE
  5
1A54
100
AcDbEntity
  8
ALPHA
100
AcDbLine
 10
94.301051
 20
169.367426
 30
0.0
 11
94.301051
 21
169.217426
 31
0.0
  0
LINE
  5
1A55
100
AcDbEntity
  8
ALPHA
100
AcDbLine
 10
96.551051
 20
178.117426
 30
0.0
 11
96.551051
 21
178.217426
 31
0.0
  0
LINE
  5
1A56
100
AcDbEntity
  8
ALPHA
100
AcDbLine
 10
96.551051
 20
177.517426
 30
0.0
 11
96.551051
 21
177.617426
 31
0.0
  0
LINE
  5
1A57
100
AcDbEntity
  8
ALPHA
100
AcDbLine
 10
96.551051
 20
165.417426
 30
0.0
 11
96.551051
 21
165.517426
 31
0.0
  0
LINE
  5
1A58
100
AcDbEntity
  8
ALPHA
100
AcDbLine
 10
96.551051
 20
164.817426
 30
0.0
 11
96.551051
 21
164.917426
 31
0.0
  0
LINE
  5
1A59
100
AcDbEntity
  8
ALPHA
100
AcDbLine
 10
96.751051
 20
177.617426
 30
0.0
 11
96.751051
 21
177.517426
 31
0.0
  0
LINE
  5
1A5A
100
AcDbEntity
  8
ALPHA
100
AcDbLine
 10
96.751051
 20
178.217426
 30
0.0
 11
96.751051
 21
178.117426
 31
0.0
  0
LINE
  5
1A5B
100
AcDbEntity
  8
ALPHA
100
AcDbLine
 10
96.751051
 20
165.417426
 30
0.0
 11
96.751051
 21
165.517426
 31
0.0
  0
LINE
  5
1A5C
100
AcDbEntity
  8
ALPHA
100
AcDbLine
 10
96.751051
 20
164.817426
 30
0.0
 11
96.751051
 21
164.917426
 31
0.0
  0
LINE
  5
1A5D
100
AcDbEntity
  8
ALPHA
100
AcDbLine
 10
98.351051
 20
175.317426
 30
0.0
 11
97.601051
 21
175.317426
 31
0.0
  0
LINE
  5
1A5E
100
AcDbEntity
  8
ALPHA
100
AcDbLine
 10
98.351051
 20
167.717426
 30
0.0
 11
97.601051
 21
167.717426
 31
0.0
  0
LINE
  5
1A5F
100
AcDbEntity
  8
ALPHA
100
AcDbLine
 10
97.551051
 20
176.663137
 30
0.0
 11
97.551051
 21
176.717426
 31
0.0
  0
LINE
  5
1A60
100
AcDbEntity
  8
ALPHA
100
AcDbLine
 10
97.551051
 20
175.317426
 30
0.0
 11
97.551051
 21
175.371715
 31
0.0
  0
LINE
  5
1A61
100
AcDbEntity
  8
ALPHA
100
AcDbLine
 10
97.551051
 20
167.663137
 30
0.0
 11
97.551051
 21
167.717426
 31
0.0
  0
LINE
  5
1A62
100
AcDbEntity
  8
ALPHA
100
AcDbLine
 10
97.551051
 20
166.317426
 30
0.0
 11
97.551051
 21
166.371715
 31
0.0
  0
LINE
  5
1A63
100
AcDbEntity
  8
ALPHA
100
AcDbLine
 10
97.601051
 20
167.717426
 30
0.0
 11
97.601051
 21
175.317426
 31
0.0
  0
LINE
  5
1A64
100
AcDbEntity
  8
ALPHA
100
AcDbLine
 10
97.601051
 20
173.717426
 30
0.0
 11
98.351051
 21
173.717426
 31
0.0
  0
LINE
  5
1A65
100
AcDbEntity
  8
ALPHA
100
AcDbLine
 10
98.351051
 20
169.317426
 30
0.0
 11
97.601051
 21
169.317426
 31
0.0
  0
LINE
  5
1A66
100
AcDbEntity
  8
ALPHA
100
AcDbLine
 10
94.301051
 20
174.439791
 30
0.0
 11
96.901051
 21
174.439791
 31
0.0
  0
LINE
  5
1A67
100
AcDbEntity
  8
ALPHA
100
AcDbLine
 10
109.897461
 20
176.6584
 30
0.0
 11
109.897461
 21
176.717426
 31
0.0
  0
LINE
  5
1A68
100
AcDbEntity
  8
ALPHA
100
AcDbLine
 10
109.897461
 20
175.317426
 30
0.0
 11
109.897461
 21
175.376452
 31
0.0
  0
LINE
  5
1A69
100
AcDbEntity
  8
ALPHA
100
AcDbLine
 10
106.301051
 20
169.367426
 30
0.0
 11
108.901051
 21
169.367426
 31
0.0
  0
LINE
  5
1A6A
100
AcDbEntity
  8
ALPHA
100
AcDbLine
 10
109.897461
 20
167.6584
 30
0.0
 11
109.897461
 21
167.717426
 31
0.0
  0
LINE
  5
1A6B
100
AcDbEntity
  8
ALPHA
100
AcDbLine
 10
109.897461
 20
166.317426
 30
0.0
 11
109.897461
 21
166.376452
 31
0.0
  0
LINE
  5
1A6C
100
AcDbEntity
  8
ALPHA
100
AcDbLine
 10
106.301051
 20
173.667426
 30
0.0
 11
108.901051
 21
173.667426
 31
0.0
  0
LINE
  5
1A6D
100
AcDbEntity
  8
ALPHA
100
AcDbLine
 10
106.301051
 20
165.517426
 30
0.0
 11
108.901051
 21
165.517426
 31
0.0
  0
LINE
  5
1A6E
100
AcDbEntity
  8
ALPHA
100
AcDbLine
 10
108.901051
 20
165.517426
 30
0.0
 11
108.901051
 21
164.817426
 31
0.0
  0
LINE
  5
1A6F
100
AcDbEntity
  8
ALPHA
100
AcDbLine
 10
106.301051
 20
164.817426
 30
0.0
 11
108.901051
 21
164.817426
 31
0.0
  0
LINE
  5
1A70
100
AcDbEntity
  8
ALPHA
100
AcDbLine
 10
106.301051
 20
163.817426
 30
0.0
 11
106.301051
 21
164.817426
 31
0.0
  0
LINE
  5
1A71
100
AcDbEntity
  8
ALPHA
100
AcDbLine
 10
106.301051
 20
163.417426
 30
0.0
 11
106.301051
 21
163.817426
 31
0.0
  0
LINE
  5
1A72
100
AcDbEntity
  8
ALPHA
100
AcDbLine
 10
109.601051
 20
163.817426
 30
0.0
 11
109.601051
 21
166.317426
 31
0.0
  0
LINE
  5
1A73
100
AcDbEntity
  8
ALPHA
100
AcDbLine
 10
109.601051
 20
166.317426
 30
0.0
 11
109.141051
 21
166.317426
 31
0.0
  0
LINE
  5
1A74
100
AcDbEntity
  8
ALPHA
100
AcDbLine
 10
109.141051
 20
166.317426
 30
0.0
 11
109.141051
 21
167.717426
 31
0.0
  0
LINE
  5
1A75
100
AcDbEntity
  8
ALPHA
100
AcDbLine
 10
109.601051
 20
167.717426
 30
0.0
 11
109.141051
 21
167.717426
 31
0.0
  0
LINE
  5
1A76
100
AcDbEntity
  8
ALPHA
100
AcDbLine
 10
109.601051
 20
175.317426
 30
0.0
 11
109.141051
 21
175.317426
 31
0.0
  0
LINE
  5
1A77
100
AcDbEntity
  8
ALPHA
100
AcDbLine
 10
109.141051
 20
175.317426
 30
0.0
 11
109.141051
 21
176.717426
 31
0.0
  0
LINE
  5
1A78
100
AcDbEntity
  8
ALPHA
100
AcDbLine
 10
109.601051
 20
176.717426
 30
0.0
 11
109.141051
 21
176.717426
 31
0.0
  0
LINE
  5
1A79
100
AcDbEntity
  8
ALPHA
100
AcDbLine
 10
109.601051
 20
179.217426
 30
0.0
 11
109.601051
 21
176.717426
 31
0.0
  0
LINE
  5
1A7A
100
AcDbEntity
  8
ALPHA
100
AcDbLine
 10
108.501051
 20
179.217426
 30
0.0
 11
109.601051
 21
179.217426
 31
0.0
  0
LINE
  5
1A7B
100
AcDbEntity
  8
ALPHA
100
AcDbLine
 10
106.301051
 20
179.617426
 30
0.0
 11
108.501051
 21
179.617426
 31
0.0
  0
LINE
  5
1A7C
100
AcDbEntity
  8
ALPHA
100
AcDbLine
 10
106.301051
 20
179.217426
 30
0.0
 11
106.301051
 21
179.617426
 31
0.0
  0
LINE
  5
1A7D
100
AcDbEntity
  8
ALPHA
100
AcDbLine
 10
106.301051
 20
178.217426
 30
0.0
 11
106.301051
 21
179.217426
 31
0.0
  0
LINE
  5
1A7E
100
AcDbEntity
  8
ALPHA
100
AcDbLine
 10
106.301051
 20
178.217426
 30
0.0
 11
108.901051
 21
178.217426
 31
0.0
  0
LINE
  5
1A7F
100
AcDbEntity
  8
ALPHA
100
AcDbLine
 10
108.901051
 20
178.217426
 30
0.0
 11
108.901051
 21
177.517426
 31
0.0
  0
LINE
  5
1A80
100
AcDbEntity
  8
ALPHA
100
AcDbLine
 10
106.301051
 20
177.517426
 30
0.0
 11
108.901051
 21
177.517426
 31
0.0
  0
LINE
  5
1A81
100
AcDbEntity
  8
ALPHA
100
AcDbLine
 10
106.301051
 20
176.708619
 30
0.0
 11
106.301051
 21
177.517426
 31
0.0
  0
LINE
  5
1A82
100
AcDbEntity
  8
ALPHA
100
AcDbLine
 10
106.301051
 20
175.326234
 30
0.0
 11
106.301051
 21
176.708619
 31
0.0
  0
LINE
  5
1A83
100
AcDbEntity
  8
ALPHA
100
AcDbLine
 10
106.301051
 20
174.439791
 30
0.0
 11
106.301051
 21
175.326234
 31
0.0
  0
LINE
  5
1A84
100
AcDbEntity
  8
ALPHA
100
AcDbLine
 10
106.301051
 20
167.708619
 30
0.0
 11
106.301051
 21
168.595062
 31
0.0
  0
LINE
  5
1A85
100
AcDbEntity
  8
ALPHA
100
AcDbLine
 10
106.301051
 20
166.326234
 30
0.0
 11
106.301051
 21
167.708619
 31
0.0
  0
LINE
  5
1A86
100
AcDbEntity
  8
ALPHA
100
AcDbLine
 10
106.301051
 20
165.517426
 30
0.0
 11
106.301051
 21
166.326234
 31
0.0
  0
LINE
  5
1A87
100
AcDbEntity
  8
ALPHA
100
AcDbLine
 10
106.301051
 20
168.595062
 30
0.0
 11
108.901051
 21
168.595062
 31
0.0
  0
LINE
  5
1A88
100
AcDbEntity
  8
ALPHA
100
AcDbLine
 10
106.301051
 20
173.017426
 30
0.0
 11
106.301051
 21
173.667426
 31
0.0
  0
LINE
  5
1A89
100
AcDbEntity
  8
ALPHA
100
AcDbLine
 10
106.301051
 20
170.017426
 30
0.0
 11
106.301051
 21
173.017426
 31
0.0
  0
LINE
  5
1A8A
100
AcDbEntity
  8
ALPHA
100
AcDbLine
 10
106.301051
 20
169.367426
 30
0.0
 11
106.301051
 21
170.017426
 31
0.0
  0
LINE
  5
1A8B
100
AcDbEntity
  8
ALPHA
100
AcDbLine
 10
110.351051
 20
163.817426
 30
0.0
 11
109.601051
 21
163.817426
 31
0.0
  0
LINE
  5
1A8C
100
AcDbEntity
  8
ALPHA
100
AcDbLine
 10
108.501051
 20
163.817426
 30
0.0
 11
109.601051
 21
163.817426
 31
0.0
  0
LINE
  5
1A8D
100
AcDbEntity
  8
ALPHA
100
AcDbLine
 10
110.351051
 20
179.217426
 30
0.0
 11
109.601051
 21
179.217426
 31
0.0
  0
LINE
  5
1A8E
100
AcDbEntity
  8
ALPHA
100
AcDbLine
 10
110.351051
 20
169.317426
 30
0.0
 11
110.351051
 21
167.717426
 31
0.0
  0
LINE
  5
1A8F
100
AcDbEntity
  8
ALPHA
100
AcDbLine
 10
110.351051
 20
166.317426
 30
0.0
 11
110.351051
 21
167.717426
 31
0.0
  0
LINE
  5
1A90
100
AcDbEntity
  8
ALPHA
100
AcDbLine
 10
110.351051
 20
166.317426
 30
0.0
 11
110.351051
 21
163.817426
 31
0.0
  0
LINE
  5
1A91
100
AcDbEntity
  8
ALPHA
100
AcDbLine
 10
108.501051
 20
163.817426
 30
0.0
 11
108.501051
 21
163.417426
 31
0.0
  0
LINE
  5
1A92
100
AcDbEntity
  8
ALPHA
100
AcDbLine
 10
108.501051
 20
179.617426
 30
0.0
 11
108.501051
 21
179.217426
 31
0.0
  0
LINE
  5
1A93
100
AcDbEntity
  8
ALPHA
100
AcDbLine
 10
106.301051
 20
163.417426
 30
0.0
 11
108.501051
 21
163.417426
 31
0.0
  0
LINE
  5
1A94
100
AcDbEntity
  8
ALPHA
100
AcDbLine
 10
108.901051
 20
169.367426
 30
0.0
 11
108.901051
 21
168.595062
 31
0.0
  0
LINE
  5
1A95
100
AcDbEntity
  8
ALPHA
100
AcDbLine
 10
110.351051
 20
179.217426
 30
0.0
 11
110.351051
 21
176.717426
 31
0.0
  0
LINE
  5
1A96
100
AcDbEntity
  8
ALPHA
100
AcDbLine
 10
108.901051
 20
174.439791
 30
0.0
 11
108.901051
 21
173.667426
 31
0.0
  0
LINE
  5
1A97
100
AcDbEntity
  8
ALPHA
100
AcDbLine
 10
110.351051
 20
175.317426
 30
0.0
 11
110.351051
 21
176.717426
 31
0.0
  0
LINE
  5
1A98
100
AcDbEntity
  8
ALPHA
100
AcDbLine
 10
110.351051
 20
175.317426
 30
0.0
 11
110.351051
 21
173.717426
 31
0.0
  0
LINE
  5
1A99
100
AcDbEntity
  8
ALPHA
100
AcDbLine
 10
110.351051
 20
169.317426
 30
0.0
 11
110.351051
 21
173.717426
 31
0.0
  0
LINE
  5
1A9A
100
AcDbEntity
  8
ALPHA
100
AcDbLine
 10
108.826051
 20
168.767426
 30
0.0
 11
108.901051
 21
168.767426
 31
0.0
  0
LINE
  5
1A9B
100
AcDbEntity
  8
ALPHA
100
AcDbLine
 10
108.826051
 20
174.267426
 30
0.0
 11
108.901051
 21
174.267426
 31
0.0
  0
LINE
  5
1A9C
100
AcDbEntity
  8
ALPHA
100
AcDbLine
 10
106.301051
 20
173.817426
 30
0.0
 11
106.301051
 21
173.667426
 31
0.0
  0
LINE
  5
1A9D
100
AcDbEntity
  8
ALPHA
100
AcDbLine
 10
110.351051
 20
166.317426
 30
0.0
 11
109.601051
 21
166.317426
 31
0.0
  0
LINE
  5
1A9E
100
AcDbEntity
  8
ALPHA
100
AcDbLine
 10
110.351051
 20
176.717426
 30
0.0
 11
109.601051
 21
176.717426
 31
0.0
  0
LINE
  5
1A9F
100
AcDbEntity
  8
ALPHA
100
AcDbLine
 10
106.301051
 20
169.367426
 30
0.0
 11
106.301051
 21
169.217426
 31
0.0
  0
LINE
  5
1AA0
100
AcDbEntity
  8
ALPHA
100
AcDbLine
 10
108.551051
 20
178.117426
 30
0.0
 11
108.551051
 21
178.217426
 31
0.0
  0
LINE
  5
1AA1
100
AcDbEntity
  8
ALPHA
100
AcDbLine
 10
108.551051
 20
177.517426
 30
0.0
 11
108.551051
 21
177.617426
 31
0.0
  0
LINE
  5
1AA2
100
AcDbEntity
  8
ALPHA
100
AcDbLine
 10
108.551051
 20
165.417426
 30
0.0
 11
108.551051
 21
165.517426
 31
0.0
  0
LINE
  5
1AA3
100
AcDbEntity
  8
ALPHA
100
AcDbLine
 10
108.551051
 20
164.817426
 30
0.0
 11
108.551051
 21
164.917426
 31
0.0
  0
LINE
  5
1AA4
100
AcDbEntity
  8
ALPHA
100
AcDbLine
 10
108.751051
 20
177.617426
 30
0.0
 11
108.751051
 21
177.517426
 31
0.0
  0
LINE
  5
1AA5
100
AcDbEntity
  8
ALPHA
100
AcDbLine
 10
108.751051
 20
178.217426
 30
0.0
 11
108.751051
 21
178.117426
 31
0.0
  0
LINE
  5
1AA6
100
AcDbEntity
  8
ALPHA
100
AcDbLine
 10
108.751051
 20
165.417426
 30
0.0
 11
108.751051
 21
165.517426
 31
0.0
  0
LINE
  5
1AA7
100
AcDbEntity
  8
ALPHA
100
AcDbLine
 10
108.751051
 20
164.817426
 30
0.0
 11
108.751051
 21
164.917426
 31
0.0
  0
LINE
  5
1AA8
100
AcDbEntity
  8
ALPHA
100
AcDbLine
 10
110.351051
 20
175.317426
 30
0.0
 11
109.601051
 21
175.317426
 31
0.0
  0
LINE
  5
1AA9
100
AcDbEntity
  8
ALPHA
100
AcDbLine
 10
110.351051
 20
167.717426
 30
0.0
 11
109.601051
 21
167.717426
 31
0.0
  0
LINE
  5
1AAA
100
AcDbEntity
  8
ALPHA
100
AcDbLine
 10
109.551051
 20
176.663137
 30
0.0
 11
109.551051
 21
176.717426
 31
0.0
  0
LINE
  5
1AAB
100
AcDbEntity
  8
ALPHA
100
AcDbLine
 10
109.551051
 20
175.317426
 30
0.0
 11
109.551051
 21
175.371715
 31
0.0
  0
LINE
  5
1AAC
100
AcDbEntity
  8
ALPHA
100
AcDbLine
 10
109.551051
 20
167.663137
 30
0.0
 11
109.551051
 21
167.717426
 31
0.0
  0
LINE
  5
1AAD
100
AcDbEntity
  8
ALPHA
100
AcDbLine
 10
109.551051
 20
166.317426
 30
0.0
 11
109.551051
 21
166.371715
 31
0.0
  0
LINE
  5
1AAE
100
AcDbEntity
  8
ALPHA
100
AcDbLine
 10
109.601051
 20
167.717426
 30
0.0
 11
109.601051
 21
175.317426
 31
0.0
  0
LINE
  5
1AAF
100
AcDbEntity
  8
ALPHA
100
AcDbLine
 10
109.601051
 20
173.717426
 30
0.0
 11
110.351051
 21
173.717426
 31
0.0
  0
LINE
  5
1AB0
100
AcDbEntity
  8
ALPHA
100
AcDbLine
 10
110.351051
 20
169.317426
 30
0.0
 11
109.601051
 21
169.317426
 31
0.0
  0
LINE
  5
1AB1
100
AcDbEntity
  8
ALPHA
100
AcDbLine
 10
106.301051
 20
174.439791
 30
0.0
 11
108.901051
 21
174.439791
 31
0.0
  0
LINE
  5
1AB2
100
AcDbEntity
  8
ALPHA
100
AcDbLine
 10
97.558231
 20
166.371715
 30
0.0
 11
97.558231
 21
167.663137
 31
0.0
  0
LINE
  5
1AB3
100
AcDbEntity
  8
ALPHA
100
AcDbLine
 10
94.301051
 20
173.667426
 30
0.0
 11
93.901051
 21
173.667426
 31
0.0
  0
LINE
  5
1AB4
100
AcDbEntity
  8
ALPHA
100
AcDbLine
 10
97.558231
 20
176.663137
 30
0.0
 11
97.558231
 21
175.371715
 31
0.0
  0
LINE
  5
1AB5
100
AcDbEntity
  8
ALPHA
100
AcDbLine
 10
94.301051
 20
169.367426
 30
0.0
 11
93.901051
 21
169.367426
 31
0.0
  0
LINE
  5
1AB6
100
AcDbEntity
  8
ALPHA
100
AcDbLine
 10
93.901051
 20
177.517426
 30
0.0
 11
93.901051
 21
178.217426
 31
0.0
  0
LINE
  5
1AB7
100
AcDbEntity
  8
ALPHA
100
AcDbLine
 10
94.301051
 20
178.217426
 30
0.0
 11
93.901051
 21
178.217426
 31
0.0
  0
LINE
  5
1AB8
100
AcDbEntity
  8
ALPHA
100
AcDbLine
 10
93.901051
 20
177.517426
 30
0.0
 11
94.301051
 21
177.517426
 31
0.0
  0
LINE
  5
1AB9
100
AcDbEntity
  8
ALPHA
100
AcDbLine
 10
94.301051
 20
177.517426
 30
0.0
 11
94.301051
 21
176.708619
 31
0.0
  0
LINE
  5
1ABA
100
AcDbEntity
  8
ALPHA
100
AcDbLine
 10
92.451051
 20
163.817426
 30
0.0
 11
93.201051
 21
163.817426
 31
0.0
  0
LINE
  5
1ABB
100
AcDbEntity
  8
ALPHA
100
AcDbLine
 10
94.301051
 20
176.708619
 30
0.0
 11
93.201051
 21
176.723979
 31
0.0
  0
LINE
  5
1ABC
100
AcDbEntity
  8
ALPHA
100
AcDbLine
 10
92.451051
 20
173.717426
 30
0.0
 11
92.451051
 21
179.217426
 31
0.0
  0
LINE
  5
1ABD
100
AcDbEntity
  8
ALPHA
100
AcDbLine
 10
94.301051
 20
166.326234
 30
0.0
 11
94.301051
 21
165.517426
 31
0.0
  0
LINE
  5
1ABE
100
AcDbEntity
  8
ALPHA
100
AcDbLine
 10
93.901051
 20
165.517426
 30
0.0
 11
94.301051
 21
165.517426
 31
0.0
  0
LINE
  5
1ABF
100
AcDbEntity
  8
ALPHA
100
AcDbLine
 10
93.901051
 20
164.817426
 30
0.0
 11
93.901051
 21
165.517426
 31
0.0
  0
LINE
  5
1AC0
100
AcDbEntity
  8
ALPHA
100
AcDbLine
 10
93.901051
 20
164.817426
 30
0.0
 11
94.301051
 21
164.817426
 31
0.0
  0
LINE
  5
1AC1
100
AcDbEntity
  8
ALPHA
100
AcDbLine
 10
94.301051
 20
163.817426
 30
0.0
 11
93.201051
 21
163.817426
 31
0.0
  0
LINE
  5
1AC2
100
AcDbEntity
  8
ALPHA
100
AcDbLine
 10
94.301051
 20
166.326234
 30
0.0
 11
93.201051
 21
166.310874
 31
0.0
  0
LINE
  5
1AC3
100
AcDbEntity
  8
ALPHA
100
AcDbLine
 10
94.301051
 20
173.017426
 30
0.0
 11
93.201051
 21
173.017426
 31
0.0
  0
LINE
  5
1AC4
100
AcDbEntity
  8
ALPHA
100
AcDbLine
 10
94.301051
 20
175.326234
 30
0.0
 11
93.201051
 21
175.310874
 31
0.0
  0
LINE
  5
1AC5
100
AcDbEntity
  8
ALPHA
100
AcDbLine
 10
94.301051
 20
175.326234
 30
0.0
 11
94.301051
 21
174.439791
 31
0.0
  0
LINE
  5
1AC6
100
AcDbEntity
  8
ALPHA
100
AcDbLine
 10
94.301051
 20
174.439791
 30
0.0
 11
93.901051
 21
174.439791
 31
0.0
  0
LINE
  5
1AC7
100
AcDbEntity
  8
ALPHA
100
AcDbLine
 10
92.451051
 20
163.817426
 30
0.0
 11
92.451051
 21
169.317426
 31
0.0
  0
LINE
  5
1AC8
100
AcDbEntity
  8
ALPHA
100
AcDbLine
 10
94.301051
 20
170.017426
 30
0.0
 11
93.201051
 21
170.017426
 31
0.0
  0
LINE
  5
1AC9
100
AcDbEntity
  8
ALPHA
100
AcDbLine
 10
92.451051
 20
169.317426
 30
0.0
 11
92.451051
 21
173.717426
 31
0.0
  0
LINE
  5
1ACA
100
AcDbEntity
  8
ALPHA
100
AcDbLine
 10
94.301051
 20
169.367426
 30
0.0
 11
94.301051
 21
170.017426
 31
0.0
  0
LINE
  5
1ACB
100
AcDbEntity
  8
ALPHA
100
AcDbLine
 10
94.301051
 20
169.217426
 30
0.0
 11
94.301051
 21
169.367426
 31
0.0
  0
LINE
  5
1ACC
100
AcDbEntity
  8
ALPHA
100
AcDbLine
 10
94.301051
 20
164.917426
 30
0.0
 11
94.301051
 21
164.817426
 31
0.0
  0
LINE
  5
1ACD
100
AcDbEntity
  8
ALPHA
100
AcDbLine
 10
94.301051
 20
165.517426
 30
0.0
 11
94.301051
 21
165.417426
 31
0.0
  0
LINE
  5
1ACE
100
AcDbEntity
  8
ALPHA
100
AcDbLine
 10
94.301051
 20
168.595062
 30
0.0
 11
94.301051
 21
167.708619
 31
0.0
  0
LINE
  5
1ACF
100
AcDbEntity
  8
ALPHA
100
AcDbLine
 10
94.301051
 20
163.817426
 30
0.0
 11
94.301051
 21
164.817426
 31
0.0
  0
LINE
  5
1AD0
100
AcDbEntity
  8
ALPHA
100
AcDbLine
 10
94.301051
 20
167.708619
 30
0.0
 11
93.201051
 21
167.723979
 31
0.0
  0
LINE
  5
1AD1
100
AcDbEntity
  8
ALPHA
100
AcDbLine
 10
92.451051
 20
179.217426
 30
0.0
 11
93.201051
 21
179.217426
 31
0.0
  0
LINE
  5
1AD2
100
AcDbEntity
  8
ALPHA
100
AcDbLine
 10
94.301051
 20
179.217426
 30
0.0
 11
93.201051
 21
179.217426
 31
0.0
  0
LINE
  5
1AD3
100
AcDbEntity
  8
ALPHA
100
AcDbLine
 10
93.901051
 20
168.595062
 30
0.0
 11
93.901051
 21
169.367426
 31
0.0
  0
LINE
  5
1AD4
100
AcDbEntity
  8
ALPHA
100
AcDbLine
 10
93.901051
 20
173.667426
 30
0.0
 11
93.901051
 21
174.439791
 31
0.0
  0
LINE
  5
1AD5
100
AcDbEntity
  8
ALPHA
100
AcDbLine
 10
93.976051
 20
168.767426
 30
0.0
 11
93.901051
 21
168.767426
 31
0.0
  0
LINE
  5
1AD6
100
AcDbEntity
  8
ALPHA
100
AcDbLine
 10
93.976051
 20
174.267426
 30
0.0
 11
93.901051
 21
174.267426
 31
0.0
  0
LINE
  5
1AD7
100
AcDbEntity
  8
ALPHA
100
AcDbLine
 10
94.051051
 20
178.117426
 30
0.0
 11
94.051051
 21
178.217426
 31
0.0
  0
LINE
  5
1AD8
100
AcDbEntity
  8
ALPHA
100
AcDbLine
 10
94.051051
 20
177.517426
 30
0.0
 11
94.051051
 21
177.617426
 31
0.0
  0
LINE
  5
1AD9
100
AcDbEntity
  8
ALPHA
100
AcDbLine
 10
94.051051
 20
165.417426
 30
0.0
 11
94.051051
 21
165.517426
 31
0.0
  0
LINE
  5
1ADA
100
AcDbEntity
  8
ALPHA
100
AcDbLine
 10
94.051051
 20
164.817426
 30
0.0
 11
94.051051
 21
164.917426
 31
0.0
  0
LINE
  5
1ADB
100
AcDbEntity
  8
ALPHA
100
AcDbLine
 10
97.251051
 20
175.367426
 30
0.0
 11
97.140375
 21
175.365881
 31
0.0
  0
LINE
  5
1ADC
100
AcDbEntity
  8
ALPHA
100
AcDbLine
 10
97.558231
 20
175.371715
 30
0.0
 11
97.251051
 21
175.367426
 31
0.0
  0
LINE
  5
1ADD
100
AcDbEntity
  8
ALPHA
100
AcDbLine
 10
97.140375
 20
176.668972
 30
0.0
 11
97.251051
 21
176.667426
 31
0.0
  0
LINE
  5
1ADE
100
AcDbEntity
  8
ALPHA
100
AcDbLine
 10
97.251051
 20
176.667426
 30
0.0
 11
97.558231
 21
176.663137
 31
0.0
  0
LINE
  5
1ADF
100
AcDbEntity
  8
ALPHA
100
AcDbLine
 10
97.251051
 20
176.667426
 30
0.0
 11
97.251051
 21
175.367426
 31
0.0
  0
LINE
  5
1AE0
100
AcDbEntity
  8
ALPHA
100
AcDbLine
 10
98.251051
 20
176.653463
 30
0.0
 11
98.251051
 21
175.38139
 31
0.0
  0
LINE
  5
1AE1
100
AcDbEntity
  8
ALPHA
100
AcDbLine
 10
98.251051
 20
175.38139
 30
0.0
 11
97.558231
 21
175.371715
 31
0.0
  0
LINE
  5
1AE2
100
AcDbEntity
  8
ALPHA
100
AcDbLine
 10
98.251051
 20
176.653463
 30
0.0
 11
97.558231
 21
176.663137
 31
0.0
  0
LINE
  5
1AE3
100
AcDbEntity
  8
ALPHA
100
AcDbLine
 10
97.140375
 20
166.365881
 30
0.0
 11
97.251051
 21
166.367426
 31
0.0
  0
LINE
  5
1AE4
100
AcDbEntity
  8
ALPHA
100
AcDbLine
 10
97.251051
 20
166.367426
 30
0.0
 11
97.558231
 21
166.371715
 31
0.0
  0
LINE
  5
1AE5
100
AcDbEntity
  8
ALPHA
100
AcDbLine
 10
97.251051
 20
167.667426
 30
0.0
 11
97.558231
 21
167.663137
 31
0.0
  0
LINE
  5
1AE6
100
AcDbEntity
  8
ALPHA
100
AcDbLine
 10
97.140375
 20
167.668972
 30
0.0
 11
97.251051
 21
167.667426
 31
0.0
  0
LINE
  5
1AE7
100
AcDbEntity
  8
ALPHA
100
AcDbLine
 10
97.251051
 20
166.367426
 30
0.0
 11
97.251051
 21
167.667426
 31
0.0
  0
LINE
  5
1AE8
100
AcDbEntity
  8
ALPHA
100
AcDbLine
 10
98.251051
 20
166.38139
 30
0.0
 11
98.251051
 21
167.653463
 31
0.0
  0
LINE
  5
1AE9
100
AcDbEntity
  8
ALPHA
100
AcDbLine
 10
98.251051
 20
166.38139
 30
0.0
 11
97.558231
 21
166.371715
 31
0.0
  0
LINE
  5
1AEA
100
AcDbEntity
  8
ALPHA
100
AcDbLine
 10
98.251051
 20
167.653463
 30
0.0
 11
97.558231
 21
167.663137
 31
0.0
  0
LINE
  5
1AEB
100
AcDbEntity
  8
ALPHA
100
AcDbLine
 10
94.301051
 20
178.217426
 30
0.0
 11
94.301051
 21
179.217426
 31
0.0
  0
LINE
  5
1AEC
100
AcDbEntity
  8
ALPHA
100
AcDbLine
 10
94.301051
 20
177.617426
 30
0.0
 11
94.301051
 21
177.517426
 31
0.0
  0
LINE
  5
1AED
100
AcDbEntity
  8
ALPHA
100
AcDbLine
 10
94.301051
 20
178.217426
 30
0.0
 11
94.301051
 21
178.117426
 31
0.0
  0
LINE
  5
1AEE
100
AcDbEntity
  8
ALPHA
100
AcDbLine
 10
94.301051
 20
173.667426
 30
0.0
 11
94.301051
 21
173.817426
 31
0.0
  0
LINE
  5
1AEF
100
AcDbEntity
  8
ALPHA
100
AcDbLine
 10
94.301051
 20
173.017426
 30
0.0
 11
94.301051
 21
173.667426
 31
0.0
  0
LINE
  5
1AF0
100
AcDbEntity
  8
ALPHA
100
AcDbLine
 10
93.201051
 20
179.217426
 30
0.0
 11
93.201051
 21
176.723979
 31
0.0
  0
LINE
  5
1AF1
100
AcDbEntity
  8
ALPHA
100
AcDbLine
 10
93.201051
 20
175.310874
 30
0.0
 11
93.201051
 21
176.723979
 31
0.0
  0
LINE
  5
1AF2
100
AcDbEntity
  8
ALPHA
100
AcDbLine
 10
93.201051
 20
175.310874
 30
0.0
 11
93.201051
 21
173.017426
 31
0.0
  0
LINE
  5
1AF3
100
AcDbEntity
  8
ALPHA
100
AcDbLine
 10
93.201051
 20
170.017426
 30
0.0
 11
93.201051
 21
167.723979
 31
0.0
  0
LINE
  5
1AF4
100
AcDbEntity
  8
ALPHA
100
AcDbLine
 10
93.201051
 20
166.310874
 30
0.0
 11
93.201051
 21
167.723979
 31
0.0
  0
LINE
  5
1AF5
100
AcDbEntity
  8
ALPHA
100
AcDbLine
 10
93.201051
 20
166.310874
 30
0.0
 11
93.201051
 21
163.817426
 31
0.0
  0
LINE
  5
1AF6
100
AcDbEntity
  8
ALPHA
100
AcDbLine
 10
93.201051
 20
169.317426
 30
0.0
 11
92.451051
 21
169.317426
 31
0.0
  0
LINE
  5
1AF7
100
AcDbEntity
  8
ALPHA
100
AcDbLine
 10
92.451051
 20
173.717426
 30
0.0
 11
93.201051
 21
173.717426
 31
0.0
  0
LINE
  5
1AF8
100
AcDbEntity
  8
ALPHA
100
AcDbLine
 10
94.301051
 20
168.595062
 30
0.0
 11
93.901051
 21
168.595062
 31
0.0
  0
LINE
  5
1AF9
100
AcDbEntity
  8
ALPHA
100
AcDbLine
 10
109.558231
 20
166.371715
 30
0.0
 11
109.558231
 21
167.663137
 31
0.0
  0
LINE
  5
1AFA
100
AcDbEntity
  8
ALPHA
100
AcDbLine
 10
106.301051
 20
173.667426
 30
0.0
 11
105.901051
 21
173.667426
 31
0.0
  0
LINE
  5
1AFB
100
AcDbEntity
  8
ALPHA
100
AcDbLine
 10
109.558231
 20
176.663137
 30
0.0
 11
109.558231
 21
175.371715
 31
0.0
  0
LINE
  5
1AFC
100
AcDbEntity
  8
ALPHA
100
AcDbLine
 10
106.301051
 20
169.367426
 30
0.0
 11
105.901051
 21
169.367426
 31
0.0
  0
LINE
  5
1AFD
100
AcDbEntity
  8
ALPHA
100
AcDbLine
 10
105.901051
 20
177.517426
 30
0.0
 11
105.901051
 21
178.217426
 31
0.0
  0
LINE
  5
1AFE
100
AcDbEntity
  8
ALPHA
100
AcDbLine
 10
106.301051
 20
178.217426
 30
0.0
 11
105.901051
 21
178.217426
 31
0.0
  0
LINE
  5
1AFF
100
AcDbEntity
  8
ALPHA
100
AcDbLine
 10
105.901051
 20
177.517426
 30
0.0
 11
106.301051
 21
177.517426
 31
0.0
  0
LINE
  5
1B00
100
AcDbEntity
  8
ALPHA
100
AcDbLine
 10
106.301051
 20
177.517426
 30
0.0
 11
106.301051
 21
176.708619
 31
0.0
  0
LINE
  5
1B01
100
AcDbEntity
  8
ALPHA
100
AcDbLine
 10
104.451051
 20
163.817426
 30
0.0
 11
105.201051
 21
163.817426
 31
0.0
  0
LINE
  5
1B02
100
AcDbEntity
  8
ALPHA
100
AcDbLine
 10
106.301051
 20
176.708619
 30
0.0
 11
105.201051
 21
176.723979
 31
0.0
  0
LINE
  5
1B03
100
AcDbEntity
  8
ALPHA
100
AcDbLine
 10
104.451051
 20
173.717426
 30
0.0
 11
104.451051
 21
179.217426
 31
0.0
  0
LINE
  5
1B04
100
AcDbEntity
  8
ALPHA
100
AcDbLine
 10
106.301051
 20
166.326234
 30
0.0
 11
106.301051
 21
165.517426
 31
0.0
  0
LINE
  5
1B05
100
AcDbEntity
  8
ALPHA
100
AcDbLine
 10
105.901051
 20
165.517426
 30
0.0
 11
106.301051
 21
165.517426
 31
0.0
  0
LINE
  5
1B06
100
AcDbEntity
  8
ALPHA
100
AcDbLine
 10
105.901051
 20
164.817426
 30
0.0
 11
105.901051
 21
165.517426
 31
0.0
  0
LINE
  5
1B07
100
AcDbEntity
  8
ALPHA
100
AcDbLine
 10
105.901051
 20
164.817426
 30
0.0
 11
106.301051
 21
164.817426
 31
0.0
  0
LINE
  5
1B08
100
AcDbEntity
  8
ALPHA
100
AcDbLine
 10
106.301051
 20
163.817426
 30
0.0
 11
105.201051
 21
163.817426
 31
0.0
  0
LINE
  5
1B09
100
AcDbEntity
  8
ALPHA
100
AcDbLine
 10
106.301051
 20
166.326234
 30
0.0
 11
105.201051
 21
166.310874
 31
0.0
  0
LINE
  5
1B0A
100
AcDbEntity
  8
ALPHA
100
AcDbLine
 10
106.301051
 20
173.017426
 30
0.0
 11
105.201051
 21
173.017426
 31
0.0
  0
LINE
  5
1B0B
100
AcDbEntity
  8
ALPHA
100
AcDbLine
 10
106.301051
 20
175.326234
 30
0.0
 11
105.201051
 21
175.310874
 31
0.0
  0
LINE
  5
1B0C
100
AcDbEntity
  8
ALPHA
100
AcDbLine
 10
106.301051
 20
175.326234
 30
0.0
 11
106.301051
 21
174.439791
 31
0.0
  0
LINE
  5
1B0D
100
AcDbEntity
  8
ALPHA
100
AcDbLine
 10
106.301051
 20
174.439791
 30
0.0
 11
105.901051
 21
174.439791
 31
0.0
  0
LINE
  5
1B0E
100
AcDbEntity
  8
ALPHA
100
AcDbLine
 10
104.451051
 20
163.817426
 30
0.0
 11
104.451051
 21
169.317426
 31
0.0
  0
LINE
  5
1B0F
100
AcDbEntity
  8
ALPHA
100
AcDbLine
 10
106.301051
 20
170.017426
 30
0.0
 11
105.201051
 21
170.017426
 31
0.0
  0
LINE
  5
1B10
100
AcDbEntity
  8
ALPHA
100
AcDbLine
 10
104.451051
 20
169.317426
 30
0.0
 11
104.451051
 21
173.717426
 31
0.0
  0
LINE
  5
1B11
100
AcDbEntity
  8
ALPHA
100
AcDbLine
 10
106.301051
 20
169.367426
 30
0.0
 11
106.301051
 21
170.017426
 31
0.0
  0
LINE
  5
1B12
100
AcDbEntity
  8
ALPHA
100
AcDbLine
 10
106.301051
 20
169.217426
 30
0.0
 11
106.301051
 21
169.367426
 31
0.0
  0
LINE
  5
1B13
100
AcDbEntity
  8
ALPHA
100
AcDbLine
 10
106.301051
 20
164.917426
 30
0.0
 11
106.301051
 21
164.817426
 31
0.0
  0
LINE
  5
1B14
100
AcDbEntity
  8
ALPHA
100
AcDbLine
 10
106.301051
 20
165.517426
 30
0.0
 11
106.301051
 21
165.417426
 31
0.0
  0
LINE
  5
1B15
100
AcDbEntity
  8
ALPHA
100
AcDbLine
 10
106.301051
 20
168.595062
 30
0.0
 11
106.301051
 21
167.708619
 31
0.0
  0
LINE
  5
1B16
100
AcDbEntity
  8
ALPHA
100
AcDbLine
 10
106.301051
 20
163.817426
 30
0.0
 11
106.301051
 21
164.817426
 31
0.0
  0
LINE
  5
1B17
100
AcDbEntity
  8
ALPHA
100
AcDbLine
 10
106.301051
 20
167.708619
 30
0.0
 11
105.201051
 21
167.723979
 31
0.0
  0
LINE
  5
1B18
100
AcDbEntity
  8
ALPHA
100
AcDbLine
 10
104.451051
 20
179.217426
 30
0.0
 11
105.201051
 21
179.217426
 31
0.0
  0
LINE
  5
1B19
100
AcDbEntity
  8
ALPHA
100
AcDbLine
 10
106.301051
 20
179.217426
 30
0.0
 11
105.201051
 21
179.217426
 31
0.0
  0
LINE
  5
1B1A
100
AcDbEntity
  8
ALPHA
100
AcDbLine
 10
105.901051
 20
168.595062
 30
0.0
 11
105.901051
 21
169.367426
 31
0.0
  0
LINE
  5
1B1B
100
AcDbEntity
  8
ALPHA
100
AcDbLine
 10
105.901051
 20
173.667426
 30
0.0
 11
105.901051
 21
174.439791
 31
0.0
  0
LINE
  5
1B1C
100
AcDbEntity
  8
ALPHA
100
AcDbLine
 10
105.976051
 20
168.767426
 30
0.0
 11
105.901051
 21
168.767426
 31
0.0
  0
LINE
  5
1B1D
100
AcDbEntity
  8
ALPHA
100
AcDbLine
 10
105.976051
 20
174.267426
 30
0.0
 11
105.901051
 21
174.267426
 31
0.0
  0
LINE
  5
1B1E
100
AcDbEntity
  8
ALPHA
100
AcDbLine
 10
106.051051
 20
178.117426
 30
0.0
 11
106.051051
 21
178.217426
 31
0.0
  0
LINE
  5
1B1F
100
AcDbEntity
  8
ALPHA
100
AcDbLine
 10
106.051051
 20
177.517426
 30
0.0
 11
106.051051
 21
177.617426
 31
0.0
  0
LINE
  5
1B20
100
AcDbEntity
  8
ALPHA
100
AcDbLine
 10
106.051051
 20
165.417426
 30
0.0
 11
106.051051
 21
165.517426
 31
0.0
  0
LINE
  5
1B21
100
AcDbEntity
  8
ALPHA
100
AcDbLine
 10
106.051051
 20
164.817426
 30
0.0
 11
106.051051
 21
164.917426
 31
0.0
  0
LINE
  5
1B22
100
AcDbEntity
  8
ALPHA
100
AcDbLine
 10
109.251051
 20
175.367426
 30
0.0
 11
109.140375
 21
175.365881
 31
0.0
  0
LINE
  5
1B23
100
AcDbEntity
  8
ALPHA
100
AcDbLine
 10
109.558231
 20
175.371715
 30
0.0
 11
109.251051
 21
175.367426
 31
0.0
  0
LINE
  5
1B24
100
AcDbEntity
  8
ALPHA
100
AcDbLine
 10
109.140375
 20
176.668972
 30
0.0
 11
109.251051
 21
176.667426
 31
0.0
  0
LINE
  5
1B25
100
AcDbEntity
  8
ALPHA
100
AcDbLine
 10
109.251051
 20
176.667426
 30
0.0
 11
109.558231
 21
176.663137
 31
0.0
  0
LINE
  5
1B26
100
AcDbEntity
  8
ALPHA
100
AcDbLine
 10
109.251051
 20
176.667426
 30
0.0
 11
109.251051
 21
175.367426
 31
0.0
  0
LINE
  5
1B27
100
AcDbEntity
  8
ALPHA
100
AcDbLine
 10
110.251051
 20
176.653463
 30
0.0
 11
110.251051
 21
175.38139
 31
0.0
  0
LINE
  5
1B28
100
AcDbEntity
  8
ALPHA
100
AcDbLine
 10
110.251051
 20
175.38139
 30
0.0
 11
109.558231
 21
175.371715
 31
0.0
  0
LINE
  5
1B29
100
AcDbEntity
  8
ALPHA
100
AcDbLine
 10
110.251051
 20
176.653463
 30
0.0
 11
109.558231
 21
176.663137
 31
0.0
  0
LINE
  5
1B2A
100
AcDbEntity
  8
ALPHA
100
AcDbLine
 10
109.140375
 20
166.365881
 30
0.0
 11
109.251051
 21
166.367426
 31
0.0
  0
LINE
  5
1B2B
100
AcDbEntity
  8
ALPHA
100
AcDbLine
 10
109.251051
 20
166.367426
 30
0.0
 11
109.558231
 21
166.371715
 31
0.0
  0
LINE
  5
1B2C
100
AcDbEntity
  8
ALPHA
100
AcDbLine
 10
109.251051
 20
167.667426
 30
0.0
 11
109.558231
 21
167.663137
 31
0.0
  0
LINE
  5
1B2D
100
AcDbEntity
  8
ALPHA
100
AcDbLine
 10
109.140375
 20
167.668972
 30
0.0
 11
109.251051
 21
167.667426
 31
0.0
  0
LINE
  5
1B2E
100
AcDbEntity
  8
ALPHA
100
AcDbLine
 10
109.251051
 20
166.367426
 30
0.0
 11
109.251051
 21
167.667426
 31
0.0
  0
LINE
  5
1B2F
100
AcDbEntity
  8
ALPHA
100
AcDbLine
 10
110.251051
 20
166.38139
 30
0.0
 11
110.251051
 21
167.653463
 31
0.0
  0
LINE
  5
1B30
100
AcDbEntity
  8
ALPHA
100
AcDbLine
 10
110.251051
 20
166.38139
 30
0.0
 11
109.558231
 21
166.371715
 31
0.0
  0
LINE
  5
1B31
100
AcDbEntity
  8
ALPHA
100
AcDbLine
 10
110.251051
 20
167.653463
 30
0.0
 11
109.558231
 21
167.663137
 31
0.0
  0
LINE
  5
1B32
100
AcDbEntity
  8
ALPHA
100
AcDbLine
 10
106.301051
 20
178.217426
 30
0.0
 11
106.301051
 21
179.217426
 31
0.0
  0
LINE
  5
1B33
100
AcDbEntity
  8
ALPHA
100
AcDbLine
 10
106.301051
 20
177.617426
 30
0.0
 11
106.301051
 21
177.517426
 31
0.0
  0
LINE
  5
1B34
100
AcDbEntity
  8
ALPHA
100
AcDbLine
 10
106.301051
 20
178.217426
 30
0.0
 11
106.301051
 21
178.117426
 31
0.0
  0
LINE
  5
1B35
100
AcDbEntity
  8
ALPHA
100
AcDbLine
 10
106.301051
 20
173.667426
 30
0.0
 11
106.301051
 21
173.817426
 31
0.0
  0
LINE
  5
1B36
100
AcDbEntity
  8
ALPHA
100
AcDbLine
 10
106.301051
 20
173.017426
 30
0.0
 11
106.301051
 21
173.667426
 31
0.0
  0
LINE
  5
1B37
100
AcDbEntity
  8
ALPHA
100
AcDbLine
 10
105.201051
 20
179.217426
 30
0.0
 11
105.201051
 21
176.723979
 31
0.0
  0
LINE
  5
1B38
100
AcDbEntity
  8
ALPHA
100
AcDbLine
 10
105.201051
 20
175.310874
 30
0.0
 11
105.201051
 21
176.723979
 31
0.0
  0
LINE
  5
1B39
100
AcDbEntity
  8
ALPHA
100
AcDbLine
 10
105.201051
 20
175.310874
 30
0.0
 11
105.201051
 21
173.017426
 31
0.0
  0
LINE
  5
1B3A
100
AcDbEntity
  8
ALPHA
100
AcDbLine
 10
105.201051
 20
170.017426
 30
0.0
 11
105.201051
 21
167.723979
 31
0.0
  0
LINE
  5
1B3B
100
AcDbEntity
  8
ALPHA
100
AcDbLine
 10
105.201051
 20
166.310874
 30
0.0
 11
105.201051
 21
167.723979
 31
0.0
  0
LINE
  5
1B3C
100
AcDbEntity
  8
ALPHA
100
AcDbLine
 10
105.201051
 20
166.310874
 30
0.0
 11
105.201051
 21
163.817426
 31
0.0
  0
LINE
  5
1B3D
100
AcDbEntity
  8
ALPHA
100
AcDbLine
 10
105.201051
 20
169.317426
 30
0.0
 11
104.451051
 21
169.317426
 31
0.0
  0
LINE
  5
1B3E
100
AcDbEntity
  8
ALPHA
100
AcDbLine
 10
104.451051
 20
173.717426
 30
0.0
 11
105.201051
 21
173.717426
 31
0.0
  0
LINE
  5
1B3F
100
AcDbEntity
  8
ALPHA
100
AcDbLine
 10
106.301051
 20
168.595062
 30
0.0
 11
105.901051
 21
168.595062
 31
0.0
  0
LINE
  5
1B40
100
AcDbEntity
  8
ALPHA
100
AcDbLine
 10
99.451051
 20
164.717426
 30
0.0
 11
99.251051
 21
164.717426
 31
0.0
  0
ARC
  5
1B41
100
AcDbEntity
  8
ALPHA
100
AcDbCircle
 10
99.251051
 20
177.517426
 30
0.0
 40
0.8
100
AcDbArc
 50
90.0
 51
180.0
  0
LINE
  5
1B42
100
AcDbEntity
  8
ALPHA
100
AcDbLine
 10
99.451051
 20
178.317426
 30
0.0
 11
99.251051
 21
178.317426
 31
0.0
  0
LINE
  5
1B43
100
AcDbEntity
  8
ALPHA
100
AcDbLine
 10
99.451051
 20
173.017426
 30
0.0
 11
98.451051
 21
173.017426
 31
0.0
  0
LINE
  5
1B44
100
AcDbEntity
  8
ALPHA
100
AcDbLine
 10
99.451051
 20
177.417426
 30
0.0
 11
98.451051
 21
177.417426
 31
0.0
  0
ARC
  5
1B45
100
AcDbEntity
  8
ALPHA
100
AcDbCircle
 10
99.251051
 20
165.517426
 30
0.0
 40
0.8
100
AcDbArc
 50
180.0
 51
270.0
  0
LINE
  5
1B46
100
AcDbEntity
  8
ALPHA
100
AcDbLine
 10
99.451051
 20
170.017426
 30
0.0
 11
98.451051
 21
170.017426
 31
0.0
  0
LINE
  5
1B47
100
AcDbEntity
  8
ALPHA
100
AcDbLine
 10
99.451051
 20
165.617426
 30
0.0
 11
98.451051
 21
165.617426
 31
0.0
  0
LINE
  5
1B48
100
AcDbEntity
  8
ALPHA
100
AcDbLine
 10
99.951051
 20
169.227426
 30
0.0
 11
99.951051
 21
169.517426
 31
0.0
  0
LINE
  5
1B49
100
AcDbEntity
  8
ALPHA
100
AcDbLine
 10
99.951051
 20
168.417426
 30
0.0
 11
99.951051
 21
168.727426
 31
0.0
  0
LINE
  5
1B4A
100
AcDbEntity
  8
ALPHA
100
AcDbLine
 10
99.951051
 20
174.307426
 30
0.0
 11
99.951051
 21
174.617426
 31
0.0
  0
LINE
  5
1B4B
100
AcDbEntity
  8
ALPHA
100
AcDbLine
 10
99.951051
 20
173.517426
 30
0.0
 11
99.951051
 21
173.807426
 31
0.0
  0
LINE
  5
1B4C
100
AcDbEntity
  8
ALPHA
100
AcDbLine
 10
98.451051
 20
165.517426
 30
0.0
 11
98.451051
 21
165.617426
 31
0.0
  0
LINE
  5
1B4D
100
AcDbEntity
  8
ALPHA
100
AcDbLine
 10
98.451051
 20
165.617426
 30
0.0
 11
98.451051
 21
170.017426
 31
0.0
  0
LINE
  5
1B4E
100
AcDbEntity
  8
ALPHA
100
AcDbLine
 10
98.451051
 20
170.017426
 30
0.0
 11
98.451051
 21
173.017426
 31
0.0
  0
LINE
  5
1B4F
100
AcDbEntity
  8
ALPHA
100
AcDbLine
 10
98.451051
 20
173.017426
 30
0.0
 11
98.451051
 21
177.417426
 31
0.0
  0
LINE
  5
1B50
100
AcDbEntity
  8
ALPHA
100
AcDbLine
 10
98.451051
 20
177.517426
 30
0.0
 11
98.451051
 21
177.417426
 31
0.0
  0
LINE
  5
1B51
100
AcDbEntity
  8
ALPHA
100
AcDbLine
 10
99.451051
 20
173.517426
 30
0.0
 11
99.451051
 21
174.617426
 31
0.0
  0
LINE
  5
1B52
100
AcDbEntity
  8
ALPHA
100
AcDbLine
 10
99.451051
 20
168.417426
 30
0.0
 11
99.451051
 21
169.517426
 31
0.0
  0
LINE
  5
1B53
100
AcDbEntity
  8
ALPHA
100
AcDbLine
 10
101.201051
 20
175.467426
 30
0.0
 11
100.701051
 21
175.467426
 31
0.0
  0
LINE
  5
1B54
100
AcDbEntity
  8
ALPHA
100
AcDbLine
 10
101.201051
 20
176.217426
 30
0.0
 11
101.201051
 21
175.467426
 31
0.0
  0
LINE
  5
1B55
100
AcDbEntity
  8
ALPHA
100
AcDbLine
 10
101.201051
 20
176.217426
 30
0.0
 11
101.951051
 21
176.217426
 31
0.0
  0
LINE
  5
1B56
100
AcDbEntity
  8
ALPHA
100
AcDbLine
 10
99.951051
 20
166.317426
 30
0.0
 11
101.951051
 21
166.317426
 31
0.0
  0
LINE
  5
1B57
100
AcDbEntity
  8
ALPHA
100
AcDbLine
 10
101.951051
 20
166.317426
 30
0.0
 11
101.951051
 21
166.817426
 31
0.0
  0
LINE
  5
1B58
100
AcDbEntity
  8
ALPHA
100
AcDbLine
 10
101.951051
 20
166.817426
 30
0.0
 11
99.951051
 21
166.817426
 31
0.0
  0
LINE
  5
1B59
100
AcDbEntity
  8
ALPHA
100
AcDbLine
 10
99.951051
 20
166.817426
 30
0.0
 11
99.951051
 21
166.317426
 31
0.0
  0
LINE
  5
1B5A
100
AcDbEntity
  8
ALPHA
100
AcDbLine
 10
101.951051
 20
176.217426
 30
0.0
 11
101.951051
 21
176.717426
 31
0.0
  0
LINE
  5
1B5B
100
AcDbEntity
  8
ALPHA
100
AcDbLine
 10
101.951051
 20
176.717426
 30
0.0
 11
101.201051
 21
176.717426
 31
0.0
  0
LINE
  5
1B5C
100
AcDbEntity
  8
ALPHA
100
AcDbLine
 10
101.201051
 20
177.467426
 30
0.0
 11
101.201051
 21
176.717426
 31
0.0
  0
LINE
  5
1B5D
100
AcDbEntity
  8
ALPHA
100
AcDbLine
 10
100.701051
 20
177.467426
 30
0.0
 11
101.201051
 21
177.467426
 31
0.0
  0
LINE
  5
1B5E
100
AcDbEntity
  8
ALPHA
100
AcDbLine
 10
100.701051
 20
176.717426
 30
0.0
 11
100.701051
 21
177.467426
 31
0.0
  0
LINE
  5
1B5F
100
AcDbEntity
  8
ALPHA
100
AcDbLine
 10
100.701051
 20
176.717426
 30
0.0
 11
99.951051
 21
176.717426
 31
0.0
  0
LINE
  5
1B60
100
AcDbEntity
  8
ALPHA
100
AcDbLine
 10
99.951051
 20
176.717426
 30
0.0
 11
99.951051
 21
176.217426
 31
0.0
  0
LINE
  5
1B61
100
AcDbEntity
  8
ALPHA
100
AcDbLine
 10
99.951051
 20
176.217426
 30
0.0
 11
100.701051
 21
176.217426
 31
0.0
  0
LINE
  5
1B62
100
AcDbEntity
  8
ALPHA
100
AcDbLine
 10
100.701051
 20
175.467426
 30
0.0
 11
100.701051
 21
176.217426
 31
0.0
  0
LINE
  5
1B63
100
AcDbEntity
  8
ALPHA
100
AcDbLine
 10
99.951051
 20
168.567426
 30
0.0
 11
100.261719
 21
168.567426
 31
0.0
  0
LINE
  5
1B64
100
AcDbEntity
  8
ALPHA
100
AcDbLine
 10
99.951051
 20
174.467426
 30
0.0
 11
100.351051
 21
174.467426
 31
0.0
  0
LINE
  5
1B65
100
AcDbEntity
  8
ALPHA
100
AcDbLine
 10
103.601051
 20
178.315862
 30
0.0
 11
103.601051
 21
164.71899
 31
0.0
  0
LINE
  5
1B66
100
AcDbEntity
  8
ALPHA
100
AcDbLine
 10
99.451051
 20
168.417426
 30
0.0
 11
102.001051
 21
168.417426
 31
0.0
  0
LINE
  5
1B67
100
AcDbEntity
  8
ALPHA
100
AcDbLine
 10
102.001051
 20
168.727426
 30
0.0
 11
102.001051
 21
168.417426
 31
0.0
  0
LINE
  5
1B68
100
AcDbEntity
  8
ALPHA
100
AcDbLine
 10
102.001051
 20
169.517426
 30
0.0
 11
102.001051
 21
169.227426
 31
0.0
  0
LINE
  5
1B69
100
AcDbEntity
  8
ALPHA
100
AcDbLine
 10
99.451051
 20
169.517426
 30
0.0
 11
102.001051
 21
169.517426
 31
0.0
  0
LINE
  5
1B6A
100
AcDbEntity
  8
ALPHA
100
AcDbLine
 10
99.451051
 20
173.517426
 30
0.0
 11
102.001051
 21
173.517426
 31
0.0
  0
LINE
  5
1B6B
100
AcDbEntity
  8
ALPHA
100
AcDbLine
 10
102.001051
 20
173.807426
 30
0.0
 11
102.001051
 21
173.517426
 31
0.0
  0
LINE
  5
1B6C
100
AcDbEntity
  8
ALPHA
100
AcDbLine
 10
102.001051
 20
174.617426
 30
0.0
 11
102.001051
 21
174.307426
 31
0.0
  0
LINE
  5
1B6D
100
AcDbEntity
  8
ALPHA
100
AcDbLine
 10
99.451051
 20
174.617426
 30
0.0
 11
102.001051
 21
174.617426
 31
0.0
  0
LINE
  5
1B6E
100
AcDbEntity
  8
ALPHA
100
AcDbLine
 10
99.451051
 20
178.317426
 30
0.0
 11
103.551051
 21
178.317426
 31
0.0
  0
LINE
  5
1B6F
100
AcDbEntity
  8
ALPHA
100
AcDbLine
 10
99.451051
 20
164.717426
 30
0.0
 11
103.551051
 21
164.717426
 31
0.0
  0
LINE
  5
1B70
100
AcDbEntity
  8
ALPHA
100
AcDbLine
 10
104.351051
 20
165.517426
 30
0.0
 11
104.351051
 21
177.517426
 31
0.0
  0
LINE
  5
1B71
100
AcDbEntity
  8
ALPHA
100
AcDbLine
 10
99.451051
 20
168.417426
 30
0.0
 11
99.451051
 21
164.717426
 31
0.0
  0
ARC
  5
1B72
100
AcDbEntity
  8
ALPHA
100
AcDbCircle
 10
103.551051
 20
177.517426
 30
0.0
 40
0.8
100
AcDbArc
 50
86.416678
 51
90.0
  0
ARC
  5
1B73
100
AcDbEntity
  8
ALPHA
100
AcDbCircle
 10
103.551051
 20
165.517426
 30
0.0
 40
0.8
100
AcDbArc
 50
270.0
 51
273.583322
  0
LINE
  5
1B74
100
AcDbEntity
  8
ALPHA
100
AcDbLine
 10
99.451051
 20
178.317426
 30
0.0
 11
99.451051
 21
174.617426
 31
0.0
  0
ARC
  5
1B75
100
AcDbEntity
  8
ALPHA
100
AcDbCircle
 10
103.551051
 20
165.517426
 30
0.0
 40
0.8
100
AcDbArc
 50
273.583322
 51
0.0
  0
ARC
  5
1B76
100
AcDbEntity
  8
ALPHA
100
AcDbCircle
 10
103.551051
 20
177.517426
 30
0.0
 40
0.8
100
AcDbArc
 50
0.0
 51
86.416678
  0
LINE
  5
1B77
100
AcDbEntity
  8
ALPHA
100
AcDbLine
 10
99.451051
 20
173.517426
 30
0.0
 11
99.451051
 21
169.517426
 31
0.0
  0
LINE
  5
1B78
100
AcDbEntity
  8
ALPHA
100
AcDbLine
 10
108.326051
 20
165.320236
 30
0.0
 11
106.476051
 21
165.320236
 31
0.0
  0
LINE
  5
1B79
100
AcDbEntity
  8
ALPHA
100
AcDbLine
 10
108.326051
 20
165.014616
 30
0.0
 11
106.476051
 21
165.014616
 31
0.0
  0
LINE
  5
1B7A
100
AcDbEntity
  8
ALPHA
100
AcDbLine
 10
108.326051
 20
168.814616
 30
0.0
 11
106.476051
 21
168.814616
 31
0.0
  0
LINE
  5
1B7B
100
AcDbEntity
  8
ALPHA
100
AcDbLine
 10
108.326051
 20
169.120236
 30
0.0
 11
106.476051
 21
169.120236
 31
0.0
  0
LINE
  5
1B7C
100
AcDbEntity
  8
ALPHA
100
AcDbLine
 10
106.476051
 20
165.014616
 30
0.0
 11
106.476051
 21
165.320236
 31
0.0
  0
LINE
  5
1B7D
100
AcDbEntity
  8
ALPHA
100
AcDbLine
 10
106.476051
 20
165.014616
 30
0.0
 11
105.976051
 21
164.917426
 31
0.0
  0
LINE
  5
1B7E
100
AcDbEntity
  8
ALPHA
100
AcDbLine
 10
106.476051
 20
165.320236
 30
0.0
 11
105.976051
 21
165.417426
 31
0.0
  0
LINE
  5
1B7F
100
AcDbEntity
  8
ALPHA
100
AcDbLine
 10
106.476051
 20
168.814616
 30
0.0
 11
106.476051
 21
169.120236
 31
0.0
  0
LINE
  5
1B80
100
AcDbEntity
  8
ALPHA
100
AcDbLine
 10
106.476051
 20
168.814616
 30
0.0
 11
105.976051
 21
168.717426
 31
0.0
  0
LINE
  5
1B81
100
AcDbEntity
  8
ALPHA
100
AcDbLine
 10
106.476051
 20
169.120236
 30
0.0
 11
105.976051
 21
169.217426
 31
0.0
  0
LINE
  5
1B82
100
AcDbEntity
  8
ALPHA
100
AcDbLine
 10
108.326051
 20
168.814616
 30
0.0
 11
108.326051
 21
169.120236
 31
0.0
  0
LINE
  5
1B83
100
AcDbEntity
  8
ALPHA
100
AcDbLine
 10
108.326051
 20
169.120236
 30
0.0
 11
108.826051
 21
169.217426
 31
0.0
  0
LINE
  5
1B84
100
AcDbEntity
  8
ALPHA
100
AcDbLine
 10
108.326051
 20
168.814616
 30
0.0
 11
108.826051
 21
168.717426
 31
0.0
  0
LINE
  5
1B85
100
AcDbEntity
  8
ALPHA
100
AcDbLine
 10
108.326051
 20
165.014616
 30
0.0
 11
108.326051
 21
165.320236
 31
0.0
  0
LINE
  5
1B86
100
AcDbEntity
  8
ALPHA
100
AcDbLine
 10
108.326051
 20
165.320236
 30
0.0
 11
108.826051
 21
165.417426
 31
0.0
  0
LWPOLYLINE
  5
1B87
100
AcDbEntity
  8
ALPHA
100
AcDbPolyline
 90
        8
 70
     0
 43
0.0
 10
107.401051
 20
164.867426
 10
107.241363
 20
164.867426
 10
107.091927
 20
164.867426
 10
106.961139
 20
164.867426
 10
106.856091
 20
164.867426
 10
106.782433
 20
164.867426
 10
106.744426
 20
164.867426
 10
106.739613
 20
164.867426
  0
LINE
  5
1B91
100
AcDbEntity
  8
ALPHA
100
AcDbLine
 10
108.326051
 20
165.014616
 30
0.0
 11
108.826051
 21
164.917426
 31
0.0
  0
LINE
  5
1B92
100
AcDbEntity
  8
ALPHA
100
AcDbLine
 10
108.826051
 20
168.689319
 30
0.0
 11
105.976051
 21
168.689319
 31
0.0
  0
LWPOLYLINE
  5
1B93
100
AcDbEntity
  8
ALPHA
100
AcDbPolyline
 90
        8
 70
     0
 43
0.0
 10
108.062489
 20
164.867426
 10
108.057676
 20
164.867426
 10
108.019669
 20
164.867426
 10
107.946011
 20
164.867426
 10
107.840963
 20
164.867426
 10
107.710175
 20
164.867426
 10
107.56074
 20
164.867426
 10
107.401051
 20
164.867426
  0
ARC
  5
1B9D
100
AcDbEntity
  8
ALPHA
100
AcDbCircle
 10
108.651051
 20
165.717426
 30
0.0
 40
0.3
100
AcDbArc
 50
270.0
 51
289.550658
  0
LINE
  5
1B9E
100
AcDbEntity
  8
ALPHA
100
AcDbLine
 10
108.826051
 20
165.417426
 30
0.0
 11
105.976051
 21
165.417426
 31
0.0
  0
LINE
  5
1B9F
100
AcDbEntity
  8
ALPHA
100
AcDbLine
 10
108.826051
 20
164.917426
 30
0.0
 11
105.976051
 21
164.917426
 31
0.0
  0
LINE
  5
1BA0
100
AcDbEntity
  8
ALPHA
100
AcDbLine
 10
108.826051
 20
168.717426
 30
0.0
 11
105.976051
 21
168.717426
 31
0.0
  0
LINE
  5
1BA1
100
AcDbEntity
  8
ALPHA
100
AcDbLine
 10
108.826051
 20
169.217426
 30
0.0
 11
105.976051
 21
169.217426
 31
0.0
  0
LINE
  5
1BA2
100
AcDbEntity
  8
ALPHA
100
AcDbLine
 10
109.451051
 20
166.370219
 30
0.0
 11
109.451051
 21
166.317426
 31
0.0
  0
LINE
  5
1BA3
100
AcDbEntity
  8
ALPHA
100
AcDbLine
 10
105.976051
 20
164.917426
 30
0.0
 11
105.976051
 21
165.417426
 31
0.0
  0
LINE
  5
1BA4
100
AcDbEntity
  8
ALPHA
100
AcDbLine
 10
105.976051
 20
168.717426
 30
0.0
 11
105.976051
 21
169.217426
 31
0.0
  0
LINE
  5
1BA5
100
AcDbEntity
  8
ALPHA
100
AcDbLine
 10
108.826051
 20
168.717426
 30
0.0
 11
108.826051
 21
169.217426
 31
0.0
  0
LINE
  5
1BA6
100
AcDbEntity
  8
ALPHA
100
AcDbLine
 10
108.826051
 20
164.917426
 30
0.0
 11
108.826051
 21
165.417426
 31
0.0
  0
LINE
  5
1BA7
100
AcDbEntity
  8
ALPHA
100
AcDbLine
 10
109.451051
 20
167.717426
 30
0.0
 11
109.451051
 21
167.664633
 31
0.0
  0
LINE
  5
1BA8
100
AcDbEntity
  8
ALPHA
100
AcDbLine
 10
108.826051
 20
168.717426
 30
0.0
 11
108.826051
 21
168.689319
 31
0.0
  0
LINE
  5
1BA9
100
AcDbEntity
  8
ALPHA
100
AcDbLine
 10
105.976051
 20
168.717426
 30
0.0
 11
105.976051
 21
168.689319
 31
0.0
  0
ARC
  5
1BAA
100
AcDbEntity
  8
ALPHA
100
AcDbCircle
 10
107.401051
 20
165.617426
 30
0.0
 40
1.0
100
AcDbArc
 50
306.55629
 51
311.409622
  0
ARC
  5
1BAB
100
AcDbEntity
  8
ALPHA
100
AcDbCircle
 10
107.401051
 20
165.617426
 30
0.0
 40
1.0
100
AcDbArc
 50
228.590378
 51
233.44371
  0
LINE
  5
1BAC
100
AcDbEntity
  8
ALPHA
100
AcDbLine
 10
105.976051
 20
168.595062
 30
0.0
 11
105.976051
 21
168.689319
 31
0.0
  0
LINE
  5
1BAD
100
AcDbEntity
  8
ALPHA
100
AcDbLine
 10
108.826051
 20
168.595062
 30
0.0
 11
108.826051
 21
168.689319
 31
0.0
  0
ARC
  5
1BAE
100
AcDbEntity
  8
ALPHA
100
AcDbCircle
 10
106.607326
 20
164.717426
 30
0.0
 40
0.2
100
AcDbArc
 50
48.590378
 51
90.0
  0
ARC
  5
1BAF
100
AcDbEntity
  8
ALPHA
100
AcDbCircle
 10
108.194777
 20
164.717426
 30
0.0
 40
0.2
100
AcDbArc
 50
90.0
 51
131.409622
  0
LINE
  5
1BB0
100
AcDbEntity
  8
ALPHA
100
AcDbLine
 10
106.476051
 20
177.714616
 30
0.0
 11
108.326051
 21
177.714616
 31
0.0
  0
LINE
  5
1BB1
100
AcDbEntity
  8
ALPHA
100
AcDbLine
 10
106.476051
 20
178.020236
 30
0.0
 11
108.326051
 21
178.020236
 31
0.0
  0
LINE
  5
1BB2
100
AcDbEntity
  8
ALPHA
100
AcDbLine
 10
106.476051
 20
174.220236
 30
0.0
 11
108.326051
 21
174.220236
 31
0.0
  0
LINE
  5
1BB3
100
AcDbEntity
  8
ALPHA
100
AcDbLine
 10
106.476051
 20
173.914616
 30
0.0
 11
108.326051
 21
173.914616
 31
0.0
  0
LINE
  5
1BB4
100
AcDbEntity
  8
ALPHA
100
AcDbLine
 10
108.326051
 20
178.020236
 30
0.0
 11
108.326051
 21
177.714616
 31
0.0
  0
LINE
  5
1BB5
100
AcDbEntity
  8
ALPHA
100
AcDbLine
 10
108.326051
 20
178.020236
 30
0.0
 11
108.826051
 21
178.117426
 31
0.0
  0
LINE
  5
1BB6
100
AcDbEntity
  8
ALPHA
100
AcDbLine
 10
108.326051
 20
177.714616
 30
0.0
 11
108.826051
 21
177.617426
 31
0.0
  0
LINE
  5
1BB7
100
AcDbEntity
  8
ALPHA
100
AcDbLine
 10
108.326051
 20
174.220236
 30
0.0
 11
108.326051
 21
173.914616
 31
0.0
  0
LINE
  5
1BB8
100
AcDbEntity
  8
ALPHA
100
AcDbLine
 10
108.326051
 20
174.220236
 30
0.0
 11
108.826051
 21
174.317426
 31
0.0
  0
LINE
  5
1BB9
100
AcDbEntity
  8
ALPHA
100
AcDbLine
 10
108.326051
 20
173.914616
 30
0.0
 11
108.826051
 21
173.817426
 31
0.0
  0
LINE
  5
1BBA
100
AcDbEntity
  8
ALPHA
100
AcDbLine
 10
106.476051
 20
174.220236
 30
0.0
 11
106.476051
 21
173.914616
 31
0.0
  0
LINE
  5
1BBB
100
AcDbEntity
  8
ALPHA
100
AcDbLine
 10
106.476051
 20
173.914616
 30
0.0
 11
105.976051
 21
173.817426
 31
0.0
  0
LINE
  5
1BBC
100
AcDbEntity
  8
ALPHA
100
AcDbLine
 10
106.476051
 20
174.220236
 30
0.0
 11
105.976051
 21
174.317426
 31
0.0
  0
LINE
  5
1BBD
100
AcDbEntity
  8
ALPHA
100
AcDbLine
 10
106.476051
 20
178.020236
 30
0.0
 11
106.476051
 21
177.714616
 31
0.0
  0
LINE
  5
1BBE
100
AcDbEntity
  8
ALPHA
100
AcDbLine
 10
106.476051
 20
177.714616
 30
0.0
 11
105.976051
 21
177.617426
 31
0.0
  0
LWPOLYLINE
  5
1BBF
100
AcDbEntity
  8
ALPHA
100
AcDbPolyline
 90
        8
 70
     0
 43
0.0
 10
107.401051
 20
178.167426
 10
107.56074
 20
178.167426
 10
107.710175
 20
178.167426
 10
107.840963
 20
178.167426
 10
107.946011
 20
178.167426
 10
108.019669
 20
178.167426
 10
108.057676
 20
178.167426
 10
108.062489
 20
178.167426
  0
LINE
  5
1BC9
100
AcDbEntity
  8
ALPHA
100
AcDbLine
 10
106.476051
 20
178.020236
 30
0.0
 11
105.976051
 21
178.117426
 31
0.0
  0
LINE
  5
1BCA
100
AcDbEntity
  8
ALPHA
100
AcDbLine
 10
105.976051
 20
174.345534
 30
0.0
 11
108.826051
 21
174.345534
 31
0.0
  0
LWPOLYLINE
  5
1BCB
100
AcDbEntity
  8
ALPHA
100
AcDbPolyline
 90
        8
 70
     0
 43
0.0
 10
106.739613
 20
178.167426
 10
106.744426
 20
178.167426
 10
106.782433
 20
178.167426
 10
106.856091
 20
178.167426
 10
106.961139
 20
178.167426
 10
107.091927
 20
178.167426
 10
107.241363
 20
178.167426
 10
107.401051
 20
178.167426
  0
ARC
  5
1BD5
100
AcDbEntity
  8
ALPHA
100
AcDbCircle
 10
106.151051
 20
177.317426
 30
0.0
 40
0.3
100
AcDbArc
 50
90.0
 51
109.550658
  0
LINE
  5
1BD6
100
AcDbEntity
  8
ALPHA
100
AcDbLine
 10
105.976051
 20
177.617426
 30
0.0
 11
108.826051
 21
177.617426
 31
0.0
  0
LINE
  5
1BD7
100
AcDbEntity
  8
ALPHA
100
AcDbLine
 10
105.976051
 20
178.117426
 30
0.0
 11
108.826051
 21
178.117426
 31
0.0
  0
LINE
  5
1BD8
100
AcDbEntity
  8
ALPHA
100
AcDbLine
 10
105.976051
 20
174.317426
 30
0.0
 11
108.826051
 21
174.317426
 31
0.0
  0
LINE
  5
1BD9
100
AcDbEntity
  8
ALPHA
100
AcDbLine
 10
105.976051
 20
173.817426
 30
0.0
 11
108.826051
 21
173.817426
 31
0.0
  0
LINE
  5
1BDA
100
AcDbEntity
  8
ALPHA
100
AcDbLine
 10
108.826051
 20
178.117426
 30
0.0
 11
108.826051
 21
177.617426
 31
0.0
  0
LINE
  5
1BDB
100
AcDbEntity
  8
ALPHA
100
AcDbLine
 10
108.826051
 20
174.317426
 30
0.0
 11
108.826051
 21
173.817426
 31
0.0
  0
LINE
  5
1BDC
100
AcDbEntity
  8
ALPHA
100
AcDbLine
 10
105.976051
 20
174.317426
 30
0.0
 11
105.976051
 21
173.817426
 31
0.0
  0
LINE
  5
1BDD
100
AcDbEntity
  8
ALPHA
100
AcDbLine
 10
105.976051
 20
178.117426
 30
0.0
 11
105.976051
 21
177.617426
 31
0.0
  0
LINE
  5
1BDE
100
AcDbEntity
  8
ALPHA
100
AcDbLine
 10
105.976051
 20
174.317426
 30
0.0
 11
105.976051
 21
174.345534
 31
0.0
  0
LINE
  5
1BDF
100
AcDbEntity
  8
ALPHA
100
AcDbLine
 10
108.826051
 20
174.317426
 30
0.0
 11
108.826051
 21
174.345534
 31
0.0
  0
ARC
  5
1BE0
100
AcDbEntity
  8
ALPHA
100
AcDbCircle
 10
107.401051
 20
177.417426
 30
0.0
 40
1.0
100
AcDbArc
 50
126.55629
 51
131.409622
  0
ARC
  5
1BE1
100
AcDbEntity
  8
ALPHA
100
AcDbCircle
 10
107.401051
 20
177.417426
 30
0.0
 40
1.0
100
AcDbArc
 50
48.590378
 51
53.44371
  0
LINE
  5
1BE2
100
AcDbEntity
  8
ALPHA
100
AcDbLine
 10
108.826051
 20
174.439791
 30
0.0
 11
108.826051
 21
174.345534
 31
0.0
  0
LINE
  5
1BE3
100
AcDbEntity
  8
ALPHA
100
AcDbLine
 10
105.976051
 20
174.439791
 30
0.0
 11
105.976051
 21
174.345534
 31
0.0
  0
ARC
  5
1BE4
100
AcDbEntity
  8
ALPHA
100
AcDbCircle
 10
108.194777
 20
178.317426
 30
0.0
 40
0.2
100
AcDbArc
 50
228.590378
 51
270.0
  0
ARC
  5
1BE5
100
AcDbEntity
  8
ALPHA
100
AcDbCircle
 10
106.607326
 20
178.317426
 30
0.0
 40
0.2
100
AcDbArc
 50
270.0
 51
311.409622
  0
LINE
  5
1BE6
100
AcDbEntity
  8
ALPHA
100
AcDbLine
 10
96.326051
 20
169.120236
 30
0.0
 11
94.476051
 21
169.120236
 31
0.0
  0
LINE
  5
1BE7
100
AcDbEntity
  8
ALPHA
100
AcDbLine
 10
94.476051
 20
165.014616
 30
0.0
 11
94.476051
 21
165.320236
 31
0.0
  0
LINE
  5
1BE8
100
AcDbEntity
  8
ALPHA
100
AcDbLine
 10
94.476051
 20
165.014616
 30
0.0
 11
93.976051
 21
164.917426
 31
0.0
  0
LINE
  5
1BE9
100
AcDbEntity
  8
ALPHA
100
AcDbLine
 10
96.326051
 20
165.320236
 30
0.0
 11
94.476051
 21
165.320236
 31
0.0
  0
LINE
  5
1BEA
100
AcDbEntity
  8
ALPHA
100
AcDbLine
 10
96.326051
 20
165.014616
 30
0.0
 11
94.476051
 21
165.014616
 31
0.0
  0
LINE
  5
1BEB
100
AcDbEntity
  8
ALPHA
100
AcDbLine
 10
94.476051
 20
165.320236
 30
0.0
 11
93.976051
 21
165.417426
 31
0.0
  0
LINE
  5
1BEC
100
AcDbEntity
  8
ALPHA
100
AcDbLine
 10
94.476051
 20
168.814616
 30
0.0
 11
94.476051
 21
169.120236
 31
0.0
  0
LINE
  5
1BED
100
AcDbEntity
  8
ALPHA
100
AcDbLine
 10
94.476051
 20
168.814616
 30
0.0
 11
93.976051
 21
168.717426
 31
0.0
  0
LWPOLYLINE
  5
1BEE
100
AcDbEntity
  8
ALPHA
100
AcDbPolyline
 90
        8
 70
     0
 43
0.0
 10
96.062489
 20
164.867426
 10
96.045951
 20
164.867426
 10
95.99727
 20
164.867426
 10
95.918979
 20
164.867426
 10
95.814882
 20
164.867426
 10
95.68979
 20
164.867426
 10
95.549565
 20
164.867426
 10
95.401051
 20
164.867426
  0
LINE
  5
1BF8
100
AcDbEntity
  8
ALPHA
100
AcDbLine
 10
94.476051
 20
169.120236
 30
0.0
 11
93.976051
 21
169.217426
 31
0.0
  0
LINE
  5
1BF9
100
AcDbEntity
  8
ALPHA
100
AcDbLine
 10
96.326051
 20
168.814616
 30
0.0
 11
96.326051
 21
169.120236
 31
0.0
  0
LINE
  5
1BFA
100
AcDbEntity
  8
ALPHA
100
AcDbLine
 10
96.326051
 20
169.120236
 30
0.0
 11
96.826051
 21
169.217426
 31
0.0
  0
LINE
  5
1BFB
100
AcDbEntity
  8
ALPHA
100
AcDbLine
 10
96.826051
 20
168.689319
 30
0.0
 11
93.976051
 21
168.689319
 31
0.0
  0
LINE
  5
1BFC
100
AcDbEntity
  8
ALPHA
100
AcDbLine
 10
96.326051
 20
168.814616
 30
0.0
 11
96.826051
 21
168.717426
 31
0.0
  0
LINE
  5
1BFD
100
AcDbEntity
  8
ALPHA
100
AcDbLine
 10
96.326051
 20
168.814616
 30
0.0
 11
94.476051
 21
168.814616
 31
0.0
  0
LINE
  5
1BFE
100
AcDbEntity
  8
ALPHA
100
AcDbLine
 10
96.326051
 20
165.014616
 30
0.0
 11
96.326051
 21
165.320236
 31
0.0
  0
LINE
  5
1BFF
100
AcDbEntity
  8
ALPHA
100
AcDbLine
 10
96.326051
 20
165.320236
 30
0.0
 11
96.826051
 21
165.417426
 31
0.0
  0
LINE
  5
1C00
100
AcDbEntity
  8
ALPHA
100
AcDbLine
 10
96.326051
 20
165.014616
 30
0.0
 11
96.826051
 21
164.917426
 31
0.0
  0
LWPOLYLINE
  5
1C01
100
AcDbEntity
  8
ALPHA
100
AcDbPolyline
 90
        8
 70
     0
 43
0.0
 10
95.401051
 20
164.867426
 10
95.252537
 20
164.867426
 10
95.112313
 20
164.867426
 10
94.987221
 20
164.867426
 10
94.883124
 20
164.867426
 10
94.804833
 20
164.867426
 10
94.756151
 20
164.867426
 10
94.739613
 20
164.867426
  0
LINE
  5
1C0B
100
AcDbEntity
  8
ALPHA
100
AcDbLine
 10
97.451051
 20
166.370219
 30
0.0
 11
97.451051
 21
166.317426
 31
0.0
  0
ARC
  5
1C0C
100
AcDbEntity
  8
ALPHA
100
AcDbCircle
 10
96.651051
 20
165.717426
 30
0.0
 40
0.3
100
AcDbArc
 50
270.0
 51
289.621061
  0
LINE
  5
1C0D
100
AcDbEntity
  8
ALPHA
100
AcDbLine
 10
96.826051
 20
165.417426
 30
0.0
 11
93.976051
 21
165.417426
 31
0.0
  0
LINE
  5
1C0E
100
AcDbEntity
  8
ALPHA
100
AcDbLine
 10
96.826051
 20
164.917426
 30
0.0
 11
93.976051
 21
164.917426
 31
0.0
  0
LINE
  5
1C0F
100
AcDbEntity
  8
ALPHA
100
AcDbLine
 10
94.401051
 20
165.517426
 30
0.0
 11
94.401051
 21
165.417426
 31
0.0
  0
LINE
  5
1C10
100
AcDbEntity
  8
ALPHA
100
AcDbLine
 10
96.401051
 20
165.517426
 30
0.0
 11
96.401051
 21
165.417426
 31
0.0
  0
LINE
  5
1C11
100
AcDbEntity
  8
ALPHA
100
AcDbLine
 10
96.826051
 20
168.717426
 30
0.0
 11
93.976051
 21
168.717426
 31
0.0
  0
LINE
  5
1C12
100
AcDbEntity
  8
ALPHA
100
AcDbLine
 10
97.451051
 20
167.717426
 30
0.0
 11
97.451051
 21
167.664633
 31
0.0
  0
LINE
  5
1C13
100
AcDbEntity
  8
ALPHA
100
AcDbLine
 10
96.826051
 20
169.217426
 30
0.0
 11
93.976051
 21
169.217426
 31
0.0
  0
LINE
  5
1C14
100
AcDbEntity
  8
ALPHA
100
AcDbLine
 10
93.976051
 20
164.917426
 30
0.0
 11
93.976051
 21
165.417426
 31
0.0
  0
LINE
  5
1C15
100
AcDbEntity
  8
ALPHA
100
AcDbLine
 10
93.976051
 20
168.717426
 30
0.0
 11
93.976051
 21
169.217426
 31
0.0
  0
LINE
  5
1C16
100
AcDbEntity
  8
ALPHA
100
AcDbLine
 10
96.826051
 20
168.717426
 30
0.0
 11
96.826051
 21
169.217426
 31
0.0
  0
LINE
  5
1C17
100
AcDbEntity
  8
ALPHA
100
AcDbLine
 10
96.826051
 20
164.917426
 30
0.0
 11
96.826051
 21
165.417426
 31
0.0
  0
LINE
  5
1C18
100
AcDbEntity
  8
ALPHA
100
AcDbLine
 10
96.826051
 20
168.717426
 30
0.0
 11
96.826051
 21
168.689319
 31
0.0
  0
LINE
  5
1C19
100
AcDbEntity
  8
ALPHA
100
AcDbLine
 10
93.976051
 20
168.717426
 30
0.0
 11
93.976051
 21
168.689319
 31
0.0
  0
ARC
  5
1C1A
100
AcDbEntity
  8
ALPHA
100
AcDbCircle
 10
95.401051
 20
165.617426
 30
0.0
 40
1.0
100
AcDbArc
 50
306.55629
 51
311.409622
  0
ARC
  5
1C1B
100
AcDbEntity
  8
ALPHA
100
AcDbCircle
 10
95.401051
 20
165.617426
 30
0.0
 40
1.0
100
AcDbArc
 50
228.590378
 51
233.44371
  0
LINE
  5
1C1C
100
AcDbEntity
  8
ALPHA
100
AcDbLine
 10
93.976051
 20
168.595062
 30
0.0
 11
93.976051
 21
168.689319
 31
0.0
  0
LINE
  5
1C1D
100
AcDbEntity
  8
ALPHA
100
AcDbLine
 10
96.826051
 20
168.595062
 30
0.0
 11
96.826051
 21
168.689319
 31
0.0
  0
ARC
  5
1C1E
100
AcDbEntity
  8
ALPHA
100
AcDbCircle
 10
94.607326
 20
164.717426
 30
0.0
 40
0.2
100
AcDbArc
 50
48.590378
 51
90.0
  0
ARC
  5
1C1F
100
AcDbEntity
  8
ALPHA
100
AcDbCircle
 10
96.194777
 20
164.717426
 30
0.0
 40
0.2
100
AcDbArc
 50
90.0
 51
131.409622
  0
LINE
  5
1C20
100
AcDbEntity
  8
ALPHA
100
AcDbLine
 10
94.476051
 20
173.914616
 30
0.0
 11
96.326051
 21
173.914616
 31
0.0
  0
LINE
  5
1C21
100
AcDbEntity
  8
ALPHA
100
AcDbLine
 10
96.326051
 20
178.020236
 30
0.0
 11
96.326051
 21
177.714616
 31
0.0
  0
LINE
  5
1C22
100
AcDbEntity
  8
ALPHA
100
AcDbLine
 10
96.326051
 20
178.020236
 30
0.0
 11
96.826051
 21
178.117426
 31
0.0
  0
LINE
  5
1C23
100
AcDbEntity
  8
ALPHA
100
AcDbLine
 10
94.476051
 20
177.714616
 30
0.0
 11
96.326051
 21
177.714616
 31
0.0
  0
LINE
  5
1C24
100
AcDbEntity
  8
ALPHA
100
AcDbLine
 10
94.476051
 20
178.020236
 30
0.0
 11
96.326051
 21
178.020236
 31
0.0
  0
LINE
  5
1C25
100
AcDbEntity
  8
ALPHA
100
AcDbLine
 10
96.326051
 20
177.714616
 30
0.0
 11
96.826051
 21
177.617426
 31
0.0
  0
LINE
  5
1C26
100
AcDbEntity
  8
ALPHA
100
AcDbLine
 10
96.326051
 20
174.220236
 30
0.0
 11
96.326051
 21
173.914616
 31
0.0
  0
LINE
  5
1C27
100
AcDbEntity
  8
ALPHA
100
AcDbLine
 10
96.326051
 20
174.220236
 30
0.0
 11
96.826051
 21
174.317426
 31
0.0
  0
LWPOLYLINE
  5
1C28
100
AcDbEntity
  8
ALPHA
100
AcDbPolyline
 90
        8
 70
     0
 43
0.0
 10
94.739613
 20
178.167426
 10
94.756151
 20
178.167426
 10
94.804833
 20
178.167426
 10
94.883124
 20
178.167426
 10
94.987221
 20
178.167426
 10
95.112313
 20
178.167426
 10
95.252537
 20
178.167426
 10
95.401051
 20
178.167426
  0
LINE
  5
1C32
100
AcDbEntity
  8
ALPHA
100
AcDbLine
 10
96.326051
 20
173.914616
 30
0.0
 11
96.826051
 21
173.817426
 31
0.0
  0
LINE
  5
1C33
100
AcDbEntity
  8
ALPHA
100
AcDbLine
 10
94.476051
 20
174.220236
 30
0.0
 11
94.476051
 21
173.914616
 31
0.0
  0
LINE
  5
1C34
100
AcDbEntity
  8
ALPHA
100
AcDbLine
 10
94.476051
 20
173.914616
 30
0.0
 11
93.976051
 21
173.817426
 31
0.0
  0
LINE
  5
1C35
100
AcDbEntity
  8
ALPHA
100
AcDbLine
 10
93.976051
 20
174.345534
 30
0.0
 11
96.826051
 21
174.345534
 31
0.0
  0
LINE
  5
1C36
100
AcDbEntity
  8
ALPHA
100
AcDbLine
 10
94.476051
 20
174.220236
 30
0.0
 11
93.976051
 21
174.317426
 31
0.0
  0
LINE
  5
1C37
100
AcDbEntity
  8
ALPHA
100
AcDbLine
 10
94.476051
 20
174.220236
 30
0.0
 11
96.326051
 21
174.220236
 31
0.0
  0
LINE
  5
1C38
100
AcDbEntity
  8
ALPHA
100
AcDbLine
 10
94.476051
 20
178.020236
 30
0.0
 11
94.476051
 21
177.714616
 31
0.0
  0
LINE
  5
1C39
100
AcDbEntity
  8
ALPHA
100
AcDbLine
 10
94.476051
 20
177.714616
 30
0.0
 11
93.976051
 21
177.617426
 31
0.0
  0
LINE
  5
1C3A
100
AcDbEntity
  8
ALPHA
100
AcDbLine
 10
94.476051
 20
178.020236
 30
0.0
 11
93.976051
 21
178.117426
 31
0.0
  0
LWPOLYLINE
  5
1C3B
100
AcDbEntity
  8
ALPHA
100
AcDbPolyline
 90
        8
 70
     0
 43
0.0
 10
95.401051
 20
178.167426
 10
95.549565
 20
178.167426
 10
95.68979
 20
178.167426
 10
95.814882
 20
178.167426
 10
95.918979
 20
178.167426
 10
95.99727
 20
178.167426
 10
96.045951
 20
178.167426
 10
96.062489
 20
178.167426
  0
ARC
  5
1C45
100
AcDbEntity
  8
ALPHA
100
AcDbCircle
 10
94.151051
 20
177.317426
 30
0.0
 40
0.3
100
AcDbArc
 50
90.0
 51
109.621061
  0
LINE
  5
1C46
100
AcDbEntity
  8
ALPHA
100
AcDbLine
 10
93.976051
 20
177.617426
 30
0.0
 11
96.826051
 21
177.617426
 31
0.0
  0
LINE
  5
1C47
100
AcDbEntity
  8
ALPHA
100
AcDbLine
 10
93.976051
 20
178.117426
 30
0.0
 11
96.826051
 21
178.117426
 31
0.0
  0
LINE
  5
1C48
100
AcDbEntity
  8
ALPHA
100
AcDbLine
 10
96.401051
 20
177.517426
 30
0.0
 11
96.401051
 21
177.617426
 31
0.0
  0
LINE
  5
1C49
100
AcDbEntity
  8
ALPHA
100
AcDbLine
 10
94.401051
 20
177.517426
 30
0.0
 11
94.401051
 21
177.617426
 31
0.0
  0
LINE
  5
1C4A
100
AcDbEntity
  8
ALPHA
100
AcDbLine
 10
93.976051
 20
174.317426
 30
0.0
 11
96.826051
 21
174.317426
 31
0.0
  0
LINE
  5
1C4B
100
AcDbEntity
  8
ALPHA
100
AcDbLine
 10
93.976051
 20
173.817426
 30
0.0
 11
96.826051
 21
173.817426
 31
0.0
  0
LINE
  5
1C4C
100
AcDbEntity
  8
ALPHA
100
AcDbLine
 10
96.826051
 20
178.117426
 30
0.0
 11
96.826051
 21
177.617426
 31
0.0
  0
LINE
  5
1C4D
100
AcDbEntity
  8
ALPHA
100
AcDbLine
 10
96.826051
 20
174.317426
 30
0.0
 11
96.826051
 21
173.817426
 31
0.0
  0
LINE
  5
1C4E
100
AcDbEntity
  8
ALPHA
100
AcDbLine
 10
93.976051
 20
174.317426
 30
0.0
 11
93.976051
 21
173.817426
 31
0.0
  0
LINE
  5
1C4F
100
AcDbEntity
  8
ALPHA
100
AcDbLine
 10
93.976051
 20
178.117426
 30
0.0
 11
93.976051
 21
177.617426
 31
0.0
  0
LINE
  5
1C50
100
AcDbEntity
  8
ALPHA
100
AcDbLine
 10
93.976051
 20
174.317426
 30
0.0
 11
93.976051
 21
174.345534
 31
0.0
  0
LINE
  5
1C51
100
AcDbEntity
  8
ALPHA
100
AcDbLine
 10
96.826051
 20
174.317426
 30
0.0
 11
96.826051
 21
174.345534
 31
0.0
  0
ARC
  5
1C52
100
AcDbEntity
  8
ALPHA
100
AcDbCircle
 10
95.401051
 20
177.417426
 30
0.0
 40
1.0
100
AcDbArc
 50
126.55629
 51
131.409622
  0
ARC
  5
1C53
100
AcDbEntity
  8
ALPHA
100
AcDbCircle
 10
95.401051
 20
177.417426
 30
0.0
 40
1.0
100
AcDbArc
 50
48.590378
 51
53.44371
  0
LINE
  5
1C54
100
AcDbEntity
  8
ALPHA
100
AcDbLine
 10
96.826051
 20
174.439791
 30
0.0
 11
96.826051
 21
174.345534
 31
0.0
  0
LINE
  5
1C55
100
AcDbEntity
  8
ALPHA
100
AcDbLine
 10
93.976051
 20
174.439791
 30
0.0
 11
93.976051
 21
174.345534
 31
0.0
  0
ARC
  5
1C56
100
AcDbEntity
  8
ALPHA
100
AcDbCircle
 10
96.194777
 20
178.317426
 30
0.0
 40
0.2
100
AcDbArc
 50
228.590378
 51
270.0
  0
ARC
  5
1C57
100
AcDbEntity
  8
ALPHA
100
AcDbCircle
 10
94.607326
 20
178.317426
 30
0.0
 40
0.2
100
AcDbArc
 50
270.0
 51
311.409622
  0
LINE
  5
1C58
100
AcDbEntity
  8
ALPHA
100
AcDbLine
 10
100.101051
 20
173.807426
 30
0.0
 11
100.101051
 21
173.517426
 31
0.0
  0
LINE
  5
1C59
100
AcDbEntity
  8
ALPHA
100
AcDbLine
 10
100.101051
 20
169.517426
 30
0.0
 11
100.101051
 21
169.227426
 31
0.0
  0
ARC
  5
1C5A
100
AcDbEntity
  8
ALPHA
100
AcDbCircle
 10
101.545698
 20
171.517426
 30
0.0
 40
3.4
100
AcDbArc
 50
202.34729
 51
204.462611
  0
LINE
  5
1C5B
100
AcDbEntity
  8
ALPHA
100
AcDbLine
 10
98.401051
 20
170.224679
 30
0.0
 11
98.401051
 21
172.810173
 31
0.0
  0
ARC
  5
1C5C
100
AcDbEntity
  8
ALPHA
100
AcDbCircle
 10
101.545698
 20
171.517426
 30
0.0
 40
3.4
100
AcDbArc
 50
155.537389
 51
157.65271
  0
LINE
  5
1C5D
100
AcDbEntity
  8
ALPHA
100
AcDbLine
 10
100.351051
 20
174.307426
 30
0.0
 11
100.351051
 21
174.617426
 31
0.0
  0
LINE
  5
1C5E
100
AcDbEntity
  8
ALPHA
100
AcDbLine
 10
100.351051
 20
173.517426
 30
0.0
 11
100.351051
 21
173.807426
 31
0.0
  0
LINE
  5
1C5F
100
AcDbEntity
  8
ALPHA
100
AcDbLine
 10
100.351051
 20
169.227426
 30
0.0
 11
100.351051
 21
169.517426
 31
0.0
  0
LINE
  5
1C60
100
AcDbEntity
  8
ALPHA
100
AcDbLine
 10
100.351051
 20
168.668036
 30
0.0
 11
100.351051
 21
168.727426
 31
0.0
  0
LINE
  5
1C61
100
AcDbEntity
  8
ALPHA
100
AcDbLine
 10
102.001051
 20
168.547426
 30
0.0
 11
101.855355
 21
168.547426
 31
0.0
  0
LINE
  5
1C62
100
AcDbEntity
  8
ALPHA
100
AcDbLine
 10
101.201051
 20
174.597426
 30
0.0
 11
101.201051
 21
174.449342
 31
0.0
  0
LINE
  5
1C63
100
AcDbEntity
  8
ALPHA
100
AcDbLine
 10
101.201051
 20
169.517426
 30
0.0
 11
101.201051
 21
169.227426
 31
0.0
  0
LINE
  5
1C64
100
AcDbEntity
  8
ALPHA
100
AcDbLine
 10
101.201051
 20
174.597426
 30
0.0
 11
102.001051
 21
174.597426
 31
0.0
  0
ARC
  5
1C65
100
AcDbEntity
  8
ALPHA
100
AcDbCircle
 10
101.051051
 20
167.957426
 30
0.0
 40
1.0
100
AcDbArc
 50
129.548053
 51
152.543357
  0
ARC
  5
1C66
100
AcDbEntity
  8
ALPHA
100
AcDbCircle
 10
101.051051
 20
167.957426
 30
0.0
 40
1.0
100
AcDbArc
 50
27.456643
 51
49.090909
  0
ARC
  5
1C67
100
AcDbEntity
  8
ALPHA
100
AcDbCircle
 10
101.051051
 20
167.957426
 30
0.0
 40
1.0
100
AcDbArc
 50
49.090909
 51
49.801943
  0
ARC
  5
1C68
100
AcDbEntity
  8
ALPHA
100
AcDbCircle
 10
101.051051
 20
167.957426
 30
0.0
 40
1.0
100
AcDbArc
 50
49.801943
 51
50.451947
  0
LINE
  5
1C69
100
AcDbEntity
  8
ALPHA
100
AcDbLine
 10
102.201051
 20
169.139263
 30
0.0
 11
100.401051
 21
169.139263
 31
0.0
  0
LINE
  5
1C6A
100
AcDbEntity
  8
ALPHA
100
AcDbLine
 10
100.401051
 20
169.139263
 30
0.0
 11
99.901051
 21
169.227426
 31
0.0
  0
LINE
  5
1C6B
100
AcDbEntity
  8
ALPHA
100
AcDbLine
 10
102.201051
 20
169.139263
 30
0.0
 11
102.201051
 21
168.81559
 31
0.0
  0
LINE
  5
1C6C
100
AcDbEntity
  8
ALPHA
100
AcDbLine
 10
102.201051
 20
168.81559
 30
0.0
 11
100.401051
 21
168.81559
 31
0.0
  0
LINE
  5
1C6D
100
AcDbEntity
  8
ALPHA
100
AcDbLine
 10
100.401051
 20
169.139263
 30
0.0
 11
100.401051
 21
168.81559
 31
0.0
  0
LINE
  5
1C6E
100
AcDbEntity
  8
ALPHA
100
AcDbLine
 10
100.401051
 20
168.81559
 30
0.0
 11
99.901051
 21
168.727426
 31
0.0
  0
LINE
  5
1C6F
100
AcDbEntity
  8
ALPHA
100
AcDbLine
 10
99.801051
 20
168.727426
 30
0.0
 11
99.801051
 21
169.227426
 31
0.0
  0
LINE
  5
1C70
100
AcDbEntity
  8
ALPHA
100
AcDbLine
 10
102.701051
 20
169.227426
 30
0.0
 11
102.201051
 21
169.139263
 31
0.0
  0
LINE
  5
1C71
100
AcDbEntity
  8
ALPHA
100
AcDbLine
 10
102.701051
 20
168.727426
 30
0.0
 11
102.201051
 21
168.81559
 31
0.0
  0
LINE
  5
1C72
100
AcDbEntity
  8
ALPHA
100
AcDbLine
 10
102.701051
 20
168.727426
 30
0.0
 11
99.901051
 21
168.727426
 31
0.0
  0
LINE
  5
1C73
100
AcDbEntity
  8
ALPHA
100
AcDbLine
 10
102.701051
 20
169.227426
 30
0.0
 11
99.901051
 21
169.227426
 31
0.0
  0
LINE
  5
1C74
100
AcDbEntity
  8
ALPHA
100
AcDbLine
 10
102.701051
 20
169.227426
 30
0.0
 11
102.701051
 21
168.727426
 31
0.0
  0
LINE
  5
1C75
100
AcDbEntity
  8
ALPHA
100
AcDbLine
 10
99.901051
 20
169.227426
 30
0.0
 11
99.901051
 21
168.727426
 31
0.0
  0
LINE
  5
1C76
100
AcDbEntity
  8
ALPHA
100
AcDbLine
 10
99.601051
 20
168.727426
 30
0.0
 11
99.601051
 21
169.227426
 31
0.0
  0
LINE
  5
1C77
100
AcDbEntity
  8
ALPHA
100
AcDbLine
 10
99.801051
 20
168.727426
 30
0.0
 11
99.601051
 21
168.727426
 31
0.0
  0
LINE
  5
1C78
100
AcDbEntity
  8
ALPHA
100
AcDbLine
 10
99.801051
 20
169.227426
 30
0.0
 11
99.601051
 21
169.227426
 31
0.0
  0
LINE
  5
1C79
100
AcDbEntity
  8
ALPHA
100
AcDbLine
 10
99.801051
 20
169.227426
 30
0.0
 11
99.901051
 21
169.227426
 31
0.0
  0
LINE
  5
1C7A
100
AcDbEntity
  8
ALPHA
100
AcDbLine
 10
99.901051
 20
168.727426
 30
0.0
 11
99.801051
 21
168.727426
 31
0.0
  0
LINE
  5
1C7B
100
AcDbEntity
  8
ALPHA
100
AcDbLine
 10
102.201051
 20
174.219263
 30
0.0
 11
100.401051
 21
174.219263
 31
0.0
  0
LINE
  5
1C7C
100
AcDbEntity
  8
ALPHA
100
AcDbLine
 10
100.401051
 20
174.219263
 30
0.0
 11
99.901051
 21
174.307426
 31
0.0
  0
LINE
  5
1C7D
100
AcDbEntity
  8
ALPHA
100
AcDbLine
 10
102.201051
 20
174.219263
 30
0.0
 11
102.201051
 21
173.89559
 31
0.0
  0
LINE
  5
1C7E
100
AcDbEntity
  8
ALPHA
100
AcDbLine
 10
102.201051
 20
173.89559
 30
0.0
 11
100.401051
 21
173.89559
 31
0.0
  0
LINE
  5
1C7F
100
AcDbEntity
  8
ALPHA
100
AcDbLine
 10
100.401051
 20
174.219263
 30
0.0
 11
100.401051
 21
173.89559
 31
0.0
  0
LINE
  5
1C80
100
AcDbEntity
  8
ALPHA
100
AcDbLine
 10
100.401051
 20
173.89559
 30
0.0
 11
99.901051
 21
173.807426
 31
0.0
  0
LINE
  5
1C81
100
AcDbEntity
  8
ALPHA
100
AcDbLine
 10
99.801051
 20
173.807426
 30
0.0
 11
99.801051
 21
174.307426
 31
0.0
  0
LINE
  5
1C82
100
AcDbEntity
  8
ALPHA
100
AcDbLine
 10
102.701051
 20
174.307426
 30
0.0
 11
102.201051
 21
174.219263
 31
0.0
  0
LINE
  5
1C83
100
AcDbEntity
  8
ALPHA
100
AcDbLine
 10
102.701051
 20
173.807426
 30
0.0
 11
102.201051
 21
173.89559
 31
0.0
  0
LINE
  5
1C84
100
AcDbEntity
  8
ALPHA
100
AcDbLine
 10
102.701051
 20
173.807426
 30
0.0
 11
99.901051
 21
173.807426
 31
0.0
  0
LINE
  5
1C85
100
AcDbEntity
  8
ALPHA
100
AcDbLine
 10
102.701051
 20
174.307426
 30
0.0
 11
99.901051
 21
174.307426
 31
0.0
  0
LINE
  5
1C86
100
AcDbEntity
  8
ALPHA
100
AcDbLine
 10
102.701051
 20
174.307426
 30
0.0
 11
102.701051
 21
173.807426
 31
0.0
  0
LINE
  5
1C87
100
AcDbEntity
  8
ALPHA
100
AcDbLine
 10
99.901051
 20
174.307426
 30
0.0
 11
99.901051
 21
173.807426
 31
0.0
  0
LINE
  5
1C88
100
AcDbEntity
  8
ALPHA
100
AcDbLine
 10
99.601051
 20
173.807426
 30
0.0
 11
99.601051
 21
174.307426
 31
0.0
  0
LINE
  5
1C89
100
AcDbEntity
  8
ALPHA
100
AcDbLine
 10
99.801051
 20
173.807426
 30
0.0
 11
99.601051
 21
173.807426
 31
0.0
  0
LINE
  5
1C8A
100
AcDbEntity
  8
ALPHA
100
AcDbLine
 10
99.801051
 20
174.307426
 30
0.0
 11
99.601051
 21
174.307426
 31
0.0
  0
LINE
  5
1C8B
100
AcDbEntity
  8
ALPHA
100
AcDbLine
 10
99.801051
 20
174.307426
 30
0.0
 11
99.901051
 21
174.307426
 31
0.0
  0
LINE
  5
1C8C
100
AcDbEntity
  8
ALPHA
100
AcDbLine
 10
99.901051
 20
173.807426
 30
0.0
 11
99.801051
 21
173.807426
 31
0.0
  0
ARC
  5
1C8D
100
AcDbEntity
  8
ALPHA
100
AcDbCircle
 10
101.351051
 20
173.767426
 30
0.0
 40
0.7
100
AcDbArc
 50
90.0
 51
129.411417
  0
ARC
  5
1C8E
100
AcDbEntity
  8
ALPHA
100
AcDbCircle
 10
101.351051
 20
173.767426
 30
0.0
 40
0.7
100
AcDbArc
 50
176.71612
 51
200.97988
  0
ARC
  5
1C8F
100
AcDbEntity
  8
ALPHA
100
AcDbCircle
 10
101.351051
 20
173.767426
 30
0.0
 40
0.7
100
AcDbArc
 50
50.588583
 51
90.0
  0
DIMENSION
  5
1C9C
100
AcDbEntity
  8
COTATION1
100
AcDbDimension
  2
*D3
 10
110.351051
 20
152.5
 30
0.0
 11
101.401051
 21
154.75
 31
0.0
  3
SC_STAND
100
AcDbAlignedDimension
 13
92.451051
 23
163.817426
 33
0.0
 14
110.351051
 24
163.817426
 34
0.0
100
AcDbRotatedDimension
  0
DIMENSION
  5
1CA9
100
AcDbEntity
  8
COTATION1
100
AcDbDimension
  2
*D4
 10
120.0
 20
180.117426
 30
0.0
 11
117.75
 21
171.517426
 31
0.0
  3
SC_STAND
100
AcDbAlignedDimension
 13
109.901051
 23
162.917426
 33
0.0
 14
109.901051
 24
180.117426
 34
0.0
 50
90.0
100
AcDbRotatedDimension
  0
VIEWPORT
  5
1FE
100
AcDbEntity
 67
     1
  8
0
100
AcDbViewport
 10
251.108558
 20
148.5
 30
0.0
 40
8035.473851
 41
4752.0
 68
    -1
 69
     1
1001
ACAD
1000
MVIEW
1002
{
1070
    16
1010
0.0
1020
0.0
1030
0.0
1010
0.0
1020
0.0
1030
1.0
1040
0.0
1040
4752.0
1040
251.108558
1040
148.5
1040
50.0
1040
0.0
1040
0.0
1070
     0
1070
   100
1070
     1
1070
     1
1070
     0
1070
     0
1070
     0
1070
     0
1040
0.0
1040
0.0
1040
0.0
1040
1.0
1040
1.0
1040
0.0
1040
0.0
1070
     0
1002
{
1002
}
1002
}
  0
ENDSEC
  0
SECTION
  2
OBJECTS
  0
DICTIONARY
  5
1D4A
100
AcDbDictionary
  3
ACAD_GROUP
350
1D4B
  3
ACAD_MLINESTYLE
350
1D58
  3
ACDBVARIABLEDICTIONARY
350
1D97
  0
DICTIONARY
  5
1D4B
102
{ACAD_REACTORS
330
1D4A
102
}
100
AcDbDictionary
  0
DICTIONARY
  5
1D58
102
{ACAD_REACTORS
330
1D4A
102
}
100
AcDbDictionary
  3
STANDARD
350
1D59
  0
DICTIONARY
  5
1D97
102
{ACAD_REACTORS
330
1D4A
102
}
100
AcDbDictionary
  3
DIMADEC
350
1D98
  0
MLINESTYLE
  5
1D59
102
{ACAD_REACTORS
330
1D58
102
}
100
AcDbMlineStyle
  2
STANDARD
 70
     0
  3

 62
   256
 51
90.0
 52
90.0
 71
     2
 49
0.5
 62
   256
  6
BYLAYER
 49
-0.5
 62
   256
  6
BYLAYER
  0
DICTIONARYVAR
  5
1D98
102
{ACAD_REACTORS
330
1D97
102
}
100
DictionaryVariables
280
     0
  1
0
  0
ENDSEC
  0
EOF
