  0
SECTION
  2
HEADER
  9
$ACADVER
  1
AC1014
  9
$ACADMAINTVER
 70
     0
  9
$DWGCODEPAGE
  3
ANSI_1252
  9
$INSBASE
 10
93.894301
 20
236.06014
 30
0.0
  9
$EXTMIN
 10
0.264795
 20
0.179519
 30
0.0
  9
$EXTMAX
 10
60.948617
 20
116.943039
 30
0.0
  9
$LIMMIN
 10
0.0
 20
0.0
  9
$LIMMAX
 10
210.0
 20
297.0
  9
$ORTHOMODE
 70
     1
  9
$REGENMODE
 70
     1
  9
$FILLMODE
 70
     1
  9
$QTEXTMODE
 70
     0
  9
$MIRRTEXT
 70
     0
  9
$DRAGMODE
 70
     1
  9
$LTSCALE
 40
7.0
  9
$OSMODE
 70
  4095
  9
$ATTMODE
 70
     1
  9
$TEXTSIZE
 40
2.5
  9
$TRACEWID
 40
0.05
  9
$TEXTSTYLE
  7
STANDARD
  9
$CLAYER
  8
COTATION1
  9
$CELTYPE
  6
BYLAYER
  9
$CECOLOR
 62
   256
  9
$CELTSCALE
 40
1.0
  9
$DELOBJ
 70
     1
  9
$DISPSILH
 70
     0
  9
$DIMSCALE
 40
1.0
  9
$DIMASZ
 40
3.0
  9
$DIMEXO
 40
0.0625
  9
$DIMDLI
 40
0.38
  9
$DIMRND
 40
0.01
  9
$DIMDLE
 40
0.0
  9
$DIMEXE
 40
0.18
  9
$DIMTP
 40
0.0
  9
$DIMTM
 40
0.0
  9
$DIMTXT
 40
2.5
  9
$DIMCEN
 40
0.09
  9
$DIMTSZ
 40
0.0
  9
$DIMTOL
 70
     0
  9
$DIMLIM
 70
     0
  9
$DIMTIH
 70
     0
  9
$DIMTOH
 70
     0
  9
$DIMSE1
 70
     0
  9
$DIMSE2
 70
     0
  9
$DIMTAD
 70
     1
  9
$DIMZIN
 70
    12
  9
$DIMBLK
  1

  9
$DIMASO
 70
     1
  9
$DIMSHO
 70
     0
  9
$DIMPOST
  1

  9
$DIMAPOST
  1

  9
$DIMALT
 70
     0
  9
$DIMALTD
 70
     2
  9
$DIMALTF
 40
25.4
  9
$DIMLFAC
 40
1.0
  9
$DIMTOFL
 70
     1
  9
$DIMTVP
 40
0.0
  9
$DIMTIX
 70
     0
  9
$DIMSOXD
 70
     0
  9
$DIMSAH
 70
     0
  9
$DIMBLK1
  1

  9
$DIMBLK2
  1

  9
$DIMSTYLE
  2
SC_STAND
  9
$DIMCLRD
 70
     0
  9
$DIMCLRE
 70
     0
  9
$DIMCLRT
 70
     0
  9
$DIMTFAC
 40
1.0
  9
$DIMGAP
 40
1.0
  9
$DIMJUST
 70
     0
  9
$DIMSD1
 70
     0
  9
$DIMSD2
 70
     0
  9
$DIMTOLJ
 70
     1
  9
$DIMTZIN
 70
    12
  9
$DIMALTZ
 70
    12
  9
$DIMALTTZ
 70
    12
  9
$DIMFIT
 70
     5
  9
$DIMUPT
 70
     0
  9
$DIMUNIT
 70
     2
  9
$DIMDEC
 70
     3
  9
$DIMTDEC
 70
     3
  9
$DIMALTU
 70
     2
  9
$DIMALTTD
 70
     2
  9
$DIMTXSTY
  7
STANDARD
  9
$DIMAUNIT
 70
     0
  9
$LUNITS
 70
     2
  9
$LUPREC
 70
     3
  9
$SKETCHINC
 40
0.1
  9
$FILLETRAD
 40
0.0625
  9
$AUNITS
 70
     0
  9
$AUPREC
 70
     0
  9
$MENU
  1
ACAD
  9
$ELEVATION
 40
0.0
  9
$PELEVATION
 40
0.0
  9
$THICKNESS
 40
0.0
  9
$LIMCHECK
 70
     0
  9
$BLIPMODE
 70
     1
  9
$CHAMFERA
 40
0.0
  9
$CHAMFERB
 40
0.0
  9
$CHAMFERC
 40
0.0
  9
$CHAMFERD
 40
0.0
  9
$SKPOLY
 70
     0
  9
$TDCREATE
 40
2450953.590960648
  9
$TDUPDATE
 40
2453735.858248877
  9
$TDINDWG
 40
0.0219758333
  9
$TDUSRTIMER
 40
0.0219758333
  9
$USRTIMER
 70
     1
  9
$ANGBASE
 50
0.0
  9
$ANGDIR
 70
     0
  9
$PDMODE
 70
     0
  9
$PDSIZE
 40
0.0
  9
$PLINEWID
 40
0.0
  9
$COORDS
 70
     0
  9
$SPLFRAME
 70
     0
  9
$SPLINETYPE
 70
     6
  9
$SPLINESEGS
 70
     8
  9
$ATTDIA
 70
     0
  9
$ATTREQ
 70
     1
  9
$HANDLING
 70
     1
  9
$HANDSEED
  5
2188
  9
$SURFTAB1
 70
     6
  9
$SURFTAB2
 70
     6
  9
$SURFTYPE
 70
     6
  9
$SURFU
 70
     6
  9
$SURFV
 70
     6
  9
$UCSNAME
  2

  9
$UCSORG
 10
0.0
 20
0.0
 30
0.0
  9
$UCSXDIR
 10
1.0
 20
0.0
 30
0.0
  9
$UCSYDIR
 10
0.0
 20
1.0
 30
0.0
  9
$PUCSNAME
  2

  9
$PUCSORG
 10
0.0
 20
0.0
 30
0.0
  9
$PUCSXDIR
 10
1.0
 20
0.0
 30
0.0
  9
$PUCSYDIR
 10
0.0
 20
1.0
 30
0.0
  9
$USERI1
 70
     0
  9
$USERI2
 70
     0
  9
$USERI3
 70
     0
  9
$USERI4
 70
     0
  9
$USERI5
 70
     0
  9
$USERR1
 40
0.0
  9
$USERR2
 40
0.0
  9
$USERR3
 40
0.0
  9
$USERR4
 40
0.0
  9
$USERR5
 40
0.0
  9
$WORLDVIEW
 70
     1
  9
$SHADEDGE
 70
     3
  9
$SHADEDIF
 70
    70
  9
$TILEMODE
 70
     1
  9
$MAXACTVP
 70
    32
  9
$PINSBASE
 10
0.0
 20
0.0
 30
0.0
  9
$PLIMCHECK
 70
     0
  9
$PEXTMIN
 10
-3.174999
 20
-3.175
 30
0.0
  9
$PEXTMAX
 10
203.812116
 20
370.276807
 30
0.0
  9
$PLIMMIN
 10
-3.175
 20
-3.175
  9
$PLIMMAX
 10
203.812115
 20
370.276807
  9
$UNITMODE
 70
     0
  9
$VISRETAIN
 70
     0
  9
$PLINEGEN
 70
     0
  9
$PSLTSCALE
 70
     1
  9
$TREEDEPTH
 70
  3020
  9
$PICKSTYLE
 70
     1
  9
$CMLSTYLE
  2
STANDARD
  9
$CMLJUST
 70
     0
  9
$CMLSCALE
 40
1.0
  9
$PROXYGRAPHICS
 70
     1
  9
$MEASUREMENT
 70
     0
  0
ENDSEC
  0
SECTION
  2
CLASSES
  0
CLASS
  1
DICTIONARYVAR
  2
AcDbDictionaryVar
  3
"AutoCAD"
 90
        0
280
     0
281
     0
  0
CLASS
  1
HATCH
  2
AcDbHatch
  3
"ACAD_SEDONA"
 90
        0
280
     0
281
     1
  0
ENDSEC
  0
SECTION
  2
TABLES
  0
TABLE
  2
VPORT
  5
F4
100
AcDbSymbolTable
 70
     2
  0
VPORT
  5
2187
100
AcDbSymbolTableRecord
100
AcDbViewportTableRecord
  2
*ACTIVE
 70
     0
 10
0.0
 20
0.0
 11
1.0
 21
1.0
 12
30.603104
 22
58.565232
 13
0.0
 23
0.0
 14
1.0
 24
1.0
 15
10.0
 25
10.0
 16
0.0
 26
0.0
 36
1.0
 17
0.0
 27
0.0
 37
0.0
 40
118.157306
 41
1.966667
 42
50.0
 43
0.0
 44
0.0
 50
0.0
 51
0.0
 71
     0
 72
   100
 73
     1
 74
     1
 75
     0
 76
     1
 77
     0
 78
     0
  0
ENDTAB
  0
TABLE
  2
LTYPE
  5
F1
100
AcDbSymbolTable
 70
     5
  0
LTYPE
  5
FD
100
AcDbSymbolTableRecord
100
AcDbLinetypeTableRecord
  2
BYBLOCK
 70
     0
  3

 72
    65
 73
     0
 40
0.0
  0
LTYPE
  5
FE
100
AcDbSymbolTableRecord
100
AcDbLinetypeTableRecord
  2
BYLAYER
 70
     0
  3

 72
    65
 73
     0
 40
0.0
  0
LTYPE
  5
FF
100
AcDbSymbolTableRecord
100
AcDbLinetypeTableRecord
  2
CONTINUOUS
 70
     0
  3
Solid line
 72
    65
 73
     0
 40
0.0
  0
ENDTAB
  0
TABLE
  2
LAYER
  5
EE
100
AcDbSymbolTable
 70
     5
  0
LAYER
  5
FA
100
AcDbSymbolTableRecord
100
AcDbLayerTableRecord
  2
0
 70
     0
 62
     7
  6
CONTINUOUS
  0
LAYER
  5
12C
100
AcDbSymbolTableRecord
100
AcDbLayerTableRecord
  2
ALPHA
 70
     0
 62
   255
  6
CONTINUOUS
  0
LAYER
  5
12F
100
AcDbSymbolTableRecord
100
AcDbLayerTableRecord
  2
COTATION1
 70
     0
 62
     2
  6
CONTINUOUS
  0
LAYER
  5
13B
100
AcDbSymbolTableRecord
100
AcDbLayerTableRecord
  2
ASHADE
 70
     0
 62
     7
  6
CONTINUOUS
  0
LAYER
  5
13E
100
AcDbSymbolTableRecord
100
AcDbLayerTableRecord
  2
DEFPOINTS
 70
     0
 62
     7
  6
CONTINUOUS
  0
ENDTAB
  0
TABLE
  2
STYLE
  5
EF
100
AcDbSymbolTable
 70
     2
  0
STYLE
  5
FB
100
AcDbSymbolTableRecord
100
AcDbTextStyleTableRecord
  2
STANDARD
 70
     0
 40
0.0
 41
1.0
 50
0.0
 71
     0
 42
2.5
  3
txt
  4

  0
ENDTAB
  0
TABLE
  2
VIEW
  5
F2
100
AcDbSymbolTable
 70
     0
  0
ENDTAB
  0
TABLE
  2
UCS
  5
F3
100
AcDbSymbolTable
 70
     0
  0
ENDTAB
  0
TABLE
  2
APPID
  5
F5
100
AcDbSymbolTable
 70
     3
  0
APPID
  5
FC
100
AcDbSymbolTableRecord
100
AcDbRegAppTableRecord
  2
ACAD
 70
     0
  0
APPID
  5
127
100
AcDbSymbolTableRecord
100
AcDbRegAppTableRecord
  2
AVE_RENDER
 70
     0
  0
APPID
  5
128
100
AcDbSymbolTableRecord
100
AcDbRegAppTableRecord
  2
AVE_MATERIAL
 70
     0
  0
ENDTAB
  0
TABLE
  2
DIMSTYLE
  5
F6
100
AcDbSymbolTable
 70
     2
  0
DIMSTYLE
105
129
100
AcDbSymbolTableRecord
100
AcDbDimStyleTableRecord
  2
STANDARD
 70
     0
  3

  4

  5

  6

  7

 40
1.0
 41
0.18
 42
0.0625
 43
0.38
 44
0.18
 45
0.0
 46
0.0
 47
0.0
 48
0.0
140
0.18
141
0.09
142
0.0
143
25.4
144
1.0
145
0.0
146
1.0
147
0.09
 71
     0
 72
     0
 73
     1
 74
     1
 75
     0
 76
     0
 77
     0
 78
     0
170
     0
171
     2
172
     0
173
     0
174
     0
175
     0
176
     0
177
     0
178
     0
270
     2
271
     3
272
     3
273
     2
274
     2
340
FB
275
     0
280
     0
281
     0
282
     0
283
     1
284
    12
285
    12
286
    12
287
     5
288
     0
  0
DIMSTYLE
105
12A
102
{ACAD_REACTORS
330
2141
330
216F
330
217C
102
}
100
AcDbSymbolTableRecord
100
AcDbDimStyleTableRecord
  2
SC_STAND
 70
     0
  3

  4

  5

  6

  7

 40
1.0
 41
3.0
 42
0.0625
 43
0.38
 44
0.18
 45
0.01
 46
0.0
 47
0.0
 48
0.0
140
2.5
141
0.09
142
0.0
143
25.4
144
1.0
145
0.0
146
1.0
147
1.0
 71
     0
 72
     0
 73
     0
 74
     0
 75
     0
 76
     0
 77
     1
 78
    12
170
     0
171
     2
172
     1
173
     0
174
     0
175
     0
176
     0
177
     0
178
     0
270
     2
271
     3
272
     3
273
     2
274
     2
340
FB
275
     0
280
     0
281
     0
282
     0
283
     1
284
    12
285
    12
286
    12
287
     5
288
     0
  0
ENDTAB
  0
TABLE
  2
BLOCK_RECORD
  5
ED
100
AcDbSymbolTable
 70
    10
  0
BLOCK_RECORD
  5
103
100
AcDbSymbolTableRecord
100
AcDbBlockTableRecord
  2
*MODEL_SPACE
  0
BLOCK_RECORD
  5
100
100
AcDbSymbolTableRecord
100
AcDbBlockTableRecord
  2
*PAPER_SPACE
  0
BLOCK_RECORD
  5
108
100
AcDbSymbolTableRecord
100
AcDbBlockTableRecord
  2
AVE_RENDER
  0
BLOCK_RECORD
  5
109
100
AcDbSymbolTableRecord
100
AcDbBlockTableRecord
  2
AVE_GLOBAL
  0
BLOCK_RECORD
  5
10A
100
AcDbSymbolTableRecord
100
AcDbBlockTableRecord
  2
SCH_IS
  0
BLOCK_RECORD
  5
2135
100
AcDbSymbolTableRecord
100
AcDbBlockTableRecord
  2
*D7
  0
BLOCK_RECORD
  5
2163
100
AcDbSymbolTableRecord
100
AcDbBlockTableRecord
  2
*D8
  0
BLOCK_RECORD
  5
2170
100
AcDbSymbolTableRecord
100
AcDbBlockTableRecord
  2
*D9
  0
ENDTAB
  0
ENDSEC
  0
SECTION
  2
BLOCKS
  0
BLOCK
  5
141
100
AcDbEntity
  8
0
100
AcDbBlockBegin
  2
*MODEL_SPACE
 70
     0
 10
0.0
 20
0.0
 30
0.0
  3
*MODEL_SPACE
  1

  0
ENDBLK
  5
142
100
AcDbEntity
  8
0
100
AcDbBlockEnd
  0
BLOCK
  5
13F
100
AcDbEntity
 67
     1
  8
0
100
AcDbBlockBegin
  2
*PAPER_SPACE
 70
     0
 10
0.0
 20
0.0
 30
0.0
  3
*PAPER_SPACE
  1

  0
ENDBLK
  5
140
100
AcDbEntity
 67
     1
  8
0
100
AcDbBlockEnd
  0
BLOCK
  5
8D
100
AcDbEntity
  8
0
100
AcDbBlockBegin
  2
AVE_RENDER
 70
     0
 10
0.0
 20
0.0
 30
0.0
  3
AVE_RENDER
  1
AVE_RENDER
  0
ENDBLK
  5
8E
100
AcDbEntity
  8
0
100
AcDbBlockEnd
  0
BLOCK
  5
90
100
AcDbEntity
  8
0
100
AcDbBlockBegin
  2
AVE_GLOBAL
 70
     0
 10
0.0
 20
0.0
 30
0.0
  3
AVE_GLOBAL
  1
AVE_GLOBAL
  0
ENDBLK
  5
91
100
AcDbEntity
  8
0
100
AcDbBlockEnd
  0
BLOCK
  5
C9
100
AcDbEntity
  8
0
100
AcDbBlockBegin
  2
SCH_IS
 70
     0
 10
0.0
 20
0.0
 30
0.0
  3
SCH_IS
  1

  0
INSERT
  5
C0
100
AcDbEntity
  8
ASHADE
 62
     1
100
AcDbBlockReference
  2
AVE_RENDER
 10
0.0
 20
0.0
 30
0.0
1001
AVE_RENDER
1002
{
1070
     6
1000
Pref
1070
    50
1070
    20
1070
     1
1070
     0
1000

1070
    10
1070
     1
1070
    30
1040
25.4
1070
     1
1040
0.3
1040
0.7
1040
0.0
1040
10.0
1010
-1.0
1020
-1.0
1030
-1.0
1040
0.3
1070
    49
1070
     0
1070
     0
1010
1.0
1020
1.0
1030
1.0
1040
45.0
1070
     1
1070
     0
1000
WCS
1040
0.0
1002
}
  0
INSERT
  5
C1
100
AcDbEntity
  8
ASHADE
 62
     3
100
AcDbBlockReference
  2
AVE_RENDER
 10
0.0
 20
0.0
 30
0.0
1001
AVE_RENDER
1002
{
1070
     0
1000
Full Opt
1070
     0
1070
     1
1070
     1
1070
     1
1070
     0
1070
     0
1070
     0
1070
     1
1070
     1
1040
0.0001
1040
0.0001
1002
}
  0
INSERT
  5
C2
100
AcDbEntity
  8
ASHADE
 62
     4
100
AcDbBlockReference
  2
AVE_RENDER
 10
0.0
 20
0.0
 30
0.0
1001
AVE_RENDER
1002
{
1070
     0
1000
Quick Opt
1070
     0
1070
     1
1070
     1
1070
     1
1070
     0
1070
     0
1070
     1
1002
}
  0
INSERT
  5
C3
100
AcDbEntity
  8
ASHADE
 62
     5
100
AcDbBlockReference
  2
AVE_RENDER
 10
0.0
 20
0.0
 30
0.0
1001
AVE_RENDER
1002
{
1070
     1
1000
Scanl Opt
1070
     2
1070
     0
1070
     2
1040
2.0
1040
4.0
1070
     0
1070
     1
1070
     0
1040
0.03
1002
}
  0
INSERT
  5
C4
100
AcDbEntity
  8
ASHADE
 62
     6
100
AcDbBlockReference
  2
AVE_RENDER
 10
0.0
 20
0.0
 30
0.0
1001
AVE_RENDER
1002
{
1070
     2
1000
Raytr Opt
1070
     2
1070
     0
1070
     2
1040
2.0
1040
4.0
1070
     0
1070
     1
1070
     1
1040
0.03
1070
     3
1040
0.03
1002
}
  0
INSERT
  5
C5
100
AcDbEntity
  8
ASHADE
 62
     7
100
AcDbBlockReference
  2
AVE_RENDER
 10
0.0
 20
0.0
 30
0.0
1001
AVE_RENDER
1002
{
1070
     0
1000
RFile Opt
1070
     5
1070
   640
1070
   480
1070
 10000
1070
     3
1070
    32
1070
    24
1070
     0
1070
     0
1070
     0
1070
     1
1070
     0
1070
     0
1070
     0
1002
}
  0
INSERT
  5
C6
100
AcDbEntity
  8
ASHADE
 62
     8
100
AcDbBlockReference
  2
AVE_RENDER
 10
0.0
 20
0.0
 30
0.0
1001
AVE_RENDER
1002
{
1070
     0
1000
Fog Opt
1070
     0
1070
     0
1040
0.0
1040
1.0
1040
0.0
1040
1.0
1010
0.5
1020
0.5
1030
0.5
1002
}
  0
INSERT
  5
C7
100
AcDbEntity
  8
ASHADE
 62
     9
100
AcDbBlockReference
  2
AVE_RENDER
 10
0.0
 20
0.0
 30
0.0
1001
AVE_RENDER
1002
{
1070
     0
1000
BG Opt
1070
     0
1070
     1
1010
0.0
1020
0.0
1030
0.0
1010
1.0
1020
0.0
1030
0.0
1010
0.0
1020
1.0
1030
0.0
1010
0.0
1020
0.0
1030
1.0
1040
0.5
1040
0.33
1040
0.0
1000

1070
     1
1000

1070
     1
1070
     1
1040
1.0
1040
1.0
1040
0.0
1040
0.0
1070
     0
1002
}
  0
INSERT
  5
C8
100
AcDbEntity
  8
ASHADE
 62
     1
100
AcDbBlockReference
  2
AVE_GLOBAL
 10
0.0
 20
0.0
 30
0.0
1001
AVE_MATERIAL
1002
{
1000
*GLOBAL*
1000
1
1000
Finition globale.
1002
{
1002
}
1002
{
1070
    63
1002
{
1002
{
1010
-1.0
1020
-1.0
1030
-1.0
1002
}
1040
0.1
1000

1040
0.0
1002
{
1002
}
1040
0.0
1002
{
1002
}
1040
0.0
1002
}
1002
{
1002
{
1010
-1.0
1020
-1.0
1030
-1.0
1002
}
1040
0.7
1000

1040
0.0
1002
{
1002
}
1040
0.0
1002
{
1002
}
1040
0.0
1002
}
1002
{
1002
{
1010
-1.0
1020
-1.0
1030
-1.0
1002
}
1040
0.2
1000

1040
0.0
1002
{
1002
}
1040
0.0
1002
{
1002
}
1040
0.0
1002
}
1002
{
1070
     0
1002
{
1070
     1
1002
{
1040
1.0
1040
1.0
1000

1040
0.0
1002
{
1002
}
1040
0.0
1002
{
1002
}
1040
0.0
1002
}
1002
}
1040
1.0
1040
0.0
1040
0.0
1002
}
1002
{
1040
1.0
1040
1.0
1000

1040
0.0
1002
{
1002
}
1040
0.0
1002
{
1002
}
1040
0.0
1002
}
1002
{
1040
0.5
1040
1.0
1000

1040
0.0
1002
{
1002
}
1040
0.0
1002
{
1002
}
1040
0.0
1002
}
1002
{
1070
     0
1040
0.0
1002
{
1002
}
1040
1.0
1002
{
1002
}
1040
0.0
1002
}
1002
{
1040
0.0
1002
{
1002
{
1010
0.0
1020
0.0
1030
0.0
1002
}
1040
1.0
1000

1040
0.0
1002
{
1002
}
1040
0.0
1002
{
1002
}
1040
0.0
1002
}
1002
}
1002
{
1002
{
1070
     1
1002
{
1040
0.0
1040
1.0
1000

1040
0.0
1002
{
1002
}
1040
0.0
1002
{
1002
}
1040
0.0
1002
}
1002
}
1040
0.0
1002
{
1002
}
1010
1.0
1020
0.0
1030
0.0
1010
0.0
1020
1.0
1030
0.0
1010
0.0
1020
0.0
1030
1.0
1070
     0
1002
}
1002
{
1002
{
1040
1.0
1040
1.0
1002
{
1070
     1
1002
{
1040
1.0
1040
1.0
1000

1040
0.0
1002
{
1002
}
1040
0.0
1002
{
1002
}
1040
0.0
1002
}
1002
}
1002
}
1070
     0
1040
0.0
1002
{
1002
}
1002
}
1002
{
1002
}
1002
}
1002
{
1071
        3
1070
     3
1070
     0
1002
{
1070
     2
1070
     0
1070
     0
1040
0.0
1002
}
1070
     0
1070
     2
1002
{
1002
}
1002
}
1002
{
1040
8030.0
1040
190.300003
1040
0.305
1040
228.0
1040
545.0
1040
14.0
1040
17.4
1040
0.456
1002
}
1002
}
  0
ENDBLK
  5
CA
100
AcDbEntity
  8
0
100
AcDbBlockEnd
  0
BLOCK
  5
2158
100
AcDbEntity
  8
0
100
AcDbBlockBegin
  2
*D7
 70
     1
 10
0.0
 20
0.0
 30
0.0
  3
*D7
  1

  0
LINE
  5
2159
100
AcDbEntity
  8
0
  6
BYBLOCK
 62
     0
100
AcDbLine
 10
6.254438
 20
107.102875
 30
0.0
 11
6.254438
 21
113.623039
 31
0.0
  0
LINE
  5
215A
100
AcDbEntity
  8
0
  6
BYBLOCK
 62
     0
100
AcDbLine
 10
36.251573
 20
107.102875
 30
0.0
 11
36.251573
 21
113.623039
 31
0.0
  0
LINE
  5
215B
100
AcDbEntity
  8
0
  6
BYBLOCK
 62
     0
100
AcDbLine
 10
9.254438
 20
113.443039
 30
0.0
 11
33.251573
 21
113.443039
 31
0.0
  0
SOLID
  5
215C
100
AcDbEntity
  8
0
  6
BYBLOCK
 62
     0
100
AcDbTrace
 10
9.254438
 20
113.943039
 30
0.0
 11
9.254438
 21
112.943039
 31
0.0
 12
6.254438
 22
113.443039
 32
0.0
 13
6.254438
 23
113.443039
 33
0.0
  0
SOLID
  5
215D
100
AcDbEntity
  8
0
  6
BYBLOCK
 62
     0
100
AcDbTrace
 10
33.251573
 20
113.943039
 30
0.0
 11
33.251573
 21
112.943039
 31
0.0
 12
36.251573
 22
113.443039
 32
0.0
 13
36.251573
 23
113.443039
 33
0.0
  0
MTEXT
  5
215E
100
AcDbEntity
  8
0
  6
BYBLOCK
 62
     0
100
AcDbMText
 10
21.253005
 20
115.693039
 30
0.0
 40
2.5
 41
0.0
 71
     5
 72
     1
  1
\A1;M30x1.5
  0
POINT
  5
215F
100
AcDbEntity
  8
DEFPOINTS
  6
BYBLOCK
 62
     0
100
AcDbPoint
 10
6.254438
 20
107.040375
 30
0.0
  0
POINT
  5
2160
100
AcDbEntity
  8
DEFPOINTS
  6
BYBLOCK
 62
     0
100
AcDbPoint
 10
36.251573
 20
107.040375
 30
0.0
  0
POINT
  5
2161
100
AcDbEntity
  8
DEFPOINTS
  6
BYBLOCK
 62
     0
100
AcDbPoint
 10
36.251573
 20
113.443039
 30
0.0
  0
ENDBLK
  5
2162
100
AcDbEntity
  8
0
100
AcDbBlockEnd
  0
BLOCK
  5
2164
100
AcDbEntity
  8
0
100
AcDbBlockBegin
  2
*D8
 70
     1
 10
0.0
 20
0.0
 30
0.0
  3
*D8
  1

  0
LINE
  5
2165
100
AcDbEntity
  8
0
  6
BYBLOCK
 62
     0
100
AcDbLine
 10
31.7648
 20
107.040375
 30
0.0
 11
50.629898
 21
107.040375
 31
0.0
  0
LINE
  5
2166
100
AcDbEntity
  8
0
  6
BYBLOCK
 62
     0
100
AcDbLine
 10
36.314073
 20
50.039892
 30
0.0
 11
50.629898
 21
50.039892
 31
0.0
  0
LINE
  5
2167
100
AcDbEntity
  8
0
  6
BYBLOCK
 62
     0
100
AcDbLine
 10
50.449898
 20
104.040375
 30
0.0
 11
50.449898
 21
53.039892
 31
0.0
  0
SOLID
  5
2168
100
AcDbEntity
  8
0
  6
BYBLOCK
 62
     0
100
AcDbTrace
 10
49.949898
 20
104.040375
 30
0.0
 11
50.949898
 21
104.040375
 31
0.0
 12
50.449898
 22
107.040375
 32
0.0
 13
50.449898
 23
107.040375
 33
0.0
  0
SOLID
  5
2169
100
AcDbEntity
  8
0
  6
BYBLOCK
 62
     0
100
AcDbTrace
 10
49.949898
 20
53.039892
 30
0.0
 11
50.949898
 21
53.039892
 31
0.0
 12
50.449898
 22
50.039892
 32
0.0
 13
50.449898
 23
50.039892
 33
0.0
  0
MTEXT
  5
216A
100
AcDbEntity
  8
0
  6
BYBLOCK
 62
     0
100
AcDbMText
 10
48.199898
 20
78.540134
 30
0.0
 40
2.5
 41
0.0
 71
     5
 72
     1
  1
\A1;57
 11
0.0
 21
1.0
 31
0.0
  0
POINT
  5
216B
100
AcDbEntity
  8
DEFPOINTS
  6
BYBLOCK
 62
     0
100
AcDbPoint
 10
31.7023
 20
107.040375
 30
0.0
  0
POINT
  5
216C
100
AcDbEntity
  8
DEFPOINTS
  6
BYBLOCK
 62
     0
100
AcDbPoint
 10
36.251573
 20
50.039892
 30
0.0
  0
POINT
  5
216D
100
AcDbEntity
  8
DEFPOINTS
  6
BYBLOCK
 62
     0
100
AcDbPoint
 10
50.449898
 20
50.039892
 30
0.0
  0
ENDBLK
  5
216E
100
AcDbEntity
  8
0
100
AcDbBlockEnd
  0
BLOCK
  5
2171
100
AcDbEntity
  8
0
100
AcDbBlockBegin
  2
*D9
 70
     1
 10
0.0
 20
0.0
 30
0.0
  3
*D9
  1

  0
LINE
  5
2172
100
AcDbEntity
  8
0
  6
BYBLOCK
 62
     0
100
AcDbLine
 10
46.450418
 20
107.040375
 30
0.0
 11
60.628617
 21
107.040375
 31
0.0
  0
LINE
  5
2173
100
AcDbEntity
  8
0
  6
BYBLOCK
 62
     0
100
AcDbLine
 10
33.294102
 20
26.039979
 30
0.0
 11
60.628617
 21
26.039979
 31
0.0
  0
LINE
  5
2174
100
AcDbEntity
  8
0
  6
BYBLOCK
 62
     0
100
AcDbLine
 10
60.448617
 20
104.040375
 30
0.0
 11
60.448617
 21
29.039979
 31
0.0
  0
SOLID
  5
2175
100
AcDbEntity
  8
0
  6
BYBLOCK
 62
     0
100
AcDbTrace
 10
59.948617
 20
104.040375
 30
0.0
 11
60.948617
 21
104.040375
 31
0.0
 12
60.448617
 22
107.040375
 32
0.0
 13
60.448617
 23
107.040375
 33
0.0
  0
SOLID
  5
2176
100
AcDbEntity
  8
0
  6
BYBLOCK
 62
     0
100
AcDbTrace
 10
59.948617
 20
29.039979
 30
0.0
 11
60.948617
 21
29.039979
 31
0.0
 12
60.448617
 22
26.039979
 32
0.0
 13
60.448617
 23
26.039979
 33
0.0
  0
MTEXT
  5
2177
100
AcDbEntity
  8
0
  6
BYBLOCK
 62
     0
100
AcDbMText
 10
58.198617
 20
66.540177
 30
0.0
 40
2.5
 41
0.0
 71
     5
 72
     1
  1
\A1;81
 11
0.0
 21
1.0
 31
0.0
  0
POINT
  5
2178
100
AcDbEntity
  8
DEFPOINTS
  6
BYBLOCK
 62
     0
100
AcDbPoint
 10
46.387918
 20
107.040375
 30
0.0
  0
POINT
  5
2179
100
AcDbEntity
  8
DEFPOINTS
  6
BYBLOCK
 62
     0
100
AcDbPoint
 10
33.231602
 20
26.039979
 30
0.0
  0
POINT
  5
217A
100
AcDbEntity
  8
DEFPOINTS
  6
BYBLOCK
 62
     0
100
AcDbPoint
 10
60.448617
 20
26.039979
 30
0.0
  0
ENDBLK
  5
217B
100
AcDbEntity
  8
0
100
AcDbBlockEnd
  0
ENDSEC
  0
SECTION
  2
ENTITIES
  0
INSERT
  5
CC
100
AcDbEntity
  8
0
100
AcDbBlockReference
  2
SCH_IS
 10
-68.718396
 20
-140.042541
 30
0.0
  0
INSERT
  5
EC
100
AcDbEntity
  8
COTATION1
100
AcDbBlockReference
  2
SCH_IS
 10
0.0
 20
0.0
 30
0.0
  0
POLYLINE
  5
1F46
100
AcDbEntity
  8
ALPHA
100
AcDb2dPolyline
 66
     1
 10
0.0
 20
0.0
 30
0.0
  0
VERTEX
  5
1F47
100
AcDbEntity
  8
ALPHA
100
AcDbVertex
100
AcDb2dVertex
 10
26.316607
 20
1.599094
 30
0.0
  0
VERTEX
  5
1F48
100
AcDbEntity
  8
ALPHA
100
AcDbVertex
100
AcDb2dVertex
 10
25.094155
 20
2.333416
 30
0.0
  0
VERTEX
  5
1F49
100
AcDbEntity
  8
ALPHA
100
AcDbVertex
100
AcDb2dVertex
 10
24.579107
 20
2.548842
 30
0.0
  0
VERTEX
  5
1F4A
100
AcDbEntity
  8
ALPHA
100
AcDbVertex
100
AcDb2dVertex
 10
24.12361
 20
2.678098
 30
0.0
  0
VERTEX
  5
1F4B
100
AcDbEntity
  8
ALPHA
100
AcDbVertex
100
AcDb2dVertex
 10
23.724238
 20
2.732422
 30
0.0
  0
VERTEX
  5
1F4C
100
AcDbEntity
  8
ALPHA
100
AcDbVertex
100
AcDb2dVertex
 10
23.377566
 20
2.723056
 30
0.0
  0
VERTEX
  5
1F4D
100
AcDbEntity
  8
ALPHA
100
AcDbVertex
100
AcDb2dVertex
 10
23.222922
 20
2.698001
 30
0.0
  0
VERTEX
  5
1F4E
100
AcDbEntity
  8
ALPHA
100
AcDbVertex
100
AcDb2dVertex
 10
23.080169
 20
2.661238
 30
0.0
  0
VERTEX
  5
1F4F
100
AcDbEntity
  8
ALPHA
100
AcDbVertex
100
AcDb2dVertex
 10
22.948877
 20
2.614172
 30
0.0
  0
VERTEX
  5
1F50
100
AcDbEntity
  8
ALPHA
100
AcDbVertex
100
AcDb2dVertex
 10
22.82862
 20
2.558208
 30
0.0
  0
VERTEX
  5
1F51
100
AcDbEntity
  8
ALPHA
100
AcDbVertex
100
AcDb2dVertex
 10
22.619494
 20
2.425206
 30
0.0
  0
VERTEX
  5
1F52
100
AcDbEntity
  8
ALPHA
100
AcDbVertex
100
AcDb2dVertex
 10
22.449366
 20
2.273471
 30
0.0
  0
VERTEX
  5
1F53
100
AcDbEntity
  8
ALPHA
100
AcDbVertex
100
AcDb2dVertex
 10
22.31481
 20
2.114243
 30
0.0
  0
VERTEX
  5
1F54
100
AcDbEntity
  8
ALPHA
100
AcDbVertex
100
AcDb2dVertex
 10
22.2124
 20
1.958762
 30
0.0
  0
VERTEX
  5
1F55
100
AcDbEntity
  8
ALPHA
100
AcDbVertex
100
AcDb2dVertex
 10
22.090317
 20
1.703997
 30
0.0
  0
VERTEX
  5
1F56
100
AcDbEntity
  8
ALPHA
100
AcDbVertex
100
AcDb2dVertex
 10
22.063793
 20
1.627193
 30
0.0
  0
VERTEX
  5
1F57
100
AcDbEntity
  8
ALPHA
100
AcDbVertex
100
AcDb2dVertex
 10
22.057661
 20
1.606353
 30
0.0
  0
VERTEX
  5
1F58
100
AcDbEntity
  8
ALPHA
100
AcDbVertex
100
AcDb2dVertex
 10
22.055713
 20
1.599094
 30
0.0
  0
SEQEND
  5
1F59
100
AcDbEntity
  8
ALPHA
  0
POLYLINE
  5
1F5A
100
AcDbEntity
  8
ALPHA
100
AcDb2dPolyline
 66
     1
 10
0.0
 20
0.0
 30
0.0
  0
VERTEX
  5
1F5B
100
AcDbEntity
  8
ALPHA
100
AcDbVertex
100
AcDb2dVertex
 10
26.316607
 20
1.599094
 30
0.0
  0
VERTEX
  5
1F5C
100
AcDbEntity
  8
ALPHA
100
AcDbVertex
100
AcDb2dVertex
 10
25.094155
 20
2.333416
 30
0.0
  0
VERTEX
  5
1F5D
100
AcDbEntity
  8
ALPHA
100
AcDbVertex
100
AcDb2dVertex
 10
24.579107
 20
2.548842
 30
0.0
  0
VERTEX
  5
1F5E
100
AcDbEntity
  8
ALPHA
100
AcDbVertex
100
AcDb2dVertex
 10
24.12361
 20
2.678098
 30
0.0
  0
VERTEX
  5
1F5F
100
AcDbEntity
  8
ALPHA
100
AcDbVertex
100
AcDb2dVertex
 10
23.724238
 20
2.732422
 30
0.0
  0
VERTEX
  5
1F60
100
AcDbEntity
  8
ALPHA
100
AcDbVertex
100
AcDb2dVertex
 10
23.377566
 20
2.723056
 30
0.0
  0
VERTEX
  5
1F61
100
AcDbEntity
  8
ALPHA
100
AcDbVertex
100
AcDb2dVertex
 10
23.222922
 20
2.698001
 30
0.0
  0
VERTEX
  5
1F62
100
AcDbEntity
  8
ALPHA
100
AcDbVertex
100
AcDb2dVertex
 10
23.080169
 20
2.661238
 30
0.0
  0
VERTEX
  5
1F63
100
AcDbEntity
  8
ALPHA
100
AcDbVertex
100
AcDb2dVertex
 10
22.948877
 20
2.614172
 30
0.0
  0
VERTEX
  5
1F64
100
AcDbEntity
  8
ALPHA
100
AcDbVertex
100
AcDb2dVertex
 10
22.82862
 20
2.558208
 30
0.0
  0
VERTEX
  5
1F65
100
AcDbEntity
  8
ALPHA
100
AcDbVertex
100
AcDb2dVertex
 10
22.619494
 20
2.425206
 30
0.0
  0
VERTEX
  5
1F66
100
AcDbEntity
  8
ALPHA
100
AcDbVertex
100
AcDb2dVertex
 10
22.449366
 20
2.273471
 30
0.0
  0
VERTEX
  5
1F67
100
AcDbEntity
  8
ALPHA
100
AcDbVertex
100
AcDb2dVertex
 10
22.31481
 20
2.114243
 30
0.0
  0
VERTEX
  5
1F68
100
AcDbEntity
  8
ALPHA
100
AcDbVertex
100
AcDb2dVertex
 10
22.2124
 20
1.958762
 30
0.0
  0
VERTEX
  5
1F69
100
AcDbEntity
  8
ALPHA
100
AcDbVertex
100
AcDb2dVertex
 10
22.090317
 20
1.703997
 30
0.0
  0
VERTEX
  5
1F6A
100
AcDbEntity
  8
ALPHA
100
AcDbVertex
100
AcDb2dVertex
 10
22.063793
 20
1.627193
 30
0.0
  0
VERTEX
  5
1F6B
100
AcDbEntity
  8
ALPHA
100
AcDbVertex
100
AcDb2dVertex
 10
22.057661
 20
1.606353
 30
0.0
  0
VERTEX
  5
1F6C
100
AcDbEntity
  8
ALPHA
100
AcDbVertex
100
AcDb2dVertex
 10
22.055713
 20
1.599094
 30
0.0
  0
SEQEND
  5
1F6D
100
AcDbEntity
  8
ALPHA
  0
POLYLINE
  5
1F6E
100
AcDbEntity
  8
ALPHA
100
AcDb2dPolyline
 66
     1
 10
0.0
 20
0.0
 30
0.0
  0
VERTEX
  5
1F6F
100
AcDbEntity
  8
ALPHA
100
AcDbVertex
100
AcDb2dVertex
 10
26.316607
 20
1.599094
 30
0.0
  0
VERTEX
  5
1F70
100
AcDbEntity
  8
ALPHA
100
AcDbVertex
100
AcDb2dVertex
 10
25.094155
 20
2.333416
 30
0.0
  0
VERTEX
  5
1F71
100
AcDbEntity
  8
ALPHA
100
AcDbVertex
100
AcDb2dVertex
 10
24.579107
 20
2.548842
 30
0.0
  0
VERTEX
  5
1F72
100
AcDbEntity
  8
ALPHA
100
AcDbVertex
100
AcDb2dVertex
 10
24.12361
 20
2.678098
 30
0.0
  0
VERTEX
  5
1F73
100
AcDbEntity
  8
ALPHA
100
AcDbVertex
100
AcDb2dVertex
 10
23.724238
 20
2.732422
 30
0.0
  0
VERTEX
  5
1F74
100
AcDbEntity
  8
ALPHA
100
AcDbVertex
100
AcDb2dVertex
 10
23.377566
 20
2.723056
 30
0.0
  0
VERTEX
  5
1F75
100
AcDbEntity
  8
ALPHA
100
AcDbVertex
100
AcDb2dVertex
 10
23.222922
 20
2.698001
 30
0.0
  0
VERTEX
  5
1F76
100
AcDbEntity
  8
ALPHA
100
AcDbVertex
100
AcDb2dVertex
 10
23.080169
 20
2.661238
 30
0.0
  0
VERTEX
  5
1F77
100
AcDbEntity
  8
ALPHA
100
AcDbVertex
100
AcDb2dVertex
 10
22.948877
 20
2.614172
 30
0.0
  0
VERTEX
  5
1F78
100
AcDbEntity
  8
ALPHA
100
AcDbVertex
100
AcDb2dVertex
 10
22.82862
 20
2.558208
 30
0.0
  0
VERTEX
  5
1F79
100
AcDbEntity
  8
ALPHA
100
AcDbVertex
100
AcDb2dVertex
 10
22.619494
 20
2.425206
 30
0.0
  0
VERTEX
  5
1F7A
100
AcDbEntity
  8
ALPHA
100
AcDbVertex
100
AcDb2dVertex
 10
22.449366
 20
2.273471
 30
0.0
  0
VERTEX
  5
1F7B
100
AcDbEntity
  8
ALPHA
100
AcDbVertex
100
AcDb2dVertex
 10
22.31481
 20
2.114243
 30
0.0
  0
VERTEX
  5
1F7C
100
AcDbEntity
  8
ALPHA
100
AcDbVertex
100
AcDb2dVertex
 10
22.2124
 20
1.958762
 30
0.0
  0
VERTEX
  5
1F7D
100
AcDbEntity
  8
ALPHA
100
AcDbVertex
100
AcDb2dVertex
 10
22.090317
 20
1.703997
 30
0.0
  0
VERTEX
  5
1F7E
100
AcDbEntity
  8
ALPHA
100
AcDbVertex
100
AcDb2dVertex
 10
22.063793
 20
1.627193
 30
0.0
  0
VERTEX
  5
1F7F
100
AcDbEntity
  8
ALPHA
100
AcDbVertex
100
AcDb2dVertex
 10
22.057661
 20
1.606353
 30
0.0
  0
VERTEX
  5
1F80
100
AcDbEntity
  8
ALPHA
100
AcDbVertex
100
AcDb2dVertex
 10
22.055713
 20
1.599094
 30
0.0
  0
SEQEND
  5
1F81
100
AcDbEntity
  8
ALPHA
  0
POLYLINE
  5
1F82
100
AcDbEntity
  8
ALPHA
100
AcDb2dPolyline
 66
     1
 10
0.0
 20
0.0
 30
0.0
  0
VERTEX
  5
1F83
100
AcDbEntity
  8
ALPHA
100
AcDbVertex
100
AcDb2dVertex
 10
26.316607
 20
1.599094
 30
0.0
  0
VERTEX
  5
1F84
100
AcDbEntity
  8
ALPHA
100
AcDbVertex
100
AcDb2dVertex
 10
25.094155
 20
2.333416
 30
0.0
  0
VERTEX
  5
1F85
100
AcDbEntity
  8
ALPHA
100
AcDbVertex
100
AcDb2dVertex
 10
24.579107
 20
2.548842
 30
0.0
  0
VERTEX
  5
1F86
100
AcDbEntity
  8
ALPHA
100
AcDbVertex
100
AcDb2dVertex
 10
24.12361
 20
2.678098
 30
0.0
  0
VERTEX
  5
1F87
100
AcDbEntity
  8
ALPHA
100
AcDbVertex
100
AcDb2dVertex
 10
23.724238
 20
2.732422
 30
0.0
  0
VERTEX
  5
1F88
100
AcDbEntity
  8
ALPHA
100
AcDbVertex
100
AcDb2dVertex
 10
23.377566
 20
2.723056
 30
0.0
  0
VERTEX
  5
1F89
100
AcDbEntity
  8
ALPHA
100
AcDbVertex
100
AcDb2dVertex
 10
23.222922
 20
2.698001
 30
0.0
  0
VERTEX
  5
1F8A
100
AcDbEntity
  8
ALPHA
100
AcDbVertex
100
AcDb2dVertex
 10
23.080169
 20
2.661238
 30
0.0
  0
VERTEX
  5
1F8B
100
AcDbEntity
  8
ALPHA
100
AcDbVertex
100
AcDb2dVertex
 10
22.948877
 20
2.614172
 30
0.0
  0
VERTEX
  5
1F8C
100
AcDbEntity
  8
ALPHA
100
AcDbVertex
100
AcDb2dVertex
 10
22.82862
 20
2.558208
 30
0.0
  0
VERTEX
  5
1F8D
100
AcDbEntity
  8
ALPHA
100
AcDbVertex
100
AcDb2dVertex
 10
22.619494
 20
2.425206
 30
0.0
  0
VERTEX
  5
1F8E
100
AcDbEntity
  8
ALPHA
100
AcDbVertex
100
AcDb2dVertex
 10
22.449366
 20
2.273471
 30
0.0
  0
VERTEX
  5
1F8F
100
AcDbEntity
  8
ALPHA
100
AcDbVertex
100
AcDb2dVertex
 10
22.31481
 20
2.114243
 30
0.0
  0
VERTEX
  5
1F90
100
AcDbEntity
  8
ALPHA
100
AcDbVertex
100
AcDb2dVertex
 10
22.2124
 20
1.958762
 30
0.0
  0
VERTEX
  5
1F91
100
AcDbEntity
  8
ALPHA
100
AcDbVertex
100
AcDb2dVertex
 10
22.090317
 20
1.703997
 30
0.0
  0
VERTEX
  5
1F92
100
AcDbEntity
  8
ALPHA
100
AcDbVertex
100
AcDb2dVertex
 10
22.063793
 20
1.627193
 30
0.0
  0
VERTEX
  5
1F93
100
AcDbEntity
  8
ALPHA
100
AcDbVertex
100
AcDb2dVertex
 10
22.057661
 20
1.606353
 30
0.0
  0
VERTEX
  5
1F94
100
AcDbEntity
  8
ALPHA
100
AcDbVertex
100
AcDb2dVertex
 10
22.055713
 20
1.599094
 30
0.0
  0
SEQEND
  5
1F95
100
AcDbEntity
  8
ALPHA
  0
POLYLINE
  5
1F96
100
AcDbEntity
  8
ALPHA
100
AcDb2dPolyline
 66
     1
 10
0.0
 20
0.0
 30
0.0
  0
VERTEX
  5
1F97
100
AcDbEntity
  8
ALPHA
100
AcDbVertex
100
AcDb2dVertex
 10
12.125569
 20
94.307302
 30
0.0
  0
VERTEX
  5
1F98
100
AcDbEntity
  8
ALPHA
100
AcDbVertex
100
AcDb2dVertex
 10
12.125569
 20
85.516797
 30
0.0
  0
SEQEND
  5
1F99
100
AcDbEntity
  8
ALPHA
  0
POLYLINE
  5
1F9A
100
AcDbEntity
  8
ALPHA
100
AcDb2dPolyline
 66
     1
 10
0.0
 20
0.0
 30
0.0
  0
VERTEX
  5
1F9B
100
AcDbEntity
  8
ALPHA
100
AcDbVertex
100
AcDb2dVertex
 10
30.788341
 20
94.307302
 30
0.0
  0
VERTEX
  5
1F9C
100
AcDbEntity
  8
ALPHA
100
AcDbVertex
100
AcDb2dVertex
 10
30.788341
 20
85.516797
 30
0.0
  0
SEQEND
  5
1F9D
100
AcDbEntity
  8
ALPHA
  0
POLYLINE
  5
1F9E
100
AcDbEntity
  8
ALPHA
100
AcDb2dPolyline
 66
     1
 10
0.0
 20
0.0
 30
0.0
  0
VERTEX
  5
1F9F
100
AcDbEntity
  8
ALPHA
100
AcDbVertex
100
AcDb2dVertex
 10
12.125569
 20
79.479611
 30
0.0
  0
VERTEX
  5
1FA0
100
AcDbEntity
  8
ALPHA
100
AcDbVertex
100
AcDb2dVertex
 10
12.125569
 20
70.688417
 30
0.0
  0
SEQEND
  5
1FA1
100
AcDbEntity
  8
ALPHA
  0
POLYLINE
  5
1FA2
100
AcDbEntity
  8
ALPHA
100
AcDb2dPolyline
 66
     1
 10
0.0
 20
0.0
 30
0.0
  0
VERTEX
  5
1FA3
100
AcDbEntity
  8
ALPHA
100
AcDbVertex
100
AcDb2dVertex
 10
30.788341
 20
79.479611
 30
0.0
  0
VERTEX
  5
1FA4
100
AcDbEntity
  8
ALPHA
100
AcDbVertex
100
AcDb2dVertex
 10
30.788341
 20
70.688417
 30
0.0
  0
SEQEND
  5
1FA5
100
AcDbEntity
  8
ALPHA
  0
POLYLINE
  5
1FA6
100
AcDbEntity
  8
ALPHA
100
AcDb2dPolyline
 66
     1
 10
0.0
 20
0.0
 30
0.0
  0
VERTEX
  5
1FA7
100
AcDbEntity
  8
ALPHA
100
AcDbVertex
100
AcDb2dVertex
 10
36.251573
 20
81.08916
 30
0.0
  0
VERTEX
  5
1FA8
100
AcDbEntity
  8
ALPHA
100
AcDbVertex
100
AcDb2dVertex
 10
36.251573
 20
83.975461
 30
0.0
  0
SEQEND
  5
1FA9
100
AcDbEntity
  8
ALPHA
  0
POLYLINE
  5
1FAA
100
AcDbEntity
  8
ALPHA
100
AcDb2dPolyline
 66
     1
 10
0.0
 20
0.0
 30
0.0
  0
VERTEX
  5
1FAB
100
AcDbEntity
  8
ALPHA
100
AcDbVertex
100
AcDb2dVertex
 10
6.254438
 20
81.08916
 30
0.0
  0
VERTEX
  5
1FAC
100
AcDbEntity
  8
ALPHA
100
AcDbVertex
100
AcDb2dVertex
 10
6.254438
 20
83.975461
 30
0.0
  0
SEQEND
  5
1FAD
100
AcDbEntity
  8
ALPHA
  0
POLYLINE
  5
1FAE
100
AcDbEntity
  8
ALPHA
100
AcDb2dPolyline
 66
     1
 10
0.0
 20
0.0
 30
0.0
  0
VERTEX
  5
1FAF
100
AcDbEntity
  8
ALPHA
100
AcDbVertex
100
AcDb2dVertex
 10
7.066102
 20
107.040375
 30
0.0
  0
VERTEX
  5
1FB0
100
AcDbEntity
  8
ALPHA
100
AcDbVertex
100
AcDb2dVertex
 10
7.066102
 20
95.91754
 30
0.0
  0
SEQEND
  5
1FB1
100
AcDbEntity
  8
ALPHA
  0
POLYLINE
  5
1FB2
100
AcDbEntity
  8
ALPHA
100
AcDb2dPolyline
 66
     1
 10
0.0
 20
0.0
 30
0.0
  0
VERTEX
  5
1FB3
100
AcDbEntity
  8
ALPHA
100
AcDbVertex
100
AcDb2dVertex
 10
7.066102
 20
69.199446
 30
0.0
  0
VERTEX
  5
1FB4
100
AcDbEntity
  8
ALPHA
100
AcDbVertex
100
AcDb2dVertex
 10
7.066102
 20
50.039892
 30
0.0
  0
SEQEND
  5
1FB5
100
AcDbEntity
  8
ALPHA
  0
POLYLINE
  5
1FB6
100
AcDbEntity
  8
ALPHA
100
AcDb2dPolyline
 66
     1
 10
0.0
 20
0.0
 30
0.0
  0
VERTEX
  5
1FB7
100
AcDbEntity
  8
ALPHA
100
AcDbVertex
100
AcDb2dVertex
 10
7.066102
 20
81.08916
 30
0.0
  0
VERTEX
  5
1FB8
100
AcDbEntity
  8
ALPHA
100
AcDbVertex
100
AcDb2dVertex
 10
7.066102
 20
83.975461
 30
0.0
  0
SEQEND
  5
1FB9
100
AcDbEntity
  8
ALPHA
  0
POLYLINE
  5
1FBA
100
AcDbEntity
  8
ALPHA
100
AcDb2dPolyline
 66
     1
 10
0.0
 20
0.0
 30
0.0
  0
VERTEX
  5
1FBB
100
AcDbEntity
  8
ALPHA
100
AcDbVertex
100
AcDb2dVertex
 10
35.439909
 20
107.040375
 30
0.0
  0
VERTEX
  5
1FBC
100
AcDbEntity
  8
ALPHA
100
AcDbVertex
100
AcDb2dVertex
 10
35.439909
 20
95.91754
 30
0.0
  0
SEQEND
  5
1FBD
100
AcDbEntity
  8
ALPHA
  0
POLYLINE
  5
1FBE
100
AcDbEntity
  8
ALPHA
100
AcDb2dPolyline
 66
     1
 10
0.0
 20
0.0
 30
0.0
  0
VERTEX
  5
1FBF
100
AcDbEntity
  8
ALPHA
100
AcDbVertex
100
AcDb2dVertex
 10
35.439909
 20
69.199446
 30
0.0
  0
VERTEX
  5
1FC0
100
AcDbEntity
  8
ALPHA
100
AcDbVertex
100
AcDb2dVertex
 10
35.439909
 20
50.039892
 30
0.0
  0
SEQEND
  5
1FC1
100
AcDbEntity
  8
ALPHA
  0
POLYLINE
  5
1FC2
100
AcDbEntity
  8
ALPHA
100
AcDb2dPolyline
 66
     1
 10
0.0
 20
0.0
 30
0.0
  0
VERTEX
  5
1FC3
100
AcDbEntity
  8
ALPHA
100
AcDbVertex
100
AcDb2dVertex
 10
35.439909
 20
81.08916
 30
0.0
  0
VERTEX
  5
1FC4
100
AcDbEntity
  8
ALPHA
100
AcDbVertex
100
AcDb2dVertex
 10
35.439909
 20
83.975461
 30
0.0
  0
SEQEND
  5
1FC5
100
AcDbEntity
  8
ALPHA
  0
POLYLINE
  5
1FC6
100
AcDbEntity
  8
ALPHA
100
AcDb2dPolyline
 66
     1
 10
0.0
 20
0.0
 30
0.0
  0
VERTEX
  5
1FC7
100
AcDbEntity
  8
ALPHA
100
AcDbVertex
100
AcDb2dVertex
 10
42.441032
 20
79.095828
 30
0.0
  0
VERTEX
  5
1FC8
100
AcDbEntity
  8
ALPHA
100
AcDbVertex
100
AcDb2dVertex
 10
42.438287
 20
79.098319
 30
0.0
  0
VERTEX
  5
1FC9
100
AcDbEntity
  8
ALPHA
100
AcDbVertex
100
AcDb2dVertex
 10
42.430046
 20
79.105642
 30
0.0
  0
VERTEX
  5
1FCA
100
AcDbEntity
  8
ALPHA
100
AcDbVertex
100
AcDb2dVertex
 10
42.397037
 20
79.133869
 30
0.0
  0
VERTEX
  5
1FCB
100
AcDbEntity
  8
ALPHA
100
AcDbVertex
100
AcDb2dVertex
 10
42.264648
 20
79.238247
 30
0.0
  0
VERTEX
  5
1FCC
100
AcDbEntity
  8
ALPHA
100
AcDbVertex
100
AcDb2dVertex
 10
41.732246
 20
79.58755
 30
0.0
  0
VERTEX
  5
1FCD
100
AcDbEntity
  8
ALPHA
100
AcDbVertex
100
AcDb2dVertex
 10
40.838949
 20
80.026803
 30
0.0
  0
VERTEX
  5
1FCE
100
AcDbEntity
  8
ALPHA
100
AcDbVertex
100
AcDb2dVertex
 10
39.57988
 20
80.43907
 30
0.0
  0
VERTEX
  5
1FCF
100
AcDbEntity
  8
ALPHA
100
AcDbVertex
100
AcDb2dVertex
 10
37.950161
 20
80.707419
 30
0.0
  0
VERTEX
  5
1FD0
100
AcDbEntity
  8
ALPHA
100
AcDbVertex
100
AcDb2dVertex
 10
35.944917
 20
80.714915
 30
0.0
  0
VERTEX
  5
1FD1
100
AcDbEntity
  8
ALPHA
100
AcDbVertex
100
AcDb2dVertex
 10
33.559269
 20
80.344624
 30
0.0
  0
VERTEX
  5
1FD2
100
AcDbEntity
  8
ALPHA
100
AcDbVertex
100
AcDb2dVertex
 10
30.788341
 20
79.479611
 30
0.0
  0
SEQEND
  5
1FD3
100
AcDbEntity
  8
ALPHA
  0
POLYLINE
  5
1FD4
100
AcDbEntity
  8
ALPHA
100
AcDb3dPolyline
 66
     1
 10
0.0
 20
0.0
 30
0.0
 70
     8
  0
VERTEX
  5
1FD5
100
AcDbEntity
  8
ALPHA
100
AcDbVertex
100
AcDb3dPolylineVertex
 10
30.788341
 20
79.479611
 30
0.0
 70
    32
  0
VERTEX
  5
1FD6
100
AcDbEntity
  8
ALPHA
100
AcDbVertex
100
AcDb3dPolylineVertex
 10
30.779448
 20
79.483462
 30
0.0
 70
    32
  0
VERTEX
  5
1FD7
100
AcDbEntity
  8
ALPHA
100
AcDbVertex
100
AcDb3dPolylineVertex
 10
30.752569
 20
79.494685
 30
0.0
 70
    32
  0
VERTEX
  5
1FD8
100
AcDbEntity
  8
ALPHA
100
AcDbVertex
100
AcDb3dPolylineVertex
 10
30.643631
 20
79.537284
 30
0.0
 70
    32
  0
VERTEX
  5
1FD9
100
AcDbEntity
  8
ALPHA
100
AcDbVertex
100
AcDb3dPolylineVertex
 10
30.196516
 20
79.689332
 30
0.0
 70
    32
  0
VERTEX
  5
1FDA
100
AcDbEntity
  8
ALPHA
100
AcDbVertex
100
AcDb3dPolylineVertex
 10
28.317174
 20
80.150716
 30
0.0
 70
    32
  0
VERTEX
  5
1FDB
100
AcDbEntity
  8
ALPHA
100
AcDbVertex
100
AcDb3dPolylineVertex
 10
24.994508
 20
80.6121
 30
0.0
 70
    32
  0
VERTEX
  5
1FDC
100
AcDbEntity
  8
ALPHA
100
AcDbVertex
100
AcDb3dPolylineVertex
 10
20.072716
 20
80.821821
 30
0.0
 70
    32
  0
VERTEX
  5
1FDD
100
AcDbEntity
  8
ALPHA
100
AcDbVertex
100
AcDb3dPolylineVertex
 10
15.581754
 20
80.6121
 30
0.0
 70
    32
  0
VERTEX
  5
1FDE
100
AcDbEntity
  8
ALPHA
100
AcDbVertex
100
AcDb3dPolylineVertex
 10
14.173585
 20
80.397137
 30
0.0
 70
    32
  0
VERTEX
  5
1FDF
100
AcDbEntity
  8
ALPHA
100
AcDbVertex
100
AcDb3dPolylineVertex
 10
13.210947
 20
80.150716
 30
0.0
 70
    32
  0
VERTEX
  5
1FE0
100
AcDbEntity
  8
ALPHA
100
AcDbVertex
100
AcDb3dPolylineVertex
 10
12.609334
 20
79.904295
 30
0.0
 70
    32
  0
VERTEX
  5
1FE1
100
AcDbEntity
  8
ALPHA
100
AcDbVertex
100
AcDb3dPolylineVertex
 10
12.417503
 20
79.790915
 30
0.0
 70
    32
  0
VERTEX
  5
1FE2
100
AcDbEntity
  8
ALPHA
100
AcDbVertex
100
AcDb3dPolylineVertex
 10
12.284238
 20
79.689332
 30
0.0
 70
    32
  0
VERTEX
  5
1FE3
100
AcDbEntity
  8
ALPHA
100
AcDbVertex
100
AcDb3dPolylineVertex
 10
12.198975
 20
79.603477
 30
0.0
 70
    32
  0
VERTEX
  5
1FE4
100
AcDbEntity
  8
ALPHA
100
AcDbVertex
100
AcDb3dPolylineVertex
 10
12.151152
 20
79.537284
 30
0.0
 70
    32
  0
VERTEX
  5
1FE5
100
AcDbEntity
  8
ALPHA
100
AcDbVertex
100
AcDb3dPolylineVertex
 10
12.137979
 20
79.51279
 30
0.0
 70
    32
  0
VERTEX
  5
1FE6
100
AcDbEntity
  8
ALPHA
100
AcDbVertex
100
AcDb3dPolylineVertex
 10
12.130205
 20
79.494685
 30
0.0
 70
    32
  0
VERTEX
  5
1FE7
100
AcDbEntity
  8
ALPHA
100
AcDbVertex
100
AcDb3dPolylineVertex
 10
12.126508
 20
79.483462
 30
0.0
 70
    32
  0
VERTEX
  5
1FE8
100
AcDbEntity
  8
ALPHA
100
AcDbVertex
100
AcDb3dPolylineVertex
 10
12.125569
 20
79.479611
 30
0.0
 70
    32
  0
SEQEND
  5
1FE9
100
AcDbEntity
  8
ALPHA
  0
POLYLINE
  5
1FEA
100
AcDbEntity
  8
ALPHA
100
AcDb2dPolyline
 66
     1
 10
0.0
 20
0.0
 30
0.0
  0
VERTEX
  5
1FEB
100
AcDbEntity
  8
ALPHA
100
AcDbVertex
100
AcDb2dVertex
 10
12.125569
 20
79.479611
 30
0.0
  0
VERTEX
  5
1FEC
100
AcDbEntity
  8
ALPHA
100
AcDbVertex
100
AcDb2dVertex
 10
9.345503
 20
80.344624
 30
0.0
  0
VERTEX
  5
1FED
100
AcDbEntity
  8
ALPHA
100
AcDbVertex
100
AcDb2dVertex
 10
6.93619
 20
80.714915
 30
0.0
  0
VERTEX
  5
1FEE
100
AcDbEntity
  8
ALPHA
100
AcDbVertex
100
AcDb2dVertex
 10
4.897607
 20
80.707419
 30
0.0
  0
VERTEX
  5
1FEF
100
AcDbEntity
  8
ALPHA
100
AcDbVertex
100
AcDb2dVertex
 10
3.22973
 20
80.43907
 30
0.0
  0
VERTEX
  5
1FF0
100
AcDbEntity
  8
ALPHA
100
AcDbVertex
100
AcDb2dVertex
 10
1.932534
 20
80.026803
 30
0.0
  0
VERTEX
  5
1FF1
100
AcDbEntity
  8
ALPHA
100
AcDbVertex
100
AcDb2dVertex
 10
1.005996
 20
79.58755
 30
0.0
  0
VERTEX
  5
1FF2
100
AcDbEntity
  8
ALPHA
100
AcDbVertex
100
AcDb2dVertex
 10
0.450091
 20
79.238247
 30
0.0
  0
VERTEX
  5
1FF3
100
AcDbEntity
  8
ALPHA
100
AcDbVertex
100
AcDb2dVertex
 10
0.311118
 20
79.133869
 30
0.0
  0
VERTEX
  5
1FF4
100
AcDbEntity
  8
ALPHA
100
AcDbVertex
100
AcDb2dVertex
 10
0.276376
 20
79.105642
 30
0.0
  0
VERTEX
  5
1FF5
100
AcDbEntity
  8
ALPHA
100
AcDbVertex
100
AcDb2dVertex
 10
0.26769
 20
79.098319
 30
0.0
  0
VERTEX
  5
1FF6
100
AcDbEntity
  8
ALPHA
100
AcDbVertex
100
AcDb2dVertex
 10
0.264795
 20
79.095828
 30
0.0
  0
SEQEND
  5
1FF7
100
AcDbEntity
  8
ALPHA
  0
POLYLINE
  5
1FF8
100
AcDbEntity
  8
ALPHA
100
AcDb2dPolyline
 66
     1
 10
0.0
 20
0.0
 30
0.0
  0
VERTEX
  5
1FF9
100
AcDbEntity
  8
ALPHA
100
AcDbVertex
100
AcDb2dVertex
 10
0.264795
 20
79.095828
 30
0.0
  0
VERTEX
  5
1FFA
100
AcDbEntity
  8
ALPHA
100
AcDbVertex
100
AcDb2dVertex
 10
0.264795
 20
71.073578
 30
0.0
  0
SEQEND
  5
1FFB
100
AcDbEntity
  8
ALPHA
  0
POLYLINE
  5
1FFC
100
AcDbEntity
  8
ALPHA
100
AcDb2dPolyline
 66
     1
 10
0.0
 20
0.0
 30
0.0
  0
VERTEX
  5
1FFD
100
AcDbEntity
  8
ALPHA
100
AcDbVertex
100
AcDb2dVertex
 10
0.264795
 20
71.073578
 30
0.0
  0
VERTEX
  5
1FFE
100
AcDbEntity
  8
ALPHA
100
AcDbVertex
100
AcDb2dVertex
 10
0.26769
 20
71.071085
 30
0.0
  0
VERTEX
  5
1FFF
100
AcDbEntity
  8
ALPHA
100
AcDbVertex
100
AcDb2dVertex
 10
0.276376
 20
71.063756
 30
0.0
  0
VERTEX
  5
2000
100
AcDbEntity
  8
ALPHA
100
AcDbVertex
100
AcDb2dVertex
 10
0.311118
 20
71.035507
 30
0.0
  0
VERTEX
  5
2001
100
AcDbEntity
  8
ALPHA
100
AcDbVertex
100
AcDb2dVertex
 10
0.450091
 20
70.931043
 30
0.0
  0
VERTEX
  5
2002
100
AcDbEntity
  8
ALPHA
100
AcDbVertex
100
AcDb2dVertex
 10
1.005996
 20
70.581446
 30
0.0
  0
VERTEX
  5
2003
100
AcDbEntity
  8
ALPHA
100
AcDbVertex
100
AcDb2dVertex
 10
1.932534
 20
70.141804
 30
0.0
  0
VERTEX
  5
2004
100
AcDbEntity
  8
ALPHA
100
AcDbVertex
100
AcDb2dVertex
 10
3.22973
 20
69.72913
 30
0.0
  0
VERTEX
  5
2005
100
AcDbEntity
  8
ALPHA
100
AcDbVertex
100
AcDb2dVertex
 10
4.897607
 20
69.460439
 30
0.0
  0
VERTEX
  5
2006
100
AcDbEntity
  8
ALPHA
100
AcDbVertex
100
AcDb2dVertex
 10
6.93619
 20
69.452747
 30
0.0
  0
VERTEX
  5
2007
100
AcDbEntity
  8
ALPHA
100
AcDbVertex
100
AcDb2dVertex
 10
9.345503
 20
69.823068
 30
0.0
  0
VERTEX
  5
2008
100
AcDbEntity
  8
ALPHA
100
AcDbVertex
100
AcDb2dVertex
 10
12.125569
 20
70.688417
 30
0.0
  0
SEQEND
  5
2009
100
AcDbEntity
  8
ALPHA
  0
POLYLINE
  5
200A
100
AcDbEntity
  8
ALPHA
100
AcDb3dPolyline
 66
     1
 10
0.0
 20
0.0
 30
0.0
 70
     8
  0
VERTEX
  5
200B
100
AcDbEntity
  8
ALPHA
100
AcDbVertex
100
AcDb3dPolylineVertex
 10
12.125569
 20
70.688417
 30
0.0
 70
    32
  0
VERTEX
  5
200C
100
AcDbEntity
  8
ALPHA
100
AcDbVertex
100
AcDb3dPolylineVertex
 10
12.126508
 20
70.684562
 30
0.0
 70
    32
  0
VERTEX
  5
200D
100
AcDbEntity
  8
ALPHA
100
AcDbVertex
100
AcDb3dPolylineVertex
 10
12.130205
 20
70.673328
 30
0.0
 70
    32
  0
VERTEX
  5
200E
100
AcDbEntity
  8
ALPHA
100
AcDbVertex
100
AcDb3dPolylineVertex
 10
12.137979
 20
70.655204
 30
0.0
 70
    32
  0
VERTEX
  5
200F
100
AcDbEntity
  8
ALPHA
100
AcDbVertex
100
AcDb3dPolylineVertex
 10
12.151152
 20
70.630684
 30
0.0
 70
    32
  0
VERTEX
  5
2010
100
AcDbEntity
  8
ALPHA
100
AcDbVertex
100
AcDb3dPolylineVertex
 10
12.198975
 20
70.564423
 30
0.0
 70
    32
  0
VERTEX
  5
2011
100
AcDbEntity
  8
ALPHA
100
AcDbVertex
100
AcDb3dPolylineVertex
 10
12.284238
 20
70.478481
 30
0.0
 70
    32
  0
VERTEX
  5
2012
100
AcDbEntity
  8
ALPHA
100
AcDbVertex
100
AcDb3dPolylineVertex
 10
12.417503
 20
70.376794
 30
0.0
 70
    32
  0
VERTEX
  5
2013
100
AcDbEntity
  8
ALPHA
100
AcDbVertex
100
AcDb3dPolylineVertex
 10
12.609334
 20
70.263297
 30
0.0
 70
    32
  0
VERTEX
  5
2014
100
AcDbEntity
  8
ALPHA
100
AcDbVertex
100
AcDb3dPolylineVertex
 10
13.210947
 20
70.016623
 30
0.0
 70
    32
  0
VERTEX
  5
2015
100
AcDbEntity
  8
ALPHA
100
AcDbVertex
100
AcDb3dPolylineVertex
 10
14.173585
 20
69.769949
 30
0.0
 70
    32
  0
VERTEX
  5
2016
100
AcDbEntity
  8
ALPHA
100
AcDbVertex
100
AcDb3dPolylineVertex
 10
15.581754
 20
69.554765
 30
0.0
 70
    32
  0
VERTEX
  5
2017
100
AcDbEntity
  8
ALPHA
100
AcDbVertex
100
AcDb3dPolylineVertex
 10
20.072716
 20
69.344829
 30
0.0
 70
    32
  0
VERTEX
  5
2018
100
AcDbEntity
  8
ALPHA
100
AcDbVertex
100
AcDb3dPolylineVertex
 10
24.994508
 20
69.554765
 30
0.0
 70
    32
  0
VERTEX
  5
2019
100
AcDbEntity
  8
ALPHA
100
AcDbVertex
100
AcDb3dPolylineVertex
 10
28.317174
 20
70.016623
 30
0.0
 70
    32
  0
VERTEX
  5
201A
100
AcDbEntity
  8
ALPHA
100
AcDbVertex
100
AcDb3dPolylineVertex
 10
30.196516
 20
70.478481
 30
0.0
 70
    32
  0
VERTEX
  5
201B
100
AcDbEntity
  8
ALPHA
100
AcDbVertex
100
AcDb3dPolylineVertex
 10
30.643631
 20
70.630684
 30
0.0
 70
    32
  0
VERTEX
  5
201C
100
AcDbEntity
  8
ALPHA
100
AcDbVertex
100
AcDb3dPolylineVertex
 10
30.752569
 20
70.673328
 30
0.0
 70
    32
  0
VERTEX
  5
201D
100
AcDbEntity
  8
ALPHA
100
AcDbVertex
100
AcDb3dPolylineVertex
 10
30.779448
 20
70.684562
 30
0.0
 70
    32
  0
VERTEX
  5
201E
100
AcDbEntity
  8
ALPHA
100
AcDbVertex
100
AcDb3dPolylineVertex
 10
30.788341
 20
70.688417
 30
0.0
 70
    32
  0
SEQEND
  5
201F
100
AcDbEntity
  8
ALPHA
  0
POLYLINE
  5
2020
100
AcDbEntity
  8
ALPHA
100
AcDb2dPolyline
 66
     1
 10
0.0
 20
0.0
 30
0.0
  0
VERTEX
  5
2021
100
AcDbEntity
  8
ALPHA
100
AcDbVertex
100
AcDb2dVertex
 10
30.788341
 20
70.688417
 30
0.0
  0
VERTEX
  5
2022
100
AcDbEntity
  8
ALPHA
100
AcDbVertex
100
AcDb2dVertex
 10
33.559269
 20
69.823068
 30
0.0
  0
VERTEX
  5
2023
100
AcDbEntity
  8
ALPHA
100
AcDbVertex
100
AcDb2dVertex
 10
35.944917
 20
69.452747
 30
0.0
  0
VERTEX
  5
2024
100
AcDbEntity
  8
ALPHA
100
AcDbVertex
100
AcDb2dVertex
 10
37.950161
 20
69.460439
 30
0.0
  0
VERTEX
  5
2025
100
AcDbEntity
  8
ALPHA
100
AcDbVertex
100
AcDb2dVertex
 10
39.57988
 20
69.72913
 30
0.0
  0
VERTEX
  5
2026
100
AcDbEntity
  8
ALPHA
100
AcDbVertex
100
AcDb2dVertex
 10
40.838949
 20
70.141804
 30
0.0
  0
VERTEX
  5
2027
100
AcDbEntity
  8
ALPHA
100
AcDbVertex
100
AcDb2dVertex
 10
41.732246
 20
70.581446
 30
0.0
  0
VERTEX
  5
2028
100
AcDbEntity
  8
ALPHA
100
AcDbVertex
100
AcDb2dVertex
 10
42.264648
 20
70.931043
 30
0.0
  0
VERTEX
  5
2029
100
AcDbEntity
  8
ALPHA
100
AcDbVertex
100
AcDb2dVertex
 10
42.397037
 20
71.035507
 30
0.0
  0
VERTEX
  5
202A
100
AcDbEntity
  8
ALPHA
100
AcDbVertex
100
AcDb2dVertex
 10
42.430046
 20
71.063756
 30
0.0
  0
VERTEX
  5
202B
100
AcDbEntity
  8
ALPHA
100
AcDbVertex
100
AcDb2dVertex
 10
42.438287
 20
71.071085
 30
0.0
  0
VERTEX
  5
202C
100
AcDbEntity
  8
ALPHA
100
AcDbVertex
100
AcDb2dVertex
 10
42.441032
 20
71.073578
 30
0.0
  0
SEQEND
  5
202D
100
AcDbEntity
  8
ALPHA
  0
POLYLINE
  5
202E
100
AcDbEntity
  8
ALPHA
100
AcDb2dPolyline
 66
     1
 10
0.0
 20
0.0
 30
0.0
  0
VERTEX
  5
202F
100
AcDbEntity
  8
ALPHA
100
AcDbVertex
100
AcDb2dVertex
 10
42.441032
 20
71.073578
 30
0.0
  0
VERTEX
  5
2030
100
AcDbEntity
  8
ALPHA
100
AcDbVertex
100
AcDb2dVertex
 10
42.441032
 20
79.095828
 30
0.0
  0
SEQEND
  5
2031
100
AcDbEntity
  8
ALPHA
  0
POLYLINE
  5
2032
100
AcDbEntity
  8
ALPHA
100
AcDb2dPolyline
 66
     1
 10
0.0
 20
0.0
 30
0.0
  0
VERTEX
  5
2033
100
AcDbEntity
  8
ALPHA
100
AcDbVertex
100
AcDb2dVertex
 10
39.318397
 20
69.147081
 30
0.0
  0
VERTEX
  5
2034
100
AcDbEntity
  8
ALPHA
100
AcDbVertex
100
AcDb2dVertex
 10
3.386051
 20
69.199446
 30
0.0
  0
SEQEND
  5
2035
100
AcDbEntity
  8
ALPHA
  0
POLYLINE
  5
2036
100
AcDbEntity
  8
ALPHA
100
AcDb2dPolyline
 66
     1
 10
0.0
 20
0.0
 30
0.0
  0
VERTEX
  5
2037
100
AcDbEntity
  8
ALPHA
100
AcDbVertex
100
AcDb2dVertex
 10
3.386051
 20
69.199446
 30
0.0
  0
VERTEX
  5
2038
100
AcDbEntity
  8
ALPHA
100
AcDbVertex
100
AcDb2dVertex
 10
0.264795
 20
70.968847
 30
0.0
  0
SEQEND
  5
2039
100
AcDbEntity
  8
ALPHA
  0
POLYLINE
  5
203A
100
AcDbEntity
  8
ALPHA
100
AcDb2dPolyline
 66
     1
 10
0.0
 20
0.0
 30
0.0
  0
VERTEX
  5
203B
100
AcDbEntity
  8
ALPHA
100
AcDbVertex
100
AcDb2dVertex
 10
0.264795
 20
70.968847
 30
0.0
  0
VERTEX
  5
203C
100
AcDbEntity
  8
ALPHA
100
AcDbVertex
100
AcDb2dVertex
 10
0.264795
 20
79.216406
 30
0.0
  0
SEQEND
  5
203D
100
AcDbEntity
  8
ALPHA
  0
POLYLINE
  5
203E
100
AcDbEntity
  8
ALPHA
100
AcDb2dPolyline
 66
     1
 10
0.0
 20
0.0
 30
0.0
  0
VERTEX
  5
203F
100
AcDbEntity
  8
ALPHA
100
AcDbVertex
100
AcDb2dVertex
 10
0.264795
 20
79.216406
 30
0.0
  0
VERTEX
  5
2040
100
AcDbEntity
  8
ALPHA
100
AcDbVertex
100
AcDb2dVertex
 10
3.386051
 20
81.08916
 30
0.0
  0
SEQEND
  5
2041
100
AcDbEntity
  8
ALPHA
  0
POLYLINE
  5
2042
100
AcDbEntity
  8
ALPHA
100
AcDb2dPolyline
 66
     1
 10
0.0
 20
0.0
 30
0.0
  0
VERTEX
  5
2043
100
AcDbEntity
  8
ALPHA
100
AcDbVertex
100
AcDb2dVertex
 10
3.386051
 20
81.08916
 30
0.0
  0
VERTEX
  5
2044
100
AcDbEntity
  8
ALPHA
100
AcDbVertex
100
AcDb2dVertex
 10
39.318397
 20
81.08916
 30
0.0
  0
SEQEND
  5
2045
100
AcDbEntity
  8
ALPHA
  0
POLYLINE
  5
2046
100
AcDbEntity
  8
ALPHA
100
AcDb2dPolyline
 66
     1
 10
0.0
 20
0.0
 30
0.0
  0
VERTEX
  5
2047
100
AcDbEntity
  8
ALPHA
100
AcDbVertex
100
AcDb2dVertex
 10
39.318397
 20
81.08916
 30
0.0
  0
VERTEX
  5
2048
100
AcDbEntity
  8
ALPHA
100
AcDbVertex
100
AcDb2dVertex
 10
42.441032
 20
79.216406
 30
0.0
  0
SEQEND
  5
2049
100
AcDbEntity
  8
ALPHA
  0
POLYLINE
  5
204A
100
AcDbEntity
  8
ALPHA
100
AcDb2dPolyline
 66
     1
 10
0.0
 20
0.0
 30
0.0
  0
VERTEX
  5
204B
100
AcDbEntity
  8
ALPHA
100
AcDbVertex
100
AcDb2dVertex
 10
42.441032
 20
79.216406
 30
0.0
  0
VERTEX
  5
204C
100
AcDbEntity
  8
ALPHA
100
AcDbVertex
100
AcDb2dVertex
 10
42.441032
 20
70.968847
 30
0.0
  0
SEQEND
  5
204D
100
AcDbEntity
  8
ALPHA
  0
POLYLINE
  5
204E
100
AcDbEntity
  8
ALPHA
100
AcDb2dPolyline
 66
     1
 10
0.0
 20
0.0
 30
0.0
  0
VERTEX
  5
204F
100
AcDbEntity
  8
ALPHA
100
AcDbVertex
100
AcDb2dVertex
 10
42.441032
 20
70.968847
 30
0.0
  0
VERTEX
  5
2050
100
AcDbEntity
  8
ALPHA
100
AcDbVertex
100
AcDb2dVertex
 10
39.318397
 20
69.147081
 30
0.0
  0
SEQEND
  5
2051
100
AcDbEntity
  8
ALPHA
  0
POLYLINE
  5
2052
100
AcDbEntity
  8
ALPHA
100
AcDb2dPolyline
 66
     1
 10
0.0
 20
0.0
 30
0.0
  0
VERTEX
  5
2053
100
AcDbEntity
  8
ALPHA
100
AcDbVertex
100
AcDb2dVertex
 10
42.441032
 20
93.923519
 30
0.0
  0
VERTEX
  5
2054
100
AcDbEntity
  8
ALPHA
100
AcDbVertex
100
AcDb2dVertex
 10
42.438287
 20
93.926009
 30
0.0
  0
VERTEX
  5
2055
100
AcDbEntity
  8
ALPHA
100
AcDbVertex
100
AcDb2dVertex
 10
42.430046
 20
93.93333
 30
0.0
  0
VERTEX
  5
2056
100
AcDbEntity
  8
ALPHA
100
AcDbVertex
100
AcDb2dVertex
 10
42.397037
 20
93.961545
 30
0.0
  0
VERTEX
  5
2057
100
AcDbEntity
  8
ALPHA
100
AcDbVertex
100
AcDb2dVertex
 10
42.264648
 20
94.065882
 30
0.0
  0
VERTEX
  5
2058
100
AcDbEntity
  8
ALPHA
100
AcDbVertex
100
AcDb2dVertex
 10
41.732246
 20
94.415048
 30
0.0
  0
VERTEX
  5
2059
100
AcDbEntity
  8
ALPHA
100
AcDbVertex
100
AcDb2dVertex
 10
40.838949
 20
94.85413
 30
0.0
  0
VERTEX
  5
205A
100
AcDbEntity
  8
ALPHA
100
AcDbVertex
100
AcDb2dVertex
 10
39.57988
 20
95.266245
 30
0.0
  0
VERTEX
  5
205B
100
AcDbEntity
  8
ALPHA
100
AcDbVertex
100
AcDb2dVertex
 10
37.950161
 20
95.534505
 30
0.0
  0
VERTEX
  5
205C
100
AcDbEntity
  8
ALPHA
100
AcDbVertex
100
AcDb2dVertex
 10
35.944917
 20
95.542025
 30
0.0
  0
VERTEX
  5
205D
100
AcDbEntity
  8
ALPHA
100
AcDbVertex
100
AcDb2dVertex
 10
33.559269
 20
95.171919
 30
0.0
  0
VERTEX
  5
205E
100
AcDbEntity
  8
ALPHA
100
AcDbVertex
100
AcDb2dVertex
 10
30.788341
 20
94.307302
 30
0.0
  0
SEQEND
  5
205F
100
AcDbEntity
  8
ALPHA
  0
POLYLINE
  5
2060
100
AcDbEntity
  8
ALPHA
100
AcDb3dPolyline
 66
     1
 10
0.0
 20
0.0
 30
0.0
 70
     8
  0
VERTEX
  5
2061
100
AcDbEntity
  8
ALPHA
100
AcDbVertex
100
AcDb3dPolylineVertex
 10
30.788341
 20
94.307302
 30
0.0
 70
    32
  0
VERTEX
  5
2062
100
AcDbEntity
  8
ALPHA
100
AcDbVertex
100
AcDb3dPolylineVertex
 10
30.779448
 20
94.311159
 30
0.0
 70
    32
  0
VERTEX
  5
2063
100
AcDbEntity
  8
ALPHA
100
AcDbVertex
100
AcDb3dPolylineVertex
 10
30.752569
 20
94.322399
 30
0.0
 70
    32
  0
VERTEX
  5
2064
100
AcDbEntity
  8
ALPHA
100
AcDbVertex
100
AcDb3dPolylineVertex
 10
30.643631
 20
94.365064
 30
0.0
 70
    32
  0
VERTEX
  5
2065
100
AcDbEntity
  8
ALPHA
100
AcDbVertex
100
AcDb3dPolylineVertex
 10
30.196516
 20
94.517345
 30
0.0
 70
    32
  0
VERTEX
  5
2066
100
AcDbEntity
  8
ALPHA
100
AcDbVertex
100
AcDb3dPolylineVertex
 10
28.317174
 20
94.97944
 30
0.0
 70
    32
  0
VERTEX
  5
2067
100
AcDbEntity
  8
ALPHA
100
AcDbVertex
100
AcDb3dPolylineVertex
 10
24.994508
 20
95.441535
 30
0.0
 70
    32
  0
VERTEX
  5
2068
100
AcDbEntity
  8
ALPHA
100
AcDbVertex
100
AcDb3dPolylineVertex
 10
20.072716
 20
95.651579
 30
0.0
 70
    32
  0
VERTEX
  5
2069
100
AcDbEntity
  8
ALPHA
100
AcDbVertex
100
AcDb3dPolylineVertex
 10
15.581754
 20
95.441535
 30
0.0
 70
    32
  0
VERTEX
  5
206A
100
AcDbEntity
  8
ALPHA
100
AcDbVertex
100
AcDb3dPolylineVertex
 10
14.173585
 20
95.226241
 30
0.0
 70
    32
  0
VERTEX
  5
206B
100
AcDbEntity
  8
ALPHA
100
AcDbVertex
100
AcDb3dPolylineVertex
 10
13.210947
 20
94.97944
 30
0.0
 70
    32
  0
VERTEX
  5
206C
100
AcDbEntity
  8
ALPHA
100
AcDbVertex
100
AcDb3dPolylineVertex
 10
12.609334
 20
94.73264
 30
0.0
 70
    32
  0
VERTEX
  5
206D
100
AcDbEntity
  8
ALPHA
100
AcDbVertex
100
AcDb3dPolylineVertex
 10
12.417503
 20
94.619085
 30
0.0
 70
    32
  0
VERTEX
  5
206E
100
AcDbEntity
  8
ALPHA
100
AcDbVertex
100
AcDb3dPolylineVertex
 10
12.284238
 20
94.517345
 30
0.0
 70
    32
  0
VERTEX
  5
206F
100
AcDbEntity
  8
ALPHA
100
AcDbVertex
100
AcDb3dPolylineVertex
 10
12.198975
 20
94.431359
 30
0.0
 70
    32
  0
VERTEX
  5
2070
100
AcDbEntity
  8
ALPHA
100
AcDbVertex
100
AcDb3dPolylineVertex
 10
12.151152
 20
94.365064
 30
0.0
 70
    32
  0
VERTEX
  5
2071
100
AcDbEntity
  8
ALPHA
100
AcDbVertex
100
AcDb3dPolylineVertex
 10
12.137979
 20
94.340532
 30
0.0
 70
    32
  0
VERTEX
  5
2072
100
AcDbEntity
  8
ALPHA
100
AcDbVertex
100
AcDb3dPolylineVertex
 10
12.130205
 20
94.322399
 30
0.0
 70
    32
  0
VERTEX
  5
2073
100
AcDbEntity
  8
ALPHA
100
AcDbVertex
100
AcDb3dPolylineVertex
 10
12.126508
 20
94.311159
 30
0.0
 70
    32
  0
VERTEX
  5
2074
100
AcDbEntity
  8
ALPHA
100
AcDbVertex
100
AcDb3dPolylineVertex
 10
12.125569
 20
94.307302
 30
0.0
 70
    32
  0
SEQEND
  5
2075
100
AcDbEntity
  8
ALPHA
  0
POLYLINE
  5
2076
100
AcDbEntity
  8
ALPHA
100
AcDb2dPolyline
 66
     1
 10
0.0
 20
0.0
 30
0.0
  0
VERTEX
  5
2077
100
AcDbEntity
  8
ALPHA
100
AcDbVertex
100
AcDb2dVertex
 10
12.125569
 20
94.307302
 30
0.0
  0
VERTEX
  5
2078
100
AcDbEntity
  8
ALPHA
100
AcDbVertex
100
AcDb2dVertex
 10
9.345503
 20
95.171919
 30
0.0
  0
VERTEX
  5
2079
100
AcDbEntity
  8
ALPHA
100
AcDbVertex
100
AcDb2dVertex
 10
6.93619
 20
95.542025
 30
0.0
  0
VERTEX
  5
207A
100
AcDbEntity
  8
ALPHA
100
AcDbVertex
100
AcDb2dVertex
 10
4.897607
 20
95.534505
 30
0.0
  0
VERTEX
  5
207B
100
AcDbEntity
  8
ALPHA
100
AcDbVertex
100
AcDb2dVertex
 10
3.22973
 20
95.266245
 30
0.0
  0
VERTEX
  5
207C
100
AcDbEntity
  8
ALPHA
100
AcDbVertex
100
AcDb2dVertex
 10
1.932534
 20
94.85413
 30
0.0
  0
VERTEX
  5
207D
100
AcDbEntity
  8
ALPHA
100
AcDbVertex
100
AcDb2dVertex
 10
1.005996
 20
94.415048
 30
0.0
  0
VERTEX
  5
207E
100
AcDbEntity
  8
ALPHA
100
AcDbVertex
100
AcDb2dVertex
 10
0.450091
 20
94.065882
 30
0.0
  0
VERTEX
  5
207F
100
AcDbEntity
  8
ALPHA
100
AcDbVertex
100
AcDb2dVertex
 10
0.311118
 20
93.961545
 30
0.0
  0
VERTEX
  5
2080
100
AcDbEntity
  8
ALPHA
100
AcDbVertex
100
AcDb2dVertex
 10
0.276376
 20
93.93333
 30
0.0
  0
VERTEX
  5
2081
100
AcDbEntity
  8
ALPHA
100
AcDbVertex
100
AcDb2dVertex
 10
0.26769
 20
93.926009
 30
0.0
  0
VERTEX
  5
2082
100
AcDbEntity
  8
ALPHA
100
AcDbVertex
100
AcDb2dVertex
 10
0.264795
 20
93.923519
 30
0.0
  0
SEQEND
  5
2083
100
AcDbEntity
  8
ALPHA
  0
POLYLINE
  5
2084
100
AcDbEntity
  8
ALPHA
100
AcDb2dPolyline
 66
     1
 10
0.0
 20
0.0
 30
0.0
  0
VERTEX
  5
2085
100
AcDbEntity
  8
ALPHA
100
AcDbVertex
100
AcDb2dVertex
 10
0.264795
 20
93.923519
 30
0.0
  0
VERTEX
  5
2086
100
AcDbEntity
  8
ALPHA
100
AcDbVertex
100
AcDb2dVertex
 10
0.264795
 20
85.899891
 30
0.0
  0
SEQEND
  5
2087
100
AcDbEntity
  8
ALPHA
  0
POLYLINE
  5
2088
100
AcDbEntity
  8
ALPHA
100
AcDb2dPolyline
 66
     1
 10
0.0
 20
0.0
 30
0.0
  0
VERTEX
  5
2089
100
AcDbEntity
  8
ALPHA
100
AcDbVertex
100
AcDb2dVertex
 10
0.264795
 20
85.899891
 30
0.0
  0
VERTEX
  5
208A
100
AcDbEntity
  8
ALPHA
100
AcDbVertex
100
AcDb2dVertex
 10
0.26769
 20
85.8974
 30
0.0
  0
VERTEX
  5
208B
100
AcDbEntity
  8
ALPHA
100
AcDbVertex
100
AcDb2dVertex
 10
0.276376
 20
85.890077
 30
0.0
  0
VERTEX
  5
208C
100
AcDbEntity
  8
ALPHA
100
AcDbVertex
100
AcDb2dVertex
 10
0.311118
 20
85.86185
 30
0.0
  0
VERTEX
  5
208D
100
AcDbEntity
  8
ALPHA
100
AcDbVertex
100
AcDb2dVertex
 10
0.450091
 20
85.757473
 30
0.0
  0
VERTEX
  5
208E
100
AcDbEntity
  8
ALPHA
100
AcDbVertex
100
AcDb2dVertex
 10
1.005996
 20
85.408179
 30
0.0
  0
VERTEX
  5
208F
100
AcDbEntity
  8
ALPHA
100
AcDbVertex
100
AcDb2dVertex
 10
1.932534
 20
84.968952
 30
0.0
  0
VERTEX
  5
2090
100
AcDbEntity
  8
ALPHA
100
AcDbVertex
100
AcDb2dVertex
 10
3.22973
 20
84.556735
 30
0.0
  0
VERTEX
  5
2091
100
AcDbEntity
  8
ALPHA
100
AcDbVertex
100
AcDb2dVertex
 10
4.897607
 20
84.288468
 30
0.0
  0
VERTEX
  5
2092
100
AcDbEntity
  8
ALPHA
100
AcDbVertex
100
AcDb2dVertex
 10
6.93619
 20
84.281095
 30
0.0
  0
VERTEX
  5
2093
100
AcDbEntity
  8
ALPHA
100
AcDbVertex
100
AcDb2dVertex
 10
9.345503
 20
84.651557
 30
0.0
  0
VERTEX
  5
2094
100
AcDbEntity
  8
ALPHA
100
AcDbVertex
100
AcDb2dVertex
 10
12.125569
 20
85.516797
 30
0.0
  0
SEQEND
  5
2095
100
AcDbEntity
  8
ALPHA
  0
POLYLINE
  5
2096
100
AcDbEntity
  8
ALPHA
100
AcDb3dPolyline
 66
     1
 10
0.0
 20
0.0
 30
0.0
 70
     8
  0
VERTEX
  5
2097
100
AcDbEntity
  8
ALPHA
100
AcDbVertex
100
AcDb3dPolylineVertex
 10
12.125569
 20
85.516797
 30
0.0
 70
    32
  0
VERTEX
  5
2098
100
AcDbEntity
  8
ALPHA
100
AcDbVertex
100
AcDb3dPolylineVertex
 10
12.126508
 20
85.51294
 30
0.0
 70
    32
  0
VERTEX
  5
2099
100
AcDbEntity
  8
ALPHA
100
AcDbVertex
100
AcDb3dPolylineVertex
 10
12.130205
 20
85.5017
 30
0.0
 70
    32
  0
VERTEX
  5
209A
100
AcDbEntity
  8
ALPHA
100
AcDbVertex
100
AcDb3dPolylineVertex
 10
12.137979
 20
85.483567
 30
0.0
 70
    32
  0
VERTEX
  5
209B
100
AcDbEntity
  8
ALPHA
100
AcDbVertex
100
AcDb3dPolylineVertex
 10
12.151152
 20
85.459035
 30
0.0
 70
    32
  0
VERTEX
  5
209C
100
AcDbEntity
  8
ALPHA
100
AcDbVertex
100
AcDb3dPolylineVertex
 10
12.198975
 20
85.39274
 30
0.0
 70
    32
  0
VERTEX
  5
209D
100
AcDbEntity
  8
ALPHA
100
AcDbVertex
100
AcDb3dPolylineVertex
 10
12.284238
 20
85.306753
 30
0.0
 70
    32
  0
VERTEX
  5
209E
100
AcDbEntity
  8
ALPHA
100
AcDbVertex
100
AcDb3dPolylineVertex
 10
12.417503
 20
85.205014
 30
0.0
 70
    32
  0
VERTEX
  5
209F
100
AcDbEntity
  8
ALPHA
100
AcDbVertex
100
AcDb3dPolylineVertex
 10
12.609334
 20
85.091459
 30
0.0
 70
    32
  0
VERTEX
  5
20A0
100
AcDbEntity
  8
ALPHA
100
AcDbVertex
100
AcDb3dPolylineVertex
 10
13.210947
 20
84.844659
 30
0.0
 70
    32
  0
VERTEX
  5
20A1
100
AcDbEntity
  8
ALPHA
100
AcDbVertex
100
AcDb3dPolylineVertex
 10
14.173585
 20
84.597858
 30
0.0
 70
    32
  0
VERTEX
  5
20A2
100
AcDbEntity
  8
ALPHA
100
AcDbVertex
100
AcDb3dPolylineVertex
 10
15.581754
 20
84.382564
 30
0.0
 70
    32
  0
VERTEX
  5
20A3
100
AcDbEntity
  8
ALPHA
100
AcDbVertex
100
AcDb3dPolylineVertex
 10
20.072716
 20
84.17252
 30
0.0
 70
    32
  0
VERTEX
  5
20A4
100
AcDbEntity
  8
ALPHA
100
AcDbVertex
100
AcDb3dPolylineVertex
 10
24.994508
 20
84.382564
 30
0.0
 70
    32
  0
VERTEX
  5
20A5
100
AcDbEntity
  8
ALPHA
100
AcDbVertex
100
AcDb3dPolylineVertex
 10
28.317174
 20
84.844659
 30
0.0
 70
    32
  0
VERTEX
  5
20A6
100
AcDbEntity
  8
ALPHA
100
AcDbVertex
100
AcDb3dPolylineVertex
 10
30.196516
 20
85.306753
 30
0.0
 70
    32
  0
VERTEX
  5
20A7
100
AcDbEntity
  8
ALPHA
100
AcDbVertex
100
AcDb3dPolylineVertex
 10
30.643631
 20
85.459035
 30
0.0
 70
    32
  0
VERTEX
  5
20A8
100
AcDbEntity
  8
ALPHA
100
AcDbVertex
100
AcDb3dPolylineVertex
 10
30.752569
 20
85.5017
 30
0.0
 70
    32
  0
VERTEX
  5
20A9
100
AcDbEntity
  8
ALPHA
100
AcDbVertex
100
AcDb3dPolylineVertex
 10
30.779448
 20
85.51294
 30
0.0
 70
    32
  0
VERTEX
  5
20AA
100
AcDbEntity
  8
ALPHA
100
AcDbVertex
100
AcDb3dPolylineVertex
 10
30.788341
 20
85.516797
 30
0.0
 70
    32
  0
SEQEND
  5
20AB
100
AcDbEntity
  8
ALPHA
  0
POLYLINE
  5
20AC
100
AcDbEntity
  8
ALPHA
100
AcDb2dPolyline
 66
     1
 10
0.0
 20
0.0
 30
0.0
  0
VERTEX
  5
20AD
100
AcDbEntity
  8
ALPHA
100
AcDbVertex
100
AcDb2dVertex
 10
30.788341
 20
85.516797
 30
0.0
  0
VERTEX
  5
20AE
100
AcDbEntity
  8
ALPHA
100
AcDbVertex
100
AcDb2dVertex
 10
33.559269
 20
84.651557
 30
0.0
  0
VERTEX
  5
20AF
100
AcDbEntity
  8
ALPHA
100
AcDbVertex
100
AcDb2dVertex
 10
35.944917
 20
84.281095
 30
0.0
  0
VERTEX
  5
20B0
100
AcDbEntity
  8
ALPHA
100
AcDbVertex
100
AcDb2dVertex
 10
37.950161
 20
84.288468
 30
0.0
  0
VERTEX
  5
20B1
100
AcDbEntity
  8
ALPHA
100
AcDbVertex
100
AcDb2dVertex
 10
39.57988
 20
84.556735
 30
0.0
  0
VERTEX
  5
20B2
100
AcDbEntity
  8
ALPHA
100
AcDbVertex
100
AcDb2dVertex
 10
40.838949
 20
84.968952
 30
0.0
  0
VERTEX
  5
20B3
100
AcDbEntity
  8
ALPHA
100
AcDbVertex
100
AcDb2dVertex
 10
41.732246
 20
85.408179
 30
0.0
  0
VERTEX
  5
20B4
100
AcDbEntity
  8
ALPHA
100
AcDbVertex
100
AcDb2dVertex
 10
42.264648
 20
85.757473
 30
0.0
  0
VERTEX
  5
20B5
100
AcDbEntity
  8
ALPHA
100
AcDbVertex
100
AcDb2dVertex
 10
42.397037
 20
85.86185
 30
0.0
  0
VERTEX
  5
20B6
100
AcDbEntity
  8
ALPHA
100
AcDbVertex
100
AcDb2dVertex
 10
42.430046
 20
85.890077
 30
0.0
  0
VERTEX
  5
20B7
100
AcDbEntity
  8
ALPHA
100
AcDbVertex
100
AcDb2dVertex
 10
42.438287
 20
85.8974
 30
0.0
  0
VERTEX
  5
20B8
100
AcDbEntity
  8
ALPHA
100
AcDbVertex
100
AcDb2dVertex
 10
42.441032
 20
85.899891
 30
0.0
  0
SEQEND
  5
20B9
100
AcDbEntity
  8
ALPHA
  0
POLYLINE
  5
20BA
100
AcDbEntity
  8
ALPHA
100
AcDb2dPolyline
 66
     1
 10
0.0
 20
0.0
 30
0.0
  0
VERTEX
  5
20BB
100
AcDbEntity
  8
ALPHA
100
AcDbVertex
100
AcDb2dVertex
 10
42.441032
 20
85.899891
 30
0.0
  0
VERTEX
  5
20BC
100
AcDbEntity
  8
ALPHA
100
AcDbVertex
100
AcDb2dVertex
 10
42.441032
 20
93.923519
 30
0.0
  0
SEQEND
  5
20BD
100
AcDbEntity
  8
ALPHA
  0
POLYLINE
  5
20BE
100
AcDbEntity
  8
ALPHA
100
AcDb2dPolyline
 66
     1
 10
0.0
 20
0.0
 30
0.0
  0
VERTEX
  5
20BF
100
AcDbEntity
  8
ALPHA
100
AcDbVertex
100
AcDb2dVertex
 10
39.318397
 20
83.975461
 30
0.0
  0
VERTEX
  5
20C0
100
AcDbEntity
  8
ALPHA
100
AcDbVertex
100
AcDb2dVertex
 10
3.386051
 20
84.027137
 30
0.0
  0
SEQEND
  5
20C1
100
AcDbEntity
  8
ALPHA
  0
POLYLINE
  5
20C2
100
AcDbEntity
  8
ALPHA
100
AcDb2dPolyline
 66
     1
 10
0.0
 20
0.0
 30
0.0
  0
VERTEX
  5
20C3
100
AcDbEntity
  8
ALPHA
100
AcDbVertex
100
AcDb2dVertex
 10
3.386051
 20
84.027137
 30
0.0
  0
VERTEX
  5
20C4
100
AcDbEntity
  8
ALPHA
100
AcDbVertex
100
AcDb2dVertex
 10
0.264795
 20
85.796538
 30
0.0
  0
SEQEND
  5
20C5
100
AcDbEntity
  8
ALPHA
  0
POLYLINE
  5
20C6
100
AcDbEntity
  8
ALPHA
100
AcDb2dPolyline
 66
     1
 10
0.0
 20
0.0
 30
0.0
  0
VERTEX
  5
20C7
100
AcDbEntity
  8
ALPHA
100
AcDbVertex
100
AcDb2dVertex
 10
0.264795
 20
85.796538
 30
0.0
  0
VERTEX
  5
20C8
100
AcDbEntity
  8
ALPHA
100
AcDbVertex
100
AcDb2dVertex
 10
0.264795
 20
94.044786
 30
0.0
  0
SEQEND
  5
20C9
100
AcDbEntity
  8
ALPHA
  0
POLYLINE
  5
20CA
100
AcDbEntity
  8
ALPHA
100
AcDb2dPolyline
 66
     1
 10
0.0
 20
0.0
 30
0.0
  0
VERTEX
  5
20CB
100
AcDbEntity
  8
ALPHA
100
AcDbVertex
100
AcDb2dVertex
 10
0.264795
 20
94.044786
 30
0.0
  0
VERTEX
  5
20CC
100
AcDbEntity
  8
ALPHA
100
AcDbVertex
100
AcDb2dVertex
 10
3.386051
 20
95.91754
 30
0.0
  0
SEQEND
  5
20CD
100
AcDbEntity
  8
ALPHA
  0
POLYLINE
  5
20CE
100
AcDbEntity
  8
ALPHA
100
AcDb2dPolyline
 66
     1
 10
0.0
 20
0.0
 30
0.0
  0
VERTEX
  5
20CF
100
AcDbEntity
  8
ALPHA
100
AcDbVertex
100
AcDb2dVertex
 10
3.386051
 20
95.91754
 30
0.0
  0
VERTEX
  5
20D0
100
AcDbEntity
  8
ALPHA
100
AcDbVertex
100
AcDb2dVertex
 10
39.318397
 20
95.91754
 30
0.0
  0
SEQEND
  5
20D1
100
AcDbEntity
  8
ALPHA
  0
POLYLINE
  5
20D2
100
AcDbEntity
  8
ALPHA
100
AcDb2dPolyline
 66
     1
 10
0.0
 20
0.0
 30
0.0
  0
VERTEX
  5
20D3
100
AcDbEntity
  8
ALPHA
100
AcDbVertex
100
AcDb2dVertex
 10
39.318397
 20
95.91754
 30
0.0
  0
VERTEX
  5
20D4
100
AcDbEntity
  8
ALPHA
100
AcDbVertex
100
AcDb2dVertex
 10
42.441032
 20
94.044786
 30
0.0
  0
SEQEND
  5
20D5
100
AcDbEntity
  8
ALPHA
  0
POLYLINE
  5
20D6
100
AcDbEntity
  8
ALPHA
100
AcDb2dPolyline
 66
     1
 10
0.0
 20
0.0
 30
0.0
  0
VERTEX
  5
20D7
100
AcDbEntity
  8
ALPHA
100
AcDbVertex
100
AcDb2dVertex
 10
42.441032
 20
94.044786
 30
0.0
  0
VERTEX
  5
20D8
100
AcDbEntity
  8
ALPHA
100
AcDbVertex
100
AcDb2dVertex
 10
42.441032
 20
85.796538
 30
0.0
  0
SEQEND
  5
20D9
100
AcDbEntity
  8
ALPHA
  0
POLYLINE
  5
20DA
100
AcDbEntity
  8
ALPHA
100
AcDb2dPolyline
 66
     1
 10
0.0
 20
0.0
 30
0.0
  0
VERTEX
  5
20DB
100
AcDbEntity
  8
ALPHA
100
AcDbVertex
100
AcDb2dVertex
 10
42.441032
 20
85.796538
 30
0.0
  0
VERTEX
  5
20DC
100
AcDbEntity
  8
ALPHA
100
AcDbVertex
100
AcDb2dVertex
 10
39.318397
 20
83.975461
 30
0.0
  0
SEQEND
  5
20DD
100
AcDbEntity
  8
ALPHA
  0
POLYLINE
  5
20DE
100
AcDbEntity
  8
ALPHA
100
AcDb2dPolyline
 66
     1
 10
0.0
 20
0.0
 30
0.0
  0
VERTEX
  5
20DF
100
AcDbEntity
  8
ALPHA
100
AcDbVertex
100
AcDb2dVertex
 10
6.254438
 20
69.199446
 30
0.0
  0
VERTEX
  5
20E0
100
AcDbEntity
  8
ALPHA
100
AcDbVertex
100
AcDb2dVertex
 10
6.254438
 20
50.039892
 30
0.0
  0
SEQEND
  5
20E1
100
AcDbEntity
  8
ALPHA
  0
POLYLINE
  5
20E2
100
AcDbEntity
  8
ALPHA
100
AcDb2dPolyline
 66
     1
 10
0.0
 20
0.0
 30
0.0
  0
VERTEX
  5
20E3
100
AcDbEntity
  8
ALPHA
100
AcDbVertex
100
AcDb2dVertex
 10
6.254438
 20
50.039892
 30
0.0
  0
VERTEX
  5
20E4
100
AcDbEntity
  8
ALPHA
100
AcDbVertex
100
AcDb2dVertex
 10
36.251573
 20
50.039892
 30
0.0
  0
SEQEND
  5
20E5
100
AcDbEntity
  8
ALPHA
  0
POLYLINE
  5
20E6
100
AcDbEntity
  8
ALPHA
100
AcDb2dPolyline
 66
     1
 10
0.0
 20
0.0
 30
0.0
  0
VERTEX
  5
20E7
100
AcDbEntity
  8
ALPHA
100
AcDbVertex
100
AcDb2dVertex
 10
36.251573
 20
50.039892
 30
0.0
  0
VERTEX
  5
20E8
100
AcDbEntity
  8
ALPHA
100
AcDbVertex
100
AcDb2dVertex
 10
36.251573
 20
69.147081
 30
0.0
  0
SEQEND
  5
20E9
100
AcDbEntity
  8
ALPHA
  0
POLYLINE
  5
20EA
100
AcDbEntity
  8
ALPHA
100
AcDb2dPolyline
 66
     1
 10
0.0
 20
0.0
 30
0.0
  0
VERTEX
  5
20EB
100
AcDbEntity
  8
ALPHA
100
AcDbVertex
100
AcDb2dVertex
 10
36.251573
 20
95.91754
 30
0.0
  0
VERTEX
  5
20EC
100
AcDbEntity
  8
ALPHA
100
AcDbVertex
100
AcDb2dVertex
 10
36.251573
 20
107.040375
 30
0.0
  0
SEQEND
  5
20ED
100
AcDbEntity
  8
ALPHA
  0
POLYLINE
  5
20EE
100
AcDbEntity
  8
ALPHA
100
AcDb2dPolyline
 66
     1
 10
0.0
 20
0.0
 30
0.0
  0
VERTEX
  5
20EF
100
AcDbEntity
  8
ALPHA
100
AcDbVertex
100
AcDb2dVertex
 10
36.251573
 20
107.040375
 30
0.0
  0
VERTEX
  5
20F0
100
AcDbEntity
  8
ALPHA
100
AcDbVertex
100
AcDb2dVertex
 10
6.254438
 20
107.040375
 30
0.0
  0
SEQEND
  5
20F1
100
AcDbEntity
  8
ALPHA
  0
POLYLINE
  5
20F2
100
AcDbEntity
  8
ALPHA
100
AcDb2dPolyline
 66
     1
 10
0.0
 20
0.0
 30
0.0
  0
VERTEX
  5
20F3
100
AcDbEntity
  8
ALPHA
100
AcDbVertex
100
AcDb2dVertex
 10
6.254438
 20
107.040375
 30
0.0
  0
VERTEX
  5
20F4
100
AcDbEntity
  8
ALPHA
100
AcDbVertex
100
AcDb2dVertex
 10
6.254438
 20
95.91754
 30
0.0
  0
SEQEND
  5
20F5
100
AcDbEntity
  8
ALPHA
  0
POLYLINE
  5
20F6
100
AcDbEntity
  8
ALPHA
100
AcDb2dPolyline
 66
     1
 10
0.0
 20
0.0
 30
0.0
  0
VERTEX
  5
20F7
100
AcDbEntity
  8
ALPHA
100
AcDbVertex
100
AcDb2dVertex
 10
33.231602
 20
50.039892
 30
0.0
  0
VERTEX
  5
20F8
100
AcDbEntity
  8
ALPHA
100
AcDbVertex
100
AcDb2dVertex
 10
33.231602
 20
26.039979
 30
0.0
  0
SEQEND
  5
20F9
100
AcDbEntity
  8
ALPHA
  0
POLYLINE
  5
20FA
100
AcDbEntity
  8
ALPHA
100
AcDb2dPolyline
 66
     1
 10
0.0
 20
0.0
 30
0.0
  0
VERTEX
  5
20FB
100
AcDbEntity
  8
ALPHA
100
AcDbVertex
100
AcDb2dVertex
 10
33.231602
 20
26.039979
 30
0.0
  0
VERTEX
  5
20FC
100
AcDbEntity
  8
ALPHA
100
AcDbVertex
100
AcDb2dVertex
 10
9.276475
 20
26.039979
 30
0.0
  0
SEQEND
  5
20FD
100
AcDbEntity
  8
ALPHA
  0
POLYLINE
  5
20FE
100
AcDbEntity
  8
ALPHA
100
AcDb2dPolyline
 66
     1
 10
0.0
 20
0.0
 30
0.0
  0
VERTEX
  5
20FF
100
AcDbEntity
  8
ALPHA
100
AcDbVertex
100
AcDb2dVertex
 10
9.276475
 20
26.039979
 30
0.0
  0
VERTEX
  5
2100
100
AcDbEntity
  8
ALPHA
100
AcDbVertex
100
AcDb2dVertex
 10
9.276475
 20
50.172873
 30
0.0
  0
SEQEND
  5
2101
100
AcDbEntity
  8
ALPHA
  0
POLYLINE
  5
2102
100
AcDbEntity
  8
ALPHA
100
AcDb2dPolyline
 66
     1
 10
0.0
 20
0.0
 30
0.0
  0
VERTEX
  5
2103
100
AcDbEntity
  8
ALPHA
100
AcDbVertex
100
AcDb2dVertex
 10
22.055713
 20
26.026199
 30
0.0
  0
VERTEX
  5
2104
100
AcDbEntity
  8
ALPHA
100
AcDbVertex
100
AcDb2dVertex
 10
22.055713
 20
1.599094
 30
0.0
  0
SEQEND
  5
2105
100
AcDbEntity
  8
ALPHA
  0
POLYLINE
  5
2106
100
AcDbEntity
  8
ALPHA
100
AcDb2dPolyline
 66
     1
 10
0.0
 20
0.0
 30
0.0
  0
VERTEX
  5
2107
100
AcDbEntity
  8
ALPHA
100
AcDbVertex
100
AcDb2dVertex
 10
22.055713
 20
1.599094
 30
0.0
  0
VERTEX
  5
2108
100
AcDbEntity
  8
ALPHA
100
AcDbVertex
100
AcDb2dVertex
 10
22.057051
 20
1.590022
 30
0.0
  0
VERTEX
  5
2109
100
AcDbEntity
  8
ALPHA
100
AcDbVertex
100
AcDb2dVertex
 10
22.061431
 20
1.563977
 30
0.0
  0
VERTEX
  5
210A
100
AcDbEntity
  8
ALPHA
100
AcDbVertex
100
AcDb2dVertex
 10
22.0815
 20
1.467993
 30
0.0
  0
VERTEX
  5
210B
100
AcDbEntity
  8
ALPHA
100
AcDbVertex
100
AcDb2dVertex
 10
22.182169
 20
1.149606
 30
0.0
  0
VERTEX
  5
210C
100
AcDbEntity
  8
ALPHA
100
AcDbVertex
100
AcDb2dVertex
 10
22.271511
 20
0.955296
 30
0.0
  0
VERTEX
  5
210D
100
AcDbEntity
  8
ALPHA
100
AcDbVertex
100
AcDb2dVertex
 10
22.392683
 20
0.756304
 30
0.0
  0
VERTEX
  5
210E
100
AcDbEntity
  8
ALPHA
100
AcDbVertex
100
AcDb2dVertex
 10
22.550058
 20
0.566676
 30
0.0
  0
VERTEX
  5
210F
100
AcDbEntity
  8
ALPHA
100
AcDbVertex
100
AcDb2dVertex
 10
22.643687
 20
0.479763
 30
0.0
  0
VERTEX
  5
2110
100
AcDbEntity
  8
ALPHA
100
AcDbVertex
100
AcDb2dVertex
 10
22.748005
 20
0.400459
 30
0.0
  0
VERTEX
  5
2111
100
AcDbEntity
  8
ALPHA
100
AcDbVertex
100
AcDb2dVertex
 10
22.863558
 20
0.330519
 30
0.0
  0
VERTEX
  5
2112
100
AcDbEntity
  8
ALPHA
100
AcDbVertex
100
AcDb2dVertex
 10
22.990894
 20
0.271699
 30
0.0
  0
VERTEX
  5
2113
100
AcDbEntity
  8
ALPHA
100
AcDbVertex
100
AcDb2dVertex
 10
23.130557
 20
0.225756
 30
0.0
  0
VERTEX
  5
2114
100
AcDbEntity
  8
ALPHA
100
AcDbVertex
100
AcDb2dVertex
 10
23.283095
 20
0.194444
 30
0.0
  0
VERTEX
  5
2115
100
AcDbEntity
  8
ALPHA
100
AcDbVertex
100
AcDb2dVertex
 10
23.449054
 20
0.179519
 30
0.0
  0
VERTEX
  5
2116
100
AcDbEntity
  8
ALPHA
100
AcDbVertex
100
AcDb2dVertex
 10
23.62898
 20
0.182738
 30
0.0
  0
VERTEX
  5
2117
100
AcDbEntity
  8
ALPHA
100
AcDbVertex
100
AcDb2dVertex
 10
23.823419
 20
0.205856
 30
0.0
  0
VERTEX
  5
2118
100
AcDbEntity
  8
ALPHA
100
AcDbVertex
100
AcDb2dVertex
 10
24.032918
 20
0.25063
 30
0.0
  0
VERTEX
  5
2119
100
AcDbEntity
  8
ALPHA
100
AcDbVertex
100
AcDb2dVertex
 10
24.499279
 20
0.412164
 30
0.0
  0
VERTEX
  5
211A
100
AcDbEntity
  8
ALPHA
100
AcDbVertex
100
AcDb2dVertex
 10
25.032434
 20
0.681389
 30
0.0
  0
VERTEX
  5
211B
100
AcDbEntity
  8
ALPHA
100
AcDbVertex
100
AcDb2dVertex
 10
26.316607
 20
1.599094
 30
0.0
  0
SEQEND
  5
211C
100
AcDbEntity
  8
ALPHA
  0
POLYLINE
  5
211D
100
AcDbEntity
  8
ALPHA
100
AcDb2dPolyline
 66
     1
 10
0.0
 20
0.0
 30
0.0
  0
VERTEX
  5
211E
100
AcDbEntity
  8
ALPHA
100
AcDbVertex
100
AcDb2dVertex
 10
26.316607
 20
1.599094
 30
0.0
  0
VERTEX
  5
211F
100
AcDbEntity
  8
ALPHA
100
AcDbVertex
100
AcDb2dVertex
 10
27.539395
 20
0.865167
 30
0.0
  0
VERTEX
  5
2120
100
AcDbEntity
  8
ALPHA
100
AcDbVertex
100
AcDb2dVertex
 10
28.054491
 20
0.649857
 30
0.0
  0
VERTEX
  5
2121
100
AcDbEntity
  8
ALPHA
100
AcDbVertex
100
AcDb2dVertex
 10
28.50997
 20
0.520671
 30
0.0
  0
VERTEX
  5
2122
100
AcDbEntity
  8
ALPHA
100
AcDbVertex
100
AcDb2dVertex
 10
28.909267
 20
0.466376
 30
0.0
  0
VERTEX
  5
2123
100
AcDbEntity
  8
ALPHA
100
AcDbVertex
100
AcDb2dVertex
 10
29.255817
 20
0.475737
 30
0.0
  0
VERTEX
  5
2124
100
AcDbEntity
  8
ALPHA
100
AcDbVertex
100
AcDb2dVertex
 10
29.410386
 20
0.500778
 30
0.0
  0
VERTEX
  5
2125
100
AcDbEntity
  8
ALPHA
100
AcDbVertex
100
AcDb2dVertex
 10
29.553057
 20
0.537522
 30
0.0
  0
VERTEX
  5
2126
100
AcDbEntity
  8
ALPHA
100
AcDbVertex
100
AcDb2dVertex
 10
29.684259
 20
0.584562
 30
0.0
  0
VERTEX
  5
2127
100
AcDbEntity
  8
ALPHA
100
AcDbVertex
100
AcDb2dVertex
 10
29.804421
 20
0.640496
 30
0.0
  0
VERTEX
  5
2128
100
AcDbEntity
  8
ALPHA
100
AcDbVertex
100
AcDb2dVertex
 10
30.013347
 20
0.773426
 30
0.0
  0
VERTEX
  5
2129
100
AcDbEntity
  8
ALPHA
100
AcDbVertex
100
AcDb2dVertex
 10
30.183269
 20
0.92508
 30
0.0
  0
VERTEX
  5
212A
100
AcDbEntity
  8
ALPHA
100
AcDbVertex
100
AcDb2dVertex
 10
30.317623
 20
1.084222
 30
0.0
  0
VERTEX
  5
212B
100
AcDbEntity
  8
ALPHA
100
AcDbVertex
100
AcDb2dVertex
 10
30.419845
 20
1.23962
 30
0.0
  0
VERTEX
  5
212C
100
AcDbEntity
  8
ALPHA
100
AcDbVertex
100
AcDb2dVertex
 10
30.541634
 20
1.494247
 30
0.0
  0
VERTEX
  5
212D
100
AcDbEntity
  8
ALPHA
100
AcDbVertex
100
AcDb2dVertex
 10
30.568073
 20
1.57101
 30
0.0
  0
VERTEX
  5
212E
100
AcDbEntity
  8
ALPHA
100
AcDbVertex
100
AcDb2dVertex
 10
30.574182
 20
1.591839
 30
0.0
  0
VERTEX
  5
212F
100
AcDbEntity
  8
ALPHA
100
AcDbVertex
100
AcDb2dVertex
 10
30.576123
 20
1.599094
 30
0.0
  0
SEQEND
  5
2130
100
AcDbEntity
  8
ALPHA
  0
POLYLINE
  5
2131
100
AcDbEntity
  8
ALPHA
100
AcDb2dPolyline
 66
     1
 10
0.0
 20
0.0
 30
0.0
  0
VERTEX
  5
2132
100
AcDbEntity
  8
ALPHA
100
AcDbVertex
100
AcDb2dVertex
 10
30.576123
 20
1.599094
 30
0.0
  0
VERTEX
  5
2133
100
AcDbEntity
  8
ALPHA
100
AcDbVertex
100
AcDb2dVertex
 10
30.576123
 20
26.026199
 30
0.0
  0
SEQEND
  5
2134
100
AcDbEntity
  8
ALPHA
  0
DIMENSION
  5
2141
100
AcDbEntity
  8
COTATION1
100
AcDbDimension
  2
*D7
 10
36.251573
 20
113.443039
 30
0.0
 11
21.253005
 21
115.693039
 31
0.0
 70
    32
  1
M<>x1.5
  3
SC_STAND
100
AcDbAlignedDimension
 13
6.254438
 23
107.040375
 33
0.0
 14
36.251573
 24
107.040375
 34
0.0
100
AcDbRotatedDimension
  0
DIMENSION
  5
216F
100
AcDbEntity
  8
COTATION1
100
AcDbDimension
  2
*D8
 10
50.449898
 20
50.039892
 30
0.0
 11
48.199898
 21
78.540134
 31
0.0
 70
    32
  3
SC_STAND
100
AcDbAlignedDimension
 13
31.7023
 23
107.040375
 33
0.0
 14
36.251573
 24
50.039892
 34
0.0
 50
90.0
100
AcDbRotatedDimension
  0
DIMENSION
  5
217C
100
AcDbEntity
  8
COTATION1
100
AcDbDimension
  2
*D9
 10
60.448617
 20
26.039979
 30
0.0
 11
58.198617
 21
66.540177
 31
0.0
 70
    32
  3
SC_STAND
100
AcDbAlignedDimension
 13
46.387918
 23
107.040375
 33
0.0
 14
33.231602
 24
26.039979
 34
0.0
 50
90.0
100
AcDbRotatedDimension
  0
ENDSEC
  0
SECTION
  2
OBJECTS
  0
DICTIONARY
  5
F8
100
AcDbDictionary
  3
ACAD_GROUP
350
F9
  3
ACAD_MLINESTYLE
350
106
  3
ACDBVARIABLEDICTIONARY
350
143
  0
DICTIONARY
  5
F9
102
{ACAD_REACTORS
330
F8
102
}
100
AcDbDictionary
  0
DICTIONARY
  5
106
102
{ACAD_REACTORS
330
F8
102
}
100
AcDbDictionary
  3
STANDARD
350
107
  0
DICTIONARY
  5
143
102
{ACAD_REACTORS
330
F8
102
}
100
AcDbDictionary
  3
DIMADEC
350
144
  0
MLINESTYLE
  5
107
102
{ACAD_REACTORS
330
106
102
}
100
AcDbMlineStyle
  2
STANDARD
 70
     0
  3

 62
   256
 51
90.0
 52
90.0
 71
     2
 49
0.5
 62
   256
  6
BYLAYER
 49
-0.5
 62
   256
  6
BYLAYER
  0
DICTIONARYVAR
  5
144
102
{ACAD_REACTORS
330
143
102
}
100
DictionaryVariables
280
     0
  1
0
  0
ENDSEC
  0
EOF
