  0
SECTION
  2
HEADER
  9
$ACADVER
  1
AC1014
  9
$ACADMAINTVER
 70
     0
  9
$DWGCODEPAGE
  3
ANSI_1252
  9
$INSBASE
 10
141.151361
 20
109.337454
 30
0.0
  9
$EXTMIN
 10
92.571788
 20
68.1349
 30
0.0
  9
$EXTMAX
 10
177.81919
 20
128.259956
 30
0.0
  9
$LIMMIN
 10
0.0
 20
0.0
  9
$LIMMAX
 10
210.0
 20
297.0
  9
$ORTHOMODE
 70
     1
  9
$REGENMODE
 70
     1
  9
$FILLMODE
 70
     1
  9
$QTEXTMODE
 70
     0
  9
$MIRRTEXT
 70
     1
  9
$DRAGMODE
 70
     2
  9
$LTSCALE
 40
7.0
  9
$OSMODE
 70
     0
  9
$ATTMODE
 70
     1
  9
$TEXTSIZE
 40
0.2
  9
$TRACEWID
 40
0.05
  9
$TEXTSTYLE
  7
STANDARD
  9
$CLAYER
  8
COTATION1
  9
$CELTYPE
  6
BYLAYER
  9
$CECOLOR
 62
   256
  9
$CELTSCALE
 40
1.0
  9
$DELOBJ
 70
     1
  9
$DISPSILH
 70
     0
  9
$DIMSCALE
 40
1.0
  9
$DIMASZ
 40
3.0
  9
$DIMEXO
 40
0.0625
  9
$DIMDLI
 40
0.38
  9
$DIMRND
 40
0.01
  9
$DIMDLE
 40
0.0
  9
$DIMEXE
 40
0.18
  9
$DIMTP
 40
0.0
  9
$DIMTM
 40
0.0
  9
$DIMTXT
 40
2.5
  9
$DIMCEN
 40
0.09
  9
$DIMTSZ
 40
0.0
  9
$DIMTOL
 70
     0
  9
$DIMLIM
 70
     0
  9
$DIMTIH
 70
     0
  9
$DIMTOH
 70
     0
  9
$DIMSE1
 70
     0
  9
$DIMSE2
 70
     0
  9
$DIMTAD
 70
     1
  9
$DIMZIN
 70
    12
  9
$DIMBLK
  1

  9
$DIMASO
 70
     1
  9
$DIMSHO
 70
     1
  9
$DIMPOST
  1

  9
$DIMAPOST
  1

  9
$DIMALT
 70
     0
  9
$DIMALTD
 70
     2
  9
$DIMALTF
 40
25.4
  9
$DIMLFAC
 40
1.0
  9
$DIMTOFL
 70
     1
  9
$DIMTVP
 40
0.0
  9
$DIMTIX
 70
     0
  9
$DIMSOXD
 70
     0
  9
$DIMSAH
 70
     0
  9
$DIMBLK1
  1

  9
$DIMBLK2
  1

  9
$DIMSTYLE
  2
SC_STAND
  9
$DIMCLRD
 70
     0
  9
$DIMCLRE
 70
     0
  9
$DIMCLRT
 70
     0
  9
$DIMTFAC
 40
1.0
  9
$DIMGAP
 40
1.0
  9
$DIMJUST
 70
     0
  9
$DIMSD1
 70
     0
  9
$DIMSD2
 70
     0
  9
$DIMTOLJ
 70
     1
  9
$DIMTZIN
 70
     0
  9
$DIMALTZ
 70
     0
  9
$DIMALTTZ
 70
     0
  9
$DIMFIT
 70
     3
  9
$DIMUPT
 70
     0
  9
$DIMUNIT
 70
     2
  9
$DIMDEC
 70
     4
  9
$DIMTDEC
 70
     4
  9
$DIMALTU
 70
     2
  9
$DIMALTTD
 70
     2
  9
$DIMTXSTY
  7
STANDARD
  9
$DIMAUNIT
 70
     0
  9
$LUNITS
 70
     2
  9
$LUPREC
 70
     4
  9
$SKETCHINC
 40
0.1
  9
$FILLETRAD
 40
0.0
  9
$AUNITS
 70
     0
  9
$AUPREC
 70
     0
  9
$MENU
  1
acad
  9
$ELEVATION
 40
0.0
  9
$PELEVATION
 40
0.0
  9
$THICKNESS
 40
0.0
  9
$LIMCHECK
 70
     0
  9
$BLIPMODE
 70
     1
  9
$CHAMFERA
 40
0.0
  9
$CHAMFERB
 40
0.0
  9
$CHAMFERC
 40
0.0
  9
$CHAMFERD
 40
0.0
  9
$SKPOLY
 70
     0
  9
$TDCREATE
 40
2451086.437365995
  9
$TDUPDATE
 40
2451387.874925381
  9
$TDINDWG
 40
0.0000217593
  9
$TDUSRTIMER
 40
0.0000217593
  9
$USRTIMER
 70
     1
  9
$ANGBASE
 50
0.0
  9
$ANGDIR
 70
     0
  9
$PDMODE
 70
     0
  9
$PDSIZE
 40
0.0
  9
$PLINEWID
 40
0.0
  9
$COORDS
 70
     1
  9
$SPLFRAME
 70
     0
  9
$SPLINETYPE
 70
     6
  9
$SPLINESEGS
 70
     8
  9
$ATTDIA
 70
     0
  9
$ATTREQ
 70
     1
  9
$HANDLING
 70
     1
  9
$HANDSEED
  5
373
  9
$SURFTAB1
 70
     6
  9
$SURFTAB2
 70
     6
  9
$SURFTYPE
 70
     6
  9
$SURFU
 70
     6
  9
$SURFV
 70
     6
  9
$UCSNAME
  2

  9
$UCSORG
 10
0.0
 20
0.0
 30
0.0
  9
$UCSXDIR
 10
1.0
 20
0.0
 30
0.0
  9
$UCSYDIR
 10
0.0
 20
1.0
 30
0.0
  9
$PUCSNAME
  2

  9
$PUCSORG
 10
0.0
 20
0.0
 30
0.0
  9
$PUCSXDIR
 10
1.0
 20
0.0
 30
0.0
  9
$PUCSYDIR
 10
0.0
 20
1.0
 30
0.0
  9
$USERI1
 70
     0
  9
$USERI2
 70
     0
  9
$USERI3
 70
     0
  9
$USERI4
 70
     0
  9
$USERI5
 70
     0
  9
$USERR1
 40
0.0
  9
$USERR2
 40
0.0
  9
$USERR3
 40
0.0
  9
$USERR4
 40
0.0
  9
$USERR5
 40
0.0
  9
$WORLDVIEW
 70
     1
  9
$SHADEDGE
 70
     3
  9
$SHADEDIF
 70
    70
  9
$TILEMODE
 70
     1
  9
$MAXACTVP
 70
    16
  9
$PINSBASE
 10
0.0
 20
0.0
 30
0.0
  9
$PLIMCHECK
 70
     0
  9
$PEXTMIN
 10
1.000000E+20
 20
1.000000E+20
 30
1.000000E+20
  9
$PEXTMAX
 10
-1.000000E+20
 20
-1.000000E+20
 30
-1.000000E+20
  9
$PLIMMIN
 10
0.0
 20
0.0
  9
$PLIMMAX
 10
12.0
 20
9.0
  9
$UNITMODE
 70
     0
  9
$VISRETAIN
 70
     0
  9
$PLINEGEN
 70
     0
  9
$PSLTSCALE
 70
     1
  9
$TREEDEPTH
 70
  3020
  9
$PICKSTYLE
 70
     1
  9
$CMLSTYLE
  2
STANDARD
  9
$CMLJUST
 70
     0
  9
$CMLSCALE
 40
1.0
  9
$PROXYGRAPHICS
 70
     1
  9
$MEASUREMENT
 70
     0
  0
ENDSEC
  0
SECTION
  2
CLASSES
  0
ENDSEC
  0
SECTION
  2
TABLES
  0
TABLE
  2
VPORT
  5
347
100
AcDbSymbolTable
 70
     1
  0
VPORT
  5
36E
100
AcDbSymbolTableRecord
100
AcDbViewportTableRecord
  2
*ACTIVE
 70
     0
 10
0.0
 20
0.0
 11
1.0
 21
1.0
 12
248.151316
 22
148.5
 13
0.0
 23
0.0
 14
1.0
 24
1.0
 15
0.0
 25
0.0
 16
0.0
 26
0.0
 36
1.0
 17
0.0
 27
0.0
 37
0.0
 40
297.0
 41
1.671053
 42
50.0
 43
0.0
 44
0.0
 50
0.0
 51
0.0
 71
     0
 72
   100
 73
     1
 74
     1
 75
     0
 76
     0
 77
     0
 78
     0
  0
ENDTAB
  0
TABLE
  2
LTYPE
  5
344
100
AcDbSymbolTable
 70
     2
  0
LTYPE
  5
351
100
AcDbSymbolTableRecord
100
AcDbLinetypeTableRecord
  2
BYBLOCK
 70
     0
  3

 72
    65
 73
     0
 40
0.0
  0
LTYPE
  5
352
100
AcDbSymbolTableRecord
100
AcDbLinetypeTableRecord
  2
BYLAYER
 70
     0
  3

 72
    65
 73
     0
 40
0.0
  0
LTYPE
  5
353
100
AcDbSymbolTableRecord
100
AcDbLinetypeTableRecord
  2
CONTINUOUS
 70
     0
  3
Solid line
 72
    65
 73
     0
 40
0.0
  0
LTYPE
  5
35F
100
AcDbSymbolTableRecord
100
AcDbLinetypeTableRecord
  2
AXES2
 70
     0
  3
___ _ ___ _ ___ _ ___ _ ___ _ ___ _ ___ _ ___ _
 72
    65
 73
     4
 40
1.125
 49
0.75
 74
     0
 49
-0.125
 74
     0
 49
0.125
 74
     0
 49
-0.125
 74
     0
  0
ENDTAB
  0
TABLE
  2
LAYER
  5
341
100
AcDbSymbolTable
 70
     5
  0
LAYER
  5
34D
100
AcDbSymbolTableRecord
100
AcDbLayerTableRecord
  2
0
 70
     0
 62
     7
  6
CONTINUOUS
  0
LAYER
  5
35E
100
AcDbSymbolTableRecord
100
AcDbLayerTableRecord
  2
COTATION1
 70
     0
 62
     2
  6
CONTINUOUS
  0
LAYER
  5
360
100
AcDbSymbolTableRecord
100
AcDbLayerTableRecord
  2
AXE
 70
     0
 62
    80
  6
AXES2
  0
LAYER
  5
361
100
AcDbSymbolTableRecord
100
AcDbLayerTableRecord
  2
ALPHA
 70
     0
 62
   255
  6
CONTINUOUS
  0
LAYER
  5
362
100
AcDbSymbolTableRecord
100
AcDbLayerTableRecord
  2
DEFPOINTS
 70
     0
 62
     7
  6
CONTINUOUS
  0
ENDTAB
  0
TABLE
  2
STYLE
  5
342
100
AcDbSymbolTable
 70
     2
  0
STYLE
  5
34E
100
AcDbSymbolTableRecord
100
AcDbTextStyleTableRecord
  2
STANDARD
 70
     0
 40
0.0
 41
1.0
 50
0.0
 71
     0
 42
0.2
  3
txt
  4

  0
STYLE
  5
363
100
AcDbSymbolTableRecord
100
AcDbTextStyleTableRecord
  2
ROMANS
 70
     0
 40
0.0
 41
1.0
 50
0.0
 71
     0
 42
2.9
  3
romans.shx
  4

  0
ENDTAB
  0
TABLE
  2
VIEW
  5
345
100
AcDbSymbolTable
 70
     0
  0
ENDTAB
  0
TABLE
  2
UCS
  5
346
100
AcDbSymbolTable
 70
     0
  0
ENDTAB
  0
TABLE
  2
APPID
  5
348
100
AcDbSymbolTable
 70
     1
  0
APPID
  5
34F
100
AcDbSymbolTableRecord
100
AcDbRegAppTableRecord
  2
ACAD
 70
     0
  0
ENDTAB
  0
TABLE
  2
DIMSTYLE
  5
349
100
AcDbSymbolTable
 70
     1
  0
DIMSTYLE
105
364
102
{ACAD_REACTORS
330
1F
330
2D
102
}
100
AcDbSymbolTableRecord
100
AcDbDimStyleTableRecord
  2
SC_STAND
 70
     0
  3

  4

  5

  6

  7

 40
1.0
 41
3.0
 42
0.0625
 43
0.38
 44
0.18
 45
0.01
 46
0.0
 47
0.0
 48
0.0
140
2.5
141
0.09
142
0.0
143
25.4
144
1.0
145
0.0
146
1.0
147
1.0
 71
     0
 72
     0
 73
     0
 74
     0
 75
     0
 76
     0
 77
     1
 78
    12
170
     0
171
     2
172
     1
173
     0
174
     0
175
     0
176
     0
177
     0
178
     0
270
     2
271
     4
272
     4
273
     2
274
     2
340
34E
275
     0
280
     0
281
     0
282
     0
283
     1
284
     0
285
     0
286
     0
287
     3
288
     0
  0
ENDTAB
  0
TABLE
  2
BLOCK_RECORD
  5
340
100
AcDbSymbolTable
 70
     4
  0
BLOCK_RECORD
  5
357
100
AcDbSymbolTableRecord
100
AcDbBlockTableRecord
  2
*MODEL_SPACE
  0
BLOCK_RECORD
  5
354
100
AcDbSymbolTableRecord
100
AcDbBlockTableRecord
  2
*PAPER_SPACE
  0
BLOCK_RECORD
  5
366
100
AcDbSymbolTableRecord
100
AcDbBlockTableRecord
  2
$MODEL_SPACE
  0
BLOCK_RECORD
  5
368
100
AcDbSymbolTableRecord
100
AcDbBlockTableRecord
  2
$PAPER_SPACE
  0
BLOCK_RECORD
  5
36A
100
AcDbSymbolTableRecord
100
AcDbBlockTableRecord
  2
*D2
  0
BLOCK_RECORD
  5
36C
100
AcDbSymbolTableRecord
100
AcDbBlockTableRecord
  2
*D3
  0
ENDTAB
  0
ENDSEC
  0
SECTION
  2
BLOCKS
  0
BLOCK
  5
358
100
AcDbEntity
  8
0
100
AcDbBlockBegin
  2
*MODEL_SPACE
 70
     0
 10
0.0
 20
0.0
 30
0.0
  3
*MODEL_SPACE
  1

  0
ENDBLK
  5
359
100
AcDbEntity
  8
0
100
AcDbBlockEnd
  0
BLOCK
  5
355
100
AcDbEntity
 67
     1
  8
0
100
AcDbBlockBegin
  2
*PAPER_SPACE
 70
     0
 10
0.0
 20
0.0
 30
0.0
  3
*PAPER_SPACE
  1

  0
ENDBLK
  5
356
100
AcDbEntity
 67
     1
  8
0
100
AcDbBlockEnd
  0
BLOCK
  5
367
100
AcDbEntity
  8
0
100
AcDbBlockBegin
  2
$MODEL_SPACE
 70
     0
 10
0.0
 20
0.0
 30
0.0
  3
$MODEL_SPACE
  1

  0
ENDBLK
  5
7
100
AcDbEntity
  8
0
100
AcDbBlockEnd
  0
BLOCK
  5
369
100
AcDbEntity
  8
0
100
AcDbBlockBegin
  2
$PAPER_SPACE
 70
     0
 10
0.0
 20
0.0
 30
0.0
  3
$PAPER_SPACE
  1

  0
ENDBLK
  5
A
100
AcDbEntity
  8
0
100
AcDbBlockEnd
  0
BLOCK
  5
36B
100
AcDbEntity
  8
0
100
AcDbBlockBegin
  2
*D2
 70
     1
 10
0.0
 20
0.0
 30
0.0
  3
*D2
  1
AVE_GLOBAL
  0
LINE
  5
2F
100
AcDbEntity
  8
0
  6
BYBLOCK
 62
     0
100
AcDbLine
 10
110.507322
 20
87.647456
 30
0.0
 11
110.507322
 21
70.129861
 31
0.0
  0
LINE
  5
30
100
AcDbEntity
  8
0
  6
BYBLOCK
 62
     0
100
AcDbLine
 10
165.707322
 20
100.313482
 30
0.0
 11
165.707322
 21
70.129861
 31
0.0
  0
LINE
  5
31
100
AcDbEntity
  8
0
  6
BYBLOCK
 62
     0
100
AcDbLine
 10
113.507322
 20
70.309861
 30
0.0
 11
162.707322
 21
70.309861
 31
0.0
  0
SOLID
  5
32
100
AcDbEntity
  8
0
  6
BYBLOCK
 62
     0
100
AcDbTrace
 10
113.507322
 20
70.809861
 30
0.0
 11
113.507322
 21
69.809861
 31
0.0
 12
110.507322
 22
70.309861
 32
0.0
 13
110.507322
 23
70.309861
 33
0.0
  0
SOLID
  5
33
100
AcDbEntity
  8
0
  6
BYBLOCK
 62
     0
100
AcDbTrace
 10
162.707322
 20
70.809861
 30
0.0
 11
162.707322
 21
69.809861
 31
0.0
 12
165.707322
 22
70.309861
 32
0.0
 13
165.707322
 23
70.309861
 33
0.0
  0
TEXT
  5
33E
100
AcDbEntity
  8
0
 62
     0
100
AcDbText
 10
133.107
 20
68.1349
 30
0.0
 40
2.5
  1
55.2
  7
ROMANS
100
AcDbText
  0
POINT
  5
35
100
AcDbEntity
  8
DEFPOINTS
  6
BYBLOCK
 62
     0
100
AcDbPoint
 10
110.507322
 20
87.709956
 30
0.0
  0
POINT
  5
36
100
AcDbEntity
  8
DEFPOINTS
  6
BYBLOCK
 62
     0
100
AcDbPoint
 10
165.707322
 20
100.375982
 30
0.0
  0
POINT
  5
37
100
AcDbEntity
  8
DEFPOINTS
  6
BYBLOCK
 62
     0
100
AcDbPoint
 10
165.707322
 20
70.309861
 30
0.0
  0
ENDBLK
  5
39
100
AcDbEntity
  8
0
100
AcDbBlockEnd
  0
BLOCK
  5
36D
100
AcDbEntity
  8
0
100
AcDbBlockBegin
  2
*D3
 70
     1
 10
0.0
 20
0.0
 30
0.0
  3
*D3
  1
AVE_GLOBAL
  0
LINE
  5
21
100
AcDbEntity
  8
0
  6
BYBLOCK
 62
     0
100
AcDbLine
 10
153.969822
 20
88.509956
 30
0.0
 11
177.272993
 21
88.509956
 31
0.0
  0
LINE
  5
22
100
AcDbEntity
  8
0
  6
BYBLOCK
 62
     0
100
AcDbLine
 10
158.769822
 20
122.309956
 30
0.0
 11
177.272993
 21
122.309956
 31
0.0
  0
LINE
  5
23
100
AcDbEntity
  8
0
  6
BYBLOCK
 62
     0
100
AcDbLine
 10
177.092993
 20
91.509956
 30
0.0
 11
177.092993
 21
119.309956
 31
0.0
  0
SOLID
  5
24
100
AcDbEntity
  8
0
  6
BYBLOCK
 62
     0
100
AcDbTrace
 10
176.592993
 20
91.509956
 30
0.0
 11
177.592993
 21
91.509956
 31
0.0
 12
177.092993
 22
88.509956
 32
0.0
 13
177.092993
 23
88.509956
 33
0.0
  0
SOLID
  5
25
100
AcDbEntity
  8
0
  6
BYBLOCK
 62
     0
100
AcDbTrace
 10
176.592993
 20
119.309956
 30
0.0
 11
177.592993
 21
119.309956
 31
0.0
 12
177.092993
 22
122.309956
 32
0.0
 13
177.092993
 23
122.309956
 33
0.0
  0
TEXT
  5
33F
100
AcDbEntity
  8
0
 62
     0
100
AcDbText
 10
169.843
 20
100.985
 30
0.0
 40
2.5
  1
33.8
  7
ROMANS
100
AcDbText
  0
POINT
  5
27
100
AcDbEntity
  8
DEFPOINTS
  6
BYBLOCK
 62
     0
100
AcDbPoint
 10
153.907322
 20
88.509956
 30
0.0
  0
POINT
  5
29
100
AcDbEntity
  8
DEFPOINTS
  6
BYBLOCK
 62
     0
100
AcDbPoint
 10
158.707322
 20
122.309956
 30
0.0
  0
POINT
  5
2A
100
AcDbEntity
  8
DEFPOINTS
  6
BYBLOCK
 62
     0
100
AcDbPoint
 10
177.092993
 20
122.309956
 30
0.0
  0
ENDBLK
  5
2C
100
AcDbEntity
  8
0
100
AcDbBlockEnd
  0
ENDSEC
  0
SECTION
  2
ENTITIES
  0
DIMENSION
  5
1F
100
AcDbEntity
  8
COTATION1
100
AcDbDimension
  2
*D3
 10
177.092993
 20
122.309956
 30
0.0
 11
174.842993
 21
105.409956
 31
0.0
  3
SC_STAND
100
AcDbAlignedDimension
 13
153.907322
 23
88.509956
 33
0.0
 14
158.707322
 24
122.309956
 34
0.0
 50
90.0
100
AcDbRotatedDimension
  0
DIMENSION
  5
2D
100
AcDbEntity
  8
COTATION1
100
AcDbDimension
  2
*D2
 10
165.707322
 20
70.309861
 30
0.0
 11
138.107322
 21
72.559861
 31
0.0
  3
SC_STAND
100
AcDbAlignedDimension
 13
110.507322
 23
87.709956
 33
0.0
 14
165.707322
 24
100.375982
 34
0.0
100
AcDbRotatedDimension
  0
LINE
  5
3A
100
AcDbEntity
  8
AXE
100
AcDbLine
 10
113.377322
 20
91.143931
 30
0.0
 11
113.377322
 21
87.960605
 31
0.0
  0
POLYLINE
  5
3D
100
AcDbEntity
  8
AXE
100
AcDb2dPolyline
 66
     1
 10
0.0
 20
0.0
 30
0.0
  0
VERTEX
  5
24E
100
AcDbEntity
  8
AXE
100
AcDbVertex
100
AcDb2dVertex
 10
113.377322
 20
92.442946
 30
0.0
  0
VERTEX
  5
24F
100
AcDbEntity
  8
AXE
100
AcDbVertex
100
AcDb2dVertex
 10
113.377322
 20
92.182475
 30
0.0
  0
VERTEX
  5
250
100
AcDbEntity
  8
AXE
100
AcDbVertex
100
AcDb2dVertex
 10
113.377322
 20
91.929919
 30
0.0
  0
VERTEX
  5
251
100
AcDbEntity
  8
AXE
100
AcDbVertex
100
AcDb2dVertex
 10
113.377322
 20
91.692952
 30
0.0
  0
VERTEX
  5
252
100
AcDbEntity
  8
AXE
100
AcDbVertex
100
AcDb2dVertex
 10
113.377322
 20
91.478776
 30
0.0
  0
VERTEX
  5
253
100
AcDbEntity
  8
AXE
100
AcDbVertex
100
AcDb2dVertex
 10
113.377322
 20
91.293896
 30
0.0
  0
VERTEX
  5
254
100
AcDbEntity
  8
AXE
100
AcDbVertex
100
AcDb2dVertex
 10
113.377322
 20
91.143931
 30
0.0
  0
SEQEND
  5
255
100
AcDbEntity
  8
AXE
  0
LINE
  5
46
100
AcDbEntity
  8
AXE
100
AcDbLine
 10
113.377322
 20
121.109895
 30
0.0
 11
113.377322
 21
92.442946
 31
0.0
  0
POLYLINE
  5
47
100
AcDbEntity
  8
AXE
100
AcDb2dPolyline
 66
     1
 10
0.0
 20
0.0
 30
0.0
  0
VERTEX
  5
256
100
AcDbEntity
  8
AXE
100
AcDbVertex
100
AcDb2dVertex
 10
113.377322
 20
123.109957
 30
0.0
  0
VERTEX
  5
257
100
AcDbEntity
  8
AXE
100
AcDbVertex
100
AcDb2dVertex
 10
113.377322
 20
123.071867
 30
0.0
  0
VERTEX
  5
258
100
AcDbEntity
  8
AXE
100
AcDbVertex
100
AcDb2dVertex
 10
113.377322
 20
122.959049
 30
0.0
  0
VERTEX
  5
259
100
AcDbEntity
  8
AXE
100
AcDbVertex
100
AcDb2dVertex
 10
113.377322
 20
122.775799
 30
0.0
  0
VERTEX
  5
25A
100
AcDbEntity
  8
AXE
100
AcDbVertex
100
AcDb2dVertex
 10
113.377322
 20
122.52417
 30
0.0
  0
VERTEX
  5
25B
100
AcDbEntity
  8
AXE
100
AcDbVertex
100
AcDb2dVertex
 10
113.377322
 20
122.222548
 30
0.0
  0
VERTEX
  5
25C
100
AcDbEntity
  8
AXE
100
AcDbVertex
100
AcDb2dVertex
 10
113.377322
 20
121.878547
 30
0.0
  0
VERTEX
  5
25D
100
AcDbEntity
  8
AXE
100
AcDbVertex
100
AcDb2dVertex
 10
113.377322
 20
121.505271
 30
0.0
  0
VERTEX
  5
25E
100
AcDbEntity
  8
AXE
100
AcDbVertex
100
AcDb2dVertex
 10
113.377322
 20
121.109896
 30
0.0
  0
SEQEND
  5
25F
100
AcDbEntity
  8
AXE
  0
POLYLINE
  5
52
100
AcDbEntity
  8
AXE
100
AcDb2dPolyline
 66
     1
 10
0.0
 20
0.0
 30
0.0
  0
VERTEX
  5
260
100
AcDbEntity
  8
AXE
100
AcDbVertex
100
AcDb2dVertex
 10
113.377322
 20
123.143253
 30
0.0
  0
VERTEX
  5
261
100
AcDbEntity
  8
AXE
100
AcDbVertex
100
AcDb2dVertex
 10
113.377322
 20
123.133178
 30
0.0
  0
VERTEX
  5
262
100
AcDbEntity
  8
AXE
100
AcDbVertex
100
AcDb2dVertex
 10
113.377322
 20
123.124902
 30
0.0
  0
VERTEX
  5
263
100
AcDbEntity
  8
AXE
100
AcDbVertex
100
AcDb2dVertex
 10
113.377322
 20
123.118435
 30
0.0
  0
VERTEX
  5
264
100
AcDbEntity
  8
AXE
100
AcDbVertex
100
AcDb2dVertex
 10
113.377322
 20
123.113786
 30
0.0
  0
VERTEX
  5
265
100
AcDbEntity
  8
AXE
100
AcDbVertex
100
AcDb2dVertex
 10
113.377322
 20
123.110959
 30
0.0
  0
VERTEX
  5
266
100
AcDbEntity
  8
AXE
100
AcDbVertex
100
AcDb2dVertex
 10
113.377322
 20
123.109957
 30
0.0
  0
SEQEND
  5
267
100
AcDbEntity
  8
AXE
  0
LINE
  5
5B
100
AcDbEntity
  8
AXE
100
AcDbLine
 10
113.377322
 20
123.809634
 30
0.0
 11
113.377322
 21
123.143253
 31
0.0
  0
POLYLINE
  5
5C
100
AcDbEntity
  8
AXE
100
AcDb2dPolyline
 66
     1
 10
0.0
 20
0.0
 30
0.0
  0
VERTEX
  5
268
100
AcDbEntity
  8
AXE
100
AcDbVertex
100
AcDb2dVertex
 10
113.377322
 20
123.809633
 30
0.0
  0
VERTEX
  5
269
100
AcDbEntity
  8
AXE
100
AcDbVertex
100
AcDb2dVertex
 10
113.377322
 20
123.827985
 30
0.0
  0
VERTEX
  5
26A
100
AcDbEntity
  8
AXE
100
AcDbVertex
100
AcDb2dVertex
 10
113.377322
 20
123.839101
 30
0.0
  0
VERTEX
  5
26B
100
AcDbEntity
  8
AXE
100
AcDbVertex
100
AcDb2dVertex
 10
113.377322
 20
123.842928
 30
0.0
  0
VERTEX
  5
26C
100
AcDbEntity
  8
AXE
100
AcDbVertex
100
AcDb2dVertex
 10
113.377322
 20
123.839447
 30
0.0
  0
VERTEX
  5
26D
100
AcDbEntity
  8
AXE
100
AcDbVertex
100
AcDb2dVertex
 10
113.377322
 20
123.828675
 30
0.0
  0
VERTEX
  5
26E
100
AcDbEntity
  8
AXE
100
AcDbVertex
100
AcDb2dVertex
 10
113.377322
 20
123.809633
 30
0.0
  0
SEQEND
  5
26F
100
AcDbEntity
  8
AXE
  0
LINE
  5
65
100
AcDbEntity
  8
AXE
100
AcDbLine
 10
113.377322
 20
123.143253
 30
0.0
 11
113.377322
 21
123.809634
 31
0.0
  0
POLYLINE
  5
66
100
AcDbEntity
  8
AXE
100
AcDb2dPolyline
 66
     1
 10
0.0
 20
0.0
 30
0.0
  0
VERTEX
  5
270
100
AcDbEntity
  8
AXE
100
AcDbVertex
100
AcDb2dVertex
 10
113.377322
 20
123.109957
 30
0.0
  0
VERTEX
  5
271
100
AcDbEntity
  8
AXE
100
AcDbVertex
100
AcDb2dVertex
 10
113.377322
 20
123.11087
 30
0.0
  0
VERTEX
  5
272
100
AcDbEntity
  8
AXE
100
AcDbVertex
100
AcDb2dVertex
 10
113.377322
 20
123.113611
 30
0.0
  0
VERTEX
  5
273
100
AcDbEntity
  8
AXE
100
AcDbVertex
100
AcDb2dVertex
 10
113.377322
 20
123.118174
 30
0.0
  0
VERTEX
  5
274
100
AcDbEntity
  8
AXE
100
AcDbVertex
100
AcDb2dVertex
 10
113.377322
 20
123.124555
 30
0.0
  0
VERTEX
  5
275
100
AcDbEntity
  8
AXE
100
AcDbVertex
100
AcDb2dVertex
 10
113.377322
 20
123.132745
 30
0.0
  0
VERTEX
  5
276
100
AcDbEntity
  8
AXE
100
AcDbVertex
100
AcDb2dVertex
 10
113.377322
 20
123.143253
 30
0.0
  0
SEQEND
  5
277
100
AcDbEntity
  8
AXE
  0
POLYLINE
  5
6F
100
AcDbEntity
  8
AXE
100
AcDb2dPolyline
 66
     1
 10
0.0
 20
0.0
 30
0.0
  0
VERTEX
  5
278
100
AcDbEntity
  8
AXE
100
AcDbVertex
100
AcDb2dVertex
 10
113.377322
 20
121.109896
 30
0.0
  0
VERTEX
  5
279
100
AcDbEntity
  8
AXE
100
AcDbVertex
100
AcDb2dVertex
 10
113.377322
 20
121.498365
 30
0.0
  0
VERTEX
  5
27A
100
AcDbEntity
  8
AXE
100
AcDbVertex
100
AcDb2dVertex
 10
113.377322
 20
121.872041
 30
0.0
  0
VERTEX
  5
27B
100
AcDbEntity
  8
AXE
100
AcDbVertex
100
AcDb2dVertex
 10
113.377322
 20
122.216689
 30
0.0
  0
VERTEX
  5
27C
100
AcDbEntity
  8
AXE
100
AcDbVertex
100
AcDb2dVertex
 10
113.377322
 20
122.524127
 30
0.0
  0
VERTEX
  5
27D
100
AcDbEntity
  8
AXE
100
AcDbVertex
100
AcDb2dVertex
 10
113.377322
 20
122.771892
 30
0.0
  0
VERTEX
  5
27E
100
AcDbEntity
  8
AXE
100
AcDbVertex
100
AcDb2dVertex
 10
113.377322
 20
122.956354
 30
0.0
  0
VERTEX
  5
27F
100
AcDbEntity
  8
AXE
100
AcDbVertex
100
AcDb2dVertex
 10
113.377322
 20
123.070487
 30
0.0
  0
VERTEX
  5
280
100
AcDbEntity
  8
AXE
100
AcDbVertex
100
AcDb2dVertex
 10
113.377322
 20
123.109957
 30
0.0
  0
SEQEND
  5
281
100
AcDbEntity
  8
AXE
  0
LINE
  5
7A
100
AcDbEntity
  8
AXE
100
AcDbLine
 10
113.377322
 20
92.442946
 30
0.0
 11
113.377322
 21
121.109895
 31
0.0
  0
POLYLINE
  5
7B
100
AcDbEntity
  8
AXE
100
AcDb2dPolyline
 66
     1
 10
0.0
 20
0.0
 30
0.0
  0
VERTEX
  5
282
100
AcDbEntity
  8
AXE
100
AcDbVertex
100
AcDb2dVertex
 10
113.377322
 20
91.143931
 30
0.0
  0
VERTEX
  5
283
100
AcDbEntity
  8
AXE
100
AcDbVertex
100
AcDb2dVertex
 10
113.377322
 20
91.293896
 30
0.0
  0
VERTEX
  5
284
100
AcDbEntity
  8
AXE
100
AcDbVertex
100
AcDb2dVertex
 10
113.377322
 20
91.478776
 30
0.0
  0
VERTEX
  5
285
100
AcDbEntity
  8
AXE
100
AcDbVertex
100
AcDb2dVertex
 10
113.377322
 20
91.692953
 30
0.0
  0
VERTEX
  5
286
100
AcDbEntity
  8
AXE
100
AcDbVertex
100
AcDb2dVertex
 10
113.377322
 20
91.929919
 30
0.0
  0
VERTEX
  5
287
100
AcDbEntity
  8
AXE
100
AcDbVertex
100
AcDb2dVertex
 10
113.377322
 20
92.182475
 30
0.0
  0
VERTEX
  5
288
100
AcDbEntity
  8
AXE
100
AcDbVertex
100
AcDb2dVertex
 10
113.377322
 20
92.442947
 30
0.0
  0
SEQEND
  5
289
100
AcDbEntity
  8
AXE
  0
LINE
  5
84
100
AcDbEntity
  8
AXE
100
AcDbLine
 10
113.377322
 20
87.960605
 30
0.0
 11
113.377322
 21
91.143931
 31
0.0
  0
LINE
  5
85
100
AcDbEntity
  8
ALPHA
100
AcDbLine
 10
162.707322
 20
95.212084
 30
0.0
 11
163.207322
 21
95.212084
 31
0.0
  0
LINE
  5
87
100
AcDbEntity
  8
ALPHA
100
AcDbLine
 10
162.707322
 20
94.956765
 30
0.0
 11
163.207322
 21
94.956765
 31
0.0
  0
LINE
  5
88
100
AcDbEntity
  8
ALPHA
100
AcDbLine
 10
162.707322
 20
94.616339
 30
0.0
 11
163.207322
 21
94.616339
 31
0.0
  0
LINE
  5
89
100
AcDbEntity
  8
ALPHA
100
AcDbLine
 10
162.707322
 20
94.446127
 30
0.0
 11
163.207322
 21
94.446127
 31
0.0
  0
LINE
  5
8A
100
AcDbEntity
  8
ALPHA
100
AcDbLine
 10
162.707322
 20
94.105701
 30
0.0
 11
163.207322
 21
94.105701
 31
0.0
  0
LINE
  5
8B
100
AcDbEntity
  8
ALPHA
100
AcDbLine
 10
162.707322
 20
93.765276
 30
0.0
 11
163.207322
 21
93.765276
 31
0.0
  0
LINE
  5
8C
100
AcDbEntity
  8
ALPHA
100
AcDbLine
 10
162.707322
 20
93.595063
 30
0.0
 11
163.207322
 21
93.595063
 31
0.0
  0
LINE
  5
8D
100
AcDbEntity
  8
ALPHA
100
AcDbLine
 10
164.404423
 20
101.509956
 30
0.0
 11
164.404423
 21
104.009956
 31
0.0
  0
LINE
  5
8E
100
AcDbEntity
  8
ALPHA
100
AcDbLine
 10
164.404423
 20
117.509956
 30
0.0
 11
164.404423
 21
115.009956
 31
0.0
  0
LINE
  5
8F
100
AcDbEntity
  8
ALPHA
100
AcDbLine
 10
123.607322
 20
104.709956
 30
0.0
 11
123.607322
 21
116.209956
 31
0.0
  0
LINE
  5
90
100
AcDbEntity
  8
ALPHA
100
AcDbLine
 10
122.607322
 20
117.209956
 30
0.0
 11
121.107322
 21
117.209956
 31
0.0
  0
LINE
  5
91
100
AcDbEntity
  8
ALPHA
100
AcDbLine
 10
120.107322
 20
116.209956
 30
0.0
 11
120.107322
 21
104.709956
 31
0.0
  0
LINE
  5
92
100
AcDbEntity
  8
ALPHA
100
AcDbLine
 10
121.107322
 20
103.709956
 30
0.0
 11
122.607322
 21
103.709956
 31
0.0
  0
LINE
  5
93
100
AcDbEntity
  8
ALPHA
100
AcDbLine
 10
127.707322
 20
118.909956
 30
0.0
 11
127.707322
 21
93.709956
 31
0.0
  0
LINE
  5
94
100
AcDbEntity
  8
ALPHA
100
AcDbLine
 10
127.707322
 20
93.709956
 30
0.0
 11
137.707322
 21
93.709956
 31
0.0
  0
LINE
  5
95
100
AcDbEntity
  8
ALPHA
100
AcDbLine
 10
137.707322
 20
93.709956
 30
0.0
 11
137.707322
 21
118.909956
 31
0.0
  0
LINE
  5
96
100
AcDbEntity
  8
ALPHA
100
AcDbLine
 10
137.707322
 20
118.909956
 30
0.0
 11
127.707322
 21
118.909956
 31
0.0
  0
LINE
  5
97
100
AcDbEntity
  8
ALPHA
100
AcDbLine
 10
122.607322
 20
93.595864
 30
0.0
 11
122.607322
 21
102.609956
 31
0.0
  0
LINE
  5
98
100
AcDbEntity
  8
ALPHA
100
AcDbLine
 10
119.107322
 20
102.609956
 30
0.0
 11
122.607322
 21
102.609956
 31
0.0
  0
LINE
  5
99
100
AcDbEntity
  8
ALPHA
100
AcDbLine
 10
119.107322
 20
104.259956
 30
0.0
 11
119.307322
 21
104.259956
 31
0.0
  0
LINE
  5
9A
100
AcDbEntity
  8
ALPHA
100
AcDbLine
 10
119.307322
 20
104.259956
 30
0.0
 11
119.307322
 21
106.759956
 31
0.0
  0
LINE
  5
9B
100
AcDbEntity
  8
ALPHA
100
AcDbLine
 10
119.107322
 20
106.759956
 30
0.0
 11
119.307322
 21
106.759956
 31
0.0
  0
LINE
  5
9C
100
AcDbEntity
  8
ALPHA
100
AcDbLine
 10
119.107322
 20
118.009956
 30
0.0
 11
119.107322
 21
117.609956
 31
0.0
  0
LINE
  5
9D
100
AcDbEntity
  8
ALPHA
100
AcDbLine
 10
119.107322
 20
118.009956
 30
0.0
 11
122.407322
 21
118.009956
 31
0.0
  0
LINE
  5
9E
100
AcDbEntity
  8
ALPHA
100
AcDbLine
 10
124.207322
 20
119.389593
 30
0.0
 11
122.407322
 21
118.009956
 31
0.0
  0
LINE
  5
9F
100
AcDbEntity
  8
ALPHA
100
AcDbLine
 10
131.107322
 20
121.109956
 30
0.0
 11
124.207322
 21
119.389593
 31
0.0
  0
LINE
  5
A0
100
AcDbEntity
  8
ALPHA
100
AcDbLine
 10
158.707322
 20
121.109956
 30
0.0
 11
131.107322
 21
121.109956
 31
0.0
  0
LINE
  5
A1
100
AcDbEntity
  8
ALPHA
100
AcDbLine
 10
158.707322
 20
121.109956
 30
0.0
 11
158.707322
 21
117.739922
 31
0.0
  0
LINE
  5
A2
100
AcDbEntity
  8
ALPHA
100
AcDbLine
 10
158.707322
 20
117.739922
 30
0.0
 11
161.050207
 21
115.774008
 31
0.0
  0
ARC
  5
A3
100
AcDbEntity
  8
ALPHA
100
AcDbCircle
 10
161.307322
 20
116.080426
 30
0.0
 40
0.4
100
AcDbArc
 50
230.0
 51
0.0
  0
LINE
  5
A4
100
AcDbEntity
  8
ALPHA
100
AcDbLine
 10
161.707322
 20
116.080426
 30
0.0
 11
161.707322
 21
117.509956
 31
0.0
  0
LINE
  5
A5
100
AcDbEntity
  8
ALPHA
100
AcDbLine
 10
162.707322
 20
117.509956
 30
0.0
 11
161.707322
 21
117.509956
 31
0.0
  0
LINE
  5
A6
100
AcDbEntity
  8
ALPHA
100
AcDbLine
 10
162.707322
 20
89.709956
 30
0.0
 11
162.707322
 21
117.509956
 31
0.0
  0
LINE
  5
A7
100
AcDbEntity
  8
ALPHA
100
AcDbLine
 10
152.307322
 20
89.709956
 30
0.0
 11
162.707322
 21
89.709956
 31
0.0
  0
LINE
  5
A8
100
AcDbEntity
  8
ALPHA
100
AcDbLine
 10
152.307322
 20
89.709956
 30
0.0
 11
152.307322
 21
92.609956
 31
0.0
  0
LINE
  5
A9
100
AcDbEntity
  8
ALPHA
100
AcDbLine
 10
122.607322
 20
93.595864
 30
0.0
 11
125.047531
 21
92.609956
 31
0.0
  0
LINE
  5
AA
100
AcDbEntity
  8
ALPHA
100
AcDbLine
 10
122.307322
 20
93.709956
 30
0.0
 11
122.324935
 21
93.709956
 31
0.0
  0
LINE
  5
AB
100
AcDbEntity
  8
ALPHA
100
AcDbLine
 10
125.507322
 20
119.713719
 30
0.0
 11
125.507322
 21
120.950456
 31
0.0
  0
LINE
  5
AC
100
AcDbEntity
  8
ALPHA
100
AcDbLine
 10
125.507322
 20
120.950456
 30
0.0
 11
130.959981
 21
122.309956
 31
0.0
  0
LINE
  5
AD
100
AcDbEntity
  8
ALPHA
100
AcDbLine
 10
130.959981
 20
122.309956
 30
0.0
 11
158.707322
 21
122.309956
 31
0.0
  0
LINE
  5
AE
100
AcDbEntity
  8
ALPHA
100
AcDbLine
 10
158.707322
 20
122.309956
 30
0.0
 11
158.707322
 21
121.109956
 31
0.0
  0
LINE
  5
AF
100
AcDbEntity
  8
ALPHA
100
AcDbLine
 10
153.907322
 20
89.709956
 30
0.0
 11
153.907322
 21
88.509956
 31
0.0
  0
LINE
  5
B0
100
AcDbEntity
  8
ALPHA
100
AcDbLine
 10
153.907322
 20
88.509956
 30
0.0
 11
151.770558
 21
88.509956
 31
0.0
  0
LINE
  5
B1
100
AcDbEntity
  8
ALPHA
100
AcDbLine
 10
151.770558
 20
88.509956
 30
0.0
 11
148.314473
 21
91.409956
 31
0.0
  0
LINE
  5
B2
100
AcDbEntity
  8
ALPHA
100
AcDbLine
 10
148.314473
 20
91.409956
 30
0.0
 11
125.507322
 21
91.409956
 31
0.0
  0
LINE
  5
B3
100
AcDbEntity
  8
ALPHA
100
AcDbLine
 10
125.507322
 20
91.409956
 30
0.0
 11
125.507322
 21
92.609956
 31
0.0
  0
ARC
  5
B4
100
AcDbEntity
  8
ALPHA
100
AcDbCircle
 10
121.107322
 20
116.209956
 30
0.0
 40
1.0
100
AcDbArc
 50
90.0
 51
180.0
  0
ARC
  5
B5
100
AcDbEntity
  8
ALPHA
100
AcDbCircle
 10
122.607322
 20
116.209956
 30
0.0
 40
1.0
100
AcDbArc
 50
0.0
 51
90.0
  0
ARC
  5
B6
100
AcDbEntity
  8
ALPHA
100
AcDbCircle
 10
122.607322
 20
104.709956
 30
0.0
 40
1.0
100
AcDbArc
 50
270.0
 51
0.0
  0
ARC
  5
B7
100
AcDbEntity
  8
ALPHA
100
AcDbCircle
 10
121.107322
 20
104.709956
 30
0.0
 40
1.0
100
AcDbArc
 50
180.0
 51
270.0
  0
LINE
  5
B8
100
AcDbEntity
  8
ALPHA
100
AcDbLine
 10
163.207322
 20
93.595063
 30
0.0
 11
163.207322
 21
93.509956
 31
0.0
  0
LINE
  5
B9
100
AcDbEntity
  8
ALPHA
100
AcDbLine
 10
163.207322
 20
93.765276
 30
0.0
 11
163.207322
 21
93.595063
 31
0.0
  0
LINE
  5
BA
100
AcDbEntity
  8
ALPHA
100
AcDbLine
 10
163.207322
 20
94.105701
 30
0.0
 11
163.207322
 21
93.765276
 31
0.0
  0
LINE
  5
BB
100
AcDbEntity
  8
ALPHA
100
AcDbLine
 10
163.207322
 20
94.446127
 30
0.0
 11
163.207322
 21
94.105701
 31
0.0
  0
LINE
  5
BC
100
AcDbEntity
  8
ALPHA
100
AcDbLine
 10
163.207322
 20
94.616339
 30
0.0
 11
163.207322
 21
94.446127
 31
0.0
  0
LINE
  5
BD
100
AcDbEntity
  8
ALPHA
100
AcDbLine
 10
163.207322
 20
94.956765
 30
0.0
 11
163.207322
 21
94.616339
 31
0.0
  0
LINE
  5
BE
100
AcDbEntity
  8
ALPHA
100
AcDbLine
 10
162.707322
 20
121.109956
 30
0.0
 11
158.707322
 21
121.109956
 31
0.0
  0
LINE
  5
BF
100
AcDbEntity
  8
ALPHA
100
AcDbLine
 10
163.207322
 20
95.212084
 30
0.0
 11
163.207322
 21
94.956765
 31
0.0
  0
LINE
  5
C0
100
AcDbEntity
  8
ALPHA
100
AcDbLine
 10
163.207322
 20
97.084424
 30
0.0
 11
163.207322
 21
95.212084
 31
0.0
  0
LINE
  5
C1
100
AcDbEntity
  8
ALPHA
100
AcDbLine
 10
163.207322
 20
97.509956
 30
0.0
 11
163.207322
 21
97.084424
 31
0.0
  0
LINE
  5
C2
100
AcDbEntity
  8
ALPHA
100
AcDbLine
 10
162.707322
 20
121.109956
 30
0.0
 11
162.707322
 21
117.509956
 31
0.0
  0
LINE
  5
C3
100
AcDbEntity
  8
ALPHA
100
AcDbLine
 10
162.707322
 20
97.509956
 30
0.0
 11
163.207322
 21
97.509956
 31
0.0
  0
LINE
  5
C4
100
AcDbEntity
  8
ALPHA
100
AcDbLine
 10
162.707322
 20
97.084424
 30
0.0
 11
163.207322
 21
97.084424
 31
0.0
  0
LINE
  5
C5
100
AcDbEntity
  8
ALPHA
100
AcDbLine
 10
162.707322
 20
93.509956
 30
0.0
 11
163.207322
 21
93.509956
 31
0.0
  0
LINE
  5
C6
100
AcDbEntity
  8
ALPHA
100
AcDbLine
 10
165.707322
 20
101.509956
 30
0.0
 11
164.707322
 21
101.509956
 31
0.0
  0
LINE
  5
C7
100
AcDbEntity
  8
ALPHA
100
AcDbLine
 10
165.707322
 20
100.375982
 30
0.0
 11
165.707322
 21
101.509956
 31
0.0
  0
LINE
  5
C8
100
AcDbEntity
  8
ALPHA
100
AcDbLine
 10
164.707322
 20
100.375982
 30
0.0
 11
165.707322
 21
100.375982
 31
0.0
  0
LINE
  5
C9
100
AcDbEntity
  8
ALPHA
100
AcDbLine
 10
162.707322
 20
99.509956
 30
0.0
 11
163.207322
 21
99.509956
 31
0.0
  0
LINE
  5
CA
100
AcDbEntity
  8
ALPHA
100
AcDbLine
 10
162.707322
 20
101.509956
 30
0.0
 11
163.707322
 21
101.509956
 31
0.0
  0
LINE
  5
CB
100
AcDbEntity
  8
ALPHA
100
AcDbLine
 10
162.707322
 20
117.509956
 30
0.0
 11
163.707322
 21
117.509956
 31
0.0
  0
LINE
  5
CC
100
AcDbEntity
  8
ALPHA
100
AcDbLine
 10
163.207322
 20
119.509956
 30
0.0
 11
162.707322
 21
119.509956
 31
0.0
  0
LINE
  5
CD
100
AcDbEntity
  8
ALPHA
100
AcDbLine
 10
165.707322
 20
118.643931
 30
0.0
 11
164.707322
 21
118.643931
 31
0.0
  0
LINE
  5
CE
100
AcDbEntity
  8
ALPHA
100
AcDbLine
 10
165.707322
 20
117.509956
 30
0.0
 11
165.707322
 21
118.643931
 31
0.0
  0
LINE
  5
CF
100
AcDbEntity
  8
ALPHA
100
AcDbLine
 10
164.707322
 20
117.509956
 30
0.0
 11
165.707322
 21
117.509956
 31
0.0
  0
LINE
  5
D0
100
AcDbEntity
  8
ALPHA
100
AcDbLine
 10
163.707322
 20
115.009956
 30
0.0
 11
164.404423
 21
115.009956
 31
0.0
  0
LINE
  5
D1
100
AcDbEntity
  8
ALPHA
100
AcDbLine
 10
164.404423
 20
104.009956
 30
0.0
 11
163.707322
 21
104.009956
 31
0.0
  0
LINE
  5
D2
100
AcDbEntity
  8
ALPHA
100
AcDbLine
 10
163.707322
 20
115.009956
 30
0.0
 11
163.707322
 21
117.509956
 31
0.0
  0
LINE
  5
D3
100
AcDbEntity
  8
ALPHA
100
AcDbLine
 10
163.707322
 20
104.009956
 30
0.0
 11
163.707322
 21
101.509956
 31
0.0
  0
LINE
  5
D4
100
AcDbEntity
  8
ALPHA
100
AcDbLine
 10
164.707322
 20
100.375982
 30
0.0
 11
163.207322
 21
99.509956
 31
0.0
  0
LINE
  5
D5
100
AcDbEntity
  8
ALPHA
100
AcDbLine
 10
163.207322
 20
119.509956
 30
0.0
 11
164.707322
 21
118.643931
 31
0.0
  0
LINE
  5
D6
100
AcDbEntity
  8
ALPHA
100
AcDbLine
 10
164.707322
 20
111.509956
 30
0.0
 11
162.707322
 21
111.509956
 31
0.0
  0
LINE
  5
D7
100
AcDbEntity
  8
ALPHA
100
AcDbLine
 10
164.707322
 20
107.509956
 30
0.0
 11
164.707322
 21
111.509956
 31
0.0
  0
LINE
  5
D8
100
AcDbEntity
  8
ALPHA
100
AcDbLine
 10
162.707322
 20
107.509956
 30
0.0
 11
164.707322
 21
107.509956
 31
0.0
  0
LINE
  5
D9
100
AcDbEntity
  8
ALPHA
100
AcDbLine
 10
164.404423
 20
101.509956
 30
0.0
 11
163.707322
 21
101.509956
 31
0.0
  0
LINE
  5
DA
100
AcDbEntity
  8
ALPHA
100
AcDbLine
 10
163.707322
 20
117.509956
 30
0.0
 11
164.404423
 21
117.509956
 31
0.0
  0
LINE
  5
DB
100
AcDbEntity
  8
ALPHA
100
AcDbLine
 10
164.404423
 20
104.009956
 30
0.0
 11
164.707322
 21
104.009956
 31
0.0
  0
LINE
  5
DC
100
AcDbEntity
  8
ALPHA
100
AcDbLine
 10
164.707322
 20
101.509956
 30
0.0
 11
164.707322
 21
104.009956
 31
0.0
  0
LINE
  5
DD
100
AcDbEntity
  8
ALPHA
100
AcDbLine
 10
164.707322
 20
101.509956
 30
0.0
 11
164.404423
 21
101.509956
 31
0.0
  0
LINE
  5
DE
100
AcDbEntity
  8
ALPHA
100
AcDbLine
 10
164.707322
 20
117.509956
 30
0.0
 11
164.707322
 21
115.009956
 31
0.0
  0
LINE
  5
DF
100
AcDbEntity
  8
ALPHA
100
AcDbLine
 10
164.707322
 20
115.009956
 30
0.0
 11
164.404423
 21
115.009956
 31
0.0
  0
LINE
  5
E0
100
AcDbEntity
  8
ALPHA
100
AcDbLine
 10
164.404423
 20
117.509956
 30
0.0
 11
164.707322
 21
117.509956
 31
0.0
  0
LINE
  5
E1
100
AcDbEntity
  8
ALPHA
100
AcDbLine
 10
125.047531
 20
92.609956
 30
0.0
 11
152.307322
 21
92.609956
 31
0.0
  0
LINE
  5
E2
100
AcDbEntity
  8
ALPHA
100
AcDbLine
 10
122.307322
 20
93.717072
 30
0.0
 11
122.607322
 21
93.595864
 31
0.0
  0
POLYLINE
  5
E3
100
AcDbEntity
  8
ALPHA
100
AcDb2dPolyline
 66
     1
 10
0.0
 20
0.0
 30
0.0
  0
VERTEX
  5
28A
100
AcDbEntity
  8
ALPHA
100
AcDbVertex
100
AcDb2dVertex
 10
115.719834
 20
88.009956
 30
0.0
  0
VERTEX
  5
28B
100
AcDbEntity
  8
ALPHA
100
AcDbVertex
100
AcDb2dVertex
 10
115.746814
 20
87.701569
 30
0.0
  0
VERTEX
  5
28C
100
AcDbEntity
  8
ALPHA
100
AcDbVertex
100
AcDb2dVertex
 10
115.771187
 20
87.422991
 30
0.0
  0
VERTEX
  5
28D
100
AcDbEntity
  8
ALPHA
100
AcDbVertex
100
AcDb2dVertex
 10
115.790562
 20
87.201532
 30
0.0
  0
VERTEX
  5
28E
100
AcDbEntity
  8
ALPHA
100
AcDbVertex
100
AcDb2dVertex
 10
115.803023
 20
87.059105
 30
0.0
  0
VERTEX
  5
28F
100
AcDbEntity
  8
ALPHA
100
AcDbVertex
100
AcDb2dVertex
 10
115.807322
 20
87.009956
 30
0.0
  0
SEQEND
  5
290
100
AcDbEntity
  8
ALPHA
  0
LINE
  5
EB
100
AcDbEntity
  8
ALPHA
100
AcDbLine
 10
114.127322
 20
88.009956
 30
0.0
 11
115.719834
 21
88.009956
 31
0.0
  0
LINE
  5
EC
100
AcDbEntity
  8
ALPHA
100
AcDbLine
 10
112.507322
 20
92.209956
 30
0.0
 11
110.507322
 21
92.209956
 31
0.0
  0
LINE
  5
ED
100
AcDbEntity
  8
ALPHA
100
AcDbLine
 10
112.507322
 20
90.511371
 30
0.0
 11
110.507322
 21
90.511371
 31
0.0
  0
POLYLINE
  5
EE
100
AcDbEntity
  8
ALPHA
100
AcDb2dPolyline
 66
     1
 10
0.0
 20
0.0
 30
0.0
  0
VERTEX
  5
291
100
AcDbEntity
  8
ALPHA
100
AcDbVertex
100
AcDb2dVertex
 10
111.312501
 20
125.945741
 30
0.0
  0
VERTEX
  5
292
100
AcDbEntity
  8
ALPHA
100
AcDbVertex
100
AcDb2dVertex
 10
111.583081
 20
125.957064
 30
0.0
  0
VERTEX
  5
293
100
AcDbEntity
  8
ALPHA
100
AcDbVertex
100
AcDb2dVertex
 10
111.836341
 20
125.949158
 30
0.0
  0
VERTEX
  5
294
100
AcDbEntity
  8
ALPHA
100
AcDbVertex
100
AcDb2dVertex
 10
112.057429
 20
125.922065
 30
0.0
  0
VERTEX
  5
295
100
AcDbEntity
  8
ALPHA
100
AcDbVertex
100
AcDb2dVertex
 10
112.230747
 20
125.877004
 30
0.0
  0
VERTEX
  5
296
100
AcDbEntity
  8
ALPHA
100
AcDbVertex
100
AcDb2dVertex
 10
112.343076
 20
125.816779
 30
0.0
  0
VERTEX
  5
297
100
AcDbEntity
  8
ALPHA
100
AcDbVertex
100
AcDb2dVertex
 10
112.386142
 20
125.745058
 30
0.0
  0
SEQEND
  5
298
100
AcDbEntity
  8
ALPHA
  0
LINE
  5
F7
100
AcDbEntity
  8
ALPHA
100
AcDbLine
 10
112.507322
 20
91.330523
 30
0.0
 11
110.507322
 21
91.330523
 31
0.0
  0
LINE
  5
F8
100
AcDbEntity
  8
ALPHA
100
AcDbLine
 10
111.236892
 20
126.809956
 30
0.0
 11
111.312501
 21
125.945741
 31
0.0
  0
POLYLINE
  5
F9
100
AcDbEntity
  8
ALPHA
100
AcDb2dPolyline
 66
     1
 10
0.0
 20
0.0
 30
0.0
  0
VERTEX
  5
299
100
AcDbEntity
  8
ALPHA
100
AcDbVertex
100
AcDb2dVertex
 10
111.407322
 20
124.311929
 30
0.0
  0
VERTEX
  5
29A
100
AcDbEntity
  8
ALPHA
100
AcDbVertex
100
AcDb2dVertex
 10
111.691662
 20
124.324344
 30
0.0
  0
VERTEX
  5
29B
100
AcDbEntity
  8
ALPHA
100
AcDbVertex
100
AcDb2dVertex
 10
111.956502
 20
124.335907
 30
0.0
  0
VERTEX
  5
29C
100
AcDbEntity
  8
ALPHA
100
AcDbVertex
100
AcDb2dVertex
 10
112.184857
 20
124.345877
 30
0.0
  0
VERTEX
  5
29D
100
AcDbEntity
  8
ALPHA
100
AcDbVertex
100
AcDb2dVertex
 10
112.359956
 20
124.353522
 30
0.0
  0
VERTEX
  5
29E
100
AcDbEntity
  8
ALPHA
100
AcDbVertex
100
AcDb2dVertex
 10
112.469762
 20
124.358316
 30
0.0
  0
VERTEX
  5
29F
100
AcDbEntity
  8
ALPHA
100
AcDbVertex
100
AcDb2dVertex
 10
112.507322
 20
124.359956
 30
0.0
  0
SEQEND
  5
2A0
100
AcDbEntity
  8
ALPHA
  0
POLYLINE
  5
102
100
AcDbEntity
  8
ALPHA
100
AcDb2dPolyline
 66
     1
 10
0.0
 20
0.0
 30
0.0
  0
VERTEX
  5
2A1
100
AcDbEntity
  8
ALPHA
100
AcDbVertex
100
AcDb2dVertex
 10
111.312501
 20
125.945741
 30
0.0
  0
VERTEX
  5
2A2
100
AcDbEntity
  8
ALPHA
100
AcDbVertex
100
AcDb2dVertex
 10
111.296578
 20
125.944736
 30
0.0
  0
VERTEX
  5
2A3
100
AcDbEntity
  8
ALPHA
100
AcDbVertex
100
AcDb2dVertex
 10
111.280594
 20
125.944133
 30
0.0
  0
VERTEX
  5
2A4
100
AcDbEntity
  8
ALPHA
100
AcDbVertex
100
AcDb2dVertex
 10
111.264541
 20
125.943931
 30
0.0
  0
SEQEND
  5
2A5
100
AcDbEntity
  8
ALPHA
  0
LINE
  5
108
100
AcDbEntity
  8
ALPHA
100
AcDbLine
 10
111.407322
 20
124.311929
 30
0.0
 11
111.264541
 21
125.943931
 31
0.0
  0
LINE
  5
109
100
AcDbEntity
  8
ALPHA
100
AcDbLine
 10
111.407322
 20
123.057323
 30
0.0
 11
111.407322
 21
124.311929
 31
0.0
  0
POLYLINE
  5
10A
100
AcDbEntity
  8
ALPHA
100
AcDb2dPolyline
 66
     1
 10
0.0
 20
0.0
 30
0.0
  0
VERTEX
  5
2A6
100
AcDbEntity
  8
ALPHA
100
AcDbVertex
100
AcDb2dVertex
 10
111.407322
 20
123.057323
 30
0.0
  0
VERTEX
  5
2A7
100
AcDbEntity
  8
ALPHA
100
AcDbVertex
100
AcDb2dVertex
 10
111.449921
 20
122.667362
 30
0.0
  0
VERTEX
  5
2A8
100
AcDbEntity
  8
ALPHA
100
AcDbVertex
100
AcDb2dVertex
 10
111.576363
 20
122.294
 30
0.0
  0
VERTEX
  5
2A9
100
AcDbEntity
  8
ALPHA
100
AcDbVertex
100
AcDb2dVertex
 10
111.781133
 20
121.955527
 30
0.0
  0
VERTEX
  5
2AA
100
AcDbEntity
  8
ALPHA
100
AcDbVertex
100
AcDb2dVertex
 10
112.037462
 20
121.682477
 30
0.0
  0
VERTEX
  5
2AB
100
AcDbEntity
  8
ALPHA
100
AcDbVertex
100
AcDb2dVertex
 10
112.306019
 20
121.486917
 30
0.0
  0
VERTEX
  5
2AC
100
AcDbEntity
  8
ALPHA
100
AcDbVertex
100
AcDb2dVertex
 10
112.572219
 20
121.351148
 30
0.0
  0
VERTEX
  5
2AD
100
AcDbEntity
  8
ALPHA
100
AcDbVertex
100
AcDb2dVertex
 10
112.627322
 20
121.331641
 30
0.0
  0
SEQEND
  5
2AE
100
AcDbEntity
  8
ALPHA
  0
LINE
  5
114
100
AcDbEntity
  8
ALPHA
100
AcDbLine
 10
114.127322
 20
127.18415
 30
0.0
 11
116.427322
 21
127.18415
 31
0.0
  0
LINE
  5
115
100
AcDbEntity
  8
ALPHA
100
AcDbLine
 10
114.127322
 20
125.809956
 30
0.0
 11
116.427322
 21
125.809956
 31
0.0
  0
LINE
  5
116
100
AcDbEntity
  8
ALPHA
100
AcDbLine
 10
119.330621
 20
121.409956
 30
0.0
 11
119.330621
 21
123.133736
 31
0.0
  0
LINE
  5
117
100
AcDbEntity
  8
ALPHA
100
AcDbLine
 10
112.507322
 20
123.057323
 30
0.0
 11
111.407322
 21
123.057323
 31
0.0
  0
POLYLINE
  5
118
100
AcDbEntity
  8
ALPHA
100
AcDb2dPolyline
 66
     1
 10
0.0
 20
0.0
 30
0.0
  0
VERTEX
  5
2AF
100
AcDbEntity
  8
ALPHA
100
AcDbVertex
100
AcDb2dVertex
 10
112.627322
 20
91.870293
 30
0.0
  0
VERTEX
  5
2B0
100
AcDbEntity
  8
ALPHA
100
AcDbVertex
100
AcDb2dVertex
 10
112.541583
 20
91.724564
 30
0.0
  0
VERTEX
  5
2B1
100
AcDbEntity
  8
ALPHA
100
AcDbVertex
100
AcDb2dVertex
 10
112.507322
 20
91.537232
 30
0.0
  0
SEQEND
  5
2B2
100
AcDbEntity
  8
ALPHA
  0
LINE
  5
11D
100
AcDbEntity
  8
ALPHA
100
AcDbLine
 10
118.630621
 20
118.009956
 30
0.0
 11
118.630621
 21
123.537881
 31
0.0
  0
LINE
  5
11E
100
AcDbEntity
  8
ALPHA
100
AcDbLine
 10
111.264541
 20
125.943931
 30
0.0
 11
110.507322
 21
125.943931
 31
0.0
  0
POLYLINE
  5
11F
100
AcDbEntity
  8
ALPHA
100
AcDb2dPolyline
 66
     1
 10
0.0
 20
0.0
 30
0.0
  0
VERTEX
  5
2B3
100
AcDbEntity
  8
ALPHA
100
AcDbVertex
100
AcDb2dVertex
 10
112.507322
 20
123.057323
 30
0.0
  0
VERTEX
  5
2B4
100
AcDbEntity
  8
ALPHA
100
AcDbVertex
100
AcDb2dVertex
 10
112.538257
 20
122.849647
 30
0.0
  0
VERTEX
  5
2B5
100
AcDbEntity
  8
ALPHA
100
AcDbVertex
100
AcDb2dVertex
 10
112.624519
 20
122.662918
 30
0.0
  0
VERTEX
  5
2B6
100
AcDbEntity
  8
ALPHA
100
AcDbVertex
100
AcDb2dVertex
 10
112.627322
 20
122.659345
 30
0.0
  0
SEQEND
  5
2B7
100
AcDbEntity
  8
ALPHA
  0
LINE
  5
125
100
AcDbEntity
  8
ALPHA
100
AcDbLine
 10
115.719834
 20
88.009956
 30
0.0
 11
122.307322
 21
89.171508
 31
0.0
  0
LINE
  5
126
100
AcDbEntity
  8
ALPHA
100
AcDbLine
 10
112.507322
 20
92.792969
 30
0.0
 11
112.627322
 21
92.792969
 31
0.0
  0
ARC
  5
127
100
AcDbEntity
  8
ALPHA
100
AcDbCircle
 10
116.727322
 20
124.983161
 30
0.0
 40
0.3
100
AcDbArc
 50
180.0
 51
240.0
  0
LINE
  5
128
100
AcDbEntity
  8
ALPHA
100
AcDbLine
 10
112.292975
 20
126.809956
 30
0.0
 11
112.386142
 21
125.745058
 31
0.0
  0
LINE
  5
129
100
AcDbEntity
  8
ALPHA
100
AcDbLine
 10
111.236892
 20
126.809956
 30
0.0
 11
112.292975
 21
126.809956
 31
0.0
  0
LINE
  5
12A
100
AcDbEntity
  8
ALPHA
100
AcDbLine
 10
112.507322
 20
124.359956
 30
0.0
 11
112.386142
 21
125.745058
 31
0.0
  0
LINE
  5
12B
100
AcDbEntity
  8
ALPHA
100
AcDbLine
 10
112.507322
 20
123.057323
 30
0.0
 11
112.507322
 21
124.359956
 31
0.0
  0
LINE
  5
12C
100
AcDbEntity
  8
ALPHA
100
AcDbLine
 10
114.127322
 20
126.809956
 30
0.0
 11
116.427322
 21
126.809956
 31
0.0
  0
LINE
  5
12D
100
AcDbEntity
  8
ALPHA
100
AcDbLine
 10
114.127322
 20
125.809956
 30
0.0
 11
114.127322
 21
126.809956
 31
0.0
  0
LINE
  5
12E
100
AcDbEntity
  8
ALPHA
100
AcDbLine
 10
112.627322
 20
92.509956
 30
0.0
 11
112.507322
 21
92.509956
 31
0.0
  0
LINE
  5
12F
100
AcDbEntity
  8
ALPHA
100
AcDbLine
 10
112.507322
 20
92.792969
 30
0.0
 11
112.507322
 21
98.009956
 31
0.0
  0
LINE
  5
130
100
AcDbEntity
  8
ALPHA
100
AcDbLine
 10
112.507322
 20
92.792969
 30
0.0
 11
112.507322
 21
92.509956
 31
0.0
  0
LINE
  5
131
100
AcDbEntity
  8
ALPHA
100
AcDbLine
 10
110.507322
 20
126.809956
 30
0.0
 11
110.507322
 21
125.943931
 31
0.0
  0
LINE
  5
132
100
AcDbEntity
  8
ALPHA
100
AcDbLine
 10
111.236892
 20
126.809956
 30
0.0
 11
110.507322
 21
126.809956
 31
0.0
  0
LINE
  5
133
100
AcDbEntity
  8
ALPHA
100
AcDbLine
 10
112.507322
 20
113.209956
 30
0.0
 11
112.627322
 21
113.089956
 31
0.0
  0
LINE
  5
134
100
AcDbEntity
  8
ALPHA
100
AcDbLine
 10
112.507322
 20
87.709956
 30
0.0
 11
112.507322
 21
90.511371
 31
0.0
  0
LINE
  5
135
100
AcDbEntity
  8
ALPHA
100
AcDbLine
 10
112.507322
 20
91.330523
 30
0.0
 11
112.507322
 21
92.209956
 31
0.0
  0
LINE
  5
136
100
AcDbEntity
  8
ALPHA
100
AcDbLine
 10
112.507322
 20
98.009956
 30
0.0
 11
112.627322
 21
98.129956
 31
0.0
  0
LINE
  5
137
100
AcDbEntity
  8
ALPHA
100
AcDbLine
 10
119.807322
 20
121.609956
 30
0.0
 11
119.807322
 21
122.858512
 31
0.0
  0
LINE
  5
138
100
AcDbEntity
  8
ALPHA
100
AcDbLine
 10
119.330621
 20
123.133736
 30
0.0
 11
119.807322
 21
122.858512
 31
0.0
  0
LINE
  5
139
100
AcDbEntity
  8
ALPHA
100
AcDbLine
 10
119.107322
 20
117.609956
 30
0.0
 11
118.630621
 21
118.009956
 31
0.0
  0
LINE
  5
13A
100
AcDbEntity
  8
ALPHA
100
AcDbLine
 10
119.107322
 20
118.009956
 30
0.0
 11
119.107322
 21
123.262658
 31
0.0
  0
LINE
  5
13B
100
AcDbEntity
  8
ALPHA
100
AcDbLine
 10
118.630621
 20
123.537881
 30
0.0
 11
119.107322
 21
123.262658
 31
0.0
  0
LINE
  5
13C
100
AcDbEntity
  8
ALPHA
100
AcDbLine
 10
118.630621
 20
123.537881
 30
0.0
 11
116.577322
 21
124.723354
 31
0.0
  0
LINE
  5
13D
100
AcDbEntity
  8
ALPHA
100
AcDbLine
 10
119.330621
 20
123.133736
 30
0.0
 11
119.107322
 21
123.262658
 31
0.0
  0
LINE
  5
13E
100
AcDbEntity
  8
ALPHA
100
AcDbLine
 10
117.842832
 20
116.509956
 30
0.0
 11
114.127322
 21
116.509956
 31
0.0
  0
LINE
  5
13F
100
AcDbEntity
  8
ALPHA
100
AcDbLine
 10
116.427322
 20
125.809956
 30
0.0
 11
116.427322
 21
124.983161
 31
0.0
  0
ARC
  5
140
100
AcDbEntity
  8
ALPHA
100
AcDbCircle
 10
113.207322
 20
123.059956
 30
0.0
 40
0.7
100
AcDbArc
 50
180.0
 51
195.005433
  0
ARC
  5
141
100
AcDbEntity
  8
ALPHA
100
AcDbCircle
 10
113.207322
 20
123.059956
 30
0.0
 40
0.7
100
AcDbArc
 50
195.005433
 51
209.994567
  0
ARC
  5
142
100
AcDbEntity
  8
ALPHA
100
AcDbCircle
 10
113.207322
 20
123.059956
 30
0.0
 40
0.7
100
AcDbArc
 50
180.0
 51
213.535203
  0
LINE
  5
143
100
AcDbEntity
  8
ALPHA
100
AcDbLine
 10
110.507322
 20
119.309956
 30
0.0
 11
110.807322
 21
119.009956
 31
0.0
  0
LINE
  5
144
100
AcDbEntity
  8
ALPHA
100
AcDbLine
 10
110.507322
 20
119.309956
 30
0.0
 11
110.507322
 21
125.943931
 31
0.0
  0
LINE
  5
145
100
AcDbEntity
  8
ALPHA
100
AcDbLine
 10
112.507322
 20
92.509956
 30
0.0
 11
110.507322
 21
92.509956
 31
0.0
  0
LINE
  5
146
100
AcDbEntity
  8
ALPHA
100
AcDbLine
 10
110.507322
 20
91.330523
 30
0.0
 11
110.507322
 21
90.511371
 31
0.0
  0
LINE
  5
147
100
AcDbEntity
  8
ALPHA
100
AcDbLine
 10
112.507322
 20
91.330523
 30
0.0
 11
112.507322
 21
90.511371
 31
0.0
  0
LINE
  5
148
100
AcDbEntity
  8
ALPHA
100
AcDbLine
 10
112.507322
 20
87.709956
 30
0.0
 11
110.507322
 21
87.709956
 31
0.0
  0
LINE
  5
149
100
AcDbEntity
  8
ALPHA
100
AcDbLine
 10
110.507322
 20
87.709956
 30
0.0
 11
110.507322
 21
90.511371
 31
0.0
  0
LINE
  5
14A
100
AcDbEntity
  8
ALPHA
100
AcDbLine
 10
110.507322
 20
91.330523
 30
0.0
 11
110.507322
 21
92.209956
 31
0.0
  0
LINE
  5
14B
100
AcDbEntity
  8
ALPHA
100
AcDbLine
 10
119.807322
 20
121.609956
 30
0.0
 11
119.607322
 21
121.409956
 31
0.0
  0
LINE
  5
14C
100
AcDbEntity
  8
ALPHA
100
AcDbLine
 10
116.427322
 20
127.181758
 30
0.0
 11
116.427322
 21
126.809956
 31
0.0
  0
LINE
  5
14D
100
AcDbEntity
  8
ALPHA
100
AcDbLine
 10
112.507322
 20
119.009956
 30
0.0
 11
110.807322
 21
119.009956
 31
0.0
  0
LINE
  5
14E
100
AcDbEntity
  8
ALPHA
100
AcDbLine
 10
112.507322
 20
113.209956
 30
0.0
 11
112.507322
 21
119.009956
 31
0.0
  0
ARC
  5
14F
100
AcDbEntity
  8
ALPHA
100
AcDbCircle
 10
122.007322
 20
98.006566
 30
0.0
 40
0.3
100
AcDbArc
 50
0.0
 51
52.5
  0
LINE
  5
150
100
AcDbEntity
  8
ALPHA
100
AcDbLine
 10
122.307322
 20
89.171508
 30
0.0
 11
122.307322
 21
88.156082
 31
0.0
  0
LINE
  5
151
100
AcDbEntity
  8
ALPHA
100
AcDbLine
 10
115.807322
 20
87.009956
 30
0.0
 11
122.307322
 21
88.156082
 31
0.0
  0
LINE
  5
152
100
AcDbEntity
  8
ALPHA
100
AcDbLine
 10
114.127322
 20
87.009956
 30
0.0
 11
115.807322
 21
87.009956
 31
0.0
  0
LINE
  5
153
100
AcDbEntity
  8
ALPHA
100
AcDbLine
 10
114.127322
 20
87.009956
 30
0.0
 11
114.127322
 21
88.009956
 31
0.0
  0
LINE
  5
154
100
AcDbEntity
  8
ALPHA
100
AcDbLine
 10
122.307322
 20
89.171508
 30
0.0
 11
122.307322
 21
98.006566
 31
0.0
  0
LINE
  5
155
100
AcDbEntity
  8
ALPHA
100
AcDbLine
 10
122.189951
 20
98.244572
 30
0.0
 11
119.107322
 21
100.609956
 31
0.0
  0
LINE
  5
156
100
AcDbEntity
  8
ALPHA
100
AcDbLine
 10
118.107322
 20
118.009956
 30
0.0
 11
118.630621
 21
118.009956
 31
0.0
  0
LINE
  5
157
100
AcDbEntity
  8
ALPHA
100
AcDbLine
 10
117.842832
 20
116.509956
 30
0.0
 11
118.107322
 21
118.009956
 31
0.0
  0
LINE
  5
158
100
AcDbEntity
  8
ALPHA
100
AcDbLine
 10
116.427322
 20
128.259956
 30
0.0
 11
114.127322
 21
128.259956
 31
0.0
  0
LINE
  5
159
100
AcDbEntity
  8
ALPHA
100
AcDbLine
 10
116.427322
 20
128.259822
 30
0.0
 11
116.427322
 21
127.181758
 31
0.0
  0
LINE
  5
15A
100
AcDbEntity
  8
ALPHA
100
AcDbLine
 10
110.507322
 20
92.509956
 30
0.0
 11
112.507322
 21
92.509956
 31
0.0
  0
LINE
  5
15B
100
AcDbEntity
  8
ALPHA
100
AcDbLine
 10
110.507322
 20
92.509956
 30
0.0
 11
110.507322
 21
92.209956
 31
0.0
  0
LINE
  5
15C
100
AcDbEntity
  8
ALPHA
100
AcDbLine
 10
114.127322
 20
88.009956
 30
0.0
 11
114.127322
 21
116.509956
 31
0.0
  0
LINE
  5
15D
100
AcDbEntity
  8
ALPHA
100
AcDbLine
 10
112.507322
 20
92.509956
 30
0.0
 11
112.507322
 21
92.209956
 31
0.0
  0
LINE
  5
15E
100
AcDbEntity
  8
ALPHA
100
AcDbLine
 10
114.127322
 20
116.509956
 30
0.0
 11
114.127322
 21
125.809956
 31
0.0
  0
LINE
  5
15F
100
AcDbEntity
  8
ALPHA
100
AcDbLine
 10
114.127322
 20
127.181758
 30
0.0
 11
114.127322
 21
128.259822
 31
0.0
  0
LINE
  5
160
100
AcDbEntity
  8
ALPHA
100
AcDbLine
 10
112.507322
 20
124.359956
 30
0.0
 11
112.507322
 21
123.057323
 31
0.0
  0
LINE
  5
161
100
AcDbEntity
  8
ALPHA
100
AcDbLine
 10
114.127322
 20
126.809956
 30
0.0
 11
116.427322
 21
126.809956
 31
0.0
  0
LINE
  5
162
100
AcDbEntity
  8
ALPHA
100
AcDbLine
 10
116.427322
 20
126.809956
 30
0.0
 11
116.427322
 21
125.809956
 31
0.0
  0
POLYLINE
  5
163
100
AcDbEntity
  8
ALPHA
100
AcDb2dPolyline
 66
     1
 10
0.0
 20
0.0
 30
0.0
  0
VERTEX
  5
2B8
100
AcDbEntity
  8
ALPHA
100
AcDbVertex
100
AcDb2dVertex
 10
112.507322
 20
88.307113
 30
0.0
  0
VERTEX
  5
2B9
100
AcDbEntity
  8
ALPHA
100
AcDbVertex
100
AcDb2dVertex
 10
112.528419
 20
88.382923
 30
0.0
  0
VERTEX
  5
2BA
100
AcDbEntity
  8
ALPHA
100
AcDbVertex
100
AcDb2dVertex
 10
112.587463
 20
88.447934
 30
0.0
  0
VERTEX
  5
2BB
100
AcDbEntity
  8
ALPHA
100
AcDbVertex
100
AcDb2dVertex
 10
112.627322
 20
88.471251
 30
0.0
  0
SEQEND
  5
2BC
100
AcDbEntity
  8
ALPHA
  0
LINE
  5
169
100
AcDbEntity
  8
ALPHA
100
AcDbLine
 10
119.107322
 20
100.609956
 30
0.0
 11
119.107322
 21
117.609956
 31
0.0
  0
LINE
  5
16A
100
AcDbEntity
  8
ALPHA
100
AcDbLine
 10
114.127322
 20
126.809956
 30
0.0
 11
114.127322
 21
127.181758
 31
0.0
  0
POLYLINE
  5
16B
100
AcDbEntity
  8
ALPHA
100
AcDb2dPolyline
 66
     1
 10
0.0
 20
0.0
 30
0.0
  0
VERTEX
  5
2BD
100
AcDbEntity
  8
ALPHA
100
AcDbVertex
100
AcDb2dVertex
 10
110.107322
 20
100.009956
 30
0.0
  0
VERTEX
  5
2BE
100
AcDbEntity
  8
ALPHA
100
AcDbVertex
100
AcDb2dVertex
 10
110.107322
 20
100.093514
 30
0.0
  0
VERTEX
  5
2BF
100
AcDbEntity
  8
ALPHA
100
AcDbVertex
100
AcDb2dVertex
 10
110.107322
 20
100.341647
 30
0.0
  0
VERTEX
  5
2C0
100
AcDbEntity
  8
ALPHA
100
AcDbVertex
100
AcDb2dVertex
 10
110.107322
 20
100.746817
 30
0.0
  0
VERTEX
  5
2C1
100
AcDbEntity
  8
ALPHA
100
AcDbVertex
100
AcDb2dVertex
 10
110.107322
 20
101.296712
 30
0.0
  0
VERTEX
  5
2C2
100
AcDbEntity
  8
ALPHA
100
AcDbVertex
100
AcDb2dVertex
 10
110.107322
 20
101.974624
 30
0.0
  0
VERTEX
  5
2C3
100
AcDbEntity
  8
ALPHA
100
AcDbVertex
100
AcDb2dVertex
 10
110.107322
 20
102.759956
 30
0.0
  0
VERTEX
  5
2C4
100
AcDbEntity
  8
ALPHA
100
AcDbVertex
100
AcDb2dVertex
 10
110.107322
 20
103.628845
 30
0.0
  0
VERTEX
  5
2C5
100
AcDbEntity
  8
ALPHA
100
AcDbVertex
100
AcDb2dVertex
 10
110.107322
 20
104.554891
 30
0.0
  0
VERTEX
  5
2C6
100
AcDbEntity
  8
ALPHA
100
AcDbVertex
100
AcDb2dVertex
 10
110.107322
 20
105.509956
 30
0.0
  0
SEQEND
  5
2C7
100
AcDbEntity
  8
ALPHA
  0
POLYLINE
  5
177
100
AcDbEntity
  8
ALPHA
100
AcDb2dPolyline
 66
     1
 10
0.0
 20
0.0
 30
0.0
  0
VERTEX
  5
2C8
100
AcDbEntity
  8
ALPHA
100
AcDbVertex
100
AcDb2dVertex
 10
98.607322
 20
100.009956
 30
0.0
  0
VERTEX
  5
2C9
100
AcDbEntity
  8
ALPHA
100
AcDbVertex
100
AcDb2dVertex
 10
98.607322
 20
100.093514
 30
0.0
  0
VERTEX
  5
2CA
100
AcDbEntity
  8
ALPHA
100
AcDbVertex
100
AcDb2dVertex
 10
98.607322
 20
100.341647
 30
0.0
  0
VERTEX
  5
2CB
100
AcDbEntity
  8
ALPHA
100
AcDbVertex
100
AcDb2dVertex
 10
98.607322
 20
100.746817
 30
0.0
  0
VERTEX
  5
2CC
100
AcDbEntity
  8
ALPHA
100
AcDbVertex
100
AcDb2dVertex
 10
98.607322
 20
101.296712
 30
0.0
  0
VERTEX
  5
2CD
100
AcDbEntity
  8
ALPHA
100
AcDbVertex
100
AcDb2dVertex
 10
98.607322
 20
101.974624
 30
0.0
  0
VERTEX
  5
2CE
100
AcDbEntity
  8
ALPHA
100
AcDbVertex
100
AcDb2dVertex
 10
98.607322
 20
102.759956
 30
0.0
  0
VERTEX
  5
2CF
100
AcDbEntity
  8
ALPHA
100
AcDbVertex
100
AcDb2dVertex
 10
98.607322
 20
103.628845
 30
0.0
  0
VERTEX
  5
2D0
100
AcDbEntity
  8
ALPHA
100
AcDbVertex
100
AcDb2dVertex
 10
98.607322
 20
104.554891
 30
0.0
  0
VERTEX
  5
2D1
100
AcDbEntity
  8
ALPHA
100
AcDbVertex
100
AcDb2dVertex
 10
98.607322
 20
105.509956
 30
0.0
  0
SEQEND
  5
2D2
100
AcDbEntity
  8
ALPHA
  0
POLYLINE
  5
183
100
AcDbEntity
  8
ALPHA
100
AcDb2dPolyline
 66
     1
 10
0.0
 20
0.0
 30
0.0
  0
VERTEX
  5
2D3
100
AcDbEntity
  8
ALPHA
100
AcDbVertex
100
AcDb2dVertex
 10
110.107322
 20
111.009956
 30
0.0
  0
VERTEX
  5
2D4
100
AcDbEntity
  8
ALPHA
100
AcDbVertex
100
AcDb2dVertex
 10
110.107322
 20
110.926399
 30
0.0
  0
VERTEX
  5
2D5
100
AcDbEntity
  8
ALPHA
100
AcDbVertex
100
AcDb2dVertex
 10
110.107322
 20
110.678266
 30
0.0
  0
VERTEX
  5
2D6
100
AcDbEntity
  8
ALPHA
100
AcDbVertex
100
AcDb2dVertex
 10
110.107322
 20
110.273096
 30
0.0
  0
VERTEX
  5
2D7
100
AcDbEntity
  8
ALPHA
100
AcDbVertex
100
AcDb2dVertex
 10
110.107322
 20
109.723201
 30
0.0
  0
VERTEX
  5
2D8
100
AcDbEntity
  8
ALPHA
100
AcDbVertex
100
AcDb2dVertex
 10
110.107322
 20
109.045288
 30
0.0
  0
VERTEX
  5
2D9
100
AcDbEntity
  8
ALPHA
100
AcDbVertex
100
AcDb2dVertex
 10
110.107322
 20
108.259956
 30
0.0
  0
VERTEX
  5
2DA
100
AcDbEntity
  8
ALPHA
100
AcDbVertex
100
AcDb2dVertex
 10
110.107322
 20
107.391067
 30
0.0
  0
VERTEX
  5
2DB
100
AcDbEntity
  8
ALPHA
100
AcDbVertex
100
AcDb2dVertex
 10
110.107322
 20
106.465021
 30
0.0
  0
VERTEX
  5
2DC
100
AcDbEntity
  8
ALPHA
100
AcDbVertex
100
AcDb2dVertex
 10
110.107322
 20
105.509956
 30
0.0
  0
SEQEND
  5
2DD
100
AcDbEntity
  8
ALPHA
  0
POLYLINE
  5
18F
100
AcDbEntity
  8
ALPHA
100
AcDb2dPolyline
 66
     1
 10
0.0
 20
0.0
 30
0.0
  0
VERTEX
  5
2DE
100
AcDbEntity
  8
ALPHA
100
AcDbVertex
100
AcDb2dVertex
 10
98.607322
 20
111.009956
 30
0.0
  0
VERTEX
  5
2DF
100
AcDbEntity
  8
ALPHA
100
AcDbVertex
100
AcDb2dVertex
 10
98.607322
 20
110.926399
 30
0.0
  0
VERTEX
  5
2E0
100
AcDbEntity
  8
ALPHA
100
AcDbVertex
100
AcDb2dVertex
 10
98.607322
 20
110.678266
 30
0.0
  0
VERTEX
  5
2E1
100
AcDbEntity
  8
ALPHA
100
AcDbVertex
100
AcDb2dVertex
 10
98.607322
 20
110.273096
 30
0.0
  0
VERTEX
  5
2E2
100
AcDbEntity
  8
ALPHA
100
AcDbVertex
100
AcDb2dVertex
 10
98.607322
 20
109.723201
 30
0.0
  0
VERTEX
  5
2E3
100
AcDbEntity
  8
ALPHA
100
AcDbVertex
100
AcDb2dVertex
 10
98.607322
 20
109.045288
 30
0.0
  0
VERTEX
  5
2E4
100
AcDbEntity
  8
ALPHA
100
AcDbVertex
100
AcDb2dVertex
 10
98.607322
 20
108.259956
 30
0.0
  0
VERTEX
  5
2E5
100
AcDbEntity
  8
ALPHA
100
AcDbVertex
100
AcDb2dVertex
 10
98.607322
 20
107.391067
 30
0.0
  0
VERTEX
  5
2E6
100
AcDbEntity
  8
ALPHA
100
AcDbVertex
100
AcDb2dVertex
 10
98.607322
 20
106.465021
 30
0.0
  0
VERTEX
  5
2E7
100
AcDbEntity
  8
ALPHA
100
AcDbVertex
100
AcDb2dVertex
 10
98.607322
 20
105.509956
 30
0.0
  0
SEQEND
  5
2E8
100
AcDbEntity
  8
ALPHA
  0
LINE
  5
19B
100
AcDbEntity
  8
ALPHA
100
AcDbLine
 10
93.607322
 20
105.509956
 30
0.0
 11
93.607322
 21
105.009956
 31
0.0
  0
ARC
  5
19C
100
AcDbEntity
  8
ALPHA
100
AcDbCircle
 10
98.607322
 20
105.009956
 30
0.0
 40
5.0
100
AcDbArc
 50
180.0
 51
270.0
  0
LINE
  5
19D
100
AcDbEntity
  8
ALPHA
100
AcDbLine
 10
93.607322
 20
105.009956
 30
0.0
 11
93.607322
 21
105.509956
 31
0.0
  0
LINE
  5
19E
100
AcDbEntity
  8
ALPHA
100
AcDbLine
 10
110.107322
 20
100.009956
 30
0.0
 11
98.607322
 21
100.009956
 31
0.0
  0
LINE
  5
19F
100
AcDbEntity
  8
ALPHA
100
AcDbLine
 10
110.607322
 20
105.509956
 30
0.0
 11
110.607322
 21
101.000236
 31
0.0
  0
LINE
  5
1A0
100
AcDbEntity
  8
ALPHA
100
AcDbLine
 10
110.607322
 20
100.509956
 30
0.0
 11
110.607322
 21
101.000236
 31
0.0
  0
ARC
  5
1A1
100
AcDbEntity
  8
ALPHA
100
AcDbCircle
 10
110.107322
 20
100.509956
 30
0.0
 40
0.5
100
AcDbArc
 50
270.0
 51
0.0
  0
LINE
  5
1A2
100
AcDbEntity
  8
ALPHA
100
AcDbLine
 10
110.607322
 20
101.009956
 30
0.0
 11
110.607322
 21
105.509956
 31
0.0
  0
LINE
  5
1A3
100
AcDbEntity
  8
ALPHA
100
AcDbLine
 10
110.607322
 20
100.509956
 30
0.0
 11
110.607322
 21
101.009956
 31
0.0
  0
LINE
  5
1A4
100
AcDbEntity
  8
ALPHA
100
AcDbLine
 10
112.627322
 20
101.009956
 30
0.0
 11
110.607322
 21
101.009956
 31
0.0
  0
LINE
  5
1A5
100
AcDbEntity
  8
ALPHA
100
AcDbLine
 10
93.607322
 20
106.009956
 30
0.0
 11
93.607322
 21
105.509956
 31
0.0
  0
ARC
  5
1A6
100
AcDbEntity
  8
ALPHA
100
AcDbCircle
 10
98.607322
 20
106.009956
 30
0.0
 40
5.0
100
AcDbArc
 50
90.0
 51
180.0
  0
LINE
  5
1A7
100
AcDbEntity
  8
ALPHA
100
AcDbLine
 10
93.607322
 20
106.009956
 30
0.0
 11
93.607322
 21
105.509956
 31
0.0
  0
LINE
  5
1A8
100
AcDbEntity
  8
ALPHA
100
AcDbLine
 10
110.107322
 20
111.009956
 30
0.0
 11
98.607322
 21
111.009956
 31
0.0
  0
LINE
  5
1A9
100
AcDbEntity
  8
ALPHA
100
AcDbLine
 10
110.607322
 20
110.019676
 30
0.0
 11
110.607322
 21
110.509956
 31
0.0
  0
LINE
  5
1AA
100
AcDbEntity
  8
ALPHA
100
AcDbLine
 10
110.607322
 20
110.019676
 30
0.0
 11
110.607322
 21
105.509956
 31
0.0
  0
ARC
  5
1AB
100
AcDbEntity
  8
ALPHA
100
AcDbCircle
 10
110.107322
 20
110.509956
 30
0.0
 40
0.5
100
AcDbArc
 50
0.0
 51
90.0
  0
LINE
  5
1AC
100
AcDbEntity
  8
ALPHA
100
AcDbLine
 10
110.607322
 20
110.009956
 30
0.0
 11
110.607322
 21
105.509956
 31
0.0
  0
LINE
  5
1AD
100
AcDbEntity
  8
ALPHA
100
AcDbLine
 10
110.607322
 20
110.509956
 30
0.0
 11
110.607322
 21
110.009956
 31
0.0
  0
LINE
  5
1AE
100
AcDbEntity
  8
ALPHA
100
AcDbLine
 10
112.627322
 20
110.009956
 30
0.0
 11
110.607322
 21
110.009956
 31
0.0
  0
LINE
  5
1AF
100
AcDbEntity
  8
ALPHA
100
AcDbLine
 10
119.107322
 20
104.409956
 30
0.0
 11
119.307322
 21
104.409956
 31
0.0
  0
LINE
  5
1B0
100
AcDbEntity
  8
ALPHA
100
AcDbLine
 10
119.107322
 20
106.609956
 30
0.0
 11
119.307322
 21
106.609956
 31
0.0
  0
LINE
  5
1B1
100
AcDbEntity
  8
ALPHA
100
AcDbLine
 10
121.007322
 20
118.009956
 30
0.0
 11
121.007322
 21
121.409956
 31
0.0
  0
LINE
  5
1B2
100
AcDbEntity
  8
ALPHA
100
AcDbLine
 10
121.007322
 20
121.409956
 30
0.0
 11
119.107322
 21
121.409956
 31
0.0
  0
LINE
  5
1B3
100
AcDbEntity
  8
ALPHA
100
AcDbLine
 10
122.307322
 20
121.409956
 30
0.0
 11
122.307322
 21
118.009956
 31
0.0
  0
LINE
  5
1B4
100
AcDbEntity
  8
ALPHA
100
AcDbLine
 10
122.307322
 20
121.409956
 30
0.0
 11
122.307322
 21
118.009956
 31
0.0
  0
LINE
  5
1B5
100
AcDbEntity
  8
ALPHA
100
AcDbLine
 10
121.507322
 20
121.409956
 30
0.0
 11
121.007322
 21
121.409956
 31
0.0
  0
LINE
  5
1B6
100
AcDbEntity
  8
ALPHA
100
AcDbLine
 10
122.307322
 20
121.409956
 30
0.0
 11
121.507322
 21
121.409956
 31
0.0
  0
POLYLINE
  5
1B7
100
AcDbEntity
  8
ALPHA
100
AcDb2dPolyline
 66
     1
 10
0.0
 20
0.0
 30
0.0
  0
VERTEX
  5
2E9
100
AcDbEntity
  8
ALPHA
100
AcDbVertex
100
AcDb2dVertex
 10
112.644462
 20
123.249066
 30
0.0
  0
VERTEX
  5
2EA
100
AcDbEntity
  8
ALPHA
100
AcDbVertex
100
AcDb2dVertex
 10
112.66403
 20
123.369871
 30
0.0
  0
VERTEX
  5
2EB
100
AcDbEntity
  8
ALPHA
100
AcDbVertex
100
AcDb2dVertex
 10
112.77056
 20
123.574306
 30
0.0
  0
VERTEX
  5
2EC
100
AcDbEntity
  8
ALPHA
100
AcDbVertex
100
AcDb2dVertex
 10
112.936484
 20
123.736547
 30
0.0
  0
VERTEX
  5
2ED
100
AcDbEntity
  8
ALPHA
100
AcDbVertex
100
AcDb2dVertex
 10
113.14556
 20
123.840712
 30
0.0
  0
VERTEX
  5
2EE
100
AcDbEntity
  8
ALPHA
100
AcDbVertex
100
AcDb2dVertex
 10
113.377322
 20
123.876604
 30
0.0
  0
SEQEND
  5
2EF
100
AcDbEntity
  8
ALPHA
  0
LINE
  5
1BF
100
AcDbEntity
  8
ALPHA
100
AcDbLine
 10
112.631587
 20
123.169579
 30
0.0
 11
112.644462
 21
123.249066
 31
0.0
  0
LINE
  5
1C0
100
AcDbEntity
  8
ALPHA
100
AcDbLine
 10
112.627322
 20
123.143253
 30
0.0
 11
112.631587
 21
123.169579
 31
0.0
  0
POLYLINE
  5
1C1
100
AcDbEntity
  8
ALPHA
100
AcDb2dPolyline
 66
     1
 10
0.0
 20
0.0
 30
0.0
  0
VERTEX
  5
2F0
100
AcDbEntity
  8
ALPHA
100
AcDbVertex
100
AcDb2dVertex
 10
112.631992
 20
123.838462
 30
0.0
  0
VERTEX
  5
2F1
100
AcDbEntity
  8
ALPHA
100
AcDbVertex
100
AcDb2dVertex
 10
112.66403
 20
124.036252
 30
0.0
  0
VERTEX
  5
2F2
100
AcDbEntity
  8
ALPHA
100
AcDbVertex
100
AcDb2dVertex
 10
112.77056
 20
124.240687
 30
0.0
  0
VERTEX
  5
2F3
100
AcDbEntity
  8
ALPHA
100
AcDbVertex
100
AcDb2dVertex
 10
112.936484
 20
124.402928
 30
0.0
  0
VERTEX
  5
2F4
100
AcDbEntity
  8
ALPHA
100
AcDbVertex
100
AcDb2dVertex
 10
113.14556
 20
124.507093
 30
0.0
  0
VERTEX
  5
2F5
100
AcDbEntity
  8
ALPHA
100
AcDbVertex
100
AcDb2dVertex
 10
113.377322
 20
124.542986
 30
0.0
  0
SEQEND
  5
2F6
100
AcDbEntity
  8
ALPHA
  0
LINE
  5
1C9
100
AcDbEntity
  8
ALPHA
100
AcDbLine
 10
112.627322
 20
123.809634
 30
0.0
 11
112.631992
 21
123.838462
 31
0.0
  0
POLYLINE
  5
1CA
100
AcDbEntity
  8
ALPHA
100
AcDb2dPolyline
 66
     1
 10
0.0
 20
0.0
 30
0.0
  0
VERTEX
  5
2F7
100
AcDbEntity
  8
ALPHA
100
AcDbVertex
100
AcDb2dVertex
 10
113.377322
 20
121.109873
 30
0.0
  0
VERTEX
  5
2F8
100
AcDbEntity
  8
ALPHA
100
AcDbVertex
100
AcDb2dVertex
 10
113.609085
 20
121.109874
 30
0.0
  0
VERTEX
  5
2F9
100
AcDbEntity
  8
ALPHA
100
AcDbVertex
100
AcDb2dVertex
 10
113.818161
 20
121.109877
 30
0.0
  0
VERTEX
  5
2FA
100
AcDbEntity
  8
ALPHA
100
AcDbVertex
100
AcDb2dVertex
 10
113.984085
 20
121.109882
 30
0.0
  0
VERTEX
  5
2FB
100
AcDbEntity
  8
ALPHA
100
AcDbVertex
100
AcDb2dVertex
 10
114.090615
 20
121.109888
 30
0.0
  0
VERTEX
  5
2FC
100
AcDbEntity
  8
ALPHA
100
AcDbVertex
100
AcDb2dVertex
 10
114.127322
 20
121.109895
 30
0.0
  0
SEQEND
  5
2FD
100
AcDbEntity
  8
ALPHA
  0
POLYLINE
  5
1D2
100
AcDbEntity
  8
ALPHA
100
AcDb2dPolyline
 66
     1
 10
0.0
 20
0.0
 30
0.0
  0
VERTEX
  5
2FE
100
AcDbEntity
  8
ALPHA
100
AcDbVertex
100
AcDb2dVertex
 10
112.627322
 20
121.109895
 30
0.0
  0
VERTEX
  5
2FF
100
AcDbEntity
  8
ALPHA
100
AcDbVertex
100
AcDb2dVertex
 10
112.66403
 20
121.109888
 30
0.0
  0
VERTEX
  5
300
100
AcDbEntity
  8
ALPHA
100
AcDbVertex
100
AcDb2dVertex
 10
112.77056
 20
121.109882
 30
0.0
  0
VERTEX
  5
301
100
AcDbEntity
  8
ALPHA
100
AcDbVertex
100
AcDb2dVertex
 10
112.936484
 20
121.109877
 30
0.0
  0
VERTEX
  5
302
100
AcDbEntity
  8
ALPHA
100
AcDbVertex
100
AcDb2dVertex
 10
113.14556
 20
121.109874
 30
0.0
  0
VERTEX
  5
303
100
AcDbEntity
  8
ALPHA
100
AcDbVertex
100
AcDb2dVertex
 10
113.377322
 20
121.109873
 30
0.0
  0
SEQEND
  5
304
100
AcDbEntity
  8
ALPHA
  0
POLYLINE
  5
1DA
100
AcDbEntity
  8
ALPHA
100
AcDb2dPolyline
 66
     1
 10
0.0
 20
0.0
 30
0.0
  0
VERTEX
  5
305
100
AcDbEntity
  8
ALPHA
100
AcDbVertex
100
AcDb2dVertex
 10
113.377322
 20
124.542986
 30
0.0
  0
VERTEX
  5
306
100
AcDbEntity
  8
ALPHA
100
AcDbVertex
100
AcDb2dVertex
 10
113.609085
 20
124.507093
 30
0.0
  0
VERTEX
  5
307
100
AcDbEntity
  8
ALPHA
100
AcDbVertex
100
AcDb2dVertex
 10
113.818161
 20
124.402928
 30
0.0
  0
VERTEX
  5
308
100
AcDbEntity
  8
ALPHA
100
AcDbVertex
100
AcDb2dVertex
 10
113.984085
 20
124.240687
 30
0.0
  0
VERTEX
  5
309
100
AcDbEntity
  8
ALPHA
100
AcDbVertex
100
AcDb2dVertex
 10
114.090615
 20
124.036252
 30
0.0
  0
VERTEX
  5
30A
100
AcDbEntity
  8
ALPHA
100
AcDbVertex
100
AcDb2dVertex
 10
114.127322
 20
123.809634
 30
0.0
  0
SEQEND
  5
30B
100
AcDbEntity
  8
ALPHA
  0
POLYLINE
  5
1E2
100
AcDbEntity
  8
ALPHA
100
AcDb2dPolyline
 66
     1
 10
0.0
 20
0.0
 30
0.0
  0
VERTEX
  5
30C
100
AcDbEntity
  8
ALPHA
100
AcDbVertex
100
AcDb2dVertex
 10
112.627322
 20
92.442946
 30
0.0
  0
VERTEX
  5
30D
100
AcDbEntity
  8
ALPHA
100
AcDbVertex
100
AcDb2dVertex
 10
112.66403
 20
92.442939
 30
0.0
  0
VERTEX
  5
30E
100
AcDbEntity
  8
ALPHA
100
AcDbVertex
100
AcDb2dVertex
 10
112.77056
 20
92.442933
 30
0.0
  0
VERTEX
  5
30F
100
AcDbEntity
  8
ALPHA
100
AcDbVertex
100
AcDb2dVertex
 10
112.936484
 20
92.442928
 30
0.0
  0
VERTEX
  5
310
100
AcDbEntity
  8
ALPHA
100
AcDbVertex
100
AcDb2dVertex
 10
113.14556
 20
92.442924
 30
0.0
  0
VERTEX
  5
311
100
AcDbEntity
  8
ALPHA
100
AcDbVertex
100
AcDb2dVertex
 10
113.377322
 20
92.442923
 30
0.0
  0
SEQEND
  5
312
100
AcDbEntity
  8
ALPHA
  0
LINE
  5
1EA
100
AcDbEntity
  8
ALPHA
100
AcDbLine
 10
114.123058
 20
123.169579
 30
0.0
 11
114.127322
 21
123.143253
 31
0.0
  0
LINE
  5
1EB
100
AcDbEntity
  8
ALPHA
100
AcDbLine
 10
114.110183
 20
123.249066
 30
0.0
 11
114.123058
 21
123.169579
 31
0.0
  0
POLYLINE
  5
1EC
100
AcDbEntity
  8
ALPHA
100
AcDb2dPolyline
 66
     1
 10
0.0
 20
0.0
 30
0.0
  0
VERTEX
  5
313
100
AcDbEntity
  8
ALPHA
100
AcDbVertex
100
AcDb2dVertex
 10
113.377322
 20
123.876604
 30
0.0
  0
VERTEX
  5
314
100
AcDbEntity
  8
ALPHA
100
AcDbVertex
100
AcDb2dVertex
 10
113.609085
 20
123.840712
 30
0.0
  0
VERTEX
  5
315
100
AcDbEntity
  8
ALPHA
100
AcDbVertex
100
AcDb2dVertex
 10
113.818161
 20
123.736547
 30
0.0
  0
VERTEX
  5
316
100
AcDbEntity
  8
ALPHA
100
AcDbVertex
100
AcDb2dVertex
 10
113.984085
 20
123.574306
 30
0.0
  0
VERTEX
  5
317
100
AcDbEntity
  8
ALPHA
100
AcDbVertex
100
AcDb2dVertex
 10
114.090615
 20
123.369871
 30
0.0
  0
VERTEX
  5
318
100
AcDbEntity
  8
ALPHA
100
AcDbVertex
100
AcDb2dVertex
 10
114.110183
 20
123.249066
 30
0.0
  0
SEQEND
  5
319
100
AcDbEntity
  8
ALPHA
  0
POLYLINE
  5
1F4
100
AcDbEntity
  8
ALPHA
100
AcDb2dPolyline
 66
     1
 10
0.0
 20
0.0
 30
0.0
  0
VERTEX
  5
31A
100
AcDbEntity
  8
ALPHA
100
AcDbVertex
100
AcDb2dVertex
 10
112.627322
 20
91.143931
 30
0.0
  0
VERTEX
  5
31B
100
AcDbEntity
  8
ALPHA
100
AcDbVertex
100
AcDb2dVertex
 10
112.66403
 20
90.943215
 30
0.0
  0
VERTEX
  5
31C
100
AcDbEntity
  8
ALPHA
100
AcDbVertex
100
AcDb2dVertex
 10
112.77056
 20
90.762146
 30
0.0
  0
VERTEX
  5
31D
100
AcDbEntity
  8
ALPHA
100
AcDbVertex
100
AcDb2dVertex
 10
112.936484
 20
90.61845
 30
0.0
  0
VERTEX
  5
31E
100
AcDbEntity
  8
ALPHA
100
AcDbVertex
100
AcDb2dVertex
 10
113.14556
 20
90.526191
 30
0.0
  0
VERTEX
  5
31F
100
AcDbEntity
  8
ALPHA
100
AcDbVertex
100
AcDb2dVertex
 10
113.377322
 20
90.4944
 30
0.0
  0
SEQEND
  5
320
100
AcDbEntity
  8
ALPHA
  0
POLYLINE
  5
1FC
100
AcDbEntity
  8
ALPHA
100
AcDb2dPolyline
 66
     1
 10
0.0
 20
0.0
 30
0.0
  0
VERTEX
  5
321
100
AcDbEntity
  8
ALPHA
100
AcDbVertex
100
AcDb2dVertex
 10
113.377322
 20
92.442923
 30
0.0
  0
VERTEX
  5
322
100
AcDbEntity
  8
ALPHA
100
AcDbVertex
100
AcDb2dVertex
 10
113.609085
 20
92.442924
 30
0.0
  0
VERTEX
  5
323
100
AcDbEntity
  8
ALPHA
100
AcDbVertex
100
AcDb2dVertex
 10
113.818161
 20
92.442928
 30
0.0
  0
VERTEX
  5
324
100
AcDbEntity
  8
ALPHA
100
AcDbVertex
100
AcDb2dVertex
 10
113.984085
 20
92.442933
 30
0.0
  0
VERTEX
  5
325
100
AcDbEntity
  8
ALPHA
100
AcDbVertex
100
AcDb2dVertex
 10
114.090615
 20
92.442939
 30
0.0
  0
VERTEX
  5
326
100
AcDbEntity
  8
ALPHA
100
AcDbVertex
100
AcDb2dVertex
 10
114.127322
 20
92.442946
 30
0.0
  0
SEQEND
  5
327
100
AcDbEntity
  8
ALPHA
  0
POLYLINE
  5
204
100
AcDbEntity
  8
ALPHA
100
AcDb2dPolyline
 66
     1
 10
0.0
 20
0.0
 30
0.0
  0
VERTEX
  5
328
100
AcDbEntity
  8
ALPHA
100
AcDbVertex
100
AcDb2dVertex
 10
113.377322
 20
90.4944
 30
0.0
  0
VERTEX
  5
329
100
AcDbEntity
  8
ALPHA
100
AcDbVertex
100
AcDb2dVertex
 10
113.609085
 20
90.526191
 30
0.0
  0
VERTEX
  5
32A
100
AcDbEntity
  8
ALPHA
100
AcDbVertex
100
AcDb2dVertex
 10
113.818161
 20
90.61845
 30
0.0
  0
VERTEX
  5
32B
100
AcDbEntity
  8
ALPHA
100
AcDbVertex
100
AcDb2dVertex
 10
113.984085
 20
90.762146
 30
0.0
  0
VERTEX
  5
32C
100
AcDbEntity
  8
ALPHA
100
AcDbVertex
100
AcDb2dVertex
 10
114.090615
 20
90.943215
 30
0.0
  0
VERTEX
  5
32D
100
AcDbEntity
  8
ALPHA
100
AcDbVertex
100
AcDb2dVertex
 10
114.127322
 20
91.143931
 30
0.0
  0
SEQEND
  5
32E
100
AcDbEntity
  8
ALPHA
  0
LINE
  5
20C
100
AcDbEntity
  8
ALPHA
100
AcDbLine
 10
112.627322
 20
123.109956
 30
0.0
 11
112.627322
 21
123.143253
 31
0.0
  0
ARC
  5
20D
100
AcDbEntity
  8
AXE
100
AcDbCircle
 10
113.377322
 20
123.109956
 30
0.0
 40
0.75
100
AcDbArc
 50
72.764491
 51
90.0
  0
ARC
  5
20E
100
AcDbEntity
  8
AXE
100
AcDbCircle
 10
113.377322
 20
123.109956
 30
0.0
 40
0.75
100
AcDbArc
 50
67.098929
 51
72.764491
  0
ARC
  5
20F
100
AcDbEntity
  8
ALPHA
100
AcDbCircle
 10
113.377322
 20
123.109956
 30
0.0
 40
0.75
100
AcDbArc
 50
55.522078
 51
67.098929
  0
ARC
  5
210
100
AcDbEntity
  8
ALPHA
100
AcDbCircle
 10
113.377322
 20
123.109956
 30
0.0
 40
0.75
100
AcDbArc
 50
48.777542
 51
55.522078
  0
ARC
  5
211
100
AcDbEntity
  8
ALPHA
100
AcDbCircle
 10
113.377322
 20
123.109956
 30
0.0
 40
0.75
100
AcDbArc
 50
38.268355
 51
48.777542
  0
ARC
  5
212
100
AcDbEntity
  8
ALPHA
100
AcDbCircle
 10
113.377322
 20
123.109956
 30
0.0
 40
0.75
100
AcDbArc
 50
31.109637
 51
38.268355
  0
ARC
  5
213
100
AcDbEntity
  8
ALPHA
100
AcDbCircle
 10
113.377322
 20
123.109956
 30
0.0
 40
0.75
100
AcDbArc
 50
20.996429
 51
31.109637
  0
ARC
  5
214
100
AcDbEntity
  8
ALPHA
100
AcDbCircle
 10
113.377322
 20
123.109956
 30
0.0
 40
0.75
100
AcDbArc
 50
13.658673
 51
20.996429
  0
ARC
  5
215
100
AcDbEntity
  8
ALPHA
100
AcDbCircle
 10
113.377322
 20
123.109956
 30
0.0
 40
0.75
100
AcDbArc
 50
0.0
 51
13.658673
  0
LINE
  5
216
100
AcDbEntity
  8
ALPHA
100
AcDbLine
 10
112.627322
 20
123.143253
 30
0.0
 11
112.627322
 21
123.809634
 31
0.0
  0
LINE
  5
217
100
AcDbEntity
  8
ALPHA
100
AcDbLine
 10
112.627322
 20
123.809634
 30
0.0
 11
112.627322
 21
123.839218
 31
0.0
  0
LINE
  5
218
100
AcDbEntity
  8
ALPHA
100
AcDbLine
 10
112.627322
 20
123.839218
 30
0.0
 11
112.627322
 21
123.84293
 31
0.0
  0
ARC
  5
219
100
AcDbEntity
  8
ALPHA
100
AcDbCircle
 10
113.377322
 20
123.84293
 30
0.0
 40
0.75
100
AcDbArc
 50
90.0
 51
180.0
  0
ARC
  5
21A
100
AcDbEntity
  8
ALPHA
100
AcDbCircle
 10
113.377322
 20
123.109956
 30
0.0
 40
0.75
100
AcDbArc
 50
166.341327
 51
180.0
  0
ARC
  5
21B
100
AcDbEntity
  8
ALPHA
100
AcDbCircle
 10
113.377322
 20
123.109956
 30
0.0
 40
0.75
100
AcDbArc
 50
159.003571
 51
166.341327
  0
ARC
  5
21C
100
AcDbEntity
  8
ALPHA
100
AcDbCircle
 10
113.377322
 20
123.109956
 30
0.0
 40
0.75
100
AcDbArc
 50
148.890363
 51
159.003571
  0
ARC
  5
21D
100
AcDbEntity
  8
ALPHA
100
AcDbCircle
 10
113.377322
 20
123.109956
 30
0.0
 40
0.75
100
AcDbArc
 50
141.731645
 51
148.890363
  0
ARC
  5
21E
100
AcDbEntity
  8
ALPHA
100
AcDbCircle
 10
113.377322
 20
123.109956
 30
0.0
 40
0.75
100
AcDbArc
 50
131.222458
 51
141.731645
  0
ARC
  5
21F
100
AcDbEntity
  8
ALPHA
100
AcDbCircle
 10
113.377322
 20
123.109956
 30
0.0
 40
0.75
100
AcDbArc
 50
124.477922
 51
131.222458
  0
ARC
  5
220
100
AcDbEntity
  8
ALPHA
100
AcDbCircle
 10
113.377322
 20
123.109956
 30
0.0
 40
0.75
100
AcDbArc
 50
112.901071
 51
124.477922
  0
ARC
  5
221
100
AcDbEntity
  8
AXE
100
AcDbCircle
 10
113.377322
 20
123.109956
 30
0.0
 40
0.75
100
AcDbArc
 50
107.235509
 51
112.901071
  0
ARC
  5
222
100
AcDbEntity
  8
AXE
100
AcDbCircle
 10
113.377322
 20
123.109956
 30
0.0
 40
0.75
100
AcDbArc
 50
90.0
 51
107.235509
  0
ARC
  5
223
100
AcDbEntity
  8
AXE
100
AcDbCircle
 10
113.377322
 20
123.109956
 30
0.0
 40
0.75
100
AcDbArc
 50
90.0
 51
107.214246
  0
ARC
  5
224
100
AcDbEntity
  8
AXE
100
AcDbCircle
 10
113.377322
 20
123.109956
 30
0.0
 40
0.75
100
AcDbArc
 50
107.214246
 51
112.917115
  0
ARC
  5
225
100
AcDbEntity
  8
ALPHA
100
AcDbCircle
 10
113.377322
 20
123.109956
 30
0.0
 40
0.75
100
AcDbArc
 50
112.917115
 51
124.441854
  0
ARC
  5
226
100
AcDbEntity
  8
ALPHA
100
AcDbCircle
 10
113.377322
 20
123.109956
 30
0.0
 40
0.75
100
AcDbArc
 50
124.441854
 51
131.250277
  0
ARC
  5
227
100
AcDbEntity
  8
ALPHA
100
AcDbCircle
 10
113.377322
 20
123.109956
 30
0.0
 40
0.75
100
AcDbArc
 50
131.250277
 51
141.686524
  0
ARC
  5
228
100
AcDbEntity
  8
ALPHA
100
AcDbCircle
 10
113.377322
 20
123.109956
 30
0.0
 40
0.75
100
AcDbArc
 50
141.686524
 51
148.927829
  0
ARC
  5
229
100
AcDbEntity
  8
ALPHA
100
AcDbCircle
 10
113.377322
 20
123.109956
 30
0.0
 40
0.75
100
AcDbArc
 50
148.927829
 51
158.954457
  0
ARC
  5
22A
100
AcDbEntity
  8
ALPHA
100
AcDbCircle
 10
113.377322
 20
123.109956
 30
0.0
 40
0.75
100
AcDbArc
 50
158.954457
 51
166.385959
  0
ARC
  5
22B
100
AcDbEntity
  8
ALPHA
100
AcDbCircle
 10
113.377322
 20
123.109956
 30
0.0
 40
0.75
100
AcDbArc
 50
166.385959
 51
180.0
  0
LINE
  5
22C
100
AcDbEntity
  8
ALPHA
100
AcDbLine
 10
112.627322
 20
123.109956
 30
0.0
 11
112.627322
 21
121.109895
 31
0.0
  0
LINE
  5
22D
100
AcDbEntity
  8
ALPHA
100
AcDbLine
 10
112.627322
 20
92.442946
 30
0.0
 11
112.627322
 21
121.109895
 31
0.0
  0
ARC
  5
22E
100
AcDbEntity
  8
ALPHA
100
AcDbCircle
 10
113.377322
 20
123.84293
 30
0.0
 40
0.75
100
AcDbArc
 50
0.0
 51
90.0
  0
LINE
  5
22F
100
AcDbEntity
  8
ALPHA
100
AcDbLine
 10
112.627322
 20
92.442946
 30
0.0
 11
112.627322
 21
91.143931
 31
0.0
  0
POLYLINE
  5
230
100
AcDbEntity
  8
ALPHA
100
AcDb2dPolyline
 66
     1
 10
0.0
 20
0.0
 30
0.0
  0
VERTEX
  5
32F
100
AcDbEntity
  8
ALPHA
100
AcDbVertex
100
AcDb2dVertex
 10
112.627322
 20
87.960605
 30
0.0
  0
VERTEX
  5
330
100
AcDbEntity
  8
ALPHA
100
AcDbVertex
100
AcDb2dVertex
 10
112.66403
 20
87.759889
 30
0.0
  0
VERTEX
  5
331
100
AcDbEntity
  8
ALPHA
100
AcDbVertex
100
AcDb2dVertex
 10
112.77056
 20
87.578821
 30
0.0
  0
VERTEX
  5
332
100
AcDbEntity
  8
ALPHA
100
AcDbVertex
100
AcDb2dVertex
 10
112.936484
 20
87.435124
 30
0.0
  0
VERTEX
  5
333
100
AcDbEntity
  8
ALPHA
100
AcDbVertex
100
AcDb2dVertex
 10
113.14556
 20
87.342865
 30
0.0
  0
VERTEX
  5
334
100
AcDbEntity
  8
ALPHA
100
AcDbVertex
100
AcDb2dVertex
 10
113.377322
 20
87.311075
 30
0.0
  0
SEQEND
  5
335
100
AcDbEntity
  8
ALPHA
  0
LINE
  5
238
100
AcDbEntity
  8
ALPHA
100
AcDbLine
 10
112.627322
 20
87.960605
 30
0.0
 11
112.627322
 21
91.143931
 31
0.0
  0
ARC
  5
239
100
AcDbEntity
  8
ALPHA
100
AcDbCircle
 10
113.377322
 20
123.109956
 30
0.0
 40
0.75
100
AcDbArc
 50
0.0
 51
13.614041
  0
ARC
  5
23A
100
AcDbEntity
  8
ALPHA
100
AcDbCircle
 10
113.377322
 20
123.109956
 30
0.0
 40
0.75
100
AcDbArc
 50
13.614041
 51
21.045543
  0
ARC
  5
23B
100
AcDbEntity
  8
ALPHA
100
AcDbCircle
 10
113.377322
 20
123.109956
 30
0.0
 40
0.75
100
AcDbArc
 50
21.045543
 51
31.072171
  0
ARC
  5
23C
100
AcDbEntity
  8
ALPHA
100
AcDbCircle
 10
113.377322
 20
123.109956
 30
0.0
 40
0.75
100
AcDbArc
 50
31.072171
 51
38.313476
  0
ARC
  5
23D
100
AcDbEntity
  8
ALPHA
100
AcDbCircle
 10
113.377322
 20
123.109956
 30
0.0
 40
0.75
100
AcDbArc
 50
38.313476
 51
48.749723
  0
ARC
  5
23E
100
AcDbEntity
  8
ALPHA
100
AcDbCircle
 10
113.377322
 20
123.109956
 30
0.0
 40
0.75
100
AcDbArc
 50
48.749723
 51
55.558146
  0
ARC
  5
23F
100
AcDbEntity
  8
ALPHA
100
AcDbCircle
 10
113.377322
 20
123.109956
 30
0.0
 40
0.75
100
AcDbArc
 50
55.558146
 51
67.082885
  0
ARC
  5
240
100
AcDbEntity
  8
AXE
100
AcDbCircle
 10
113.377322
 20
123.109956
 30
0.0
 40
0.75
100
AcDbArc
 50
67.082885
 51
72.785754
  0
ARC
  5
241
100
AcDbEntity
  8
AXE
100
AcDbCircle
 10
113.377322
 20
123.109956
 30
0.0
 40
0.75
100
AcDbArc
 50
72.785754
 51
90.0
  0
POLYLINE
  5
242
100
AcDbEntity
  8
ALPHA
100
AcDb2dPolyline
 66
     1
 10
0.0
 20
0.0
 30
0.0
  0
VERTEX
  5
336
100
AcDbEntity
  8
ALPHA
100
AcDbVertex
100
AcDb2dVertex
 10
113.377322
 20
87.311075
 30
0.0
  0
VERTEX
  5
337
100
AcDbEntity
  8
ALPHA
100
AcDbVertex
100
AcDb2dVertex
 10
113.609085
 20
87.342865
 30
0.0
  0
VERTEX
  5
338
100
AcDbEntity
  8
ALPHA
100
AcDbVertex
100
AcDb2dVertex
 10
113.818161
 20
87.435124
 30
0.0
  0
VERTEX
  5
339
100
AcDbEntity
  8
ALPHA
100
AcDbVertex
100
AcDb2dVertex
 10
113.984085
 20
87.578821
 30
0.0
  0
VERTEX
  5
33A
100
AcDbEntity
  8
ALPHA
100
AcDbVertex
100
AcDb2dVertex
 10
114.090615
 20
87.759889
 30
0.0
  0
VERTEX
  5
33B
100
AcDbEntity
  8
ALPHA
100
AcDbVertex
100
AcDb2dVertex
 10
114.127322
 20
87.960605
 30
0.0
  0
SEQEND
  5
33C
100
AcDbEntity
  8
ALPHA
  0
ENDSEC
  0
SECTION
  2
OBJECTS
  0
DICTIONARY
  5
34B
100
AcDbDictionary
  3
ACAD_GROUP
350
34C
  3
ACAD_MLINESTYLE
350
35A
  0
DICTIONARY
  5
34C
102
{ACAD_REACTORS
330
34B
102
}
100
AcDbDictionary
  0
DICTIONARY
  5
35A
102
{ACAD_REACTORS
330
34B
102
}
100
AcDbDictionary
  3
STANDARD
350
35B
  0
MLINESTYLE
  5
35B
102
{ACAD_REACTORS
330
35A
102
}
100
AcDbMlineStyle
  2
STANDARD
 70
     0
  3

 62
   256
 51
90.0
 52
90.0
 71
     2
 49
0.5
 62
   256
  6
BYLAYER
 49
-0.5
 62
   256
  6
BYLAYER
  0
ENDSEC
  0
EOF
