  0
SECTION
  2
HEADER
  9
$ACADVER
  1
AC1012
  9
$DWGCODEPAGE
  3
ANSI_1252
  9
$INSBASE
 10
0.0
 20
0.0
 30
0.0
  9
$EXTMIN
 10
31.187275
 20
70.436692
 30
0.0
  9
$EXTMAX
 10
146.894308
 20
187.950187
 30
0.0
  9
$LIMMIN
 10
20.927405
 20
54.60373
  9
$LIMMAX
 10
116.489703
 20
235.280901
  9
$ORTHOMODE
 70
     1
  9
$REGENMODE
 70
     1
  9
$FILLMODE
 70
     1
  9
$QTEXTMODE
 70
     0
  9
$MIRRTEXT
 70
     1
  9
$DRAGMODE
 70
     2
  9
$LTSCALE
 40
10.0
  9
$OSMODE
 70
    37
  9
$ATTMODE
 70
     1
  9
$TEXTSIZE
 40
0.2
  9
$TRACEWID
 40
0.05
  9
$TEXTSTYLE
  7
STANDARD
  9
$CLAYER
  8
COTATION1
  9
$CELTYPE
  6
CONTINUOUS
  9
$CECOLOR
 62
   256
  9
$CELTSCALE
 40
1.0
  9
$DELOBJ
 70
     1
  9
$DISPSILH
 70
     0
  9
$DIMSCALE
 40
1.0
  9
$DIMASZ
 40
0.18
  9
$DIMEXO
 40
0.0625
  9
$DIMDLI
 40
0.38
  9
$DIMRND
 40
0.0
  9
$DIMDLE
 40
0.0
  9
$DIMEXE
 40
0.18
  9
$DIMTP
 40
0.0
  9
$DIMTM
 40
0.0
  9
$DIMTXT
 40
0.18
  9
$DIMCEN
 40
0.09
  9
$DIMTSZ
 40
0.0
  9
$DIMTOL
 70
     0
  9
$DIMLIM
 70
     0
  9
$DIMTIH
 70
     1
  9
$DIMTOH
 70
     1
  9
$DIMSE1
 70
     0
  9
$DIMSE2
 70
     0
  9
$DIMTAD
 70
     0
  9
$DIMZIN
 70
     0
  9
$DIMBLK
  1

  9
$DIMASO
 70
     1
  9
$DIMSHO
 70
     1
  9
$DIMPOST
  1

  9
$DIMAPOST
  1

  9
$DIMALT
 70
     0
  9
$DIMALTD
 70
     2
  9
$DIMALTF
 40
25.4
  9
$DIMLFAC
 40
1.0
  9
$DIMTOFL
 70
     0
  9
$DIMTVP
 40
0.0
  9
$DIMTIX
 70
     0
  9
$DIMSOXD
 70
     0
  9
$DIMSAH
 70
     0
  9
$DIMBLK1
  1

  9
$DIMBLK2
  1

  9
$DIMSTYLE
  2
STANDARD
  9
$DIMCLRD
 70
     0
  9
$DIMCLRE
 70
     0
  9
$DIMCLRT
 70
     0
  9
$DIMTFAC
 40
1.0
  9
$DIMGAP
 40
0.09
  9
$DIMJUST
 70
     0
  9
$DIMSD1
 70
     0
  9
$DIMSD2
 70
     0
  9
$DIMTOLJ
 70
     1
  9
$DIMTZIN
 70
     0
  9
$DIMALTZ
 70
     0
  9
$DIMALTTZ
 70
     0
  9
$DIMFIT
 70
     3
  9
$DIMUPT
 70
     0
  9
$DIMUNIT
 70
     2
  9
$DIMDEC
 70
     4
  9
$DIMTDEC
 70
     4
  9
$DIMALTU
 70
     2
  9
$DIMALTTD
 70
     2
  9
$DIMTXSTY
  7
STANDARD
  9
$DIMAUNIT
 70
     0
  9
$LUNITS
 70
     2
  9
$LUPREC
 70
     4
  9
$SKETCHINC
 40
0.1
  9
$FILLETRAD
 40
0.0
  9
$AUNITS
 70
     0
  9
$AUPREC
 70
     0
  9
$MENU
  1
acad
  9
$ELEVATION
 40
0.0
  9
$PELEVATION
 40
0.0
  9
$THICKNESS
 40
0.0
  9
$LIMCHECK
 70
     0
  9
$BLIPMODE
 70
     0
  9
$CHAMFERA
 40
0.0
  9
$CHAMFERB
 40
0.0
  9
$CHAMFERC
 40
0.0
  9
$CHAMFERD
 40
0.0
  9
$SKPOLY
 70
     0
  9
$TDCREATE
 40
2453622.520798611
  9
$TDUPDATE
 40
2453644.591547858
  9
$TDINDWG
 40
0.1223769329
  9
$TDUSRTIMER
 40
0.1223769329
  9
$USRTIMER
 70
     1
  9
$ANGBASE
 50
0.0
  9
$ANGDIR
 70
     0
  9
$PDMODE
 70
     0
  9
$PDSIZE
 40
0.0
  9
$PLINEWID
 40
0.0
  9
$COORDS
 70
     1
  9
$SPLFRAME
 70
     0
  9
$SPLINETYPE
 70
     6
  9
$SPLINESEGS
 70
     8
  9
$ATTDIA
 70
     0
  9
$ATTREQ
 70
     1
  9
$HANDLING
 70
     1
  9
$HANDSEED
  5
D46
  9
$SURFTAB1
 70
     6
  9
$SURFTAB2
 70
     6
  9
$SURFTYPE
 70
     6
  9
$SURFU
 70
     6
  9
$SURFV
 70
     6
  9
$UCSNAME
  2

  9
$UCSORG
 10
0.0
 20
0.0
 30
0.0
  9
$UCSXDIR
 10
1.0
 20
0.0
 30
0.0
  9
$UCSYDIR
 10
0.0
 20
1.0
 30
0.0
  9
$PUCSNAME
  2

  9
$PUCSORG
 10
0.0
 20
0.0
 30
0.0
  9
$PUCSXDIR
 10
1.0
 20
0.0
 30
0.0
  9
$PUCSYDIR
 10
0.0
 20
1.0
 30
0.0
  9
$USERI1
 70
     0
  9
$USERI2
 70
     0
  9
$USERI3
 70
     0
  9
$USERI4
 70
     0
  9
$USERI5
 70
     0
  9
$USERR1
 40
0.0
  9
$USERR2
 40
0.0
  9
$USERR3
 40
0.0
  9
$USERR4
 40
0.0
  9
$USERR5
 40
0.0
  9
$WORLDVIEW
 70
     1
  9
$SHADEDGE
 70
     3
  9
$SHADEDIF
 70
    70
  9
$TILEMODE
 70
     1
  9
$MAXACTVP
 70
    16
  9
$PINSBASE
 10
0.0
 20
0.0
 30
0.0
  9
$PLIMCHECK
 70
     0
  9
$PEXTMIN
 10
1.000000E+20
 20
1.000000E+20
 30
1.000000E+20
  9
$PEXTMAX
 10
-1.000000E+20
 20
-1.000000E+20
 30
-1.000000E+20
  9
$PLIMMIN
 10
0.0
 20
0.0
  9
$PLIMMAX
 10
12.0
 20
9.0
  9
$UNITMODE
 70
     0
  9
$VISRETAIN
 70
     0
  9
$PLINEGEN
 70
     1
  9
$PSLTSCALE
 70
     0
  9
$TREEDEPTH
 70
  3020
  9
$PICKSTYLE
 70
     0
  9
$CMLSTYLE
  2
STANDARD
  9
$CMLJUST
 70
     0
  9
$CMLSCALE
 40
1.0
  9
$SAVEIMAGES
 70
     0
  0
ENDSEC
  0
SECTION
  2
CLASSES
  0
CLASS
  1
LWPOLYLINE
  2
AcDbPolyline
  3
"AutoCAD"
 90
    32768
280
     0
281
     1
  0
CLASS
  1
IMAGE
  2
AcDbRasterImage
  3
ISM
 90
    32895
280
     0
281
     1
  0
CLASS
  1
OLE2FRAME
  2
AcDbOle2Frame
  3
""
 90
    32768
280
     0
281
     1
  0
CLASS
  1
HATCH
  2
AcDbHatch
  3
"ACAD_SEDONA"
 90
    32768
280
     0
281
     1
  0
CLASS
  1
DICTIONARYVAR
  2
AcDbDictionaryVar
  3
"AutoCAD"
 90
    32768
280
     0
281
     0
  0
CLASS
  1
RASTERVARIABLES
  2
AcDbRasterVariables
  3
ISM
 90
    32768
280
     0
281
     0
  0
CLASS
  1
IMAGEDEF
  2
AcDbRasterImageDef
  3
ISM
 90
    32768
280
     0
281
     0
  0
CLASS
  1
IMAGEDEF_REACTOR
  2
AcDbRasterImageDefReactor
  3
ISM
 90
    32769
280
     0
281
     0
  0
CLASS
  1
SPATIAL_FILTER
  2
AcDbSpatialFilter
  3
"Acad"
 90
    32768
280
     0
281
     0
  0
CLASS
  1
XRECORD
  2
AcDbXrecord
  3
"<Built In>"
 90
    32768
280
     0
281
     0
  0
CLASS
  1
SORTENTSTABLE
  2
AcDbSortentsTable
  3
"AutoCAD"
 90
    32768
280
     0
281
     0
  0
CLASS
  1
LAYER_INDEX
  2
AcDbLayerIndex
  3
"Acad"
 90
    32768
280
     0
281
     0
  0
CLASS
  1
SPATIAL_INDEX
  2
AcDbSpatialIndex
  3
"Acad"
 90
    32768
280
     0
281
     0
  0
CLASS
  1
OBJECT_PTR
  2
CAseDLPNTableRecord
  3
"ASE-LPNTableRecord"
 90
    32769
280
     0
281
     0
  0
CLASS
  1
LAYOUT
  2
AcDbLayout
  3
AutoCAD 2000
 90
    32768
280
     0
281
     0
  0
CLASS
  1
PLOTSETTINGS
  2
AcDbPlotSettings
  3
AutoCAD 2000
 90
    32768
280
     0
281
     0
  0
CLASS
  1
ACDBDICTIONARYWDFLT
  2
AcDbDictionaryWithDefault
  3
AutoCAD 2000
 90
    32768
280
     0
281
     0
  0
CLASS
  1
ACDBPLACEHOLDER
  2
AcDbPlaceHolder
  3
AutoCAD 2000
 90
    32768
280
     0
281
     0
  0
CLASS
  1
VBA_PROJECT
  2
AcDbVbaProject
  3
acad
 90
    32768
280
     0
281
     0
  0
CLASS
  1
WIPEOUT
  2
AcDbWipeout
  3
WipeOut|AutoCAD Express Tool|expresstools@autodesk.com
 90
    32895
280
     0
281
     1
  0
CLASS
  1
WIPEOUTVARIABLES
  2
AcDbWipeoutVariables
  3
WipeOut|AutoCAD Express Tool|expresstools@autodesk.com
 90
    32768
280
     0
281
     0
  0
CLASS
  1
RTEXT
  2
RText
  3
RText|AutoCAD Express Tool|expresstools@autodesk.com
 90
    32768
280
     0
281
     1
  0
CLASS
  1
ARCALIGNEDTEXT
  2
AcDbArcAlignedText
  3
ATEXT|AutoCAD Express Tool|expresstools@autodesk.com
 90
    32768
280
     0
281
     1
  0
CLASS
  1
TABLESTYLE
  2
AcDbTableStyle
  3
ObjectDBX Classes
 90
    34815
280
     0
281
     0
  0
CLASS
  1
ACAD_PROXY_OBJECT_WRAPPER
  2
AcDbProxyObjectWrapper
  3
AutoCAD 2000
 90
    32768
280
     0
281
     0
  0
CLASS
  1
LONG_TRANSACTION
  2
AcDbLongTransaction
  3
AutoCAD 2000
 90
    32768
280
     0
281
     0
  0
CLASS
  1
LWPOLYLINE
  2
AcDbPolyline
  3
"AutoCAD"
 90
    32768
280
     0
281
     1
  0
CLASS
  1
HATCH
  2
AcDbHatch
  3
"ACAD_SEDONA"
 90
    32768
280
     0
281
     1
  0
CLASS
  1
XRECORD
  2
AcDbXrecord
  3
"<Built In>"
 90
    32768
280
     0
281
     0
  0
ENDSEC
  0
SECTION
  2
TABLES
  0
TABLE
  2
VPORT
  5
7
100
AcDbSymbolTable
 70
     2
  0
VPORT
  5
D45
100
AcDbSymbolTableRecord
100
AcDbViewportTableRecord
  2
*ACTIVE
 70
     0
 10
0.0
 20
0.0
 11
1.0
 21
1.0
 12
89.040792
 22
129.19344
 13
0.0
 23
0.0
 14
1.0
 24
1.0
 15
0.0
 25
0.0
 16
0.0
 26
0.0
 36
1.0
 17
0.0
 27
0.0
 37
0.0
 40
118.735472
 41
1.673611
 42
50.0
 43
0.0
 44
0.0
 50
0.0
 51
0.0
 71
     0
 72
   100
 73
     1
 74
     3
 75
     0
 76
     0
 77
     0
 78
     0
  0
ENDTAB
  0
TABLE
  2
LTYPE
  5
4
100
AcDbSymbolTable
 70
     3
  0
LTYPE
  5
11
102
{ACAD_XDICTIONARY
360
D06
102
}
100
AcDbSymbolTableRecord
100
AcDbLinetypeTableRecord
  2
BYBLOCK
 70
     0
  3

 72
    65
 73
     0
 40
0.0
  0
LTYPE
  5
12
102
{ACAD_XDICTIONARY
360
D08
102
}
100
AcDbSymbolTableRecord
100
AcDbLinetypeTableRecord
  2
BYLAYER
 70
     0
  3

 72
    65
 73
     0
 40
0.0
  0
LTYPE
  5
13
102
{ACAD_XDICTIONARY
360
D0A
102
}
100
AcDbSymbolTableRecord
100
AcDbLinetypeTableRecord
  2
CONTINUOUS
 70
     0
  3
Solid line
 72
    65
 73
     0
 40
0.0
  0
LTYPE
  5
69E
100
AcDbSymbolTableRecord
100
AcDbLinetypeTableRecord
  2
AXES2
 70
     0
  3
___ _ ___ _ ___ _ ___ _ ___ _ ___ _ ___ _ ___ _
 72
    65
 73
     4
 40
1.125
 49
0.75
 74
     0
 49
-0.125
 74
     0
 49
0.125
 74
     0
 49
-0.125
 74
     0
  0
LTYPE
  5
69F
100
AcDbSymbolTableRecord
100
AcDbLinetypeTableRecord
  2
CACHE2
 70
     0
  3
Caché (x.5) _ _ _ _ _ _ _ _ _ _ _ _ _ _ _ _ _
 72
    65
 73
     2
 40
0.1875
 49
0.125
 74
     0
 49
-0.0625
 74
     0
  0
ENDTAB
  0
TABLE
  2
LAYER
  5
2
100
AcDbSymbolTable
 70
     6
  0
LAYER
  5
14
100
AcDbSymbolTableRecord
100
AcDbLayerTableRecord
  2
0
 70
     0
 62
     7
  6
CONTINUOUS
  0
LAYER
  5
6A0
100
AcDbSymbolTableRecord
100
AcDbLayerTableRecord
  2
COTATION1
 70
     0
 62
     2
  6
CONTINUOUS
  0
LAYER
  5
6A1
100
AcDbSymbolTableRecord
100
AcDbLayerTableRecord
  2
AXE
 70
     0
 62
    80
  6
AXES2
  0
LAYER
  5
6A2
102
{ACAD_XDICTIONARY
360
D3C
102
}
100
AcDbSymbolTableRecord
100
AcDbLayerTableRecord
  2
DEFPOINTS
 70
     0
 62
     7
  6
CONTINUOUS
  0
LAYER
  5
6A3
100
AcDbSymbolTableRecord
100
AcDbLayerTableRecord
  2
ALPHA
 70
     0
 62
   254
  6
CONTINUOUS
  0
LAYER
  5
BA6
100
AcDbSymbolTableRecord
100
AcDbLayerTableRecord
  2
POINTILLE_COURT
 70
     0
 62
    41
  6
CACHE2
  0
ENDTAB
  0
TABLE
  2
STYLE
  5
3
100
AcDbSymbolTable
 70
     2
  0
STYLE
  5
17
102
{ACAD_XDICTIONARY
360
D0C
102
}
100
AcDbSymbolTableRecord
100
AcDbTextStyleTableRecord
  2
STANDARD
 70
     0
 40
0.0
 41
1.0
 50
0.0
 71
     0
 42
0.0
  3
txt
  4

  0
STYLE
  5
6A5
100
AcDbSymbolTableRecord
100
AcDbTextStyleTableRecord
  2
ROMANS
 70
     0
 40
0.0
 41
1.0
 50
0.0
 71
     0
 42
6.0
  3
romans
  4

  0
ENDTAB
  0
TABLE
  2
VIEW
  5
5
100
AcDbSymbolTable
 70
     0
  0
ENDTAB
  0
TABLE
  2
UCS
  5
6
100
AcDbSymbolTable
 70
     0
  0
ENDTAB
  0
TABLE
  2
APPID
  5
8
100
AcDbSymbolTable
 70
     1
  0
APPID
  5
16
100
AcDbSymbolTableRecord
100
AcDbRegAppTableRecord
  2
ACAD
 70
     0
  0
ENDTAB
  0
TABLE
  2
DIMSTYLE
  5
9
100
AcDbSymbolTable
 70
     2
  0
DIMSTYLE
105
18
102
{ACAD_XDICTIONARY
360
D04
102
}
100
AcDbSymbolTableRecord
100
AcDbDimStyleTableRecord
  2
STANDARD
 70
     0
  3

  4

  5

  6

  7

 40
1.0
 41
0.18
 42
0.0625
 43
0.38
 44
0.18
 45
0.0
 46
0.0
 47
0.0
 48
0.0
140
0.18
141
0.09
142
0.0
143
25.4
144
1.0
145
0.0
146
1.0
147
0.09
 71
     0
 72
     0
 73
     1
 74
     1
 75
     0
 76
     0
 77
     0
 78
     0
170
     0
171
     2
172
     0
173
     0
174
     0
175
     0
176
     0
177
     0
178
     0
270
     2
271
     4
272
     4
273
     2
274
     2
340
17
275
     0
280
     0
281
     0
282
     0
283
     1
284
     0
285
     0
286
     0
287
     3
288
     0
  0
DIMSTYLE
105
6A6
102
{ACAD_XDICTIONARY
360
D3E
102
}
102
{ACAD_REACTORS
330
8AB
330
8EF
102
}
100
AcDbSymbolTableRecord
100
AcDbDimStyleTableRecord
  2
SC_DEFAUT
 70
     0
  3

  4

  5
OPEN30
  6

  7

 40
1.0
 41
5.0
 42
2.0
 43
0.38
 44
2.5
 45
0.0
 46
0.0
 47
0.0
 48
0.0
140
2.5
141
0.0
142
0.0
143
25.4
144
1.0
145
0.0
146
1.0
147
2.0
 71
     0
 72
     0
 73
     1
 74
     1
 75
     0
 76
     0
 77
     1
 78
    12
170
     0
171
     2
172
     0
173
     0
174
     0
175
     0
176
     0
177
     0
178
     0
270
     2
271
     1
272
     1
273
     2
274
     2
340
6A5
275
     0
280
     0
281
     0
282
     0
283
     1
284
    12
285
    12
286
    12
287
     5
288
     0
  0
ENDTAB
  0
TABLE
  2
BLOCK_RECORD
  5
1
100
AcDbSymbolTable
 70
     3
  0
BLOCK_RECORD
  5
A
102
{ACAD_XDICTIONARY
360
751
102
}
100
AcDbSymbolTableRecord
100
AcDbBlockTableRecord
  2
*MODEL_SPACE
  0
BLOCK_RECORD
  5
B
102
{ACAD_XDICTIONARY
360
D32
102
}
100
AcDbSymbolTableRecord
100
AcDbBlockTableRecord
  2
*PAPER_SPACE
  0
BLOCK_RECORD
  5
673
100
AcDbSymbolTableRecord
100
AcDbBlockTableRecord
  2
_OPEN30
  0
BLOCK_RECORD
  5
8AC
100
AcDbSymbolTableRecord
100
AcDbBlockTableRecord
  2
*D1
  0
BLOCK_RECORD
  5
8F0
100
AcDbSymbolTableRecord
100
AcDbBlockTableRecord
  2
*D2
  0
ENDTAB
  0
ENDSEC
  0
SECTION
  2
BLOCKS
  0
BLOCK
  5
D
100
AcDbEntity
  8
0
100
AcDbBlockBegin
  2
*MODEL_SPACE
 70
     0
 10
0.0
 20
0.0
 30
0.0
  3
*MODEL_SPACE
  1

  0
ENDBLK
  5
E
100
AcDbEntity
  8
0
100
AcDbBlockEnd
  0
BLOCK
  5
F
100
AcDbEntity
 67
     1
  8
0
100
AcDbBlockBegin
  2
*PAPER_SPACE
 70
     0
 10
0.0
 20
0.0
 30
0.0
  3
*PAPER_SPACE
  1

  0
ENDBLK
  5
10
100
AcDbEntity
 67
     1
  8
0
100
AcDbBlockEnd
  0
BLOCK
  5
674
100
AcDbEntity
  8
0
100
AcDbBlockBegin
  2
_OPEN30
 70
     0
 10
0.0
 20
0.0
 30
0.0
  3
_OPEN30
  1

  0
LINE
  5
675
100
AcDbEntity
  8
COTATION1
 62
     0
100
AcDbLine
 10
-1.0
 20
0.267949
 30
0.0
 11
0.0
 21
0.0
 31
0.0
1001
ACAD
1000
RTLwPs
1070
   158
  0
LINE
  5
676
100
AcDbEntity
  8
COTATION1
 62
     0
100
AcDbLine
 10
0.0
 20
0.0
 30
0.0
 11
-1.0
 21
-0.267949
 31
0.0
1001
ACAD
1000
RTLwPs
1070
   158
  0
LINE
  5
677
100
AcDbEntity
  8
COTATION1
 62
     0
100
AcDbLine
 10
0.0
 20
0.0
 30
0.0
 11
-1.0
 21
0.0
 31
0.0
1001
ACAD
1000
RTLwPs
1070
   158
  0
ENDBLK
  5
678
100
AcDbEntity
  8
0
100
AcDbBlockEnd
  0
BLOCK
  5
8B6
100
AcDbEntity
  8
0
100
AcDbBlockBegin
  2
*D1
 70
     1
 10
0.0
 20
0.0
 30
0.0
  3
*D1
  1

1001
ACAD
1000
RTLwPs
1070
   128
  0
LINE
  5
CDA
100
AcDbEntity
  8
COTATION1
 62
     0
100
AcDbLine
 10
39.390457
 20
107.443253
 30
0.0
 11
39.390457
 21
70.448913
 31
0.0
1001
ACAD
1000
RTLwPs
1070
   158
  0
LINE
  5
CDB
100
AcDbEntity
  8
COTATION1
 62
     0
100
AcDbLine
 10
119.390464
 20
107.440345
 30
0.0
 11
119.390464
 21
70.448913
 31
0.0
1001
ACAD
1000
RTLwPs
1070
   158
  0
LINE
  5
CDC
100
AcDbEntity
  8
COTATION1
 62
     0
100
AcDbLine
 10
44.390457
 20
72.948913
 30
0.0
 11
114.390464
 21
72.948913
 31
0.0
1001
ACAD
1000
RTLwPs
1070
   158
  0
INSERT
  5
CDD
100
AcDbEntity
  8
COTATION1
 62
     0
100
AcDbBlockReference
  2
_OPEN30
 10
39.390457
 20
72.948913
 30
0.0
 41
5.0
 42
5.0
 43
5.0
 50
180.0
1001
ACAD
1000
RTLwPs
1070
   158
  0
INSERT
  5
CDE
100
AcDbEntity
  8
COTATION1
 62
     0
100
AcDbBlockReference
  2
_OPEN30
 10
119.390464
 20
72.948913
 30
0.0
 41
5.0
 42
5.0
 43
5.0
1001
ACAD
1000
RTLwPs
1070
   158
  0
MTEXT
  5
CDF
100
AcDbEntity
  8
COTATION1
 62
     0
100
AcDbMText
 10
79.39046
 20
76.198913
 30
0.0
 40
2.5
 41
0.0
 71
     5
 72
     1
  1
\A1;80
  7
ROMANS
1001
ACAD
1000
MTEXTBEGIN
1070
    73
1070
     1
1070
    44
1040
1.0
1070
    74
1070
     0
1000
MTEXTEND
1000
MTEXTBEGIN
1070
    73
1070
     1
1070
    44
1040
1.0
1070
    74
1070
     0
1000
MTEXTEND
  0
POINT
  5
CE0
100
AcDbEntity
  8
DEFPOINTS
 62
     0
100
AcDbPoint
 10
39.390457
 20
109.443253
 30
0.0
1001
ACAD
1000
RTLwPs
1070
   128
  0
POINT
  5
CE1
100
AcDbEntity
  8
DEFPOINTS
 62
     0
100
AcDbPoint
 10
119.390464
 20
109.440345
 30
0.0
1001
ACAD
1000
RTLwPs
1070
   128
  0
POINT
  5
CE2
100
AcDbEntity
  8
DEFPOINTS
 62
     0
100
AcDbPoint
 10
119.390464
 20
72.948913
 30
0.0
1001
ACAD
1000
RTLwPs
1070
   128
  0
ENDBLK
  5
8B7
100
AcDbEntity
  8
0
100
AcDbBlockEnd
1001
ACAD
1000
RTLwPs
1070
   128
  0
BLOCK
  5
8FB
100
AcDbEntity
  8
0
100
AcDbBlockBegin
  2
*D2
 70
     1
 10
0.0
 20
0.0
 30
0.0
  3
*D2
  1

1001
ACAD
1000
RTLwPs
1070
   128
  0
LINE
  5
CD0
100
AcDbEntity
  8
COTATION1
 62
     0
100
AcDbLine
 10
109.899035
 20
177.949166
 30
0.0
 11
146.890464
 21
177.949166
 31
0.0
1001
ACAD
1000
RTLwPs
1070
   158
  0
LINE
  5
CD1
100
AcDbEntity
  8
COTATION1
 62
     0
100
AcDbLine
 10
109.899035
 20
97.948916
 30
0.0
 11
146.890464
 21
97.948916
 31
0.0
1001
ACAD
1000
RTLwPs
1070
   158
  0
LINE
  5
CD2
100
AcDbEntity
  8
COTATION1
 62
     0
100
AcDbLine
 10
144.390464
 20
172.949166
 30
0.0
 11
144.390464
 21
141.199041
 31
0.0
1001
ACAD
1000
RTLwPs
1070
   158
  0
LINE
  5
CD3
100
AcDbEntity
  8
COTATION1
 62
     0
100
AcDbLine
 10
144.390464
 20
102.948916
 30
0.0
 11
144.390464
 21
134.699041
 31
0.0
1001
ACAD
1000
RTLwPs
1070
   158
  0
INSERT
  5
CD4
100
AcDbEntity
  8
COTATION1
 62
     0
100
AcDbBlockReference
  2
_OPEN30
 10
144.390464
 20
177.949166
 30
0.0
 41
5.0
 42
5.0
 43
5.0
 50
90.0
1001
ACAD
1000
RTLwPs
1070
   158
  0
INSERT
  5
CD5
100
AcDbEntity
  8
COTATION1
 62
     0
100
AcDbBlockReference
  2
_OPEN30
 10
144.390464
 20
97.948916
 30
0.0
 41
5.0
 42
5.0
 43
5.0
 50
270.0
1001
ACAD
1000
RTLwPs
1070
   158
  0
MTEXT
  5
CD6
100
AcDbEntity
  8
COTATION1
 62
     0
100
AcDbMText
 10
144.390464
 20
137.949041
 30
0.0
 40
2.5
 41
0.0
 71
     5
 72
     1
  1
\A1;80
  7
ROMANS
1001
ACAD
1000
MTEXTBEGIN
1070
    73
1070
     1
1070
    44
1040
1.0
1070
    74
1070
     0
1000
MTEXTEND
1000
MTEXTBEGIN
1070
    73
1070
     1
1070
    44
1040
1.0
1070
    74
1070
     0
1000
MTEXTEND
  0
POINT
  5
CD7
100
AcDbEntity
  8
DEFPOINTS
 62
     0
100
AcDbPoint
 10
107.899035
 20
177.949166
 30
0.0
1001
ACAD
1000
RTLwPs
1070
   128
  0
POINT
  5
CD8
100
AcDbEntity
  8
DEFPOINTS
 62
     0
100
AcDbPoint
 10
107.899035
 20
97.948916
 30
0.0
1001
ACAD
1000
RTLwPs
1070
   128
  0
POINT
  5
CD9
100
AcDbEntity
  8
DEFPOINTS
 62
     0
100
AcDbPoint
 10
144.390464
 20
97.948916
 30
0.0
1001
ACAD
1000
RTLwPs
1070
   128
  0
ENDBLK
  5
8FC
100
AcDbEntity
  8
0
100
AcDbBlockEnd
1001
ACAD
1000
RTLwPs
1070
   128
  0
ENDSEC
  0
SECTION
  2
ENTITIES
  0
LINE
  5
647
100
AcDbEntity
  8
ALPHA
100
AcDbLine
 10
110.767179
 20
111.285116
 30
0.0
 11
105.23557
 21
105.7535
 31
0.0
  0
CIRCLE
  5
646
100
AcDbEntity
  8
ALPHA
100
AcDbCircle
 10
107.901729
 20
108.758994
 30
0.0
 40
6.210273
  0
LINE
  5
645
100
AcDbEntity
  8
ALPHA
100
AcDbLine
 10
48.015319
 20
106.230176
 30
0.0
 11
53.550969
 21
111.765833
 31
0.0
  0
CIRCLE
  5
644
100
AcDbEntity
  8
ALPHA
100
AcDbCircle
 10
50.883458
 20
108.758994
 30
0.0
 40
6.210273
  0
LINE
  5
643
100
AcDbEntity
  8
ALPHA
100
AcDbLine
 10
110.767179
 20
169.665213
 30
0.0
 11
105.23557
 21
164.133596
 31
0.0
  0
CIRCLE
  5
642
100
AcDbEntity
  8
ALPHA
100
AcDbCircle
 10
107.901729
 20
167.139091
 30
0.0
 40
6.210273
  0
LINE
  5
641
100
AcDbEntity
  8
ALPHA
100
AcDbLine
 10
48.015319
 20
164.610272
 30
0.0
 11
53.550969
 21
170.144586
 31
0.0
  0
CIRCLE
  5
640
100
AcDbEntity
  8
ALPHA
100
AcDbCircle
 10
50.883458
 20
167.139091
 30
0.0
 40
6.210273
  0
LINE
  5
85B
100
AcDbEntity
  8
AXE
100
AcDbLine
 10
79.392593
 20
82.948916
 30
0.0
 11
79.392593
 21
187.949166
 31
0.0
  0
TEXT
  5
85C
100
AcDbEntity
  8
AXE
100
AcDbText
 10
71.916403
 20
82.948916
 30
0.0
 40
8.0
  1
Y
  7
ROMANS
 72
     2
 11
78.392593
 21
82.948916
 31
0.0
100
AcDbText
  0
LINE
  5
85D
100
AcDbEntity
  8
AXE
100
AcDbLine
 10
31.194724
 20
137.949043
 30
0.0
 11
134.390464
 21
137.949043
 31
0.0
  0
TEXT
  5
85E
100
AcDbEntity
  8
AXE
100
AcDbText
 10
127.914273
 20
138.949043
 30
0.0
 40
8.0
  1
X
  7
ROMANS
 72
     2
 11
134.390464
 21
138.949043
 31
0.0
100
AcDbText
  0
SPLINE
  5
89C
100
AcDbEntity
  8
ALPHA
100
AcDbSpline
210
-1.0
220
0.0
230
0.0
 70
    24
 71
     3
 72
     8
 73
     4
 74
     0
 42
0.0000001
 43
0.0000001
 40
1.0
 40
1.0
 40
1.0
 40
1.0
 40
2.0
 40
2.0
 40
2.0
 40
2.0
 10
119.3904639695325
 20
109.4403449506464
 30
0.0
 10
119.3904639695325
 20
109.4403449506464
 30
0.0
 10
119.3904639695325
 20
166.4577374962195
 30
0.0
 10
119.3904639695325
 20
166.4577374962195
 30
0.0
  0
SPLINE
  5
89E
100
AcDbEntity
  8
ALPHA
100
AcDbSpline
210
0.0
220
1.0
230
0.0
 70
    24
 71
     3
 72
     8
 73
     4
 74
     0
 42
0.0000001
 43
0.0000001
 40
3.0
 40
3.0
 40
3.0
 40
3.0
 40
4.0
 40
4.0
 40
4.0
 40
4.0
 10
107.8990354847778
 20
177.9491659809743
 30
0.0
 10
107.8990354847778
 20
177.9491659809743
 30
0.0
 10
50.88615290383154
 20
177.9491659809743
 30
0.0
 10
50.88615290383154
 20
177.9491659809743
 30
0.0
  0
SPLINE
  5
8A0
100
AcDbEntity
  8
ALPHA
100
AcDbSpline
210
0.0
220
1.0
230
0.0
 70
    24
 71
     3
 72
     8
 73
     4
 74
     0
 42
0.0000001
 43
0.0000001
 40
7.0
 40
7.0
 40
7.0
 40
7.0
 40
8.0
 40
8.0
 40
8.0
 40
8.0
 10
50.88615290383154
 20
97.9489164658919
 30
0.0
 10
50.88615290383154
 20
97.9489164658919
 30
0.0
 10
107.8990354847778
 20
97.9489164658919
 30
0.0
 10
107.8990354847778
 20
97.9489164658919
 30
0.0
  0
SPLINE
  5
8A1
100
AcDbEntity
  8
ALPHA
100
AcDbSpline
210
0.0
220
0.0
230
-1.0
 70
     8
 71
     3
 72
     8
 73
     4
 74
     0
 42
0.0000001
 43
0.0000001
 40
0.0
 40
0.0
 40
0.0
 40
0.0
 40
1.0
 40
1.0
 40
1.0
 40
1.0
 10
107.8990354847778
 20
97.9489164658919
 30
0.0
 10
114.2453095003214
 20
97.9489164658919
 30
0.0
 10
119.3904639695325
 20
103.0954174816797
 30
0.0
 10
119.3904639695325
 20
109.4403449506464
 30
0.0
  0
SPLINE
  5
8A2
100
AcDbEntity
  8
ALPHA
100
AcDbSpline
210
-1.0
220
0.0
230
0.0
 70
    24
 71
     3
 72
     8
 73
     4
 74
     0
 42
0.0000001
 43
0.0000001
 40
1.0
 40
1.0
 40
1.0
 40
1.0
 40
2.0
 40
2.0
 40
2.0
 40
2.0
 10
119.3904639695325
 20
109.4403449506464
 30
0.0
 10
119.3904639695325
 20
109.4403449506464
 30
0.0
 10
119.3904639695325
 20
166.4577374962195
 30
0.0
 10
119.3904639695325
 20
166.4577374962195
 30
0.0
  0
SPLINE
  5
8A3
100
AcDbEntity
  8
ALPHA
100
AcDbSpline
210
0.0
220
0.0
230
-1.0
 70
     8
 71
     3
 72
     8
 73
     4
 74
     0
 42
0.0000001
 43
0.0000001
 40
2.0
 40
2.0
 40
2.0
 40
2.0
 40
3.0
 40
3.0
 40
3.0
 40
3.0
 10
119.3904639695325
 20
166.4577374962195
 30
0.0
 10
119.3904639695325
 20
172.804011511763
 30
0.0
 10
114.2453095003214
 20
177.9491659809743
 30
0.0
 10
107.8990354847778
 20
177.9491659809743
 30
0.0
  0
SPLINE
  5
8A4
100
AcDbEntity
  8
ALPHA
100
AcDbSpline
210
0.0
220
1.0
230
0.0
 70
    24
 71
     3
 72
     8
 73
     4
 74
     0
 42
0.0000001
 43
0.0000001
 40
3.0
 40
3.0
 40
3.0
 40
3.0
 40
4.0
 40
4.0
 40
4.0
 40
4.0
 10
107.8990354847778
 20
177.9491659809743
 30
0.0
 10
107.8990354847778
 20
177.9491659809743
 30
0.0
 10
50.88615290383154
 20
177.9491659809743
 30
0.0
 10
50.88615290383154
 20
177.9491659809743
 30
0.0
  0
SPLINE
  5
8A6
100
AcDbEntity
  8
ALPHA
100
AcDbSpline
210
0.0
220
1.0
230
0.0
 70
    24
 71
     3
 72
     8
 73
     4
 74
     0
 42
0.0000001
 43
0.0000001
 40
7.0
 40
7.0
 40
7.0
 40
7.0
 40
8.0
 40
8.0
 40
8.0
 40
8.0
 10
50.88615290383154
 20
97.9489164658919
 30
0.0
 10
50.88615290383154
 20
97.9489164658919
 30
0.0
 10
107.8990354847778
 20
97.9489164658919
 30
0.0
 10
107.8990354847778
 20
97.9489164658919
 30
0.0
  0
SPLINE
  5
8A8
100
AcDbEntity
  8
ALPHA
100
AcDbSpline
210
0.0
220
0.0
230
-1.0
 70
     8
 71
     3
 72
     8
 73
     4
 74
     0
 42
0.0000001
 43
0.0000001
 40
0.0
 40
0.0
 40
0.0
 40
0.0
 40
1.0
 40
1.0
 40
1.0
 40
1.0
 10
50.88146095616298
 20
97.95139967724118
 30
0.0
 10
44.53518694494881
 20
97.95163409288671
 30
0.0
 10
39.39022257824979
 20
103.0983251544278
 30
0.0
 10
39.39045694415722
 20
109.443252619066
 30
0.0
  0
SPLINE
  5
8A9
100
AcDbEntity
  8
ALPHA
100
AcDbSpline
210
0.0
220
0.0
230
-1.0
 70
     8
 71
     3
 72
     8
 73
     4
 74
     0
 42
0.0000001
 43
0.0000001
 40
2.0
 40
2.0
 40
2.0
 40
2.0
 40
3.0
 40
3.0
 40
3.0
 40
3.0
 10
39.39899200139461
 20
166.4606450070071
 30
0.0
 10
39.39922641704004
 20
172.8069190182211
 30
0.0
 10
44.54457093200517
 20
177.9518834346584
 30
0.0
 10
50.89084494321946
 20
177.9516490190128
 30
0.0
  0
SPLINE
  5
8AA
100
AcDbEntity
  8
ALPHA
100
AcDbSpline
210
-0.9999999887961273
220
0.0001496921690788
230
0.0
 70
    24
 71
     3
 72
     8
 73
     4
 74
     0
 42
0.0000001
 43
0.0000001
 40
1.0
 40
1.0
 40
1.0
 40
1.0
 40
2.0
 40
2.0
 40
2.0
 40
2.0
 10
39.39045694415722
 20
109.443252619066
 30
0.0
 10
39.39045694415722
 20
109.443252619066
 30
0.0
 10
39.39899200139461
 20
166.4606450070071
 30
0.0
 10
39.39899200139461
 20
166.4606450070071
 30
0.0
  0
DIMENSION
  5
8AB
100
AcDbEntity
  8
COTATION1
100
AcDbDimension
  2
*D1
 10
119.390464
 20
72.948913
 30
0.0
 11
79.39046
 21
76.198913
 31
0.0
 70
    32
  3
SC_DEFAUT
100
AcDbAlignedDimension
 13
39.390457
 23
109.443253
 33
0.0
 14
119.390464
 24
109.440345
 34
0.0
100
AcDbRotatedDimension
  0
DIMENSION
  5
8EF
100
AcDbEntity
  8
COTATION1
100
AcDbDimension
  2
*D2
 10
144.390464
 20
97.948916
 30
0.0
 11
144.390464
 21
137.949041
 31
0.0
 70
    32
  3
SC_DEFAUT
100
AcDbAlignedDimension
 13
107.899035
 23
177.949166
 33
0.0
 14
107.899035
 24
97.948916
 34
0.0
 50
90.0
100
AcDbRotatedDimension
  0
ENDSEC
  0
SECTION
  2
OBJECTS
  0
DICTIONARY
  5
19
102
{ACAD_XDICTIONARY
360
D34
102
}
100
AcDbDictionary
  3
ACAD_COLOR
350
66C
  3
ACAD_GROUP
350
1A
  3
ACAD_LAYOUT
350
1E
  3
ACAD_MATERIAL
350
66B
  3
ACAD_MLINESTYLE
350
1B
  3
ACAD_PLOTSETTINGS
350
22
  3
ACAD_PLOTSTYLENAME
350
1F
  3
ACAD_TABLESTYLE
350
66D
  3
ACAD_WIPEOUT_VARS
350
23
  3
ACDBHEADERROUNDTRIPXREC
350
D10
  3
ACDBVARIABLEDICTIONARY
350
749
  0
DICTIONARY
  5
D06
100
AcDbDictionary
  3
ACAD_XREC_ROUNDTRIP
360
D07
  0
DICTIONARY
  5
D08
100
AcDbDictionary
  3
ACAD_XREC_ROUNDTRIP
360
D09
  0
DICTIONARY
  5
D0A
100
AcDbDictionary
  3
ACAD_XREC_ROUNDTRIP
360
D0B
  0
DICTIONARY
  5
D3C
100
AcDbDictionary
  3
ACAD_XREC_ROUNDTRIP
360
D3D
  0
DICTIONARY
  5
D0C
100
AcDbDictionary
  3
ACAD_XREC_ROUNDTRIP
360
D0D
  0
DICTIONARY
  5
D04
100
AcDbDictionary
  3
ACAD_XREC_ROUNDTRIP
360
D05
  0
DICTIONARY
  5
D3E
100
AcDbDictionary
  3
ACAD_XREC_ROUNDTRIP
360
D3F
  0
DICTIONARY
  5
751
100
AcDbDictionary
  3
ACAD_LAYOUTSELFREF
360
D31
  3
ACAD_SORTENTS
360
752
  0
DICTIONARY
  5
D32
100
AcDbDictionary
  3
ACAD_LAYOUTSELFREF
360
D33
  0
DICTIONARY
  5
D34
100
AcDbDictionary
  3
ACAD_XREC_ROUNDTRIP
360
D35
  0
DICTIONARY
  5
66C
102
{ACAD_REACTORS
330
19
102
}
100
AcDbDictionary
  0
DICTIONARY
  5
1A
102
{ACAD_REACTORS
330
19
102
}
100
AcDbDictionary
  0
DICTIONARY
  5
1E
102
{ACAD_XDICTIONARY
360
D38
102
}
102
{ACAD_REACTORS
330
19
102
}
100
AcDbDictionary
  3
LAYOUT1
350
21
  3
MODEL
350
20
  0
DICTIONARY
  5
66B
102
{ACAD_REACTORS
330
19
102
}
100
AcDbDictionary
  0
DICTIONARY
  5
1B
102
{ACAD_XDICTIONARY
360
D36
102
}
102
{ACAD_REACTORS
330
19
102
}
100
AcDbDictionary
  3
STANDARD
350
1C
  0
DICTIONARY
  5
22
102
{ACAD_REACTORS
330
19
102
}
100
AcDbDictionary
  0
ACAD_ZOMBIE_OBJECT
  5
1F
102
{ACAD_REACTORS
330
19
102
}
100
AcDbZombieObject
 90
      499
 91
      517
 93
       86
310
405010041939BDC9B585B1
350
1D
340
1D
 94
        0
  0
DICTIONARY
  5
66D
102
{ACAD_XDICTIONARY
360
D3A
102
}
102
{ACAD_REACTORS
330
19
102
}
100
AcDbDictionary
  3
STANDARD
350
66E
  0
ACAD_ZOMBIE_OBJECT
  5
23
102
{ACAD_REACTORS
330
19
102
}
100
AcDbZombieObject
 90
      499
 91
      521
 93
       10
310
4044
 94
        0
  0
DICTIONARY
  5
D10
102
{ACAD_REACTORS
330
19
102
}
100
AcDbDictionary
  3
CEPSNTYPE
350
D1A
  3
DIMSTYLEDATA
350
D1E
  3
FINGERPRINTGUID
350
D1B
  3
HYPERLINKBASE
350
D13
  3
INSUNITS
350
D19
  3
LAYOUTDICT
350
D15
  3
LWETCUNION
350
D18
  3
PLOTSETDICT
350
D16
  3
PLOTSTYLNAMDICT
350
D17
  3
PSVPSCALE
350
D1D
  3
PUCSBASE
350
D21
  3
PUCSORGBACK
350
D27
  3
PUCSORGBOTTOM
350
D23
  3
PUCSORGFRONT
350
D26
  3
PUCSORGLEFT
350
D24
  3
PUCSORGRIGHT
350
D25
  3
PUCSORGTOP
350
D22
  3
PUCSORTHOREF
350
D1F
  3
PUCSORTHOVIEW
350
D20
  3
STYLESHEET
350
D14
  3
TSTACKALIGN
350
D11
  3
TSTACKSIZE
350
D12
  3
UCSBASE
350
D2A
  3
UCSORGBACK
350
D30
  3
UCSORGBOTTOM
350
D2C
  3
UCSORGFRONT
350
D2F
  3
UCSORGLEFT
350
D2D
  3
UCSORGRIGHT
350
D2E
  3
UCSORGTOP
350
D2B
  3
UCSORTHOREF
350
D28
  3
UCSORTHOVIEW
350
D29
  3
VERSIONGUID
350
D1C
  0
DICTIONARY
  5
749
102
{ACAD_REACTORS
330
19
102
}
100
AcDbDictionary
  3
CTABLESTYLE
350
74A
  3
DIMASSOC
350
86D
  3
PROJECTNAME
350
86E
  0
XRECORD
  5
D07
102
{ACAD_REACTORS
330
D06
102
}
100
AcDbXrecord
102
EXTNAMES
  1
BYBLOCK
  2
ByBlock
  0
XRECORD
  5
D09
102
{ACAD_REACTORS
330
D08
102
}
100
AcDbXrecord
102
EXTNAMES
  1
BYLAYER
  2
ByLayer
  0
XRECORD
  5
D0B
102
{ACAD_REACTORS
330
D0A
102
}
100
AcDbXrecord
102
EXTNAMES
  1
CONTINUOUS
  2
Continuous
  0
XRECORD
  5
D3D
102
{ACAD_REACTORS
330
D3C
102
}
100
AcDbXrecord
102
PLOTBIT
280
     0
  0
XRECORD
  5
D0D
102
{ACAD_REACTORS
330
D0C
102
}
100
AcDbXrecord
102
EXTNAMES
  1
STANDARD
  2
Standard
  0
XRECORD
  5
D05
102
{ACAD_REACTORS
330
D04
102
}
100
AcDbXrecord
102
EXTNAMES
  1
STANDARD
  2
Standard
  0
XRECORD
  5
D3F
102
{ACAD_REACTORS
330
D3E
102
}
100
AcDbXrecord
102
ACADR14ROUNDTRIP
1000
DSTYLE
1002
{
1070
   279
 70
     2
1070
   341
340
673
1070
   342
340
673
1002
}
  0
XRECORD
  5
D31
102
{ACAD_REACTORS
330
751
102
}
100
AcDbXrecord
340
A
  0
SORTENTSTABLE
  5
752
102
{ACAD_REACTORS
330
751
102
}
100
AcDbSortentsTable
330
A
331
8A2
  5
6EA
331
85C
  5
89A
331
643
  5
65C
331
646
  5
65F
331
641
  5
65A
331
8A0
  5
6F2
331
85D
  5
89B
331
644
  5
65D
331
8A3
  5
6EC
331
89E
  5
6F1
331
85B
  5
899
331
647
  5
660
331
8A6
  5
6EF
331
642
  5
65B
331
8A1
  5
6E8
331
89C
  5
6F0
331
640
  5
659
331
85E
  5
89C
331
645
  5
65E
331
8A4
  5
6ED
  0
XRECORD
  5
D33
102
{ACAD_REACTORS
330
D32
102
}
100
AcDbXrecord
340
B
  0
XRECORD
  5
D35
102
{ACAD_REACTORS
330
D34
102
}
100
AcDbXrecord
102
EXTNAMES
  1
ACDBVARIABLEDICTIONARY
  2
AcDbVariableDictionary
  0
DICTIONARY
  5
D38
100
AcDbDictionary
  3
ACAD_XREC_ROUNDTRIP
360
D39
  0
ACAD_ZOMBIE_OBJECT
  5
21
102
{ACAD_XDICTIONARY
360
CFD
102
}
102
{ACAD_REACTORS
330
1E
102
}
100
AcDbZombieObject
 90
      499
 91
      515
 93
      812
310
AAAAAAAAAA5A69074C61796F757431406A800000000000000000000000000000000000000000000A1000000000000008902A6A6A10232D5E076BC5510408CB5781DAF154410232D5E076BC5510408CB5781DAF15C410232D5E076BC5710408CB5781DAF15C47
330
B
330
0
340
0
340
0
 94
        0
  0
ACAD_ZOMBIE_OBJECT
  5
20
102
{ACAD_XDICTIONARY
360
CFB
102
}
102
{ACAD_REACTORS
330
1E
102
}
100
AcDbZombieObject
 90
      499
 91
      515
 93
      420
310
A00012AAAAAAAA5A69054D6F64656CAA80000000000000000000000000000000000000000000000000000000000000002AAAAAAAA0
330
A
330
0
340
0
340
0
 94
        0
  0
DICTIONARY
  5
D36
100
AcDbDictionary
  3
ACAD_XREC_ROUNDTRIP
360
D37
  0
MLINESTYLE
  5
1C
102
{ACAD_REACTORS
330
1B
102
}
100
AcDbMlineStyle
  2
STANDARD
 70
     0
  3

 62
     0
 51
90.0
 52
90.0
 71
     2
 49
0.5
 62
   256
  6
BYLAYER
 49
-0.5
 62
   256
  6
BYLAYER
  0
ACAD_ZOMBIE_OBJECT
  5
1D
102
{ACAD_REACTORS
330
1F
102
}
100
AcDbZombieObject
 90
      499
 91
      518
 93
        0
 94
        0
  0
DICTIONARY
  5
D3A
100
AcDbDictionary
  3
ACAD_XREC_ROUNDTRIP
360
D3B
  0
ACAD_ZOMBIE_OBJECT
  5
66E
102
{ACAD_REACTORS
330
66D
102
}
100
AcDbZombieObject
 90
      499
 91
      525
 93
     1841
310
4214DD185B99185C9928000000000000F83F0000000000003E0FC00000000000004901028000000C1008070000C3001FDFF8000000C1003FBFF000000182007F7FE00000030400FEFFC00000060801FDFF8000000C1003FBFF000000182000000000000000C2020B0000001820100E000186003FBFF000000182007F7FE000
310
00030400FEFFC00000060801FDFF8000000C1003FBFF000000182007F7FE0000003040000000000000012404160000003040201C00030C007F7FE00000030400FEFFC00000060801FDFF8000000C1003FBFF000000182007F7FE00000030400FEFFC000000608001
340
17
340
17
340
17
 94
        0
1001
ACAD
1000
AcadProxyRoundTripData
1071
      524
1071
   393239
1070
     0
  0
XRECORD
  5
D1A
102
{ACAD_REACTORS
330
D10
102
}
100
AcDbXrecord
 90
        0
  0
XRECORD
  5
D1E
102
{ACAD_REACTORS
330
D10
102
}
100
AcDbXrecord
1000
DSTYLE
1002
{
1070
   278
 70
     0
1070
   371
 70
     0
1070
   372
 70
     0
1002
}
  0
XRECORD
  5
D1B
102
{ACAD_REACTORS
330
D10
102
}
100
AcDbXrecord
  1

  0
XRECORD
  5
D13
102
{ACAD_REACTORS
330
D10
102
}
100
AcDbXrecord
  1

  0
XRECORD
  5
D19
102
{ACAD_REACTORS
330
D10
102
}
100
AcDbXrecord
 90
        0
  0
XRECORD
  5
D15
102
{ACAD_REACTORS
330
D10
102
}
100
AcDbXrecord
340
1E
  0
XRECORD
  5
D18
102
{ACAD_REACTORS
330
D10
102
}
100
AcDbXrecord
 90
    10752
  0
XRECORD
  5
D16
102
{ACAD_REACTORS
330
D10
102
}
100
AcDbXrecord
340
22
  0
XRECORD
  5
D17
102
{ACAD_REACTORS
330
D10
102
}
100
AcDbXrecord
340
1F
  0
XRECORD
  5
D1D
102
{ACAD_REACTORS
330
D10
102
}
100
AcDbXrecord
 40
0.0
  0
XRECORD
  5
D21
102
{ACAD_REACTORS
330
D10
102
}
100
AcDbXrecord
340
0
  0
XRECORD
  5
D27
102
{ACAD_REACTORS
330
D10
102
}
100
AcDbXrecord
 10
0.0
 20
0.0
 30
0.0
  0
XRECORD
  5
D23
102
{ACAD_REACTORS
330
D10
102
}
100
AcDbXrecord
 10
0.0
 20
0.0
 30
0.0
  0
XRECORD
  5
D26
102
{ACAD_REACTORS
330
D10
102
}
100
AcDbXrecord
 10
0.0
 20
0.0
 30
0.0
  0
XRECORD
  5
D24
102
{ACAD_REACTORS
330
D10
102
}
100
AcDbXrecord
 10
0.0
 20
0.0
 30
0.0
  0
XRECORD
  5
D25
102
{ACAD_REACTORS
330
D10
102
}
100
AcDbXrecord
 10
0.0
 20
0.0
 30
0.0
  0
XRECORD
  5
D22
102
{ACAD_REACTORS
330
D10
102
}
100
AcDbXrecord
 10
0.0
 20
0.0
 30
0.0
  0
XRECORD
  5
D1F
102
{ACAD_REACTORS
330
D10
102
}
100
AcDbXrecord
340
0
  0
XRECORD
  5
D20
102
{ACAD_REACTORS
330
D10
102
}
100
AcDbXrecord
 70
     0
  0
XRECORD
  5
D14
102
{ACAD_REACTORS
330
D10
102
}
100
AcDbXrecord
  1

  0
XRECORD
  5
D11
102
{ACAD_REACTORS
330
D10
102
}
100
AcDbXrecord
 90
        1
  0
XRECORD
  5
D12
102
{ACAD_REACTORS
330
D10
102
}
100
AcDbXrecord
 90
       70
  0
XRECORD
  5
D2A
102
{ACAD_REACTORS
330
D10
102
}
100
AcDbXrecord
340
0
  0
XRECORD
  5
D30
102
{ACAD_REACTORS
330
D10
102
}
100
AcDbXrecord
 10
0.0
 20
0.0
 30
0.0
  0
XRECORD
  5
D2C
102
{ACAD_REACTORS
330
D10
102
}
100
AcDbXrecord
 10
0.0
 20
0.0
 30
0.0
  0
XRECORD
  5
D2F
102
{ACAD_REACTORS
330
D10
102
}
100
AcDbXrecord
 10
0.0
 20
0.0
 30
0.0
  0
XRECORD
  5
D2D
102
{ACAD_REACTORS
330
D10
102
}
100
AcDbXrecord
 10
0.0
 20
0.0
 30
0.0
  0
XRECORD
  5
D2E
102
{ACAD_REACTORS
330
D10
102
}
100
AcDbXrecord
 10
0.0
 20
0.0
 30
0.0
  0
XRECORD
  5
D2B
102
{ACAD_REACTORS
330
D10
102
}
100
AcDbXrecord
 10
0.0
 20
0.0
 30
0.0
  0
XRECORD
  5
D28
102
{ACAD_REACTORS
330
D10
102
}
100
AcDbXrecord
340
0
  0
XRECORD
  5
D29
102
{ACAD_REACTORS
330
D10
102
}
100
AcDbXrecord
 70
     0
  0
XRECORD
  5
D1C
102
{ACAD_REACTORS
330
D10
102
}
100
AcDbXrecord
  1
{4F8E2096-D0CE-4A6D-9B0A-98032E5B46BD}
  0
DICTIONARYVAR
  5
74A
102
{ACAD_REACTORS
330
749
102
}
100
DictionaryVariables
280
     0
  1
STANDARD
  0
DICTIONARYVAR
  5
86D
102
{ACAD_REACTORS
330
749
102
}
100
DictionaryVariables
280
     0
  1
1
  0
DICTIONARYVAR
  5
86E
102
{ACAD_REACTORS
330
749
102
}
100
DictionaryVariables
280
     0
  1

  0
XRECORD
  5
D39
102
{ACAD_REACTORS
330
D38
102
}
100
AcDbXrecord
102
EXTNAMES
  1
LAYOUT1
  2
Layout1
  1
MODEL
  2
Model
  0
DICTIONARY
  5
CFD
100
AcDbDictionary
  3
ACAD_XREC_ROUNDTRIP
360
CFE
  0
DICTIONARY
  5
CFB
100
AcDbDictionary
  3
ACAD_XREC_ROUNDTRIP
360
CFC
  0
XRECORD
  5
D37
102
{ACAD_REACTORS
330
D36
102
}
100
AcDbXrecord
102
EXTNAMES
  1
STANDARD
  2
Standard
  0
XRECORD
  5
D3B
102
{ACAD_REACTORS
330
D3A
102
}
100
AcDbXrecord
102
EXTNAMES
  1
STANDARD
  2
Standard
  0
XRECORD
  5
CFE
102
{ACAD_REACTORS
330
CFD
102
}
100
AcDbXrecord
102
SHADEPLOT
 70
     0
102
SHADEPLOTRESLEVEL
 70
     2
102
SHADEPLOTCUSTOMDPI
 70
   300
  0
XRECORD
  5
CFC
102
{ACAD_REACTORS
330
CFB
102
}
100
AcDbXrecord
102
SHADEPLOT
 70
     0
102
SHADEPLOTRESLEVEL
 70
     2
102
SHADEPLOTCUSTOMDPI
 70
   300
  0
ENDSEC
  0
EOF
