  0
SECTION
  2
HEADER
  9
$ACADVER
  1
AC1009
  9
$INSBASE
 10
402.590624
 20
-1.041018
 30
0.0
  9
$EXTMIN
 10
-56.23805
 20
13.228457
 30
0.0
  9
$EXTMAX
 10
3.01195
 20
201.228457
 30
0.0
  9
$LIMMIN
 10
-407.970438
 20
-367.832444
  9
$LIMMAX
 10
429.804077
 20
234.370848
  9
$ORTHOMODE
 70
     1
  9
$REGENMODE
 70
     1
  9
$FILLMODE
 70
     1
  9
$QTEXTMODE
 70
     0
  9
$MIRRTEXT
 70
     1
  9
$DRAGMODE
 70
     2
  9
$LTSCALE
 40
10.0
  9
$OSMODE
 70
    37
  9
$ATTMODE
 70
     1
  9
$TEXTSIZE
 40
6.0
  9
$TRACEWID
 40
1.0
  9
$TEXTSTYLE
  7
ROMANS
  9
$CLAYER
  8
ALPHA
  9
$CELTYPE
  6
BYLAYER
  9
$CECOLOR
 62
   256
  9
$DIMSCALE
 40
1.0
  9
$DIMASZ
 40
5.0
  9
$DIMEXO
 40
2.0
  9
$DIMDLI
 40
0.38
  9
$DIMRND
 40
0.0
  9
$DIMDLE
 40
0.0
  9
$DIMEXE
 40
2.5
  9
$DIMTP
 40
0.0
  9
$DIMTM
 40
0.0
  9
$DIMTXT
 40
2.5
  9
$DIMCEN
 40
0.0
  9
$DIMTSZ
 40
0.0
  9
$DIMTOL
 70
     0
  9
$DIMLIM
 70
     0
  9
$DIMTIH
 70
     1
  9
$DIMTOH
 70
     1
  9
$DIMSE1
 70
     0
  9
$DIMSE2
 70
     0
  9
$DIMTAD
 70
     1
  9
$DIMZIN
 70
    12
  9
$DIMBLK
  1
OPEN30
  9
$DIMASO
 70
     1
  9
$DIMSHO
 70
     1
  9
$DIMPOST
  1

  9
$DIMAPOST
  1

  9
$DIMALT
 70
     0
  9
$DIMALTD
 70
     2
  9
$DIMALTF
 40
25.4
  9
$DIMLFAC
 40
1.0
  9
$DIMTOFL
 70
     0
  9
$DIMTVP
 40
0.0
  9
$DIMTIX
 70
     0
  9
$DIMSOXD
 70
     0
  9
$DIMSAH
 70
     0
  9
$DIMBLK1
  1

  9
$DIMBLK2
  1

  9
$DIMSTYLE
  2
SC_DEFAUT
  9
$DIMCLRD
 70
     0
  9
$DIMCLRE
 70
     0
  9
$DIMCLRT
 70
     0
  9
$DIMTFAC
 40
1.0
  9
$DIMGAP
 40
2.0
  9
$LUNITS
 70
     2
  9
$LUPREC
 70
     1
  9
$SKETCHINC
 40
0.1
  9
$FILLETRAD
 40
0.0
  9
$AUNITS
 70
     0
  9
$AUPREC
 70
     0
  9
$MENU
  1
acad
  9
$ELEVATION
 40
0.0
  9
$PELEVATION
 40
0.0
  9
$THICKNESS
 40
0.0
  9
$LIMCHECK
 70
     0
  9
$BLIPMODE
 70
     0
  9
$CHAMFERA
 40
0.0
  9
$CHAMFERB
 40
0.0
  9
$SKPOLY
 70
     0
  9
$TDCREATE
 40
2450373.687919
  9
$TDUPDATE
 40
2452851.687211
  9
$TDINDWG
 40
1.589373
  9
$TDUSRTIMER
 40
1.589373
  9
$USRTIMER
 70
     1
  9
$ANGBASE
 50
0.0
  9
$ANGDIR
 70
     0
  9
$PDMODE
 70
    32
  9
$PDSIZE
 40
0.0
  9
$PLINEWID
 40
0.0
  9
$COORDS
 70
     1
  9
$SPLFRAME
 70
     0
  9
$SPLINETYPE
 70
     6
  9
$SPLINESEGS
 70
     8
  9
$ATTDIA
 70
     0
  9
$ATTREQ
 70
     1
  9
$HANDLING
 70
     1
  9
$HANDSEED
  5
10E4F
  9
$SURFTAB1
 70
     6
  9
$SURFTAB2
 70
     6
  9
$SURFTYPE
 70
     6
  9
$SURFU
 70
     6
  9
$SURFV
 70
     6
  9
$UCSNAME
  2

  9
$UCSORG
 10
0.0
 20
0.0
 30
0.0
  9
$UCSXDIR
 10
1.0
 20
0.0
 30
0.0
  9
$UCSYDIR
 10
0.0
 20
1.0
 30
0.0
  9
$PUCSNAME
  2

  9
$PUCSORG
 10
0.0
 20
0.0
 30
0.0
  9
$PUCSXDIR
 10
1.0
 20
0.0
 30
0.0
  9
$PUCSYDIR
 10
0.0
 20
1.0
 30
0.0
  9
$USERI1
 70
     0
  9
$USERI2
 70
     0
  9
$USERI3
 70
     0
  9
$USERI4
 70
     0
  9
$USERI5
 70
     0
  9
$USERR1
 40
0.0
  9
$USERR2
 40
0.0
  9
$USERR3
 40
0.0
  9
$USERR4
 40
0.0
  9
$USERR5
 40
0.0
  9
$WORLDVIEW
 70
     1
  9
$SHADEDGE
 70
     3
  9
$SHADEDIF
 70
    70
  9
$TILEMODE
 70
     1
  9
$MAXACTVP
 70
    16
  9
$PLIMCHECK
 70
     0
  9
$PEXTMIN
 10
-1.452248
 20
-0.437698
 30
0.0
  9
$PEXTMAX
 10
12.749749
 20
8.310198
 30
0.0
  9
$PLIMMIN
 10
0.0
 20
0.0
  9
$PLIMMAX
 10
12.0
 20
9.0
  9
$UNITMODE
 70
     0
  9
$VISRETAIN
 70
     0
  9
$PLINEGEN
 70
     0
  9
$PSLTSCALE
 70
     0
  0
ENDSEC
  0
SECTION
  2
TABLES
  0
TABLE
  2
VPORT
 70
     2
  0
VPORT
  2
*ACTIVE
 70
     0
 10
0.0
 20
0.0
 11
1.0
 21
1.0
 12
-25.190224
 22
108.143498
 13
0.0
 23
0.0
 14
1.0
 24
1.0
 15
10.0
 25
10.0
 16
0.0
 26
0.0
 36
1.0
 17
0.0
 27
0.0
 37
0.0
 40
191.524555
 41
1.56
 42
50.0
 43
0.0
 44
0.0
 50
0.0
 51
0.0
 71
     0
 72
   100
 73
     1
 74
     0
 75
     0
 76
     0
 77
     0
 78
     0
  0
ENDTAB
  0
TABLE
  2
LTYPE
 70
     3
  0
LTYPE
  2
CONTINUOUS
 70
     0
  3
Solid line
 72
    65
 73
     0
 40
0.0
  0
LTYPE
  2
AXES2
 70
     0
  3
___ _ ___ _ ___ _ ___ _ ___ _ ___ _ ___ _ ___ _
 72
    65
 73
     4
 40
1.125
 49
0.75
 49
-0.125
 49
0.125
 49
-0.125
  0
LTYPE
  2
CACHE2
 70
     0
  3
Caché (x.5) _ _ _ _ _ _ _ _ _ _ _ _ _ _ _ _ _
 72
    65
 73
     2
 40
0.1875
 49
0.125
 49
-0.0625
  0
ENDTAB
  0
TABLE
  2
LAYER
 70
     6
  0
LAYER
  2
0
 70
     0
 62
   255
  6
CONTINUOUS
  0
LAYER
  2
COTATION1
 70
     0
 62
     2
  6
CONTINUOUS
  0
LAYER
  2
AXE
 70
     0
 62
    80
  6
AXES2
  0
LAYER
  2
DEFPOINTS
 70
     0
 62
     7
  6
CONTINUOUS
  0
LAYER
  2
ALPHA
 70
     0
 62
   254
  6
CONTINUOUS
  0
LAYER
  2
POINTILLE_COURT
 70
     0
 62
    41
  6
CACHE2
  0
ENDTAB
  0
TABLE
  2
STYLE
 70
     2
  0
STYLE
  2
ROMANS
 70
     0
 40
0.0
 41
1.0
 50
0.0
 71
     0
 42
6.0
  3
romans
  4

  0
STYLE
  2
STANDARD
 70
     0
 40
0.2
 41
1.0
 50
0.0
 71
     0
 42
0.2
  3
txt
  4

  0
ENDTAB
  0
TABLE
  2
VIEW
 70
     0
  0
ENDTAB
  0
TABLE
  2
UCS
 70
     0
  0
ENDTAB
  0
TABLE
  2
APPID
 70
     1
  0
APPID
  2
ACAD
 70
     0
  0
ENDTAB
  0
TABLE
  2
DIMSTYLE
 70
     1
  0
DIMSTYLE
  2
SC_DEFAUT
 70
     0
  3

  4

  5
OPEN30
  6

  7

 40
1.0
 41
5.0
 42
2.0
 43
0.38
 44
2.5
 45
0.0
 46
0.0
 47
0.0
 48
0.0
140
2.5
141
0.0
142
0.0
143
25.4
144
1.0
145
0.0
146
1.0
147
2.0
 71
     0
 72
     0
 73
     1
 74
     1
 75
     0
 76
     0
 77
     1
 78
    12
170
     0
171
     2
172
     0
173
     0
174
     0
175
     0
176
     0
177
     0
178
     0
  0
ENDTAB
  0
ENDSEC
  0
SECTION
  2
BLOCKS
  0
BLOCK
  8
0
  2
$MODEL_SPACE
 70
     0
 10
0.0
 20
0.0
 30
0.0
  3
$MODEL_SPACE
  1

  0
ENDBLK
  5
10D47
  8
0
  0
BLOCK
 67
     1
  8
0
  2
$PAPER_SPACE
 70
     0
 10
0.0
 20
0.0
 30
0.0
  3
$PAPER_SPACE
  1

  0
ENDBLK
  5
10D45
 67
     1
  8
0
  0
BLOCK
  8
0
  2
COTE
 70
     0
 10
0.0
 20
0.0
 30
0.0
  3
COTE
  1

  0
ENDBLK
  5
F
  8
0
  0
BLOCK
  8
0
  2
FOND
 70
     0
 10
0.0
 20
0.0
 30
0.0
  3
FOND
  1

  0
ENDBLK
  5
75
  8
0
  0
BLOCK
  8
0
  2
_OPEN30
 70
     0
 10
0.0
 20
0.0
 30
0.0
  3
_OPEN30
  1

  0
LINE
  5
4B05
  8
COTATION1
 62
     0
 10
-1.0
 20
0.267949
 30
0.0
 11
0.0
 21
0.0
 31
0.0
1001
ACAD
1000
RTLwPs
1070
   158
  0
LINE
  5
4B06
  8
COTATION1
 62
     0
 10
0.0
 20
0.0
 30
0.0
 11
-1.0
 21
-0.267949
 31
0.0
1001
ACAD
1000
RTLwPs
1070
   158
  0
LINE
  5
4B07
  8
COTATION1
 62
     0
 10
0.0
 20
0.0
 30
0.0
 11
-1.0
 21
0.0
 31
0.0
1001
ACAD
1000
RTLwPs
1070
   158
  0
ENDBLK
  5
4B09
  8
0
  0
BLOCK
  8
0
  2
*D10
 70
     1
 10
0.0
 20
0.0
 30
0.0
  3
*D10
  1

  0
LINE
  5
10D64
  8
COTATION1
 62
     0
 10
-50.48805
 20
168.728457
 30
0.0
 11
-50.48805
 21
199.228457
 31
0.0
1001
ACAD
1000
RTLwPs
1070
   158
  0
LINE
  5
10D65
  8
COTATION1
 62
     0
 10
-19.48805
 20
135.72908
 30
0.0
 11
-19.48805
 21
199.228457
 31
0.0
1001
ACAD
1000
RTLwPs
1070
   158
  0
LINE
  5
10D66
  8
COTATION1
 62
     0
 10
-45.48805
 20
196.728457
 30
0.0
 11
-24.48805
 21
196.728457
 31
0.0
1001
ACAD
1000
RTLwPs
1070
   158
  0
INSERT
  5
10D67
  8
COTATION1
 62
     0
  2
_OPEN30
 10
-50.48805
 20
196.728457
 30
0.0
 41
5.0
 42
5.0
 43
5.0
 50
180.0
1001
ACAD
1000
RTLwPs
1070
   158
  0
INSERT
  5
10D68
  8
COTATION1
 62
     0
  2
_OPEN30
 10
-19.48805
 20
196.728457
 30
0.0
 41
5.0
 42
5.0
 43
5.0
1001
ACAD
1000
RTLwPs
1070
   158
  0
TEXT
  8
0
  40
2.5
  5
10E48
  62
0
  72
0
  71
0
 10
-39.9881
 20
195.553
 30
0.000000
  1
31
  0
POINT
  5
10D6A
  8
DEFPOINTS
 62
     0
 10
-50.48805
 20
166.728457
 30
0.0
  0
POINT
  5
10D6B
  8
DEFPOINTS
 62
     0
 10
-19.48805
 20
133.72908
 30
0.0
  0
POINT
  5
10D6C
  8
DEFPOINTS
 62
     0
 10
-19.48805
 20
196.728457
 30
0.0
  0
ENDBLK
  5
10D63
  8
0
  0
BLOCK
  8
0
  2
*D11
 70
     1
 10
0.0
 20
0.0
 30
0.0
  3
*D11
  1

  0
LINE
  5
10D6E
  8
COTATION1
 62
     0
 10
-43.48805
 20
168.728457
 30
0.0
 11
-43.48805
 21
189.228457
 31
0.0
1001
ACAD
1000
RTLwPs
1070
   158
  0
LINE
  5
10D6F
  8
COTATION1
 62
     0
 10
-19.48805
 20
135.72908
 30
0.0
 11
-19.48805
 21
189.228457
 31
0.0
1001
ACAD
1000
RTLwPs
1070
   158
  0
LINE
  5
10D70
  8
COTATION1
 62
     0
 10
-38.48805
 20
186.728457
 30
0.0
 11
-24.48805
 21
186.728457
 31
0.0
1001
ACAD
1000
RTLwPs
1070
   158
  0
INSERT
  5
10D71
  8
COTATION1
 62
     0
  2
_OPEN30
 10
-43.48805
 20
186.728457
 30
0.0
 41
5.0
 42
5.0
 43
5.0
 50
180.0
1001
ACAD
1000
RTLwPs
1070
   158
  0
INSERT
  5
10D72
  8
COTATION1
 62
     0
  2
_OPEN30
 10
-19.48805
 20
186.728457
 30
0.0
 41
5.0
 42
5.0
 43
5.0
1001
ACAD
1000
RTLwPs
1070
   158
  0
TEXT
  8
0
  40
2.5
  5
10E49
  62
0
  72
0
  71
0
 10
-36.4881
 20
185.553
 30
0.000000
  1
24
  0
POINT
  5
10D74
  8
DEFPOINTS
 62
     0
 10
-43.48805
 20
166.728457
 30
0.0
  0
POINT
  5
10D75
  8
DEFPOINTS
 62
     0
 10
-19.48805
 20
133.72908
 30
0.0
  0
POINT
  5
10D76
  8
DEFPOINTS
 62
     0
 10
-19.48805
 20
186.728457
 30
0.0
  0
ENDBLK
  5
10D78
  8
0
  0
BLOCK
  8
0
  2
*D12
 70
     1
 10
0.0
 20
0.0
 30
0.0
  3
*D12
  1

  0
LINE
  5
10D7A
  8
COTATION1
 62
     0
 10
-46.23805
 20
163.728457
 30
0.0
 11
-46.23805
 21
179.228457
 31
0.0
1001
ACAD
1000
RTLwPs
1070
   158
  0
LINE
  5
10D7B
  8
COTATION1
 62
     0
 10
-40.73805
 20
163.728457
 30
0.0
 11
-40.73805
 21
179.228457
 31
0.0
1001
ACAD
1000
RTLwPs
1070
   158
  0
LINE
  5
10D7C
  8
COTATION1
 62
     0
 10
-51.23805
 20
176.728457
 30
0.0
 11
-56.23805
 21
176.728457
 31
0.0
1001
ACAD
1000
RTLwPs
1070
   158
  0
LINE
  5
10D7D
  8
COTATION1
 62
     0
 10
-35.73805
 20
176.728457
 30
0.0
 11
-30.73805
 21
176.728457
 31
0.0
1001
ACAD
1000
RTLwPs
1070
   158
  0
TEXT
  8
0
  40
2.5
  5
10E4A
  62
0
  72
0
  71
0
 10
-31.1190
 20
172.303
 30
0.000000
  1
5.5
  0
INSERT
  5
10D7F
  8
COTATION1
 62
     0
  2
_OPEN30
 10
-46.23805
 20
176.728457
 30
0.0
 41
5.0
 42
5.0
 43
5.0
1001
ACAD
1000
RTLwPs
1070
   158
  0
INSERT
  5
10D80
  8
COTATION1
 62
     0
  2
_OPEN30
 10
-40.73805
 20
176.728457
 30
0.0
 41
5.0
 42
5.0
 43
5.0
 50
180.0
1001
ACAD
1000
RTLwPs
1070
   158
  0
POINT
  5
10D81
  8
DEFPOINTS
 62
     0
 10
-46.23805
 20
161.728457
 30
0.0
  0
POINT
  5
10D82
  8
DEFPOINTS
 62
     0
 10
-40.73805
 20
161.728457
 30
0.0
  0
POINT
  5
10D83
  8
DEFPOINTS
 62
     0
 10
-40.73805
 20
176.728457
 30
0.0
  0
ENDBLK
  5
10D85
  8
0
  0
BLOCK
  8
0
  2
*D13
 70
     1
 10
0.0
 20
0.0
 30
0.0
  3
*D13
  1

  0
LINE
  5
10D87
  8
COTATION1
 62
     0
 10
-38.73805
 20
161.728457
 30
0.0
 11
3.01195
 21
161.728457
 31
0.0
1001
ACAD
1000
RTLwPs
1070
   158
  0
LINE
  5
10D88
  8
COTATION1
 62
     0
 10
-17.48805
 20
67.728457
 30
0.0
 11
3.01195
 21
67.728457
 31
0.0
1001
ACAD
1000
RTLwPs
1070
   158
  0
LINE
  5
10D89
  8
COTATION1
 62
     0
 10
0.51195
 20
156.728457
 30
0.0
 11
0.51195
 21
117.978457
 31
0.0
1001
ACAD
1000
RTLwPs
1070
   158
  0
LINE
  5
10D8A
  8
COTATION1
 62
     0
 10
0.51195
 20
72.728457
 30
0.0
 11
0.51195
 21
111.478457
 31
0.0
1001
ACAD
1000
RTLwPs
1070
   158
  0
INSERT
  5
10D8B
  8
COTATION1
 62
     0
  2
_OPEN30
 10
0.51195
 20
161.728457
 30
0.0
 41
5.0
 42
5.0
 43
5.0
 50
90.0
1001
ACAD
1000
RTLwPs
1070
   158
  0
INSERT
  5
10D8C
  8
COTATION1
 62
     0
  2
_OPEN30
 10
0.51195
 20
67.728457
 30
0.0
 41
5.0
 42
5.0
 43
5.0
 50
270.0
1001
ACAD
1000
RTLwPs
1070
   158
  0
TEXT
  8
0
  40
2.5
  5
10E4B
  62
0
  72
0
  71
0
 10
-4.48805
 20
110.303
 30
0.000000
  1
94
  0
POINT
  5
10D8E
  8
DEFPOINTS
 62
     0
 10
-40.73805
 20
161.728457
 30
0.0
  0
POINT
  5
10D8F
  8
DEFPOINTS
 62
     0
 10
-19.48805
 20
67.728457
 30
0.0
  0
POINT
  5
10D90
  8
DEFPOINTS
 62
     0
 10
0.51195
 20
67.728457
 30
0.0
  0
ENDBLK
  5
10D92
  8
0
  0
BLOCK
  8
0
  2
*D14
 70
     1
 10
0.0
 20
0.0
 30
0.0
  3
*D14
  1

  0
LINE
  5
10D94
  8
COTATION1
 62
     0
 10
-51.88805
 20
125.328457
 30
0.0
 11
-51.88805
 21
13.228457
 31
0.0
1001
ACAD
1000
RTLwPs
1070
   158
  0
LINE
  5
10D95
  8
COTATION1
 62
     0
 10
-19.48805
 20
55.728457
 30
0.0
 11
-19.48805
 21
13.228457
 31
0.0
1001
ACAD
1000
RTLwPs
1070
   158
  0
LINE
  5
10D96
  8
COTATION1
 62
     0
 10
-46.88805
 20
15.728457
 30
0.0
 11
-24.48805
 21
15.728457
 31
0.0
1001
ACAD
1000
RTLwPs
1070
   158
  0
INSERT
  5
10D97
  8
COTATION1
 62
     0
  2
_OPEN30
 10
-51.88805
 20
15.728457
 30
0.0
 41
5.0
 42
5.0
 43
5.0
 50
180.0
1001
ACAD
1000
RTLwPs
1070
   158
  0
INSERT
  5
10D98
  8
COTATION1
 62
     0
  2
_OPEN30
 10
-19.48805
 20
15.728457
 30
0.0
 41
5.0
 42
5.0
 43
5.0
1001
ACAD
1000
RTLwPs
1070
   158
  0
TEXT
  8
0
  40
2.5
  5
10E4C
  62
0
  72
0
  71
0
 10
-40.6880
 20
14.5535
 30
0.000000
  1
32.4
  0
POINT
  5
10D9A
  8
DEFPOINTS
 62
     0
 10
-51.88805
 20
127.328457
 30
0.0
  0
POINT
  5
10D9B
  8
DEFPOINTS
 62
     0
 10
-19.48805
 20
57.728457
 30
0.0
  0
POINT
  5
10D9C
  8
DEFPOINTS
 62
     0
 10
-19.48805
 20
15.728457
 30
0.0
  0
ENDBLK
  5
10D9E
  8
0
  0
BLOCK
  8
0
  2
*D15
 70
     1
 10
0.0
 20
0.0
 30
0.0
  3
*D15
  1

  0
LINE
  5
10DA0
  8
COTATION1
 62
     0
 10
-37.48805
 20
98.728457
 30
0.0
 11
-37.48805
 21
23.228457
 31
0.0
1001
ACAD
1000
RTLwPs
1070
   158
  0
LINE
  5
10DA1
  8
COTATION1
 62
     0
 10
-19.48805
 20
65.728457
 30
0.0
 11
-19.48805
 21
23.228457
 31
0.0
1001
ACAD
1000
RTLwPs
1070
   158
  0
LINE
  5
10DA2
  8
COTATION1
 62
     0
 10
-32.48805
 20
25.728457
 30
0.0
 11
-24.48805
 21
25.728457
 31
0.0
1001
ACAD
1000
RTLwPs
1070
   158
  0
INSERT
  5
10DA3
  8
COTATION1
 62
     0
  2
_OPEN30
 10
-37.48805
 20
25.728457
 30
0.0
 41
5.0
 42
5.0
 43
5.0
 50
180.0
1001
ACAD
1000
RTLwPs
1070
   158
  0
INSERT
  5
10DA4
  8
COTATION1
 62
     0
  2
_OPEN30
 10
-19.48805
 20
25.728457
 30
0.0
 41
5.0
 42
5.0
 43
5.0
1001
ACAD
1000
RTLwPs
1070
   158
  0
TEXT
  8
0
  40
2.5
  5
10E4D
  62
0
  72
0
  71
0
 10
-33.4881
 20
24.5535
 30
0.000000
  1
18
  0
POINT
  5
10DA6
  8
DEFPOINTS
 62
     0
 10
-37.48805
 20
100.728457
 30
0.0
  0
POINT
  5
10DA7
  8
DEFPOINTS
 62
     0
 10
-19.48805
 20
67.728457
 30
0.0
  0
POINT
  5
10DA8
  8
DEFPOINTS
 62
     0
 10
-19.48805
 20
25.728457
 30
0.0
  0
ENDBLK
  5
10DAA
  8
0
  0
BLOCK
  8
0
  2
*D16
 70
     1
 10
0.0
 20
0.0
 30
0.0
  3
*D16
  1

  0
LINE
  5
10DAC
  8
COTATION1
 62
     0
 10
-35.48805
 20
65.728457
 30
0.0
 11
-35.48805
 21
33.228457
 31
0.0
1001
ACAD
1000
RTLwPs
1070
   158
  0
LINE
  5
10DAD
  8
COTATION1
 62
     0
 10
-19.48805
 20
65.728457
 30
0.0
 11
-19.48805
 21
33.228457
 31
0.0
1001
ACAD
1000
RTLwPs
1070
   158
  0
LINE
  5
10DAE
  8
COTATION1
 62
     0
 10
-30.48805
 20
35.728457
 30
0.0
 11
-24.48805
 21
35.728457
 31
0.0
1001
ACAD
1000
RTLwPs
1070
   158
  0
INSERT
  5
10DAF
  8
COTATION1
 62
     0
  2
_OPEN30
 10
-35.48805
 20
35.728457
 30
0.0
 41
5.0
 42
5.0
 43
5.0
 50
180.0
1001
ACAD
1000
RTLwPs
1070
   158
  0
INSERT
  5
10DB0
  8
COTATION1
 62
     0
  2
_OPEN30
 10
-19.48805
 20
35.728457
 30
0.0
 41
5.0
 42
5.0
 43
5.0
1001
ACAD
1000
RTLwPs
1070
   158
  0
TEXT
  8
0
  40
2.5
  5
10E4E
  62
0
  72
0
  71
0
 10
-32.4881
 20
34.5535
 30
0.000000
  1
16
  0
POINT
  5
10DB2
  8
DEFPOINTS
 62
     0
 10
-35.48805
 20
67.728457
 30
0.0
  0
POINT
  5
10DB3
  8
DEFPOINTS
 62
     0
 10
-19.48805
 20
67.728457
 30
0.0
  0
POINT
  5
10DB4
  8
DEFPOINTS
 62
     0
 10
-19.48805
 20
35.728457
 30
0.0
  0
ENDBLK
  5
10DB6
  8
0
  0
ENDSEC
  0
SECTION
  2
ENTITIES
  0
INSERT
  5
A
  8
0
 62
     7
  2
COTE
 10
0.0
 20
0.0
 30
0.0
  0
INSERT
  5
17
  8
0
 62
     7
  2
COTE
 10
284.010391
 20
6.373258
 30
0.0
  0
INSERT
  5
72
  8
0
 62
     7
  2
FOND
 10
0.0
 20
0.0
 30
0.0
  0
LINE
  5
F1A5
  8
ALPHA
 10
-35.48805
 20
67.728457
 30
0.0
 11
-30.471015
 21
67.728457
 31
0.0
  0
LINE
  5
F1A6
  8
ALPHA
 10
-19.48805
 20
67.728457
 30
0.0
 11
-19.48805
 21
117.728457
 31
0.0
  0
LINE
  5
F1A7
  8
ALPHA
 10
-37.48805
 20
117.728457
 30
0.0
 11
-19.48805
 21
117.728457
 31
0.0
  0
LINE
  5
F1A8
  8
ALPHA
 10
-35.48805
 20
67.728457
 30
0.0
 11
-35.48805
 21
100.728457
 31
0.0
  0
LINE
  5
F1A9
  8
ALPHA
 10
-34.23805
 20
81.728457
 30
0.0
 11
-27.48805
 21
81.728457
 31
0.0
  0
LINE
  5
F1AA
  8
AXE
 10
-27.48805
 20
140.728457
 30
0.0
 11
-27.48805
 21
45.728457
 31
0.0
  0
LINE
  5
F1AB
  8
ALPHA
 10
-34.23805
 20
81.728457
 30
0.0
 11
-34.23805
 21
67.728457
 31
0.0
  0
LINE
  5
F1AD
  8
ALPHA
 10
-34.23805
 20
80.228457
 30
0.0
 11
-32.23805
 21
80.228457
 31
0.0
  0
LINE
  5
F1AE
  8
ALPHA
 10
-32.23805
 20
80.228457
 30
0.0
 11
-32.23805
 21
73.728457
 31
0.0
  0
LINE
  5
F1AF
  8
ALPHA
 10
-32.23805
 20
73.728457
 30
0.0
 11
-30.98805
 21
73.728457
 31
0.0
  0
LINE
  5
F1B0
  8
ALPHA
 10
-30.98805
 20
75.228457
 30
0.0
 11
-30.98805
 21
73.228457
 31
0.0
  0
ARC
  5
F1B1
  8
ALPHA
 10
-27.48805
 20
75.228457
 30
0.0
 40
3.5
 50
0.0
 51
180.0
  0
LINE
  5
F1B4
  8
ALPHA
 10
-20.73805
 20
81.728457
 30
0.0
 11
-27.48805
 21
81.728457
 31
0.0
  0
LINE
  5
F1B5
  8
ALPHA
 10
-22.73805
 20
80.228457
 30
0.0
 11
-22.73805
 21
73.728457
 31
0.0
  0
LINE
  5
F1B6
  8
ALPHA
 10
-20.73805
 20
81.728457
 30
0.0
 11
-20.73805
 21
67.728457
 31
0.0
  0
LINE
  5
F1B7
  8
ALPHA
 10
-20.73805
 20
80.228457
 30
0.0
 11
-22.73805
 21
80.228457
 31
0.0
  0
LINE
  5
F1B8
  8
ALPHA
 10
-22.73805
 20
73.728457
 30
0.0
 11
-23.98805
 21
73.728457
 31
0.0
  0
LINE
  5
F1BD
  8
AXE
 10
-29.48805
 20
60.728457
 30
0.0
 11
-19.48805
 21
60.728457
 31
0.0
  0
ARC
  5
F1BE
  8
ALPHA
 10
-4.714994
 20
72.923991
 30
0.0
 40
26.27482
 50
179.336055
 51
207.655412
  0
ARC
  5
F1BF
  8
ALPHA
 10
2.285006
 20
72.923991
 30
0.0
 40
26.27482
 50
179.336055
 51
207.655412
  0
LINE
  5
F1C0
  8
ALPHA
 10
-23.98805
 20
75.228457
 30
0.0
 11
-23.98805
 21
73.228457
 31
0.0
  0
LINE
  5
F1C7
  8
ALPHA
 10
-23.471015
 20
67.728457
 30
0.0
 11
-19.48805
 21
67.728457
 31
0.0
  0
LINE
  5
F22D
  8
ALPHA
 10
-37.48805
 20
115.728457
 30
0.0
 11
-19.48805
 21
115.728457
 31
0.0
  0
LINE
  5
F25B
  8
ALPHA
 10
-37.48805
 20
100.728457
 30
0.0
 11
-37.48805
 21
117.728457
 31
0.0
  0
LINE
  5
F25C
  8
ALPHA
 10
-37.48805
 20
100.728457
 30
0.0
 11
-35.48805
 21
100.728457
 31
0.0
  0
TEXT
  5
F5A8
  8
AXE
 10
-34.964241
 20
45.728457
 30
0.0
 40
8.0
  1
Y
 72
     2
 11
-28.48805
 21
45.728457
 31
0.0
  0
DIMENSION
  5
F5AA
  8
COTATION1
  2
*D15
 10
-19.48805
 20
25.728457
 30
0.0
 11
-28.48805
 21
28.978457
 31
0.0
 70
     0
 13
-37.48805
 23
100.728457
 33
0.0
 14
-19.48805
 24
67.728457
 34
0.0
  0
LINE
  5
F6FF
  8
AXE
 10
-40.48805
 20
92.728457
 30
0.0
 11
-6.98805
 21
92.728457
 31
0.0
  0
TEXT
  5
F700
  8
AXE
 10
-13.464241
 20
93.728457
 30
0.0
 40
8.0
  1
Z
 72
     2
 11
-6.98805
 21
93.728457
 31
0.0
  0
DIMENSION
  5
F70C
  8
COTATION1
  2
*D16
 10
-19.48805
 20
35.728457
 30
0.0
 11
-27.48805
 21
38.978457
 31
0.0
 70
     0
 13
-35.48805
 23
67.728457
 33
0.0
 14
-19.48805
 24
67.728457
 34
0.0
  0
DIMENSION
  5
F734
  8
COTATION1
  2
*D13
 10
0.51195
 20
67.728457
 30
0.0
 11
0.51195
 21
114.728457
 31
0.0
 70
     0
 13
-40.73805
 23
161.728457
 33
0.0
 14
-19.48805
 24
67.728457
 34
0.0
 50
90.0
  0
LINE
  5
10405
  8
POINTILLE_COURT
 10
-53.23805
 20
161.728457
 30
0.0
 11
-47.73805
 21
161.728457
 31
0.0
  0
POLYLINE
  5
10895
  8
ALPHA
 66
     1
 10
0.0
 20
0.0
 30
0.0
 70
   128
  0
VERTEX
  5
10DEB
  8
ALPHA
 10
-46.602691
 20
135.728457
 30
0.0
  0
VERTEX
  5
10DEC
  8
ALPHA
 10
-46.320649
 20
135.728457
 30
0.0
  0
VERTEX
  5
10DED
  8
ALPHA
 10
-45.523573
 20
135.728457
 30
0.0
  0
VERTEX
  5
10DEE
  8
ALPHA
 10
-44.28504
 20
135.728457
 30
0.0
  0
VERTEX
  5
10DEF
  8
ALPHA
 10
-42.678626
 20
135.728457
 30
0.0
  0
VERTEX
  5
10DF0
  8
ALPHA
 10
-38.656459
 20
135.728457
 30
0.0
  0
VERTEX
  5
10DF1
  8
ALPHA
 10
-34.045682
 20
135.728457
 30
0.0
  0
VERTEX
  5
10DF2
  8
ALPHA
 10
-29.434905
 20
135.728457
 30
0.0
  0
VERTEX
  5
10DF3
  8
ALPHA
 10
-25.412738
 20
135.728457
 30
0.0
  0
VERTEX
  5
10DF4
  8
ALPHA
 10
-23.806324
 20
135.728457
 30
0.0
  0
VERTEX
  5
10DF5
  8
ALPHA
 10
-22.567791
 20
135.728457
 30
0.0
  0
VERTEX
  5
10DF6
  8
ALPHA
 10
-21.770715
 20
135.728457
 30
0.0
  0
VERTEX
  5
10DF7
  8
ALPHA
 10
-21.488673
 20
135.728457
 30
0.0
  0
SEQEND
  5
10DF8
  8
ALPHA
  0
POLYLINE
  5
10896
  8
ALPHA
 66
     1
 10
0.0
 20
0.0
 30
0.0
 70
   128
  0
VERTEX
  5
10DF9
  8
ALPHA
 10
-35.488052
 20
118.529078
 30
0.0
  0
VERTEX
  5
10DFA
  8
ALPHA
 10
-35.965634
 20
118.529078
 30
0.0
  0
VERTEX
  5
10DFB
  8
ALPHA
 10
-37.224714
 20
118.529078
 30
0.0
  0
VERTEX
  5
10DFC
  8
ALPHA
 10
-41.045371
 20
118.529078
 30
0.0
  0
VERTEX
  5
10DFD
  8
ALPHA
 10
-44.866029
 20
118.529078
 30
0.0
  0
VERTEX
  5
10DFE
  8
ALPHA
 10
-46.125109
 20
118.529078
 30
0.0
  0
VERTEX
  5
10DFF
  8
ALPHA
 10
-46.602691
 20
118.529078
 30
0.0
  0
SEQEND
  5
10E00
  8
ALPHA
  0
POLYLINE
  5
1089A
  8
ALPHA
 66
     1
 10
0.0
 20
0.0
 30
0.0
 70
   128
  0
VERTEX
  5
10E01
  8
ALPHA
 10
-49.10238
 20
131.327835
 30
0.0
  0
VERTEX
  5
10E02
  8
ALPHA
 10
-49.10238
 20
130.984058
 30
0.0
  0
VERTEX
  5
10E03
  8
ALPHA
 10
-49.10238
 20
130.077737
 30
0.0
  0
VERTEX
  5
10E04
  8
ALPHA
 10
-49.10238
 20
127.327523
 30
0.0
  0
VERTEX
  5
10E05
  8
ALPHA
 10
-49.10238
 20
124.577308
 30
0.0
  0
VERTEX
  5
10E06
  8
ALPHA
 10
-49.10238
 20
123.670987
 30
0.0
  0
VERTEX
  5
10E07
  8
ALPHA
 10
-49.10238
 20
123.32721
 30
0.0
  0
SEQEND
  5
10E08
  8
ALPHA
  0
POLYLINE
  5
1089C
  8
ALPHA
 66
     1
 10
0.0
 20
0.0
 30
0.0
 70
   128
  0
VERTEX
  5
10E09
  8
ALPHA
 10
-46.602691
 20
118.529078
 30
0.0
  0
VERTEX
  5
10E0A
  8
ALPHA
 10
-46.602691
 20
118.722235
 30
0.0
  0
VERTEX
  5
10E0B
  8
ALPHA
 10
-46.602691
 20
119.268114
 30
0.0
  0
VERTEX
  5
10E0C
  8
ALPHA
 10
-46.602691
 20
121.216481
 30
0.0
  0
VERTEX
  5
10E0D
  8
ALPHA
 10
-46.602691
 20
123.971069
 30
0.0
  0
VERTEX
  5
10E0E
  8
ALPHA
 10
-46.602691
 20
127.128767
 30
0.0
  0
VERTEX
  5
10E0F
  8
ALPHA
 10
-46.602691
 20
130.286466
 30
0.0
  0
VERTEX
  5
10E10
  8
ALPHA
 10
-46.602691
 20
133.041054
 30
0.0
  0
VERTEX
  5
10E11
  8
ALPHA
 10
-46.602691
 20
134.989421
 30
0.0
  0
VERTEX
  5
10E12
  8
ALPHA
 10
-46.602691
 20
135.5353
 30
0.0
  0
VERTEX
  5
10E13
  8
ALPHA
 10
-46.602691
 20
135.728457
 30
0.0
  0
SEQEND
  5
10E14
  8
ALPHA
  0
POLYLINE
  5
1089E
  8
ALPHA
 66
     1
 10
0.0
 20
0.0
 30
0.0
 70
   128
  0
VERTEX
  5
10E15
  8
ALPHA
 10
-49.10238
 20
123.32721
 30
0.0
  0
VERTEX
  5
10E16
  8
ALPHA
 10
-49.383727
 20
123.345415
 30
0.0
  0
VERTEX
  5
10E17
  8
ALPHA
 10
-50.002692
 20
123.385466
 30
0.0
  0
VERTEX
  5
10E18
  8
ALPHA
 10
-50.621656
 20
123.425517
 30
0.0
  0
VERTEX
  5
10E19
  8
ALPHA
 10
-50.903003
 20
123.443721
 30
0.0
  0
SEQEND
  5
10E1A
  8
ALPHA
  0
POLYLINE
  5
108A3
  8
ALPHA
 66
     1
 10
0.0
 20
0.0
 30
0.0
 70
   128
  0
VERTEX
  5
10E1B
  8
ALPHA
 10
-50.903003
 20
131.211947
 30
0.0
  0
VERTEX
  5
10E1C
  8
ALPHA
 10
-50.621656
 20
131.230054
 30
0.0
  0
VERTEX
  5
10E1D
  8
ALPHA
 10
-50.002692
 20
131.269891
 30
0.0
  0
VERTEX
  5
10E1E
  8
ALPHA
 10
-49.383727
 20
131.309727
 30
0.0
  0
VERTEX
  5
10E1F
  8
ALPHA
 10
-49.10238
 20
131.327835
 30
0.0
  0
SEQEND
  5
10E20
  8
ALPHA
  0
POLYLINE
  5
108A5
  8
ALPHA
 66
     1
 10
0.0
 20
0.0
 30
0.0
 70
   128
  0
VERTEX
  5
10E21
  8
ALPHA
 10
-19.48805
 20
117.728457
 30
0.0
  0
VERTEX
  5
10E22
  8
ALPHA
 10
-19.667737
 20
117.728457
 30
0.0
  0
VERTEX
  5
10E23
  8
ALPHA
 10
-20.17555
 20
117.728457
 30
0.0
  0
VERTEX
  5
10E24
  8
ALPHA
 10
-21.98805
 20
117.728457
 30
0.0
  0
VERTEX
  5
10E25
  8
ALPHA
 10
-24.55055
 20
117.728457
 30
0.0
  0
VERTEX
  5
10E26
  8
ALPHA
 10
-27.488051
 20
117.728457
 30
0.0
  0
VERTEX
  5
10E27
  8
ALPHA
 10
-30.425551
 20
117.728457
 30
0.0
  0
VERTEX
  5
10E28
  8
ALPHA
 10
-32.988051
 20
117.728457
 30
0.0
  0
VERTEX
  5
10E29
  8
ALPHA
 10
-34.800552
 20
117.728457
 30
0.0
  0
VERTEX
  5
10E2A
  8
ALPHA
 10
-35.308364
 20
117.728457
 30
0.0
  0
VERTEX
  5
10E2B
  8
ALPHA
 10
-35.488052
 20
117.728457
 30
0.0
  0
SEQEND
  5
10E2C
  8
ALPHA
  0
POLYLINE
  5
108A6
  8
ALPHA
 66
     1
 10
0.0
 20
0.0
 30
0.0
 70
   128
210
0.0
220
0.0
230
-1.0
  0
VERTEX
  5
10E2D
  8
ALPHA
 10
21.488673
 20
135.728457
 30
0.0
  0
VERTEX
  5
10E2E
  8
ALPHA
 10
20.710041
 20
135.571311
 30
0.0
  0
VERTEX
  5
10E2F
  8
ALPHA
 10
20.074109
 20
135.142787
 30
0.0
  0
VERTEX
  5
10E30
  8
ALPHA
 10
19.645302
 20
134.507254
 30
0.0
  0
VERTEX
  5
10E31
  8
ALPHA
 10
19.48805
 20
133.72908
 30
0.0
  0
SEQEND
  5
10E32
  8
ALPHA
  0
POLYLINE
  5
108A7
  8
ALPHA
 66
     1
 10
0.0
 20
0.0
 30
0.0
 70
   128
  0
VERTEX
  5
10E33
  8
ALPHA
 10
-27.488674
 20
124.134686
 30
0.0
  0
VERTEX
  5
10E34
  8
ALPHA
 10
-28.828502
 20
123.89382
 30
0.0
  0
VERTEX
  5
10E35
  8
ALPHA
 10
-30.08884
 20
123.25881
 30
0.0
  0
VERTEX
  5
10E36
  8
ALPHA
 10
-32.335793
 20
121.331882
 30
0.0
  0
VERTEX
  5
10E37
  8
ALPHA
 10
-34.159031
 20
119.404954
 30
0.0
  0
VERTEX
  5
10E38
  8
ALPHA
 10
-34.889725
 20
118.769944
 30
0.0
  0
VERTEX
  5
10E39
  8
ALPHA
 10
-35.488052
 20
118.529078
 30
0.0
  0
SEQEND
  5
10E3A
  8
ALPHA
  0
LINE
  5
108A8
  8
ALPHA
 10
-35.488052
 20
117.728457
 30
0.0
 11
-35.488052
 21
118.529078
 31
0.0
  0
POLYLINE
  5
108A9
  8
ALPHA
 66
     1
 10
0.0
 20
0.0
 30
0.0
 70
   128
  0
VERTEX
  5
10E3B
  8
ALPHA
 10
-19.48805
 20
133.72908
 30
0.0
  0
VERTEX
  5
10E3C
  8
ALPHA
 10
-19.48805
 20
133.549385
 30
0.0
  0
VERTEX
  5
10E3D
  8
ALPHA
 10
-19.48805
 20
133.041553
 30
0.0
  0
VERTEX
  5
10E3E
  8
ALPHA
 10
-19.48805
 20
131.228983
 30
0.0
  0
VERTEX
  5
10E3F
  8
ALPHA
 10
-19.48805
 20
128.666383
 30
0.0
  0
VERTEX
  5
10E40
  8
ALPHA
 10
-19.48805
 20
125.728768
 30
0.0
  0
VERTEX
  5
10E41
  8
ALPHA
 10
-19.48805
 20
122.791154
 30
0.0
  0
VERTEX
  5
10E42
  8
ALPHA
 10
-19.48805
 20
120.228554
 30
0.0
  0
VERTEX
  5
10E43
  8
ALPHA
 10
-19.48805
 20
118.415984
 30
0.0
  0
VERTEX
  5
10E44
  8
ALPHA
 10
-19.48805
 20
117.908151
 30
0.0
  0
VERTEX
  5
10E45
  8
ALPHA
 10
-19.48805
 20
117.728457
 30
0.0
  0
SEQEND
  5
10E46
  8
ALPHA
  0
LINE
  5
108AA
  8
ALPHA
 10
-27.488672
 20
124.134684
 30
0.0
 11
-46.473718
 21
124.134684
 31
0.0
  0
LINE
  5
108AB
  8
ALPHA
 10
-48.603314
 20
132.328459
 30
0.0
 11
-48.603314
 21
122.328458
 31
0.0
  0
LINE
  5
108AC
  8
ALPHA
 10
-46.602691
 20
122.328458
 30
0.0
 11
-46.602691
 21
132.328459
 31
0.0
  0
LINE
  5
108AD
  8
ALPHA
 10
-49.102379
 20
133.826277
 30
0.0
 11
-49.102379
 21
120.827522
 31
0.0
  0
LINE
  5
108AE
  8
ALPHA
 10
-48.603314
 20
120.827522
 30
0.0
 11
-48.603314
 21
133.826277
 31
0.0
  0
LINE
  5
108AF
  8
ALPHA
 10
-49.102379
 20
120.827522
 30
0.0
 11
-48.603314
 21
120.827522
 31
0.0
  0
LINE
  5
108B0
  8
ALPHA
 10
-48.603314
 20
122.328458
 30
0.0
 11
-46.602691
 21
122.328458
 31
0.0
  0
LINE
  5
108B1
  8
ALPHA
 10
-48.603314
 20
124.085466
 30
0.0
 11
-46.602691
 21
124.085466
 31
0.0
  0
LINE
  5
108B2
  8
ALPHA
 10
-48.603314
 20
123.42316
 30
0.0
 11
-46.602691
 21
123.42316
 31
0.0
  0
LINE
  5
108B3
  8
ALPHA
 10
-48.603314
 20
122.783909
 30
0.0
 11
-46.602691
 21
122.783909
 31
0.0
  0
LINE
  5
108B4
  8
ALPHA
 10
-48.603314
 20
127.881727
 30
0.0
 11
-46.602691
 21
127.881727
 31
0.0
  0
LINE
  5
108B5
  8
ALPHA
 10
-48.603314
 20
126.773939
 30
0.0
 11
-46.602691
 21
126.773939
 31
0.0
  0
LINE
  5
108B6
  8
ALPHA
 10
-48.603314
 20
125.87799
 30
0.0
 11
-46.602691
 21
125.87799
 31
0.0
  0
LINE
  5
108B7
  8
ALPHA
 10
-48.603314
 20
124.982663
 30
0.0
 11
-46.602691
 21
124.982663
 31
0.0
  0
LINE
  5
108B8
  8
ALPHA
 10
-46.602691
 20
132.328459
 30
0.0
 11
-48.603314
 21
132.328459
 31
0.0
  0
LINE
  5
108B9
  8
ALPHA
 10
-48.603314
 20
133.826277
 30
0.0
 11
-49.102379
 21
133.826277
 31
0.0
  0
LINE
  5
108BA
  8
ALPHA
 10
-48.603314
 20
128.777054
 30
0.0
 11
-46.602691
 21
128.777054
 31
0.0
  0
LINE
  5
108BB
  8
ALPHA
 10
-48.603314
 20
129.674251
 30
0.0
 11
-46.602691
 21
129.674251
 31
0.0
  0
LINE
  5
108BC
  8
ALPHA
 10
-48.603314
 20
130.571447
 30
0.0
 11
-46.602691
 21
130.571447
 31
0.0
  0
LINE
  5
108BD
  8
ALPHA
 10
-48.603314
 20
131.232509
 30
0.0
 11
-46.602691
 21
131.232509
 31
0.0
  0
LINE
  5
108BE
  8
ALPHA
 10
-48.603314
 20
131.87176
 30
0.0
 11
-46.602691
 21
131.87176
 31
0.0
  0
LINE
  5
108BF
  8
ALPHA
 10
-19.48805
 20
117.728457
 30
0.0
 11
-35.48805
 21
117.728457
 31
0.0
  0
ARC
  5
10A14
  8
ALPHA
 10
-43.737855
 20
127.327834
 30
0.0
 40
8.150195
 50
151.538585
 51
208.461415
  0
LINE
  5
10A16
  8
AXE
 10
-50.48805
 20
140.728457
 30
0.0
 11
-50.48805
 21
166.728457
 31
0.0
  0
LINE
  5
10A17
  8
POINTILLE_COURT
 10
-53.23805
 20
145.728457
 30
0.0
 11
-53.23805
 21
161.728457
 31
0.0
  0
LINE
  5
10A18
  8
POINTILLE_COURT
 10
-47.73805
 20
145.728457
 30
0.0
 11
-47.73805
 21
161.728457
 31
0.0
  0
LINE
  5
10A19
  8
POINTILLE_COURT
 10
-53.23805
 20
145.728457
 30
0.0
 11
-47.73805
 21
145.728457
 31
0.0
  0
LINE
  5
10A1C
  8
AXE
 10
-43.48805
 20
140.728457
 30
0.0
 11
-43.48805
 21
166.728457
 31
0.0
  0
LINE
  5
10A1D
  8
ALPHA
 10
-46.23805
 20
145.728457
 30
0.0
 11
-46.23805
 21
161.728457
 31
0.0
  0
LINE
  5
10A1E
  8
ALPHA
 10
-40.73805
 20
144.728457
 30
0.0
 11
-40.73805
 21
161.728457
 31
0.0
  0
LINE
  5
10A1F
  8
ALPHA
 10
-46.23805
 20
145.728457
 30
0.0
 11
-40.73805
 21
145.728457
 31
0.0
  0
LINE
  5
10A20
  8
ALPHA
 10
-46.23805
 20
161.728457
 30
0.0
 11
-40.73805
 21
161.728457
 31
0.0
  0
LINE
  5
10A21
  8
ALPHA
 10
-40.73805
 20
160.228457
 30
0.0
 11
-38.93805
 21
160.228457
 31
0.0
  0
LINE
  5
10A22
  8
ALPHA
 10
-38.93805
 20
144.540996
 30
0.0
 11
-38.93805
 21
160.228457
 31
0.0
  0
LINE
  5
10A25
  8
ALPHA
 10
-46.803314
 20
139.767546
 30
0.0
 11
-39.780493
 21
143.192805
 31
0.0
  0
LINE
  5
10A38
  8
ALPHA
 10
-46.803314
 20
119.230638
 30
0.0
 11
-48.603314
 21
119.230638
 31
0.0
  0
LINE
  5
10A3A
  8
ALPHA
 10
-46.803314
 20
139.767546
 30
0.0
 11
-46.803314
 21
119.230638
 31
0.0
  0
LINE
  5
10A3B
  8
ALPHA
 10
-48.603314
 20
139.955007
 30
0.0
 11
-48.603314
 21
119.230638
 31
0.0
  0
ARC
  5
10A3C
  8
ALPHA
 10
-40.43805
 20
144.540996
 30
0.0
 40
1.5
 50
296.0
 51
0.0
  0
LINE
  5
10A3D
  8
ALPHA
 10
-47.760871
 20
141.303198
 30
0.0
 11
-40.73805
 21
144.728457
 31
0.0
  0
ARC
  5
10A3E
  8
ALPHA
 10
-47.103314
 20
139.955007
 30
0.0
 40
1.5
 50
116.0
 51
180.0
  0
DIMENSION
  5
10A45
  8
COTATION1
  2
*D10
 10
-19.48805
 20
196.728457
 30
0.0
 11
-34.98805
 21
199.978457
 31
0.0
 70
     0
 13
-50.48805
 23
166.728457
 33
0.0
 14
-19.48805
 24
133.72908
 34
0.0
  0
DIMENSION
  5
10A46
  8
COTATION1
  2
*D11
 10
-19.48805
 20
186.728457
 30
0.0
 11
-31.48805
 21
189.978457
 31
0.0
 70
     0
 13
-43.48805
 23
166.728457
 33
0.0
 14
-19.48805
 24
133.72908
 34
0.0
  0
DIMENSION
  5
10A47
  8
COTATION1
  2
*D12
 10
-40.73805
 20
176.728457
 30
0.0
 11
-26.119002
 21
176.728457
 31
0.0
 70
   128
 13
-46.23805
 23
161.728457
 33
0.0
 14
-40.73805
 24
161.728457
 34
0.0
  0
DIMENSION
  5
10AF7
  8
COTATION1
  2
*D14
 10
-19.48805
 20
15.728457
 30
0.0
 11
-35.68805
 21
18.978457
 31
0.0
 70
     0
 13
-51.88805
 23
127.328457
 33
0.0
 14
-19.48805
 24
57.728457
 34
0.0
  0
VIEWPORT
  5
494D
 67
     1
  8
0
 10
4.995325
 20
6.556512
 30
0.0
 40
22.70986
 41
13.988421
 68
    -1
 69
     1
1001
ACAD
1000
MVIEW
1002
{
1070
    16
1010
0.0
1020
0.0
1030
0.0
1010
0.0
1020
0.0
1030
1.0
1040
0.0
1040
13.988421
1040
4.995325
1040
6.556512
1040
50.0
1040
0.0
1040
0.0
1070
     0
1070
   100
1070
     1
1070
     1
1070
     0
1070
     0
1070
     0
1070
     0
1040
0.0
1040
0.0
1040
0.0
1040
10.0
1040
10.0
1040
10.0
1040
10.0
1070
     0
1002
{
1002
}
1002
}
  0
ENDSEC
  0
EOF
