  0
SECTION
  2
HEADER
  9
$ACADVER
  1
AC1012
  9
$DWGCODEPAGE
  3
ANSI_1252
  9
$INSBASE
 10
0.0
 20
0.0
 30
0.0
  9
$EXTMIN
 10
7.517524
 20
7.535088
 30
-0.001526
  9
$EXTMAX
 10
148.301787
 20
359.056272
 30
0.0
  9
$LIMMIN
 10
21.500324
 20
168.366123
  9
$LIMMAX
 10
144.764979
 20
237.902791
  9
$ORTHOMODE
 70
     0
  9
$REGENMODE
 70
     1
  9
$FILLMODE
 70
     1
  9
$QTEXTMODE
 70
     0
  9
$MIRRTEXT
 70
     1
  9
$DRAGMODE
 70
     2
  9
$LTSCALE
 40
10.0
  9
$OSMODE
 70
    39
  9
$ATTMODE
 70
     1
  9
$TEXTSIZE
 40
0.2
  9
$TRACEWID
 40
0.05
  9
$TEXTSTYLE
  7
STANDARD
  9
$CLAYER
  8
0
  9
$CELTYPE
  6
CONTINUOUS
  9
$CECOLOR
 62
   256
  9
$CELTSCALE
 40
1.0
  9
$DELOBJ
 70
     1
  9
$DISPSILH
 70
     0
  9
$DIMSCALE
 40
1.0
  9
$DIMASZ
 40
0.18
  9
$DIMEXO
 40
0.0625
  9
$DIMDLI
 40
0.38
  9
$DIMRND
 40
0.0
  9
$DIMDLE
 40
0.0
  9
$DIMEXE
 40
0.18
  9
$DIMTP
 40
0.0
  9
$DIMTM
 40
0.0
  9
$DIMTXT
 40
0.18
  9
$DIMCEN
 40
0.09
  9
$DIMTSZ
 40
0.0
  9
$DIMTOL
 70
     0
  9
$DIMLIM
 70
     0
  9
$DIMTIH
 70
     1
  9
$DIMTOH
 70
     1
  9
$DIMSE1
 70
     0
  9
$DIMSE2
 70
     0
  9
$DIMTAD
 70
     0
  9
$DIMZIN
 70
     0
  9
$DIMBLK
  1

  9
$DIMASO
 70
     1
  9
$DIMSHO
 70
     1
  9
$DIMPOST
  1

  9
$DIMAPOST
  1

  9
$DIMALT
 70
     0
  9
$DIMALTD
 70
     2
  9
$DIMALTF
 40
25.4
  9
$DIMLFAC
 40
1.0
  9
$DIMTOFL
 70
     0
  9
$DIMTVP
 40
0.0
  9
$DIMTIX
 70
     0
  9
$DIMSOXD
 70
     0
  9
$DIMSAH
 70
     0
  9
$DIMBLK1
  1

  9
$DIMBLK2
  1

  9
$DIMSTYLE
  2
STANDARD
  9
$DIMCLRD
 70
     0
  9
$DIMCLRE
 70
     0
  9
$DIMCLRT
 70
     0
  9
$DIMTFAC
 40
1.0
  9
$DIMGAP
 40
0.09
  9
$DIMJUST
 70
     0
  9
$DIMSD1
 70
     0
  9
$DIMSD2
 70
     0
  9
$DIMTOLJ
 70
     1
  9
$DIMTZIN
 70
     0
  9
$DIMALTZ
 70
     0
  9
$DIMALTTZ
 70
     0
  9
$DIMFIT
 70
     3
  9
$DIMUPT
 70
     0
  9
$DIMUNIT
 70
     2
  9
$DIMDEC
 70
     4
  9
$DIMTDEC
 70
     4
  9
$DIMALTU
 70
     2
  9
$DIMALTTD
 70
     2
  9
$DIMTXSTY
  7
STANDARD
  9
$DIMAUNIT
 70
     0
  9
$LUNITS
 70
     2
  9
$LUPREC
 70
     4
  9
$SKETCHINC
 40
0.1
  9
$FILLETRAD
 40
0.0
  9
$AUNITS
 70
     0
  9
$AUPREC
 70
     0
  9
$MENU
  1
acad
  9
$ELEVATION
 40
0.0
  9
$PELEVATION
 40
0.0
  9
$THICKNESS
 40
0.0
  9
$LIMCHECK
 70
     0
  9
$BLIPMODE
 70
     0
  9
$CHAMFERA
 40
0.0
  9
$CHAMFERB
 40
0.0
  9
$CHAMFERC
 40
0.0
  9
$CHAMFERD
 40
0.0
  9
$SKPOLY
 70
     0
  9
$TDCREATE
 40
2453627.679171909
  9
$TDUPDATE
 40
2453689.696715671
  9
$TDINDWG
 40
0.1174322106
  9
$TDUSRTIMER
 40
0.1174316667
  9
$USRTIMER
 70
     1
  9
$ANGBASE
 50
0.0
  9
$ANGDIR
 70
     0
  9
$PDMODE
 70
     0
  9
$PDSIZE
 40
0.0
  9
$PLINEWID
 40
0.0
  9
$COORDS
 70
     0
  9
$SPLFRAME
 70
     0
  9
$SPLINETYPE
 70
     6
  9
$SPLINESEGS
 70
     8
  9
$ATTDIA
 70
     0
  9
$ATTREQ
 70
     1
  9
$HANDLING
 70
     1
  9
$HANDSEED
  5
C86
  9
$SURFTAB1
 70
     6
  9
$SURFTAB2
 70
     6
  9
$SURFTYPE
 70
     6
  9
$SURFU
 70
     6
  9
$SURFV
 70
     6
  9
$UCSNAME
  2

  9
$UCSORG
 10
0.0
 20
0.0
 30
0.0
  9
$UCSXDIR
 10
1.0
 20
0.0
 30
0.0
  9
$UCSYDIR
 10
0.0
 20
1.0
 30
0.0
  9
$PUCSNAME
  2

  9
$PUCSORG
 10
0.0
 20
0.0
 30
0.0
  9
$PUCSXDIR
 10
1.0
 20
0.0
 30
0.0
  9
$PUCSYDIR
 10
0.0
 20
1.0
 30
0.0
  9
$USERI1
 70
     0
  9
$USERI2
 70
     0
  9
$USERI3
 70
     0
  9
$USERI4
 70
     0
  9
$USERI5
 70
     0
  9
$USERR1
 40
0.0
  9
$USERR2
 40
0.0
  9
$USERR3
 40
0.0
  9
$USERR4
 40
0.0
  9
$USERR5
 40
0.0
  9
$WORLDVIEW
 70
     1
  9
$SHADEDGE
 70
     3
  9
$SHADEDIF
 70
    70
  9
$TILEMODE
 70
     1
  9
$MAXACTVP
 70
    16
  9
$PINSBASE
 10
0.0
 20
0.0
 30
0.0
  9
$PLIMCHECK
 70
     0
  9
$PEXTMIN
 10
1.000000E+20
 20
1.000000E+20
 30
1.000000E+20
  9
$PEXTMAX
 10
-1.000000E+20
 20
-1.000000E+20
 30
-1.000000E+20
  9
$PLIMMIN
 10
0.0
 20
0.0
  9
$PLIMMAX
 10
12.0
 20
9.0
  9
$UNITMODE
 70
     0
  9
$VISRETAIN
 70
     0
  9
$PLINEGEN
 70
     1
  9
$PSLTSCALE
 70
     0
  9
$TREEDEPTH
 70
  3020
  9
$PICKSTYLE
 70
     1
  9
$CMLSTYLE
  2
STANDARD
  9
$CMLJUST
 70
     0
  9
$CMLSCALE
 40
1.0
  9
$SAVEIMAGES
 70
     0
  0
ENDSEC
  0
SECTION
  2
CLASSES
  0
CLASS
  1
LWPOLYLINE
  2
AcDbPolyline
  3
"AutoCAD"
 90
    32768
280
     0
281
     1
  0
CLASS
  1
IMAGE
  2
AcDbRasterImage
  3
ISM
 90
    32895
280
     0
281
     1
  0
CLASS
  1
OLE2FRAME
  2
AcDbOle2Frame
  3
""
 90
    32768
280
     0
281
     1
  0
CLASS
  1
HATCH
  2
AcDbHatch
  3
"ACAD_SEDONA"
 90
    32768
280
     0
281
     1
  0
CLASS
  1
DICTIONARYVAR
  2
AcDbDictionaryVar
  3
"AutoCAD"
 90
    32768
280
     0
281
     0
  0
CLASS
  1
RASTERVARIABLES
  2
AcDbRasterVariables
  3
ISM
 90
    32768
280
     0
281
     0
  0
CLASS
  1
IMAGEDEF
  2
AcDbRasterImageDef
  3
ISM
 90
    32768
280
     0
281
     0
  0
CLASS
  1
IMAGEDEF_REACTOR
  2
AcDbRasterImageDefReactor
  3
ISM
 90
    32769
280
     0
281
     0
  0
CLASS
  1
SPATIAL_FILTER
  2
AcDbSpatialFilter
  3
"Acad"
 90
    32768
280
     0
281
     0
  0
CLASS
  1
XRECORD
  2
AcDbXrecord
  3
"<Built In>"
 90
    32768
280
     0
281
     0
  0
CLASS
  1
SORTENTSTABLE
  2
AcDbSortentsTable
  3
"AutoCAD"
 90
    32768
280
     0
281
     0
  0
CLASS
  1
LAYER_INDEX
  2
AcDbLayerIndex
  3
"Acad"
 90
    32768
280
     0
281
     0
  0
CLASS
  1
SPATIAL_INDEX
  2
AcDbSpatialIndex
  3
"Acad"
 90
    32768
280
     0
281
     0
  0
CLASS
  1
OBJECT_PTR
  2
CAseDLPNTableRecord
  3
"ASE-LPNTableRecord"
 90
    32769
280
     0
281
     0
  0
CLASS
  1
LAYOUT
  2
AcDbLayout
  3
AutoCAD 2000
 90
    32768
280
     0
281
     0
  0
CLASS
  1
PLOTSETTINGS
  2
AcDbPlotSettings
  3
AutoCAD 2000
 90
    32768
280
     0
281
     0
  0
CLASS
  1
ACDBDICTIONARYWDFLT
  2
AcDbDictionaryWithDefault
  3
AutoCAD 2000
 90
    32768
280
     0
281
     0
  0
CLASS
  1
ACDBPLACEHOLDER
  2
AcDbPlaceHolder
  3
AutoCAD 2000
 90
    32768
280
     0
281
     0
  0
CLASS
  1
VBA_PROJECT
  2
AcDbVbaProject
  3
acad
 90
    32768
280
     0
281
     0
  0
CLASS
  1
WIPEOUT
  2
AcDbWipeout
  3
"WipeOut|Product Desc: Object Enabler for WipeOut entity^I^I^I^I^I^I|Company: Autodesk, Inc.^I^I^I^I^I^I|WEB Address: www.autodesk.com"
 90
    32895
280
     0
281
     1
  0
CLASS
  1
WIPEOUTVARIABLES
  2
AcDbWipeoutVariables
  3
"WipeOut|Product Desc:     WipeOut Dbx Application|Company:          Autodesk, Inc.|WEB Address:      www.autodesk.com"
 90
    32768
280
     0
281
     0
  0
CLASS
  1
RTEXT
  2
RText
  3
RText|AutoCAD Express Tool|expresstools@autodesk.com
 90
    32768
280
     0
281
     1
  0
CLASS
  1
ARCALIGNEDTEXT
  2
AcDbArcAlignedText
  3
ATEXT|AutoCAD Express Tool|expresstools@autodesk.com
 90
    32768
280
     0
281
     1
  0
CLASS
  1
TABLESTYLE
  2
AcDbTableStyle
  3
ObjectDBX Classes
 90
    34815
280
     0
281
     0
  0
CLASS
  1
ACAD_PROXY_OBJECT_WRAPPER
  2
AcDbProxyObjectWrapper
  3
AutoCAD 2000
 90
    32768
280
     0
281
     0
  0
CLASS
  1
LONG_TRANSACTION
  2
AcDbLongTransaction
  3
AutoCAD 2000
 90
    32768
280
     0
281
     0
  0
CLASS
  1
LWPOLYLINE
  2
AcDbPolyline
  3
"AutoCAD"
 90
    32768
280
     0
281
     1
  0
CLASS
  1
HATCH
  2
AcDbHatch
  3
"ACAD_SEDONA"
 90
    32768
280
     0
281
     1
  0
CLASS
  1
XRECORD
  2
AcDbXrecord
  3
"<Built In>"
 90
    32768
280
     0
281
     0
  0
ENDSEC
  0
SECTION
  2
TABLES
  0
TABLE
  2
VPORT
  5
7
100
AcDbSymbolTable
 70
     2
  0
VPORT
  5
C85
100
AcDbSymbolTableRecord
100
AcDbViewportTableRecord
  2
*ACTIVE
 70
     0
 10
0.0
 20
0.0
 11
1.0
 21
1.0
 12
77.909656
 22
183.29568
 13
0.0
 23
0.0
 14
1.0
 24
1.0
 15
0.0
 25
0.0
 16
0.0
 26
0.0
 36
1.0
 17
0.0
 27
0.0
 37
0.0
 40
355.176517
 41
1.673611
 42
50.0
 43
0.0
 44
0.0
 50
0.0
 51
0.0
 71
     0
 72
   100
 73
     1
 74
     2
 75
     0
 76
     0
 77
     0
 78
     0
  0
ENDTAB
  0
TABLE
  2
LTYPE
  5
4
100
AcDbSymbolTable
 70
     2
  0
LTYPE
  5
11
102
{ACAD_XDICTIONARY
360
C46
102
}
100
AcDbSymbolTableRecord
100
AcDbLinetypeTableRecord
  2
BYBLOCK
 70
     0
  3

 72
    65
 73
     0
 40
0.0
  0
LTYPE
  5
12
102
{ACAD_XDICTIONARY
360
C48
102
}
100
AcDbSymbolTableRecord
100
AcDbLinetypeTableRecord
  2
BYLAYER
 70
     0
  3

 72
    65
 73
     0
 40
0.0
  0
LTYPE
  5
13
102
{ACAD_XDICTIONARY
360
C4A
102
}
100
AcDbSymbolTableRecord
100
AcDbLinetypeTableRecord
  2
CONTINUOUS
 70
     0
  3
Solid line
 72
    65
 73
     0
 40
0.0
  0
LTYPE
  5
FA
100
AcDbSymbolTableRecord
100
AcDbLinetypeTableRecord
  2
AXES2
 70
     0
  3
___ _ ___ _ ___ _ ___ _ ___ _ ___ _ ___ _ ___ _
 72
    65
 73
     4
 40
1.125
 49
0.75
 74
     0
 49
-0.125
 74
     0
 49
0.125
 74
     0
 49
-0.125
 74
     0
  0
ENDTAB
  0
TABLE
  2
LAYER
  5
2
100
AcDbSymbolTable
 70
     5
  0
LAYER
  5
14
100
AcDbSymbolTableRecord
100
AcDbLayerTableRecord
  2
0
 70
     0
 62
     7
  6
CONTINUOUS
  0
LAYER
  5
FC
100
AcDbSymbolTableRecord
100
AcDbLayerTableRecord
  2
COTATION1
 70
     0
 62
     2
  6
CONTINUOUS
  0
LAYER
  5
FD
100
AcDbSymbolTableRecord
100
AcDbLayerTableRecord
  2
AXE
 70
     0
 62
    80
  6
AXES2
  0
LAYER
  5
FE
102
{ACAD_XDICTIONARY
360
C7C
102
}
100
AcDbSymbolTableRecord
100
AcDbLayerTableRecord
  2
DEFPOINTS
 70
     0
 62
     7
  6
CONTINUOUS
  0
LAYER
  5
FF
100
AcDbSymbolTableRecord
100
AcDbLayerTableRecord
  2
ALPHA
 70
     0
 62
   254
  6
CONTINUOUS
  0
ENDTAB
  0
TABLE
  2
STYLE
  5
3
100
AcDbSymbolTable
 70
     2
  0
STYLE
  5
17
102
{ACAD_XDICTIONARY
360
C4C
102
}
100
AcDbSymbolTableRecord
100
AcDbTextStyleTableRecord
  2
STANDARD
 70
     0
 40
0.0
 41
1.0
 50
0.0
 71
     0
 42
0.0
  3
txt
  4

  0
STYLE
  5
101
100
AcDbSymbolTableRecord
100
AcDbTextStyleTableRecord
  2
ROMANS
 70
     0
 40
0.0
 41
1.0
 50
0.0
 71
     0
 42
6.0
  3
romans
  4

  0
ENDTAB
  0
TABLE
  2
VIEW
  5
5
100
AcDbSymbolTable
 70
     0
  0
ENDTAB
  0
TABLE
  2
UCS
  5
6
100
AcDbSymbolTable
 70
     0
  0
ENDTAB
  0
TABLE
  2
APPID
  5
8
100
AcDbSymbolTable
 70
     1
  0
APPID
  5
16
100
AcDbSymbolTableRecord
100
AcDbRegAppTableRecord
  2
ACAD
 70
     0
  0
ENDTAB
  0
TABLE
  2
DIMSTYLE
  5
9
100
AcDbSymbolTable
 70
     2
  0
DIMSTYLE
105
18
102
{ACAD_XDICTIONARY
360
C44
102
}
100
AcDbSymbolTableRecord
100
AcDbDimStyleTableRecord
  2
STANDARD
 70
     0
  3

  4

  5

  6

  7

 40
1.0
 41
0.18
 42
0.0625
 43
0.38
 44
0.18
 45
0.0
 46
0.0
 47
0.0
 48
0.0
140
0.18
141
0.09
142
0.0
143
25.4
144
1.0
145
0.0
146
1.0
147
0.09
 71
     0
 72
     0
 73
     1
 74
     1
 75
     0
 76
     0
 77
     0
 78
     0
170
     0
171
     2
172
     0
173
     0
174
     0
175
     0
176
     0
177
     0
178
     0
270
     2
271
     4
272
     4
273
     2
274
     2
340
17
275
     0
280
     0
281
     0
282
     0
283
     1
284
     0
285
     0
286
     0
287
     3
288
     0
  0
DIMSTYLE
105
102
102
{ACAD_XDICTIONARY
360
C7E
102
}
102
{ACAD_REACTORS
330
B72
330
B76
330
B77
330
B78
102
}
100
AcDbSymbolTableRecord
100
AcDbDimStyleTableRecord
  2
SC_DEFAUT
 70
     0
  3

  4

  5
OPEN30
  6

  7

 40
1.0
 41
5.0
 42
2.0
 43
0.38
 44
2.5
 45
0.0
 46
0.0
 47
0.0
 48
0.0
140
2.5
141
0.0
142
0.0
143
25.4
144
1.0
145
0.0
146
1.0
147
2.0
 71
     0
 72
     0
 73
     1
 74
     1
 75
     0
 76
     0
 77
     1
 78
    12
170
     0
171
     2
172
     0
173
     0
174
     0
175
     0
176
     0
177
     0
178
     0
270
     2
271
     1
272
     1
273
     2
274
     2
340
101
275
     0
280
     0
281
     0
282
     0
283
     1
284
    12
285
    12
286
    12
287
     5
288
     0
  0
ENDTAB
  0
TABLE
  2
BLOCK_RECORD
  5
1
100
AcDbSymbolTable
 70
     5
  0
BLOCK_RECORD
  5
A
102
{ACAD_XDICTIONARY
360
1B0
102
}
100
AcDbSymbolTableRecord
100
AcDbBlockTableRecord
  2
*MODEL_SPACE
  0
BLOCK_RECORD
  5
B
102
{ACAD_XDICTIONARY
360
C72
102
}
100
AcDbSymbolTableRecord
100
AcDbBlockTableRecord
  2
*PAPER_SPACE
  0
BLOCK_RECORD
  5
CF
100
AcDbSymbolTableRecord
100
AcDbBlockTableRecord
  2
_OPEN30
  0
BLOCK_RECORD
  5
BA8
100
AcDbSymbolTableRecord
100
AcDbBlockTableRecord
  2
*D1
  0
BLOCK_RECORD
  5
BB5
100
AcDbSymbolTableRecord
100
AcDbBlockTableRecord
  2
*D2
  0
BLOCK_RECORD
  5
BC1
100
AcDbSymbolTableRecord
100
AcDbBlockTableRecord
  2
*D3
  0
BLOCK_RECORD
  5
BCE
100
AcDbSymbolTableRecord
100
AcDbBlockTableRecord
  2
*D4
  0
ENDTAB
  0
ENDSEC
  0
SECTION
  2
BLOCKS
  0
BLOCK
  5
D
100
AcDbEntity
  8
0
100
AcDbBlockBegin
  2
*MODEL_SPACE
 70
     0
 10
0.0
 20
0.0
 30
0.0
  3
*MODEL_SPACE
  1

  0
ENDBLK
  5
E
100
AcDbEntity
  8
0
100
AcDbBlockEnd
  0
BLOCK
  5
F
100
AcDbEntity
 67
     1
  8
0
100
AcDbBlockBegin
  2
*PAPER_SPACE
 70
     0
 10
0.0
 20
0.0
 30
0.0
  3
*PAPER_SPACE
  1

  0
ENDBLK
  5
10
100
AcDbEntity
 67
     1
  8
0
100
AcDbBlockEnd
  0
BLOCK
  5
D0
100
AcDbEntity
  8
0
100
AcDbBlockBegin
  2
_OPEN30
 70
     0
 10
0.0
 20
0.0
 30
0.0
  3
_OPEN30
  1

  0
LINE
  5
D1
100
AcDbEntity
  8
COTATION1
 62
     0
100
AcDbLine
 10
-1.0
 20
0.267949
 30
0.0
 11
0.0
 21
0.0
 31
0.0
1001
ACAD
1000
RTLwPs
1070
   158
  0
LINE
  5
D2
100
AcDbEntity
  8
COTATION1
 62
     0
100
AcDbLine
 10
0.0
 20
0.0
 30
0.0
 11
-1.0
 21
-0.267949
 31
0.0
1001
ACAD
1000
RTLwPs
1070
   158
  0
LINE
  5
D3
100
AcDbEntity
  8
COTATION1
 62
     0
100
AcDbLine
 10
0.0
 20
0.0
 30
0.0
 11
-1.0
 21
0.0
 31
0.0
1001
ACAD
1000
RTLwPs
1070
   158
  0
ENDBLK
  5
D4
100
AcDbEntity
  8
0
100
AcDbBlockEnd
  0
BLOCK
  5
BB3
100
AcDbEntity
  8
0
100
AcDbBlockBegin
  2
*D1
 70
     1
 10
0.0
 20
0.0
 30
0.0
  3
*D1
  1

1001
ACAD
1000
RTLwPs
1070
   128
  0
LINE
  5
C08
100
AcDbEntity
  8
COTATION1
 62
     0
100
AcDbLine
 10
101.63216
 20
35.045814
 30
0.0
 11
147.523681
 21
35.045814
 31
0.0
1001
ACAD
1000
RTLwPs
1070
   158
  0
LINE
  5
C09
100
AcDbEntity
  8
COTATION1
 62
     0
100
AcDbLine
 10
79.119591
 20
349.045545
 30
0.0
 11
147.523681
 21
349.045545
 31
0.0
1001
ACAD
1000
RTLwPs
1070
   158
  0
LINE
  5
C0A
100
AcDbEntity
  8
COTATION1
 62
     0
100
AcDbLine
 10
145.023681
 20
40.045814
 30
0.0
 11
145.023681
 21
188.795679
 31
0.0
1001
ACAD
1000
RTLwPs
1070
   158
  0
LINE
  5
C0B
100
AcDbEntity
  8
COTATION1
 62
     0
100
AcDbLine
 10
145.023681
 20
344.045545
 30
0.0
 11
145.023681
 21
195.295679
 31
0.0
1001
ACAD
1000
RTLwPs
1070
   158
  0
INSERT
  5
C0C
100
AcDbEntity
  8
COTATION1
 62
     0
100
AcDbBlockReference
  2
_OPEN30
 10
145.023681
 20
35.045814
 30
0.0
 41
5.0
 42
5.0
 43
5.0
 50
270.0
1001
ACAD
1000
RTLwPs
1070
   158
  0
INSERT
  5
C0D
100
AcDbEntity
  8
COTATION1
 62
     0
100
AcDbBlockReference
  2
_OPEN30
 10
145.023681
 20
349.045545
 30
0.0
 41
5.0
 42
5.0
 43
5.0
 50
90.0
1001
ACAD
1000
RTLwPs
1070
   158
  0
MTEXT
  5
C0E
100
AcDbEntity
  8
COTATION1
 62
     0
100
AcDbMText
 10
145.023681
 20
192.045679
 30
0.0
 40
2.5
 41
0.0
 71
     5
 72
     1
  1
\A1;314
  7
ROMANS
1001
ACAD
1000
MTEXTBEGIN
1070
    73
1070
     1
1070
    44
1040
1.0
1070
    74
1070
     0
1000
MTEXTEND
  0
POINT
  5
C0F
100
AcDbEntity
  8
DEFPOINTS
 62
     0
100
AcDbPoint
 10
99.63216
 20
35.045814
 30
0.0
1001
ACAD
1000
RTLwPs
1070
   128
  0
POINT
  5
C10
100
AcDbEntity
  8
DEFPOINTS
 62
     0
100
AcDbPoint
 10
77.119591
 20
349.045545
 30
0.0
1001
ACAD
1000
RTLwPs
1070
   128
  0
POINT
  5
C11
100
AcDbEntity
  8
DEFPOINTS
 62
     0
100
AcDbPoint
 10
145.023681
 20
349.045545
 30
0.0
1001
ACAD
1000
RTLwPs
1070
   128
  0
ENDBLK
  5
BB4
100
AcDbEntity
  8
0
100
AcDbBlockEnd
1001
ACAD
1000
RTLwPs
1070
   128
  0
BLOCK
  5
BBF
100
AcDbEntity
  8
0
100
AcDbBlockBegin
  2
*D2
 70
     1
 10
0.0
 20
0.0
 30
0.0
  3
*D2
  1

1001
ACAD
1000
RTLwPs
1070
   128
  0
LINE
  5
C12
100
AcDbEntity
  8
COTATION1
 62
     0
100
AcDbLine
 10
110.023681
 20
43.1012
 30
0.0
 11
110.023681
 21
7.545814
 31
0.0
1001
ACAD
1000
RTLwPs
1070
   158
  0
LINE
  5
C13
100
AcDbEntity
  8
COTATION1
 62
     0
100
AcDbLine
 10
30.02182
 20
43.1012
 30
0.0
 11
30.02182
 21
7.545814
 31
0.0
1001
ACAD
1000
RTLwPs
1070
   158
  0
LINE
  5
C14
100
AcDbEntity
  8
COTATION1
 62
     0
100
AcDbLine
 10
105.023681
 20
10.045814
 30
0.0
 11
35.02182
 21
10.045814
 31
0.0
1001
ACAD
1000
RTLwPs
1070
   158
  0
INSERT
  5
C15
100
AcDbEntity
  8
COTATION1
 62
     0
100
AcDbBlockReference
  2
_OPEN30
 10
110.023681
 20
10.045814
 30
0.0
 41
5.0
 42
5.0
 43
5.0
1001
ACAD
1000
RTLwPs
1070
   158
  0
INSERT
  5
C16
100
AcDbEntity
  8
COTATION1
 62
     0
100
AcDbBlockReference
  2
_OPEN30
 10
30.02182
 20
10.045814
 30
0.0
 41
5.0
 42
5.0
 43
5.0
 50
180.0
1001
ACAD
1000
RTLwPs
1070
   158
  0
MTEXT
  5
C17
100
AcDbEntity
  8
COTATION1
 62
     0
100
AcDbMText
 10
70.022751
 20
13.295814
 30
0.0
 40
2.5
 41
0.0
 71
     5
 72
     1
  1
\A1;80
  7
ROMANS
1001
ACAD
1000
MTEXTBEGIN
1070
    73
1070
     1
1070
    44
1040
1.0
1070
    74
1070
     0
1000
MTEXTEND
  0
POINT
  5
C18
100
AcDbEntity
  8
DEFPOINTS
 62
     0
100
AcDbPoint
 10
110.023681
 20
45.1012
 30
0.0
1001
ACAD
1000
RTLwPs
1070
   128
  0
POINT
  5
C19
100
AcDbEntity
  8
DEFPOINTS
 62
     0
100
AcDbPoint
 10
30.02182
 20
45.1012
 30
0.0
1001
ACAD
1000
RTLwPs
1070
   128
  0
POINT
  5
C1A
100
AcDbEntity
  8
DEFPOINTS
 62
     0
100
AcDbPoint
 10
30.02182
 20
10.045814
 30
0.0
1001
ACAD
1000
RTLwPs
1070
   128
  0
ENDBLK
  5
BC0
100
AcDbEntity
  8
0
100
AcDbBlockEnd
1001
ACAD
1000
RTLwPs
1070
   128
  0
BLOCK
  5
BCC
100
AcDbEntity
  8
0
100
AcDbBlockBegin
  2
*D3
 70
     1
 10
0.0
 20
0.0
 30
0.0
  3
*D3
  1

1001
ACAD
1000
RTLwPs
1070
   128
  0
LINE
  5
C1B
100
AcDbEntity
  8
COTATION1
 62
     0
100
AcDbLine
 10
101.634227
 20
35.045814
 30
0.0
 11
137.523681
 21
35.045814
 31
0.0
1001
ACAD
1000
RTLwPs
1070
   158
  0
LINE
  5
C1C
100
AcDbEntity
  8
COTATION1
 62
     0
100
AcDbLine
 10
89.342335
 20
225.051262
 30
0.0
 11
137.523681
 21
225.051262
 31
0.0
1001
ACAD
1000
RTLwPs
1070
   158
  0
LINE
  5
C1D
100
AcDbEntity
  8
COTATION1
 62
     0
100
AcDbLine
 10
135.023681
 20
40.045814
 30
0.0
 11
135.023681
 21
126.798538
 31
0.0
1001
ACAD
1000
RTLwPs
1070
   158
  0
LINE
  5
C1E
100
AcDbEntity
  8
COTATION1
 62
     0
100
AcDbLine
 10
135.023681
 20
220.051262
 30
0.0
 11
135.023681
 21
133.298538
 31
0.0
1001
ACAD
1000
RTLwPs
1070
   158
  0
INSERT
  5
C1F
100
AcDbEntity
  8
COTATION1
 62
     0
100
AcDbBlockReference
  2
_OPEN30
 10
135.023681
 20
35.045814
 30
0.0
 41
5.0
 42
5.0
 43
5.0
 50
270.0
1001
ACAD
1000
RTLwPs
1070
   158
  0
INSERT
  5
C20
100
AcDbEntity
  8
COTATION1
 62
     0
100
AcDbBlockReference
  2
_OPEN30
 10
135.023681
 20
225.051262
 30
0.0
 41
5.0
 42
5.0
 43
5.0
 50
90.0
1001
ACAD
1000
RTLwPs
1070
   158
  0
MTEXT
  5
C21
100
AcDbEntity
  8
COTATION1
 62
     0
100
AcDbMText
 10
135.023681
 20
130.048538
 30
0.0
 40
2.5
 41
0.0
 71
     5
 72
     1
  1
\A1;190
  7
ROMANS
1001
ACAD
1000
MTEXTBEGIN
1070
    73
1070
     1
1070
    44
1040
1.0
1070
    74
1070
     0
1000
MTEXTEND
  0
POINT
  5
C22
100
AcDbEntity
  8
DEFPOINTS
 62
     0
100
AcDbPoint
 10
99.634227
 20
35.045814
 30
0.0
1001
ACAD
1000
RTLwPs
1070
   128
  0
POINT
  5
C23
100
AcDbEntity
  8
DEFPOINTS
 62
     0
100
AcDbPoint
 10
87.342335
 20
225.051262
 30
0.0
1001
ACAD
1000
RTLwPs
1070
   128
  0
POINT
  5
C24
100
AcDbEntity
  8
DEFPOINTS
 62
     0
100
AcDbPoint
 10
135.023681
 20
225.051262
 30
0.0
1001
ACAD
1000
RTLwPs
1070
   128
  0
ENDBLK
  5
BCD
100
AcDbEntity
  8
0
100
AcDbBlockEnd
1001
ACAD
1000
RTLwPs
1070
   128
  0
BLOCK
  5
BD9
100
AcDbEntity
  8
0
100
AcDbBlockBegin
  2
*D4
 70
     1
 10
0.0
 20
0.0
 30
0.0
  3
*D4
  1

1001
ACAD
1000
RTLwPs
1070
   128
  0
LINE
  5
C2F
100
AcDbEntity
  8
COTATION1
 62
     0
100
AcDbLine
 10
51.287936
 20
105.410315
 30
0.0
 11
7.52182
 21
105.410315
 31
0.0
1001
ACAD
1000
RTLwPs
1070
   158
  0
LINE
  5
C30
100
AcDbEntity
  8
COTATION1
 62
     0
100
AcDbLine
 10
18.02182
 20
135.436396
 30
0.0
 11
7.52182
 21
135.436396
 31
0.0
1001
ACAD
1000
RTLwPs
1070
   158
  0
LINE
  5
C31
100
AcDbEntity
  8
COTATION1
 62
     0
100
AcDbLine
 10
10.02182
 20
110.410315
 30
0.0
 11
10.02182
 21
117.173355
 31
0.0
1001
ACAD
1000
RTLwPs
1070
   158
  0
LINE
  5
C32
100
AcDbEntity
  8
COTATION1
 62
     0
100
AcDbLine
 10
10.02182
 20
130.436396
 30
0.0
 11
10.02182
 21
123.673355
 31
0.0
1001
ACAD
1000
RTLwPs
1070
   158
  0
INSERT
  5
C33
100
AcDbEntity
  8
COTATION1
 62
     0
100
AcDbBlockReference
  2
_OPEN30
 10
10.02182
 20
105.410315
 30
0.0
 41
5.0
 42
5.0
 43
5.0
 50
270.0
1001
ACAD
1000
RTLwPs
1070
   158
  0
INSERT
  5
C34
100
AcDbEntity
  8
COTATION1
 62
     0
100
AcDbBlockReference
  2
_OPEN30
 10
10.02182
 20
135.436396
 30
0.0
 41
5.0
 42
5.0
 43
5.0
 50
90.0
1001
ACAD
1000
RTLwPs
1070
   158
  0
MTEXT
  5
C35
100
AcDbEntity
  8
COTATION1
 62
     0
100
AcDbMText
 10
10.02182
 20
120.423355
 30
0.0
 40
2.5
 41
0.0
 71
     5
 72
     1
  1
\A1;30
  7
ROMANS
1001
ACAD
1000
MTEXTBEGIN
1070
    73
1070
     1
1070
    44
1040
1.0
1070
    74
1070
     0
1000
MTEXTEND
  0
POINT
  5
C36
100
AcDbEntity
  8
DEFPOINTS
 62
     0
100
AcDbPoint
 10
53.287936
 20
105.410315
 30
0.0
1001
ACAD
1000
RTLwPs
1070
   128
  0
POINT
  5
C37
100
AcDbEntity
  8
DEFPOINTS
 62
     0
100
AcDbPoint
 10
20.02182
 20
135.436396
 30
0.0
1001
ACAD
1000
RTLwPs
1070
   128
  0
POINT
  5
C38
100
AcDbEntity
  8
DEFPOINTS
 62
     0
100
AcDbPoint
 10
10.02182
 20
135.436396
 30
0.0
1001
ACAD
1000
RTLwPs
1070
   128
  0
ENDBLK
  5
BDA
100
AcDbEntity
  8
0
100
AcDbBlockEnd
1001
ACAD
1000
RTLwPs
1070
   128
  0
ENDSEC
  0
SECTION
  2
ENTITIES
  0
SPLINE
  5
B43
100
AcDbEntity
  8
ALPHA
100
AcDbSpline
210
0.0
220
0.0
230
1.0
 70
    11
 71
     3
 72
    23
 73
    19
 74
     0
 42
0.0000001
 43
0.0000001
 40
0.0
 40
0.0
 40
0.0
 40
0.0
 40
1.0
 40
1.0
 40
1.0
 40
2.0
 40
2.0
 40
2.0
 40
3.0
 40
3.0
 40
3.0
 40
4.0
 40
4.0
 40
4.0
 40
5.0
 40
5.0
 40
5.0
 40
6.0
 40
6.0
 40
6.0
 40
6.0
 10
35.94154743686721
 20
83.08938146916768
 30
0.0
 10
35.94154743686721
 20
76.30079583684341
 30
0.0
 10
48.94875349155478
 20
70.80063156072032
 30
0.0
 10
64.99327415195506
 20
70.80063156072032
 30
0.0
 10
81.03779481235562
 20
70.80063156072032
 30
0.0
 10
94.04500086704308
 20
76.30079583684341
 30
0.0
 10
94.04500086704308
 20
83.08938146916768
 30
0.0
 10
94.04500086704308
 20
83.08938146916768
 30
0.0
 10
94.04500086704308
 20
153.044536818899
 30
0.0
 10
94.04500086704308
 20
153.044536818899
 30
0.0
 10
94.04500086704308
 20
159.8331224512233
 30
0.0
 10
81.03779481235562
 20
165.3347866357937
 30
0.0
 10
64.99327415195506
 20
165.3347866357937
 30
0.0
 10
48.94875349155478
 20
165.3347866357937
 30
0.0
 10
35.94154743686721
 20
159.8331224512233
 30
0.0
 10
35.94154743686721
 20
153.044536818899
 30
0.0
 10
35.94154743686721
 20
153.044536818899
 30
0.0
 10
35.94154743686721
 20
83.08938146916768
 30
0.0
 10
35.94154743686721
 20
83.08938146916768
 30
0.0
  0
SPLINE
  5
B44
100
AcDbEntity
  8
ALPHA
100
AcDbSpline
210
0.0
220
0.0
230
1.0
 70
    11
 71
     3
 72
    23
 73
    19
 74
     0
 42
0.0000001
 43
0.0000001
 40
0.0
 40
0.0
 40
0.0
 40
0.0
 40
1.0
 40
1.0
 40
1.0
 40
2.0
 40
2.0
 40
2.0
 40
3.0
 40
3.0
 40
3.0
 40
4.0
 40
4.0
 40
4.0
 40
5.0
 40
5.0
 40
5.0
 40
6.0
 40
6.0
 40
6.0
 40
6.0
 10
85.10554652133993
 20
87.55910864201922
 30
0.0
 10
85.10554652133993
 20
84.51279458562266
 30
0.0
 10
76.31458311191607
 20
82.02744628850354
 30
0.0
 10
65.34425272861523
 20
81.9734495844021
 30
0.0
 10
54.37392234531455
 20
81.92095278874768
 30
0.0
 10
45.27697761264858
 20
84.32080630437264
 30
0.0
 10
44.89300105014854
 20
87.36412054387466
 30
0.0
 10
44.89300105014854
 20
87.36412054387466
 30
0.0
 10
44.87950187412304
 20
149.6914914850366
 30
0.0
 10
44.87950187412304
 20
149.6914914850366
 30
0.0
 10
44.87950187412304
 20
152.1618406976831
 30
0.0
 10
53.88495219150593
 20
154.9981675714627
 30
0.0
 10
64.99327415195506
 20
154.9981675714627
 30
0.0
 10
76.10159611240437
 20
154.9981675714627
 30
0.0
 10
85.10554652133993
 20
152.1618406976831
 30
0.0
 10
85.10554652133993
 20
149.6914914850366
 30
0.0
 10
85.10554652133993
 20
149.6914914850366
 30
0.0
 10
85.10554652133993
 20
87.55910864201922
 30
0.0
 10
85.10554652133993
 20
87.55910864201922
 30
0.0
  0
SPLINE
  5
B45
100
AcDbEntity
  8
ALPHA
100
AcDbSpline
210
0.0
220
0.0
230
-1.0
 70
     8
 71
     3
 72
     8
 73
     4
 74
     0
 42
0.0000001
 43
0.0000001
 40
0.0
 40
0.0
 40
0.0
 40
0.0
 40
1.0
 40
1.0
 40
1.0
 40
1.0
 10
40.41127460971887
 20
35.04581399480235
 30
0.0
 10
35.47507590976767
 20
35.04581399480235
 30
0.0
 10
30.02182026401561
 20
39.54853915349378
 30
0.0
 10
30.02182026401561
 20
45.10120022527104
 30
0.0
  0
SPLINE
  5
B46
100
AcDbEntity
  8
ALPHA
100
AcDbSpline
210
-1.0
220
0.0
230
0.0
 70
    24
 71
     3
 72
     8
 73
     4
 74
     0
 42
0.0000001
 43
0.0000001
 40
1.0
 40
1.0
 40
1.0
 40
1.0
 40
2.0
 40
2.0
 40
2.0
 40
2.0
 10
30.02182026401561
 20
45.10120022527104
 30
0.0
 10
30.02182026401561
 20
45.10120022527104
 30
0.0
 10
30.02182026401561
 20
188.1790130304468
 30
0.0
 10
30.02182026401561
 20
188.1790130304468
 30
0.0
  0
SPLINE
  5
B47
100
AcDbEntity
  8
ALPHA
100
AcDbSpline
210
0.0
220
0.0
230
-1.0
 70
     8
 71
     3
 72
     8
 73
     4
 74
     0
 42
0.0000001
 43
0.0000001
 40
2.0
 40
2.0
 40
2.0
 40
2.0
 40
3.0
 40
3.0
 40
3.0
 40
3.0
 10
30.02182026401561
 20
188.1790130304468
 30
0.0
 10
30.07581696811723
 20
195.1288388208521
 30
0.0
 10
35.29058717075418
 20
198.2343992609156
 30
0.0
 10
40.41127460971887
 20
198.2343992609156
 30
0.0
  0
SPLINE
  5
B48
100
AcDbEntity
  8
ALPHA
100
AcDbSpline
210
0.0
220
1.0
230
0.0
 70
    24
 71
     3
 72
     8
 73
     4
 74
     0
 42
0.0000001
 43
0.0000001
 40
3.0
 40
3.0
 40
3.0
 40
3.0
 40
4.0
 40
4.0
 40
4.0
 40
4.0
 10
40.41127460971887
 20
198.2343992609156
 30
0.0
 10
40.41127460971887
 20
198.2343992609156
 30
0.0
 10
99.6321598331075
 20
198.2343992609156
 30
0.0
 10
99.6321598331075
 20
198.2343992609156
 30
0.0
  0
SPLINE
  5
B49
100
AcDbEntity
  8
ALPHA
100
AcDbSpline
210
0.0
220
1.0
230
0.0
 70
    24
 71
     3
 72
     8
 73
     4
 74
     0
 42
0.0000001
 43
0.0000001
 40
7.0
 40
7.0
 40
7.0
 40
7.0
 40
8.0
 40
8.0
 40
8.0
 40
8.0
 10
99.6321598331075
 20
35.04581399480235
 30
0.0
 10
99.6321598331075
 20
35.04581399480235
 30
0.0
 10
40.41127460971887
 20
35.04581399480235
 30
0.0
 10
40.41127460971887
 20
35.04581399480235
 30
0.0
  0
POLYLINE
  5
B4A
100
AcDbEntity
  8
ALPHA
100
AcDb2dPolyline
 66
     1
 10
0.0
 20
0.0
 30
0.0
  0
VERTEX
  5
B4B
100
AcDbEntity
  8
ALPHA
100
AcDbVertex
100
AcDb2dVertex
 10
68.344071
 20
225.051262
 30
0.0
  0
VERTEX
  5
B4C
100
AcDbEntity
  8
ALPHA
100
AcDbVertex
100
AcDb2dVertex
 10
72.813796
 20
225.051262
 30
0.0
  0
VERTEX
  5
B4D
100
AcDbEntity
  8
ALPHA
100
AcDbVertex
100
AcDb2dVertex
 10
72.813796
 20
198.234399
 30
0.0
  0
VERTEX
  5
B4E
100
AcDbEntity
  8
ALPHA
100
AcDbVertex
100
AcDb2dVertex
 10
68.344071
 20
198.234399
 30
0.0
  0
SEQEND
  5
B4F
100
AcDbEntity
  8
ALPHA
  0
POLYLINE
  5
B50
100
AcDbEntity
  8
ALPHA
100
AcDb2dPolyline
 66
     1
 10
0.0
 20
0.0
 30
0.0
  0
VERTEX
  5
B51
100
AcDbEntity
  8
ALPHA
100
AcDbVertex
100
AcDb2dVertex
 10
89.716264
 20
220.581536
 30
0.0
  0
VERTEX
  5
B52
100
AcDbEntity
  8
ALPHA
100
AcDbVertex
100
AcDb2dVertex
 10
83.011676
 20
220.581536
 30
0.0
  0
VERTEX
  5
B53
100
AcDbEntity
  8
ALPHA
100
AcDbVertex
100
AcDb2dVertex
 10
83.011676
 20
198.234399
 30
0.0
  0
SEQEND
  5
B54
100
AcDbEntity
  8
ALPHA
  0
SPLINE
  5
B55
100
AcDbEntity
  8
ALPHA
100
AcDbSpline
210
0.0
220
1.0
230
0.0
 70
    24
 71
     3
 72
     8
 73
     4
 74
     0
 42
0.0000001
 43
0.0000001
 40
0.4999883674373681
 40
0.4999883674373681
 40
0.4999883674373681
 40
0.4999883674373681
 40
1.0
 40
1.0
 40
1.0
 40
1.0
 10
68.3440706133224
 20
349.0455445703639
 30
0.0
 10
72.73177987454204
 20
349.0455445703639
 30
0.0
 10
77.11959121874222
 20
349.0455445703639
 30
0.0
 10
77.11959121874222
 20
349.0455445703639
 30
0.0
  0
SPLINE
  5
B56
100
AcDbEntity
  8
ALPHA
100
AcDbSpline
210
0.0
220
0.0
230
1.0
 70
     8
 71
     3
 72
     8
 73
     4
 74
     0
 42
0.0000001
 43
0.0000001
 40
1.0
 40
1.0
 40
1.0
 40
1.0
 40
2.0
 40
2.0
 40
2.0
 40
2.0
 10
77.11959121874222
 20
349.0455445703639
 30
0.0
 10
78.82048739794143
 20
349.0455445703639
 30
0.0
 10
80.48238595751175
 20
347.3761464685574
 30
0.0
 10
80.48238595751175
 20
346.524948424734
 30
0.0
  0
SPLINE
  5
B57
100
AcDbEntity
  8
ALPHA
100
AcDbSpline
210
-1.0
220
0.0
230
0.0
 70
    24
 71
     3
 72
     8
 73
     4
 74
     0
 42
0.0000001
 43
0.0000001
 40
2.0
 40
2.0
 40
2.0
 40
2.0
 40
3.0
 40
3.0
 40
3.0
 40
3.0
 10
80.48238595751175
 20
346.524948424734
 30
0.0
 10
80.48238595751175
 20
346.524948424734
 30
0.0
 10
80.48238595751175
 20
345.8282409509791
 30
0.0
 10
80.48238595751175
 20
345.8282409509791
 30
0.0
  0
SPLINE
  5
B58
100
AcDbEntity
  8
ALPHA
100
AcDbSpline
210
0.0
220
0.0
230
1.0
 70
     8
 71
     3
 72
     8
 73
     4
 74
     0
 42
0.0000001
 43
0.0000001
 40
3.0
 40
3.0
 40
3.0
 40
3.0
 40
4.0
 40
4.0
 40
4.0
 40
4.0
 10
80.48238595751175
 20
345.8282409509791
 30
0.0
 10
80.48238595751175
 20
344.9770429071559
 30
0.0
 10
78.82048739794143
 20
344.0066021417749
 30
0.0
 10
77.11959121874222
 20
344.0066021417749
 30
0.0
  0
SPLINE
  5
B59
100
AcDbEntity
  8
ALPHA
100
AcDbSpline
210
0.0
220
1.0
230
0.0
 70
    24
 71
     3
 72
     8
 73
     4
 74
     0
 42
0.0000001
 43
0.0000001
 40
4.0
 40
4.0
 40
4.0
 40
4.0
 40
4.50001163256263
 40
4.50001163256263
 40
4.50001163256263
 40
4.50001163256263
 10
77.11959121874222
 20
344.0066021417749
 30
0.0
 10
77.11959121874222
 20
344.0066021417749
 30
0.0
 10
72.73177987454207
 20
344.0066021417749
 30
0.0
 10
68.34407061332246
 20
344.0066021417749
 30
0.0
  0
SPLINE
  5
B5A
100
AcDbEntity
  8
ALPHA
100
AcDbSpline
210
0.0
220
0.0
230
1.0
 70
     8
 71
     3
 72
    17
 73
    13
 74
     0
 42
0.0000001
 43
0.0000001
 40
0.486302689267912
 40
0.486302689267912
 40
0.486302689267912
 40
0.486302689267912
 40
1.0
 40
1.0
 40
1.0
 40
2.0
 40
2.0
 40
2.0
 40
3.0
 40
3.0
 40
3.0
 40
3.513697310732088
 40
3.513697310732088
 40
3.513697310732088
 40
3.513697310732088
 10
68.34407061332237
 20
330.7361621545924
 30
0.0
 10
73.22998739456792
 20
330.7361621545924
 30
0.0
 10
78.253522004875
 20
330.7361621545924
 30
0.0
 10
78.253522004875
 20
330.7361621545924
 30
0.0
 10
80.14640646532436
 20
330.7361621545924
 30
0.0
 10
81.67931289842973
 20
329.5857323755396
 30
0.0
 10
81.67931289842973
 20
328.1668189844265
 30
0.0
 10
81.67931289842973
 20
326.7486555475366
 30
0.0
 10
80.14640646532436
 20
325.5952259515895
 30
0.0
 10
78.253522004875
 20
325.5952259515895
 30
0.0
 10
78.253522004875
 20
325.5952259515895
 30
0.0
 10
73.22998739456792
 20
325.5952259515895
 30
0.0
 10
68.34407061332237
 20
325.5952259515895
 30
0.0
  0
SPLINE
  5
B5B
100
AcDbEntity
  8
ALPHA
100
AcDbSpline
210
0.0
220
0.0
230
-1.0
 70
     8
 71
     3
 72
    17
 73
    13
 74
     0
 42
0.0000001
 43
0.0000001
 40
0.4877451382447836
 40
0.4877451382447836
 40
0.4877451382447836
 40
0.4877451382447836
 40
1.0
 40
1.0
 40
1.0
 40
2.0
 40
2.0
 40
2.0
 40
3.0
 40
3.0
 40
3.0
 40
3.512254861755216
 40
3.512254861755216
 40
3.512254861755216
 40
3.512254861755216
 10
68.3440706133224
 20
312.267039489187
 30
0.0
 10
73.42470784148514
 20
312.267039489187
 30
0.0
 10
78.63299884203318
 20
312.267039489187
 30
0.0
 10
78.63299884203318
 20
312.267039489187
 30
0.0
 10
80.7328706682051
 20
312.267039489187
 30
0.0
 10
82.43826657274608
 20
310.4056531061305
 30
0.0
 10
82.43826657274608
 20
309.1442301019799
 30
0.0
 10
82.43826657274608
 20
307.8835570520532
 30
0.0
 10
80.7328706682051
 20
306.8606194910182
 30
0.0
 10
78.63299884203318
 20
306.8606194910182
 30
0.0
 10
78.63299884203318
 20
306.8606194910182
 30
0.0
 10
73.42470784148511
 20
306.8606194910182
 30
0.0
 10
68.34407061332237
 20
306.8606194910182
 30
0.0
  0
SPLINE
  5
B5C
100
AcDbEntity
  8
ALPHA
100
AcDbSpline
210
0.0
220
0.0
230
1.0
 70
     8
 71
     3
 72
    17
 73
    13
 74
     0
 42
0.0000001
 43
0.0000001
 40
0.4873561973750367
 40
0.4873561973750367
 40
0.4873561973750367
 40
0.4873561973750367
 40
1.0
 40
1.0
 40
1.0
 40
2.0
 40
2.0
 40
2.0
 40
3.0
 40
3.0
 40
3.0
 40
3.512643802624963
 40
3.512643802624963
 40
3.512643802624963
 40
3.512643802624963
 10
68.34407061332237
 20
293.5121842645776
 30
0.0
 10
74.28516454297414
 20
293.5121842645776
 30
0.0
 10
80.38039218309776
 20
293.5121842645776
 30
0.0
 10
80.38039218309776
 20
293.5121842645776
 30
0.0
 10
83.33371191576375
 20
293.5121842645776
 30
0.0
 10
85.73356543138865
 20
292.0730221094263
 30
0.0
 10
85.73356543138865
 20
290.2986304163111
 30
0.0
 10
85.73356543138865
 20
288.5294884027612
 30
0.0
 10
83.33371191576375
 20
287.0873264307153
 30
0.0
 10
80.38039218309776
 20
287.0873264307153
 30
0.0
 10
80.38039218309776
 20
287.0873264307153
 30
0.0
 10
74.28516454297414
 20
287.0873264307153
 30
0.0
 10
68.34407061332237
 20
287.0873264307153
 30
0.0
  0
SPLINE
  5
B5D
100
AcDbEntity
  8
ALPHA
100
AcDbSpline
210
0.0
220
0.0
230
-1.0
 70
     8
 71
     3
 72
    32
 73
    28
 74
     0
 42
0.0000001
 43
0.0000001
 40
8.467681114078978
 40
8.467681114078978
 40
8.467681114078978
 40
8.467681114078978
 40
9.0
 40
9.0
 40
9.0
 40
10.0
 40
10.0
 40
10.0
 40
11.0
 40
11.0
 40
11.0
 40
12.0
 40
12.0
 40
12.0
 40
13.0
 40
13.0
 40
13.0
 40
14.0
 40
14.0
 40
14.0
 40
15.0
 40
15.0
 40
15.0
 40
16.0
 40
16.0
 40
16.0
 40
17.0
 40
17.0
 40
17.0
 40
17.0
 10
68.3440706133224
 20
225.0512623895776
 30
0.0
 10
77.52501781682304
 20
225.0512623895776
 30
0.0
 10
87.34041010776577
 20
225.0512623895776
 30
0.0
 10
87.34041010776577
 20
225.0512623895776
 30
0.0
 10
88.57333485141806
 20
225.0512623895776
 30
0.0
 10
89.57527369419153
 20
224.0508234552515
 30
0.0
 10
89.57527369419153
 20
222.816398803152
 30
0.0
 10
89.57527369419153
 20
222.816398803152
 30
0.0
 10
89.57527369419153
 20
220.5815352167261
 30
0.0
 10
89.57527369419153
 20
220.5815352167261
 30
0.0
 10
89.57527369419153
 20
220.5815352167261
 30
0.0
 10
100.748091717873
 20
220.5815352167261
 30
0.0
 10
100.748091717873
 20
220.5815352167261
 30
0.0
 10
101.9825163699727
 20
220.5815352167261
 30
0.0
 10
102.9139595157246
 20
219.5818462366235
 30
0.0
 10
102.9139595157246
 20
218.3466716303005
 30
0.0
 10
102.9139595157246
 20
218.3466716303005
 30
0.0
 10
102.9139595157246
 20
213.0384956354275
 30
0.0
 10
102.9139595157246
 20
213.0384956354275
 30
0.0
 10
101.0645724002462
 20
213.0384956354275
 30
0.0
 10
99.6321598331075
 20
211.0586164850368
 30
0.0
 10
99.6321598331075
 20
209.8256917413843
 30
0.0
 10
99.6321598331075
 20
208.5920170435084
 30
0.0
 10
101.1335681888203
 20
206.4741463159693
 30
0.0
 10
102.9829553042989
 20
206.4741463159693
 30
0.0
 10
102.9829553042989
 20
206.4741463159693
 30
0.0
 10
102.9829553042989
 20
197.6764333185328
 30
0.0
 10
102.9829553042989
 20
197.6764333185328
 30
0.0
  0
POLYLINE
  5
B5E
100
AcDbEntity
  8
ALPHA
100
AcDb2dPolyline
 66
     1
 10
0.0
 20
0.0
 30
0.0
  0
VERTEX
  5
B5F
100
AcDbEntity
  8
ALPHA
100
AcDbVertex
100
AcDb2dVertex
 10
78.078628
 20
330.736162
 30
0.0
  0
VERTEX
  5
B60
100
AcDbEntity
  8
ALPHA
100
AcDbVertex
100
AcDb2dVertex
 10
77.660657
 20
344.038413
 30
0.0
  0
SEQEND
  5
B61
100
AcDbEntity
  8
ALPHA
  0
POLYLINE
  5
B62
100
AcDbEntity
  8
ALPHA
100
AcDb2dPolyline
 66
     1
 10
0.0
 20
0.0
 30
0.0
  0
VERTEX
  5
B63
100
AcDbEntity
  8
ALPHA
100
AcDbVertex
100
AcDb2dVertex
 10
79.343185
 20
312.19626
 30
0.0
  0
VERTEX
  5
B64
100
AcDbEntity
  8
ALPHA
100
AcDbVertex
100
AcDb2dVertex
 10
79.342456
 20
312.224291
 30
0.0
  0
VERTEX
  5
B65
100
AcDbEntity
  8
ALPHA
100
AcDbVertex
100
AcDb2dVertex
 10
78.362669
 20
325.596508
 30
0.0
  0
SEQEND
  5
B66
100
AcDbEntity
  8
ALPHA
  0
POLYLINE
  5
B67
100
AcDbEntity
  8
ALPHA
100
AcDb2dPolyline
 66
     1
 10
0.0
 20
0.0
 30
0.0
  0
VERTEX
  5
B68
100
AcDbEntity
  8
ALPHA
100
AcDbVertex
100
AcDb2dVertex
 10
80.882935
 20
293.498179
 30
0.0
  0
VERTEX
  5
B69
100
AcDbEntity
  8
ALPHA
100
AcDbVertex
100
AcDb2dVertex
 10
80.876862
 20
293.647175
 30
0.0
  0
VERTEX
  5
B6A
100
AcDbEntity
  8
ALPHA
100
AcDbVertex
100
AcDb2dVertex
 10
79.480449
 20
306.916116
 30
0.0
  0
VERTEX
  5
B6B
100
AcDbEntity
  8
ALPHA
100
AcDbVertex
100
AcDb2dVertex
 10
79.480411
 20
306.91755
 30
0.0
  0
SEQEND
  5
B6C
100
AcDbEntity
  8
ALPHA
  0
POLYLINE
  5
B6D
100
AcDbEntity
  8
ALPHA
100
AcDb2dPolyline
 66
     1
 10
0.0
 20
0.0
 30
0.0
  0
VERTEX
  5
B6E
100
AcDbEntity
  8
ALPHA
100
AcDbVertex
100
AcDb2dVertex
 10
87.907942
 20
224.978455
 30
0.0
  0
VERTEX
  5
B6F
100
AcDbEntity
  8
ALPHA
100
AcDbVertex
100
AcDb2dVertex
 10
82.552259
 20
266.830313
 30
0.0
  0
VERTEX
  5
B70
100
AcDbEntity
  8
ALPHA
100
AcDbVertex
100
AcDb2dVertex
 10
81.142935
 20
287.119811
 30
0.0
  0
SEQEND
  5
B71
100
AcDbEntity
  8
ALPHA
  0
DIMENSION
  5
B72
100
AcDbEntity
  8
COTATION1
100
AcDbDimension
  2
*D1
 10
145.023681
 20
349.045545
 30
0.0
 11
145.023681
 21
192.045679
 31
0.0
 70
    32
  3
SC_DEFAUT
100
AcDbAlignedDimension
 13
99.63216
 23
35.045814
 33
0.0
 14
77.119591
 24
349.045545
 34
0.0
 50
90.0
100
AcDbRotatedDimension
  0
SPLINE
  5
B73
100
AcDbEntity
  8
ALPHA
100
AcDbSpline
210
0.0
220
0.0
230
-1.0
 70
     8
 71
     3
 72
     8
 73
     4
 74
     0
 42
0.0000001
 43
0.0000001
 40
0.0
 40
0.0
 40
0.0
 40
0.0
 40
1.0
 40
1.0
 40
1.0
 40
1.0
 10
99.63422650507727
 20
35.04581399480235
 30
0.0
 10
104.5704252050284
 20
35.04581399480235
 30
0.0
 10
110.0236808507804
 20
39.54853915349378
 30
0.0
 10
110.0236808507804
 20
45.10120022527104
 30
0.0
  0
SPLINE
  5
B74
100
AcDbEntity
  8
ALPHA
100
AcDbSpline
210
-1.0
220
0.0
230
0.0
 70
    24
 71
     3
 72
     8
 73
     4
 74
     0
 42
0.0000001
 43
0.0000001
 40
1.0
 40
1.0
 40
1.0
 40
1.0
 40
2.0
 40
2.0
 40
2.0
 40
2.0
 10
110.0236808507804
 20
45.10120022527104
 30
0.0
 10
110.0236808507804
 20
45.10120022527104
 30
0.0
 10
110.0236808507804
 20
188.1790130304468
 30
0.0
 10
110.0236808507804
 20
188.1790130304468
 30
0.0
  0
SPLINE
  5
B75
100
AcDbEntity
  8
ALPHA
100
AcDbSpline
210
0.0
220
0.0
230
-1.0
 70
     8
 71
     3
 72
     8
 73
     4
 74
     0
 42
0.0000001
 43
0.0000001
 40
2.0
 40
2.0
 40
2.0
 40
2.0
 40
3.0
 40
3.0
 40
3.0
 40
3.0
 10
110.0236808507804
 20
188.1790130304468
 30
0.0
 10
109.9696841466788
 20
195.1288388208521
 30
0.0
 10
104.7549139440419
 20
198.2343992609156
 30
0.0
 10
99.63422650507727
 20
198.2343992609156
 30
0.0
  0
DIMENSION
  5
B76
100
AcDbEntity
  8
COTATION1
100
AcDbDimension
  2
*D2
 10
30.02182
 20
10.045814
 30
0.0
 11
70.022751
 21
13.295814
 31
0.0
 70
    32
  3
SC_DEFAUT
100
AcDbAlignedDimension
 13
110.023681
 23
45.1012
 33
0.0
 14
30.02182
 24
45.1012
 34
0.0
100
AcDbRotatedDimension
  0
DIMENSION
  5
B77
100
AcDbEntity
  8
COTATION1
100
AcDbDimension
  2
*D3
 10
135.023681
 20
225.051262
 30
0.0
 11
135.023681
 21
130.048538
 31
0.0
 70
    32
  3
SC_DEFAUT
100
AcDbAlignedDimension
 13
99.634227
 23
35.045814
 33
0.0
 14
87.342335
 24
225.051262
 34
0.0
 50
90.0
100
AcDbRotatedDimension
  0
DIMENSION
  5
B78
100
AcDbEntity
  8
COTATION1
100
AcDbDimension
  2
*D4
 10
10.02182
 20
135.436396
 30
0.0
 11
10.02182
 21
120.423355
 31
0.0
 70
    32
  3
SC_DEFAUT
100
AcDbAlignedDimension
 13
53.287936
 23
105.410315
 33
0.0
 14
20.02182
 24
135.436396
 34
0.0
 50
90.0
100
AcDbRotatedDimension
  0
CIRCLE
  5
B79
100
AcDbEntity
  8
ALPHA
100
AcDbCircle
 10
68.344071
 20
105.410315
 30
0.0
 40
12.5
  0
CIRCLE
  5
B7A
100
AcDbEntity
  8
ALPHA
100
AcDbCircle
 10
68.344071
 20
135.436396
 30
0.0
 40
12.5
  0
LINE
  5
B7B
100
AcDbEntity
  8
AXE
100
AcDbLine
 10
68.344071
 20
20.045814
 30
0.0
 11
68.344071
 21
359.045545
 31
0.0
  0
TEXT
  5
B7C
100
AcDbEntity
  8
AXE
100
AcDbText
 10
60.86788
 20
20.045814
 30
0.0
 40
8.0
  1
Y
  7
ROMANS
 72
     2
 11
67.344071
 21
20.045814
 31
0.0
100
AcDbText
  0
LINE
  5
B7D
100
AcDbEntity
  8
AXE
100
AcDbLine
 10
20.02182
 20
135.436396
 30
0.0
 11
125.023681
 21
135.436396
 31
0.0
  0
TEXT
  5
B7E
100
AcDbEntity
  8
AXE
100
AcDbText
 10
118.54749
 20
136.436396
 30
0.0
 40
8.0
  1
X
  7
ROMANS
 72
     2
 11
125.023681
 21
136.436396
 31
0.0
100
AcDbText
  0
POLYLINE
  5
B7F
100
AcDbEntity
  8
ALPHA
100
AcDb2dPolyline
 66
     1
 10
0.0
 20
0.0
 30
0.0
  0
VERTEX
  5
B80
100
AcDbEntity
  8
ALPHA
100
AcDbVertex
100
AcDb2dVertex
 10
68.344071
 20
225.051262
 30
0.0
  0
VERTEX
  5
B81
100
AcDbEntity
  8
ALPHA
100
AcDbVertex
100
AcDb2dVertex
 10
63.874345
 20
225.051262
 30
0.0
  0
VERTEX
  5
B82
100
AcDbEntity
  8
ALPHA
100
AcDbVertex
100
AcDb2dVertex
 10
63.874345
 20
198.234399
 30
0.0
  0
VERTEX
  5
B83
100
AcDbEntity
  8
ALPHA
100
AcDbVertex
100
AcDb2dVertex
 10
68.344071
 20
198.234399
 30
0.0
  0
SEQEND
  5
B84
100
AcDbEntity
  8
ALPHA
  0
POLYLINE
  5
B85
100
AcDbEntity
  8
ALPHA
100
AcDb2dPolyline
 66
     1
 10
0.0
 20
0.0
 30
0.0
  0
VERTEX
  5
B86
100
AcDbEntity
  8
ALPHA
100
AcDbVertex
100
AcDb2dVertex
 10
46.971878
 20
220.581536
 30
0.0
  0
VERTEX
  5
B87
100
AcDbEntity
  8
ALPHA
100
AcDbVertex
100
AcDb2dVertex
 10
53.676465
 20
220.581536
 30
0.0
  0
VERTEX
  5
B88
100
AcDbEntity
  8
ALPHA
100
AcDbVertex
100
AcDb2dVertex
 10
53.676465
 20
198.234399
 30
0.0
  0
SEQEND
  5
B89
100
AcDbEntity
  8
ALPHA
  0
SPLINE
  5
B8A
100
AcDbEntity
  8
ALPHA
100
AcDbSpline
210
0.0
220
1.0
230
0.0
 70
    24
 71
     3
 72
     8
 73
     4
 74
     0
 42
0.0000001
 43
0.0000001
 40
0.4999883674373681
 40
0.4999883674373681
 40
0.4999883674373681
 40
0.4999883674373681
 40
1.0
 40
1.0
 40
1.0
 40
1.0
 10
68.34407061332234
 20
349.0455445703639
 30
0.0
 10
63.95636135210271
 20
349.0455445703639
 30
0.0
 10
59.56855000790253
 20
349.0455445703639
 30
0.0
 10
59.56855000790253
 20
349.0455445703639
 30
0.0
  0
SPLINE
  5
B8B
100
AcDbEntity
  8
ALPHA
100
AcDbSpline
210
0.0
220
0.0
230
1.0
 70
     8
 71
     3
 72
     8
 73
     4
 74
     0
 42
0.0000001
 43
0.0000001
 40
1.0
 40
1.0
 40
1.0
 40
1.0
 40
2.0
 40
2.0
 40
2.0
 40
2.0
 10
59.56855000790253
 20
349.0455445703639
 30
0.0
 10
57.86765382870331
 20
349.0455445703639
 30
0.0
 10
56.20575526913299
 20
347.3761464685574
 30
0.0
 10
56.20575526913299
 20
346.524948424734
 30
0.0
  0
SPLINE
  5
B8C
100
AcDbEntity
  8
ALPHA
100
AcDbSpline
210
-1.0
220
0.0
230
0.0
 70
    24
 71
     3
 72
     8
 73
     4
 74
     0
 42
0.0000001
 43
0.0000001
 40
2.0
 40
2.0
 40
2.0
 40
2.0
 40
3.0
 40
3.0
 40
3.0
 40
3.0
 10
56.20575526913299
 20
346.524948424734
 30
0.0
 10
56.20575526913299
 20
346.524948424734
 30
0.0
 10
56.20575526913299
 20
345.8282409509791
 30
0.0
 10
56.20575526913299
 20
345.8282409509791
 30
0.0
  0
SPLINE
  5
B8D
100
AcDbEntity
  8
ALPHA
100
AcDbSpline
210
0.0
220
0.0
230
1.0
 70
     8
 71
     3
 72
     8
 73
     4
 74
     0
 42
0.0000001
 43
0.0000001
 40
3.0
 40
3.0
 40
3.0
 40
3.0
 40
4.0
 40
4.0
 40
4.0
 40
4.0
 10
56.20575526913299
 20
345.8282409509791
 30
0.0
 10
56.20575526913299
 20
344.9770429071559
 30
0.0
 10
57.86765382870331
 20
344.0066021417749
 30
0.0
 10
59.56855000790253
 20
344.0066021417749
 30
0.0
  0
SPLINE
  5
B8E
100
AcDbEntity
  8
ALPHA
100
AcDbSpline
210
0.0
220
1.0
230
0.0
 70
    24
 71
     3
 72
     8
 73
     4
 74
     0
 42
0.0000001
 43
0.0000001
 40
4.0
 40
4.0
 40
4.0
 40
4.0
 40
4.50001163256263
 40
4.50001163256263
 40
4.50001163256263
 40
4.50001163256263
 10
59.56855000790253
 20
344.0066021417749
 30
0.0
 10
59.56855000790253
 20
344.0066021417749
 30
0.0
 10
63.95636135210267
 20
344.0066021417749
 30
0.0
 10
68.34407061332228
 20
344.0066021417749
 30
0.0
  0
SPLINE
  5
B8F
100
AcDbEntity
  8
ALPHA
100
AcDbSpline
210
0.0
220
0.0
230
1.0
 70
     8
 71
     3
 72
    17
 73
    13
 74
     0
 42
0.0000001
 43
0.0000001
 40
0.486302689267912
 40
0.486302689267912
 40
0.486302689267912
 40
0.486302689267912
 40
1.0
 40
1.0
 40
1.0
 40
2.0
 40
2.0
 40
2.0
 40
3.0
 40
3.0
 40
3.0
 40
3.513697310732088
 40
3.513697310732088
 40
3.513697310732088
 40
3.513697310732088
 10
68.34407061332237
 20
330.7361621545924
 30
0.0
 10
63.45815383207685
 20
330.7361621545924
 30
0.0
 10
58.43461922176974
 20
330.7361621545924
 30
0.0
 10
58.43461922176974
 20
330.7361621545924
 30
0.0
 10
56.54173476132038
 20
330.7361621545924
 30
0.0
 10
55.008828328215
 20
329.5857323755396
 30
0.0
 10
55.008828328215
 20
328.1668189844265
 30
0.0
 10
55.008828328215
 20
326.7486555475366
 30
0.0
 10
56.54173476132038
 20
325.5952259515895
 30
0.0
 10
58.43461922176974
 20
325.5952259515895
 30
0.0
 10
58.43461922176974
 20
325.5952259515895
 30
0.0
 10
63.45815383207685
 20
325.5952259515895
 30
0.0
 10
68.34407061332237
 20
325.5952259515895
 30
0.0
  0
SPLINE
  5
B90
100
AcDbEntity
  8
ALPHA
100
AcDbSpline
210
0.0
220
0.0
230
1.0
 70
     8
 71
     3
 72
    17
 73
    13
 74
     0
 42
0.0000001
 43
0.0000001
 40
0.4877451382447836
 40
0.4877451382447836
 40
0.4877451382447836
 40
0.4877451382447836
 40
1.0
 40
1.0
 40
1.0
 40
2.0
 40
2.0
 40
2.0
 40
3.0
 40
3.0
 40
3.0
 40
3.512254861755216
 40
3.512254861755216
 40
3.512254861755216
 40
3.512254861755216
 10
68.34407061332237
 20
312.267039489187
 30
0.0
 10
63.26343338515963
 20
312.267039489187
 30
0.0
 10
58.05514238461157
 20
312.267039489187
 30
0.0
 10
58.05514238461157
 20
312.267039489187
 30
0.0
 10
55.95527055843965
 20
312.267039489187
 30
0.0
 10
54.24987465389867
 20
310.4056531061305
 30
0.0
 10
54.24987465389867
 20
309.1442301019799
 30
0.0
 10
54.24987465389867
 20
307.8835570520532
 30
0.0
 10
55.95527055843965
 20
306.8606194910182
 30
0.0
 10
58.05514238461157
 20
306.8606194910182
 30
0.0
 10
58.05514238461157
 20
306.8606194910182
 30
0.0
 10
63.26343338515963
 20
306.8606194910182
 30
0.0
 10
68.34407061332237
 20
306.8606194910182
 30
0.0
  0
SPLINE
  5
B91
100
AcDbEntity
  8
ALPHA
100
AcDbSpline
210
0.0
220
0.0
230
1.0
 70
     8
 71
     3
 72
    17
 73
    13
 74
     0
 42
0.0000001
 43
0.0000001
 40
0.4873561973750367
 40
0.4873561973750367
 40
0.4873561973750367
 40
0.4873561973750367
 40
1.0
 40
1.0
 40
1.0
 40
2.0
 40
2.0
 40
2.0
 40
3.0
 40
3.0
 40
3.0
 40
3.512643802624963
 40
3.512643802624963
 40
3.512643802624963
 40
3.512643802624963
 10
68.34407061332237
 20
293.5121842645776
 30
0.0
 10
62.40297668367063
 20
293.5121842645776
 30
0.0
 10
56.30774904354698
 20
293.5121842645776
 30
0.0
 10
56.30774904354698
 20
293.5121842645776
 30
0.0
 10
53.35442931088099
 20
293.5121842645776
 30
0.0
 10
50.95457579525609
 20
292.0730221094263
 30
0.0
 10
50.95457579525609
 20
290.2986304163111
 30
0.0
 10
50.95457579525609
 20
288.5294884027612
 30
0.0
 10
53.35442931088099
 20
287.0873264307153
 30
0.0
 10
56.30774904354698
 20
287.0873264307153
 30
0.0
 10
56.30774904354698
 20
287.0873264307153
 30
0.0
 10
62.40297668367063
 20
287.0873264307153
 30
0.0
 10
68.34407061332237
 20
287.0873264307153
 30
0.0
  0
SPLINE
  5
B92
100
AcDbEntity
  8
ALPHA
100
AcDbSpline
210
0.0
220
0.0
230
-1.0
 70
     8
 71
     3
 72
    32
 73
    28
 74
     0
 42
0.0000001
 43
0.0000001
 40
8.467681114078978
 40
8.467681114078978
 40
8.467681114078978
 40
8.467681114078978
 40
9.0
 40
9.0
 40
9.0
 40
10.0
 40
10.0
 40
10.0
 40
11.0
 40
11.0
 40
11.0
 40
12.0
 40
12.0
 40
12.0
 40
13.0
 40
13.0
 40
13.0
 40
14.0
 40
14.0
 40
14.0
 40
15.0
 40
15.0
 40
15.0
 40
16.0
 40
16.0
 40
16.0
 40
17.0
 40
17.0
 40
17.0
 40
17.0
 10
68.34407061332237
 20
225.0512623895776
 30
0.0
 10
59.16312340982173
 20
225.0512623895776
 30
0.0
 10
49.34773111887898
 20
225.0512623895776
 30
0.0
 10
49.34773111887898
 20
225.0512623895776
 30
0.0
 10
48.11480637522669
 20
225.0512623895776
 30
0.0
 10
47.1128675324532
 20
224.0508234552515
 30
0.0
 10
47.1128675324532
 20
222.816398803152
 30
0.0
 10
47.1128675324532
 20
222.816398803152
 30
0.0
 10
47.1128675324532
 20
220.5815352167261
 30
0.0
 10
47.1128675324532
 20
220.5815352167261
 30
0.0
 10
47.1128675324532
 20
220.5815352167261
 30
0.0
 10
35.94004950877166
 20
220.5815352167261
 30
0.0
 10
35.94004950877166
 20
220.5815352167261
 30
0.0
 10
34.70562485667204
 20
220.5815352167261
 30
0.0
 10
33.77418171092012
 20
219.5818462366235
 30
0.0
 10
33.77418171092012
 20
218.3466716303005
 30
0.0
 10
33.77418171092012
 20
218.3466716303005
 30
0.0
 10
33.77418171092012
 20
213.0384956354275
 30
0.0
 10
33.77418171092012
 20
213.0384956354275
 30
0.0
 10
35.62356882639852
 20
213.0384956354275
 30
0.0
 10
37.05598139353725
 20
211.0586164850368
 30
0.0
 10
37.05598139353725
 20
209.8256917413843
 30
0.0
 10
37.05598139353725
 20
208.5920170435084
 30
0.0
 10
35.55457303782435
 20
206.4741463159693
 30
0.0
 10
33.70518592234583
 20
206.4741463159693
 30
0.0
 10
33.70518592234583
 20
206.4741463159693
 30
0.0
 10
33.70518592234631
 20
196.1230408465443
 30
0.0
 10
33.70518592234631
 20
196.1230408465443
 30
0.0
  0
POLYLINE
  5
B93
100
AcDbEntity
  8
ALPHA
100
AcDb2dPolyline
 66
     1
 10
0.0
 20
0.0
 30
0.0
  0
VERTEX
  5
B94
100
AcDbEntity
  8
ALPHA
100
AcDbVertex
100
AcDb2dVertex
 10
58.609513
 20
330.736162
 30
0.0
  0
VERTEX
  5
B95
100
AcDbEntity
  8
ALPHA
100
AcDbVertex
100
AcDb2dVertex
 10
59.027485
 20
344.038413
 30
0.0
  0
SEQEND
  5
B96
100
AcDbEntity
  8
ALPHA
  0
POLYLINE
  5
B97
100
AcDbEntity
  8
ALPHA
100
AcDb2dPolyline
 66
     1
 10
0.0
 20
0.0
 30
0.0
  0
VERTEX
  5
B98
100
AcDbEntity
  8
ALPHA
100
AcDbVertex
100
AcDb2dVertex
 10
57.344956
 20
312.19626
 30
0.0
  0
VERTEX
  5
B99
100
AcDbEntity
  8
ALPHA
100
AcDbVertex
100
AcDb2dVertex
 10
57.345685
 20
312.224291
 30
0.0
  0
VERTEX
  5
B9A
100
AcDbEntity
  8
ALPHA
100
AcDbVertex
100
AcDb2dVertex
 10
58.325472
 20
325.596508
 30
0.0
  0
SEQEND
  5
B9B
100
AcDbEntity
  8
ALPHA
  0
POLYLINE
  5
B9C
100
AcDbEntity
  8
ALPHA
100
AcDb2dPolyline
 66
     1
 10
0.0
 20
0.0
 30
0.0
  0
VERTEX
  5
B9D
100
AcDbEntity
  8
ALPHA
100
AcDbVertex
100
AcDb2dVertex
 10
55.805206
 20
293.498179
 30
0.0
  0
VERTEX
  5
B9E
100
AcDbEntity
  8
ALPHA
100
AcDbVertex
100
AcDb2dVertex
 10
55.81128
 20
293.647175
 30
0.0
  0
VERTEX
  5
B9F
100
AcDbEntity
  8
ALPHA
100
AcDbVertex
100
AcDb2dVertex
 10
57.207693
 20
306.916116
 30
0.0
  0
VERTEX
  5
BA0
100
AcDbEntity
  8
ALPHA
100
AcDbVertex
100
AcDb2dVertex
 10
57.20773
 20
306.91755
 30
0.0
  0
SEQEND
  5
BA1
100
AcDbEntity
  8
ALPHA
  0
POLYLINE
  5
BA2
100
AcDbEntity
  8
ALPHA
100
AcDb2dPolyline
 66
     1
 10
0.0
 20
0.0
 30
0.0
  0
VERTEX
  5
BA3
100
AcDbEntity
  8
ALPHA
100
AcDbVertex
100
AcDb2dVertex
 10
48.785267
 20
225.08051
 30
0.0
  0
VERTEX
  5
BA4
100
AcDbEntity
  8
ALPHA
100
AcDbVertex
100
AcDb2dVertex
 10
54.135883
 20
266.830313
 30
0.0
  0
VERTEX
  5
BA5
100
AcDbEntity
  8
ALPHA
100
AcDbVertex
100
AcDb2dVertex
 10
55.545206
 20
287.119811
 30
0.0
  0
SEQEND
  5
BA6
100
AcDbEntity
  8
ALPHA
  0
LINE
  5
BA7
100
AcDbEntity
  8
AXE
100
AcDbLine
 10
53.287936
 20
105.410315
 30
0.0
 11
83.400206
 21
105.410315
 31
0.0
  0
ENDSEC
  0
SECTION
  2
OBJECTS
  0
DICTIONARY
  5
19
102
{ACAD_XDICTIONARY
360
C74
102
}
100
AcDbDictionary
  3
ACAD_COLOR
350
BF
  3
ACAD_GROUP
350
1A
  3
ACAD_LAYOUT
350
1E
  3
ACAD_MATERIAL
350
BE
  3
ACAD_MLINESTYLE
350
1B
  3
ACAD_PLOTSETTINGS
350
22
  3
ACAD_PLOTSTYLENAME
350
1F
  3
ACAD_TABLESTYLE
350
C0
  3
ACAD_WIPEOUT_VARS
350
23
  3
ACDBHEADERROUNDTRIPXREC
350
C50
  3
ACDBVARIABLEDICTIONARY
350
1D2
  0
DICTIONARY
  5
C46
100
AcDbDictionary
  3
ACAD_XREC_ROUNDTRIP
360
C47
  0
DICTIONARY
  5
C48
100
AcDbDictionary
  3
ACAD_XREC_ROUNDTRIP
360
C49
  0
DICTIONARY
  5
C4A
100
AcDbDictionary
  3
ACAD_XREC_ROUNDTRIP
360
C4B
  0
DICTIONARY
  5
C7C
100
AcDbDictionary
  3
ACAD_XREC_ROUNDTRIP
360
C7D
  0
DICTIONARY
  5
C4C
100
AcDbDictionary
  3
ACAD_XREC_ROUNDTRIP
360
C4D
  0
DICTIONARY
  5
C44
100
AcDbDictionary
  3
ACAD_XREC_ROUNDTRIP
360
C45
  0
DICTIONARY
  5
C7E
100
AcDbDictionary
  3
ACAD_XREC_ROUNDTRIP
360
C7F
  0
DICTIONARY
  5
1B0
100
AcDbDictionary
  3
ACAD_LAYOUTSELFREF
360
C71
  3
ACAD_SORTENTS
360
1B1
  0
DICTIONARY
  5
C72
100
AcDbDictionary
  3
ACAD_LAYOUTSELFREF
360
C73
  0
DICTIONARY
  5
C74
100
AcDbDictionary
  3
ACAD_XREC_ROUNDTRIP
360
C75
  0
DICTIONARY
  5
BF
102
{ACAD_REACTORS
330
19
102
}
100
AcDbDictionary
  0
DICTIONARY
  5
1A
102
{ACAD_REACTORS
330
19
102
}
100
AcDbDictionary
  0
DICTIONARY
  5
1E
102
{ACAD_XDICTIONARY
360
C78
102
}
102
{ACAD_REACTORS
330
19
102
}
100
AcDbDictionary
  3
LAYOUT1
350
21
  3
MODEL
350
20
  0
DICTIONARY
  5
BE
102
{ACAD_REACTORS
330
19
102
}
100
AcDbDictionary
  0
DICTIONARY
  5
1B
102
{ACAD_XDICTIONARY
360
C76
102
}
102
{ACAD_REACTORS
330
19
102
}
100
AcDbDictionary
  3
STANDARD
350
1C
  0
DICTIONARY
  5
22
102
{ACAD_REACTORS
330
19
102
}
100
AcDbDictionary
  0
ACAD_ZOMBIE_OBJECT
  5
1F
102
{ACAD_REACTORS
330
19
102
}
100
AcDbZombieObject
 90
      499
 91
      517
 93
       86
310
405010041939BDC9B585B0
350
1D
340
1D
 94
        0
  0
DICTIONARY
  5
C0
102
{ACAD_XDICTIONARY
360
C7A
102
}
102
{ACAD_REACTORS
330
19
102
}
100
AcDbDictionary
  3
STANDARD
350
C1
  0
ACAD_ZOMBIE_OBJECT
  5
23
102
{ACAD_REACTORS
330
19
102
}
100
AcDbZombieObject
 90
      499
 91
      525
 93
       10
310
4044
 94
        0
1001
ACAD
1000
AcadProxyRoundTripData
1071
      521
1071
   851991
1070
     0
  0
DICTIONARY
  5
C50
102
{ACAD_REACTORS
330
19
102
}
100
AcDbDictionary
  3
CEPSNTYPE
350
C5A
  3
DIMSTYLEDATA
350
C5E
  3
FINGERPRINTGUID
350
C5B
  3
HYPERLINKBASE
350
C53
  3
INSUNITS
350
C59
  3
LAYOUTDICT
350
C55
  3
LWETCUNION
350
C58
  3
PLOTSETDICT
350
C56
  3
PLOTSTYLNAMDICT
350
C57
  3
PSVPSCALE
350
C5D
  3
PUCSBASE
350
C61
  3
PUCSORGBACK
350
C67
  3
PUCSORGBOTTOM
350
C63
  3
PUCSORGFRONT
350
C66
  3
PUCSORGLEFT
350
C64
  3
PUCSORGRIGHT
350
C65
  3
PUCSORGTOP
350
C62
  3
PUCSORTHOREF
350
C5F
  3
PUCSORTHOVIEW
350
C60
  3
STYLESHEET
350
C54
  3
TSTACKALIGN
350
C51
  3
TSTACKSIZE
350
C52
  3
UCSBASE
350
C6A
  3
UCSORGBACK
350
C70
  3
UCSORGBOTTOM
350
C6C
  3
UCSORGFRONT
350
C6F
  3
UCSORGLEFT
350
C6D
  3
UCSORGRIGHT
350
C6E
  3
UCSORGTOP
350
C6B
  3
UCSORTHOREF
350
C68
  3
UCSORTHOVIEW
350
C69
  3
VERSIONGUID
350
C5C
  0
DICTIONARY
  5
1D2
102
{ACAD_REACTORS
330
19
102
}
100
AcDbDictionary
  3
CTABLESTYLE
350
1D3
  3
DIMASSOC
350
1D4
  3
PROJECTNAME
350
1D5
  0
XRECORD
  5
C47
102
{ACAD_REACTORS
330
C46
102
}
100
AcDbXrecord
102
EXTNAMES
  1
BYBLOCK
  2
ByBlock
  0
XRECORD
  5
C49
102
{ACAD_REACTORS
330
C48
102
}
100
AcDbXrecord
102
EXTNAMES
  1
BYLAYER
  2
ByLayer
  0
XRECORD
  5
C4B
102
{ACAD_REACTORS
330
C4A
102
}
100
AcDbXrecord
102
EXTNAMES
  1
CONTINUOUS
  2
Continuous
  0
XRECORD
  5
C7D
102
{ACAD_REACTORS
330
C7C
102
}
100
AcDbXrecord
102
PLOTBIT
280
     0
  0
XRECORD
  5
C4D
102
{ACAD_REACTORS
330
C4C
102
}
100
AcDbXrecord
102
EXTNAMES
  1
STANDARD
  2
Standard
  0
XRECORD
  5
C45
102
{ACAD_REACTORS
330
C44
102
}
100
AcDbXrecord
102
EXTNAMES
  1
STANDARD
  2
Standard
  0
XRECORD
  5
C7F
102
{ACAD_REACTORS
330
C7E
102
}
100
AcDbXrecord
102
ACADR14ROUNDTRIP
1000
DSTYLE
1002
{
1070
   279
 70
     2
1070
   341
340
CF
1070
   342
340
CF
1002
}
  0
XRECORD
  5
C71
102
{ACAD_REACTORS
330
1B0
102
}
100
AcDbXrecord
340
A
  0
SORTENTSTABLE
  5
1B1
102
{ACAD_REACTORS
330
1B0
102
}
100
AcDbSortentsTable
330
A
  0
XRECORD
  5
C73
102
{ACAD_REACTORS
330
C72
102
}
100
AcDbXrecord
340
B
  0
XRECORD
  5
C75
102
{ACAD_REACTORS
330
C74
102
}
100
AcDbXrecord
102
EXTNAMES
  1
ACDBVARIABLEDICTIONARY
  2
AcDbVariableDictionary
  0
DICTIONARY
  5
C78
100
AcDbDictionary
  3
ACAD_XREC_ROUNDTRIP
360
C79
  0
ACAD_ZOMBIE_OBJECT
  5
21
102
{ACAD_XDICTIONARY
360
C3D
102
}
102
{ACAD_REACTORS
330
1E
102
}
100
AcDbZombieObject
 90
      499
 91
      515
 93
      812
310
AAAAAAAAAA5A69074C61796F757431406A800000000000000000000000000000000000000000000A1000000000000008902A6A6A10232D5E076BC5510408CB5781DAF154410232D5E076BC5510408CB5781DAF15C410232D5E076BC5710408CB5781DAF15C40
330
B
330
0
340
0
340
0
 94
        0
  0
ACAD_ZOMBIE_OBJECT
  5
20
102
{ACAD_XDICTIONARY
360
C3B
102
}
102
{ACAD_REACTORS
330
1E
102
}
100
AcDbZombieObject
 90
      499
 91
      515
 93
      420
310
A00012AAAAAAAA5A69054D6F64656CAA80000000000000000000000000000000000000000000000000000000000000002AAAAAAAAD
330
A
330
0
340
0
340
0
 94
        0
  0
DICTIONARY
  5
C76
100
AcDbDictionary
  3
ACAD_XREC_ROUNDTRIP
360
C77
  0
MLINESTYLE
  5
1C
102
{ACAD_REACTORS
330
1B
102
}
100
AcDbMlineStyle
  2
STANDARD
 70
     0
  3

 62
     0
 51
90.0
 52
90.0
 71
     2
 49
0.5
 62
   256
  6
BYLAYER
 49
-0.5
 62
   256
  6
BYLAYER
  0
ACAD_ZOMBIE_OBJECT
  5
1D
102
{ACAD_REACTORS
330
1F
102
}
100
AcDbZombieObject
 90
      499
 91
      518
 93
        0
 94
        0
  0
DICTIONARY
  5
C7A
100
AcDbDictionary
  3
ACAD_XREC_ROUNDTRIP
360
C7B
  0
ACAD_ZOMBIE_OBJECT
  5
C1
102
{ACAD_REACTORS
330
C0
102
}
100
AcDbZombieObject
 90
      499
 91
      525
 93
     1841
310
4214DD185B99185C9928000000000000F83F0000000000003E0FC00000000000004901028000000C1008070000C3001FDFF8000000C1003FBFF000000182007F7FE00000030400FEFFC00000060801FDFF8000000C1003FBFF000000182000000000000000C2020B0000001820100E000186003FBFF000000182007F7FE000
310
00030400FEFFC00000060801FDFF8000000C1003FBFF000000182007F7FE0000003040000000000000012404160000003040201C00030C007F7FE00000030400FEFFC00000060801FDFF8000000C1003FBFF000000182007F7FE00000030400FEFFC00000060807E
340
17
340
17
340
17
 94
        0
1001
ACAD
1000
AcadProxyRoundTripData
1071
      524
1071
   851991
1070
     0
  0
XRECORD
  5
C5A
102
{ACAD_REACTORS
330
C50
102
}
100
AcDbXrecord
 90
        0
  0
XRECORD
  5
C5E
102
{ACAD_REACTORS
330
C50
102
}
100
AcDbXrecord
1000
DSTYLE
1002
{
1070
   278
 70
     0
1070
   371
 70
     0
1070
   372
 70
     0
1002
}
  0
XRECORD
  5
C5B
102
{ACAD_REACTORS
330
C50
102
}
100
AcDbXrecord
  1

  0
XRECORD
  5
C53
102
{ACAD_REACTORS
330
C50
102
}
100
AcDbXrecord
  1

  0
XRECORD
  5
C59
102
{ACAD_REACTORS
330
C50
102
}
100
AcDbXrecord
 90
        0
  0
XRECORD
  5
C55
102
{ACAD_REACTORS
330
C50
102
}
100
AcDbXrecord
340
1E
  0
XRECORD
  5
C58
102
{ACAD_REACTORS
330
C50
102
}
100
AcDbXrecord
 90
    10752
  0
XRECORD
  5
C56
102
{ACAD_REACTORS
330
C50
102
}
100
AcDbXrecord
340
22
  0
XRECORD
  5
C57
102
{ACAD_REACTORS
330
C50
102
}
100
AcDbXrecord
340
1F
  0
XRECORD
  5
C5D
102
{ACAD_REACTORS
330
C50
102
}
100
AcDbXrecord
 40
0.0
  0
XRECORD
  5
C61
102
{ACAD_REACTORS
330
C50
102
}
100
AcDbXrecord
340
0
  0
XRECORD
  5
C67
102
{ACAD_REACTORS
330
C50
102
}
100
AcDbXrecord
 10
0.0
 20
0.0
 30
0.0
  0
XRECORD
  5
C63
102
{ACAD_REACTORS
330
C50
102
}
100
AcDbXrecord
 10
0.0
 20
0.0
 30
0.0
  0
XRECORD
  5
C66
102
{ACAD_REACTORS
330
C50
102
}
100
AcDbXrecord
 10
0.0
 20
0.0
 30
0.0
  0
XRECORD
  5
C64
102
{ACAD_REACTORS
330
C50
102
}
100
AcDbXrecord
 10
0.0
 20
0.0
 30
0.0
  0
XRECORD
  5
C65
102
{ACAD_REACTORS
330
C50
102
}
100
AcDbXrecord
 10
0.0
 20
0.0
 30
0.0
  0
XRECORD
  5
C62
102
{ACAD_REACTORS
330
C50
102
}
100
AcDbXrecord
 10
0.0
 20
0.0
 30
0.0
  0
XRECORD
  5
C5F
102
{ACAD_REACTORS
330
C50
102
}
100
AcDbXrecord
340
0
  0
XRECORD
  5
C60
102
{ACAD_REACTORS
330
C50
102
}
100
AcDbXrecord
 70
     0
  0
XRECORD
  5
C54
102
{ACAD_REACTORS
330
C50
102
}
100
AcDbXrecord
  1

  0
XRECORD
  5
C51
102
{ACAD_REACTORS
330
C50
102
}
100
AcDbXrecord
 90
        1
  0
XRECORD
  5
C52
102
{ACAD_REACTORS
330
C50
102
}
100
AcDbXrecord
 90
       70
  0
XRECORD
  5
C6A
102
{ACAD_REACTORS
330
C50
102
}
100
AcDbXrecord
340
0
  0
XRECORD
  5
C70
102
{ACAD_REACTORS
330
C50
102
}
100
AcDbXrecord
 10
0.0
 20
0.0
 30
0.0
  0
XRECORD
  5
C6C
102
{ACAD_REACTORS
330
C50
102
}
100
AcDbXrecord
 10
0.0
 20
0.0
 30
0.0
  0
XRECORD
  5
C6F
102
{ACAD_REACTORS
330
C50
102
}
100
AcDbXrecord
 10
0.0
 20
0.0
 30
0.0
  0
XRECORD
  5
C6D
102
{ACAD_REACTORS
330
C50
102
}
100
AcDbXrecord
 10
0.0
 20
0.0
 30
0.0
  0
XRECORD
  5
C6E
102
{ACAD_REACTORS
330
C50
102
}
100
AcDbXrecord
 10
0.0
 20
0.0
 30
0.0
  0
XRECORD
  5
C6B
102
{ACAD_REACTORS
330
C50
102
}
100
AcDbXrecord
 10
0.0
 20
0.0
 30
0.0
  0
XRECORD
  5
C68
102
{ACAD_REACTORS
330
C50
102
}
100
AcDbXrecord
340
0
  0
XRECORD
  5
C69
102
{ACAD_REACTORS
330
C50
102
}
100
AcDbXrecord
 70
     0
  0
XRECORD
  5
C5C
102
{ACAD_REACTORS
330
C50
102
}
100
AcDbXrecord
  1
{C3D77877-9A3E-45BB-94DC-A90B693C888C}
  0
DICTIONARYVAR
  5
1D3
102
{ACAD_REACTORS
330
1D2
102
}
100
DictionaryVariables
280
     0
  1
STANDARD
  0
DICTIONARYVAR
  5
1D4
102
{ACAD_REACTORS
330
1D2
102
}
100
DictionaryVariables
280
     0
  1
1
  0
DICTIONARYVAR
  5
1D5
102
{ACAD_REACTORS
330
1D2
102
}
100
DictionaryVariables
280
     0
  1

  0
XRECORD
  5
C79
102
{ACAD_REACTORS
330
C78
102
}
100
AcDbXrecord
102
EXTNAMES
  1
LAYOUT1
  2
Layout1
  1
MODEL
  2
Model
  0
DICTIONARY
  5
C3D
100
AcDbDictionary
  3
ACAD_XREC_ROUNDTRIP
360
C3E
  0
DICTIONARY
  5
C3B
100
AcDbDictionary
  3
ACAD_XREC_ROUNDTRIP
360
C3C
  0
XRECORD
  5
C77
102
{ACAD_REACTORS
330
C76
102
}
100
AcDbXrecord
102
EXTNAMES
  1
STANDARD
  2
Standard
  0
XRECORD
  5
C7B
102
{ACAD_REACTORS
330
C7A
102
}
100
AcDbXrecord
102
EXTNAMES
  1
STANDARD
  2
Standard
  0
XRECORD
  5
C3E
102
{ACAD_REACTORS
330
C3D
102
}
100
AcDbXrecord
102
SHADEPLOT
 70
     0
102
SHADEPLOTRESLEVEL
 70
     2
102
SHADEPLOTCUSTOMDPI
 70
   300
  0
XRECORD
  5
C3C
102
{ACAD_REACTORS
330
C3B
102
}
100
AcDbXrecord
102
SHADEPLOT
 70
     0
102
SHADEPLOTRESLEVEL
 70
     2
102
SHADEPLOTCUSTOMDPI
 70
   300
  0
ENDSEC
  0
EOF
