  0
SECTION
  2
HEADER
  9
$ACADVER
  1
AC1014
  9
$ACADMAINTVER
 70
     0
  9
$DWGCODEPAGE
  3
ANSI_1252
  9
$INSBASE
 10
0.0
 20
0.0
 30
0.0
  9
$EXTMIN
 10
75.391405
 20
159.5
 30
0.0
  9
$EXTMAX
 10
131.922776
 20
192.998783
 30
0.0
  9
$LIMMIN
 10
0.0
 20
0.0
  9
$LIMMAX
 10
210.0
 20
297.0
  9
$ORTHOMODE
 70
     0
  9
$REGENMODE
 70
     1
  9
$FILLMODE
 70
     1
  9
$QTEXTMODE
 70
     0
  9
$MIRRTEXT
 70
     1
  9
$DRAGMODE
 70
     2
  9
$LTSCALE
 40
10.0
  9
$OSMODE
 70
     0
  9
$ATTMODE
 70
     1
  9
$TEXTSIZE
 40
2.9
  9
$TRACEWID
 40
0.05
  9
$TEXTSTYLE
  7
ROMANS
  9
$CLAYER
  8
COTATION1
  9
$CELTYPE
  6
BYLAYER
  9
$CECOLOR
 62
   256
  9
$CELTSCALE
 40
1.0
  9
$DELOBJ
 70
     1
  9
$DISPSILH
 70
     0
  9
$DIMSCALE
 40
1.0
  9
$DIMASZ
 40
3.0
  9
$DIMEXO
 40
0.0625
  9
$DIMDLI
 40
0.38
  9
$DIMRND
 40
0.01
  9
$DIMDLE
 40
0.0
  9
$DIMEXE
 40
0.18
  9
$DIMTP
 40
0.0
  9
$DIMTM
 40
0.0
  9
$DIMTXT
 40
2.5
  9
$DIMCEN
 40
0.09
  9
$DIMTSZ
 40
0.0
  9
$DIMTOL
 70
     0
  9
$DIMLIM
 70
     0
  9
$DIMTIH
 70
     0
  9
$DIMTOH
 70
     0
  9
$DIMSE1
 70
     0
  9
$DIMSE2
 70
     0
  9
$DIMTAD
 70
     1
  9
$DIMZIN
 70
    12
  9
$DIMBLK
  1

  9
$DIMASO
 70
     1
  9
$DIMSHO
 70
     1
  9
$DIMPOST
  1

  9
$DIMAPOST
  1

  9
$DIMALT
 70
     0
  9
$DIMALTD
 70
     2
  9
$DIMALTF
 40
25.4
  9
$DIMLFAC
 40
1.0
  9
$DIMTOFL
 70
     1
  9
$DIMTVP
 40
0.0
  9
$DIMTIX
 70
     0
  9
$DIMSOXD
 70
     0
  9
$DIMSAH
 70
     0
  9
$DIMBLK1
  1

  9
$DIMBLK2
  1

  9
$DIMSTYLE
  2
SC_STAND
  9
$DIMCLRD
 70
     0
  9
$DIMCLRE
 70
     0
  9
$DIMCLRT
 70
     0
  9
$DIMTFAC
 40
1.0
  9
$DIMGAP
 40
1.0
  9
$DIMJUST
 70
     0
  9
$DIMSD1
 70
     0
  9
$DIMSD2
 70
     0
  9
$DIMTOLJ
 70
     1
  9
$DIMTZIN
 70
    12
  9
$DIMALTZ
 70
    12
  9
$DIMALTTZ
 70
    12
  9
$DIMFIT
 70
     5
  9
$DIMUPT
 70
     0
  9
$DIMUNIT
 70
     2
  9
$DIMDEC
 70
     4
  9
$DIMTDEC
 70
     4
  9
$DIMALTU
 70
     2
  9
$DIMALTTD
 70
     2
  9
$DIMTXSTY
  7
ROMANS
  9
$DIMAUNIT
 70
     0
  9
$LUNITS
 70
     2
  9
$LUPREC
 70
     4
  9
$SKETCHINC
 40
0.1
  9
$FILLETRAD
 40
0.0
  9
$AUNITS
 70
     0
  9
$AUPREC
 70
     0
  9
$MENU
  1
.
  9
$ELEVATION
 40
0.0
  9
$PELEVATION
 40
0.0
  9
$THICKNESS
 40
0.0
  9
$LIMCHECK
 70
     0
  9
$BLIPMODE
 70
     1
  9
$CHAMFERA
 40
0.0
  9
$CHAMFERB
 40
0.0
  9
$CHAMFERC
 40
0.0
  9
$CHAMFERD
 40
0.0
  9
$SKPOLY
 70
     0
  9
$TDCREATE
 40
2450987.592527083
  9
$TDUPDATE
 40
2451387.898653020
  9
$TDINDWG
 40
0.0014364699
  9
$TDUSRTIMER
 40
0.0014364699
  9
$USRTIMER
 70
     1
  9
$ANGBASE
 50
0.0
  9
$ANGDIR
 70
     0
  9
$PDMODE
 70
     0
  9
$PDSIZE
 40
0.0
  9
$PLINEWID
 40
0.0
  9
$COORDS
 70
     1
  9
$SPLFRAME
 70
     0
  9
$SPLINETYPE
 70
     6
  9
$SPLINESEGS
 70
     8
  9
$ATTDIA
 70
     1
  9
$ATTREQ
 70
     1
  9
$HANDLING
 70
     1
  9
$HANDSEED
  5
2828
  9
$SURFTAB1
 70
     6
  9
$SURFTAB2
 70
     6
  9
$SURFTYPE
 70
     6
  9
$SURFU
 70
     6
  9
$SURFV
 70
     6
  9
$UCSNAME
  2

  9
$UCSORG
 10
0.0
 20
0.0
 30
0.0
  9
$UCSXDIR
 10
1.0
 20
0.0
 30
0.0
  9
$UCSYDIR
 10
0.0
 20
1.0
 30
0.0
  9
$PUCSNAME
  2

  9
$PUCSORG
 10
0.0
 20
0.0
 30
0.0
  9
$PUCSXDIR
 10
1.0
 20
0.0
 30
0.0
  9
$PUCSYDIR
 10
0.0
 20
1.0
 30
0.0
  9
$USERI1
 70
     0
  9
$USERI2
 70
     0
  9
$USERI3
 70
     0
  9
$USERI4
 70
     0
  9
$USERI5
 70
     0
  9
$USERR1
 40
0.0
  9
$USERR2
 40
0.0
  9
$USERR3
 40
0.0
  9
$USERR4
 40
0.0
  9
$USERR5
 40
0.0
  9
$WORLDVIEW
 70
     1
  9
$SHADEDGE
 70
     3
  9
$SHADEDIF
 70
    70
  9
$TILEMODE
 70
     1
  9
$MAXACTVP
 70
    16
  9
$PINSBASE
 10
0.0
 20
0.0
 30
0.0
  9
$PLIMCHECK
 70
     0
  9
$PEXTMIN
 10
0.0
 20
0.0
 30
0.0
  9
$PEXTMAX
 10
420.0
 20
297.0
 30
0.0
  9
$PLIMMIN
 10
0.0
 20
0.0
  9
$PLIMMAX
 10
420.0
 20
297.0
  9
$UNITMODE
 70
     0
  9
$VISRETAIN
 70
     0
  9
$PLINEGEN
 70
     0
  9
$PSLTSCALE
 70
     1
  9
$TREEDEPTH
 70
  3020
  9
$PICKSTYLE
 70
     1
  9
$CMLSTYLE
  2
STANDARD
  9
$CMLJUST
 70
     0
  9
$CMLSCALE
 40
1.0
  9
$PROXYGRAPHICS
 70
     1
  9
$MEASUREMENT
 70
     0
  0
ENDSEC
  0
SECTION
  2
CLASSES
  0
CLASS
  1
DICTIONARYVAR
  2
AcDbDictionaryVar
  3
"AutoCAD"
 90
        0
280
     0
281
     0
  0
CLASS
  1
LWPOLYLINE
  2
AcDbPolyline
  3
"AutoCAD"
 90
        0
280
     0
281
     1
  0
ENDSEC
  0
SECTION
  2
TABLES
  0
TABLE
  2
VPORT
  5
27CC
100
AcDbSymbolTable
 70
     1
  0
VPORT
  5
2823
100
AcDbSymbolTableRecord
100
AcDbViewportTableRecord
  2
*ACTIVE
 70
     0
 10
0.0
 20
0.0
 11
1.0
 21
1.0
 12
257.127367
 22
153.871495
 13
0.0
 23
0.0
 14
2.5
 24
2.5
 15
10.0
 25
10.0
 16
0.0
 26
0.0
 36
1.0
 17
0.0
 27
0.0
 37
0.0
 40
307.74299
 41
1.671053
 42
50.0
 43
0.0
 44
0.0
 50
0.0
 51
0.0
 71
     0
 72
   100
 73
     1
 74
     1
 75
     1
 76
     1
 77
     0
 78
     0
  0
ENDTAB
  0
TABLE
  2
LTYPE
  5
27C9
100
AcDbSymbolTable
 70
    23
  0
LTYPE
  5
27D5
100
AcDbSymbolTableRecord
100
AcDbLinetypeTableRecord
  2
BYBLOCK
 70
     0
  3

 72
    65
 73
     0
 40
0.0
  0
LTYPE
  5
27D6
100
AcDbSymbolTableRecord
100
AcDbLinetypeTableRecord
  2
BYLAYER
 70
     0
  3

 72
    65
 73
     0
 40
0.0
  0
LTYPE
  5
27D7
100
AcDbSymbolTableRecord
100
AcDbLinetypeTableRecord
  2
CONTINUOUS
 70
     0
  3
Solid line
 72
    65
 73
     0
 40
0.0
  0
LTYPE
  5
27E9
100
AcDbSymbolTableRecord
100
AcDbLinetypeTableRecord
  2
AXES
 70
     0
  3
____ _ ____ _ ____ _ ____ _ ____ _ ____ _ ____ 
 72
    65
 73
     4
 40
2.0
 49
1.25
 74
     0
 49
-0.25
 74
     0
 49
0.25
 74
     0
 49
-0.25
 74
     0
  0
LTYPE
  5
27EA
100
AcDbSymbolTableRecord
100
AcDbLinetypeTableRecord
  2
AXES2
 70
     0
  3
___ _ ___ _ ___ _ ___ _ ___ _ ___ _ ___ _ ___ _
 72
    65
 73
     4
 40
1.125
 49
0.75
 74
     0
 49
-0.125
 74
     0
 49
0.125
 74
     0
 49
-0.125
 74
     0
  0
LTYPE
  5
27EB
100
AcDbSymbolTableRecord
100
AcDbLinetypeTableRecord
  2
AXESX2
 70
     0
  3
________  __  ________  __  ________  __  _____
 72
    65
 73
     4
 40
4.0
 49
2.5
 74
     0
 49
-0.5
 74
     0
 49
0.5
 74
     0
 49
-0.5
 74
     0
  0
LTYPE
  5
27EC
100
AcDbSymbolTableRecord
100
AcDbLinetypeTableRecord
  2
TIRETPT
 70
     0
  3
__ . __ . __ . __ . __ . __ . __ . __ . __ . __
 72
    65
 73
     4
 40
1.0
 49
0.5
 74
     0
 49
-0.25
 74
     0
 49
0.0
 74
     0
 49
-0.25
 74
     0
  0
LTYPE
  5
27ED
100
AcDbSymbolTableRecord
100
AcDbLinetypeTableRecord
  2
TIRETPT2
 70
     0
  3
_._._._._._._._._._._._._._._._._._._._._._._._
 72
    65
 73
     4
 40
0.5
 49
0.25
 74
     0
 49
-0.125
 74
     0
 49
0.0
 74
     0
 49
-0.125
 74
     0
  0
LTYPE
  5
27EE
100
AcDbSymbolTableRecord
100
AcDbLinetypeTableRecord
  2
TIRETPTX2
 70
     0
  3
____  .  ____  .  ____  .  ____  .  ____  .  __
 72
    65
 73
     4
 40
2.0
 49
1.0
 74
     0
 49
-0.5
 74
     0
 49
0.0
 74
     0
 49
-0.5
 74
     0
  0
LTYPE
  5
27EF
100
AcDbSymbolTableRecord
100
AcDbLinetypeTableRecord
  2
DISCONTINU
 70
     0
  3
__ __ __ __ __ __ __ __ __ __ __ __ __ __ __ __
 72
    65
 73
     2
 40
0.75
 49
0.5
 74
     0
 49
-0.25
 74
     0
  0
LTYPE
  5
27F0
100
AcDbSymbolTableRecord
100
AcDbLinetypeTableRecord
  2
DISCONTINU2
 70
     0
  3
_ _ _ _ _ _ _ _ _ _ _ _ _ _ _ _ _ _ _ _ _ _ _ _
 72
    65
 73
     2
 40
0.375
 49
0.25
 74
     0
 49
-0.125
 74
     0
  0
LTYPE
  5
27F1
100
AcDbSymbolTableRecord
100
AcDbLinetypeTableRecord
  2
DISCONTINUX2
 70
     0
  3
____  ____  ____  ____  ____  ____  ____  ____ 
 72
    65
 73
     2
 40
1.5
 49
1.0
 74
     0
 49
-0.5
 74
     0
  0
LTYPE
  5
27F2
100
AcDbSymbolTableRecord
100
AcDbLinetypeTableRecord
  2
DIVISE
 70
     0
  3
____ . . ____ . . ____ . . ____ . . ____ . . __
 72
    65
 73
     6
 40
1.25
 49
0.5
 74
     0
 49
-0.25
 74
     0
 49
0.0
 74
     0
 49
-0.25
 74
     0
 49
0.0
 74
     0
 49
-0.25
 74
     0
  0
LTYPE
  5
27F3
100
AcDbSymbolTableRecord
100
AcDbLinetypeTableRecord
  2
DIVISE2
 70
     0
  3
__..__..__..__..__..__..__..__..__..__..__..__.
 72
    65
 73
     6
 40
0.625
 49
0.25
 74
     0
 49
-0.125
 74
     0
 49
0.0
 74
     0
 49
-0.125
 74
     0
 49
0.0
 74
     0
 49
-0.125
 74
     0
  0
LTYPE
  5
27F4
100
AcDbSymbolTableRecord
100
AcDbLinetypeTableRecord
  2
DIVISEX2
 70
     0
  3
________  .  .  ________  .  .  ________  .  . 
 72
    65
 73
     6
 40
2.5
 49
1.0
 74
     0
 49
-0.5
 74
     0
 49
0.0
 74
     0
 49
-0.5
 74
     0
 49
0.0
 74
     0
 49
-0.5
 74
     0
  0
LTYPE
  5
27F5
100
AcDbSymbolTableRecord
100
AcDbLinetypeTableRecord
  2
POINTILLE
 70
     0
  3
. . . . . . . . . . . . . . . . . . . . . . . .
 72
    65
 73
     2
 40
0.25
 49
0.0
 74
     0
 49
-0.25
 74
     0
  0
LTYPE
  5
27F6
100
AcDbSymbolTableRecord
100
AcDbLinetypeTableRecord
  2
POINTILLE2
 70
     0
  3
...............................................
 72
    65
 73
     2
 40
0.125
 49
0.0
 74
     0
 49
-0.125
 74
     0
  0
LTYPE
  5
27F7
100
AcDbSymbolTableRecord
100
AcDbLinetypeTableRecord
  2
POINTILLEX2
 70
     0
  3
.  .  .  .  .  .  .  .  .  .  .  .  .  .  .  . 
 72
    65
 73
     2
 40
0.5
 49
0.0
 74
     0
 49
-0.5
 74
     0
  0
LTYPE
  5
27F8
100
AcDbSymbolTableRecord
100
AcDbLinetypeTableRecord
  2
CACHE
 70
     0
  3
__ __ __ __ __ __ __ __ __ __ __ __ __ __ __ __
 72
    65
 73
     2
 40
0.375
 49
0.25
 74
     0
 49
-0.125
 74
     0
  0
LTYPE
  5
27F9
100
AcDbSymbolTableRecord
100
AcDbLinetypeTableRecord
  2
CACHE2
 70
     0
  3
_ _ _ _ _ _ _ _ _ _ _ _ _ _ _ _ _ _ _ _ _ _ _ _
 72
    65
 73
     2
 40
0.1875
 49
0.125
 74
     0
 49
-0.0625
 74
     0
  0
LTYPE
  5
27FA
100
AcDbSymbolTableRecord
100
AcDbLinetypeTableRecord
  2
CACHEX2
 70
     0
  3
____ ____ ____ ____ ____ ____ ____ ____ ____ __
 72
    65
 73
     2
 40
0.75
 49
0.5
 74
     0
 49
-0.25
 74
     0
  0
LTYPE
  5
27FB
100
AcDbSymbolTableRecord
100
AcDbLinetypeTableRecord
  2
FANTOME
 70
     0
  3
______  __  __  ______  __  __  ______  __  __ 
 72
    65
 73
     6
 40
2.5
 49
1.25
 74
     0
 49
-0.25
 74
     0
 49
0.25
 74
     0
 49
-0.25
 74
     0
 49
0.25
 74
     0
 49
-0.25
 74
     0
  0
LTYPE
  5
27FC
100
AcDbSymbolTableRecord
100
AcDbLinetypeTableRecord
  2
FANTOME2
 70
     0
  3
___ _ _ ___ _ _ ___ _ _ ___ _ _ ___ _ _ ___ _ _
 72
    65
 73
     6
 40
1.25
 49
0.625
 74
     0
 49
-0.125
 74
     0
 49
0.125
 74
     0
 49
-0.125
 74
     0
 49
0.125
 74
     0
 49
-0.125
 74
     0
  0
LTYPE
  5
27FD
100
AcDbSymbolTableRecord
100
AcDbLinetypeTableRecord
  2
FANTOMEX2
 70
     0
  3
____________    ____    ____    ____________   
 72
    65
 73
     6
 40
5.0
 49
2.5
 74
     0
 49
-0.5
 74
     0
 49
0.5
 74
     0
 49
-0.5
 74
     0
 49
0.5
 74
     0
 49
-0.5
 74
     0
  0
LTYPE
  5
27FE
100
AcDbSymbolTableRecord
100
AcDbLinetypeTableRecord
  2
0
 70
     0
  3
MEDUSA PEN 0
 72
    65
 73
     0
 40
0.0
  0
ENDTAB
  0
TABLE
  2
LAYER
  5
27C6
100
AcDbSymbolTable
 70
    21
  0
LAYER
  5
27D2
100
AcDbSymbolTableRecord
100
AcDbLayerTableRecord
  2
0
 70
     0
 62
   255
  6
CONTINUOUS
  0
LAYER
  5
2806
100
AcDbSymbolTableRecord
100
AcDbLayerTableRecord
  2
AXE
 70
     0
 62
    80
  6
AXES2
  0
LAYER
  5
2807
100
AcDbSymbolTableRecord
100
AcDbLayerTableRecord
  2
CONSTRUCTION
 70
     0
 62
     6
  6
CONTINUOUS
  0
LAYER
  5
2808
100
AcDbSymbolTableRecord
100
AcDbLayerTableRecord
  2
COTATION1
 70
     0
 62
     2
  6
CONTINUOUS
  0
LAYER
  5
2809
100
AcDbSymbolTableRecord
100
AcDbLayerTableRecord
  2
HACHURES
 70
     0
 62
     9
  6
CONTINUOUS
  0
LAYER
  5
280A
100
AcDbSymbolTableRecord
100
AcDbLayerTableRecord
  2
FMULT
 70
     0
 62
     6
  6
CONTINUOUS
  0
LAYER
  5
280B
100
AcDbSymbolTableRecord
100
AcDbLayerTableRecord
  2
TEXTE
 70
     0
 62
   131
  6
CONTINUOUS
  0
LAYER
  5
280C
100
AcDbSymbolTableRecord
100
AcDbLayerTableRecord
  2
FDP_CARTOUCHE
 70
     0
 62
     4
  6
CONTINUOUS
  0
LAYER
  5
280D
100
AcDbSymbolTableRecord
100
AcDbLayerTableRecord
  2
FDP_TEXTES
 70
     0
 62
     5
  6
CONTINUOUS
  0
LAYER
  5
280E
100
AcDbSymbolTableRecord
100
AcDbLayerTableRecord
  2
FDP_LOGO_MG
 70
     0
 62
    30
  6
CONTINUOUS
  0
LAYER
  5
280F
100
AcDbSymbolTableRecord
100
AcDbLayerTableRecord
  2
FDP_LOGO_SCH
 70
     0
 62
     3
  6
CONTINUOUS
  0
LAYER
  5
2810
100
AcDbSymbolTableRecord
100
AcDbLayerTableRecord
  2
FDP_FDP
 70
     0
 62
     5
  6
CONTINUOUS
  0
LAYER
  5
2811
100
AcDbSymbolTableRecord
100
AcDbLayerTableRecord
  2
COTATION2
 70
     0
 62
     2
  6
CONTINUOUS
  0
LAYER
  5
2812
100
AcDbSymbolTableRecord
100
AcDbLayerTableRecord
  2
COTATION3
 70
     0
 62
     2
  6
CONTINUOUS
  0
LAYER
  5
2813
100
AcDbSymbolTableRecord
100
AcDbLayerTableRecord
  2
COTATION4
 70
     0
 62
     2
  6
CONTINUOUS
  0
LAYER
  5
2814
100
AcDbSymbolTableRecord
100
AcDbLayerTableRecord
  2
ASHADE
 70
     0
 62
     7
  6
CONTINUOUS
  0
LAYER
  5
2815
100
AcDbSymbolTableRecord
100
AcDbLayerTableRecord
  2
POINTILLE_COURT
 70
     0
 62
    40
  6
CACHE2
  0
LAYER
  5
2816
100
AcDbSymbolTableRecord
100
AcDbLayerTableRecord
  2
POINTILLE_MOYEN
 70
     0
 62
   140
  6
CACHE
  0
LAYER
  5
2817
100
AcDbSymbolTableRecord
100
AcDbLayerTableRecord
  2
POINTILLE_LONG
 70
     0
 62
   240
  6
CACHEX2
  0
LAYER
  5
2818
100
AcDbSymbolTableRecord
100
AcDbLayerTableRecord
  2
ALPHA
 70
     0
 62
   255
  6
CONTINUOUS
  0
LAYER
  5
2819
100
AcDbSymbolTableRecord
100
AcDbLayerTableRecord
  2
DEFPOINTS
 70
     0
 62
     7
  6
CONTINUOUS
  0
ENDTAB
  0
TABLE
  2
STYLE
  5
27C7
100
AcDbSymbolTable
 70
     4
  0
STYLE
  5
27D3
100
AcDbSymbolTableRecord
100
AcDbTextStyleTableRecord
  2
STANDARD
 70
     0
 40
0.0
 41
1.0
 50
0.0
 71
     0
 42
0.2
  3
txt
  4

  0
STYLE
  5
27E6
100
AcDbSymbolTableRecord
100
AcDbTextStyleTableRecord
  2
ROMANS
 70
     0
 40
0.0
 41
1.0
 50
0.0
 71
     0
 42
2.9
  3
romans.shx
  4

  0
STYLE
  5
27E7
100
AcDbSymbolTableRecord
100
AcDbTextStyleTableRecord
  2
INFOCAR
 70
     0
 40
0.0
 41
1.34
 50
0.0
 71
     0
 42
2.0
  3
ROMANS.SHX
  4

  0
STYLE
  5
27E8
100
AcDbSymbolTableRecord
100
AcDbTextStyleTableRecord
  2
CARTOUCHE
 70
     0
 40
0.0
 41
1.0
 50
0.0
 71
     0
 42
0.2
  3
ROMANS.SHX
  4

  0
ENDTAB
  0
TABLE
  2
VIEW
  5
27CA
100
AcDbSymbolTable
 70
     0
  0
ENDTAB
  0
TABLE
  2
UCS
  5
27CB
100
AcDbSymbolTable
 70
     0
  0
ENDTAB
  0
TABLE
  2
APPID
  5
27CD
100
AcDbSymbolTable
 70
     3
  0
APPID
  5
27D4
100
AcDbSymbolTableRecord
100
AcDbRegAppTableRecord
  2
ACAD
 70
     0
  0
APPID
  5
2800
100
AcDbSymbolTableRecord
100
AcDbRegAppTableRecord
  2
AVE_RENDER
 70
     0
  0
APPID
  5
2801
100
AcDbSymbolTableRecord
100
AcDbRegAppTableRecord
  2
AVE_MATERIAL
 70
     0
  0
ENDTAB
  0
TABLE
  2
DIMSTYLE
  5
27CE
100
AcDbSymbolTable
 70
     2
  0
DIMSTYLE
105
2802
100
AcDbSymbolTableRecord
100
AcDbDimStyleTableRecord
  2
STANDARD
 70
     0
  3

  4

  5

  6

  7

 40
1.0
 41
0.18
 42
0.0625
 43
0.38
 44
0.18
 45
0.0
 46
0.0
 47
0.0
 48
0.0
140
0.18
141
0.09
142
0.0
143
25.4
144
1.0
145
0.0
146
1.0
147
0.09
 71
     0
 72
     0
 73
     1
 74
     1
 75
     0
 76
     0
 77
     0
 78
     0
170
     0
171
     2
172
     0
173
     0
174
     0
175
     0
176
     0
177
     0
178
     0
270
     2
271
     4
272
     4
273
     2
274
     2
340
27E6
275
     0
280
     0
281
     0
282
     0
283
     1
284
    12
285
    12
286
    12
287
     5
288
     0
  0
DIMSTYLE
105
2803
102
{ACAD_REACTORS
330
2110
330
2128
330
2137
102
}
100
AcDbSymbolTableRecord
100
AcDbDimStyleTableRecord
  2
SC_STAND
 70
     0
  3

  4

  5

  6

  7

 40
1.0
 41
3.0
 42
0.0625
 43
0.38
 44
0.18
 45
0.01
 46
0.0
 47
0.0
 48
0.0
140
2.5
141
0.09
142
0.0
143
25.4
144
1.0
145
0.0
146
1.0
147
1.0
 71
     0
 72
     0
 73
     0
 74
     0
 75
     0
 76
     0
 77
     1
 78
    12
170
     0
171
     2
172
     1
173
     0
174
     0
175
     0
176
     0
177
     0
178
     0
270
     2
271
     4
272
     4
273
     2
274
     2
340
27E6
275
     0
280
     0
281
     0
282
     0
283
     1
284
    12
285
    12
286
    12
287
     5
288
     0
  0
ENDTAB
  0
TABLE
  2
BLOCK_RECORD
  5
27C5
100
AcDbSymbolTable
 70
     6
  0
BLOCK_RECORD
  5
27DB
100
AcDbSymbolTableRecord
100
AcDbBlockTableRecord
  2
*MODEL_SPACE
  0
BLOCK_RECORD
  5
27D8
100
AcDbSymbolTableRecord
100
AcDbBlockTableRecord
  2
*PAPER_SPACE
  0
BLOCK_RECORD
  5
27E0
100
AcDbSymbolTableRecord
100
AcDbBlockTableRecord
  2
AVE_RENDER
  0
BLOCK_RECORD
  5
27E1
100
AcDbSymbolTableRecord
100
AcDbBlockTableRecord
  2
AVE_GLOBAL
  0
BLOCK_RECORD
  5
27E2
100
AcDbSymbolTableRecord
100
AcDbBlockTableRecord
  2
A$CC312
  0
BLOCK_RECORD
  5
27E3
100
AcDbSymbolTableRecord
100
AcDbBlockTableRecord
  2
*D3
  0
BLOCK_RECORD
  5
27E4
100
AcDbSymbolTableRecord
100
AcDbBlockTableRecord
  2
*D4
  0
BLOCK_RECORD
  5
27E5
100
AcDbSymbolTableRecord
100
AcDbBlockTableRecord
  2
*D5
  0
ENDTAB
  0
ENDSEC
  0
SECTION
  2
BLOCKS
  0
BLOCK
  5
281C
100
AcDbEntity
  8
0
100
AcDbBlockBegin
  2
*MODEL_SPACE
 70
     0
 10
0.0
 20
0.0
 30
0.0
  3
*MODEL_SPACE
  1

  0
ENDBLK
  5
281D
100
AcDbEntity
  8
0
100
AcDbBlockEnd
  0
BLOCK
  5
281A
100
AcDbEntity
 67
     1
  8
0
100
AcDbBlockBegin
  2
*PAPER_SPACE
 70
     0
 10
0.0
 20
0.0
 30
0.0
  3
*PAPER_SPACE
  1

  0
ENDBLK
  5
281B
100
AcDbEntity
 67
     1
  8
0
100
AcDbBlockEnd
  0
BLOCK
  5
163A
100
AcDbEntity
  8
0
100
AcDbBlockBegin
  2
AVE_RENDER
 70
     0
 10
0.0
 20
0.0
 30
0.0
  3
AVE_RENDER
  1
AVE_RENDER
  0
ENDBLK
  5
163B
100
AcDbEntity
  8
0
100
AcDbBlockEnd
  0
BLOCK
  5
1648
100
AcDbEntity
  8
0
100
AcDbBlockBegin
  2
AVE_GLOBAL
 70
     0
 10
0.0
 20
0.0
 30
0.0
  3
AVE_GLOBAL
  1
AVE_GLOBAL
  0
ENDBLK
  5
1649
100
AcDbEntity
  8
0
100
AcDbBlockEnd
  0
BLOCK
  5
1BEE
100
AcDbEntity
  8
0
100
AcDbBlockBegin
  2
A$CC312
 70
     0
 10
0.0
 20
0.0
 30
0.0
  3
A$CC312
  1

  0
LINE
  5
16DB
100
AcDbEntity
  8
0
100
AcDbLine
 10
20.612791
 20
4.75285
 30
0.0
 11
22.612791
 21
4.75285
 31
0.0
  0
LINE
  5
16DC
100
AcDbEntity
  8
0
100
AcDbLine
 10
20.512791
 20
14.602342
 30
0.0
 11
20.612791
 21
14.602342
 31
0.0
  0
LINE
  5
16DD
100
AcDbEntity
  8
0
100
AcDbLine
 10
19.812791
 20
18.577596
 30
0.0
 11
18.612791
 21
18.577596
 31
0.0
  0
LINE
  5
16DE
100
AcDbEntity
  8
0
100
AcDbLine
 10
19.812791
 20
3.677596
 30
0.0
 11
18.612791
 21
3.677596
 31
0.0
  0
LINE
  5
16DF
100
AcDbEntity
  8
0
 62
     9
100
AcDbLine
 10
20.512791
 20
4.627596
 30
0.0
 11
22.612791
 21
4.627596
 31
0.0
  0
LINE
  5
16E0
100
AcDbEntity
  8
0
 62
     9
100
AcDbLine
 10
20.512791
 20
3.46087
 30
0.0
 11
22.612791
 21
3.46087
 31
0.0
  0
LINE
  5
16E1
100
AcDbEntity
  8
0
100
AcDbLine
 10
18.612791
 20
16.921602
 30
0.0
 11
19.812791
 21
16.921602
 31
0.0
  0
LINE
  5
16E2
100
AcDbEntity
  8
0
100
AcDbLine
 10
19.812791
 20
14.777596
 30
0.0
 11
18.612791
 21
14.777596
 31
0.0
  0
LINE
  5
16E3
100
AcDbEntity
  8
0
100
AcDbLine
 10
20.612791
 20
4.75285
 30
0.0
 11
20.612791
 21
5.777596
 31
0.0
  0
LINE
  5
16E4
100
AcDbEntity
  8
0
100
AcDbLine
 10
20.612791
 20
13.577596
 30
0.0
 11
20.612791
 21
14.602342
 31
0.0
  0
LINE
  5
16E5
100
AcDbEntity
  8
0
100
AcDbLine
 10
38.612791
 20
1.527596
 30
0.0
 11
38.612791
 21
1.077596
 31
0.0
  0
LINE
  5
16E6
100
AcDbEntity
  8
0
100
AcDbLine
 10
26.612791
 20
17.427596
 30
0.0
 11
37.91997
 21
17.427596
 31
0.0
  0
LINE
  5
16E7
100
AcDbEntity
  8
0
100
AcDbLine
 10
20.512791
 20
17.577596
 30
0.0
 11
20.612791
 21
17.577596
 31
0.0
  0
LINE
  5
16E8
100
AcDbEntity
  8
0
100
AcDbLine
 10
19.812791
 20
17.927596
 30
0.0
 11
19.812791
 21
18.577596
 31
0.0
  0
LINE
  5
16E9
100
AcDbEntity
  8
0
100
AcDbLine
 10
19.812791
 20
17.91141
 30
0.0
 11
19.812791
 21
17.927596
 31
0.0
  0
LINE
  5
16EA
100
AcDbEntity
  8
0
100
AcDbLine
 10
19.812791
 20
3.677596
 30
0.0
 11
19.812791
 21
5.777596
 31
0.0
  0
LINE
  5
16EB
100
AcDbEntity
  8
0
100
AcDbLine
 10
19.812791
 20
13.577596
 30
0.0
 11
19.812791
 21
14.777596
 31
0.0
  0
LINE
  5
16EC
100
AcDbEntity
  8
0
100
AcDbLine
 10
20.612791
 20
5.777596
 30
0.0
 11
20.612791
 21
13.577596
 31
0.0
  0
LINE
  5
16ED
100
AcDbEntity
  8
0
100
AcDbLine
 10
20.612791
 20
5.777596
 30
0.0
 11
20.512791
 21
5.777596
 31
0.0
  0
LINE
  5
16EE
100
AcDbEntity
  8
0
100
AcDbLine
 10
38.612791
 20
18.277596
 30
0.0
 11
38.612791
 21
17.827596
 31
0.0
  0
LINE
  5
16EF
100
AcDbEntity
  8
0
100
AcDbLine
 10
20.612791
 20
13.577596
 30
0.0
 11
20.512791
 21
13.577596
 31
0.0
  0
LINE
  5
16F0
100
AcDbEntity
  8
0
100
AcDbLine
 10
19.812791
 20
5.777596
 30
0.0
 11
18.612791
 21
5.777596
 31
0.0
  0
LINE
  5
16F1
100
AcDbEntity
  8
0
100
AcDbLine
 10
22.612791
 20
5.777596
 30
0.0
 11
20.612791
 21
5.777596
 31
0.0
  0
LINE
  5
16F2
100
AcDbEntity
  8
0
100
AcDbLine
 10
22.612791
 20
13.577596
 30
0.0
 11
20.612791
 21
13.577596
 31
0.0
  0
LINE
  5
16F3
100
AcDbEntity
  8
0
100
AcDbLine
 10
18.612791
 20
1.677596
 30
0.0
 11
18.612791
 21
1.402596
 31
0.0
  0
LINE
  5
16F4
100
AcDbEntity
  8
0
100
AcDbLine
 10
18.612791
 20
3.677596
 30
0.0
 11
18.612791
 21
5.777596
 31
0.0
  0
LINE
  5
16F5
100
AcDbEntity
  8
0
100
AcDbLine
 10
18.612791
 20
16.921602
 30
0.0
 11
18.612791
 21
18.577596
 31
0.0
  0
LINE
  5
16F6
100
AcDbEntity
  8
0
100
AcDbLine
 10
18.612791
 20
16.921602
 30
0.0
 11
18.612791
 21
15.277596
 31
0.0
  0
LINE
  5
16F7
100
AcDbEntity
  8
0
100
AcDbLine
 10
18.612791
 20
13.577596
 30
0.0
 11
18.612791
 21
14.777596
 31
0.0
  0
LINE
  5
16F8
100
AcDbEntity
  8
0
100
AcDbLine
 10
20.512791
 20
1.677596
 30
0.0
 11
22.612791
 21
1.677596
 31
0.0
  0
LINE
  5
16F9
100
AcDbEntity
  8
0
100
AcDbLine
 10
19.812791
 20
3.110634
 30
0.0
 11
19.812791
 21
1.677596
 31
0.0
  0
LINE
  5
16FA
100
AcDbEntity
  8
0
100
AcDbLine
 10
19.812791
 20
3.46087
 30
0.0
 11
19.812791
 21
3.110634
 31
0.0
  0
LINE
  5
16FB
100
AcDbEntity
  8
0
100
AcDbLine
 10
19.812791
 20
3.677596
 30
0.0
 11
19.812791
 21
3.46087
 31
0.0
  0
LINE
  5
16FC
100
AcDbEntity
  8
0
100
AcDbLine
 10
19.812791
 20
1.677596
 30
0.0
 11
18.612791
 21
1.677596
 31
0.0
  0
LINE
  5
16FD
100
AcDbEntity
  8
0
100
AcDbLine
 10
18.612791
 20
3.677596
 30
0.0
 11
18.612791
 21
1.677596
 31
0.0
  0
LINE
  5
16FE
100
AcDbEntity
  8
0
100
AcDbLine
 10
19.812791
 20
13.577596
 30
0.0
 11
18.612791
 21
13.577596
 31
0.0
  0
LINE
  5
16FF
100
AcDbEntity
  8
0
100
AcDbLine
 10
22.612791
 20
18.277596
 30
0.0
 11
38.612791
 21
18.277596
 31
0.0
  0
LINE
  5
1700
100
AcDbEntity
  8
0
100
AcDbLine
 10
38.612791
 20
17.827596
 30
0.0
 11
37.91997
 21
17.427596
 31
0.0
  0
LINE
  5
1701
100
AcDbEntity
  8
0
100
AcDbLine
 10
26.612791
 20
17.427596
 30
0.0
 11
22.612791
 21
17.427596
 31
0.0
  0
LINE
  5
1702
100
AcDbEntity
  8
0
100
AcDbLine
 10
26.612791
 20
12.327596
 30
0.0
 11
26.212791
 21
12.327596
 31
0.0
  0
LINE
  5
1703
100
AcDbEntity
  8
0
100
AcDbLine
 10
26.212791
 20
16.627596
 30
0.0
 11
26.212791
 21
12.327596
 31
0.0
  0
LINE
  5
1704
100
AcDbEntity
  8
0
100
AcDbLine
 10
26.612791
 20
16.627596
 30
0.0
 11
26.212791
 21
16.627596
 31
0.0
  0
LINE
  5
1705
100
AcDbEntity
  8
0
100
AcDbLine
 10
26.612791
 20
1.927596
 30
0.0
 11
22.612791
 21
1.927596
 31
0.0
  0
LINE
  5
1706
100
AcDbEntity
  8
0
100
AcDbLine
 10
26.612791
 20
2.727596
 30
0.0
 11
26.212791
 21
2.727596
 31
0.0
  0
LINE
  5
1707
100
AcDbEntity
  8
0
100
AcDbLine
 10
26.212791
 20
7.027596
 30
0.0
 11
26.212791
 21
2.727596
 31
0.0
  0
LINE
  5
1708
100
AcDbEntity
  8
0
100
AcDbLine
 10
26.612791
 20
7.027596
 30
0.0
 11
26.212791
 21
7.027596
 31
0.0
  0
LINE
  5
1709
100
AcDbEntity
  8
0
100
AcDbLine
 10
26.612791
 20
1.927596
 30
0.0
 11
37.91997
 21
1.927596
 31
0.0
  0
LINE
  5
170A
100
AcDbEntity
  8
0
100
AcDbLine
 10
37.91997
 20
1.927596
 30
0.0
 11
38.612791
 21
1.527596
 31
0.0
  0
LINE
  5
170B
100
AcDbEntity
  8
0
100
AcDbLine
 10
22.612791
 20
1.077596
 30
0.0
 11
38.612791
 21
1.077596
 31
0.0
  0
LINE
  5
170C
100
AcDbEntity
  8
0
100
AcDbLine
 10
22.612791
 20
9.677596
 30
0.0
 11
22.612791
 21
17.427596
 31
0.0
  0
LINE
  5
170D
100
AcDbEntity
  8
0
100
AcDbLine
 10
22.612791
 20
17.427596
 30
0.0
 11
22.612791
 21
18.277596
 31
0.0
  0
LINE
  5
170E
100
AcDbEntity
  8
0
100
AcDbLine
 10
19.812791
 20
15.277596
 30
0.0
 11
18.612791
 21
15.277596
 31
0.0
  0
LINE
  5
170F
100
AcDbEntity
  8
0
100
AcDbLine
 10
19.812791
 20
15.277596
 30
0.0
 11
19.812791
 21
14.777596
 31
0.0
  0
LINE
  5
1710
100
AcDbEntity
  8
0
100
AcDbLine
 10
18.612791
 20
15.277596
 30
0.0
 11
18.612791
 21
14.777596
 31
0.0
  0
LINE
  5
1711
100
AcDbEntity
  8
0
100
AcDbLine
 10
19.812791
 20
19.077596
 30
0.0
 11
18.612791
 21
19.077596
 31
0.0
  0
LINE
  5
1712
100
AcDbEntity
  8
0
100
AcDbLine
 10
22.612791
 20
1.077596
 30
0.0
 11
22.612791
 21
1.927596
 31
0.0
  0
LINE
  5
1713
100
AcDbEntity
  8
0
100
AcDbLine
 10
19.812791
 20
19.077596
 30
0.0
 11
19.812791
 21
18.577596
 31
0.0
  0
LINE
  5
1714
100
AcDbEntity
  8
0
100
AcDbLine
 10
22.612791
 20
1.927596
 30
0.0
 11
22.612791
 21
9.677596
 31
0.0
  0
LINE
  5
1715
100
AcDbEntity
  8
0
100
AcDbLine
 10
18.612791
 20
19.077596
 30
0.0
 11
18.612791
 21
18.577596
 31
0.0
  0
LINE
  5
1716
100
AcDbEntity
  8
0
100
AcDbLine
 10
20.612791
 20
17.952596
 30
0.0
 11
22.612791
 21
17.952596
 31
0.0
  0
LINE
  5
1717
100
AcDbEntity
  8
0
100
AcDbLine
 10
26.612791
 20
16.627596
 30
0.0
 11
26.612791
 21
17.427596
 31
0.0
  0
LINE
  5
1718
100
AcDbEntity
  8
0
100
AcDbLine
 10
20.612791
 20
17.952596
 30
0.0
 11
20.612791
 21
17.577596
 31
0.0
  0
LINE
  5
1719
100
AcDbEntity
  8
0
100
AcDbLine
 10
26.612791
 20
1.927596
 30
0.0
 11
26.612791
 21
2.727596
 31
0.0
  0
LINE
  5
171A
100
AcDbEntity
  8
0
100
AcDbLine
 10
20.512791
 20
1.402596
 30
0.0
 11
22.612791
 21
1.402596
 31
0.0
  0
LINE
  5
171B
100
AcDbEntity
  8
0
100
AcDbLine
 10
18.612791
 20
1.402596
 30
0.0
 11
19.812791
 21
1.402596
 31
0.0
  0
LINE
  5
171C
100
AcDbEntity
  8
0
100
AcDbLine
 10
26.612791
 20
7.027596
 30
0.0
 11
26.612791
 21
12.327596
 31
0.0
  0
LWPOLYLINE
  5
171D
100
AcDbEntity
  8
0
100
AcDbPolyline
 90
        4
 70
     0
 43
0.0
 10
15.009201
 20
11.46645
 10
15.009201
 20
11.865044
 10
15.009201
 20
12.219812
 10
15.009201
 20
12.523646
  0
LWPOLYLINE
  5
1723
100
AcDbEntity
  8
0
100
AcDbPolyline
 90
        4
 70
     0
 43
0.0
 10
15.009201
 20
11.46645
 10
14.883804
 20
11.322495
 10
14.768319
 20
11.180838
 10
14.662791
 20
11.041414
  0
LINE
  5
1729
100
AcDbEntity
  8
0
100
AcDbLine
 10
26.312791
 20
4.568046
 30
0.0
 11
26.212791
 21
4.568046
 31
0.0
  0
LWPOLYLINE
  5
172A
100
AcDbEntity
  8
0
100
AcDbPolyline
 90
        4
 70
     0
 43
0.0
 10
15.009201
 20
6.831546
 10
15.009201
 20
7.13538
 10
15.009201
 20
7.490147
 10
15.009201
 20
7.888741
  0
LINE
  5
1730
100
AcDbEntity
  8
0
100
AcDbLine
 10
26.312791
 20
14.787146
 30
0.0
 11
26.212791
 21
14.787146
 31
0.0
  0
LINE
  5
1731
100
AcDbEntity
  8
0
100
AcDbLine
 10
19.812791
 20
11.46645
 30
0.0
 11
15.009201
 21
11.46645
 31
0.0
  0
LINE
  5
1732
100
AcDbEntity
  8
0
100
AcDbLine
 10
20.612791
 20
11.46645
 30
0.0
 11
20.512791
 21
11.46645
 31
0.0
  0
LWPOLYLINE
  5
1733
100
AcDbEntity
  8
0
100
AcDbPolyline
 90
        4
 70
     0
 43
0.0
 10
15.009201
 20
7.888741
 10
14.883804
 20
8.032696
 10
14.768319
 20
8.174354
 10
14.662791
 20
8.313778
  0
LINE
  5
1739
100
AcDbEntity
  8
0
100
AcDbLine
 10
19.812791
 20
7.888741
 30
0.0
 11
15.009201
 21
7.888741
 31
0.0
  0
LINE
  5
173A
100
AcDbEntity
  8
0
100
AcDbLine
 10
20.612791
 20
7.888741
 30
0.0
 11
20.512791
 21
7.888741
 31
0.0
  0
LINE
  5
173B
100
AcDbEntity
  8
0
100
AcDbLine
 10
14.662791
 20
12.327596
 30
0.0
 11
14.662791
 21
12.357596
 31
0.0
  0
LINE
  5
173C
100
AcDbEntity
  8
0
100
AcDbLine
 10
14.662791
 20
11.041414
 30
0.0
 11
14.662791
 21
11.215077
 31
0.0
  0
LINE
  5
173D
100
AcDbEntity
  8
0
100
AcDbLine
 10
14.774244
 20
12.357596
 30
0.0
 11
14.662791
 21
12.357596
 31
0.0
  0
LWPOLYLINE
  5
173E
100
AcDbEntity
  8
0
100
AcDbPolyline
 90
        3
 70
     0
 43
0.0
 10
14.87277
 20
12.427596
 10
14.851536
 20
12.41259
 10
14.774244
 20
12.357596
  0
LWPOLYLINE
  5
1743
100
AcDbEntity
  8
0
100
AcDbPolyline
 90
        3
 70
     0
 43
0.0
 10
15.009201
 20
12.523646
 10
14.929856
 20
12.467938
 10
14.87277
 20
12.427596
  0
LWPOLYLINE
  5
1748
100
AcDbEntity
  8
0
100
AcDbPolyline
 90
        3
 70
     0
 43
0.0
 10
14.87277
 20
6.927596
 10
14.851536
 20
6.942602
 10
14.774244
 20
6.997596
  0
LWPOLYLINE
  5
174D
100
AcDbEntity
  8
0
100
AcDbPolyline
 90
        3
 70
     0
 43
0.0
 10
15.009201
 20
6.831546
 10
14.929856
 20
6.887253
 10
14.87277
 20
6.927596
  0
LINE
  5
1752
100
AcDbEntity
  8
0
100
AcDbLine
 10
14.774244
 20
6.997596
 30
0.0
 11
14.662791
 21
6.997596
 31
0.0
  0
LINE
  5
1753
100
AcDbEntity
  8
0
100
AcDbLine
 10
14.662791
 20
8.140115
 30
0.0
 11
14.662791
 21
8.313778
 31
0.0
  0
LINE
  5
1754
100
AcDbEntity
  8
0
100
AcDbLine
 10
14.662791
 20
8.0676
 30
0.0
 11
14.662791
 21
8.140115
 31
0.0
  0
LINE
  5
1755
100
AcDbEntity
  8
0
100
AcDbLine
 10
14.662791
 20
6.997596
 30
0.0
 11
14.662791
 21
7.027596
 31
0.0
  0
LINE
  5
1756
100
AcDbEntity
  8
0
100
AcDbLine
 10
14.662791
 20
11.041414
 30
0.0
 11
14.662791
 21
8.313778
 31
0.0
  0
LINE
  5
1757
100
AcDbEntity
  8
0
100
AcDbLine
 10
26.312791
 20
7.027596
 30
0.0
 11
26.312791
 21
6.902596
 31
0.0
  0
LINE
  5
1758
100
AcDbEntity
  8
0
100
AcDbLine
 10
26.212791
 20
5.777596
 30
0.0
 11
26.312791
 21
5.777596
 31
0.0
  0
LINE
  5
1759
100
AcDbEntity
  8
0
100
AcDbLine
 10
26.312791
 20
4.109158
 30
0.0
 11
26.212791
 21
4.109158
 31
0.0
  0
LINE
  5
175A
100
AcDbEntity
  8
0
100
AcDbLine
 10
19.812791
 20
6.831546
 30
0.0
 11
15.009201
 21
6.831546
 31
0.0
  0
LINE
  5
175B
100
AcDbEntity
  8
0
100
AcDbLine
 10
20.612791
 20
6.831546
 30
0.0
 11
20.512791
 21
6.831546
 31
0.0
  0
LINE
  5
175C
100
AcDbEntity
  8
0
100
AcDbLine
 10
19.812791
 20
12.523646
 30
0.0
 11
15.009201
 21
12.523646
 31
0.0
  0
LINE
  5
175D
100
AcDbEntity
  8
0
100
AcDbLine
 10
20.612791
 20
12.523646
 30
0.0
 11
20.512791
 21
12.523646
 31
0.0
  0
LINE
  5
175E
100
AcDbEntity
  8
0
100
AcDbLine
 10
26.312791
 20
15.246034
 30
0.0
 11
26.212791
 21
15.246034
 31
0.0
  0
LINE
  5
175F
100
AcDbEntity
  8
0
100
AcDbLine
 10
26.912791
 20
2.852596
 30
0.0
 11
26.912791
 21
6.902596
 31
0.0
  0
LINE
  5
1760
100
AcDbEntity
  8
0
100
AcDbLine
 10
26.912791
 20
12.452596
 30
0.0
 11
26.912791
 21
16.502596
 31
0.0
  0
LINE
  5
1761
100
AcDbEntity
  8
0
100
AcDbLine
 10
42.812791
 20
8.177596
 30
0.0
 11
42.812791
 21
11.177596
 31
0.0
  0
LINE
  5
1762
100
AcDbEntity
  8
0
100
AcDbLine
 10
42.812791
 20
4.486403
 30
0.0
 11
42.812791
 21
5.868788
 31
0.0
  0
LINE
  5
1763
100
AcDbEntity
  8
0
100
AcDbLine
 10
42.812791
 20
1.577596
 30
0.0
 11
42.812791
 21
1.977596
 31
0.0
  0
LINE
  5
1764
100
AcDbEntity
  8
0
100
AcDbLine
 10
42.812791
 20
17.377596
 30
0.0
 11
42.812791
 21
17.777596
 31
0.0
  0
LINE
  5
1765
100
AcDbEntity
  8
0
100
AcDbLine
 10
26.312791
 20
12.452596
 30
0.0
 11
26.912791
 21
12.452596
 31
0.0
  0
LINE
  5
1766
100
AcDbEntity
  8
0
100
AcDbLine
 10
26.312791
 20
16.502596
 30
0.0
 11
26.912791
 21
16.502596
 31
0.0
  0
LINE
  5
1767
100
AcDbEntity
  8
0
100
AcDbLine
 10
42.812791
 20
13.486403
 30
0.0
 11
42.812791
 21
14.868788
 31
0.0
  0
LINE
  5
1768
100
AcDbEntity
  8
0
100
AcDbLine
 10
26.312791
 20
12.452596
 30
0.0
 11
26.312791
 21
16.502596
 31
0.0
  0
LINE
  5
1769
100
AcDbEntity
  8
0
100
AcDbLine
 10
27.112791
 20
12.452596
 30
0.0
 11
27.112791
 21
16.502596
 31
0.0
  0
LINE
  5
176A
100
AcDbEntity
  8
0
100
AcDbLine
 10
27.112791
 20
12.452596
 30
0.0
 11
26.912791
 21
12.452596
 31
0.0
  0
LINE
  5
176B
100
AcDbEntity
  8
0
100
AcDbLine
 10
27.112791
 20
16.502596
 30
0.0
 11
26.912791
 21
16.502596
 31
0.0
  0
LINE
  5
176C
100
AcDbEntity
  8
0
100
AcDbLine
 10
26.312791
 20
2.852596
 30
0.0
 11
26.912791
 21
2.852596
 31
0.0
  0
LINE
  5
176D
100
AcDbEntity
  8
0
100
AcDbLine
 10
26.312791
 20
6.902596
 30
0.0
 11
26.912791
 21
6.902596
 31
0.0
  0
LINE
  5
176E
100
AcDbEntity
  8
0
100
AcDbLine
 10
26.312791
 20
2.852596
 30
0.0
 11
26.312791
 21
6.902596
 31
0.0
  0
LINE
  5
176F
100
AcDbEntity
  8
0
100
AcDbLine
 10
27.112791
 20
2.852596
 30
0.0
 11
27.112791
 21
6.902596
 31
0.0
  0
LINE
  5
1770
100
AcDbEntity
  8
0
100
AcDbLine
 10
27.112791
 20
2.852596
 30
0.0
 11
26.912791
 21
2.852596
 31
0.0
  0
LINE
  5
1771
100
AcDbEntity
  8
0
100
AcDbLine
 10
27.112791
 20
6.902596
 30
0.0
 11
26.912791
 21
6.902596
 31
0.0
  0
LINE
  5
1772
100
AcDbEntity
  8
0
100
AcDbLine
 10
26.812791
 20
2.777596
 30
0.0
 11
26.812791
 21
2.852596
 31
0.0
  0
LINE
  5
1773
100
AcDbEntity
  8
0
100
AcDbLine
 10
30.812791
 20
1.977596
 30
0.0
 11
30.812791
 21
1.927596
 31
0.0
  0
LINE
  5
1774
100
AcDbEntity
  8
0
100
AcDbLine
 10
37.412791
 20
1.927596
 30
0.0
 11
37.412791
 21
1.977596
 31
0.0
  0
LINE
  5
1775
100
AcDbEntity
  8
0
100
AcDbLine
 10
41.243731
 20
1.577596
 30
0.0
 11
41.012791
 21
1.977596
 31
0.0
  0
LINE
  5
1776
100
AcDbEntity
  8
0
100
AcDbLine
 10
42.812791
 20
1.577596
 30
0.0
 11
41.243731
 21
1.577596
 31
0.0
  0
LINE
  5
1777
100
AcDbEntity
  8
0
100
AcDbLine
 10
26.812791
 20
6.902596
 30
0.0
 11
26.812791
 21
6.977596
 31
0.0
  0
LINE
  5
1778
100
AcDbEntity
  8
0
100
AcDbLine
 10
26.812791
 20
12.377596
 30
0.0
 11
26.812791
 21
12.452596
 31
0.0
  0
LINE
  5
1779
100
AcDbEntity
  8
0
100
AcDbLine
 10
41.243731
 20
17.777596
 30
0.0
 11
42.812791
 21
17.777596
 31
0.0
  0
LINE
  5
177A
100
AcDbEntity
  8
0
100
AcDbLine
 10
41.012791
 20
17.377596
 30
0.0
 11
41.243731
 21
17.777596
 31
0.0
  0
LINE
  5
177B
100
AcDbEntity
  8
0
100
AcDbLine
 10
37.412791
 20
17.377596
 30
0.0
 11
37.412791
 21
17.427596
 31
0.0
  0
LINE
  5
177C
100
AcDbEntity
  8
0
100
AcDbLine
 10
30.812791
 20
17.427596
 30
0.0
 11
30.812791
 21
17.377596
 31
0.0
  0
LINE
  5
177D
100
AcDbEntity
  8
0
100
AcDbLine
 10
26.812791
 20
16.502596
 30
0.0
 11
26.812791
 21
16.577596
 31
0.0
  0
LWPOLYLINE
  5
177E
100
AcDbEntity
  8
0
100
AcDbPolyline
 90
        4
 70
     0
 43
0.0
 10
15.009201
 20
6.455993
 10
15.009201
 20
6.274848
 10
15.009201
 20
6.164614
 10
15.009201
 20
6.127596
  0
LINE
  5
1784
100
AcDbEntity
  8
0
 62
     9
100
AcDbLine
 10
20.512791
 20
12.799199
 30
0.0
 11
20.612791
 21
12.799199
 31
0.0
  0
LINE
  5
1785
100
AcDbEntity
  8
0
 62
     9
100
AcDbLine
 10
14.662791
 20
12.799199
 30
0.0
 11
19.812791
 21
12.799199
 31
0.0
  0
LWPOLYLINE
  5
1786
100
AcDbEntity
  8
0
100
AcDbPolyline
 90
        4
 70
     0
 43
0.0
 10
15.009201
 20
13.227596
 10
15.009201
 20
13.190594
 10
15.009201
 20
13.080362
 10
15.009201
 20
12.899199
  0
LINE
  5
178C
100
AcDbEntity
  8
0
 62
     9
100
AcDbLine
 10
20.512791
 20
6.555993
 30
0.0
 11
20.612791
 21
6.555993
 31
0.0
  0
LINE
  5
178D
100
AcDbEntity
  8
0
 62
     9
100
AcDbLine
 10
14.662791
 20
6.555993
 30
0.0
 11
19.812791
 21
6.555993
 31
0.0
  0
LINE
  5
178E
100
AcDbEntity
  8
0
100
AcDbLine
 10
19.812791
 20
6.156232
 30
0.0
 11
17.612791
 21
6.156232
 31
0.0
  0
LINE
  5
178F
100
AcDbEntity
  8
0
100
AcDbLine
 10
20.612791
 20
6.156232
 30
0.0
 11
20.512791
 21
6.156232
 31
0.0
  0
LINE
  5
1790
100
AcDbEntity
  8
0
100
AcDbLine
 10
20.512791
 20
12.899199
 30
0.0
 11
20.612791
 21
12.899199
 31
0.0
  0
LINE
  5
1791
100
AcDbEntity
  8
0
100
AcDbLine
 10
14.662791
 20
12.899199
 30
0.0
 11
19.812791
 21
12.899199
 31
0.0
  0
LINE
  5
1792
100
AcDbEntity
  8
0
100
AcDbLine
 10
20.512791
 20
6.455993
 30
0.0
 11
20.612791
 21
6.455993
 31
0.0
  0
LINE
  5
1793
100
AcDbEntity
  8
0
100
AcDbLine
 10
14.662791
 20
6.455993
 30
0.0
 11
19.812791
 21
6.455993
 31
0.0
  0
LINE
  5
1794
100
AcDbEntity
  8
0
100
AcDbLine
 10
18.612791
 20
5.417596
 30
0.0
 11
17.612791
 21
5.417596
 31
0.0
  0
LINE
  5
1795
100
AcDbEntity
  8
0
100
AcDbLine
 10
17.612791
 20
5.417596
 30
0.0
 11
17.612791
 21
6.156232
 31
0.0
  0
LINE
  5
1796
100
AcDbEntity
  8
0
100
AcDbLine
 10
14.662791
 20
6.927596
 30
0.0
 11
14.87277
 21
6.927596
 31
0.0
  0
LINE
  5
1797
100
AcDbEntity
  8
0
100
AcDbLine
 10
14.662791
 20
6.555993
 30
0.0
 11
14.662791
 21
6.927596
 31
0.0
  0
LINE
  5
1798
100
AcDbEntity
  8
0
100
AcDbLine
 10
26.312791
 20
2.877596
 30
0.0
 11
26.212791
 21
2.877596
 31
0.0
  0
LINE
  5
1799
100
AcDbEntity
  8
0
100
AcDbLine
 10
26.212791
 20
16.477596
 30
0.0
 11
26.312791
 21
16.477596
 31
0.0
  0
LINE
  5
179A
100
AcDbEntity
  8
0
100
AcDbLine
 10
14.662791
 20
12.427596
 30
0.0
 11
14.662791
 21
12.799199
 31
0.0
  0
LINE
  5
179B
100
AcDbEntity
  8
0
100
AcDbLine
 10
14.662791
 20
12.427596
 30
0.0
 11
14.87277
 21
12.427596
 31
0.0
  0
LINE
  5
179C
100
AcDbEntity
  8
0
100
AcDbLine
 10
14.662791
 20
12.899199
 30
0.0
 11
14.662791
 21
13.027596
 31
0.0
  0
LINE
  5
179D
100
AcDbEntity
  8
0
100
AcDbLine
 10
14.662791
 20
6.927596
 30
0.0
 11
14.662791
 21
6.997596
 31
0.0
  0
LINE
  5
179E
100
AcDbEntity
  8
0
100
AcDbLine
 10
14.662791
 20
12.357596
 30
0.0
 11
14.662791
 21
12.427596
 31
0.0
  0
LINE
  5
179F
100
AcDbEntity
  8
0
100
AcDbLine
 10
17.612791
 20
6.127596
 30
0.0
 11
15.009201
 21
6.127596
 31
0.0
  0
LINE
  5
17A0
100
AcDbEntity
  8
0
100
AcDbLine
 10
19.812791
 20
13.227596
 30
0.0
 11
15.009201
 21
13.227596
 31
0.0
  0
LINE
  5
17A1
100
AcDbEntity
  8
0
100
AcDbLine
 10
20.612791
 20
13.227596
 30
0.0
 11
20.512791
 21
13.227596
 31
0.0
  0
LINE
  5
17A2
100
AcDbEntity
  8
0
100
AcDbLine
 10
15.009201
 20
6.127596
 30
0.0
 11
14.662791
 21
6.327596
 31
0.0
  0
LINE
  5
17A3
100
AcDbEntity
  8
0
100
AcDbLine
 10
14.662791
 20
6.327596
 30
0.0
 11
14.662791
 21
6.455993
 31
0.0
  0
LINE
  5
17A4
100
AcDbEntity
  8
0
100
AcDbLine
 10
15.009201
 20
13.227596
 30
0.0
 11
14.662791
 21
13.027596
 31
0.0
  0
LINE
  5
17A5
100
AcDbEntity
  8
0
100
AcDbLine
 10
14.662791
 20
6.555993
 30
0.0
 11
14.662791
 21
6.455993
 31
0.0
  0
LINE
  5
17A6
100
AcDbEntity
  8
0
100
AcDbLine
 10
20.512791
 20
12.899199
 30
0.0
 11
20.612791
 21
12.899199
 31
0.0
  0
LINE
  5
17A7
100
AcDbEntity
  8
0
100
AcDbLine
 10
14.662791
 20
12.899199
 30
0.0
 11
19.812791
 21
12.899199
 31
0.0
  0
LINE
  5
17A8
100
AcDbEntity
  8
0
100
AcDbLine
 10
14.662791
 20
12.899199
 30
0.0
 11
14.662791
 21
12.799199
 31
0.0
  0
LINE
  5
17A9
100
AcDbEntity
  8
0
100
AcDbLine
 10
13.656269
 20
12.077596
 30
0.0
 11
12.962791
 21
12.077596
 31
0.0
  0
LINE
  5
17AA
100
AcDbEntity
  8
0
100
AcDbLine
 10
12.962791
 20
12.077596
 30
0.0
 11
12.962791
 21
11.927596
 31
0.0
  0
LINE
  5
17AB
100
AcDbEntity
  8
0
100
AcDbLine
 10
4.078523
 20
10.827596
 30
0.0
 11
2.812791
 21
10.827596
 31
0.0
  0
LINE
  5
17AC
100
AcDbEntity
  8
0
100
AcDbLine
 10
1.512791
 20
10.077596
 30
0.0
 11
2.812791
 21
10.827596
 31
0.0
  0
LINE
  5
17AD
100
AcDbEntity
  8
0
100
AcDbLine
 10
9.862791
 20
7.277596
 30
0.0
 11
13.656269
 21
7.277596
 31
0.0
  0
LINE
  5
17AE
100
AcDbEntity
  8
0
100
AcDbLine
 10
9.712791
 20
7.427596
 30
0.0
 11
9.862791
 21
7.277596
 31
0.0
  0
LINE
  5
17AF
100
AcDbEntity
  8
0
100
AcDbLine
 10
2.812791
 20
8.327596
 30
0.0
 11
4.060511
 21
8.327596
 31
0.0
  0
LINE
  5
17B0
100
AcDbEntity
  8
0
100
AcDbLine
 10
2.812791
 20
8.327596
 30
0.0
 11
1.512791
 21
9.077596
 31
0.0
  0
LINE
  5
17B1
100
AcDbEntity
  8
0
100
AcDbLine
 10
1.512791
 20
10.077596
 30
0.0
 11
1.512791
 21
9.077596
 31
0.0
  0
LINE
  5
17B2
100
AcDbEntity
  8
0
100
AcDbLine
 10
42.812791
 20
4.471044
 30
0.0
 11
42.012791
 21
4.471044
 31
0.0
  0
LINE
  5
17B3
100
AcDbEntity
  8
0
100
AcDbLine
 10
42.812791
 20
14.884148
 30
0.0
 11
42.012791
 21
14.884148
 31
0.0
  0
LINE
  5
17B4
100
AcDbEntity
  8
0
100
AcDbLine
 10
42.812791
 20
5.884148
 30
0.0
 11
42.012791
 21
5.884148
 31
0.0
  0
LINE
  5
17B5
100
AcDbEntity
  8
0
100
AcDbLine
 10
42.812791
 20
13.471044
 30
0.0
 11
42.012791
 21
13.471044
 31
0.0
  0
LINE
  5
17B6
100
AcDbEntity
  8
0
100
AcDbLine
 10
42.412791
 20
7.477596
 30
0.0
 11
42.412791
 21
11.877596
 31
0.0
  0
LINE
  5
17B7
100
AcDbEntity
  8
0
100
AcDbLine
 10
42.412791
 20
7.477596
 30
0.0
 11
41.612791
 21
7.477596
 31
0.0
  0
LINE
  5
17B8
100
AcDbEntity
  8
0
100
AcDbLine
 10
41.612791
 20
1.977596
 30
0.0
 11
41.612791
 21
7.477596
 31
0.0
  0
LINE
  5
17B9
100
AcDbEntity
  8
0
100
AcDbLine
 10
26.812791
 20
1.977596
 30
0.0
 11
41.612791
 21
1.977596
 31
0.0
  0
LINE
  5
17BA
100
AcDbEntity
  8
0
100
AcDbLine
 10
26.812791
 20
2.777596
 30
0.0
 11
26.812791
 21
1.977596
 31
0.0
  0
LINE
  5
17BB
100
AcDbEntity
  8
0
100
AcDbLine
 10
26.812791
 20
2.777596
 30
0.0
 11
27.262791
 21
2.777596
 31
0.0
  0
LINE
  5
17BC
100
AcDbEntity
  8
0
100
AcDbLine
 10
27.262791
 20
2.777596
 30
0.0
 11
27.262791
 21
6.977596
 31
0.0
  0
LINE
  5
17BD
100
AcDbEntity
  8
0
100
AcDbLine
 10
26.812791
 20
6.977596
 30
0.0
 11
27.262791
 21
6.977596
 31
0.0
  0
LINE
  5
17BE
100
AcDbEntity
  8
0
100
AcDbLine
 10
26.812791
 20
12.377596
 30
0.0
 11
26.812791
 21
6.977596
 31
0.0
  0
LINE
  5
17BF
100
AcDbEntity
  8
0
100
AcDbLine
 10
26.812791
 20
12.377596
 30
0.0
 11
27.262791
 21
12.377596
 31
0.0
  0
LINE
  5
17C0
100
AcDbEntity
  8
0
100
AcDbLine
 10
27.262791
 20
12.377596
 30
0.0
 11
27.262791
 21
16.577596
 31
0.0
  0
LINE
  5
17C1
100
AcDbEntity
  8
0
100
AcDbLine
 10
26.812791
 20
16.577596
 30
0.0
 11
27.262791
 21
16.577596
 31
0.0
  0
LINE
  5
17C2
100
AcDbEntity
  8
0
100
AcDbLine
 10
26.812791
 20
17.377596
 30
0.0
 11
26.812791
 21
16.577596
 31
0.0
  0
LINE
  5
17C3
100
AcDbEntity
  8
0
100
AcDbLine
 10
41.612791
 20
17.377596
 30
0.0
 11
26.812791
 21
17.377596
 31
0.0
  0
LINE
  5
17C4
100
AcDbEntity
  8
0
100
AcDbLine
 10
41.612791
 20
11.877596
 30
0.0
 11
41.612791
 21
17.377596
 31
0.0
  0
LINE
  5
17C5
100
AcDbEntity
  8
0
100
AcDbLine
 10
42.412791
 20
11.877596
 30
0.0
 11
41.612791
 21
11.877596
 31
0.0
  0
LINE
  5
17C6
100
AcDbEntity
  8
0
100
AcDbLine
 10
42.812791
 20
1.977596
 30
0.0
 11
41.612791
 21
1.977596
 31
0.0
  0
LINE
  5
17C7
100
AcDbEntity
  8
0
100
AcDbLine
 10
42.812791
 20
14.868788
 30
0.0
 11
42.812791
 21
14.884148
 31
0.0
  0
LINE
  5
17C8
100
AcDbEntity
  8
0
100
AcDbLine
 10
42.812791
 20
4.486403
 30
0.0
 11
42.812791
 21
4.471044
 31
0.0
  0
LINE
  5
17C9
100
AcDbEntity
  8
0
100
AcDbLine
 10
42.812791
 20
13.486403
 30
0.0
 11
42.812791
 21
13.471044
 31
0.0
  0
LINE
  5
17CA
100
AcDbEntity
  8
0
100
AcDbLine
 10
42.812791
 20
5.868788
 30
0.0
 11
42.812791
 21
5.884148
 31
0.0
  0
LINE
  5
17CB
100
AcDbEntity
  8
0
100
AcDbLine
 10
42.812791
 20
17.377596
 30
0.0
 11
41.612791
 21
17.377596
 31
0.0
  0
LINE
  5
17CC
100
AcDbEntity
  8
0
100
AcDbLine
 10
26.812791
 20
7.677596
 30
0.0
 11
26.612791
 21
7.677596
 31
0.0
  0
LINE
  5
17CD
100
AcDbEntity
  8
0
100
AcDbLine
 10
26.612791
 20
11.677596
 30
0.0
 11
26.812791
 21
11.677596
 31
0.0
  0
LINE
  5
17CE
100
AcDbEntity
  8
0
100
AcDbLine
 10
27.112791
 20
13.477596
 30
0.0
 11
27.262791
 21
13.477596
 31
0.0
  0
LINE
  5
17CF
100
AcDbEntity
  8
0
100
AcDbLine
 10
27.112791
 20
15.477596
 30
0.0
 11
27.262791
 21
15.477596
 31
0.0
  0
LINE
  5
17D0
100
AcDbEntity
  8
0
100
AcDbLine
 10
27.112791
 20
3.877596
 30
0.0
 11
27.262791
 21
3.877596
 31
0.0
  0
LINE
  5
17D1
100
AcDbEntity
  8
0
100
AcDbLine
 10
27.112791
 20
5.877596
 30
0.0
 11
27.262791
 21
5.877596
 31
0.0
  0
LINE
  5
17D2
100
AcDbEntity
  8
0
100
AcDbLine
 10
42.812791
 20
11.177596
 30
0.0
 11
42.412791
 21
11.177596
 31
0.0
  0
LINE
  5
17D3
100
AcDbEntity
  8
0
100
AcDbLine
 10
42.812791
 20
17.377596
 30
0.0
 11
42.812791
 21
14.884148
 31
0.0
  0
LINE
  5
17D4
100
AcDbEntity
  8
0
100
AcDbLine
 10
42.812791
 20
4.486403
 30
0.0
 11
42.012791
 21
4.486403
 31
0.0
  0
LINE
  5
17D5
100
AcDbEntity
  8
0
100
AcDbLine
 10
42.812791
 20
5.868788
 30
0.0
 11
42.012791
 21
5.868788
 31
0.0
  0
LINE
  5
17D6
100
AcDbEntity
  8
0
100
AcDbLine
 10
42.012791
 20
13.471044
 30
0.0
 11
42.012791
 21
14.884148
 31
0.0
  0
LINE
  5
17D7
100
AcDbEntity
  8
0
100
AcDbLine
 10
42.812791
 20
13.471044
 30
0.0
 11
42.812791
 21
11.177596
 31
0.0
  0
LINE
  5
17D8
100
AcDbEntity
  8
0
100
AcDbLine
 10
42.812791
 20
13.486403
 30
0.0
 11
42.012791
 21
13.486403
 31
0.0
  0
LINE
  5
17D9
100
AcDbEntity
  8
0
100
AcDbLine
 10
42.812791
 20
14.868788
 30
0.0
 11
42.012791
 21
14.868788
 31
0.0
  0
LINE
  5
17DA
100
AcDbEntity
  8
0
100
AcDbLine
 10
42.812791
 20
8.177596
 30
0.0
 11
42.412791
 21
8.177596
 31
0.0
  0
LINE
  5
17DB
100
AcDbEntity
  8
0
100
AcDbLine
 10
42.812791
 20
8.177596
 30
0.0
 11
42.812791
 21
5.884148
 31
0.0
  0
LINE
  5
17DC
100
AcDbEntity
  8
0
100
AcDbLine
 10
42.012791
 20
4.471044
 30
0.0
 11
42.012791
 21
5.884148
 31
0.0
  0
LINE
  5
17DD
100
AcDbEntity
  8
0
100
AcDbLine
 10
42.812791
 20
4.471044
 30
0.0
 11
42.812791
 21
1.977596
 31
0.0
  0
LINE
  5
17DE
100
AcDbEntity
  8
0
100
AcDbLine
 10
50.112791
 20
16.277596
 30
0.0
 11
50.112791
 21
15.777596
 31
0.0
  0
LINE
  5
17DF
100
AcDbEntity
  8
0
100
AcDbLine
 10
50.112791
 20
12.477596
 30
0.0
 11
50.112791
 21
11.977596
 31
0.0
  0
ARC
  5
17E0
100
AcDbEntity
  8
0
100
AcDbCircle
 10
42.879299
 20
12.777596
 30
0.0
 40
0.3
100
AcDbArc
 50
257.157112
 51
270.0
  0
ARC
  5
17E1
100
AcDbEntity
  8
0
100
AcDbCircle
 10
42.879299
 20
12.777596
 30
0.0
 40
0.8
100
AcDbArc
 50
265.209709
 51
270.0
  0
LINE
  5
17E2
100
AcDbEntity
  8
0
100
AcDbLine
 10
50.612791
 20
12.380406
 30
0.0
 11
50.612791
 21
12.074786
 31
0.0
  0
LINE
  5
17E3
100
AcDbEntity
  8
0
100
AcDbLine
 10
50.612791
 20
12.074786
 30
0.0
 11
50.112791
 21
11.977596
 31
0.0
  0
LINE
  5
17E4
100
AcDbEntity
  8
0
100
AcDbLine
 10
50.612791
 20
12.380406
 30
0.0
 11
50.112791
 21
12.477596
 31
0.0
  0
LINE
  5
17E5
100
AcDbEntity
  8
0
100
AcDbLine
 10
50.612791
 20
16.180406
 30
0.0
 11
50.612791
 21
15.874786
 31
0.0
  0
LINE
  5
17E6
100
AcDbEntity
  8
0
100
AcDbLine
 10
50.612791
 20
15.874786
 30
0.0
 11
50.112791
 21
15.777596
 31
0.0
  0
LINE
  5
17E7
100
AcDbEntity
  8
0
100
AcDbLine
 10
50.612791
 20
16.180406
 30
0.0
 11
50.112791
 21
16.277596
 31
0.0
  0
LINE
  5
17E8
100
AcDbEntity
  8
0
100
AcDbLine
 10
50.112791
 20
15.777596
 30
0.0
 11
42.812791
 21
15.777596
 31
0.0
  0
LINE
  5
17E9
100
AcDbEntity
  8
0
100
AcDbLine
 10
50.112791
 20
16.277596
 30
0.0
 11
42.812791
 21
16.277596
 31
0.0
  0
LINE
  5
17EA
100
AcDbEntity
  8
0
100
AcDbLine
 10
50.112791
 20
11.977596
 30
0.0
 11
42.879299
 21
11.977596
 31
0.0
  0
LINE
  5
17EB
100
AcDbEntity
  8
0
100
AcDbLine
 10
42.879299
 20
12.477596
 30
0.0
 11
50.112791
 21
12.477596
 31
0.0
  0
LINE
  5
17EC
100
AcDbEntity
  8
0
100
AcDbLine
 10
50.112791
 20
3.077596
 30
0.0
 11
50.112791
 21
3.577596
 31
0.0
  0
LINE
  5
17ED
100
AcDbEntity
  8
0
100
AcDbLine
 10
50.112791
 20
6.877596
 30
0.0
 11
50.112791
 21
7.377596
 31
0.0
  0
ARC
  5
17EE
100
AcDbEntity
  8
0
100
AcDbCircle
 10
42.879299
 20
6.577596
 30
0.0
 40
0.3
100
AcDbArc
 50
90.0
 51
102.842888
  0
ARC
  5
17EF
100
AcDbEntity
  8
0
100
AcDbCircle
 10
42.879299
 20
6.577596
 30
0.0
 40
0.8
100
AcDbArc
 50
90.0
 51
94.790291
  0
LINE
  5
17F0
100
AcDbEntity
  8
0
100
AcDbLine
 10
50.612791
 20
3.174786
 30
0.0
 11
50.612791
 21
3.480406
 31
0.0
  0
LINE
  5
17F1
100
AcDbEntity
  8
0
100
AcDbLine
 10
50.612791
 20
3.174786
 30
0.0
 11
50.112791
 21
3.077596
 31
0.0
  0
LINE
  5
17F2
100
AcDbEntity
  8
0
100
AcDbLine
 10
50.612791
 20
3.480406
 30
0.0
 11
50.112791
 21
3.577596
 31
0.0
  0
LINE
  5
17F3
100
AcDbEntity
  8
0
100
AcDbLine
 10
50.612791
 20
6.974786
 30
0.0
 11
50.612791
 21
7.280406
 31
0.0
  0
LINE
  5
17F4
100
AcDbEntity
  8
0
100
AcDbLine
 10
50.612791
 20
6.974786
 30
0.0
 11
50.112791
 21
6.877596
 31
0.0
  0
LINE
  5
17F5
100
AcDbEntity
  8
0
100
AcDbLine
 10
50.612791
 20
7.280406
 30
0.0
 11
50.112791
 21
7.377596
 31
0.0
  0
LINE
  5
17F6
100
AcDbEntity
  8
0
100
AcDbLine
 10
50.112791
 20
3.577596
 30
0.0
 11
42.812791
 21
3.577596
 31
0.0
  0
LINE
  5
17F7
100
AcDbEntity
  8
0
100
AcDbLine
 10
50.112791
 20
3.077596
 30
0.0
 11
42.812791
 21
3.077596
 31
0.0
  0
LINE
  5
17F8
100
AcDbEntity
  8
0
100
AcDbLine
 10
50.112791
 20
7.377596
 30
0.0
 11
42.879299
 21
7.377596
 31
0.0
  0
LINE
  5
17F9
100
AcDbEntity
  8
0
100
AcDbLine
 10
42.879299
 20
6.877596
 30
0.0
 11
50.112791
 21
6.877596
 31
0.0
  0
LINE
  5
17FA
100
AcDbEntity
  8
0
100
AcDbLine
 10
7.162791
 20
10.327596
 30
0.0
 11
7.162791
 21
9.027596
 31
0.0
  0
LINE
  5
17FB
100
AcDbEntity
  8
0
 62
     9
100
AcDbLine
 10
7.162791
 20
10.327596
 30
0.0
 11
7.562791
 21
10.327596
 31
0.0
  0
LINE
  5
17FC
100
AcDbEntity
  8
0
 62
     9
100
AcDbLine
 10
6.862791
 20
10.327596
 30
0.0
 11
7.162791
 21
10.327596
 31
0.0
  0
LINE
  5
17FD
100
AcDbEntity
  8
0
 62
     9
100
AcDbLine
 10
6.862791
 20
9.027596
 30
0.0
 11
7.162791
 21
9.027596
 31
0.0
  0
LWPOLYLINE
  5
17FE
100
AcDbEntity
  8
0
 62
     9
100
AcDbPolyline
 90
       18
 70
     0
 43
0.0
 10
13.462791
 20
10.327596
 10
13.481244
 20
10.327596
 10
13.499541
 20
10.327596
 10
13.517523
 20
10.327596
 10
13.535039
 20
10.327596
 10
13.551938
 20
10.327596
 10
13.568077
 20
10.327596
 10
13.583318
 20
10.327596
 10
13.59753
 20
10.327596
 10
13.610592
 20
10.327596
 10
13.622394
 20
10.327596
 10
13.632834
 20
10.327596
 10
13.641823
 20
10.327596
 10
13.649285
 20
10.327596
 10
13.655156
 20
10.327596
 10
13.659385
 20
10.327596
 10
13.661938
 20
10.327596
 10
13.662791
 20
10.327596
  0
LWPOLYLINE
  5
1812
100
AcDbEntity
  8
0
100
AcDbPolyline
 90
        4
 70
     0
 43
0.0
 10
3.827048
 20
8.177596
 10
3.82802
 20
8.175823
 10
3.828999
 20
8.174679
 10
3.829983
 20
8.174166
  0
LWPOLYLINE
  5
1818
100
AcDbEntity
  8
0
100
AcDbPolyline
 90
       30
 70
     0
 43
0.0
 10
6.862791
 20
10.327596
 10
6.862791
 20
10.414218
 10
6.862791
 20
10.500586
 10
6.862791
 20
10.586447
 10
6.862791
 20
10.671549
 10
6.862791
 20
10.755641
 10
6.862791
 20
10.838478
 10
6.862791
 20
10.919817
 10
6.862791
 20
10.999418
 10
6.862791
 20
11.077049
 10
6.862791
 20
11.152482
 10
6.862791
 20
11.225495
 10
6.862791
 20
11.295875
 10
6.862791
 20
11.363414
 10
6.862791
 20
11.427915
 10
6.862791
 20
11.489189
 10
6.862791
 20
11.547055
 10
6.862791
 20
11.601345
 10
6.862791
 20
11.651898
 10
6.862791
 20
11.698567
 10
6.862791
 20
11.741215
 10
6.862791
 20
11.779717
 10
6.862791
 20
11.813959
 10
6.862791
 20
11.843841
 10
6.862791
 20
11.869276
 10
6.862791
 20
11.890189
 10
6.862791
 20
11.906518
 10
6.862791
 20
11.918217
 10
6.862791
 20
11.925249
 10
6.862791
 20
11.927596
  0
LINE
  5
1838
100
AcDbEntity
  8
0
 62
     9
100
AcDbLine
 10
7.162791
 20
9.027596
 30
0.0
 11
7.562791
 21
9.027596
 31
0.0
  0
LWPOLYLINE
  5
1839
100
AcDbEntity
  8
0
100
AcDbPolyline
 90
       27
 70
     0
 43
0.0
 10
7.162791
 20
9.027596
 10
7.162791
 20
8.949104
 10
7.162791
 20
8.870898
 10
7.162791
 20
8.793264
 10
7.162791
 20
8.716485
 10
7.162791
 20
8.640842
 10
7.162791
 20
8.56661
 10
7.162791
 20
8.494059
 10
7.162791
 20
8.423456
 10
7.162791
 20
8.355057
 10
7.162791
 20
8.289112
 10
7.162791
 20
8.225861
 10
7.162791
 20
8.165536
 10
7.162791
 20
8.108357
 10
7.162791
 20
8.054532
 10
7.162791
 20
8.004257
 10
7.162791
 20
7.957717
 10
7.162791
 20
7.91508
 10
7.162791
 20
7.876503
 10
7.162791
 20
7.842126
 10
7.162791
 20
7.812075
 10
7.162791
 20
7.786459
 10
7.162791
 20
7.765371
 10
7.162791
 20
7.74889
 10
7.162791
 20
7.737074
 10
7.162791
 20
7.729968
 10
7.162791
 20
7.727596
  0
LWPOLYLINE
  5
1856
100
AcDbEntity
  8
0
100
AcDbPolyline
 90
       27
 70
     0
 43
0.0
 10
7.162791
 20
11.627596
 10
7.162791
 20
11.625224
 10
7.162791
 20
11.618117
 10
7.162791
 20
11.606302
 10
7.162791
 20
11.58982
 10
7.162791
 20
11.568733
 10
7.162791
 20
11.543117
 10
7.162791
 20
11.513066
 10
7.162791
 20
11.478689
 10
7.162791
 20
11.440112
 10
7.162791
 20
11.397475
 10
7.162791
 20
11.350934
 10
7.162791
 20
11.30066
 10
7.162791
 20
11.246835
 10
7.162791
 20
11.189655
 10
7.162791
 20
11.12933
 10
7.162791
 20
11.06608
 10
7.162791
 20
11.000135
 10
7.162791
 20
10.931736
 10
7.162791
 20
10.861133
 10
7.162791
 20
10.788582
 10
7.162791
 20
10.71435
 10
7.162791
 20
10.638706
 10
7.162791
 20
10.561927
 10
7.162791
 20
10.484294
 10
7.162791
 20
10.406088
 10
7.162791
 20
10.327596
  0
LINE
  5
1873
100
AcDbEntity
  8
0
 62
     9
100
AcDbLine
 10
3.829983
 20
8.174166
 30
0.0
 11
2.012791
 21
8.174166
 31
0.0
  0
ARC
  5
1874
100
AcDbEntity
  8
0
 62
     9
100
AcDbCircle
 10
2.012791
 20
9.027596
 30
0.0
 40
0.653461
100
AcDbArc
 50
180.0
 51
270.0
  0
LWPOLYLINE
  5
1875
100
AcDbEntity
  8
0
100
AcDbPolyline
 90
       30
 70
     0
 43
0.0
 10
5.762791
 20
10.327596
 10
5.762791
 20
10.414218
 10
5.762791
 20
10.500586
 10
5.762791
 20
10.586447
 10
5.762791
 20
10.671549
 10
5.762791
 20
10.755641
 10
5.762791
 20
10.838478
 10
5.762791
 20
10.919817
 10
5.762791
 20
10.999418
 10
5.762791
 20
11.077049
 10
5.762791
 20
11.152482
 10
5.762791
 20
11.225495
 10
5.762791
 20
11.295875
 10
5.762791
 20
11.363414
 10
5.762791
 20
11.427915
 10
5.762791
 20
11.489189
 10
5.762791
 20
11.547055
 10
5.762791
 20
11.601345
 10
5.762791
 20
11.651898
 10
5.762791
 20
11.698567
 10
5.762791
 20
11.741215
 10
5.762791
 20
11.779717
 10
5.762791
 20
11.813959
 10
5.762791
 20
11.843841
 10
5.762791
 20
11.869276
 10
5.762791
 20
11.890189
 10
5.762791
 20
11.906518
 10
5.762791
 20
11.918217
 10
5.762791
 20
11.925249
 10
5.762791
 20
11.927596
  0
LWPOLYLINE
  5
1895
100
AcDbEntity
  8
0
 62
     9
100
AcDbPolyline
 90
       18
 70
     0
 43
0.0
 10
2.012791
 20
8.374135
 10
2.012791
 20
8.355886
 10
2.012791
 20
8.337789
 10
2.012791
 20
8.319995
 10
2.012791
 20
8.302653
 10
2.012791
 20
8.285908
 10
2.012791
 20
8.269898
 10
2.012791
 20
8.254758
 10
2.012791
 20
8.240615
 10
2.012791
 20
8.227585
 10
2.012791
 20
8.215778
 10
2.012791
 20
8.205292
 10
2.012791
 20
8.196215
 10
2.012791
 20
8.188622
 10
2.012791
 20
8.182577
 10
2.012791
 20
8.17813
 10
2.012791
 20
8.175318
 10
2.012791
 20
8.174166
  0
ARC
  5
18A9
100
AcDbEntity
  8
0
 62
     9
100
AcDbCircle
 10
2.012791
 20
9.027596
 30
0.0
 40
0.85343
100
AcDbArc
 50
180.0
 51
270.0
  0
LINE
  5
18AA
100
AcDbEntity
  8
0
 62
     9
100
AcDbLine
 10
1.35933
 20
9.027596
 30
0.0
 11
1.35933
 21
10.327596
 31
0.0
  0
LINE
  5
18AB
100
AcDbEntity
  8
0
 62
     9
100
AcDbLine
 10
5.762791
 20
10.327596
 30
0.0
 11
6.062791
 21
10.327596
 31
0.0
  0
LINE
  5
18AC
100
AcDbEntity
  8
0
 62
     9
100
AcDbLine
 10
6.062791
 20
10.327596
 30
0.0
 11
6.462791
 21
10.327596
 31
0.0
  0
LINE
  5
18AD
100
AcDbEntity
  8
0
100
AcDbLine
 10
6.062791
 20
10.327596
 30
0.0
 11
6.062791
 21
9.027596
 31
0.0
  0
LINE
  5
18AE
100
AcDbEntity
  8
0
 62
     9
100
AcDbLine
 10
5.762791
 20
9.027596
 30
0.0
 11
6.062791
 21
9.027596
 31
0.0
  0
LINE
  5
18AF
100
AcDbEntity
  8
0
 62
     9
100
AcDbLine
 10
6.062791
 20
9.027596
 30
0.0
 11
6.462791
 21
9.027596
 31
0.0
  0
LWPOLYLINE
  5
18B0
100
AcDbEntity
  8
0
100
AcDbPolyline
 90
       27
 70
     0
 43
0.0
 10
6.062791
 20
9.027596
 10
6.062791
 20
8.949104
 10
6.062791
 20
8.870898
 10
6.062791
 20
8.793264
 10
6.062791
 20
8.716485
 10
6.062791
 20
8.640842
 10
6.062791
 20
8.56661
 10
6.062791
 20
8.494059
 10
6.062791
 20
8.423456
 10
6.062791
 20
8.355057
 10
6.062791
 20
8.289112
 10
6.062791
 20
8.225861
 10
6.062791
 20
8.165536
 10
6.062791
 20
8.108357
 10
6.062791
 20
8.054532
 10
6.062791
 20
8.004257
 10
6.062791
 20
7.957717
 10
6.062791
 20
7.91508
 10
6.062791
 20
7.876503
 10
6.062791
 20
7.842126
 10
6.062791
 20
7.812075
 10
6.062791
 20
7.786459
 10
6.062791
 20
7.765371
 10
6.062791
 20
7.74889
 10
6.062791
 20
7.737074
 10
6.062791
 20
7.729968
 10
6.062791
 20
7.727596
  0
LWPOLYLINE
  5
18CD
100
AcDbEntity
  8
0
 62
     9
100
AcDbPolyline
 90
       18
 70
     0
 43
0.0
 10
1.35933
 20
9.027596
 10
1.341081
 20
9.027596
 10
1.322984
 20
9.027596
 10
1.30519
 20
9.027596
 10
1.287848
 20
9.027596
 10
1.271103
 20
9.027596
 10
1.255093
 20
9.027596
 10
1.239953
 20
9.027596
 10
1.22581
 20
9.027596
 10
1.21278
 20
9.027596
 10
1.200973
 20
9.027596
 10
1.190487
 20
9.027596
 10
1.181409
 20
9.027596
 10
1.173817
 20
9.027596
 10
1.167772
 20
9.027596
 10
1.163325
 20
9.027596
 10
1.160513
 20
9.027596
 10
1.159361
 20
9.027596
  0
LINE
  5
18E1
100
AcDbEntity
  8
0
100
AcDbLine
 10
3.952773
 20
11.205524
 30
0.0
 11
3.952773
 21
11.927596
 31
0.0
  0
LINE
  5
18E2
100
AcDbEntity
  8
0
 62
     9
100
AcDbLine
 10
1.159361
 20
9.027596
 30
0.0
 11
1.159361
 21
10.327596
 31
0.0
  0
ARC
  5
18E3
100
AcDbEntity
  8
0
 62
     9
100
AcDbCircle
 10
2.012791
 20
10.327596
 30
0.0
 40
0.653461
100
AcDbArc
 50
90.0
 51
180.0
  0
LINE
  5
18E4
100
AcDbEntity
  8
0
100
AcDbLine
 10
3.952773
 20
7.427596
 30
0.0
 11
3.952773
 21
8.149668
 31
0.0
  0
LINE
  5
18E5
100
AcDbEntity
  8
0
100
AcDbLine
 10
3.952773
 20
8.149668
 30
0.0
 11
2.012791
 21
8.149668
 31
0.0
  0
ARC
  5
18E6
100
AcDbEntity
  8
0
100
AcDbCircle
 10
2.012791
 20
9.027596
 30
0.0
 40
0.877928
100
AcDbArc
 50
180.0
 51
270.0
  0
LINE
  5
18E7
100
AcDbEntity
  8
0
100
AcDbLine
 10
1.134863
 20
10.327596
 30
0.0
 11
1.134863
 21
9.027596
 31
0.0
  0
ARC
  5
18E8
100
AcDbEntity
  8
0
100
AcDbCircle
 10
2.012791
 20
10.327596
 30
0.0
 40
0.877928
100
AcDbArc
 50
90.0
 51
180.0
  0
LINE
  5
18E9
100
AcDbEntity
  8
0
100
AcDbLine
 10
3.952773
 20
11.205524
 30
0.0
 11
2.012791
 21
11.205524
 31
0.0
  0
LWPOLYLINE
  5
18EA
100
AcDbEntity
  8
0
 62
     9
100
AcDbPolyline
 90
       12
 70
     0
 43
0.0
 10
13.462791
 20
11.177596
 10
13.462791
 20
11.127514
 10
13.462791
 20
11.053881
 10
13.462791
 20
10.978248
 10
13.462791
 20
10.900831
 10
13.462791
 20
10.821861
 10
13.462791
 20
10.741546
 10
13.462791
 20
10.660058
 10
13.462791
 20
10.577613
 10
13.462791
 20
10.494511
 10
13.462791
 20
10.411067
 10
13.462791
 20
10.327596
  0
LWPOLYLINE
  5
18F8
100
AcDbEntity
  8
0
 62
     9
100
AcDbPolyline
 90
       21
 70
     0
 43
0.0
 10
13.462791
 20
11.927596
 10
13.462791
 20
11.925417
 10
13.462791
 20
11.918866
 10
13.462791
 20
11.907941
 10
13.462791
 20
11.892674
 10
13.462791
 20
11.87312
 10
13.462791
 20
11.849339
 10
13.462791
 20
11.821383
 10
13.462791
 20
11.789325
 10
13.462791
 20
11.753257
 10
13.462791
 20
11.713284
 10
13.462791
 20
11.669511
 10
13.462791
 20
11.622057
 10
13.462791
 20
11.571053
 10
13.462791
 20
11.51664
 10
13.462791
 20
11.458967
 10
13.462791
 20
11.398191
 10
13.462791
 20
11.334479
 10
13.462791
 20
11.268005
 10
13.462791
 20
11.198953
 10
13.462791
 20
11.177596
  0
LWPOLYLINE
  5
190F
100
AcDbEntity
  8
0
100
AcDbPolyline
 90
       27
 70
     0
 43
0.0
 10
4.962791
 20
11.627596
 10
4.962791
 20
11.625224
 10
4.962791
 20
11.618117
 10
4.962791
 20
11.606302
 10
4.962791
 20
11.58982
 10
4.962791
 20
11.568733
 10
4.962791
 20
11.543117
 10
4.962791
 20
11.513066
 10
4.962791
 20
11.478689
 10
4.962791
 20
11.440112
 10
4.962791
 20
11.397475
 10
4.962791
 20
11.350934
 10
4.962791
 20
11.30066
 10
4.962791
 20
11.246835
 10
4.962791
 20
11.189655
 10
4.962791
 20
11.12933
 10
4.962791
 20
11.06608
 10
4.962791
 20
11.000135
 10
4.962791
 20
10.931736
 10
4.962791
 20
10.861133
 10
4.962791
 20
10.788582
 10
4.962791
 20
10.71435
 10
4.962791
 20
10.638706
 10
4.962791
 20
10.561927
 10
4.962791
 20
10.484294
 10
4.962791
 20
10.406088
 10
4.962791
 20
10.327596
  0
LWPOLYLINE
  5
192C
100
AcDbEntity
  8
0
100
AcDbPolyline
 90
       30
 70
     0
 43
0.0
 10
4.662791
 20
10.327596
 10
4.662791
 20
10.414218
 10
4.662791
 20
10.500586
 10
4.662791
 20
10.586447
 10
4.662791
 20
10.671549
 10
4.662791
 20
10.755641
 10
4.662791
 20
10.838478
 10
4.662791
 20
10.919817
 10
4.662791
 20
10.999418
 10
4.662791
 20
11.077049
 10
4.662791
 20
11.152482
 10
4.662791
 20
11.225495
 10
4.662791
 20
11.295875
 10
4.662791
 20
11.363414
 10
4.662791
 20
11.427915
 10
4.662791
 20
11.489189
 10
4.662791
 20
11.547055
 10
4.662791
 20
11.601345
 10
4.662791
 20
11.651898
 10
4.662791
 20
11.698567
 10
4.662791
 20
11.741215
 10
4.662791
 20
11.779717
 10
4.662791
 20
11.813959
 10
4.662791
 20
11.843841
 10
4.662791
 20
11.869276
 10
4.662791
 20
11.890189
 10
4.662791
 20
11.906518
 10
4.662791
 20
11.918217
 10
4.662791
 20
11.925249
 10
4.662791
 20
11.927596
  0
LINE
  5
194C
100
AcDbEntity
  8
0
 62
     9
100
AcDbLine
 10
13.462791
 20
10.327596
 30
0.0
 11
7.562791
 21
10.327596
 31
0.0
  0
LINE
  5
194D
100
AcDbEntity
  8
0
100
AcDbLine
 10
3.952773
 20
8.149668
 30
0.0
 11
3.829983
 21
8.174166
 31
0.0
  0
LWPOLYLINE
  5
194E
100
AcDbEntity
  8
0
100
AcDbPolyline
 90
       30
 70
     0
 43
0.0
 10
4.158371
 20
9.027596
 10
4.158167
 20
8.941178
 10
4.157554
 20
8.855005
 10
4.156535
 20
8.769342
 10
4.155113
 20
8.684411
 10
4.153291
 20
8.600492
 10
4.151075
 20
8.517788
 10
4.148471
 20
8.436586
 10
4.145486
 20
8.357071
 10
4.142129
 20
8.279529
 10
4.138408
 20
8.204131
 10
4.134337
 20
8.131155
 10
4.129923
 20
8.060758
 10
4.125184
 20
7.993205
 10
4.120128
 20
7.928639
 10
4.114775
 20
7.867306
 10
4.109135
 20
7.809338
 10
4.10323
 20
7.754954
 10
4.097072
 20
7.704274
 10
4.090683
 20
7.657489
 10
4.084078
 20
7.614706
 10
4.077281
 20
7.576083
 10
4.070307
 20
7.541712
 10
4.063181
 20
7.511718
 10
4.05592
 20
7.486176
 10
4.048549
 20
7.465175
 10
4.041087
 20
7.448771
 10
4.033559
 20
7.437019
 10
4.025985
 20
7.429953
 10
4.018389
 20
7.427596
  0
LWPOLYLINE
  5
196E
100
AcDbEntity
  8
0
100
AcDbPolyline
 90
       30
 70
     0
 43
0.0
 10
4.018389
 20
11.927596
 10
4.025985
 20
11.925238
 10
4.033559
 20
11.918172
 10
4.041087
 20
11.906421
 10
4.048549
 20
11.890017
 10
4.05592
 20
11.869016
 10
4.063181
 20
11.843474
 10
4.070307
 20
11.813479
 10
4.077281
 20
11.779109
 10
4.084078
 20
11.740485
 10
4.090683
 20
11.697702
 10
4.097072
 20
11.650917
 10
4.10323
 20
11.600238
 10
4.109135
 20
11.545854
 10
4.114775
 20
11.487886
 10
4.120128
 20
11.426552
 10
4.125184
 20
11.361987
 10
4.129923
 20
11.294434
 10
4.134337
 20
11.224037
 10
4.138408
 20
11.151061
 10
4.142129
 20
11.075663
 10
4.145486
 20
10.998121
 10
4.148471
 20
10.918606
 10
4.151075
 20
10.837403
 10
4.153291
 20
10.7547
 10
4.155113
 20
10.670781
 10
4.156535
 20
10.58585
 10
4.157554
 20
10.500186
 10
4.158167
 20
10.414014
 10
4.158371
 20
10.327596
  0
LINE
  5
198E
100
AcDbEntity
  8
0
100
AcDbLine
 10
3.952773
 20
11.205524
 30
0.0
 11
3.829983
 21
11.181026
 31
0.0
  0
LINE
  5
198F
100
AcDbEntity
  8
0
100
AcDbLine
 10
4.158371
 20
10.327596
 30
0.0
 11
4.158371
 21
9.027596
 31
0.0
  0
LWPOLYLINE
  5
1990
100
AcDbEntity
  8
0
 62
     9
100
AcDbPolyline
 90
       18
 70
     0
 43
0.0
 10
1.35933
 20
10.327596
 10
1.341081
 20
10.327596
 10
1.322984
 20
10.327596
 10
1.30519
 20
10.327596
 10
1.287848
 20
10.327596
 10
1.271103
 20
10.327596
 10
1.255093
 20
10.327596
 10
1.239953
 20
10.327596
 10
1.22581
 20
10.327596
 10
1.21278
 20
10.327596
 10
1.200973
 20
10.327596
 10
1.190487
 20
10.327596
 10
1.181409
 20
10.327596
 10
1.173817
 20
10.327596
 10
1.167772
 20
10.327596
 10
1.163325
 20
10.327596
 10
1.160513
 20
10.327596
 10
1.159361
 20
10.327596
  0
LINE
  5
19A4
100
AcDbEntity
  8
0
 62
     9
100
AcDbLine
 10
13.462791
 20
9.027596
 30
0.0
 11
7.562791
 21
9.027596
 31
0.0
  0
LINE
  5
19A5
100
AcDbEntity
  8
0
100
AcDbLine
 10
14.576188
 20
10.970343
 30
0.0
 11
13.662791
 21
10.970343
 31
0.0
  0
LINE
  5
19A6
100
AcDbEntity
  8
0
 62
     9
100
AcDbLine
 10
4.662791
 20
10.327596
 30
0.0
 11
4.962791
 21
10.327596
 31
0.0
  0
LINE
  5
19A7
100
AcDbEntity
  8
0
 62
     9
100
AcDbLine
 10
4.962791
 20
10.327596
 30
0.0
 11
5.362791
 21
10.327596
 31
0.0
  0
LINE
  5
19A8
100
AcDbEntity
  8
0
100
AcDbLine
 10
4.962791
 20
10.327596
 30
0.0
 11
4.962791
 21
9.027596
 31
0.0
  0
LINE
  5
19A9
100
AcDbEntity
  8
0
 62
     9
100
AcDbLine
 10
4.662791
 20
9.027596
 30
0.0
 11
4.962791
 21
9.027596
 31
0.0
  0
LINE
  5
19AA
100
AcDbEntity
  8
0
100
AcDbLine
 10
14.576188
 20
8.384849
 30
0.0
 11
13.662791
 21
8.384849
 31
0.0
  0
LINE
  5
19AB
100
AcDbEntity
  8
0
 62
     9
100
AcDbLine
 10
4.662791
 20
10.327596
 30
0.0
 11
4.158371
 21
10.327596
 31
0.0
  0
LINE
  5
19AC
100
AcDbEntity
  8
0
 62
     9
100
AcDbLine
 10
4.662791
 20
9.027596
 30
0.0
 11
4.158371
 21
9.027596
 31
0.0
  0
LINE
  5
19AD
100
AcDbEntity
  8
0
 62
     9
100
AcDbLine
 10
5.762791
 20
10.327596
 30
0.0
 11
5.362791
 21
10.327596
 31
0.0
  0
ARC
  5
19AE
100
AcDbEntity
  8
0
 62
     9
100
AcDbCircle
 10
2.012791
 20
10.327596
 30
0.0
 40
0.85343
100
AcDbArc
 50
90.0
 51
180.0
  0
LINE
  5
19AF
100
AcDbEntity
  8
0
 62
     9
100
AcDbLine
 10
2.012791
 20
10.981056
 30
0.0
 11
3.812791
 21
10.981056
 31
0.0
  0
LINE
  5
19B0
100
AcDbEntity
  8
0
 62
     9
100
AcDbLine
 10
4.962791
 20
9.027596
 30
0.0
 11
5.362791
 21
9.027596
 31
0.0
  0
LWPOLYLINE
  5
19B1
100
AcDbEntity
  8
0
100
AcDbPolyline
 90
       27
 70
     0
 43
0.0
 10
4.962791
 20
9.027596
 10
4.962791
 20
8.949104
 10
4.962791
 20
8.870898
 10
4.962791
 20
8.793264
 10
4.962791
 20
8.716485
 10
4.962791
 20
8.640842
 10
4.962791
 20
8.56661
 10
4.962791
 20
8.494059
 10
4.962791
 20
8.423456
 10
4.962791
 20
8.355057
 10
4.962791
 20
8.289112
 10
4.962791
 20
8.225861
 10
4.962791
 20
8.165536
 10
4.962791
 20
8.108357
 10
4.962791
 20
8.054532
 10
4.962791
 20
8.004257
 10
4.962791
 20
7.957717
 10
4.962791
 20
7.91508
 10
4.962791
 20
7.876503
 10
4.962791
 20
7.842126
 10
4.962791
 20
7.812075
 10
4.962791
 20
7.786459
 10
4.962791
 20
7.765371
 10
4.962791
 20
7.74889
 10
4.962791
 20
7.737074
 10
4.962791
 20
7.729968
 10
4.962791
 20
7.727596
  0
LWPOLYLINE
  5
19CE
100
AcDbEntity
  8
0
 62
     9
100
AcDbPolyline
 90
       18
 70
     0
 43
0.0
 10
2.012791
 20
10.981056
 10
2.012791
 20
10.999306
 10
2.012791
 20
11.017403
 10
2.012791
 20
11.035196
 10
2.012791
 20
11.052538
 10
2.012791
 20
11.069284
 10
2.012791
 20
11.085293
 10
2.012791
 20
11.100433
 10
2.012791
 20
11.114577
 10
2.012791
 20
11.127607
 10
2.012791
 20
11.139414
 10
2.012791
 20
11.1499
 10
2.012791
 20
11.158977
 10
2.012791
 20
11.16657
 10
2.012791
 20
11.172615
 10
2.012791
 20
11.177062
 10
2.012791
 20
11.179873
 10
2.012791
 20
11.181026
  0
LINE
  5
19E2
100
AcDbEntity
  8
0
100
AcDbLine
 10
4.662791
 20
10.327596
 30
0.0
 11
4.662791
 21
9.027596
 31
0.0
  0
LINE
  5
19E3
100
AcDbEntity
  8
0
 62
     9
100
AcDbLine
 10
5.762791
 20
9.027596
 30
0.0
 11
5.362791
 21
9.027596
 31
0.0
  0
LINE
  5
19E4
100
AcDbEntity
  8
0
 62
     9
100
AcDbLine
 10
6.862791
 20
10.327596
 30
0.0
 11
6.462791
 21
10.327596
 31
0.0
  0
LINE
  5
19E5
100
AcDbEntity
  8
0
 62
     9
100
AcDbLine
 10
2.012791
 20
11.181026
 30
0.0
 11
3.829983
 21
11.181026
 31
0.0
  0
LWPOLYLINE
  5
19E6
100
AcDbEntity
  8
0
100
AcDbPolyline
 90
        4
 70
     0
 43
0.0
 10
3.829983
 20
11.181026
 10
3.828999
 20
11.180513
 10
3.82802
 20
11.179368
 10
3.827048
 20
11.177596
  0
LINE
  5
19EC
100
AcDbEntity
  8
0
 62
     9
100
AcDbLine
 10
2.012791
 20
11.205524
 30
0.0
 11
2.012791
 21
11.181026
 31
0.0
  0
LINE
  5
19ED
100
AcDbEntity
  8
0
 62
     9
100
AcDbLine
 10
1.134863
 20
10.327596
 30
0.0
 11
1.159361
 21
10.327596
 31
0.0
  0
LINE
  5
19EE
100
AcDbEntity
  8
0
 62
     9
100
AcDbLine
 10
1.134863
 20
9.027596
 30
0.0
 11
1.159361
 21
9.027596
 31
0.0
  0
LINE
  5
19EF
100
AcDbEntity
  8
0
 62
     9
100
AcDbLine
 10
2.012791
 20
8.149668
 30
0.0
 11
2.012791
 21
8.174166
 31
0.0
  0
LWPOLYLINE
  5
19F0
100
AcDbEntity
  8
0
100
AcDbPolyline
 90
        4
 70
     0
 43
0.0
 10
14.662791
 20
11.287592
 10
14.63167
 20
11.183033
 10
14.602805
 20
11.077243
 10
14.576188
 20
10.970343
  0
LINE
  5
19F6
100
AcDbEntity
  8
0
100
AcDbLine
 10
14.576188
 20
8.384849
 30
0.0
 11
14.576188
 21
10.970343
 31
0.0
  0
LWPOLYLINE
  5
19F7
100
AcDbEntity
  8
0
100
AcDbPolyline
 90
        4
 70
     0
 43
0.0
 10
14.662791
 20
8.0676
 10
14.63167
 20
8.172159
 10
14.602805
 20
8.277949
 10
14.576188
 20
8.384849
  0
LINE
  5
19FD
100
AcDbEntity
  8
0
 62
     9
100
AcDbLine
 10
6.862791
 20
9.027596
 30
0.0
 11
6.462791
 21
9.027596
 31
0.0
  0
LINE
  5
19FE
100
AcDbEntity
  8
0
100
AcDbLine
 10
5.762791
 20
10.327596
 30
0.0
 11
5.762791
 21
9.027596
 31
0.0
  0
LWPOLYLINE
  5
19FF
100
AcDbEntity
  8
0
100
AcDbPolyline
 90
       30
 70
     0
 43
0.0
 10
6.862791
 20
7.427596
 10
6.862791
 20
7.429942
 10
6.862791
 20
7.436975
 10
6.862791
 20
7.448673
 10
6.862791
 20
7.465003
 10
6.862791
 20
7.485916
 10
6.862791
 20
7.511351
 10
6.862791
 20
7.541233
 10
6.862791
 20
7.575475
 10
6.862791
 20
7.613977
 10
6.862791
 20
7.656624
 10
6.862791
 20
7.703293
 10
6.862791
 20
7.753847
 10
6.862791
 20
7.808137
 10
6.862791
 20
7.866003
 10
6.862791
 20
7.927277
 10
6.862791
 20
7.991778
 10
6.862791
 20
8.059317
 10
6.862791
 20
8.129697
 10
6.862791
 20
8.20271
 10
6.862791
 20
8.278142
 10
6.862791
 20
8.355773
 10
6.862791
 20
8.435375
 10
6.862791
 20
8.516713
 10
6.862791
 20
8.599551
 10
6.862791
 20
8.683643
 10
6.862791
 20
8.768745
 10
6.862791
 20
8.854605
 10
6.862791
 20
8.940974
 10
6.862791
 20
9.027596
  0
LWPOLYLINE
  5
1A1F
100
AcDbEntity
  8
0
100
AcDbPolyline
 90
       27
 70
     0
 43
0.0
 10
6.062791
 20
11.627596
 10
6.062791
 20
11.625224
 10
6.062791
 20
11.618117
 10
6.062791
 20
11.606302
 10
6.062791
 20
11.58982
 10
6.062791
 20
11.568733
 10
6.062791
 20
11.543117
 10
6.062791
 20
11.513066
 10
6.062791
 20
11.478689
 10
6.062791
 20
11.440112
 10
6.062791
 20
11.397475
 10
6.062791
 20
11.350934
 10
6.062791
 20
11.30066
 10
6.062791
 20
11.246835
 10
6.062791
 20
11.189655
 10
6.062791
 20
11.12933
 10
6.062791
 20
11.06608
 10
6.062791
 20
11.000135
 10
6.062791
 20
10.931736
 10
6.062791
 20
10.861133
 10
6.062791
 20
10.788582
 10
6.062791
 20
10.71435
 10
6.062791
 20
10.638706
 10
6.062791
 20
10.561927
 10
6.062791
 20
10.484294
 10
6.062791
 20
10.406088
 10
6.062791
 20
10.327596
  0
LWPOLYLINE
  5
1A3C
100
AcDbEntity
  8
0
 62
     9
100
AcDbPolyline
 90
       21
 70
     0
 43
0.0
 10
13.462791
 20
8.177596
 10
13.462791
 20
8.156239
 10
13.462791
 20
8.087187
 10
13.462791
 20
8.020713
 10
13.462791
 20
7.957001
 10
13.462791
 20
7.896225
 10
13.462791
 20
7.838552
 10
13.462791
 20
7.784138
 10
13.462791
 20
7.733134
 10
13.462791
 20
7.685681
 10
13.462791
 20
7.641908
 10
13.462791
 20
7.601934
 10
13.462791
 20
7.565867
 10
13.462791
 20
7.533808
 10
13.462791
 20
7.505853
 10
13.462791
 20
7.482072
 10
13.462791
 20
7.462518
 10
13.462791
 20
7.447251
 10
13.462791
 20
7.436326
 10
13.462791
 20
7.429775
 10
13.462791
 20
7.427596
  0
LWPOLYLINE
  5
1A53
100
AcDbEntity
  8
0
 62
     9
100
AcDbPolyline
 90
       12
 70
     0
 43
0.0
 10
13.462791
 20
9.027596
 10
13.462791
 20
8.944125
 10
13.462791
 20
8.86068
 10
13.462791
 20
8.777579
 10
13.462791
 20
8.695133
 10
13.462791
 20
8.613645
 10
13.462791
 20
8.53333
 10
13.462791
 20
8.454361
 10
13.462791
 20
8.376944
 10
13.462791
 20
8.301311
 10
13.462791
 20
8.227678
 10
13.462791
 20
8.177596
  0
LWPOLYLINE
  5
1A61
100
AcDbEntity
  8
0
100
AcDbPolyline
 90
       30
 70
     0
 43
0.0
 10
4.662791
 20
7.427596
 10
4.662791
 20
7.429942
 10
4.662791
 20
7.436975
 10
4.662791
 20
7.448673
 10
4.662791
 20
7.465003
 10
4.662791
 20
7.485916
 10
4.662791
 20
7.511351
 10
4.662791
 20
7.541233
 10
4.662791
 20
7.575475
 10
4.662791
 20
7.613977
 10
4.662791
 20
7.656624
 10
4.662791
 20
7.703293
 10
4.662791
 20
7.753847
 10
4.662791
 20
7.808137
 10
4.662791
 20
7.866003
 10
4.662791
 20
7.927277
 10
4.662791
 20
7.991778
 10
4.662791
 20
8.059317
 10
4.662791
 20
8.129697
 10
4.662791
 20
8.20271
 10
4.662791
 20
8.278142
 10
4.662791
 20
8.355773
 10
4.662791
 20
8.435375
 10
4.662791
 20
8.516713
 10
4.662791
 20
8.599551
 10
4.662791
 20
8.683643
 10
4.662791
 20
8.768745
 10
4.662791
 20
8.854605
 10
4.662791
 20
8.940974
 10
4.662791
 20
9.027596
  0
LWPOLYLINE
  5
1A81
100
AcDbEntity
  8
0
 62
     9
100
AcDbPolyline
 90
       18
 70
     0
 43
0.0
 10
13.462791
 20
9.027596
 10
13.481244
 20
9.027596
 10
13.499541
 20
9.027596
 10
13.517523
 20
9.027596
 10
13.535039
 20
9.027596
 10
13.551938
 20
9.027596
 10
13.568077
 20
9.027596
 10
13.583318
 20
9.027596
 10
13.59753
 20
9.027596
 10
13.610592
 20
9.027596
 10
13.622394
 20
9.027596
 10
13.632834
 20
9.027596
 10
13.641823
 20
9.027596
 10
13.649285
 20
9.027596
 10
13.655156
 20
9.027596
 10
13.659385
 20
9.027596
 10
13.661938
 20
9.027596
 10
13.662791
 20
9.027596
  0
LINE
  5
1A95
100
AcDbEntity
  8
0
 62
     9
100
AcDbLine
 10
13.462791
 20
10.327596
 30
0.0
 11
13.462791
 21
9.027596
 31
0.0
  0
LWPOLYLINE
  5
1A96
100
AcDbEntity
  8
0
100
AcDbPolyline
 90
       30
 70
     0
 43
0.0
 10
5.762791
 20
7.427596
 10
5.762791
 20
7.429942
 10
5.762791
 20
7.436975
 10
5.762791
 20
7.448673
 10
5.762791
 20
7.465003
 10
5.762791
 20
7.485916
 10
5.762791
 20
7.511351
 10
5.762791
 20
7.541233
 10
5.762791
 20
7.575475
 10
5.762791
 20
7.613977
 10
5.762791
 20
7.656624
 10
5.762791
 20
7.703293
 10
5.762791
 20
7.753847
 10
5.762791
 20
7.808137
 10
5.762791
 20
7.866003
 10
5.762791
 20
7.927277
 10
5.762791
 20
7.991778
 10
5.762791
 20
8.059317
 10
5.762791
 20
8.129697
 10
5.762791
 20
8.20271
 10
5.762791
 20
8.278142
 10
5.762791
 20
8.355773
 10
5.762791
 20
8.435375
 10
5.762791
 20
8.516713
 10
5.762791
 20
8.599551
 10
5.762791
 20
8.683643
 10
5.762791
 20
8.768745
 10
5.762791
 20
8.854605
 10
5.762791
 20
8.940974
 10
5.762791
 20
9.027596
  0
LINE
  5
1AB6
100
AcDbEntity
  8
0
 62
     9
100
AcDbLine
 10
2.732122
 20
8.374135
 30
0.0
 11
2.012791
 21
8.374135
 31
0.0
  0
LINE
  5
1AB7
100
AcDbEntity
  8
0
100
AcDbLine
 10
6.862791
 20
10.327596
 30
0.0
 11
6.862791
 21
9.027596
 31
0.0
  0
LINE
  5
1AB8
100
AcDbEntity
  8
0
100
AcDbLine
 10
7.162791
 20
11.627596
 30
0.0
 11
7.562791
 21
11.627596
 31
0.0
  0
LINE
  5
1AB9
100
AcDbEntity
  8
0
100
AcDbLine
 10
6.862791
 20
11.927596
 30
0.0
 11
7.162791
 21
11.627596
 31
0.0
  0
LINE
  5
1ABA
100
AcDbEntity
  8
0
100
AcDbLine
 10
6.862791
 20
7.427596
 30
0.0
 11
7.162791
 21
7.727596
 31
0.0
  0
LINE
  5
1ABB
100
AcDbEntity
  8
0
100
AcDbLine
 10
7.162791
 20
7.727596
 30
0.0
 11
7.562791
 21
7.727596
 31
0.0
  0
LINE
  5
1ABC
100
AcDbEntity
  8
0
100
AcDbLine
 10
6.462791
 20
11.627596
 30
0.0
 11
6.462791
 21
11.927596
 31
0.0
  0
LINE
  5
1ABD
100
AcDbEntity
  8
0
100
AcDbLine
 10
6.462791
 20
10.327596
 30
0.0
 11
6.462791
 21
11.627596
 31
0.0
  0
LINE
  5
1ABE
100
AcDbEntity
  8
0
100
AcDbLine
 10
5.762791
 20
11.927596
 30
0.0
 11
6.062791
 21
11.627596
 31
0.0
  0
LINE
  5
1ABF
100
AcDbEntity
  8
0
100
AcDbLine
 10
6.062791
 20
11.627596
 30
0.0
 11
6.462791
 21
11.627596
 31
0.0
  0
LINE
  5
1AC0
100
AcDbEntity
  8
0
100
AcDbLine
 10
7.562791
 20
11.627596
 30
0.0
 11
7.562791
 21
11.927596
 31
0.0
  0
LINE
  5
1AC1
100
AcDbEntity
  8
0
100
AcDbLine
 10
7.562791
 20
10.327596
 30
0.0
 11
7.562791
 21
11.627596
 31
0.0
  0
LINE
  5
1AC2
100
AcDbEntity
  8
0
100
AcDbLine
 10
5.762791
 20
7.427596
 30
0.0
 11
6.062791
 21
7.727596
 31
0.0
  0
ARC
  5
1AC3
100
AcDbEntity
  8
0
100
AcDbCircle
 10
2.012791
 20
10.327596
 30
0.0
 40
1.6
100
AcDbArc
 50
90.0
 51
180.0
  0
ARC
  5
1AC4
100
AcDbEntity
  8
0
100
AcDbCircle
 10
2.012791
 20
9.027596
 30
0.0
 40
1.6
100
AcDbArc
 50
180.0
 51
270.0
  0
LINE
  5
1AC5
100
AcDbEntity
  8
0
100
AcDbLine
 10
6.062791
 20
7.727596
 30
0.0
 11
6.462791
 21
7.727596
 31
0.0
  0
LINE
  5
1AC6
100
AcDbEntity
  8
0
100
AcDbLine
 10
5.362791
 20
11.627596
 30
0.0
 11
5.362791
 21
11.927596
 31
0.0
  0
LINE
  5
1AC7
100
AcDbEntity
  8
0
100
AcDbLine
 10
5.362791
 20
10.327596
 30
0.0
 11
5.362791
 21
11.627596
 31
0.0
  0
LINE
  5
1AC8
100
AcDbEntity
  8
0
100
AcDbLine
 10
4.662791
 20
11.927596
 30
0.0
 11
4.962791
 21
11.627596
 31
0.0
  0
LINE
  5
1AC9
100
AcDbEntity
  8
0
100
AcDbLine
 10
4.018389
 20
11.177596
 30
0.0
 11
3.827048
 21
11.177596
 31
0.0
  0
LWPOLYLINE
  5
1ACA
100
AcDbEntity
  8
0
100
AcDbPolyline
 90
       26
 70
     0
 43
0.0
 10
4.092754
 20
10.327596
 10
4.092608
 20
10.380842
 10
4.092171
 20
10.433886
 10
4.091443
 20
10.486506
 10
4.090428
 20
10.538521
 10
4.089131
 20
10.589698
 10
4.087554
 20
10.639872
 10
4.085706
 20
10.688807
 10
4.083591
 20
10.736354
 10
4.08122
 20
10.78228
 10
4.0786
 20
10.826451
 10
4.075744
 20
10.868644
 10
4.072658
 20
10.908739
 10
4.06936
 20
10.946531
 10
4.065857
 20
10.98191
 10
4.062168
 20
11.014697
 10
4.058302
 20
11.044793
 10
4.05428
 20
11.072046
 10
4.050113
 20
11.096373
 10
4.045821
 20
11.117652
 10
4.041418
 20
11.135813
 10
4.036924
 20
11.150771
 10
4.032355
 20
11.162471
 10
4.027731
 20
11.170862
 10
4.023069
 20
11.175911
 10
4.018389
 20
11.177596
  0
LINE
  5
1AE6
100
AcDbEntity
  8
0
100
AcDbLine
 10
4.962791
 20
11.627596
 30
0.0
 11
5.362791
 21
11.627596
 31
0.0
  0
LINE
  5
1AE7
100
AcDbEntity
  8
0
100
AcDbLine
 10
3.827048
 20
8.177596
 30
0.0
 11
4.018389
 21
8.177596
 31
0.0
  0
LINE
  5
1AE8
100
AcDbEntity
  8
0
100
AcDbLine
 10
4.662791
 20
7.427596
 30
0.0
 11
4.962791
 21
7.727596
 31
0.0
  0
LINE
  5
1AE9
100
AcDbEntity
  8
0
100
AcDbLine
 10
4.962791
 20
7.727596
 30
0.0
 11
5.362791
 21
7.727596
 31
0.0
  0
LINE
  5
1AEA
100
AcDbEntity
  8
0
100
AcDbLine
 10
8.662791
 20
11.677596
 30
0.0
 11
8.662791
 21
11.927596
 31
0.0
  0
LINE
  5
1AEB
100
AcDbEntity
  8
0
100
AcDbLine
 10
10.662791
 20
11.677596
 30
0.0
 11
8.662791
 21
11.677596
 31
0.0
  0
LINE
  5
1AEC
100
AcDbEntity
  8
0
100
AcDbLine
 10
10.662791
 20
11.677596
 30
0.0
 11
10.662791
 21
11.927596
 31
0.0
  0
LINE
  5
1AED
100
AcDbEntity
  8
0
100
AcDbLine
 10
14.662791
 20
11.215077
 30
0.0
 11
14.662791
 21
11.287592
 31
0.0
  0
LINE
  5
1AEE
100
AcDbEntity
  8
0
100
AcDbLine
 10
14.662791
 20
8.0676
 30
0.0
 11
14.662791
 21
8.140115
 31
0.0
  0
LWPOLYLINE
  5
1AEF
100
AcDbEntity
  8
0
100
AcDbPolyline
 90
       14
 70
     0
 43
0.0
 10
3.81329
 20
8.327596
 10
3.813455
 20
8.319564
 10
3.813966
 20
8.30208
 10
3.814615
 20
8.285221
 10
3.815398
 20
8.269092
 10
3.816308
 20
8.253871
 10
3.817338
 20
8.239647
 10
3.818477
 20
8.22658
 10
3.819719
 20
8.21475
 10
3.82105
 20
8.204287
 10
3.822461
 20
8.195261
 10
3.823939
 20
8.187766
 10
3.825473
 20
8.181859
 10
3.827048
 20
8.177596
  0
LINE
  5
1AFF
100
AcDbEntity
  8
0
100
AcDbLine
 10
14.662791
 20
12.327596
 30
0.0
 11
13.662791
 21
12.327596
 31
0.0
  0
LINE
  5
1B00
100
AcDbEntity
  8
0
100
AcDbLine
 10
14.662791
 20
7.027596
 30
0.0
 11
13.662791
 21
7.027596
 31
0.0
  0
LINE
  5
1B01
100
AcDbEntity
  8
0
100
AcDbLine
 10
13.662791
 20
7.027596
 30
0.0
 11
13.662791
 21
8.384849
 31
0.0
  0
LINE
  5
1B02
100
AcDbEntity
  8
0
100
AcDbLine
 10
13.662791
 20
8.384849
 30
0.0
 11
13.662791
 21
10.970343
 31
0.0
  0
LINE
  5
1B03
100
AcDbEntity
  8
0
100
AcDbLine
 10
13.662791
 20
10.970343
 30
0.0
 11
13.662791
 21
12.327596
 31
0.0
  0
LWPOLYLINE
  5
1B04
100
AcDbEntity
  8
0
100
AcDbPolyline
 90
       16
 70
     0
 43
0.0
 10
3.827048
 20
11.177596
 10
3.825473
 20
11.173333
 10
3.823939
 20
11.167426
 10
3.822461
 20
11.159931
 10
3.82105
 20
11.150905
 10
3.819719
 20
11.140442
 10
3.818477
 20
11.128612
 10
3.817338
 20
11.115545
 10
3.816308
 20
11.101321
 10
3.815398
 20
11.086099
 10
3.814615
 20
11.069971
 10
3.813966
 20
11.053112
 10
3.813455
 20
11.035628
 10
3.813087
 20
11.0177
 10
3.812865
 20
10.999452
 10
3.812791
 20
10.981056
  0
LINE
  5
1B16
100
AcDbEntity
  8
0
100
AcDbLine
 10
14.662791
 20
11.287592
 30
0.0
 11
14.662791
 21
12.327596
 31
0.0
  0
LINE
  5
1B17
100
AcDbEntity
  8
0
100
AcDbLine
 10
14.662791
 20
7.027596
 30
0.0
 11
14.662791
 21
8.0676
 31
0.0
  0
ARC
  5
1B18
100
AcDbEntity
  8
0
100
AcDbCircle
 10
13.462791
 20
7.227596
 30
0.0
 40
0.2
100
AcDbArc
 50
5.294117
 51
84.705882
  0
ARC
  5
1B19
100
AcDbEntity
  8
0
100
AcDbCircle
 10
13.462791
 20
7.227596
 30
0.0
 40
0.2
100
AcDbArc
 50
84.705882
 51
90.0
  0
LINE
  5
1B1A
100
AcDbEntity
  8
0
100
AcDbLine
 10
3.812791
 20
10.981056
 30
0.0
 11
3.812791
 21
10.827596
 31
0.0
  0
LINE
  5
1B1B
100
AcDbEntity
  8
0
100
AcDbLine
 10
4.092754
 20
10.327596
 30
0.0
 11
4.092754
 21
9.027596
 31
0.0
  0
LINE
  5
1B1C
100
AcDbEntity
  8
0
100
AcDbLine
 10
13.462791
 20
7.427596
 30
0.0
 11
7.562791
 21
7.427596
 31
0.0
  0
LINE
  5
1B1D
100
AcDbEntity
  8
0
100
AcDbLine
 10
7.562791
 20
7.727596
 30
0.0
 11
7.562791
 21
9.027596
 31
0.0
  0
LINE
  5
1B1E
100
AcDbEntity
  8
0
100
AcDbLine
 10
7.562791
 20
7.427596
 30
0.0
 11
7.562791
 21
7.727596
 31
0.0
  0
LINE
  5
1B1F
100
AcDbEntity
  8
0
100
AcDbLine
 10
13.462791
 20
7.427596
 30
0.0
 11
7.562791
 21
7.427596
 31
0.0
  0
LINE
  5
1B20
100
AcDbEntity
  8
0
100
AcDbLine
 10
4.662791
 20
7.427596
 30
0.0
 11
4.018389
 21
7.427596
 31
0.0
  0
LINE
  5
1B21
100
AcDbEntity
  8
0
100
AcDbLine
 10
5.762791
 20
7.427596
 30
0.0
 11
5.362791
 21
7.427596
 31
0.0
  0
LINE
  5
1B22
100
AcDbEntity
  8
0
100
AcDbLine
 10
6.862791
 20
7.427596
 30
0.0
 11
6.462791
 21
7.427596
 31
0.0
  0
LINE
  5
1B23
100
AcDbEntity
  8
0
100
AcDbLine
 10
6.862791
 20
7.427596
 30
0.0
 11
6.462791
 21
7.427596
 31
0.0
  0
LINE
  5
1B24
100
AcDbEntity
  8
0
100
AcDbLine
 10
6.462791
 20
7.727596
 30
0.0
 11
6.462791
 21
9.027596
 31
0.0
  0
LINE
  5
1B25
100
AcDbEntity
  8
0
100
AcDbLine
 10
6.462791
 20
7.427596
 30
0.0
 11
6.462791
 21
7.727596
 31
0.0
  0
LINE
  5
1B26
100
AcDbEntity
  8
0
100
AcDbLine
 10
5.762791
 20
7.427596
 30
0.0
 11
5.362791
 21
7.427596
 31
0.0
  0
LINE
  5
1B27
100
AcDbEntity
  8
0
100
AcDbLine
 10
5.362791
 20
7.727596
 30
0.0
 11
5.362791
 21
9.027596
 31
0.0
  0
LINE
  5
1B28
100
AcDbEntity
  8
0
100
AcDbLine
 10
5.362791
 20
7.427596
 30
0.0
 11
5.362791
 21
7.727596
 31
0.0
  0
LINE
  5
1B29
100
AcDbEntity
  8
0
100
AcDbLine
 10
13.462791
 20
11.927596
 30
0.0
 11
10.662791
 21
11.927596
 31
0.0
  0
LINE
  5
1B2A
100
AcDbEntity
  8
0
100
AcDbLine
 10
8.662791
 20
11.927596
 30
0.0
 11
7.562791
 21
11.927596
 31
0.0
  0
LINE
  5
1B2B
100
AcDbEntity
  8
0
100
AcDbLine
 10
4.662791
 20
11.927596
 30
0.0
 11
4.018389
 21
11.927596
 31
0.0
  0
LINE
  5
1B2C
100
AcDbEntity
  8
0
100
AcDbLine
 10
5.762791
 20
11.927596
 30
0.0
 11
5.362791
 21
11.927596
 31
0.0
  0
LINE
  5
1B2D
100
AcDbEntity
  8
0
100
AcDbLine
 10
6.862791
 20
11.927596
 30
0.0
 11
6.462791
 21
11.927596
 31
0.0
  0
LINE
  5
1B2E
100
AcDbEntity
  8
0
100
AcDbLine
 10
4.662791
 20
7.427596
 30
0.0
 11
4.018389
 21
7.427596
 31
0.0
  0
LWPOLYLINE
  5
1B2F
100
AcDbEntity
  8
0
100
AcDbPolyline
 90
       26
 70
     0
 43
0.0
 10
4.018389
 20
8.177596
 10
4.023069
 20
8.179281
 10
4.027731
 20
8.18433
 10
4.032355
 20
8.19272
 10
4.036924
 20
8.204421
 10
4.041418
 20
8.219378
 10
4.045821
 20
8.23754
 10
4.050113
 20
8.258819
 10
4.05428
 20
8.283145
 10
4.058302
 20
8.310399
 10
4.062168
 20
8.340495
 10
4.065857
 20
8.373281
 10
4.06936
 20
8.408661
 10
4.072658
 20
8.446453
 10
4.075744
 20
8.486548
 10
4.0786
 20
8.528741
 10
4.08122
 20
8.572912
 10
4.083591
 20
8.618838
 10
4.085706
 20
8.666385
 10
4.087554
 20
8.715319
 10
4.089131
 20
8.765494
 10
4.090428
 20
8.81667
 10
4.091443
 20
8.868685
 10
4.092171
 20
8.921306
 10
4.092608
 20
8.97435
 10
4.092754
 20
9.027596
  0
LINE
  5
1B4B
100
AcDbEntity
  8
0
100
AcDbLine
 10
4.018389
 20
7.427596
 30
0.0
 11
3.952773
 21
7.427596
 31
0.0
  0
LINE
  5
1B4C
100
AcDbEntity
  8
0
100
AcDbLine
 10
2.012791
 20
7.427596
 30
0.0
 11
3.952773
 21
7.427596
 31
0.0
  0
LINE
  5
1B4D
100
AcDbEntity
  8
0
100
AcDbLine
 10
6.862791
 20
11.927596
 30
0.0
 11
7.162791
 21
11.627596
 31
0.0
  0
LINE
  5
1B4E
100
AcDbEntity
  8
0
100
AcDbLine
 10
7.162791
 20
11.627596
 30
0.0
 11
7.562791
 21
11.627596
 31
0.0
  0
LINE
  5
1B4F
100
AcDbEntity
  8
0
100
AcDbLine
 10
7.562791
 20
10.327596
 30
0.0
 11
7.562791
 21
9.027596
 31
0.0
  0
LINE
  5
1B50
100
AcDbEntity
  8
0
100
AcDbLine
 10
5.362791
 20
10.327596
 30
0.0
 11
5.362791
 21
9.027596
 31
0.0
  0
LINE
  5
1B51
100
AcDbEntity
  8
0
100
AcDbLine
 10
6.462791
 20
10.327596
 30
0.0
 11
6.462791
 21
9.027596
 31
0.0
  0
LINE
  5
1B52
100
AcDbEntity
  8
0
100
AcDbLine
 10
5.762791
 20
11.927596
 30
0.0
 11
6.062791
 21
11.627596
 31
0.0
  0
LINE
  5
1B53
100
AcDbEntity
  8
0
100
AcDbLine
 10
6.062791
 20
11.627596
 30
0.0
 11
6.462791
 21
11.627596
 31
0.0
  0
LINE
  5
1B54
100
AcDbEntity
  8
0
100
AcDbLine
 10
4.662791
 20
11.927596
 30
0.0
 11
4.962791
 21
11.627596
 31
0.0
  0
LINE
  5
1B55
100
AcDbEntity
  8
0
100
AcDbLine
 10
4.962791
 20
11.627596
 30
0.0
 11
5.362791
 21
11.627596
 31
0.0
  0
ARC
  5
1B56
100
AcDbEntity
  8
0
100
AcDbCircle
 10
13.462791
 20
7.227596
 30
0.0
 40
0.2
100
AcDbArc
 50
5.294117
 51
84.705882
  0
ARC
  5
1B57
100
AcDbEntity
  8
0
100
AcDbCircle
 10
13.462791
 20
7.227596
 30
0.0
 40
0.2
100
AcDbArc
 50
84.705882
 51
90.0
  0
LINE
  5
1B58
100
AcDbEntity
  8
0
100
AcDbLine
 10
2.012791
 20
11.927596
 30
0.0
 11
3.952773
 21
11.927596
 31
0.0
  0
LINE
  5
1B59
100
AcDbEntity
  8
0
100
AcDbLine
 10
4.018389
 20
11.927596
 30
0.0
 11
3.952773
 21
11.927596
 31
0.0
  0
ARC
  5
1B5A
100
AcDbEntity
  8
0
100
AcDbCircle
 10
13.462791
 20
12.127596
 30
0.0
 40
0.2
100
AcDbArc
 50
270.0
 51
0.0
  0
ARC
  5
1B5B
100
AcDbEntity
  8
0
100
AcDbCircle
 10
13.462791
 20
12.127596
 30
0.0
 40
0.2
100
AcDbArc
 50
270.0
 51
0.0
  0
LINE
  5
1B5C
100
AcDbEntity
  8
0
100
AcDbLine
 10
0.412791
 20
10.327596
 30
0.0
 11
0.412791
 21
9.027596
 31
0.0
  0
LWPOLYLINE
  5
1B5D
100
AcDbEntity
  8
0
 62
     9
100
AcDbPolyline
 90
        6
 70
     0
 43
0.0
 10
19.812791
 20
17.459685
 10
19.818108
 20
17.506243
 10
19.859682
 20
17.593743
 10
19.937815
 20
17.665073
 10
20.043084
 20
17.711631
 10
20.162791
 20
17.7278
  0
LWPOLYLINE
  5
1B65
100
AcDbEntity
  8
0
 62
     9
100
AcDbPolyline
 90
        6
 70
     0
 43
0.0
 10
20.162791
 20
4.524847
 10
20.282498
 20
4.524847
 10
20.387766
 20
4.524847
 10
20.4659
 20
4.524847
 10
20.507473
 20
4.524847
 10
20.512791
 20
4.524847
  0
LWPOLYLINE
  5
1B6D
100
AcDbEntity
  8
0
 62
     9
100
AcDbPolyline
 90
        6
 70
     0
 43
0.0
 10
19.812791
 20
16.456936
 10
19.818108
 20
16.503494
 10
19.859682
 20
16.590994
 10
19.937815
 20
16.662325
 10
20.043084
 20
16.708882
 10
20.162791
 20
16.725052
  0
LWPOLYLINE
  5
1B75
100
AcDbEntity
  8
0
 62
     9
100
AcDbPolyline
 90
        6
 70
     0
 43
0.0
 10
20.162791
 20
2.863146
 10
20.282498
 20
2.878072
 10
20.387766
 20
2.921047
 10
20.4659
 20
2.98689
 10
20.507473
 20
3.067658
 10
20.512791
 20
3.110634
  0
LWPOLYLINE
  5
1B7D
100
AcDbEntity
  8
0
 62
     9
100
AcDbPolyline
 90
        6
 70
     0
 43
0.0
 10
19.812791
 20
14.924847
 10
19.818108
 20
14.924847
 10
19.859682
 20
14.924847
 10
19.937815
 20
14.924847
 10
20.043084
 20
14.924847
 10
20.162791
 20
14.924847
  0
LWPOLYLINE
  5
1B85
100
AcDbEntity
  8
0
 62
     9
100
AcDbPolyline
 90
        6
 70
     0
 43
0.0
 10
20.162791
 20
17.7278
 10
20.282498
 20
17.711631
 10
20.387766
 20
17.665073
 10
20.4659
 20
17.593743
 10
20.507473
 20
17.506243
 10
20.512791
 20
17.459685
  0
LWPOLYLINE
  5
1B8D
100
AcDbEntity
  8
0
 62
     9
100
AcDbPolyline
 90
        6
 70
     0
 43
0.0
 10
19.812791
 20
4.524847
 10
19.818108
 20
4.524847
 10
19.859682
 20
4.524847
 10
19.937815
 20
4.524847
 10
20.043084
 20
4.524847
 10
20.162791
 20
4.524847
  0
LWPOLYLINE
  5
1B95
100
AcDbEntity
  8
0
 62
     9
100
AcDbPolyline
 90
        6
 70
     0
 43
0.0
 10
20.162791
 20
16.725052
 10
20.282498
 20
16.708882
 10
20.387766
 20
16.662325
 10
20.4659
 20
16.590994
 10
20.507473
 20
16.503494
 10
20.512791
 20
16.456936
  0
LWPOLYLINE
  5
1B9D
100
AcDbEntity
  8
0
 62
     9
100
AcDbPolyline
 90
        6
 70
     0
 43
0.0
 10
19.812791
 20
3.110634
 10
19.818108
 20
3.067658
 10
19.859682
 20
2.98689
 10
19.937815
 20
2.921047
 10
20.043084
 20
2.878072
 10
20.162791
 20
2.863146
  0
LWPOLYLINE
  5
1BA5
100
AcDbEntity
  8
0
 62
     9
100
AcDbPolyline
 90
        6
 70
     0
 43
0.0
 10
20.162791
 20
14.924847
 10
20.282498
 20
14.924847
 10
20.387766
 20
14.924847
 10
20.4659
 20
14.924847
 10
20.507473
 20
14.924847
 10
20.512791
 20
14.924847
  0
LINE
  5
1BAD
100
AcDbEntity
  8
0
100
AcDbLine
 10
20.512791
 20
16.456936
 30
0.0
 11
20.512791
 21
17.459685
 31
0.0
  0
LINE
  5
1BAE
100
AcDbEntity
  8
0
100
AcDbLine
 10
19.812791
 20
17.459685
 30
0.0
 11
19.812791
 21
17.918958
 31
0.0
  0
LINE
  5
1BAF
100
AcDbEntity
  8
0
100
AcDbLine
 10
19.812791
 20
16.456936
 30
0.0
 11
19.812791
 21
17.459685
 31
0.0
  0
ARC
  5
1BB0
100
AcDbEntity
  8
0
100
AcDbCircle
 10
20.162791
 20
17.927596
 30
0.0
 40
0.35
100
AcDbArc
 50
90.0
 51
180.0
  0
ARC
  5
1BB1
100
AcDbEntity
  8
0
100
AcDbCircle
 10
20.162791
 20
17.927596
 30
0.0
 40
0.35
100
AcDbArc
 50
90.0
 51
180.0
  0
LINE
  5
1BB2
100
AcDbEntity
  8
0
100
AcDbLine
 10
20.512791
 20
16.456936
 30
0.0
 11
20.512791
 21
14.924847
 31
0.0
  0
LINE
  5
1BB3
100
AcDbEntity
  8
0
100
AcDbLine
 10
19.812791
 20
15.277708
 30
0.0
 11
19.812791
 21
16.456936
 31
0.0
  0
LINE
  5
1BB4
100
AcDbEntity
  8
0
100
AcDbLine
 10
20.512791
 20
17.459685
 30
0.0
 11
20.512791
 21
17.927596
 31
0.0
  0
LINE
  5
1BB5
100
AcDbEntity
  8
0
100
AcDbLine
 10
20.512791
 20
4.524847
 30
0.0
 11
20.512791
 21
14.924847
 31
0.0
  0
ARC
  5
1BB6
100
AcDbEntity
  8
0
100
AcDbCircle
 10
20.162791
 20
17.927596
 30
0.0
 40
0.35
100
AcDbArc
 50
0.0
 51
90.0
  0
LINE
  5
1BB7
100
AcDbEntity
  8
0
100
AcDbLine
 10
19.812791
 20
5.777596
 30
0.0
 11
19.812791
 21
13.577596
 31
0.0
  0
ARC
  5
1BB8
100
AcDbEntity
  8
0
100
AcDbCircle
 10
20.162791
 20
17.927596
 30
0.0
 40
0.35
100
AcDbArc
 50
0.0
 51
90.0
  0
LINE
  5
1BB9
100
AcDbEntity
  8
0
100
AcDbLine
 10
20.512791
 20
4.524847
 30
0.0
 11
20.512791
 21
3.110634
 31
0.0
  0
LINE
  5
1BBA
100
AcDbEntity
  8
0
100
AcDbLine
 10
20.512791
 20
0.63576
 30
0.0
 11
20.512791
 21
3.110634
 31
0.0
  0
LWPOLYLINE
  5
1BBB
100
AcDbEntity
  8
0
100
AcDbPolyline
 90
        6
 70
     0
 43
0.0
 10
19.812911
 20
0.63576
 10
19.818108
 20
0.592784
 10
19.859682
 20
0.512016
 10
19.937815
 20
0.446174
 10
20.043084
 20
0.403198
 10
20.162791
 20
0.388273
  0
LINE
  5
1BC3
100
AcDbEntity
  8
0
100
AcDbLine
 10
19.812791
 20
0.63576
 30
0.0
 11
19.812791
 21
1.677596
 31
0.0
  0
LWPOLYLINE
  5
1BC4
100
AcDbEntity
  8
0
100
AcDbPolyline
 90
        6
 70
     0
 43
0.0
 10
20.162791
 20
0.388273
 10
20.282498
 20
0.403198
 10
20.387766
 20
0.446174
 10
20.4659
 20
0.512016
 10
20.507473
 20
0.592784
 10
20.51267
 20
0.63576
  0
LINE
  5
1BCC
100
AcDbEntity
  8
0
100
AcDbLine
 10
50.112791
 20
7.387596
 30
0.0
 11
50.112791
 21
7.377596
 31
0.0
  0
LINE
  5
1BCD
100
AcDbEntity
  8
0
100
AcDbLine
 10
50.612791
 20
7.299432
 30
0.0
 11
50.612791
 21
7.280406
 31
0.0
  0
LINE
  5
1BCE
100
AcDbEntity
  8
0
100
AcDbLine
 10
50.114501
 20
7.387294
 30
0.0
 11
50.112791
 21
7.387596
 31
0.0
  0
LINE
  5
1BCF
100
AcDbEntity
  8
0
100
AcDbLine
 10
50.612791
 20
7.299432
 30
0.0
 11
50.114501
 21
7.387294
 31
0.0
  0
LINE
  5
1BD0
100
AcDbEntity
  8
0
100
AcDbLine
 10
42.879299
 20
7.387596
 30
0.0
 11
42.812791
 21
7.387596
 31
0.0
  0
LINE
  5
1BD1
100
AcDbEntity
  8
0
100
AcDbLine
 10
47.712838
 20
7.387596
 30
0.0
 11
42.879299
 21
7.387596
 31
0.0
  0
LINE
  5
1BD2
100
AcDbEntity
  8
0
100
AcDbLine
 10
48.312791
 20
7.387596
 30
0.0
 11
47.712838
 21
7.387596
 31
0.0
  0
LINE
  5
1BD3
100
AcDbEntity
  8
0
100
AcDbLine
 10
48.912791
 20
7.387596
 30
0.0
 11
48.312791
 21
7.387596
 31
0.0
  0
LINE
  5
1BD4
100
AcDbEntity
  8
0
100
AcDbLine
 10
49.512743
 20
7.387596
 30
0.0
 11
48.912791
 21
7.387596
 31
0.0
  0
LINE
  5
1BD5
100
AcDbEntity
  8
0
100
AcDbLine
 10
50.112791
 20
7.387596
 30
0.0
 11
49.512743
 21
7.387596
 31
0.0
  0
LINE
  5
1BD6
100
AcDbEntity
  8
0
100
AcDbLine
 10
50.112791
 20
11.977596
 30
0.0
 11
50.112791
 21
11.967596
 31
0.0
  0
LINE
  5
1BD7
100
AcDbEntity
  8
0
100
AcDbLine
 10
42.879299
 20
11.967596
 30
0.0
 11
42.812791
 21
11.967596
 31
0.0
  0
LINE
  5
1BD8
100
AcDbEntity
  8
0
100
AcDbLine
 10
47.712838
 20
11.967596
 30
0.0
 11
42.879299
 21
11.967596
 31
0.0
  0
LINE
  5
1BD9
100
AcDbEntity
  8
0
100
AcDbLine
 10
48.312791
 20
11.967596
 30
0.0
 11
47.712838
 21
11.967596
 31
0.0
  0
LINE
  5
1BDA
100
AcDbEntity
  8
0
100
AcDbLine
 10
48.912791
 20
11.967596
 30
0.0
 11
48.312791
 21
11.967596
 31
0.0
  0
LINE
  5
1BDB
100
AcDbEntity
  8
0
100
AcDbLine
 10
49.512743
 20
11.967596
 30
0.0
 11
48.912791
 21
11.967596
 31
0.0
  0
LINE
  5
1BDC
100
AcDbEntity
  8
0
100
AcDbLine
 10
50.112791
 20
11.967596
 30
0.0
 11
49.512743
 21
11.967596
 31
0.0
  0
LINE
  5
1BDD
100
AcDbEntity
  8
0
100
AcDbLine
 10
50.612791
 20
12.074786
 30
0.0
 11
50.612791
 21
12.055759
 31
0.0
  0
LINE
  5
1BDE
100
AcDbEntity
  8
0
100
AcDbLine
 10
50.114501
 20
11.967897
 30
0.0
 11
50.112791
 21
11.967596
 31
0.0
  0
LINE
  5
1BDF
100
AcDbEntity
  8
0
100
AcDbLine
 10
50.612791
 20
12.055759
 30
0.0
 11
50.114501
 21
11.967897
 31
0.0
  0
LINE
  5
1BE0
100
AcDbEntity
  8
0
 62
     4
100
AcDbLine
 10
4.09045
 20
9.447596
 30
0.0
 11
4.092754
 21
9.453011
 31
0.0
  0
LINE
  5
1BE1
100
AcDbEntity
  8
0
 62
     4
100
AcDbLine
 10
4.09045
 20
9.222596
 30
0.0
 11
4.09045
 21
9.447596
 31
0.0
  0
LINE
  5
1BE2
100
AcDbEntity
  8
0
 62
     4
100
AcDbLine
 10
3.962791
 20
9.447596
 30
0.0
 11
3.984067
 21
9.510096
 31
0.0
  0
LINE
  5
1BE3
100
AcDbEntity
  8
0
 62
     4
100
AcDbLine
 10
3.984067
 20
9.510096
 30
0.0
 11
4.02662
 21
9.560096
 31
0.0
  0
LINE
  5
1BE4
100
AcDbEntity
  8
0
 62
     4
100
AcDbLine
 10
4.02662
 20
9.560096
 30
0.0
 11
4.092754
 21
9.59895
 31
0.0
  0
LINE
  5
1BE5
100
AcDbEntity
  8
0
 62
     4
100
AcDbLine
 10
4.092754
 20
9.147596
 30
0.0
 11
3.962791
 21
9.147596
 31
0.0
  0
LINE
  5
1BE6
100
AcDbEntity
  8
0
 62
     4
100
AcDbLine
 10
3.962791
 20
9.147596
 30
0.0
 11
3.962791
 21
9.447596
 31
0.0
  0
LINE
  5
1BE7
100
AcDbEntity
  8
0
 62
     4
100
AcDbLine
 10
4.092754
 20
9.222596
 30
0.0
 11
4.09045
 21
9.222596
 31
0.0
  0
LINE
  5
1BE8
100
AcDbEntity
  8
0
 62
     4
100
AcDbLine
 10
3.962791
 20
9.897596
 30
0.0
 11
4.092754
 21
9.897596
 31
0.0
  0
LINE
  5
1BE9
100
AcDbEntity
  8
0
 62
     4
100
AcDbLine
 10
3.962791
 20
9.822596
 30
0.0
 11
3.962791
 21
9.897596
 31
0.0
  0
LINE
  5
1BEA
100
AcDbEntity
  8
0
 62
     4
100
AcDbLine
 10
4.092754
 20
9.75715
 30
0.0
 11
3.962791
 21
9.822596
 31
0.0
  0
LINE
  5
1BEB
100
AcDbEntity
  8
0
100
AcDbLine
 10
4.090198
 20
10.547596
 30
0.0
 11
2.962791
 21
10.547596
 31
0.0
  0
LINE
  5
1BEC
100
AcDbEntity
  8
0
100
AcDbLine
 10
2.962791
 20
10.547596
 30
0.0
 11
2.962791
 21
8.547596
 31
0.0
  0
LINE
  5
1BED
100
AcDbEntity
  8
0
100
AcDbLine
 10
2.962791
 20
8.547596
 30
0.0
 11
4.079719
 21
8.547596
 31
0.0
  0
ENDBLK
  5
1BEF
100
AcDbEntity
  8
0
100
AcDbBlockEnd
  0
BLOCK
  5
2111
100
AcDbEntity
  8
0
100
AcDbBlockBegin
  2
*D3
 70
     1
 10
0.0
 20
0.0
 30
0.0
  3
*D3
  1
AVE_RENDER
  0
LINE
  5
2112
100
AcDbEntity
  8
0
  6
BYBLOCK
 62
     0
100
AcDbLine
 10
75.722776
 20
182.886283
 30
0.0
 11
75.722776
 21
159.82
 31
0.0
  0
LINE
  5
2113
100
AcDbEntity
  8
0
  6
BYBLOCK
 62
     0
100
AcDbLine
 10
125.922776
 20
177.033473
 30
0.0
 11
125.922776
 21
159.82
 31
0.0
  0
LINE
  5
2114
100
AcDbEntity
  8
0
  6
BYBLOCK
 62
     0
100
AcDbLine
 10
78.722776
 20
160.0
 30
0.0
 11
122.922776
 21
160.0
 31
0.0
  0
SOLID
  5
2115
100
AcDbEntity
  8
0
  6
BYBLOCK
 62
     0
100
AcDbTrace
 10
78.722776
 20
160.5
 30
0.0
 11
78.722776
 21
159.5
 31
0.0
 12
75.722776
 22
160.0
 32
0.0
 13
75.722776
 23
160.0
 33
0.0
  0
SOLID
  5
2116
100
AcDbEntity
  8
0
  6
BYBLOCK
 62
     0
100
AcDbTrace
 10
122.922776
 20
160.5
 30
0.0
 11
122.922776
 21
159.5
 31
0.0
 12
125.922776
 22
160.0
 32
0.0
 13
125.922776
 23
160.0
 33
0.0
  0
TEXT
  5
2117
100
AcDbEntity
  8
0
  6
BYBLOCK
 62
     0
100
AcDbText
 10
96.656109
 20
161.0
 30
0.0
 40
2.5
  1
50.2
  7
ROMANS
100
AcDbText
  0
POINT
  5
2118
100
AcDbEntity
  8
DEFPOINTS
  6
BYBLOCK
 62
     0
100
AcDbPoint
 10
75.722776
 20
182.948783
 30
0.0
  0
POINT
  5
2119
100
AcDbEntity
  8
DEFPOINTS
  6
BYBLOCK
 62
     0
100
AcDbPoint
 10
125.922776
 20
177.095973
 30
0.0
  0
POINT
  5
211A
100
AcDbEntity
  8
DEFPOINTS
  6
BYBLOCK
 62
     0
100
AcDbPoint
 10
125.922776
 20
160.0
 30
0.0
  0
ENDBLK
  5
211B
100
AcDbEntity
  8
0
100
AcDbBlockEnd
  0
BLOCK
  5
211D
100
AcDbEntity
  8
0
100
AcDbBlockBegin
  2
*D4
 70
     1
 10
0.0
 20
0.0
 30
0.0
  3
*D4
  1
AVE_RENDER
  0
LINE
  5
211E
100
AcDbEntity
  8
0
  6
BYBLOCK
 62
     0
100
AcDbLine
 10
75.722776
 20
182.823783
 30
0.0
 11
75.722776
 21
167.32
 31
0.0
  0
LINE
  5
211F
100
AcDbEntity
  8
0
  6
BYBLOCK
 62
     0
100
AcDbLine
 10
93.922776
 20
175.261283
 30
0.0
 11
93.922776
 21
167.32
 31
0.0
  0
LINE
  5
2120
100
AcDbEntity
  8
0
  6
BYBLOCK
 62
     0
100
AcDbLine
 10
78.722776
 20
167.5
 30
0.0
 11
90.922776
 21
167.5
 31
0.0
  0
SOLID
  5
2121
100
AcDbEntity
  8
0
  6
BYBLOCK
 62
     0
100
AcDbTrace
 10
78.722776
 20
168.0
 30
0.0
 11
78.722776
 21
167.0
 31
0.0
 12
75.722776
 22
167.5
 32
0.0
 13
75.722776
 23
167.5
 33
0.0
  0
SOLID
  5
2122
100
AcDbEntity
  8
0
  6
BYBLOCK
 62
     0
100
AcDbTrace
 10
90.922776
 20
168.0
 30
0.0
 11
90.922776
 21
167.0
 31
0.0
 12
93.922776
 22
167.5
 32
0.0
 13
93.922776
 23
167.5
 33
0.0
  0
TEXT
  5
2123
100
AcDbEntity
  8
0
  6
BYBLOCK
 62
     0
100
AcDbText
 10
80.477538
 20
168.5
 30
0.0
 40
2.5
  1
18.2
  7
ROMANS
100
AcDbText
  0
POINT
  5
2124
100
AcDbEntity
  8
DEFPOINTS
  6
BYBLOCK
 62
     0
100
AcDbPoint
 10
75.722776
 20
182.886283
 30
0.0
  0
POINT
  5
2125
100
AcDbEntity
  8
DEFPOINTS
  6
BYBLOCK
 62
     0
100
AcDbPoint
 10
93.922776
 20
175.323783
 30
0.0
  0
POINT
  5
2126
100
AcDbEntity
  8
DEFPOINTS
  6
BYBLOCK
 62
     0
100
AcDbPoint
 10
93.922776
 20
167.5
 30
0.0
  0
ENDBLK
  5
2127
100
AcDbEntity
  8
0
100
AcDbBlockEnd
  0
BLOCK
  5
212A
100
AcDbEntity
  8
0
100
AcDbBlockBegin
  2
*D5
 70
     1
 10
0.0
 20
0.0
 30
0.0
  3
*D5
  1
AVE_RENDER
  0
LINE
  5
212B
100
AcDbEntity
  8
0
  6
BYBLOCK
 62
     0
100
AcDbLine
 10
125.922776
 20
176.970973
 30
0.0
 11
125.922776
 21
167.32
 31
0.0
  0
LINE
  5
212C
100
AcDbEntity
  8
0
  6
BYBLOCK
 62
     0
100
AcDbLine
 10
118.122776
 20
175.436283
 30
0.0
 11
118.122776
 21
167.32
 31
0.0
  0
LINE
  5
212D
100
AcDbEntity
  8
0
  6
BYBLOCK
 62
     0
100
AcDbLine
 10
128.922776
 20
167.5
 30
0.0
 11
131.922776
 21
167.5
 31
0.0
  0
LINE
  5
212E
100
AcDbEntity
  8
0
  6
BYBLOCK
 62
     0
100
AcDbLine
 10
115.122776
 20
167.5
 30
0.0
 11
112.122776
 21
167.5
 31
0.0
  0
LINE
  5
212F
100
AcDbEntity
  8
0
  6
BYBLOCK
 62
     0
100
AcDbLine
 10
125.922776
 20
167.5
 30
0.0
 11
118.122776
 21
167.5
 31
0.0
  0
SOLID
  5
2130
100
AcDbEntity
  8
0
  6
BYBLOCK
 62
     0
100
AcDbTrace
 10
128.922776
 20
168.0
 30
0.0
 11
128.922776
 21
167.0
 31
0.0
 12
125.922776
 22
167.5
 32
0.0
 13
125.922776
 23
167.5
 33
0.0
  0
SOLID
  5
2131
100
AcDbEntity
  8
0
  6
BYBLOCK
 62
     0
100
AcDbTrace
 10
115.122776
 20
168.0
 30
0.0
 11
115.122776
 21
167.0
 31
0.0
 12
118.122776
 22
167.5
 32
0.0
 13
118.122776
 23
167.5
 33
0.0
  0
TEXT
  5
2132
100
AcDbEntity
  8
0
  6
BYBLOCK
 62
     0
100
AcDbText
 10
119.046586
 20
168.5
 30
0.0
 40
2.5
  1
7.8
  7
ROMANS
100
AcDbText
  0
POINT
  5
2133
100
AcDbEntity
  8
DEFPOINTS
  6
BYBLOCK
 62
     0
100
AcDbPoint
 10
125.922776
 20
177.033473
 30
0.0
  0
POINT
  5
2134
100
AcDbEntity
  8
DEFPOINTS
  6
BYBLOCK
 62
     0
100
AcDbPoint
 10
118.122776
 20
175.498783
 30
0.0
  0
POINT
  5
2135
100
AcDbEntity
  8
DEFPOINTS
  6
BYBLOCK
 62
     0
100
AcDbPoint
 10
118.122776
 20
167.5
 30
0.0
  0
ENDBLK
  5
2136
100
AcDbEntity
  8
0
100
AcDbBlockEnd
  0
ENDSEC
  0
SECTION
  2
ENTITIES
  0
INSERT
  5
163C
100
AcDbEntity
  8
ALPHA
100
AcDbBlockReference
  2
AVE_RENDER
 10
0.0
 20
0.0
 30
0.0
1001
AVE_RENDER
1002
{
1070
     6
1000
Pref
1070
    50
1070
    20
1070
     1
1070
     0
1000

1070
    10
1070
     1
1070
    30
1040
25.4
1070
     1
1040
0.3
1040
0.7
1040
0.0
1040
10.0
1010
-1.0
1020
-1.0
1030
-1.0
1040
0.3
1070
    49
1070
     0
1070
     0
1010
1.0
1020
1.0
1030
1.0
1040
45.0
1070
     1
1070
     0
1000
WCS
1040
0.0
1002
}
  0
INSERT
  5
163D
100
AcDbEntity
  8
ALPHA
100
AcDbBlockReference
  2
AVE_RENDER
 10
0.0
 20
0.0
 30
0.0
1001
AVE_RENDER
1002
{
1070
     0
1000
Full Opt
1070
     0
1070
     1
1070
     1
1070
     1
1070
     0
1070
     0
1070
     0
1070
     1
1070
     1
1040
0.0001
1040
0.0001
1002
}
  0
INSERT
  5
163E
100
AcDbEntity
  8
ALPHA
100
AcDbBlockReference
  2
AVE_RENDER
 10
0.0
 20
0.0
 30
0.0
1001
AVE_RENDER
1002
{
1070
     0
1000
Quick Opt
1070
     0
1070
     1
1070
     1
1070
     1
1070
     0
1070
     0
1070
     1
1002
}
  0
INSERT
  5
163F
100
AcDbEntity
  8
ALPHA
100
AcDbBlockReference
  2
AVE_RENDER
 10
0.0
 20
0.0
 30
0.0
1001
AVE_RENDER
1002
{
1070
     1
1000
Scanl Opt
1070
     2
1070
     0
1070
     2
1040
2.0
1040
4.0
1070
     0
1070
     1
1070
     0
1040
0.03
1002
}
  0
INSERT
  5
1640
100
AcDbEntity
  8
ALPHA
100
AcDbBlockReference
  2
AVE_RENDER
 10
0.0
 20
0.0
 30
0.0
1001
AVE_RENDER
1002
{
1070
     2
1000
Raytr Opt
1070
     2
1070
     0
1070
     2
1040
2.0
1040
4.0
1070
     0
1070
     1
1070
     1
1040
0.03
1070
     3
1040
0.03
1002
}
  0
INSERT
  5
1641
100
AcDbEntity
  8
ALPHA
100
AcDbBlockReference
  2
AVE_RENDER
 10
0.0
 20
0.0
 30
0.0
1001
AVE_RENDER
1002
{
1070
     0
1000
RFile Opt
1070
     5
1070
   640
1070
   480
1070
 10000
1070
     3
1070
    32
1070
    24
1070
     0
1070
     0
1070
     0
1070
     1
1070
     0
1070
     0
1070
     0
1002
}
  0
INSERT
  5
1642
100
AcDbEntity
  8
ALPHA
100
AcDbBlockReference
  2
AVE_RENDER
 10
0.0
 20
0.0
 30
0.0
1001
AVE_RENDER
1002
{
1070
     0
1000
Fog Opt
1070
     0
1070
     0
1040
0.0
1040
1.0
1040
0.0
1040
1.0
1010
0.5
1020
0.5
1030
0.5
1002
}
  0
INSERT
  5
1643
100
AcDbEntity
  8
ALPHA
100
AcDbBlockReference
  2
AVE_RENDER
 10
0.0
 20
0.0
 30
0.0
1001
AVE_RENDER
1002
{
1070
     0
1000
BG Opt
1070
     0
1070
     1
1010
0.0
1020
0.0
1030
0.0
1010
1.0
1020
0.0
1030
0.0
1010
0.0
1020
1.0
1030
0.0
1010
0.0
1020
0.0
1030
1.0
1040
0.5
1040
0.33
1040
0.0
1000

1070
     1
1000

1070
     1
1070
     1
1040
1.0
1040
1.0
1040
0.0
1040
0.0
1070
     0
1002
}
  0
INSERT
  5
164A
100
AcDbEntity
  8
ALPHA
100
AcDbBlockReference
  2
AVE_GLOBAL
 10
0.0
 20
0.0
 30
0.0
1001
AVE_MATERIAL
1002
{
1000
*GLOBAL*
1000
1
1000
Finition globale.
1002
{
1002
}
1002
{
1070
    63
1002
{
1002
{
1010
-1.0
1020
-1.0
1030
-1.0
1002
}
1040
0.1
1000

1040
0.0
1002
{
1002
}
1040
0.0
1002
{
1002
}
1040
0.0
1002
}
1002
{
1002
{
1010
-1.0
1020
-1.0
1030
-1.0
1002
}
1040
0.7
1000

1040
0.0
1002
{
1002
}
1040
0.0
1002
{
1002
}
1040
0.0
1002
}
1002
{
1002
{
1010
-1.0
1020
-1.0
1030
-1.0
1002
}
1040
0.2
1000

1040
0.0
1002
{
1002
}
1040
0.0
1002
{
1002
}
1040
0.0
1002
}
1002
{
1070
     0
1002
{
1070
     1
1002
{
1040
1.0
1040
1.0
1000

1040
0.0
1002
{
1002
}
1040
0.0
1002
{
1002
}
1040
0.0
1002
}
1002
}
1040
1.0
1040
0.0
1040
0.0
1002
}
1002
{
1040
1.0
1040
1.0
1000

1040
0.0
1002
{
1002
}
1040
0.0
1002
{
1002
}
1040
0.0
1002
}
1002
{
1040
0.5
1040
1.0
1000

1040
0.0
1002
{
1002
}
1040
0.0
1002
{
1002
}
1040
0.0
1002
}
1002
{
1070
     0
1040
0.0
1002
{
1002
}
1040
1.0
1002
{
1002
}
1040
0.0
1002
}
1002
{
1040
0.0
1002
{
1002
{
1010
0.0
1020
0.0
1030
0.0
1002
}
1040
1.0
1000

1040
0.0
1002
{
1002
}
1040
0.0
1002
{
1002
}
1040
0.0
1002
}
1002
}
1002
{
1002
{
1070
     1
1002
{
1040
0.0
1040
1.0
1000

1040
0.0
1002
{
1002
}
1040
0.0
1002
{
1002
}
1040
0.0
1002
}
1002
}
1040
0.0
1002
{
1002
}
1010
1.0
1020
0.0
1030
0.0
1010
0.0
1020
1.0
1030
0.0
1010
0.0
1020
0.0
1030
1.0
1070
     0
1002
}
1002
{
1002
{
1040
1.0
1040
1.0
1002
{
1070
     1
1002
{
1040
1.0
1040
1.0
1000

1040
0.0
1002
{
1002
}
1040
0.0
1002
{
1002
}
1040
0.0
1002
}
1002
}
1002
}
1070
     0
1040
0.0
1002
{
1002
}
1002
}
1002
{
1002
}
1002
}
1002
{
1071
        3
1070
     3
1070
     0
1002
{
1070
     2
1070
     0
1070
     0
1040
0.0
1002
}
1070
     0
1070
     2
1002
{
1002
}
1002
}
1002
{
1040
8030.0
1040
190.300003
1040
0.305
1040
228.0
1040
545.0
1040
14.0
1040
17.4
1040
0.456
1002
}
1002
}
  0
LINE
  5
1BF1
100
AcDbEntity
  8
ALPHA
100
AcDbLine
 10
95.922776
 20
178.674036
 30
0.0
 11
97.922776
 21
178.674036
 31
0.0
  0
LINE
  5
1BF2
100
AcDbEntity
  8
ALPHA
100
AcDbLine
 10
95.822776
 20
188.523529
 30
0.0
 11
95.922776
 21
188.523529
 31
0.0
  0
LINE
  5
1BF3
100
AcDbEntity
  8
ALPHA
100
AcDbLine
 10
95.122776
 20
192.498783
 30
0.0
 11
93.922776
 21
192.498783
 31
0.0
  0
LINE
  5
1BF4
100
AcDbEntity
  8
ALPHA
100
AcDbLine
 10
95.122776
 20
177.598783
 30
0.0
 11
93.922776
 21
177.598783
 31
0.0
  0
LINE
  5
1BF5
100
AcDbEntity
  8
ALPHA
100
AcDbLine
 10
95.822776
 20
178.548783
 30
0.0
 11
97.922776
 21
178.548783
 31
0.0
  0
LINE
  5
1BF6
100
AcDbEntity
  8
ALPHA
100
AcDbLine
 10
95.822776
 20
177.382056
 30
0.0
 11
97.922776
 21
177.382056
 31
0.0
  0
LINE
  5
1BF7
100
AcDbEntity
  8
ALPHA
100
AcDbLine
 10
93.922776
 20
190.842789
 30
0.0
 11
95.122776
 21
190.842789
 31
0.0
  0
LINE
  5
1BF8
100
AcDbEntity
  8
ALPHA
100
AcDbLine
 10
95.122776
 20
188.698783
 30
0.0
 11
93.922776
 21
188.698783
 31
0.0
  0
LINE
  5
1BF9
100
AcDbEntity
  8
ALPHA
100
AcDbLine
 10
95.922776
 20
178.674036
 30
0.0
 11
95.922776
 21
179.698783
 31
0.0
  0
LINE
  5
1BFA
100
AcDbEntity
  8
ALPHA
100
AcDbLine
 10
95.922776
 20
187.498783
 30
0.0
 11
95.922776
 21
188.523529
 31
0.0
  0
LINE
  5
1BFB
100
AcDbEntity
  8
ALPHA
100
AcDbLine
 10
113.922776
 20
175.448783
 30
0.0
 11
113.922776
 21
174.998783
 31
0.0
  0
LINE
  5
1BFC
100
AcDbEntity
  8
ALPHA
100
AcDbLine
 10
101.922776
 20
191.348783
 30
0.0
 11
113.229956
 21
191.348783
 31
0.0
  0
LINE
  5
1BFD
100
AcDbEntity
  8
ALPHA
100
AcDbLine
 10
95.822776
 20
191.498783
 30
0.0
 11
95.922776
 21
191.498783
 31
0.0
  0
LINE
  5
1BFE
100
AcDbEntity
  8
ALPHA
100
AcDbLine
 10
95.122776
 20
191.848783
 30
0.0
 11
95.122776
 21
192.498783
 31
0.0
  0
LINE
  5
1BFF
100
AcDbEntity
  8
ALPHA
100
AcDbLine
 10
95.122776
 20
191.832597
 30
0.0
 11
95.122776
 21
191.848783
 31
0.0
  0
LINE
  5
1C00
100
AcDbEntity
  8
ALPHA
100
AcDbLine
 10
95.122776
 20
177.598783
 30
0.0
 11
95.122776
 21
179.698783
 31
0.0
  0
LINE
  5
1C01
100
AcDbEntity
  8
ALPHA
100
AcDbLine
 10
95.122776
 20
187.498783
 30
0.0
 11
95.122776
 21
188.698783
 31
0.0
  0
LINE
  5
1C02
100
AcDbEntity
  8
ALPHA
100
AcDbLine
 10
95.922776
 20
179.698783
 30
0.0
 11
95.922776
 21
187.498783
 31
0.0
  0
LINE
  5
1C03
100
AcDbEntity
  8
ALPHA
100
AcDbLine
 10
95.922776
 20
179.698783
 30
0.0
 11
95.822776
 21
179.698783
 31
0.0
  0
LINE
  5
1C04
100
AcDbEntity
  8
ALPHA
100
AcDbLine
 10
113.922776
 20
192.198783
 30
0.0
 11
113.922776
 21
191.748783
 31
0.0
  0
LINE
  5
1C05
100
AcDbEntity
  8
ALPHA
100
AcDbLine
 10
95.922776
 20
187.498783
 30
0.0
 11
95.822776
 21
187.498783
 31
0.0
  0
LINE
  5
1C06
100
AcDbEntity
  8
ALPHA
100
AcDbLine
 10
95.122776
 20
179.698783
 30
0.0
 11
93.922776
 21
179.698783
 31
0.0
  0
LINE
  5
1C07
100
AcDbEntity
  8
ALPHA
100
AcDbLine
 10
97.922776
 20
179.698783
 30
0.0
 11
95.922776
 21
179.698783
 31
0.0
  0
LINE
  5
1C08
100
AcDbEntity
  8
ALPHA
100
AcDbLine
 10
97.922776
 20
187.498783
 30
0.0
 11
95.922776
 21
187.498783
 31
0.0
  0
LINE
  5
1C09
100
AcDbEntity
  8
ALPHA
100
AcDbLine
 10
93.922776
 20
175.598783
 30
0.0
 11
93.922776
 21
175.323783
 31
0.0
  0
LINE
  5
1C0A
100
AcDbEntity
  8
ALPHA
100
AcDbLine
 10
93.922776
 20
177.598783
 30
0.0
 11
93.922776
 21
179.698783
 31
0.0
  0
LINE
  5
1C0B
100
AcDbEntity
  8
ALPHA
100
AcDbLine
 10
93.922776
 20
190.842789
 30
0.0
 11
93.922776
 21
192.498783
 31
0.0
  0
LINE
  5
1C0C
100
AcDbEntity
  8
ALPHA
100
AcDbLine
 10
93.922776
 20
190.842789
 30
0.0
 11
93.922776
 21
189.198783
 31
0.0
  0
LINE
  5
1C0D
100
AcDbEntity
  8
ALPHA
100
AcDbLine
 10
93.922776
 20
187.498783
 30
0.0
 11
93.922776
 21
188.698783
 31
0.0
  0
LINE
  5
1C0E
100
AcDbEntity
  8
ALPHA
100
AcDbLine
 10
95.822776
 20
175.598783
 30
0.0
 11
97.922776
 21
175.598783
 31
0.0
  0
LINE
  5
1C0F
100
AcDbEntity
  8
ALPHA
100
AcDbLine
 10
95.122776
 20
177.03182
 30
0.0
 11
95.122776
 21
175.598783
 31
0.0
  0
LINE
  5
1C10
100
AcDbEntity
  8
ALPHA
100
AcDbLine
 10
95.122776
 20
177.382056
 30
0.0
 11
95.122776
 21
177.03182
 31
0.0
  0
LINE
  5
1C11
100
AcDbEntity
  8
ALPHA
100
AcDbLine
 10
95.122776
 20
177.598783
 30
0.0
 11
95.122776
 21
177.382056
 31
0.0
  0
LINE
  5
1C12
100
AcDbEntity
  8
ALPHA
100
AcDbLine
 10
95.122776
 20
175.598783
 30
0.0
 11
93.922776
 21
175.598783
 31
0.0
  0
LINE
  5
1C13
100
AcDbEntity
  8
ALPHA
100
AcDbLine
 10
93.922776
 20
177.598783
 30
0.0
 11
93.922776
 21
175.598783
 31
0.0
  0
LINE
  5
1C14
100
AcDbEntity
  8
ALPHA
100
AcDbLine
 10
95.122776
 20
187.498783
 30
0.0
 11
93.922776
 21
187.498783
 31
0.0
  0
LINE
  5
1C15
100
AcDbEntity
  8
ALPHA
100
AcDbLine
 10
97.922776
 20
192.198783
 30
0.0
 11
113.922776
 21
192.198783
 31
0.0
  0
LINE
  5
1C16
100
AcDbEntity
  8
ALPHA
100
AcDbLine
 10
113.922776
 20
191.748783
 30
0.0
 11
113.229956
 21
191.348783
 31
0.0
  0
LINE
  5
1C17
100
AcDbEntity
  8
ALPHA
100
AcDbLine
 10
101.922776
 20
191.348783
 30
0.0
 11
97.922776
 21
191.348783
 31
0.0
  0
LINE
  5
1C18
100
AcDbEntity
  8
ALPHA
100
AcDbLine
 10
101.922776
 20
186.248783
 30
0.0
 11
101.522776
 21
186.248783
 31
0.0
  0
LINE
  5
1C19
100
AcDbEntity
  8
ALPHA
100
AcDbLine
 10
101.522776
 20
190.548783
 30
0.0
 11
101.522776
 21
186.248783
 31
0.0
  0
LINE
  5
1C1A
100
AcDbEntity
  8
ALPHA
100
AcDbLine
 10
101.922776
 20
190.548783
 30
0.0
 11
101.522776
 21
190.548783
 31
0.0
  0
LINE
  5
1C1B
100
AcDbEntity
  8
ALPHA
100
AcDbLine
 10
101.922776
 20
175.848783
 30
0.0
 11
97.922776
 21
175.848783
 31
0.0
  0
LINE
  5
1C1C
100
AcDbEntity
  8
ALPHA
100
AcDbLine
 10
101.922776
 20
176.648783
 30
0.0
 11
101.522776
 21
176.648783
 31
0.0
  0
LINE
  5
1C1D
100
AcDbEntity
  8
ALPHA
100
AcDbLine
 10
101.522776
 20
180.948783
 30
0.0
 11
101.522776
 21
176.648783
 31
0.0
  0
LINE
  5
1C1E
100
AcDbEntity
  8
ALPHA
100
AcDbLine
 10
101.922776
 20
180.948783
 30
0.0
 11
101.522776
 21
180.948783
 31
0.0
  0
LINE
  5
1C1F
100
AcDbEntity
  8
ALPHA
100
AcDbLine
 10
101.922776
 20
175.848783
 30
0.0
 11
113.229956
 21
175.848783
 31
0.0
  0
LINE
  5
1C20
100
AcDbEntity
  8
ALPHA
100
AcDbLine
 10
113.229956
 20
175.848783
 30
0.0
 11
113.922776
 21
175.448783
 31
0.0
  0
LINE
  5
1C21
100
AcDbEntity
  8
ALPHA
100
AcDbLine
 10
97.922776
 20
174.998783
 30
0.0
 11
113.922776
 21
174.998783
 31
0.0
  0
LINE
  5
1C22
100
AcDbEntity
  8
ALPHA
100
AcDbLine
 10
97.922776
 20
183.598783
 30
0.0
 11
97.922776
 21
191.348783
 31
0.0
  0
LINE
  5
1C23
100
AcDbEntity
  8
ALPHA
100
AcDbLine
 10
97.922776
 20
191.348783
 30
0.0
 11
97.922776
 21
192.198783
 31
0.0
  0
LINE
  5
1C24
100
AcDbEntity
  8
ALPHA
100
AcDbLine
 10
95.122776
 20
189.198783
 30
0.0
 11
93.922776
 21
189.198783
 31
0.0
  0
LINE
  5
1C25
100
AcDbEntity
  8
ALPHA
100
AcDbLine
 10
95.122776
 20
189.198783
 30
0.0
 11
95.122776
 21
188.698783
 31
0.0
  0
LINE
  5
1C26
100
AcDbEntity
  8
ALPHA
100
AcDbLine
 10
93.922776
 20
189.198783
 30
0.0
 11
93.922776
 21
188.698783
 31
0.0
  0
LINE
  5
1C27
100
AcDbEntity
  8
ALPHA
100
AcDbLine
 10
95.122776
 20
192.998783
 30
0.0
 11
93.922776
 21
192.998783
 31
0.0
  0
LINE
  5
1C28
100
AcDbEntity
  8
ALPHA
100
AcDbLine
 10
97.922776
 20
174.998783
 30
0.0
 11
97.922776
 21
175.848783
 31
0.0
  0
LINE
  5
1C29
100
AcDbEntity
  8
ALPHA
100
AcDbLine
 10
95.122776
 20
192.998783
 30
0.0
 11
95.122776
 21
192.498783
 31
0.0
  0
LINE
  5
1C2A
100
AcDbEntity
  8
ALPHA
100
AcDbLine
 10
97.922776
 20
175.848783
 30
0.0
 11
97.922776
 21
183.598783
 31
0.0
  0
LINE
  5
1C2B
100
AcDbEntity
  8
ALPHA
100
AcDbLine
 10
93.922776
 20
192.998783
 30
0.0
 11
93.922776
 21
192.498783
 31
0.0
  0
LINE
  5
1C2C
100
AcDbEntity
  8
ALPHA
100
AcDbLine
 10
95.922776
 20
191.873783
 30
0.0
 11
97.922776
 21
191.873783
 31
0.0
  0
LINE
  5
1C2D
100
AcDbEntity
  8
ALPHA
100
AcDbLine
 10
101.922776
 20
190.548783
 30
0.0
 11
101.922776
 21
191.348783
 31
0.0
  0
LINE
  5
1C2E
100
AcDbEntity
  8
ALPHA
100
AcDbLine
 10
95.922776
 20
191.873783
 30
0.0
 11
95.922776
 21
191.498783
 31
0.0
  0
LINE
  5
1C2F
100
AcDbEntity
  8
ALPHA
100
AcDbLine
 10
101.922776
 20
175.848783
 30
0.0
 11
101.922776
 21
176.648783
 31
0.0
  0
LINE
  5
1C30
100
AcDbEntity
  8
ALPHA
100
AcDbLine
 10
95.822776
 20
175.323783
 30
0.0
 11
97.922776
 21
175.323783
 31
0.0
  0
LINE
  5
1C31
100
AcDbEntity
  8
ALPHA
100
AcDbLine
 10
93.922776
 20
175.323783
 30
0.0
 11
95.122776
 21
175.323783
 31
0.0
  0
LINE
  5
1C32
100
AcDbEntity
  8
ALPHA
100
AcDbLine
 10
101.922776
 20
180.948783
 30
0.0
 11
101.922776
 21
186.248783
 31
0.0
  0
LWPOLYLINE
  5
1C33
100
AcDbEntity
  8
ALPHA
100
AcDbPolyline
 90
        4
 70
     0
 43
0.0
 10
90.319186
 20
185.387637
 10
90.319186
 20
185.786231
 10
90.319186
 20
186.140999
 10
90.319186
 20
186.444832
  0
LWPOLYLINE
  5
1C39
100
AcDbEntity
  8
ALPHA
100
AcDbPolyline
 90
        4
 70
     0
 43
0.0
 10
90.319186
 20
185.387637
 10
90.193789
 20
185.243682
 10
90.078304
 20
185.102024
 10
89.972776
 20
184.962601
  0
LINE
  5
1C3F
100
AcDbEntity
  8
ALPHA
100
AcDbLine
 10
101.622776
 20
178.489233
 30
0.0
 11
101.522776
 21
178.489233
 31
0.0
  0
LWPOLYLINE
  5
1C40
100
AcDbEntity
  8
ALPHA
100
AcDbPolyline
 90
        4
 70
     0
 43
0.0
 10
90.319186
 20
180.752733
 10
90.319186
 20
181.056566
 10
90.319186
 20
181.411334
 10
90.319186
 20
181.809928
  0
LINE
  5
1C46
100
AcDbEntity
  8
ALPHA
100
AcDbLine
 10
101.622776
 20
188.708332
 30
0.0
 11
101.522776
 21
188.708332
 31
0.0
  0
LINE
  5
1C47
100
AcDbEntity
  8
ALPHA
100
AcDbLine
 10
95.122776
 20
185.387637
 30
0.0
 11
90.319186
 21
185.387637
 31
0.0
  0
LINE
  5
1C48
100
AcDbEntity
  8
ALPHA
100
AcDbLine
 10
95.922776
 20
185.387637
 30
0.0
 11
95.822776
 21
185.387637
 31
0.0
  0
LWPOLYLINE
  5
1C49
100
AcDbEntity
  8
ALPHA
100
AcDbPolyline
 90
        4
 70
     0
 43
0.0
 10
90.319186
 20
181.809928
 10
90.193789
 20
181.953883
 10
90.078304
 20
182.095541
 10
89.972776
 20
182.234964
  0
LINE
  5
1C4F
100
AcDbEntity
  8
ALPHA
100
AcDbLine
 10
95.122776
 20
181.809928
 30
0.0
 11
90.319186
 21
181.809928
 31
0.0
  0
LINE
  5
1C50
100
AcDbEntity
  8
ALPHA
100
AcDbLine
 10
95.922776
 20
181.809928
 30
0.0
 11
95.822776
 21
181.809928
 31
0.0
  0
LINE
  5
1C51
100
AcDbEntity
  8
ALPHA
100
AcDbLine
 10
89.972776
 20
186.248783
 30
0.0
 11
89.972776
 21
186.278783
 31
0.0
  0
LINE
  5
1C52
100
AcDbEntity
  8
ALPHA
100
AcDbLine
 10
89.972776
 20
184.962601
 30
0.0
 11
89.972776
 21
185.136263
 31
0.0
  0
LINE
  5
1C53
100
AcDbEntity
  8
ALPHA
100
AcDbLine
 10
90.084229
 20
186.278783
 30
0.0
 11
89.972776
 21
186.278783
 31
0.0
  0
LWPOLYLINE
  5
1C54
100
AcDbEntity
  8
ALPHA
100
AcDbPolyline
 90
        3
 70
     0
 43
0.0
 10
90.182755
 20
186.348783
 10
90.161521
 20
186.333777
 10
90.084229
 20
186.278783
  0
LWPOLYLINE
  5
1C59
100
AcDbEntity
  8
ALPHA
100
AcDbPolyline
 90
        3
 70
     0
 43
0.0
 10
90.319186
 20
186.444832
 10
90.239841
 20
186.389125
 10
90.182755
 20
186.348783
  0
LWPOLYLINE
  5
1C5E
100
AcDbEntity
  8
ALPHA
100
AcDbPolyline
 90
        3
 70
     0
 43
0.0
 10
90.182755
 20
180.848783
 10
90.161521
 20
180.863788
 10
90.084229
 20
180.918783
  0
LWPOLYLINE
  5
1C63
100
AcDbEntity
  8
ALPHA
100
AcDbPolyline
 90
        3
 70
     0
 43
0.0
 10
90.319186
 20
180.752733
 10
90.239841
 20
180.80844
 10
90.182755
 20
180.848783
  0
LINE
  5
1C68
100
AcDbEntity
  8
ALPHA
100
AcDbLine
 10
90.084229
 20
180.918783
 30
0.0
 11
89.972776
 21
180.918783
 31
0.0
  0
LINE
  5
1C69
100
AcDbEntity
  8
ALPHA
100
AcDbLine
 10
89.972776
 20
182.061302
 30
0.0
 11
89.972776
 21
182.234964
 31
0.0
  0
LINE
  5
1C6A
100
AcDbEntity
  8
ALPHA
100
AcDbLine
 10
89.972776
 20
181.988786
 30
0.0
 11
89.972776
 21
182.061302
 31
0.0
  0
LINE
  5
1C6B
100
AcDbEntity
  8
ALPHA
100
AcDbLine
 10
89.972776
 20
180.918783
 30
0.0
 11
89.972776
 21
180.948783
 31
0.0
  0
LINE
  5
1C6C
100
AcDbEntity
  8
ALPHA
100
AcDbLine
 10
89.972776
 20
184.962601
 30
0.0
 11
89.972776
 21
182.234964
 31
0.0
  0
LINE
  5
1C6D
100
AcDbEntity
  8
ALPHA
100
AcDbLine
 10
101.622776
 20
180.948783
 30
0.0
 11
101.622776
 21
180.823783
 31
0.0
  0
LINE
  5
1C6E
100
AcDbEntity
  8
ALPHA
100
AcDbLine
 10
101.522776
 20
179.698783
 30
0.0
 11
101.622776
 21
179.698783
 31
0.0
  0
LINE
  5
1C6F
100
AcDbEntity
  8
ALPHA
100
AcDbLine
 10
101.622776
 20
178.030345
 30
0.0
 11
101.522776
 21
178.030345
 31
0.0
  0
LINE
  5
1C70
100
AcDbEntity
  8
ALPHA
100
AcDbLine
 10
95.122776
 20
180.752733
 30
0.0
 11
90.319186
 21
180.752733
 31
0.0
  0
LINE
  5
1C71
100
AcDbEntity
  8
ALPHA
100
AcDbLine
 10
95.922776
 20
180.752733
 30
0.0
 11
95.822776
 21
180.752733
 31
0.0
  0
LINE
  5
1C72
100
AcDbEntity
  8
ALPHA
100
AcDbLine
 10
95.122776
 20
186.444832
 30
0.0
 11
90.319186
 21
186.444832
 31
0.0
  0
LINE
  5
1C73
100
AcDbEntity
  8
ALPHA
100
AcDbLine
 10
95.922776
 20
186.444832
 30
0.0
 11
95.822776
 21
186.444832
 31
0.0
  0
LINE
  5
1C74
100
AcDbEntity
  8
ALPHA
100
AcDbLine
 10
101.622776
 20
189.16722
 30
0.0
 11
101.522776
 21
189.16722
 31
0.0
  0
LINE
  5
1C75
100
AcDbEntity
  8
ALPHA
100
AcDbLine
 10
102.222776
 20
176.773783
 30
0.0
 11
102.222776
 21
180.823783
 31
0.0
  0
LINE
  5
1C76
100
AcDbEntity
  8
ALPHA
100
AcDbLine
 10
102.222776
 20
186.373783
 30
0.0
 11
102.222776
 21
190.423783
 31
0.0
  0
LINE
  5
1C77
100
AcDbEntity
  8
ALPHA
100
AcDbLine
 10
118.122776
 20
182.098783
 30
0.0
 11
118.122776
 21
185.098783
 31
0.0
  0
LINE
  5
1C78
100
AcDbEntity
  8
ALPHA
100
AcDbLine
 10
118.122776
 20
178.40759
 30
0.0
 11
118.122776
 21
179.789975
 31
0.0
  0
LINE
  5
1C79
100
AcDbEntity
  8
ALPHA
100
AcDbLine
 10
118.122776
 20
175.498783
 30
0.0
 11
118.122776
 21
175.898783
 31
0.0
  0
LINE
  5
1C7A
100
AcDbEntity
  8
ALPHA
100
AcDbLine
 10
118.122776
 20
191.298783
 30
0.0
 11
118.122776
 21
191.698783
 31
0.0
  0
LINE
  5
1C7B
100
AcDbEntity
  8
ALPHA
100
AcDbLine
 10
101.622776
 20
186.373783
 30
0.0
 11
102.222776
 21
186.373783
 31
0.0
  0
LINE
  5
1C7C
100
AcDbEntity
  8
ALPHA
100
AcDbLine
 10
101.622776
 20
190.423783
 30
0.0
 11
102.222776
 21
190.423783
 31
0.0
  0
LINE
  5
1C7D
100
AcDbEntity
  8
ALPHA
100
AcDbLine
 10
118.122776
 20
187.40759
 30
0.0
 11
118.122776
 21
188.789975
 31
0.0
  0
LINE
  5
1C7E
100
AcDbEntity
  8
ALPHA
100
AcDbLine
 10
101.622776
 20
186.373783
 30
0.0
 11
101.622776
 21
190.423783
 31
0.0
  0
LINE
  5
1C7F
100
AcDbEntity
  8
ALPHA
100
AcDbLine
 10
102.422776
 20
186.373783
 30
0.0
 11
102.422776
 21
190.423783
 31
0.0
  0
LINE
  5
1C80
100
AcDbEntity
  8
ALPHA
100
AcDbLine
 10
102.422776
 20
186.373783
 30
0.0
 11
102.222776
 21
186.373783
 31
0.0
  0
LINE
  5
1C81
100
AcDbEntity
  8
ALPHA
100
AcDbLine
 10
102.422776
 20
190.423783
 30
0.0
 11
102.222776
 21
190.423783
 31
0.0
  0
LINE
  5
1C82
100
AcDbEntity
  8
ALPHA
100
AcDbLine
 10
101.622776
 20
176.773783
 30
0.0
 11
102.222776
 21
176.773783
 31
0.0
  0
LINE
  5
1C83
100
AcDbEntity
  8
ALPHA
100
AcDbLine
 10
101.622776
 20
180.823783
 30
0.0
 11
102.222776
 21
180.823783
 31
0.0
  0
LINE
  5
1C84
100
AcDbEntity
  8
ALPHA
100
AcDbLine
 10
101.622776
 20
176.773783
 30
0.0
 11
101.622776
 21
180.823783
 31
0.0
  0
LINE
  5
1C85
100
AcDbEntity
  8
ALPHA
100
AcDbLine
 10
102.422776
 20
176.773783
 30
0.0
 11
102.422776
 21
180.823783
 31
0.0
  0
LINE
  5
1C86
100
AcDbEntity
  8
ALPHA
100
AcDbLine
 10
102.422776
 20
176.773783
 30
0.0
 11
102.222776
 21
176.773783
 31
0.0
  0
LINE
  5
1C87
100
AcDbEntity
  8
ALPHA
100
AcDbLine
 10
102.422776
 20
180.823783
 30
0.0
 11
102.222776
 21
180.823783
 31
0.0
  0
LINE
  5
1C88
100
AcDbEntity
  8
ALPHA
100
AcDbLine
 10
102.122776
 20
176.698783
 30
0.0
 11
102.122776
 21
176.773783
 31
0.0
  0
LINE
  5
1C89
100
AcDbEntity
  8
ALPHA
100
AcDbLine
 10
106.122776
 20
175.898783
 30
0.0
 11
106.122776
 21
175.848783
 31
0.0
  0
LINE
  5
1C8A
100
AcDbEntity
  8
ALPHA
100
AcDbLine
 10
112.722776
 20
175.848783
 30
0.0
 11
112.722776
 21
175.898783
 31
0.0
  0
LINE
  5
1C8B
100
AcDbEntity
  8
ALPHA
100
AcDbLine
 10
116.553716
 20
175.498783
 30
0.0
 11
116.322776
 21
175.898783
 31
0.0
  0
LINE
  5
1C8C
100
AcDbEntity
  8
ALPHA
100
AcDbLine
 10
118.122776
 20
175.498783
 30
0.0
 11
116.553716
 21
175.498783
 31
0.0
  0
LINE
  5
1C8D
100
AcDbEntity
  8
ALPHA
100
AcDbLine
 10
102.122776
 20
180.823783
 30
0.0
 11
102.122776
 21
180.898783
 31
0.0
  0
LINE
  5
1C8E
100
AcDbEntity
  8
ALPHA
100
AcDbLine
 10
102.122776
 20
186.298783
 30
0.0
 11
102.122776
 21
186.373783
 31
0.0
  0
LINE
  5
1C8F
100
AcDbEntity
  8
ALPHA
100
AcDbLine
 10
116.553716
 20
191.698783
 30
0.0
 11
118.122776
 21
191.698783
 31
0.0
  0
LINE
  5
1C90
100
AcDbEntity
  8
ALPHA
100
AcDbLine
 10
116.322776
 20
191.298783
 30
0.0
 11
116.553716
 21
191.698783
 31
0.0
  0
LINE
  5
1C91
100
AcDbEntity
  8
ALPHA
100
AcDbLine
 10
112.722776
 20
191.298783
 30
0.0
 11
112.722776
 21
191.348783
 31
0.0
  0
LINE
  5
1C92
100
AcDbEntity
  8
ALPHA
100
AcDbLine
 10
106.122776
 20
191.348783
 30
0.0
 11
106.122776
 21
191.298783
 31
0.0
  0
LINE
  5
1C93
100
AcDbEntity
  8
ALPHA
100
AcDbLine
 10
102.122776
 20
190.423783
 30
0.0
 11
102.122776
 21
190.498783
 31
0.0
  0
LWPOLYLINE
  5
1C94
100
AcDbEntity
  8
ALPHA
100
AcDbPolyline
 90
        4
 70
     0
 43
0.0
 10
90.319186
 20
180.37718
 10
90.319186
 20
180.196035
 10
90.319186
 20
180.085801
 10
90.319186
 20
180.048783
  0
LINE
  5
1C9A
100
AcDbEntity
  8
ALPHA
100
AcDbLine
 10
95.822776
 20
186.720385
 30
0.0
 11
95.922776
 21
186.720385
 31
0.0
  0
LINE
  5
1C9B
100
AcDbEntity
  8
ALPHA
100
AcDbLine
 10
89.972776
 20
186.720385
 30
0.0
 11
95.122776
 21
186.720385
 31
0.0
  0
LWPOLYLINE
  5
1C9C
100
AcDbEntity
  8
ALPHA
100
AcDbPolyline
 90
        4
 70
     0
 43
0.0
 10
90.319186
 20
187.148783
 10
90.319186
 20
187.111781
 10
90.319186
 20
187.001549
 10
90.319186
 20
186.820385
  0
LINE
  5
1CA2
100
AcDbEntity
  8
ALPHA
100
AcDbLine
 10
95.822776
 20
180.47718
 30
0.0
 11
95.922776
 21
180.47718
 31
0.0
  0
LINE
  5
1CA3
100
AcDbEntity
  8
ALPHA
100
AcDbLine
 10
89.972776
 20
180.47718
 30
0.0
 11
95.122776
 21
180.47718
 31
0.0
  0
LINE
  5
1CA4
100
AcDbEntity
  8
ALPHA
100
AcDbLine
 10
95.122776
 20
180.077419
 30
0.0
 11
92.922776
 21
180.077419
 31
0.0
  0
LINE
  5
1CA5
100
AcDbEntity
  8
ALPHA
100
AcDbLine
 10
95.922776
 20
180.077419
 30
0.0
 11
95.822776
 21
180.077419
 31
0.0
  0
LINE
  5
1CA6
100
AcDbEntity
  8
ALPHA
100
AcDbLine
 10
95.822776
 20
186.820385
 30
0.0
 11
95.922776
 21
186.820385
 31
0.0
  0
LINE
  5
1CA7
100
AcDbEntity
  8
ALPHA
100
AcDbLine
 10
89.972776
 20
186.820385
 30
0.0
 11
95.122776
 21
186.820385
 31
0.0
  0
LINE
  5
1CA8
100
AcDbEntity
  8
ALPHA
100
AcDbLine
 10
95.822776
 20
180.37718
 30
0.0
 11
95.922776
 21
180.37718
 31
0.0
  0
LINE
  5
1CA9
100
AcDbEntity
  8
ALPHA
100
AcDbLine
 10
89.972776
 20
180.37718
 30
0.0
 11
95.122776
 21
180.37718
 31
0.0
  0
LINE
  5
1CAA
100
AcDbEntity
  8
ALPHA
100
AcDbLine
 10
93.922776
 20
179.338783
 30
0.0
 11
92.922776
 21
179.338783
 31
0.0
  0
LINE
  5
1CAB
100
AcDbEntity
  8
ALPHA
100
AcDbLine
 10
92.922776
 20
179.338783
 30
0.0
 11
92.922776
 21
180.077419
 31
0.0
  0
LINE
  5
1CAC
100
AcDbEntity
  8
ALPHA
100
AcDbLine
 10
89.972776
 20
180.848783
 30
0.0
 11
90.182755
 21
180.848783
 31
0.0
  0
LINE
  5
1CAD
100
AcDbEntity
  8
ALPHA
100
AcDbLine
 10
89.972776
 20
180.47718
 30
0.0
 11
89.972776
 21
180.848783
 31
0.0
  0
LINE
  5
1CAE
100
AcDbEntity
  8
ALPHA
100
AcDbLine
 10
101.622776
 20
176.798783
 30
0.0
 11
101.522776
 21
176.798783
 31
0.0
  0
LINE
  5
1CAF
100
AcDbEntity
  8
ALPHA
100
AcDbLine
 10
101.522776
 20
190.398783
 30
0.0
 11
101.622776
 21
190.398783
 31
0.0
  0
LINE
  5
1CB0
100
AcDbEntity
  8
ALPHA
100
AcDbLine
 10
89.972776
 20
186.348783
 30
0.0
 11
89.972776
 21
186.720385
 31
0.0
  0
LINE
  5
1CB1
100
AcDbEntity
  8
ALPHA
100
AcDbLine
 10
89.972776
 20
186.348783
 30
0.0
 11
90.182755
 21
186.348783
 31
0.0
  0
LINE
  5
1CB2
100
AcDbEntity
  8
ALPHA
100
AcDbLine
 10
89.972776
 20
186.820385
 30
0.0
 11
89.972776
 21
186.948783
 31
0.0
  0
LINE
  5
1CB3
100
AcDbEntity
  8
ALPHA
100
AcDbLine
 10
89.972776
 20
180.848783
 30
0.0
 11
89.972776
 21
180.918783
 31
0.0
  0
LINE
  5
1CB4
100
AcDbEntity
  8
ALPHA
100
AcDbLine
 10
89.972776
 20
186.278783
 30
0.0
 11
89.972776
 21
186.348783
 31
0.0
  0
LINE
  5
1CB5
100
AcDbEntity
  8
ALPHA
100
AcDbLine
 10
92.922776
 20
180.048783
 30
0.0
 11
90.319186
 21
180.048783
 31
0.0
  0
LINE
  5
1CB6
100
AcDbEntity
  8
ALPHA
100
AcDbLine
 10
95.122776
 20
187.148783
 30
0.0
 11
90.319186
 21
187.148783
 31
0.0
  0
LINE
  5
1CB7
100
AcDbEntity
  8
ALPHA
100
AcDbLine
 10
95.922776
 20
187.148783
 30
0.0
 11
95.822776
 21
187.148783
 31
0.0
  0
LINE
  5
1CB8
100
AcDbEntity
  8
ALPHA
100
AcDbLine
 10
90.319186
 20
180.048783
 30
0.0
 11
89.972776
 21
180.248783
 31
0.0
  0
LINE
  5
1CB9
100
AcDbEntity
  8
ALPHA
100
AcDbLine
 10
89.972776
 20
180.248783
 30
0.0
 11
89.972776
 21
180.37718
 31
0.0
  0
LINE
  5
1CBA
100
AcDbEntity
  8
ALPHA
100
AcDbLine
 10
90.319186
 20
187.148783
 30
0.0
 11
89.972776
 21
186.948783
 31
0.0
  0
LINE
  5
1CBB
100
AcDbEntity
  8
ALPHA
100
AcDbLine
 10
89.972776
 20
180.47718
 30
0.0
 11
89.972776
 21
180.37718
 31
0.0
  0
LINE
  5
1CBC
100
AcDbEntity
  8
ALPHA
100
AcDbLine
 10
95.822776
 20
186.820385
 30
0.0
 11
95.922776
 21
186.820385
 31
0.0
  0
LINE
  5
1CBD
100
AcDbEntity
  8
ALPHA
100
AcDbLine
 10
89.972776
 20
186.820385
 30
0.0
 11
95.122776
 21
186.820385
 31
0.0
  0
LINE
  5
1CBE
100
AcDbEntity
  8
ALPHA
100
AcDbLine
 10
89.972776
 20
186.820385
 30
0.0
 11
89.972776
 21
186.720385
 31
0.0
  0
LINE
  5
1CBF
100
AcDbEntity
  8
ALPHA
100
AcDbLine
 10
88.966254
 20
185.998783
 30
0.0
 11
88.272776
 21
185.998783
 31
0.0
  0
LINE
  5
1CC0
100
AcDbEntity
  8
ALPHA
100
AcDbLine
 10
88.272776
 20
185.998783
 30
0.0
 11
88.272776
 21
185.848783
 31
0.0
  0
LINE
  5
1CC1
100
AcDbEntity
  8
ALPHA
100
AcDbLine
 10
79.388508
 20
184.748783
 30
0.0
 11
78.122776
 21
184.748783
 31
0.0
  0
LINE
  5
1CC2
100
AcDbEntity
  8
ALPHA
100
AcDbLine
 10
76.822776
 20
183.998783
 30
0.0
 11
78.122776
 21
184.748783
 31
0.0
  0
LINE
  5
1CC3
100
AcDbEntity
  8
ALPHA
100
AcDbLine
 10
85.172776
 20
181.198783
 30
0.0
 11
88.966254
 21
181.198783
 31
0.0
  0
LINE
  5
1CC4
100
AcDbEntity
  8
ALPHA
100
AcDbLine
 10
85.022776
 20
181.348783
 30
0.0
 11
85.172776
 21
181.198783
 31
0.0
  0
LINE
  5
1CC5
100
AcDbEntity
  8
ALPHA
100
AcDbLine
 10
78.122776
 20
182.248783
 30
0.0
 11
79.370496
 21
182.248783
 31
0.0
  0
LINE
  5
1CC6
100
AcDbEntity
  8
ALPHA
100
AcDbLine
 10
78.122776
 20
182.248783
 30
0.0
 11
76.822776
 21
182.998783
 31
0.0
  0
LINE
  5
1CC7
100
AcDbEntity
  8
ALPHA
100
AcDbLine
 10
76.822776
 20
183.998783
 30
0.0
 11
76.822776
 21
182.998783
 31
0.0
  0
LINE
  5
1CC8
100
AcDbEntity
  8
ALPHA
100
AcDbLine
 10
118.122776
 20
178.39223
 30
0.0
 11
117.322776
 21
178.39223
 31
0.0
  0
LINE
  5
1CC9
100
AcDbEntity
  8
ALPHA
100
AcDbLine
 10
118.122776
 20
188.805335
 30
0.0
 11
117.322776
 21
188.805335
 31
0.0
  0
LINE
  5
1CCA
100
AcDbEntity
  8
ALPHA
100
AcDbLine
 10
118.122776
 20
179.805335
 30
0.0
 11
117.322776
 21
179.805335
 31
0.0
  0
LINE
  5
1CCB
100
AcDbEntity
  8
ALPHA
100
AcDbLine
 10
118.122776
 20
187.39223
 30
0.0
 11
117.322776
 21
187.39223
 31
0.0
  0
LINE
  5
1CCC
100
AcDbEntity
  8
ALPHA
100
AcDbLine
 10
117.722776
 20
181.398783
 30
0.0
 11
117.722776
 21
185.798783
 31
0.0
  0
LINE
  5
1CCD
100
AcDbEntity
  8
ALPHA
100
AcDbLine
 10
117.722776
 20
181.398783
 30
0.0
 11
116.922776
 21
181.398783
 31
0.0
  0
LINE
  5
1CCE
100
AcDbEntity
  8
ALPHA
100
AcDbLine
 10
116.922776
 20
175.898783
 30
0.0
 11
116.922776
 21
181.398783
 31
0.0
  0
LINE
  5
1CCF
100
AcDbEntity
  8
ALPHA
100
AcDbLine
 10
102.122776
 20
175.898783
 30
0.0
 11
116.922776
 21
175.898783
 31
0.0
  0
LINE
  5
1CD0
100
AcDbEntity
  8
ALPHA
100
AcDbLine
 10
102.122776
 20
176.698783
 30
0.0
 11
102.122776
 21
175.898783
 31
0.0
  0
LINE
  5
1CD1
100
AcDbEntity
  8
ALPHA
100
AcDbLine
 10
102.122776
 20
176.698783
 30
0.0
 11
102.572776
 21
176.698783
 31
0.0
  0
LINE
  5
1CD2
100
AcDbEntity
  8
ALPHA
100
AcDbLine
 10
102.572776
 20
176.698783
 30
0.0
 11
102.572776
 21
180.898783
 31
0.0
  0
LINE
  5
1CD3
100
AcDbEntity
  8
ALPHA
100
AcDbLine
 10
102.122776
 20
180.898783
 30
0.0
 11
102.572776
 21
180.898783
 31
0.0
  0
LINE
  5
1CD4
100
AcDbEntity
  8
ALPHA
100
AcDbLine
 10
102.122776
 20
186.298783
 30
0.0
 11
102.122776
 21
180.898783
 31
0.0
  0
LINE
  5
1CD5
100
AcDbEntity
  8
ALPHA
100
AcDbLine
 10
102.122776
 20
186.298783
 30
0.0
 11
102.572776
 21
186.298783
 31
0.0
  0
LINE
  5
1CD6
100
AcDbEntity
  8
ALPHA
100
AcDbLine
 10
102.572776
 20
186.298783
 30
0.0
 11
102.572776
 21
190.498783
 31
0.0
  0
LINE
  5
1CD7
100
AcDbEntity
  8
ALPHA
100
AcDbLine
 10
102.122776
 20
190.498783
 30
0.0
 11
102.572776
 21
190.498783
 31
0.0
  0
LINE
  5
1CD8
100
AcDbEntity
  8
ALPHA
100
AcDbLine
 10
102.122776
 20
191.298783
 30
0.0
 11
102.122776
 21
190.498783
 31
0.0
  0
LINE
  5
1CD9
100
AcDbEntity
  8
ALPHA
100
AcDbLine
 10
116.922776
 20
191.298783
 30
0.0
 11
102.122776
 21
191.298783
 31
0.0
  0
LINE
  5
1CDA
100
AcDbEntity
  8
ALPHA
100
AcDbLine
 10
116.922776
 20
185.798783
 30
0.0
 11
116.922776
 21
191.298783
 31
0.0
  0
LINE
  5
1CDB
100
AcDbEntity
  8
ALPHA
100
AcDbLine
 10
117.722776
 20
185.798783
 30
0.0
 11
116.922776
 21
185.798783
 31
0.0
  0
LINE
  5
1CDC
100
AcDbEntity
  8
ALPHA
100
AcDbLine
 10
118.122776
 20
175.898783
 30
0.0
 11
116.922776
 21
175.898783
 31
0.0
  0
LINE
  5
1CDD
100
AcDbEntity
  8
ALPHA
100
AcDbLine
 10
118.122776
 20
188.789975
 30
0.0
 11
118.122776
 21
188.805335
 31
0.0
  0
LINE
  5
1CDE
100
AcDbEntity
  8
ALPHA
100
AcDbLine
 10
118.122776
 20
178.40759
 30
0.0
 11
118.122776
 21
178.39223
 31
0.0
  0
LINE
  5
1CDF
100
AcDbEntity
  8
ALPHA
100
AcDbLine
 10
118.122776
 20
187.40759
 30
0.0
 11
118.122776
 21
187.39223
 31
0.0
  0
LINE
  5
1CE0
100
AcDbEntity
  8
ALPHA
100
AcDbLine
 10
118.122776
 20
179.789975
 30
0.0
 11
118.122776
 21
179.805335
 31
0.0
  0
LINE
  5
1CE1
100
AcDbEntity
  8
ALPHA
100
AcDbLine
 10
118.122776
 20
191.298783
 30
0.0
 11
116.922776
 21
191.298783
 31
0.0
  0
LINE
  5
1CE2
100
AcDbEntity
  8
ALPHA
100
AcDbLine
 10
102.122776
 20
181.598783
 30
0.0
 11
101.922776
 21
181.598783
 31
0.0
  0
LINE
  5
1CE3
100
AcDbEntity
  8
ALPHA
100
AcDbLine
 10
101.922776
 20
185.598783
 30
0.0
 11
102.122776
 21
185.598783
 31
0.0
  0
LINE
  5
1CE4
100
AcDbEntity
  8
ALPHA
100
AcDbLine
 10
102.422776
 20
187.398783
 30
0.0
 11
102.572776
 21
187.398783
 31
0.0
  0
LINE
  5
1CE5
100
AcDbEntity
  8
ALPHA
100
AcDbLine
 10
102.422776
 20
189.398783
 30
0.0
 11
102.572776
 21
189.398783
 31
0.0
  0
LINE
  5
1CE6
100
AcDbEntity
  8
ALPHA
100
AcDbLine
 10
102.422776
 20
177.798783
 30
0.0
 11
102.572776
 21
177.798783
 31
0.0
  0
LINE
  5
1CE7
100
AcDbEntity
  8
ALPHA
100
AcDbLine
 10
102.422776
 20
179.798783
 30
0.0
 11
102.572776
 21
179.798783
 31
0.0
  0
LINE
  5
1CE8
100
AcDbEntity
  8
ALPHA
100
AcDbLine
 10
118.122776
 20
185.098783
 30
0.0
 11
117.722776
 21
185.098783
 31
0.0
  0
LINE
  5
1CE9
100
AcDbEntity
  8
ALPHA
100
AcDbLine
 10
118.122776
 20
191.298783
 30
0.0
 11
118.122776
 21
188.805335
 31
0.0
  0
LINE
  5
1CEA
100
AcDbEntity
  8
ALPHA
100
AcDbLine
 10
118.122776
 20
178.40759
 30
0.0
 11
117.322776
 21
178.40759
 31
0.0
  0
LINE
  5
1CEB
100
AcDbEntity
  8
ALPHA
100
AcDbLine
 10
118.122776
 20
179.789975
 30
0.0
 11
117.322776
 21
179.789975
 31
0.0
  0
LINE
  5
1CEC
100
AcDbEntity
  8
ALPHA
100
AcDbLine
 10
117.322776
 20
187.39223
 30
0.0
 11
117.322776
 21
188.805335
 31
0.0
  0
LINE
  5
1CED
100
AcDbEntity
  8
ALPHA
100
AcDbLine
 10
118.122776
 20
187.39223
 30
0.0
 11
118.122776
 21
185.098783
 31
0.0
  0
LINE
  5
1CEE
100
AcDbEntity
  8
ALPHA
100
AcDbLine
 10
118.122776
 20
187.40759
 30
0.0
 11
117.322776
 21
187.40759
 31
0.0
  0
LINE
  5
1CEF
100
AcDbEntity
  8
ALPHA
100
AcDbLine
 10
118.122776
 20
188.789975
 30
0.0
 11
117.322776
 21
188.789975
 31
0.0
  0
LINE
  5
1CF0
100
AcDbEntity
  8
ALPHA
100
AcDbLine
 10
118.122776
 20
182.098783
 30
0.0
 11
117.722776
 21
182.098783
 31
0.0
  0
LINE
  5
1CF1
100
AcDbEntity
  8
ALPHA
100
AcDbLine
 10
118.122776
 20
182.098783
 30
0.0
 11
118.122776
 21
179.805335
 31
0.0
  0
LINE
  5
1CF2
100
AcDbEntity
  8
ALPHA
100
AcDbLine
 10
117.322776
 20
178.39223
 30
0.0
 11
117.322776
 21
179.805335
 31
0.0
  0
LINE
  5
1CF3
100
AcDbEntity
  8
ALPHA
100
AcDbLine
 10
118.122776
 20
178.39223
 30
0.0
 11
118.122776
 21
175.898783
 31
0.0
  0
LINE
  5
1CF4
100
AcDbEntity
  8
ALPHA
100
AcDbLine
 10
125.422776
 20
190.198783
 30
0.0
 11
125.422776
 21
189.698783
 31
0.0
  0
LINE
  5
1CF5
100
AcDbEntity
  8
ALPHA
100
AcDbLine
 10
125.422776
 20
186.398783
 30
0.0
 11
125.422776
 21
185.898783
 31
0.0
  0
ARC
  5
1CF6
100
AcDbEntity
  8
ALPHA
100
AcDbCircle
 10
118.189284
 20
186.698783
 30
0.0
 40
0.3
100
AcDbArc
 50
257.157112
 51
270.0
  0
ARC
  5
1CF7
100
AcDbEntity
  8
ALPHA
100
AcDbCircle
 10
118.189284
 20
186.698783
 30
0.0
 40
0.8
100
AcDbArc
 50
265.209709
 51
270.0
  0
LINE
  5
1CF8
100
AcDbEntity
  8
ALPHA
100
AcDbLine
 10
125.922776
 20
186.301592
 30
0.0
 11
125.922776
 21
185.995973
 31
0.0
  0
LINE
  5
1CF9
100
AcDbEntity
  8
ALPHA
100
AcDbLine
 10
125.922776
 20
185.995973
 30
0.0
 11
125.422776
 21
185.898783
 31
0.0
  0
LINE
  5
1CFA
100
AcDbEntity
  8
ALPHA
100
AcDbLine
 10
125.922776
 20
186.301592
 30
0.0
 11
125.422776
 21
186.398783
 31
0.0
  0
LINE
  5
1CFB
100
AcDbEntity
  8
ALPHA
100
AcDbLine
 10
125.922776
 20
190.101592
 30
0.0
 11
125.922776
 21
189.795973
 31
0.0
  0
LINE
  5
1CFC
100
AcDbEntity
  8
ALPHA
100
AcDbLine
 10
125.922776
 20
189.795973
 30
0.0
 11
125.422776
 21
189.698783
 31
0.0
  0
LINE
  5
1CFD
100
AcDbEntity
  8
ALPHA
100
AcDbLine
 10
125.922776
 20
190.101592
 30
0.0
 11
125.422776
 21
190.198783
 31
0.0
  0
LINE
  5
1CFE
100
AcDbEntity
  8
ALPHA
100
AcDbLine
 10
125.422776
 20
189.698783
 30
0.0
 11
118.122776
 21
189.698783
 31
0.0
  0
LINE
  5
1CFF
100
AcDbEntity
  8
ALPHA
100
AcDbLine
 10
125.422776
 20
190.198783
 30
0.0
 11
118.122776
 21
190.198783
 31
0.0
  0
LINE
  5
1D00
100
AcDbEntity
  8
ALPHA
100
AcDbLine
 10
125.422776
 20
185.898783
 30
0.0
 11
118.189284
 21
185.898783
 31
0.0
  0
LINE
  5
1D01
100
AcDbEntity
  8
ALPHA
100
AcDbLine
 10
118.189284
 20
186.398783
 30
0.0
 11
125.422776
 21
186.398783
 31
0.0
  0
LINE
  5
1D02
100
AcDbEntity
  8
ALPHA
100
AcDbLine
 10
125.422776
 20
176.998783
 30
0.0
 11
125.422776
 21
177.498783
 31
0.0
  0
LINE
  5
1D03
100
AcDbEntity
  8
ALPHA
100
AcDbLine
 10
125.422776
 20
180.798783
 30
0.0
 11
125.422776
 21
181.298783
 31
0.0
  0
ARC
  5
1D04
100
AcDbEntity
  8
ALPHA
100
AcDbCircle
 10
118.189284
 20
180.498783
 30
0.0
 40
0.3
100
AcDbArc
 50
90.0
 51
102.842888
  0
ARC
  5
1D05
100
AcDbEntity
  8
ALPHA
100
AcDbCircle
 10
118.189284
 20
180.498783
 30
0.0
 40
0.8
100
AcDbArc
 50
90.0
 51
94.790291
  0
LINE
  5
1D06
100
AcDbEntity
  8
ALPHA
100
AcDbLine
 10
125.922776
 20
177.095973
 30
0.0
 11
125.922776
 21
177.401592
 31
0.0
  0
LINE
  5
1D07
100
AcDbEntity
  8
ALPHA
100
AcDbLine
 10
125.922776
 20
177.095973
 30
0.0
 11
125.422776
 21
176.998783
 31
0.0
  0
LINE
  5
1D08
100
AcDbEntity
  8
ALPHA
100
AcDbLine
 10
125.922776
 20
177.401592
 30
0.0
 11
125.422776
 21
177.498783
 31
0.0
  0
LINE
  5
1D09
100
AcDbEntity
  8
ALPHA
100
AcDbLine
 10
125.922776
 20
180.895973
 30
0.0
 11
125.922776
 21
181.201592
 31
0.0
  0
LINE
  5
1D0A
100
AcDbEntity
  8
ALPHA
100
AcDbLine
 10
125.922776
 20
180.895973
 30
0.0
 11
125.422776
 21
180.798783
 31
0.0
  0
LINE
  5
1D0B
100
AcDbEntity
  8
ALPHA
100
AcDbLine
 10
125.922776
 20
181.201592
 30
0.0
 11
125.422776
 21
181.298783
 31
0.0
  0
LINE
  5
1D0C
100
AcDbEntity
  8
ALPHA
100
AcDbLine
 10
125.422776
 20
177.498783
 30
0.0
 11
118.122776
 21
177.498783
 31
0.0
  0
LINE
  5
1D0D
100
AcDbEntity
  8
ALPHA
100
AcDbLine
 10
125.422776
 20
176.998783
 30
0.0
 11
118.122776
 21
176.998783
 31
0.0
  0
LINE
  5
1D0E
100
AcDbEntity
  8
ALPHA
100
AcDbLine
 10
125.422776
 20
181.298783
 30
0.0
 11
118.189284
 21
181.298783
 31
0.0
  0
LINE
  5
1D0F
100
AcDbEntity
  8
ALPHA
100
AcDbLine
 10
118.189284
 20
180.798783
 30
0.0
 11
125.422776
 21
180.798783
 31
0.0
  0
LINE
  5
1D10
100
AcDbEntity
  8
ALPHA
100
AcDbLine
 10
82.472776
 20
184.248783
 30
0.0
 11
82.472776
 21
182.948783
 31
0.0
  0
LINE
  5
1D11
100
AcDbEntity
  8
ALPHA
100
AcDbLine
 10
82.472776
 20
184.248783
 30
0.0
 11
82.872776
 21
184.248783
 31
0.0
  0
LINE
  5
1D12
100
AcDbEntity
  8
ALPHA
100
AcDbLine
 10
82.172776
 20
184.248783
 30
0.0
 11
82.472776
 21
184.248783
 31
0.0
  0
LINE
  5
1D13
100
AcDbEntity
  8
ALPHA
100
AcDbLine
 10
82.172776
 20
182.948783
 30
0.0
 11
82.472776
 21
182.948783
 31
0.0
  0
LWPOLYLINE
  5
1D14
100
AcDbEntity
  8
ALPHA
100
AcDbPolyline
 90
       18
 70
     0
 43
0.0
 10
88.772776
 20
184.248783
 10
88.79123
 20
184.248783
 10
88.809526
 20
184.248783
 10
88.827509
 20
184.248783
 10
88.845024
 20
184.248783
 10
88.861924
 20
184.248783
 10
88.878062
 20
184.248783
 10
88.893303
 20
184.248783
 10
88.907515
 20
184.248783
 10
88.920578
 20
184.248783
 10
88.932379
 20
184.248783
 10
88.942819
 20
184.248783
 10
88.951809
 20
184.248783
 10
88.95927
 20
184.248783
 10
88.965141
 20
184.248783
 10
88.969371
 20
184.248783
 10
88.971923
 20
184.248783
 10
88.972776
 20
184.248783
  0
LWPOLYLINE
  5
1D28
100
AcDbEntity
  8
ALPHA
100
AcDbPolyline
 90
        4
 70
     0
 43
0.0
 10
79.137033
 20
182.098783
 10
79.138005
 20
182.09701
 10
79.138985
 20
182.095865
 10
79.139968
 20
182.095352
  0
LWPOLYLINE
  5
1D2E
100
AcDbEntity
  8
ALPHA
100
AcDbPolyline
 90
       30
 70
     0
 43
0.0
 10
82.172776
 20
184.248783
 10
82.172776
 20
184.335405
 10
82.172776
 20
184.421773
 10
82.172776
 20
184.507634
 10
82.172776
 20
184.592735
 10
82.172776
 20
184.676828
 10
82.172776
 20
184.759665
 10
82.172776
 20
184.841004
 10
82.172776
 20
184.920605
 10
82.172776
 20
184.998236
 10
82.172776
 20
185.073669
 10
82.172776
 20
185.146682
 10
82.172776
 20
185.217061
 10
82.172776
 20
185.284601
 10
82.172776
 20
185.349102
 10
82.172776
 20
185.410375
 10
82.172776
 20
185.468242
 10
82.172776
 20
185.522531
 10
82.172776
 20
185.573085
 10
82.172776
 20
185.619754
 10
82.172776
 20
185.662402
 10
82.172776
 20
185.700903
 10
82.172776
 20
185.735145
 10
82.172776
 20
185.765028
 10
82.172776
 20
185.790463
 10
82.172776
 20
185.811375
 10
82.172776
 20
185.827705
 10
82.172776
 20
185.839403
 10
82.172776
 20
185.846436
 10
82.172776
 20
185.848783
  0
LINE
  5
1D4E
100
AcDbEntity
  8
ALPHA
100
AcDbLine
 10
82.472776
 20
182.948783
 30
0.0
 11
82.872776
 21
182.948783
 31
0.0
  0
LWPOLYLINE
  5
1D4F
100
AcDbEntity
  8
ALPHA
100
AcDbPolyline
 90
       27
 70
     0
 43
0.0
 10
82.472776
 20
182.948783
 10
82.472776
 20
182.87029
 10
82.472776
 20
182.792085
 10
82.472776
 20
182.714451
 10
82.472776
 20
182.637672
 10
82.472776
 20
182.562029
 10
82.472776
 20
182.487796
 10
82.472776
 20
182.415246
 10
82.472776
 20
182.344642
 10
82.472776
 20
182.276243
 10
82.472776
 20
182.210298
 10
82.472776
 20
182.147048
 10
82.472776
 20
182.086723
 10
82.472776
 20
182.029544
 10
82.472776
 20
181.975719
 10
82.472776
 20
181.925444
 10
82.472776
 20
181.878903
 10
82.472776
 20
181.836267
 10
82.472776
 20
181.79769
 10
82.472776
 20
181.763313
 10
82.472776
 20
181.733261
 10
82.472776
 20
181.707645
 10
82.472776
 20
181.686558
 10
82.472776
 20
181.670077
 10
82.472776
 20
181.658261
 10
82.472776
 20
181.651154
 10
82.472776
 20
181.648783
  0
LWPOLYLINE
  5
1D6C
100
AcDbEntity
  8
ALPHA
100
AcDbPolyline
 90
       27
 70
     0
 43
0.0
 10
82.472776
 20
185.548783
 10
82.472776
 20
185.546411
 10
82.472776
 20
185.539304
 10
82.472776
 20
185.527488
 10
82.472776
 20
185.511007
 10
82.472776
 20
185.48992
 10
82.472776
 20
185.464304
 10
82.472776
 20
185.434252
 10
82.472776
 20
185.399875
 10
82.472776
 20
185.361298
 10
82.472776
 20
185.318662
 10
82.472776
 20
185.272121
 10
82.472776
 20
185.221846
 10
82.472776
 20
185.168021
 10
82.472776
 20
185.110842
 10
82.472776
 20
185.050517
 10
82.472776
 20
184.987267
 10
82.472776
 20
184.921322
 10
82.472776
 20
184.852923
 10
82.472776
 20
184.782319
 10
82.472776
 20
184.709769
 10
82.472776
 20
184.635536
 10
82.472776
 20
184.559893
 10
82.472776
 20
184.483114
 10
82.472776
 20
184.40548
 10
82.472776
 20
184.327275
 10
82.472776
 20
184.248783
  0
LINE
  5
1D89
100
AcDbEntity
  8
ALPHA
100
AcDbLine
 10
79.139968
 20
182.095352
 30
0.0
 11
77.322776
 21
182.095352
 31
0.0
  0
ARC
  5
1D8A
100
AcDbEntity
  8
ALPHA
100
AcDbCircle
 10
77.322776
 20
182.948783
 30
0.0
 40
0.653461
100
AcDbArc
 50
180.0
 51
270.0
  0
LWPOLYLINE
  5
1D8B
100
AcDbEntity
  8
ALPHA
100
AcDbPolyline
 90
       30
 70
     0
 43
0.0
 10
81.072776
 20
184.248783
 10
81.072776
 20
184.335405
 10
81.072776
 20
184.421773
 10
81.072776
 20
184.507634
 10
81.072776
 20
184.592735
 10
81.072776
 20
184.676828
 10
81.072776
 20
184.759665
 10
81.072776
 20
184.841004
 10
81.072776
 20
184.920605
 10
81.072776
 20
184.998236
 10
81.072776
 20
185.073669
 10
81.072776
 20
185.146682
 10
81.072776
 20
185.217061
 10
81.072776
 20
185.284601
 10
81.072776
 20
185.349102
 10
81.072776
 20
185.410375
 10
81.072776
 20
185.468242
 10
81.072776
 20
185.522531
 10
81.072776
 20
185.573085
 10
81.072776
 20
185.619754
 10
81.072776
 20
185.662402
 10
81.072776
 20
185.700903
 10
81.072776
 20
185.735145
 10
81.072776
 20
185.765028
 10
81.072776
 20
185.790463
 10
81.072776
 20
185.811375
 10
81.072776
 20
185.827705
 10
81.072776
 20
185.839403
 10
81.072776
 20
185.846436
 10
81.072776
 20
185.848783
  0
LWPOLYLINE
  5
1DAB
100
AcDbEntity
  8
ALPHA
100
AcDbPolyline
 90
       18
 70
     0
 43
0.0
 10
77.322776
 20
182.295322
 10
77.322776
 20
182.277073
 10
77.322776
 20
182.258976
 10
77.322776
 20
182.241182
 10
77.322776
 20
182.22384
 10
77.322776
 20
182.207095
 10
77.322776
 20
182.191085
 10
77.322776
 20
182.175945
 10
77.322776
 20
182.161801
 10
77.322776
 20
182.148771
 10
77.322776
 20
182.136964
 10
77.322776
 20
182.126478
 10
77.322776
 20
182.117401
 10
77.322776
 20
182.109808
 10
77.322776
 20
182.103763
 10
77.322776
 20
182.099317
 10
77.322776
 20
182.096505
 10
77.322776
 20
182.095352
  0
ARC
  5
1DBF
100
AcDbEntity
  8
ALPHA
100
AcDbCircle
 10
77.322776
 20
182.948783
 30
0.0
 40
0.85343
100
AcDbArc
 50
180.0
 51
270.0
  0
LINE
  5
1DC0
100
AcDbEntity
  8
ALPHA
100
AcDbLine
 10
76.669315
 20
182.948783
 30
0.0
 11
76.669315
 21
184.248783
 31
0.0
  0
LINE
  5
1DC1
100
AcDbEntity
  8
ALPHA
100
AcDbLine
 10
81.072776
 20
184.248783
 30
0.0
 11
81.372776
 21
184.248783
 31
0.0
  0
LINE
  5
1DC2
100
AcDbEntity
  8
ALPHA
100
AcDbLine
 10
81.372776
 20
184.248783
 30
0.0
 11
81.772776
 21
184.248783
 31
0.0
  0
LINE
  5
1DC3
100
AcDbEntity
  8
ALPHA
100
AcDbLine
 10
81.372776
 20
184.248783
 30
0.0
 11
81.372776
 21
182.948783
 31
0.0
  0
LINE
  5
1DC4
100
AcDbEntity
  8
ALPHA
100
AcDbLine
 10
81.072776
 20
182.948783
 30
0.0
 11
81.372776
 21
182.948783
 31
0.0
  0
LINE
  5
1DC5
100
AcDbEntity
  8
ALPHA
100
AcDbLine
 10
81.372776
 20
182.948783
 30
0.0
 11
81.772776
 21
182.948783
 31
0.0
  0
LWPOLYLINE
  5
1DC6
100
AcDbEntity
  8
ALPHA
100
AcDbPolyline
 90
       27
 70
     0
 43
0.0
 10
81.372776
 20
182.948783
 10
81.372776
 20
182.87029
 10
81.372776
 20
182.792085
 10
81.372776
 20
182.714451
 10
81.372776
 20
182.637672
 10
81.372776
 20
182.562029
 10
81.372776
 20
182.487796
 10
81.372776
 20
182.415246
 10
81.372776
 20
182.344642
 10
81.372776
 20
182.276243
 10
81.372776
 20
182.210298
 10
81.372776
 20
182.147048
 10
81.372776
 20
182.086723
 10
81.372776
 20
182.029544
 10
81.372776
 20
181.975719
 10
81.372776
 20
181.925444
 10
81.372776
 20
181.878903
 10
81.372776
 20
181.836267
 10
81.372776
 20
181.79769
 10
81.372776
 20
181.763313
 10
81.372776
 20
181.733261
 10
81.372776
 20
181.707645
 10
81.372776
 20
181.686558
 10
81.372776
 20
181.670077
 10
81.372776
 20
181.658261
 10
81.372776
 20
181.651154
 10
81.372776
 20
181.648783
  0
LWPOLYLINE
  5
1DE3
100
AcDbEntity
  8
ALPHA
100
AcDbPolyline
 90
       18
 70
     0
 43
0.0
 10
76.669315
 20
182.948783
 10
76.651066
 20
182.948783
 10
76.632969
 20
182.948783
 10
76.615176
 20
182.948783
 10
76.597834
 20
182.948783
 10
76.581088
 20
182.948783
 10
76.565078
 20
182.948783
 10
76.549939
 20
182.948783
 10
76.535795
 20
182.948783
 10
76.522765
 20
182.948783
 10
76.510958
 20
182.948783
 10
76.500472
 20
182.948783
 10
76.491395
 20
182.948783
 10
76.483802
 20
182.948783
 10
76.477757
 20
182.948783
 10
76.47331
 20
182.948783
 10
76.470499
 20
182.948783
 10
76.469346
 20
182.948783
  0
LINE
  5
1DF7
100
AcDbEntity
  8
ALPHA
100
AcDbLine
 10
79.262758
 20
185.126711
 30
0.0
 11
79.262758
 21
185.848783
 31
0.0
  0
LINE
  5
1DF8
100
AcDbEntity
  8
ALPHA
100
AcDbLine
 10
76.469346
 20
182.948783
 30
0.0
 11
76.469346
 21
184.248783
 31
0.0
  0
ARC
  5
1DF9
100
AcDbEntity
  8
ALPHA
100
AcDbCircle
 10
77.322776
 20
184.248783
 30
0.0
 40
0.653461
100
AcDbArc
 50
90.0
 51
180.0
  0
LINE
  5
1DFA
100
AcDbEntity
  8
ALPHA
100
AcDbLine
 10
79.262758
 20
181.348783
 30
0.0
 11
79.262758
 21
182.070854
 31
0.0
  0
LINE
  5
1DFB
100
AcDbEntity
  8
ALPHA
100
AcDbLine
 10
79.262758
 20
182.070854
 30
0.0
 11
77.322776
 21
182.070854
 31
0.0
  0
ARC
  5
1DFC
100
AcDbEntity
  8
ALPHA
100
AcDbCircle
 10
77.322776
 20
182.948783
 30
0.0
 40
0.877928
100
AcDbArc
 50
180.0
 51
270.0
  0
LINE
  5
1DFD
100
AcDbEntity
  8
ALPHA
100
AcDbLine
 10
76.444848
 20
184.248783
 30
0.0
 11
76.444848
 21
182.948783
 31
0.0
  0
ARC
  5
1DFE
100
AcDbEntity
  8
ALPHA
100
AcDbCircle
 10
77.322776
 20
184.248783
 30
0.0
 40
0.877928
100
AcDbArc
 50
90.0
 51
180.0
  0
LINE
  5
1DFF
100
AcDbEntity
  8
ALPHA
100
AcDbLine
 10
79.262758
 20
185.126711
 30
0.0
 11
77.322776
 21
185.126711
 31
0.0
  0
LWPOLYLINE
  5
1E00
100
AcDbEntity
  8
ALPHA
100
AcDbPolyline
 90
       12
 70
     0
 43
0.0
 10
88.772776
 20
185.098783
 10
88.772776
 20
185.048701
 10
88.772776
 20
184.975067
 10
88.772776
 20
184.899435
 10
88.772776
 20
184.822018
 10
88.772776
 20
184.743048
 10
88.772776
 20
184.662733
 10
88.772776
 20
184.581245
 10
88.772776
 20
184.4988
 10
88.772776
 20
184.415698
 10
88.772776
 20
184.332254
 10
88.772776
 20
184.248783
  0
LWPOLYLINE
  5
1E0E
100
AcDbEntity
  8
ALPHA
100
AcDbPolyline
 90
       21
 70
     0
 43
0.0
 10
88.772776
 20
185.848783
 10
88.772776
 20
185.846604
 10
88.772776
 20
185.840052
 10
88.772776
 20
185.829128
 10
88.772776
 20
185.81386
 10
88.772776
 20
185.794307
 10
88.772776
 20
185.770525
 10
88.772776
 20
185.74257
 10
88.772776
 20
185.710511
 10
88.772776
 20
185.674444
 10
88.772776
 20
185.63447
 10
88.772776
 20
185.590698
 10
88.772776
 20
185.543244
 10
88.772776
 20
185.49224
 10
88.772776
 20
185.437827
 10
88.772776
 20
185.380153
 10
88.772776
 20
185.319377
 10
88.772776
 20
185.255665
 10
88.772776
 20
185.189192
 10
88.772776
 20
185.12014
 10
88.772776
 20
185.098783
  0
LWPOLYLINE
  5
1E25
100
AcDbEntity
  8
ALPHA
100
AcDbPolyline
 90
       27
 70
     0
 43
0.0
 10
80.272776
 20
185.548783
 10
80.272776
 20
185.546411
 10
80.272776
 20
185.539304
 10
80.272776
 20
185.527488
 10
80.272776
 20
185.511007
 10
80.272776
 20
185.48992
 10
80.272776
 20
185.464304
 10
80.272776
 20
185.434252
 10
80.272776
 20
185.399875
 10
80.272776
 20
185.361298
 10
80.272776
 20
185.318662
 10
80.272776
 20
185.272121
 10
80.272776
 20
185.221846
 10
80.272776
 20
185.168021
 10
80.272776
 20
185.110842
 10
80.272776
 20
185.050517
 10
80.272776
 20
184.987267
 10
80.272776
 20
184.921322
 10
80.272776
 20
184.852923
 10
80.272776
 20
184.782319
 10
80.272776
 20
184.709769
 10
80.272776
 20
184.635536
 10
80.272776
 20
184.559893
 10
80.272776
 20
184.483114
 10
80.272776
 20
184.40548
 10
80.272776
 20
184.327275
 10
80.272776
 20
184.248783
  0
LWPOLYLINE
  5
1E42
100
AcDbEntity
  8
ALPHA
100
AcDbPolyline
 90
       30
 70
     0
 43
0.0
 10
79.972776
 20
184.248783
 10
79.972776
 20
184.335405
 10
79.972776
 20
184.421773
 10
79.972776
 20
184.507634
 10
79.972776
 20
184.592735
 10
79.972776
 20
184.676828
 10
79.972776
 20
184.759665
 10
79.972776
 20
184.841004
 10
79.972776
 20
184.920605
 10
79.972776
 20
184.998236
 10
79.972776
 20
185.073669
 10
79.972776
 20
185.146682
 10
79.972776
 20
185.217061
 10
79.972776
 20
185.284601
 10
79.972776
 20
185.349102
 10
79.972776
 20
185.410375
 10
79.972776
 20
185.468242
 10
79.972776
 20
185.522531
 10
79.972776
 20
185.573085
 10
79.972776
 20
185.619754
 10
79.972776
 20
185.662402
 10
79.972776
 20
185.700903
 10
79.972776
 20
185.735145
 10
79.972776
 20
185.765028
 10
79.972776
 20
185.790463
 10
79.972776
 20
185.811375
 10
79.972776
 20
185.827705
 10
79.972776
 20
185.839403
 10
79.972776
 20
185.846436
 10
79.972776
 20
185.848783
  0
LINE
  5
1E62
100
AcDbEntity
  8
ALPHA
100
AcDbLine
 10
88.772776
 20
184.248783
 30
0.0
 11
82.872776
 21
184.248783
 31
0.0
  0
LINE
  5
1E63
100
AcDbEntity
  8
ALPHA
100
AcDbLine
 10
79.262758
 20
182.070854
 30
0.0
 11
79.139968
 21
182.095352
 31
0.0
  0
LWPOLYLINE
  5
1E64
100
AcDbEntity
  8
ALPHA
100
AcDbPolyline
 90
       30
 70
     0
 43
0.0
 10
79.468356
 20
182.948783
 10
79.468152
 20
182.862365
 10
79.467539
 20
182.776192
 10
79.466521
 20
182.690528
 10
79.465098
 20
182.605598
 10
79.463277
 20
182.521678
 10
79.46106
 20
182.438975
 10
79.458456
 20
182.357772
 10
79.455471
 20
182.278257
 10
79.452114
 20
182.200715
 10
79.448394
 20
182.125317
 10
79.444322
 20
182.052341
 10
79.439909
 20
181.981945
 10
79.435169
 20
181.914391
 10
79.430113
 20
181.849826
 10
79.42476
 20
181.788493
 10
79.41912
 20
181.730525
 10
79.413215
 20
181.676141
 10
79.407057
 20
181.625461
 10
79.400668
 20
181.578676
 10
79.394063
 20
181.535893
 10
79.387266
 20
181.49727
 10
79.380292
 20
181.462899
 10
79.373166
 20
181.432905
 10
79.365905
 20
181.407362
 10
79.358534
 20
181.386361
 10
79.351073
 20
181.369957
 10
79.343545
 20
181.358206
 10
79.335971
 20
181.35114
 10
79.328374
 20
181.348783
  0
LWPOLYLINE
  5
1E84
100
AcDbEntity
  8
ALPHA
100
AcDbPolyline
 90
       30
 70
     0
 43
0.0
 10
79.328374
 20
185.848783
 10
79.335971
 20
185.846425
 10
79.343545
 20
185.839359
 10
79.351073
 20
185.827608
 10
79.358534
 20
185.811204
 10
79.365905
 20
185.790203
 10
79.373166
 20
185.76466
 10
79.380292
 20
185.734666
 10
79.387266
 20
185.700295
 10
79.394063
 20
185.661672
 10
79.400668
 20
185.618889
 10
79.407057
 20
185.572104
 10
79.413215
 20
185.521424
 10
79.41912
 20
185.46704
 10
79.42476
 20
185.409072
 10
79.430113
 20
185.347739
 10
79.435169
 20
185.283174
 10
79.439909
 20
185.21562
 10
79.444322
 20
185.145224
 10
79.448394
 20
185.072248
 10
79.452114
 20
184.99685
 10
79.455471
 20
184.919308
 10
79.458456
 20
184.839793
 10
79.46106
 20
184.75859
 10
79.463277
 20
184.675887
 10
79.465098
 20
184.591967
 10
79.466521
 20
184.507037
 10
79.467539
 20
184.421373
 10
79.468152
 20
184.3352
 10
79.468356
 20
184.248783
  0
LINE
  5
1EA4
100
AcDbEntity
  8
ALPHA
100
AcDbLine
 10
79.262758
 20
185.126711
 30
0.0
 11
79.139968
 21
185.102213
 31
0.0
  0
LINE
  5
1EA5
100
AcDbEntity
  8
ALPHA
100
AcDbLine
 10
79.468356
 20
184.248783
 30
0.0
 11
79.468356
 21
182.948783
 31
0.0
  0
LWPOLYLINE
  5
1EA6
100
AcDbEntity
  8
ALPHA
100
AcDbPolyline
 90
       18
 70
     0
 43
0.0
 10
76.669315
 20
184.248783
 10
76.651066
 20
184.248783
 10
76.632969
 20
184.248783
 10
76.615176
 20
184.248783
 10
76.597834
 20
184.248783
 10
76.581088
 20
184.248783
 10
76.565078
 20
184.248783
 10
76.549939
 20
184.248783
 10
76.535795
 20
184.248783
 10
76.522765
 20
184.248783
 10
76.510958
 20
184.248783
 10
76.500472
 20
184.248783
 10
76.491395
 20
184.248783
 10
76.483802
 20
184.248783
 10
76.477757
 20
184.248783
 10
76.47331
 20
184.248783
 10
76.470499
 20
184.248783
 10
76.469346
 20
184.248783
  0
LINE
  5
1EBA
100
AcDbEntity
  8
ALPHA
100
AcDbLine
 10
88.772776
 20
182.948783
 30
0.0
 11
82.872776
 21
182.948783
 31
0.0
  0
LINE
  5
1EBB
100
AcDbEntity
  8
ALPHA
100
AcDbLine
 10
89.886173
 20
184.891529
 30
0.0
 11
88.972776
 21
184.891529
 31
0.0
  0
LINE
  5
1EBC
100
AcDbEntity
  8
ALPHA
100
AcDbLine
 10
79.972776
 20
184.248783
 30
0.0
 11
80.272776
 21
184.248783
 31
0.0
  0
LINE
  5
1EBD
100
AcDbEntity
  8
ALPHA
100
AcDbLine
 10
80.272776
 20
184.248783
 30
0.0
 11
80.672776
 21
184.248783
 31
0.0
  0
LINE
  5
1EBE
100
AcDbEntity
  8
ALPHA
100
AcDbLine
 10
80.272776
 20
184.248783
 30
0.0
 11
80.272776
 21
182.948783
 31
0.0
  0
LINE
  5
1EBF
100
AcDbEntity
  8
ALPHA
100
AcDbLine
 10
79.972776
 20
182.948783
 30
0.0
 11
80.272776
 21
182.948783
 31
0.0
  0
LINE
  5
1EC0
100
AcDbEntity
  8
ALPHA
100
AcDbLine
 10
89.886173
 20
182.306036
 30
0.0
 11
88.972776
 21
182.306036
 31
0.0
  0
LINE
  5
1EC1
100
AcDbEntity
  8
ALPHA
100
AcDbLine
 10
79.972776
 20
184.248783
 30
0.0
 11
79.468356
 21
184.248783
 31
0.0
  0
LINE
  5
1EC2
100
AcDbEntity
  8
ALPHA
100
AcDbLine
 10
79.972776
 20
182.948783
 30
0.0
 11
79.468356
 21
182.948783
 31
0.0
  0
LINE
  5
1EC3
100
AcDbEntity
  8
ALPHA
100
AcDbLine
 10
81.072776
 20
184.248783
 30
0.0
 11
80.672776
 21
184.248783
 31
0.0
  0
ARC
  5
1EC4
100
AcDbEntity
  8
ALPHA
100
AcDbCircle
 10
77.322776
 20
184.248783
 30
0.0
 40
0.85343
100
AcDbArc
 50
90.0
 51
180.0
  0
LINE
  5
1EC5
100
AcDbEntity
  8
ALPHA
100
AcDbLine
 10
77.322776
 20
184.902243
 30
0.0
 11
79.122776
 21
184.902243
 31
0.0
  0
LINE
  5
1EC6
100
AcDbEntity
  8
ALPHA
100
AcDbLine
 10
80.272776
 20
182.948783
 30
0.0
 11
80.672776
 21
182.948783
 31
0.0
  0
LWPOLYLINE
  5
1EC7
100
AcDbEntity
  8
ALPHA
100
AcDbPolyline
 90
       27
 70
     0
 43
0.0
 10
80.272776
 20
182.948783
 10
80.272776
 20
182.87029
 10
80.272776
 20
182.792085
 10
80.272776
 20
182.714451
 10
80.272776
 20
182.637672
 10
80.272776
 20
182.562029
 10
80.272776
 20
182.487796
 10
80.272776
 20
182.415246
 10
80.272776
 20
182.344642
 10
80.272776
 20
182.276243
 10
80.272776
 20
182.210298
 10
80.272776
 20
182.147048
 10
80.272776
 20
182.086723
 10
80.272776
 20
182.029544
 10
80.272776
 20
181.975719
 10
80.272776
 20
181.925444
 10
80.272776
 20
181.878903
 10
80.272776
 20
181.836267
 10
80.272776
 20
181.79769
 10
80.272776
 20
181.763313
 10
80.272776
 20
181.733261
 10
80.272776
 20
181.707645
 10
80.272776
 20
181.686558
 10
80.272776
 20
181.670077
 10
80.272776
 20
181.658261
 10
80.272776
 20
181.651154
 10
80.272776
 20
181.648783
  0
LWPOLYLINE
  5
1EE4
100
AcDbEntity
  8
ALPHA
100
AcDbPolyline
 90
       18
 70
     0
 43
0.0
 10
77.322776
 20
184.902243
 10
77.322776
 20
184.920492
 10
77.322776
 20
184.938589
 10
77.322776
 20
184.956383
 10
77.322776
 20
184.973725
 10
77.322776
 20
184.990471
 10
77.322776
 20
185.00648
 10
77.322776
 20
185.02162
 10
77.322776
 20
185.035764
 10
77.322776
 20
185.048794
 10
77.322776
 20
185.060601
 10
77.322776
 20
185.071087
 10
77.322776
 20
185.080164
 10
77.322776
 20
185.087757
 10
77.322776
 20
185.093802
 10
77.322776
 20
185.098248
 10
77.322776
 20
185.10106
 10
77.322776
 20
185.102213
  0
LINE
  5
1EF8
100
AcDbEntity
  8
ALPHA
100
AcDbLine
 10
79.972776
 20
184.248783
 30
0.0
 11
79.972776
 21
182.948783
 31
0.0
  0
LINE
  5
1EF9
100
AcDbEntity
  8
ALPHA
100
AcDbLine
 10
81.072776
 20
182.948783
 30
0.0
 11
80.672776
 21
182.948783
 31
0.0
  0
LINE
  5
1EFA
100
AcDbEntity
  8
ALPHA
100
AcDbLine
 10
82.172776
 20
184.248783
 30
0.0
 11
81.772776
 21
184.248783
 31
0.0
  0
LINE
  5
1EFB
100
AcDbEntity
  8
ALPHA
100
AcDbLine
 10
77.322776
 20
185.102213
 30
0.0
 11
79.139968
 21
185.102213
 31
0.0
  0
LWPOLYLINE
  5
1EFC
100
AcDbEntity
  8
ALPHA
100
AcDbPolyline
 90
        4
 70
     0
 43
0.0
 10
79.139968
 20
185.102213
 10
79.138985
 20
185.1017
 10
79.138005
 20
185.100555
 10
79.137033
 20
185.098783
  0
LINE
  5
1F02
100
AcDbEntity
  8
ALPHA
100
AcDbLine
 10
77.322776
 20
185.126711
 30
0.0
 11
77.322776
 21
185.102213
 31
0.0
  0
LINE
  5
1F03
100
AcDbEntity
  8
ALPHA
100
AcDbLine
 10
76.444848
 20
184.248783
 30
0.0
 11
76.469346
 21
184.248783
 31
0.0
  0
LINE
  5
1F04
100
AcDbEntity
  8
ALPHA
100
AcDbLine
 10
76.444848
 20
182.948783
 30
0.0
 11
76.469346
 21
182.948783
 31
0.0
  0
LINE
  5
1F05
100
AcDbEntity
  8
ALPHA
100
AcDbLine
 10
77.322776
 20
182.070854
 30
0.0
 11
77.322776
 21
182.095352
 31
0.0
  0
LWPOLYLINE
  5
1F06
100
AcDbEntity
  8
ALPHA
100
AcDbPolyline
 90
        4
 70
     0
 43
0.0
 10
89.972776
 20
185.208779
 10
89.941655
 20
185.104219
 10
89.91279
 20
184.99843
 10
89.886173
 20
184.891529
  0
LINE
  5
1F0C
100
AcDbEntity
  8
ALPHA
100
AcDbLine
 10
89.886173
 20
182.306036
 30
0.0
 11
89.886173
 21
184.891529
 31
0.0
  0
LWPOLYLINE
  5
1F0D
100
AcDbEntity
  8
ALPHA
100
AcDbPolyline
 90
        4
 70
     0
 43
0.0
 10
89.972776
 20
181.988786
 10
89.941655
 20
182.093346
 10
89.91279
 20
182.199136
 10
89.886173
 20
182.306036
  0
LINE
  5
1F13
100
AcDbEntity
  8
ALPHA
100
AcDbLine
 10
82.172776
 20
182.948783
 30
0.0
 11
81.772776
 21
182.948783
 31
0.0
  0
LINE
  5
1F14
100
AcDbEntity
  8
ALPHA
100
AcDbLine
 10
81.072776
 20
184.248783
 30
0.0
 11
81.072776
 21
182.948783
 31
0.0
  0
LWPOLYLINE
  5
1F15
100
AcDbEntity
  8
ALPHA
100
AcDbPolyline
 90
       30
 70
     0
 43
0.0
 10
82.172776
 20
181.348783
 10
82.172776
 20
181.351129
 10
82.172776
 20
181.358162
 10
82.172776
 20
181.36986
 10
82.172776
 20
181.38619
 10
82.172776
 20
181.407103
 10
82.172776
 20
181.432537
 10
82.172776
 20
181.46242
 10
82.172776
 20
181.496662
 10
82.172776
 20
181.535163
 10
82.172776
 20
181.577811
 10
82.172776
 20
181.62448
 10
82.172776
 20
181.675034
 10
82.172776
 20
181.729323
 10
82.172776
 20
181.78719
 10
82.172776
 20
181.848463
 10
82.172776
 20
181.912964
 10
82.172776
 20
181.980504
 10
82.172776
 20
182.050883
 10
82.172776
 20
182.123896
 10
82.172776
 20
182.199329
 10
82.172776
 20
182.27696
 10
82.172776
 20
182.356561
 10
82.172776
 20
182.4379
 10
82.172776
 20
182.520737
 10
82.172776
 20
182.60483
 10
82.172776
 20
182.689931
 10
82.172776
 20
182.775792
 10
82.172776
 20
182.86216
 10
82.172776
 20
182.948783
  0
LWPOLYLINE
  5
1F35
100
AcDbEntity
  8
ALPHA
100
AcDbPolyline
 90
       27
 70
     0
 43
0.0
 10
81.372776
 20
185.548783
 10
81.372776
 20
185.546411
 10
81.372776
 20
185.539304
 10
81.372776
 20
185.527488
 10
81.372776
 20
185.511007
 10
81.372776
 20
185.48992
 10
81.372776
 20
185.464304
 10
81.372776
 20
185.434252
 10
81.372776
 20
185.399875
 10
81.372776
 20
185.361298
 10
81.372776
 20
185.318662
 10
81.372776
 20
185.272121
 10
81.372776
 20
185.221846
 10
81.372776
 20
185.168021
 10
81.372776
 20
185.110842
 10
81.372776
 20
185.050517
 10
81.372776
 20
184.987267
 10
81.372776
 20
184.921322
 10
81.372776
 20
184.852923
 10
81.372776
 20
184.782319
 10
81.372776
 20
184.709769
 10
81.372776
 20
184.635536
 10
81.372776
 20
184.559893
 10
81.372776
 20
184.483114
 10
81.372776
 20
184.40548
 10
81.372776
 20
184.327275
 10
81.372776
 20
184.248783
  0
LWPOLYLINE
  5
1F52
100
AcDbEntity
  8
ALPHA
100
AcDbPolyline
 90
       21
 70
     0
 43
0.0
 10
88.772776
 20
182.098783
 10
88.772776
 20
182.077425
 10
88.772776
 20
182.008373
 10
88.772776
 20
181.9419
 10
88.772776
 20
181.878188
 10
88.772776
 20
181.817412
 10
88.772776
 20
181.759738
 10
88.772776
 20
181.705325
 10
88.772776
 20
181.654321
 10
88.772776
 20
181.606867
 10
88.772776
 20
181.563095
 10
88.772776
 20
181.523121
 10
88.772776
 20
181.487054
 10
88.772776
 20
181.454995
 10
88.772776
 20
181.42704
 10
88.772776
 20
181.403258
 10
88.772776
 20
181.383705
 10
88.772776
 20
181.368437
 10
88.772776
 20
181.357513
 10
88.772776
 20
181.350961
 10
88.772776
 20
181.348783
  0
LWPOLYLINE
  5
1F69
100
AcDbEntity
  8
ALPHA
100
AcDbPolyline
 90
       12
 70
     0
 43
0.0
 10
88.772776
 20
182.948783
 10
88.772776
 20
182.865311
 10
88.772776
 20
182.781867
 10
88.772776
 20
182.698765
 10
88.772776
 20
182.61632
 10
88.772776
 20
182.534832
 10
88.772776
 20
182.454517
 10
88.772776
 20
182.375547
 10
88.772776
 20
182.29813
 10
88.772776
 20
182.222498
 10
88.772776
 20
182.148864
 10
88.772776
 20
182.098783
  0
LWPOLYLINE
  5
1F77
100
AcDbEntity
  8
ALPHA
100
AcDbPolyline
 90
       30
 70
     0
 43
0.0
 10
79.972776
 20
181.348783
 10
79.972776
 20
181.351129
 10
79.972776
 20
181.358162
 10
79.972776
 20
181.36986
 10
79.972776
 20
181.38619
 10
79.972776
 20
181.407103
 10
79.972776
 20
181.432537
 10
79.972776
 20
181.46242
 10
79.972776
 20
181.496662
 10
79.972776
 20
181.535163
 10
79.972776
 20
181.577811
 10
79.972776
 20
181.62448
 10
79.972776
 20
181.675034
 10
79.972776
 20
181.729323
 10
79.972776
 20
181.78719
 10
79.972776
 20
181.848463
 10
79.972776
 20
181.912964
 10
79.972776
 20
181.980504
 10
79.972776
 20
182.050883
 10
79.972776
 20
182.123896
 10
79.972776
 20
182.199329
 10
79.972776
 20
182.27696
 10
79.972776
 20
182.356561
 10
79.972776
 20
182.4379
 10
79.972776
 20
182.520737
 10
79.972776
 20
182.60483
 10
79.972776
 20
182.689931
 10
79.972776
 20
182.775792
 10
79.972776
 20
182.86216
 10
79.972776
 20
182.948783
  0
LWPOLYLINE
  5
1F97
100
AcDbEntity
  8
ALPHA
100
AcDbPolyline
 90
       18
 70
     0
 43
0.0
 10
88.772776
 20
182.948783
 10
88.79123
 20
182.948783
 10
88.809526
 20
182.948783
 10
88.827509
 20
182.948783
 10
88.845024
 20
182.948783
 10
88.861924
 20
182.948783
 10
88.878062
 20
182.948783
 10
88.893303
 20
182.948783
 10
88.907515
 20
182.948783
 10
88.920578
 20
182.948783
 10
88.932379
 20
182.948783
 10
88.942819
 20
182.948783
 10
88.951809
 20
182.948783
 10
88.95927
 20
182.948783
 10
88.965141
 20
182.948783
 10
88.969371
 20
182.948783
 10
88.971923
 20
182.948783
 10
88.972776
 20
182.948783
  0
LINE
  5
1FAB
100
AcDbEntity
  8
ALPHA
100
AcDbLine
 10
88.772776
 20
184.248783
 30
0.0
 11
88.772776
 21
182.948783
 31
0.0
  0
LWPOLYLINE
  5
1FAC
100
AcDbEntity
  8
ALPHA
100
AcDbPolyline
 90
       30
 70
     0
 43
0.0
 10
81.072776
 20
181.348783
 10
81.072776
 20
181.351129
 10
81.072776
 20
181.358162
 10
81.072776
 20
181.36986
 10
81.072776
 20
181.38619
 10
81.072776
 20
181.407103
 10
81.072776
 20
181.432537
 10
81.072776
 20
181.46242
 10
81.072776
 20
181.496662
 10
81.072776
 20
181.535163
 10
81.072776
 20
181.577811
 10
81.072776
 20
181.62448
 10
81.072776
 20
181.675034
 10
81.072776
 20
181.729323
 10
81.072776
 20
181.78719
 10
81.072776
 20
181.848463
 10
81.072776
 20
181.912964
 10
81.072776
 20
181.980504
 10
81.072776
 20
182.050883
 10
81.072776
 20
182.123896
 10
81.072776
 20
182.199329
 10
81.072776
 20
182.27696
 10
81.072776
 20
182.356561
 10
81.072776
 20
182.4379
 10
81.072776
 20
182.520737
 10
81.072776
 20
182.60483
 10
81.072776
 20
182.689931
 10
81.072776
 20
182.775792
 10
81.072776
 20
182.86216
 10
81.072776
 20
182.948783
  0
LINE
  5
1FCC
100
AcDbEntity
  8
ALPHA
100
AcDbLine
 10
78.042108
 20
182.295322
 30
0.0
 11
77.322776
 21
182.295322
 31
0.0
  0
LINE
  5
1FCD
100
AcDbEntity
  8
ALPHA
100
AcDbLine
 10
82.172776
 20
184.248783
 30
0.0
 11
82.172776
 21
182.948783
 31
0.0
  0
LINE
  5
1FCE
100
AcDbEntity
  8
ALPHA
100
AcDbLine
 10
82.472776
 20
185.548783
 30
0.0
 11
82.872776
 21
185.548783
 31
0.0
  0
LINE
  5
1FCF
100
AcDbEntity
  8
ALPHA
100
AcDbLine
 10
82.172776
 20
185.848783
 30
0.0
 11
82.472776
 21
185.548783
 31
0.0
  0
LINE
  5
1FD0
100
AcDbEntity
  8
ALPHA
100
AcDbLine
 10
82.172776
 20
181.348783
 30
0.0
 11
82.472776
 21
181.648783
 31
0.0
  0
LINE
  5
1FD1
100
AcDbEntity
  8
ALPHA
100
AcDbLine
 10
82.472776
 20
181.648783
 30
0.0
 11
82.872776
 21
181.648783
 31
0.0
  0
LINE
  5
1FD2
100
AcDbEntity
  8
ALPHA
100
AcDbLine
 10
81.772776
 20
185.548783
 30
0.0
 11
81.772776
 21
185.848783
 31
0.0
  0
LINE
  5
1FD3
100
AcDbEntity
  8
ALPHA
100
AcDbLine
 10
81.772776
 20
184.248783
 30
0.0
 11
81.772776
 21
185.548783
 31
0.0
  0
LINE
  5
1FD4
100
AcDbEntity
  8
ALPHA
100
AcDbLine
 10
81.072776
 20
185.848783
 30
0.0
 11
81.372776
 21
185.548783
 31
0.0
  0
LINE
  5
1FD5
100
AcDbEntity
  8
ALPHA
100
AcDbLine
 10
81.372776
 20
185.548783
 30
0.0
 11
81.772776
 21
185.548783
 31
0.0
  0
LINE
  5
1FD6
100
AcDbEntity
  8
ALPHA
100
AcDbLine
 10
82.872776
 20
185.548783
 30
0.0
 11
82.872776
 21
185.848783
 31
0.0
  0
LINE
  5
1FD7
100
AcDbEntity
  8
ALPHA
100
AcDbLine
 10
82.872776
 20
184.248783
 30
0.0
 11
82.872776
 21
185.548783
 31
0.0
  0
LINE
  5
1FD8
100
AcDbEntity
  8
ALPHA
100
AcDbLine
 10
81.072776
 20
181.348783
 30
0.0
 11
81.372776
 21
181.648783
 31
0.0
  0
ARC
  5
1FD9
100
AcDbEntity
  8
ALPHA
100
AcDbCircle
 10
77.322776
 20
184.248783
 30
0.0
 40
1.6
100
AcDbArc
 50
90.0
 51
180.0
  0
ARC
  5
1FDA
100
AcDbEntity
  8
ALPHA
100
AcDbCircle
 10
77.322776
 20
182.948783
 30
0.0
 40
1.6
100
AcDbArc
 50
180.0
 51
270.0
  0
LINE
  5
1FDB
100
AcDbEntity
  8
ALPHA
100
AcDbLine
 10
81.372776
 20
181.648783
 30
0.0
 11
81.772776
 21
181.648783
 31
0.0
  0
LINE
  5
1FDC
100
AcDbEntity
  8
ALPHA
100
AcDbLine
 10
80.672776
 20
185.548783
 30
0.0
 11
80.672776
 21
185.848783
 31
0.0
  0
LINE
  5
1FDD
100
AcDbEntity
  8
ALPHA
100
AcDbLine
 10
80.672776
 20
184.248783
 30
0.0
 11
80.672776
 21
185.548783
 31
0.0
  0
LINE
  5
1FDE
100
AcDbEntity
  8
ALPHA
100
AcDbLine
 10
79.972776
 20
185.848783
 30
0.0
 11
80.272776
 21
185.548783
 31
0.0
  0
LINE
  5
1FDF
100
AcDbEntity
  8
ALPHA
100
AcDbLine
 10
79.328374
 20
185.098783
 30
0.0
 11
79.137033
 21
185.098783
 31
0.0
  0
LWPOLYLINE
  5
1FE0
100
AcDbEntity
  8
ALPHA
100
AcDbPolyline
 90
       26
 70
     0
 43
0.0
 10
79.40274
 20
184.248783
 10
79.402594
 20
184.302029
 10
79.402156
 20
184.355072
 10
79.401429
 20
184.407693
 10
79.400414
 20
184.459708
 10
79.399116
 20
184.510885
 10
79.397539
 20
184.561059
 10
79.395691
 20
184.609994
 10
79.393576
 20
184.657541
 10
79.391206
 20
184.703466
 10
79.388586
 20
184.747637
 10
79.385729
 20
184.789831
 10
79.382644
 20
184.829926
 10
79.379345
 20
184.867718
 10
79.375842
 20
184.903097
 10
79.372153
 20
184.935884
 10
79.368288
 20
184.96598
 10
79.364265
 20
184.993233
 10
79.360098
 20
185.017559
 10
79.355806
 20
185.038838
 10
79.351403
 20
185.057
 10
79.346909
 20
185.071957
 10
79.34234
 20
185.083658
 10
79.337717
 20
185.092049
 10
79.333055
 20
185.097097
 10
79.328374
 20
185.098783
  0
LINE
  5
1FFC
100
AcDbEntity
  8
ALPHA
100
AcDbLine
 10
80.272776
 20
185.548783
 30
0.0
 11
80.672776
 21
185.548783
 31
0.0
  0
LINE
  5
1FFD
100
AcDbEntity
  8
ALPHA
100
AcDbLine
 10
79.137033
 20
182.098783
 30
0.0
 11
79.328374
 21
182.098783
 31
0.0
  0
LINE
  5
1FFE
100
AcDbEntity
  8
ALPHA
100
AcDbLine
 10
79.972776
 20
181.348783
 30
0.0
 11
80.272776
 21
181.648783
 31
0.0
  0
LINE
  5
1FFF
100
AcDbEntity
  8
ALPHA
100
AcDbLine
 10
80.272776
 20
181.648783
 30
0.0
 11
80.672776
 21
181.648783
 31
0.0
  0
LINE
  5
2000
100
AcDbEntity
  8
ALPHA
100
AcDbLine
 10
83.972776
 20
185.598783
 30
0.0
 11
83.972776
 21
185.848783
 31
0.0
  0
LINE
  5
2001
100
AcDbEntity
  8
ALPHA
100
AcDbLine
 10
85.972776
 20
185.598783
 30
0.0
 11
83.972776
 21
185.598783
 31
0.0
  0
LINE
  5
2002
100
AcDbEntity
  8
ALPHA
100
AcDbLine
 10
85.972776
 20
185.598783
 30
0.0
 11
85.972776
 21
185.848783
 31
0.0
  0
LINE
  5
2003
100
AcDbEntity
  8
ALPHA
100
AcDbLine
 10
89.972776
 20
185.136263
 30
0.0
 11
89.972776
 21
185.208779
 31
0.0
  0
LINE
  5
2004
100
AcDbEntity
  8
ALPHA
100
AcDbLine
 10
89.972776
 20
181.988786
 30
0.0
 11
89.972776
 21
182.061302
 31
0.0
  0
LWPOLYLINE
  5
2005
100
AcDbEntity
  8
ALPHA
100
AcDbPolyline
 90
       14
 70
     0
 43
0.0
 10
79.123275
 20
182.248783
 10
79.12344
 20
182.240751
 10
79.123951
 20
182.223267
 10
79.1246
 20
182.206408
 10
79.125384
 20
182.190279
 10
79.126293
 20
182.175057
 10
79.127323
 20
182.160833
 10
79.128462
 20
182.147766
 10
79.129704
 20
182.135936
 10
79.131035
 20
182.125473
 10
79.132447
 20
182.116447
 10
79.133925
 20
182.108953
 10
79.135458
 20
182.103045
 10
79.137033
 20
182.098783
  0
LINE
  5
2015
100
AcDbEntity
  8
ALPHA
100
AcDbLine
 10
89.972776
 20
186.248783
 30
0.0
 11
88.972776
 21
186.248783
 31
0.0
  0
LINE
  5
2016
100
AcDbEntity
  8
ALPHA
100
AcDbLine
 10
89.972776
 20
180.948783
 30
0.0
 11
88.972776
 21
180.948783
 31
0.0
  0
LINE
  5
2017
100
AcDbEntity
  8
ALPHA
100
AcDbLine
 10
88.972776
 20
180.948783
 30
0.0
 11
88.972776
 21
182.306036
 31
0.0
  0
LINE
  5
2018
100
AcDbEntity
  8
ALPHA
100
AcDbLine
 10
88.972776
 20
182.306036
 30
0.0
 11
88.972776
 21
184.891529
 31
0.0
  0
LINE
  5
2019
100
AcDbEntity
  8
ALPHA
100
AcDbLine
 10
88.972776
 20
184.891529
 30
0.0
 11
88.972776
 21
186.248783
 31
0.0
  0
LWPOLYLINE
  5
201A
100
AcDbEntity
  8
ALPHA
100
AcDbPolyline
 90
       16
 70
     0
 43
0.0
 10
79.137033
 20
185.098783
 10
79.135458
 20
185.09452
 10
79.133925
 20
185.088612
 10
79.132447
 20
185.081118
 10
79.131035
 20
185.072092
 10
79.129704
 20
185.061629
 10
79.128462
 20
185.049799
 10
79.127323
 20
185.036732
 10
79.126293
 20
185.022508
 10
79.125384
 20
185.007286
 10
79.1246
 20
184.991157
 10
79.123951
 20
184.974298
 10
79.12344
 20
184.956814
 10
79.123072
 20
184.938887
 10
79.12285
 20
184.920639
 10
79.122776
 20
184.902243
  0
LINE
  5
202C
100
AcDbEntity
  8
ALPHA
100
AcDbLine
 10
89.972776
 20
185.208779
 30
0.0
 11
89.972776
 21
186.248783
 31
0.0
  0
LINE
  5
202D
100
AcDbEntity
  8
ALPHA
100
AcDbLine
 10
89.972776
 20
180.948783
 30
0.0
 11
89.972776
 21
181.988786
 31
0.0
  0
ARC
  5
202E
100
AcDbEntity
  8
ALPHA
100
AcDbCircle
 10
88.772776
 20
181.148783
 30
0.0
 40
0.2
100
AcDbArc
 50
5.294117
 51
84.705882
  0
ARC
  5
202F
100
AcDbEntity
  8
ALPHA
100
AcDbCircle
 10
88.772776
 20
181.148783
 30
0.0
 40
0.2
100
AcDbArc
 50
84.705882
 51
90.0
  0
LINE
  5
2030
100
AcDbEntity
  8
ALPHA
100
AcDbLine
 10
79.122776
 20
184.902243
 30
0.0
 11
79.122776
 21
184.748783
 31
0.0
  0
LINE
  5
2031
100
AcDbEntity
  8
ALPHA
100
AcDbLine
 10
79.40274
 20
184.248783
 30
0.0
 11
79.40274
 21
182.948783
 31
0.0
  0
LINE
  5
2032
100
AcDbEntity
  8
ALPHA
100
AcDbLine
 10
88.772776
 20
181.348783
 30
0.0
 11
82.872776
 21
181.348783
 31
0.0
  0
LINE
  5
2033
100
AcDbEntity
  8
ALPHA
100
AcDbLine
 10
82.872776
 20
181.648783
 30
0.0
 11
82.872776
 21
182.948783
 31
0.0
  0
LINE
  5
2034
100
AcDbEntity
  8
ALPHA
100
AcDbLine
 10
82.872776
 20
181.348783
 30
0.0
 11
82.872776
 21
181.648783
 31
0.0
  0
LINE
  5
2035
100
AcDbEntity
  8
ALPHA
100
AcDbLine
 10
88.772776
 20
181.348783
 30
0.0
 11
82.872776
 21
181.348783
 31
0.0
  0
LINE
  5
2036
100
AcDbEntity
  8
ALPHA
100
AcDbLine
 10
79.972776
 20
181.348783
 30
0.0
 11
79.328374
 21
181.348783
 31
0.0
  0
LINE
  5
2037
100
AcDbEntity
  8
ALPHA
100
AcDbLine
 10
81.072776
 20
181.348783
 30
0.0
 11
80.672776
 21
181.348783
 31
0.0
  0
LINE
  5
2038
100
AcDbEntity
  8
ALPHA
100
AcDbLine
 10
82.172776
 20
181.348783
 30
0.0
 11
81.772776
 21
181.348783
 31
0.0
  0
LINE
  5
2039
100
AcDbEntity
  8
ALPHA
100
AcDbLine
 10
82.172776
 20
181.348783
 30
0.0
 11
81.772776
 21
181.348783
 31
0.0
  0
LINE
  5
203A
100
AcDbEntity
  8
ALPHA
100
AcDbLine
 10
81.772776
 20
181.648783
 30
0.0
 11
81.772776
 21
182.948783
 31
0.0
  0
LINE
  5
203B
100
AcDbEntity
  8
ALPHA
100
AcDbLine
 10
81.772776
 20
181.348783
 30
0.0
 11
81.772776
 21
181.648783
 31
0.0
  0
LINE
  5
203C
100
AcDbEntity
  8
ALPHA
100
AcDbLine
 10
81.072776
 20
181.348783
 30
0.0
 11
80.672776
 21
181.348783
 31
0.0
  0
LINE
  5
203D
100
AcDbEntity
  8
ALPHA
100
AcDbLine
 10
80.672776
 20
181.648783
 30
0.0
 11
80.672776
 21
182.948783
 31
0.0
  0
LINE
  5
203E
100
AcDbEntity
  8
ALPHA
100
AcDbLine
 10
80.672776
 20
181.348783
 30
0.0
 11
80.672776
 21
181.648783
 31
0.0
  0
LINE
  5
203F
100
AcDbEntity
  8
ALPHA
100
AcDbLine
 10
88.772776
 20
185.848783
 30
0.0
 11
85.972776
 21
185.848783
 31
0.0
  0
LINE
  5
2040
100
AcDbEntity
  8
ALPHA
100
AcDbLine
 10
83.972776
 20
185.848783
 30
0.0
 11
82.872776
 21
185.848783
 31
0.0
  0
LINE
  5
2041
100
AcDbEntity
  8
ALPHA
100
AcDbLine
 10
79.972776
 20
185.848783
 30
0.0
 11
79.328374
 21
185.848783
 31
0.0
  0
LINE
  5
2042
100
AcDbEntity
  8
ALPHA
100
AcDbLine
 10
81.072776
 20
185.848783
 30
0.0
 11
80.672776
 21
185.848783
 31
0.0
  0
LINE
  5
2043
100
AcDbEntity
  8
ALPHA
100
AcDbLine
 10
82.172776
 20
185.848783
 30
0.0
 11
81.772776
 21
185.848783
 31
0.0
  0
LINE
  5
2044
100
AcDbEntity
  8
ALPHA
100
AcDbLine
 10
79.972776
 20
181.348783
 30
0.0
 11
79.328374
 21
181.348783
 31
0.0
  0
LWPOLYLINE
  5
2045
100
AcDbEntity
  8
ALPHA
100
AcDbPolyline
 90
       26
 70
     0
 43
0.0
 10
79.328374
 20
182.098783
 10
79.333055
 20
182.100468
 10
79.337717
 20
182.105517
 10
79.34234
 20
182.113907
 10
79.346909
 20
182.125608
 10
79.351403
 20
182.140565
 10
79.355806
 20
182.158727
 10
79.360098
 20
182.180006
 10
79.364265
 20
182.204332
 10
79.368288
 20
182.231586
 10
79.372153
 20
182.261682
 10
79.375842
 20
182.294468
 10
79.379345
 20
182.329847
 10
79.382644
 20
182.367639
 10
79.385729
 20
182.407734
 10
79.388586
 20
182.449928
 10
79.391206
 20
182.494099
 10
79.393576
 20
182.540024
 10
79.395691
 20
182.587571
 10
79.397539
 20
182.636506
 10
79.399116
 20
182.68668
 10
79.400414
 20
182.737857
 10
79.401429
 20
182.789872
 10
79.402156
 20
182.842493
 10
79.402594
 20
182.895536
 10
79.40274
 20
182.948783
  0
LINE
  5
2061
100
AcDbEntity
  8
ALPHA
100
AcDbLine
 10
79.328374
 20
181.348783
 30
0.0
 11
79.262758
 21
181.348783
 31
0.0
  0
LINE
  5
2062
100
AcDbEntity
  8
ALPHA
100
AcDbLine
 10
77.322776
 20
181.348783
 30
0.0
 11
79.262758
 21
181.348783
 31
0.0
  0
LINE
  5
2063
100
AcDbEntity
  8
ALPHA
100
AcDbLine
 10
82.172776
 20
185.848783
 30
0.0
 11
82.472776
 21
185.548783
 31
0.0
  0
LINE
  5
2064
100
AcDbEntity
  8
ALPHA
100
AcDbLine
 10
82.472776
 20
185.548783
 30
0.0
 11
82.872776
 21
185.548783
 31
0.0
  0
LINE
  5
2065
100
AcDbEntity
  8
ALPHA
100
AcDbLine
 10
82.872776
 20
184.248783
 30
0.0
 11
82.872776
 21
182.948783
 31
0.0
  0
LINE
  5
2066
100
AcDbEntity
  8
ALPHA
100
AcDbLine
 10
80.672776
 20
184.248783
 30
0.0
 11
80.672776
 21
182.948783
 31
0.0
  0
LINE
  5
2067
100
AcDbEntity
  8
ALPHA
100
AcDbLine
 10
81.772776
 20
184.248783
 30
0.0
 11
81.772776
 21
182.948783
 31
0.0
  0
LINE
  5
2068
100
AcDbEntity
  8
ALPHA
100
AcDbLine
 10
81.072776
 20
185.848783
 30
0.0
 11
81.372776
 21
185.548783
 31
0.0
  0
LINE
  5
2069
100
AcDbEntity
  8
ALPHA
100
AcDbLine
 10
81.372776
 20
185.548783
 30
0.0
 11
81.772776
 21
185.548783
 31
0.0
  0
LINE
  5
206A
100
AcDbEntity
  8
ALPHA
100
AcDbLine
 10
79.972776
 20
185.848783
 30
0.0
 11
80.272776
 21
185.548783
 31
0.0
  0
LINE
  5
206B
100
AcDbEntity
  8
ALPHA
100
AcDbLine
 10
80.272776
 20
185.548783
 30
0.0
 11
80.672776
 21
185.548783
 31
0.0
  0
ARC
  5
206C
100
AcDbEntity
  8
ALPHA
100
AcDbCircle
 10
88.772776
 20
181.148783
 30
0.0
 40
0.2
100
AcDbArc
 50
5.294117
 51
84.705882
  0
ARC
  5
206D
100
AcDbEntity
  8
ALPHA
100
AcDbCircle
 10
88.772776
 20
181.148783
 30
0.0
 40
0.2
100
AcDbArc
 50
84.705882
 51
90.0
  0
LINE
  5
206E
100
AcDbEntity
  8
ALPHA
100
AcDbLine
 10
77.322776
 20
185.848783
 30
0.0
 11
79.262758
 21
185.848783
 31
0.0
  0
LINE
  5
206F
100
AcDbEntity
  8
ALPHA
100
AcDbLine
 10
79.328374
 20
185.848783
 30
0.0
 11
79.262758
 21
185.848783
 31
0.0
  0
ARC
  5
2070
100
AcDbEntity
  8
ALPHA
100
AcDbCircle
 10
88.772776
 20
186.048783
 30
0.0
 40
0.2
100
AcDbArc
 50
270.0
 51
0.0
  0
ARC
  5
2071
100
AcDbEntity
  8
ALPHA
100
AcDbCircle
 10
88.772776
 20
186.048783
 30
0.0
 40
0.2
100
AcDbArc
 50
270.0
 51
0.0
  0
LINE
  5
2072
100
AcDbEntity
  8
ALPHA
100
AcDbLine
 10
75.722776
 20
184.248783
 30
0.0
 11
75.722776
 21
182.948783
 31
0.0
  0
LWPOLYLINE
  5
2073
100
AcDbEntity
  8
ALPHA
100
AcDbPolyline
 90
        6
 70
     0
 43
0.0
 10
95.122776
 20
191.380871
 10
95.128093
 20
191.427429
 10
95.169667
 20
191.514929
 10
95.2478
 20
191.58626
 10
95.353069
 20
191.632818
 10
95.472776
 20
191.648987
  0
LWPOLYLINE
  5
207B
100
AcDbEntity
  8
ALPHA
100
AcDbPolyline
 90
        6
 70
     0
 43
0.0
 10
95.472776
 20
178.446034
 10
95.592483
 20
178.446034
 10
95.697752
 20
178.446034
 10
95.775885
 20
178.446034
 10
95.817459
 20
178.446034
 10
95.822776
 20
178.446034
  0
LWPOLYLINE
  5
2083
100
AcDbEntity
  8
ALPHA
100
AcDbPolyline
 90
        6
 70
     0
 43
0.0
 10
95.122776
 20
190.378123
 10
95.128093
 20
190.424681
 10
95.169667
 20
190.512181
 10
95.2478
 20
190.583511
 10
95.353069
 20
190.630069
 10
95.472776
 20
190.646238
  0
LWPOLYLINE
  5
208B
100
AcDbEntity
  8
ALPHA
100
AcDbPolyline
 90
        6
 70
     0
 43
0.0
 10
95.472776
 20
176.784333
 10
95.592483
 20
176.799258
 10
95.697752
 20
176.842234
 10
95.775885
 20
176.908077
 10
95.817459
 20
176.988845
 10
95.822776
 20
177.03182
  0
LWPOLYLINE
  5
2093
100
AcDbEntity
  8
ALPHA
100
AcDbPolyline
 90
        6
 70
     0
 43
0.0
 10
95.122776
 20
188.846034
 10
95.128093
 20
188.846034
 10
95.169667
 20
188.846034
 10
95.2478
 20
188.846034
 10
95.353069
 20
188.846034
 10
95.472776
 20
188.846034
  0
LWPOLYLINE
  5
209B
100
AcDbEntity
  8
ALPHA
100
AcDbPolyline
 90
        6
 70
     0
 43
0.0
 10
95.472776
 20
191.648987
 10
95.592483
 20
191.632818
 10
95.697752
 20
191.58626
 10
95.775885
 20
191.514929
 10
95.817459
 20
191.427429
 10
95.822776
 20
191.380871
  0
LWPOLYLINE
  5
20A3
100
AcDbEntity
  8
ALPHA
100
AcDbPolyline
 90
        6
 70
     0
 43
0.0
 10
95.122776
 20
178.446034
 10
95.128093
 20
178.446034
 10
95.169667
 20
178.446034
 10
95.2478
 20
178.446034
 10
95.353069
 20
178.446034
 10
95.472776
 20
178.446034
  0
LWPOLYLINE
  5
20AB
100
AcDbEntity
  8
ALPHA
100
AcDbPolyline
 90
        6
 70
     0
 43
0.0
 10
95.472776
 20
190.646238
 10
95.592483
 20
190.630069
 10
95.697752
 20
190.583511
 10
95.775885
 20
190.512181
 10
95.817459
 20
190.424681
 10
95.822776
 20
190.378123
  0
LWPOLYLINE
  5
20B3
100
AcDbEntity
  8
ALPHA
100
AcDbPolyline
 90
        6
 70
     0
 43
0.0
 10
95.122776
 20
177.03182
 10
95.128093
 20
176.988845
 10
95.169667
 20
176.908077
 10
95.2478
 20
176.842234
 10
95.353069
 20
176.799258
 10
95.472776
 20
176.784333
  0
LWPOLYLINE
  5
20BB
100
AcDbEntity
  8
ALPHA
100
AcDbPolyline
 90
        6
 70
     0
 43
0.0
 10
95.472776
 20
188.846034
 10
95.592483
 20
188.846034
 10
95.697752
 20
188.846034
 10
95.775885
 20
188.846034
 10
95.817459
 20
188.846034
 10
95.822776
 20
188.846034
  0
LINE
  5
20C3
100
AcDbEntity
  8
ALPHA
100
AcDbLine
 10
95.822776
 20
190.378123
 30
0.0
 11
95.822776
 21
191.380871
 31
0.0
  0
LINE
  5
20C4
100
AcDbEntity
  8
ALPHA
100
AcDbLine
 10
95.122776
 20
191.380871
 30
0.0
 11
95.122776
 21
191.840145
 31
0.0
  0
LINE
  5
20C5
100
AcDbEntity
  8
ALPHA
100
AcDbLine
 10
95.122776
 20
190.378123
 30
0.0
 11
95.122776
 21
191.380871
 31
0.0
  0
ARC
  5
20C6
100
AcDbEntity
  8
ALPHA
100
AcDbCircle
 10
95.472776
 20
191.848783
 30
0.0
 40
0.35
100
AcDbArc
 50
90.0
 51
180.0
  0
ARC
  5
20C7
100
AcDbEntity
  8
ALPHA
100
AcDbCircle
 10
95.472776
 20
191.848783
 30
0.0
 40
0.35
100
AcDbArc
 50
90.0
 51
180.0
  0
LINE
  5
20C8
100
AcDbEntity
  8
ALPHA
100
AcDbLine
 10
95.822776
 20
190.378123
 30
0.0
 11
95.822776
 21
188.846034
 31
0.0
  0
LINE
  5
20C9
100
AcDbEntity
  8
ALPHA
100
AcDbLine
 10
95.122776
 20
189.198895
 30
0.0
 11
95.122776
 21
190.378123
 31
0.0
  0
LINE
  5
20CA
100
AcDbEntity
  8
ALPHA
100
AcDbLine
 10
95.822776
 20
191.380871
 30
0.0
 11
95.822776
 21
191.848783
 31
0.0
  0
LINE
  5
20CB
100
AcDbEntity
  8
ALPHA
100
AcDbLine
 10
95.822776
 20
178.446034
 30
0.0
 11
95.822776
 21
188.846034
 31
0.0
  0
ARC
  5
20CC
100
AcDbEntity
  8
ALPHA
100
AcDbCircle
 10
95.472776
 20
191.848783
 30
0.0
 40
0.35
100
AcDbArc
 50
0.0
 51
90.0
  0
LINE
  5
20CD
100
AcDbEntity
  8
ALPHA
100
AcDbLine
 10
95.122776
 20
179.698783
 30
0.0
 11
95.122776
 21
187.498783
 31
0.0
  0
ARC
  5
20CE
100
AcDbEntity
  8
ALPHA
100
AcDbCircle
 10
95.472776
 20
191.848783
 30
0.0
 40
0.35
100
AcDbArc
 50
0.0
 51
90.0
  0
LINE
  5
20CF
100
AcDbEntity
  8
ALPHA
100
AcDbLine
 10
95.822776
 20
178.446034
 30
0.0
 11
95.822776
 21
177.03182
 31
0.0
  0
LINE
  5
20D0
100
AcDbEntity
  8
ALPHA
100
AcDbLine
 10
95.822776
 20
174.556947
 30
0.0
 11
95.822776
 21
177.03182
 31
0.0
  0
LWPOLYLINE
  5
20D1
100
AcDbEntity
  8
ALPHA
100
AcDbPolyline
 90
        6
 70
     0
 43
0.0
 10
95.122897
 20
174.556947
 10
95.128093
 20
174.513971
 10
95.169667
 20
174.433203
 10
95.2478
 20
174.36736
 10
95.353069
 20
174.324384
 10
95.472776
 20
174.309459
  0
LINE
  5
20D9
100
AcDbEntity
  8
ALPHA
100
AcDbLine
 10
95.122776
 20
174.556947
 30
0.0
 11
95.122776
 21
175.598783
 31
0.0
  0
LWPOLYLINE
  5
20DA
100
AcDbEntity
  8
ALPHA
100
AcDbPolyline
 90
        6
 70
     0
 43
0.0
 10
95.472776
 20
174.309459
 10
95.592483
 20
174.324384
 10
95.697752
 20
174.36736
 10
95.775885
 20
174.433203
 10
95.817459
 20
174.513971
 10
95.822655
 20
174.556947
  0
LINE
  5
20E2
100
AcDbEntity
  8
ALPHA
100
AcDbLine
 10
125.422776
 20
181.308783
 30
0.0
 11
125.422776
 21
181.298783
 31
0.0
  0
LINE
  5
20E3
100
AcDbEntity
  8
ALPHA
100
AcDbLine
 10
125.922776
 20
181.220619
 30
0.0
 11
125.922776
 21
181.201592
 31
0.0
  0
LINE
  5
20E4
100
AcDbEntity
  8
ALPHA
100
AcDbLine
 10
125.424486
 20
181.308481
 30
0.0
 11
125.422776
 21
181.308783
 31
0.0
  0
LINE
  5
20E5
100
AcDbEntity
  8
ALPHA
100
AcDbLine
 10
125.922776
 20
181.220619
 30
0.0
 11
125.424486
 21
181.308481
 31
0.0
  0
LINE
  5
20E6
100
AcDbEntity
  8
ALPHA
100
AcDbLine
 10
118.189284
 20
181.308783
 30
0.0
 11
118.122776
 21
181.308783
 31
0.0
  0
LINE
  5
20E7
100
AcDbEntity
  8
ALPHA
100
AcDbLine
 10
123.022824
 20
181.308783
 30
0.0
 11
118.189284
 21
181.308783
 31
0.0
  0
LINE
  5
20E8
100
AcDbEntity
  8
ALPHA
100
AcDbLine
 10
123.622776
 20
181.308783
 30
0.0
 11
123.022824
 21
181.308783
 31
0.0
  0
LINE
  5
20E9
100
AcDbEntity
  8
ALPHA
100
AcDbLine
 10
124.222776
 20
181.308783
 30
0.0
 11
123.622776
 21
181.308783
 31
0.0
  0
LINE
  5
20EA
100
AcDbEntity
  8
ALPHA
100
AcDbLine
 10
124.822728
 20
181.308783
 30
0.0
 11
124.222776
 21
181.308783
 31
0.0
  0
LINE
  5
20EB
100
AcDbEntity
  8
ALPHA
100
AcDbLine
 10
125.422776
 20
181.308783
 30
0.0
 11
124.822728
 21
181.308783
 31
0.0
  0
LINE
  5
20EC
100
AcDbEntity
  8
ALPHA
100
AcDbLine
 10
125.422776
 20
185.898783
 30
0.0
 11
125.422776
 21
185.888783
 31
0.0
  0
LINE
  5
20ED
100
AcDbEntity
  8
ALPHA
100
AcDbLine
 10
118.189284
 20
185.888783
 30
0.0
 11
118.122776
 21
185.888783
 31
0.0
  0
LINE
  5
20EE
100
AcDbEntity
  8
ALPHA
100
AcDbLine
 10
123.022824
 20
185.888783
 30
0.0
 11
118.189284
 21
185.888783
 31
0.0
  0
LINE
  5
20EF
100
AcDbEntity
  8
ALPHA
100
AcDbLine
 10
123.622776
 20
185.888783
 30
0.0
 11
123.022824
 21
185.888783
 31
0.0
  0
LINE
  5
20F0
100
AcDbEntity
  8
ALPHA
100
AcDbLine
 10
124.222776
 20
185.888783
 30
0.0
 11
123.622776
 21
185.888783
 31
0.0
  0
LINE
  5
20F1
100
AcDbEntity
  8
ALPHA
100
AcDbLine
 10
124.822728
 20
185.888783
 30
0.0
 11
124.222776
 21
185.888783
 31
0.0
  0
LINE
  5
20F2
100
AcDbEntity
  8
ALPHA
100
AcDbLine
 10
125.422776
 20
185.888783
 30
0.0
 11
124.822728
 21
185.888783
 31
0.0
  0
LINE
  5
20F3
100
AcDbEntity
  8
ALPHA
100
AcDbLine
 10
125.922776
 20
185.995973
 30
0.0
 11
125.922776
 21
185.976946
 31
0.0
  0
LINE
  5
20F4
100
AcDbEntity
  8
ALPHA
100
AcDbLine
 10
125.424486
 20
185.889084
 30
0.0
 11
125.422776
 21
185.888783
 31
0.0
  0
LINE
  5
20F5
100
AcDbEntity
  8
ALPHA
100
AcDbLine
 10
125.922776
 20
185.976946
 30
0.0
 11
125.424486
 21
185.889084
 31
0.0
  0
LINE
  5
20F6
100
AcDbEntity
  8
ALPHA
100
AcDbLine
 10
79.400436
 20
183.368783
 30
0.0
 11
79.40274
 21
183.374197
 31
0.0
  0
LINE
  5
20F7
100
AcDbEntity
  8
ALPHA
100
AcDbLine
 10
79.400436
 20
183.143783
 30
0.0
 11
79.400436
 21
183.368783
 31
0.0
  0
LINE
  5
20F8
100
AcDbEntity
  8
ALPHA
100
AcDbLine
 10
79.272776
 20
183.368783
 30
0.0
 11
79.294053
 21
183.431283
 31
0.0
  0
LINE
  5
20F9
100
AcDbEntity
  8
ALPHA
100
AcDbLine
 10
79.294053
 20
183.431283
 30
0.0
 11
79.336606
 21
183.481283
 31
0.0
  0
LINE
  5
20FA
100
AcDbEntity
  8
ALPHA
100
AcDbLine
 10
79.336606
 20
183.481283
 30
0.0
 11
79.40274
 21
183.520136
 31
0.0
  0
LINE
  5
20FB
100
AcDbEntity
  8
ALPHA
100
AcDbLine
 10
79.40274
 20
183.068783
 30
0.0
 11
79.272776
 21
183.068783
 31
0.0
  0
LINE
  5
20FC
100
AcDbEntity
  8
ALPHA
100
AcDbLine
 10
79.272776
 20
183.068783
 30
0.0
 11
79.272776
 21
183.368783
 31
0.0
  0
LINE
  5
20FD
100
AcDbEntity
  8
ALPHA
100
AcDbLine
 10
79.40274
 20
183.143783
 30
0.0
 11
79.400436
 21
183.143783
 31
0.0
  0
LINE
  5
20FE
100
AcDbEntity
  8
ALPHA
100
AcDbLine
 10
79.272776
 20
183.818783
 30
0.0
 11
79.40274
 21
183.818783
 31
0.0
  0
LINE
  5
20FF
100
AcDbEntity
  8
ALPHA
100
AcDbLine
 10
79.272776
 20
183.743783
 30
0.0
 11
79.272776
 21
183.818783
 31
0.0
  0
LINE
  5
2100
100
AcDbEntity
  8
ALPHA
100
AcDbLine
 10
79.40274
 20
183.678337
 30
0.0
 11
79.272776
 21
183.743783
 31
0.0
  0
LINE
  5
2101
100
AcDbEntity
  8
ALPHA
100
AcDbLine
 10
79.400184
 20
184.468783
 30
0.0
 11
78.272776
 21
184.468783
 31
0.0
  0
LINE
  5
2102
100
AcDbEntity
  8
ALPHA
100
AcDbLine
 10
78.272776
 20
184.468783
 30
0.0
 11
78.272776
 21
182.468783
 31
0.0
  0
LINE
  5
2103
100
AcDbEntity
  8
ALPHA
100
AcDbLine
 10
78.272776
 20
182.468783
 30
0.0
 11
79.389704
 21
182.468783
 31
0.0
  0
DIMENSION
  5
2110
100
AcDbEntity
  8
COTATION1
100
AcDbDimension
  2
*D3
 10
125.922776
 20
160.0
 30
0.0
 11
100.822776
 21
162.25
 31
0.0
  3
SC_STAND
100
AcDbAlignedDimension
 13
75.722776
 23
182.948783
 33
0.0
 14
125.922776
 24
177.095973
 34
0.0
100
AcDbRotatedDimension
  0
DIMENSION
  5
2128
100
AcDbEntity
  8
COTATION1
100
AcDbDimension
  2
*D4
 10
93.922776
 20
167.5
 30
0.0
 11
84.822776
 21
169.75
 31
0.0
  3
SC_STAND
100
AcDbAlignedDimension
 13
75.722776
 23
182.886283
 33
0.0
 14
93.922776
 24
175.323783
 34
0.0
100
AcDbRotatedDimension
  0
DIMENSION
  5
2137
100
AcDbEntity
  8
COTATION1
100
AcDbDimension
  2
*D5
 10
118.122776
 20
167.5
 30
0.0
 11
122.022776
 21
169.75
 31
0.0
  3
SC_STAND
100
AcDbAlignedDimension
 13
125.922776
 23
177.033473
 33
0.0
 14
118.122776
 24
175.498783
 34
0.0
100
AcDbRotatedDimension
  0
VIEWPORT
  5
1FE
100
AcDbEntity
 67
     1
  8
0
100
AcDbViewport
 10
251.108558
 20
148.5
 30
0.0
 40
8035.473851
 41
4752.0
 68
    -1
 69
     1
1001
ACAD
1000
MVIEW
1002
{
1070
    16
1010
0.0
1020
0.0
1030
0.0
1010
0.0
1020
0.0
1030
1.0
1040
0.0
1040
4752.0
1040
251.108558
1040
148.5
1040
50.0
1040
0.0
1040
0.0
1070
     0
1070
   100
1070
     1
1070
     1
1070
     0
1070
     0
1070
     0
1070
     0
1040
0.0
1040
0.0
1040
0.0
1040
1.0
1040
1.0
1040
0.0
1040
0.0
1070
     0
1002
{
1002
}
1002
}
  0
ENDSEC
  0
SECTION
  2
OBJECTS
  0
DICTIONARY
  5
27D0
100
AcDbDictionary
  3
ACAD_GROUP
350
27D1
  3
ACAD_MLINESTYLE
350
27DE
  3
ACDBVARIABLEDICTIONARY
350
281E
  0
DICTIONARY
  5
27D1
102
{ACAD_REACTORS
330
27D0
102
}
100
AcDbDictionary
  0
DICTIONARY
  5
27DE
102
{ACAD_REACTORS
330
27D0
102
}
100
AcDbDictionary
  3
STANDARD
350
27DF
  0
DICTIONARY
  5
281E
102
{ACAD_REACTORS
330
27D0
102
}
100
AcDbDictionary
  3
DIMADEC
350
281F
  0
MLINESTYLE
  5
27DF
102
{ACAD_REACTORS
330
27DE
102
}
100
AcDbMlineStyle
  2
STANDARD
 70
     0
  3

 62
   256
 51
90.0
 52
90.0
 71
     2
 49
0.5
 62
   256
  6
BYLAYER
 49
-0.5
 62
   256
  6
BYLAYER
  0
DICTIONARYVAR
  5
281F
102
{ACAD_REACTORS
330
281E
102
}
100
DictionaryVariables
280
     0
  1
0
  0
ENDSEC
  0
EOF
