  0
SECTION
  2
HEADER
  9
$ACADVER
  1
AC1014
  9
$ACADMAINTVER
 70
     0
  9
$DWGCODEPAGE
  3
ANSI_1252
  9
$INSBASE
 10
58.335963
 20
172.968889
 30
0.0
  9
$EXTMIN
 10
33.926932
 20
136.877777
 30
0.0
  9
$EXTMAX
 10
91.594133
 20
188.040356
 30
0.0
  9
$LIMMIN
 10
0.0
 20
0.0
  9
$LIMMAX
 10
210.0
 20
297.0
  9
$ORTHOMODE
 70
     0
  9
$REGENMODE
 70
     1
  9
$FILLMODE
 70
     1
  9
$QTEXTMODE
 70
     0
  9
$MIRRTEXT
 70
     1
  9
$DRAGMODE
 70
     2
  9
$LTSCALE
 40
7.0
  9
$OSMODE
 70
     0
  9
$ATTMODE
 70
     1
  9
$TEXTSIZE
 40
0.2
  9
$TRACEWID
 40
0.05
  9
$TEXTSTYLE
  7
STANDARD
  9
$CLAYER
  8
COTATION1
  9
$CELTYPE
  6
BYLAYER
  9
$CECOLOR
 62
   256
  9
$CELTSCALE
 40
1.0
  9
$DELOBJ
 70
     1
  9
$DISPSILH
 70
     0
  9
$DIMSCALE
 40
1.0
  9
$DIMASZ
 40
3.0
  9
$DIMEXO
 40
0.0625
  9
$DIMDLI
 40
0.38
  9
$DIMRND
 40
0.01
  9
$DIMDLE
 40
0.0
  9
$DIMEXE
 40
0.18
  9
$DIMTP
 40
0.0
  9
$DIMTM
 40
0.0
  9
$DIMTXT
 40
2.5
  9
$DIMCEN
 40
0.09
  9
$DIMTSZ
 40
0.0
  9
$DIMTOL
 70
     0
  9
$DIMLIM
 70
     0
  9
$DIMTIH
 70
     0
  9
$DIMTOH
 70
     0
  9
$DIMSE1
 70
     0
  9
$DIMSE2
 70
     0
  9
$DIMTAD
 70
     1
  9
$DIMZIN
 70
    12
  9
$DIMBLK
  1

  9
$DIMASO
 70
     1
  9
$DIMSHO
 70
     1
  9
$DIMPOST
  1

  9
$DIMAPOST
  1

  9
$DIMALT
 70
     0
  9
$DIMALTD
 70
     2
  9
$DIMALTF
 40
25.4
  9
$DIMLFAC
 40
1.0
  9
$DIMTOFL
 70
     1
  9
$DIMTVP
 40
0.0
  9
$DIMTIX
 70
     0
  9
$DIMSOXD
 70
     0
  9
$DIMSAH
 70
     0
  9
$DIMBLK1
  1

  9
$DIMBLK2
  1

  9
$DIMSTYLE
  2
SC_STAND
  9
$DIMCLRD
 70
     0
  9
$DIMCLRE
 70
     0
  9
$DIMCLRT
 70
     0
  9
$DIMTFAC
 40
1.0
  9
$DIMGAP
 40
1.0
  9
$DIMJUST
 70
     0
  9
$DIMSD1
 70
     0
  9
$DIMSD2
 70
     0
  9
$DIMTOLJ
 70
     1
  9
$DIMTZIN
 70
    12
  9
$DIMALTZ
 70
    12
  9
$DIMALTTZ
 70
    12
  9
$DIMFIT
 70
     5
  9
$DIMUPT
 70
     0
  9
$DIMUNIT
 70
     2
  9
$DIMDEC
 70
     4
  9
$DIMTDEC
 70
     4
  9
$DIMALTU
 70
     2
  9
$DIMALTTD
 70
     2
  9
$DIMTXSTY
  7
STANDARD
  9
$DIMAUNIT
 70
     0
  9
$LUNITS
 70
     2
  9
$LUPREC
 70
     4
  9
$SKETCHINC
 40
0.1
  9
$FILLETRAD
 40
0.0
  9
$AUNITS
 70
     0
  9
$AUPREC
 70
     0
  9
$MENU
  1
acad
  9
$ELEVATION
 40
0.0
  9
$PELEVATION
 40
0.0
  9
$THICKNESS
 40
0.0
  9
$LIMCHECK
 70
     0
  9
$BLIPMODE
 70
     1
  9
$CHAMFERA
 40
0.0
  9
$CHAMFERB
 40
0.0
  9
$CHAMFERC
 40
0.0
  9
$CHAMFERD
 40
0.0
  9
$SKPOLY
 70
     0
  9
$TDCREATE
 40
2451086.685000347
  9
$TDUPDATE
 40
2451387.897600463
  9
$TDINDWG
 40
0.0000184028
  9
$TDUSRTIMER
 40
0.0000184028
  9
$USRTIMER
 70
     1
  9
$ANGBASE
 50
0.0
  9
$ANGDIR
 70
     0
  9
$PDMODE
 70
     0
  9
$PDSIZE
 40
0.0
  9
$PLINEWID
 40
0.0
  9
$COORDS
 70
     1
  9
$SPLFRAME
 70
     0
  9
$SPLINETYPE
 70
     6
  9
$SPLINESEGS
 70
     8
  9
$ATTDIA
 70
     0
  9
$ATTREQ
 70
     1
  9
$HANDLING
 70
     1
  9
$HANDSEED
  5
716
  9
$SURFTAB1
 70
     6
  9
$SURFTAB2
 70
     6
  9
$SURFTYPE
 70
     6
  9
$SURFU
 70
     6
  9
$SURFV
 70
     6
  9
$UCSNAME
  2

  9
$UCSORG
 10
0.0
 20
0.0
 30
0.0
  9
$UCSXDIR
 10
1.0
 20
0.0
 30
0.0
  9
$UCSYDIR
 10
0.0
 20
1.0
 30
0.0
  9
$PUCSNAME
  2

  9
$PUCSORG
 10
0.0
 20
0.0
 30
0.0
  9
$PUCSXDIR
 10
1.0
 20
0.0
 30
0.0
  9
$PUCSYDIR
 10
0.0
 20
1.0
 30
0.0
  9
$USERI1
 70
     0
  9
$USERI2
 70
     0
  9
$USERI3
 70
     0
  9
$USERI4
 70
     0
  9
$USERI5
 70
     0
  9
$USERR1
 40
0.0
  9
$USERR2
 40
0.0
  9
$USERR3
 40
0.0
  9
$USERR4
 40
0.0
  9
$USERR5
 40
0.0
  9
$WORLDVIEW
 70
     1
  9
$SHADEDGE
 70
     3
  9
$SHADEDIF
 70
    70
  9
$TILEMODE
 70
     1
  9
$MAXACTVP
 70
    16
  9
$PINSBASE
 10
0.0
 20
0.0
 30
0.0
  9
$PLIMCHECK
 70
     0
  9
$PEXTMIN
 10
1.000000E+20
 20
1.000000E+20
 30
1.000000E+20
  9
$PEXTMAX
 10
-1.000000E+20
 20
-1.000000E+20
 30
-1.000000E+20
  9
$PLIMMIN
 10
0.0
 20
0.0
  9
$PLIMMAX
 10
12.0
 20
9.0
  9
$UNITMODE
 70
     0
  9
$VISRETAIN
 70
     0
  9
$PLINEGEN
 70
     0
  9
$PSLTSCALE
 70
     1
  9
$TREEDEPTH
 70
  3020
  9
$PICKSTYLE
 70
     1
  9
$CMLSTYLE
  2
STANDARD
  9
$CMLJUST
 70
     0
  9
$CMLSCALE
 40
1.0
  9
$PROXYGRAPHICS
 70
     1
  9
$MEASUREMENT
 70
     0
  0
ENDSEC
  0
SECTION
  2
CLASSES
  0
CLASS
  1
DICTIONARYVAR
  2
AcDbDictionaryVar
  3
"AutoCAD"
 90
        0
280
     0
281
     0
  0
CLASS
  1
LWPOLYLINE
  2
AcDbPolyline
  3
"AutoCAD"
 90
        0
280
     0
281
     1
  0
ENDSEC
  0
SECTION
  2
TABLES
  0
TABLE
  2
VPORT
  5
6EC
100
AcDbSymbolTable
 70
     1
  0
VPORT
  5
711
100
AcDbSymbolTableRecord
100
AcDbViewportTableRecord
  2
*ACTIVE
 70
     0
 10
0.0
 20
0.0
 11
1.0
 21
1.0
 12
189.545455
 22
113.428776
 13
0.0
 23
0.0
 14
1.0
 24
1.0
 15
0.0
 25
0.0
 16
0.0
 26
0.0
 36
1.0
 17
0.0
 27
0.0
 37
0.0
 40
226.857552
 41
1.671053
 42
50.0
 43
0.0
 44
0.0
 50
0.0
 51
0.0
 71
     0
 72
   100
 73
     1
 74
     1
 75
     0
 76
     0
 77
     0
 78
     0
  0
ENDTAB
  0
TABLE
  2
LTYPE
  5
6E9
100
AcDbSymbolTable
 70
     1
  0
LTYPE
  5
6F5
100
AcDbSymbolTableRecord
100
AcDbLinetypeTableRecord
  2
BYBLOCK
 70
     0
  3

 72
    65
 73
     0
 40
0.0
  0
LTYPE
  5
6F6
100
AcDbSymbolTableRecord
100
AcDbLinetypeTableRecord
  2
BYLAYER
 70
     0
  3

 72
    65
 73
     0
 40
0.0
  0
LTYPE
  5
6F7
100
AcDbSymbolTableRecord
100
AcDbLinetypeTableRecord
  2
CONTINUOUS
 70
     0
  3
Solid line
 72
    65
 73
     0
 40
0.0
  0
ENDTAB
  0
TABLE
  2
LAYER
  5
6E6
100
AcDbSymbolTable
 70
     4
  0
LAYER
  5
6F2
100
AcDbSymbolTableRecord
100
AcDbLayerTableRecord
  2
0
 70
     0
 62
     7
  6
CONTINUOUS
  0
LAYER
  5
705
100
AcDbSymbolTableRecord
100
AcDbLayerTableRecord
  2
COTATION1
 70
     0
 62
     2
  6
CONTINUOUS
  0
LAYER
  5
706
100
AcDbSymbolTableRecord
100
AcDbLayerTableRecord
  2
ALPHA
 70
     0
 62
   255
  6
CONTINUOUS
  0
LAYER
  5
707
100
AcDbSymbolTableRecord
100
AcDbLayerTableRecord
  2
DEFPOINTS
 70
     0
 62
     7
  6
CONTINUOUS
  0
ENDTAB
  0
TABLE
  2
STYLE
  5
6E7
100
AcDbSymbolTable
 70
     2
  0
STYLE
  5
6F3
100
AcDbSymbolTableRecord
100
AcDbTextStyleTableRecord
  2
STANDARD
 70
     0
 40
0.0
 41
1.0
 50
0.0
 71
     0
 42
0.2
  3
txt
  4

  0
STYLE
  5
702
100
AcDbSymbolTableRecord
100
AcDbTextStyleTableRecord
  2
ROMANS
 70
     0
 40
0.0
 41
1.0
 50
0.0
 71
     0
 42
2.9
  3
romans.shx
  4

  0
ENDTAB
  0
TABLE
  2
VIEW
  5
6EA
100
AcDbSymbolTable
 70
     0
  0
ENDTAB
  0
TABLE
  2
UCS
  5
6EB
100
AcDbSymbolTable
 70
     0
  0
ENDTAB
  0
TABLE
  2
APPID
  5
6ED
100
AcDbSymbolTable
 70
     1
  0
APPID
  5
6F4
100
AcDbSymbolTableRecord
100
AcDbRegAppTableRecord
  2
ACAD
 70
     0
  0
ENDTAB
  0
TABLE
  2
DIMSTYLE
  5
6EE
100
AcDbSymbolTable
 70
     1
  0
DIMSTYLE
105
704
102
{ACAD_REACTORS
330
1F
330
2D
102
}
100
AcDbSymbolTableRecord
100
AcDbDimStyleTableRecord
  2
SC_STAND
 70
     0
  3

  4

  5

  6

  7

 40
1.0
 41
3.0
 42
0.0625
 43
0.38
 44
0.18
 45
0.01
 46
0.0
 47
0.0
 48
0.0
140
2.5
141
0.09
142
0.0
143
25.4
144
1.0
145
0.0
146
1.0
147
1.0
 71
     0
 72
     0
 73
     0
 74
     0
 75
     0
 76
     0
 77
     1
 78
    12
170
     0
171
     2
172
     1
173
     0
174
     0
175
     0
176
     0
177
     0
178
     0
270
     2
271
     4
272
     4
273
     2
274
     2
340
6F3
275
     0
280
     0
281
     0
282
     0
283
     1
284
    12
285
    12
286
    12
287
     5
288
     0
  0
ENDTAB
  0
TABLE
  2
BLOCK_RECORD
  5
6E5
100
AcDbSymbolTable
 70
     2
  0
BLOCK_RECORD
  5
6FB
100
AcDbSymbolTableRecord
100
AcDbBlockTableRecord
  2
*MODEL_SPACE
  0
BLOCK_RECORD
  5
6F8
100
AcDbSymbolTableRecord
100
AcDbBlockTableRecord
  2
*PAPER_SPACE
  0
BLOCK_RECORD
  5
700
100
AcDbSymbolTableRecord
100
AcDbBlockTableRecord
  2
*D0
  0
BLOCK_RECORD
  5
701
100
AcDbSymbolTableRecord
100
AcDbBlockTableRecord
  2
*D1
  0
ENDTAB
  0
ENDSEC
  0
SECTION
  2
BLOCKS
  0
BLOCK
  5
70A
100
AcDbEntity
  8
0
100
AcDbBlockBegin
  2
*MODEL_SPACE
 70
     0
 10
0.0
 20
0.0
 30
0.0
  3
*MODEL_SPACE
  1

  0
ENDBLK
  5
70B
100
AcDbEntity
  8
0
100
AcDbBlockEnd
  0
BLOCK
  5
708
100
AcDbEntity
 67
     1
  8
0
100
AcDbBlockBegin
  2
*PAPER_SPACE
 70
     0
 10
0.0
 20
0.0
 30
0.0
  3
*PAPER_SPACE
  1

  0
ENDBLK
  5
709
100
AcDbEntity
 67
     1
  8
0
100
AcDbBlockEnd
  0
BLOCK
  5
38
100
AcDbEntity
  8
0
100
AcDbBlockBegin
  2
*D0
 70
     1
 10
0.0
 20
0.0
 30
0.0
  3
*D0
  1
AVE_GLOBAL
  0
LINE
  5
2F
100
AcDbEntity
  8
0
  6
BYBLOCK
 62
     0
100
AcDbLine
 10
34.309148
 20
172.604705
 30
0.0
 11
34.309148
 21
137.197777
 31
0.0
  0
LINE
  5
30
100
AcDbEntity
  8
0
  6
BYBLOCK
 62
     0
100
AcDbLine
 10
78.31911
 20
169.988577
 30
0.0
 11
78.31911
 21
137.197777
 31
0.0
  0
LINE
  5
31
100
AcDbEntity
  8
0
  6
BYBLOCK
 62
     0
100
AcDbLine
 10
37.309148
 20
137.377777
 30
0.0
 11
75.31911
 21
137.377777
 31
0.0
  0
SOLID
  5
32
100
AcDbEntity
  8
0
  6
BYBLOCK
 62
     0
100
AcDbTrace
 10
37.309148
 20
137.877777
 30
0.0
 11
37.309148
 21
136.877777
 31
0.0
 12
34.309148
 22
137.377777
 32
0.0
 13
34.309148
 23
137.377777
 33
0.0
  0
SOLID
  5
33
100
AcDbEntity
  8
0
  6
BYBLOCK
 62
     0
100
AcDbTrace
 10
75.31911
 20
137.877777
 30
0.0
 11
75.31911
 21
136.877777
 31
0.0
 12
78.31911
 22
137.377777
 32
0.0
 13
78.31911
 23
137.377777
 33
0.0
  0
TEXT
  5
34
100
AcDbEntity
  8
0
  6
BYBLOCK
 62
     0
100
AcDbText
 10
51.314129
 20
138.377777
 30
0.0
 40
2.5
  1
44.01
  7
ROMANS
100
AcDbText
  0
POINT
  5
35
100
AcDbEntity
  8
DEFPOINTS
  6
BYBLOCK
 62
     0
100
AcDbPoint
 10
34.309148
 20
172.667205
 30
0.0
  0
POINT
  5
36
100
AcDbEntity
  8
DEFPOINTS
  6
BYBLOCK
 62
     0
100
AcDbPoint
 10
78.31911
 20
170.051077
 30
0.0
  0
POINT
  5
37
100
AcDbEntity
  8
DEFPOINTS
  6
BYBLOCK
 62
     0
100
AcDbPoint
 10
78.31911
 20
137.377777
 30
0.0
  0
ENDBLK
  5
39
100
AcDbEntity
  8
0
100
AcDbBlockEnd
  0
BLOCK
  5
2B
100
AcDbEntity
  8
0
100
AcDbBlockBegin
  2
*D1
 70
     1
 10
0.0
 20
0.0
 30
0.0
  3
*D1
  1
AVE_GLOBAL
  0
LINE
  5
21
100
AcDbEntity
  8
0
  6
BYBLOCK
 62
     0
100
AcDbLine
 10
71.467251
 20
163.651077
 30
0.0
 11
91.274133
 21
163.651077
 31
0.0
  0
LINE
  5
22
100
AcDbEntity
  8
0
  6
BYBLOCK
 62
     0
100
AcDbLine
 10
71.467251
 20
183.851077
 30
0.0
 11
91.274133
 21
183.851077
 31
0.0
  0
LINE
  5
23
100
AcDbEntity
  8
0
  6
BYBLOCK
 62
     0
100
AcDbLine
 10
91.094133
 20
166.651077
 30
0.0
 11
91.094133
 21
180.851077
 31
0.0
  0
SOLID
  5
24
100
AcDbEntity
  8
0
  6
BYBLOCK
 62
     0
100
AcDbTrace
 10
90.594133
 20
166.651077
 30
0.0
 11
91.594133
 21
166.651077
 31
0.0
 12
91.094133
 22
163.651077
 32
0.0
 13
91.094133
 23
163.651077
 33
0.0
  0
SOLID
  5
25
100
AcDbEntity
  8
0
  6
BYBLOCK
 62
     0
100
AcDbTrace
 10
90.594133
 20
180.851077
 30
0.0
 11
91.594133
 21
180.851077
 31
0.0
 12
91.094133
 22
183.851077
 32
0.0
 13
91.094133
 23
183.851077
 33
0.0
  0
TEXT
  5
26
100
AcDbEntity
  8
0
  6
BYBLOCK
 62
     0
100
AcDbText
 10
90.094133
 20
168.572506
 30
0.0
 40
2.5
  1
%%c20.2
 50
90.0
  7
ROMANS
100
AcDbText
  0
POINT
  5
27
100
AcDbEntity
  8
DEFPOINTS
  6
BYBLOCK
 62
     0
100
AcDbPoint
 10
71.404751
 20
163.651077
 30
0.0
  0
POINT
  5
29
100
AcDbEntity
  8
DEFPOINTS
  6
BYBLOCK
 62
     0
100
AcDbPoint
 10
71.404751
 20
183.851077
 30
0.0
  0
POINT
  5
2A
100
AcDbEntity
  8
DEFPOINTS
  6
BYBLOCK
 62
     0
100
AcDbPoint
 10
91.094133
 20
183.851077
 30
0.0
  0
ENDBLK
  5
2C
100
AcDbEntity
  8
0
100
AcDbBlockEnd
  0
ENDSEC
  0
SECTION
  2
ENTITIES
  0
DIMENSION
  5
1F
100
AcDbEntity
  8
COTATION1
100
AcDbDimension
  2
*D1
 10
91.094133
 20
183.851077
 30
0.0
 11
88.844133
 21
173.751077
 31
0.0
  1
%%c<>
  3
SC_STAND
100
AcDbAlignedDimension
 13
71.404751
 23
163.651077
 33
0.0
 14
71.404751
 24
183.851077
 34
0.0
 50
90.0
100
AcDbRotatedDimension
  0
DIMENSION
  5
2D
100
AcDbEntity
  8
COTATION1
100
AcDbDimension
  2
*D0
 10
78.31911
 20
137.377777
 30
0.0
 11
56.314129
 21
139.627777
 31
0.0
  3
SC_STAND
100
AcDbAlignedDimension
 13
34.309148
 23
172.667205
 33
0.0
 14
78.31911
 24
170.051077
 34
0.0
100
AcDbRotatedDimension
  0
LWPOLYLINE
  5
3A
100
AcDbEntity
  8
ALPHA
100
AcDbPolyline
 90
       22
 70
     0
 43
0.0
 10
36.156141
 20
160.230669
 10
36.156141
 20
160.372925
 10
36.156141
 20
160.796702
 10
36.156141
 20
161.493083
 10
36.156141
 20
162.447414
 10
36.156141
 20
163.639611
 10
36.156141
 20
165.044588
 10
36.156141
 20
166.632778
 10
36.156141
 20
168.370763
 10
36.156141
 20
170.221964
 10
36.156141
 20
172.147428
 10
36.156141
 20
174.106713
 10
36.156141
 20
176.058382
 10
36.156141
 20
177.961579
 10
36.156141
 20
179.776149
 10
36.156141
 20
181.463936
 10
36.156141
 20
182.989418
 10
36.156141
 20
184.320495
 10
36.156141
 20
185.429155
 10
36.156141
 20
186.292069
 10
36.156141
 20
186.891078
 10
36.156141
 20
187.213578
  0
LINE
  5
53
100
AcDbEntity
  8
ALPHA
100
AcDbLine
 10
48.693429
 20
164.332924
 30
0.0
 11
37.118886
 21
164.332924
 31
0.0
  0
LWPOLYLINE
  5
54
100
AcDbEntity
  8
ALPHA
100
AcDbPolyline
 90
        6
 70
     0
 43
0.0
 10
48.693429
 20
165.168693
 10
48.693429
 20
165.00841
 10
48.693429
 20
164.827449
 10
48.693429
 20
164.643058
 10
48.693429
 20
164.472808
 10
48.693429
 20
164.332924
  0
LINE
  5
5C
100
AcDbEntity
  8
ALPHA
100
AcDbLine
 10
48.693429
 20
165.26585
 30
0.0
 11
48.693429
 21
165.168693
 31
0.0
  0
LWPOLYLINE
  5
5D
100
AcDbEntity
  8
ALPHA
100
AcDbPolyline
 90
       14
 70
     0
 43
0.0
 10
37.118886
 20
171.655872
 10
36.844049
 20
171.661955
 10
36.612399
 20
171.689045
 10
36.439966
 20
171.750302
 10
36.323186
 20
171.849935
 10
36.251722
 20
171.983311
 10
36.213994
 20
172.142602
 10
36.202371
 20
172.314811
 10
36.214163
 20
172.48181
 10
36.25216
 20
172.626386
 10
36.324259
 20
172.737819
 10
36.441598
 20
172.810548
 10
36.61414
 20
172.844781
 10
36.813921
 20
172.851068
  0
LWPOLYLINE
  5
6D
100
AcDbEntity
  8
ALPHA
100
AcDbPolyline
 90
        9
 70
     0
 43
0.0
 10
37.118886
 20
159.529662
 10
36.844202
 20
159.568077
 10
36.61214
 20
159.668125
 10
36.438739
 20
159.79974
 10
36.322153
 20
159.934004
 10
36.251069
 20
160.050497
 10
36.213703
 20
160.135372
 10
36.202374
 20
160.177168
 10
36.203828
 20
160.180244
  0
LWPOLYLINE
  5
78
100
AcDbEntity
  8
ALPHA
100
AcDbPolyline
 90
       12
 70
     0
 43
0.0
 10
37.118886
 20
164.332924
 10
36.845301
 20
164.358448
 10
36.613946
 20
164.433028
 10
36.441496
 20
164.549218
 10
36.324165
 20
164.695501
 10
36.252057
 20
164.857395
 10
36.214097
 20
165.020365
 10
36.202371
 20
165.168634
 10
36.214073
 20
165.285745
 10
36.252004
 20
165.360734
 10
36.324037
 20
165.390675
 10
36.34358
 20
165.391445
  0
LWPOLYLINE
  5
86
100
AcDbEntity
  8
ALPHA
100
AcDbPolyline
 90
       11
 70
     0
 43
0.0
 10
37.118886
 20
162.302783
 10
36.843994
 20
162.333988
 10
36.611959
 20
162.421474
 10
36.439061
 20
162.550623
 10
36.322705
 20
162.702806
 10
36.251319
 20
162.861653
 10
36.21379
 20
163.011908
 10
36.202372
 20
163.137845
 10
36.214299
 20
163.225285
 10
36.252399
 20
163.266605
 10
36.276725
 20
163.270124
  0
LINE
  5
93
100
AcDbEntity
  8
ALPHA
100
AcDbLine
 10
48.693429
 20
162.302783
 30
0.0
 11
37.118886
 21
162.302783
 31
0.0
  0
LINE
  5
94
100
AcDbEntity
  8
ALPHA
100
AcDbLine
 10
37.118886
 20
187.723131
 30
0.0
 11
37.118886
 21
187.946147
 31
0.0
  0
LINE
  5
95
100
AcDbEntity
  8
ALPHA
100
AcDbLine
 10
37.118886
 20
187.716182
 30
0.0
 11
37.118886
 21
187.723131
 31
0.0
  0
LWPOLYLINE
  5
96
100
AcDbEntity
  8
ALPHA
100
AcDbPolyline
 90
        5
 70
     0
 43
0.0
 10
37.118886
 20
185.199371
 10
37.118886
 20
186.061671
 10
37.118886
 20
186.775163
 10
37.118886
 20
187.331224
 10
37.118886
 20
187.716182
  0
LINE
  5
9D
100
AcDbEntity
  8
ALPHA
100
AcDbLine
 10
48.693429
 20
184.502759
 30
0.0
 11
48.693429
 21
184.445043
 31
0.0
  0
LWPOLYLINE
  5
9E
100
AcDbEntity
  8
ALPHA
100
AcDbPolyline
 90
        5
 70
     0
 43
0.0
 10
48.693429
 20
185.199371
 10
48.693429
 20
185.037169
 10
48.693429
 20
184.855416
 10
48.693429
 20
184.671435
 10
48.693429
 20
184.502759
  0
LWPOLYLINE
  5
A5
100
AcDbEntity
  8
ALPHA
100
AcDbPolyline
 90
        6
 70
     0
 43
0.0
 10
48.693429
 20
185.199371
 10
48.880821
 20
185.18147
 10
49.04909
 20
185.12944
 10
49.182298
 20
185.047427
 10
49.266013
 20
184.943883
 10
49.293429
 20
184.832029
  0
LINE
  5
AD
100
AcDbEntity
  8
ALPHA
100
AcDbLine
 10
48.693429
 20
182.333461
 30
0.0
 11
48.693429
 21
182.236304
 31
0.0
  0
LWPOLYLINE
  5
AE
100
AcDbEntity
  8
ALPHA
100
AcDbPolyline
 90
        6
 70
     0
 43
0.0
 10
48.693429
 20
183.16923
 10
48.693429
 20
183.029346
 10
48.693429
 20
182.859096
 10
48.693429
 20
182.674705
 10
48.693429
 20
182.493744
 10
48.693429
 20
182.333461
  0
LWPOLYLINE
  5
B6
100
AcDbEntity
  8
ALPHA
100
AcDbPolyline
 90
        6
 70
     0
 43
0.0
 10
48.693429
 20
183.16923
 10
48.875937
 20
183.14793
 10
49.044931
 20
183.083512
 10
49.179789
 20
182.981121
 10
49.265117
 20
182.851798
 10
49.293429
 20
182.710709
  0
LWPOLYLINE
  5
BE
100
AcDbEntity
  8
ALPHA
100
AcDbPolyline
 90
       11
 70
     0
 43
0.0
 10
48.693429
 20
175.846282
 10
48.693429
 20
175.794829
 10
48.693429
 20
175.691556
 10
48.693429
 20
175.546305
 10
48.693429
 20
175.372918
 10
48.693429
 20
175.187919
 10
48.693429
 20
175.00894
 10
48.693429
 20
174.853036
 10
48.693429
 20
174.735067
 10
48.693429
 20
174.666273
 10
48.693429
 20
174.653213
  0
LWPOLYLINE
  5
CB
100
AcDbEntity
  8
ALPHA
100
AcDbPolyline
 90
        6
 70
     0
 43
0.0
 10
48.693429
 20
175.846282
 10
48.880821
 20
175.816583
 10
49.04909
 20
175.730685
 10
49.182298
 20
175.596532
 10
49.266013
 20
175.429258
 10
49.293429
 20
175.251077
  0
LINE
  5
D3
100
AcDbEntity
  8
ALPHA
100
AcDbLine
 10
48.693429
 20
159.529662
 30
0.0
 11
37.118886
 21
159.529662
 31
0.0
  0
LWPOLYLINE
  5
D4
100
AcDbEntity
  8
ALPHA
100
AcDbPolyline
 90
        6
 70
     0
 43
0.0
 10
48.693429
 20
171.655872
 10
48.880821
 20
171.685571
 10
49.04909
 20
171.771469
 10
49.182298
 20
171.905622
 10
49.266013
 20
172.072896
 10
49.293429
 20
172.251077
  0
LWPOLYLINE
  5
DC
100
AcDbEntity
  8
ALPHA
100
AcDbPolyline
 90
       11
 70
     0
 43
0.0
 10
36.276724
 20
184.23203
 10
36.252358
 20
184.235563
 10
36.214285
 20
184.276907
 10
36.202372
 20
184.364358
 10
36.213799
 20
184.490298
 10
36.251329
 20
184.640531
 10
36.322714
 20
184.799365
 10
36.439061
 20
184.951532
 10
36.611959
 20
185.08068
 10
36.844003
 20
185.168169
 10
37.118886
 20
185.199371
  0
LWPOLYLINE
  5
E9
100
AcDbEntity
  8
ALPHA
100
AcDbPolyline
 90
        6
 70
     0
 43
0.0
 10
48.693429
 20
164.332924
 10
48.880821
 20
164.355474
 10
49.04909
 20
164.42089
 10
49.182298
 20
164.523635
 10
49.266013
 20
164.652732
 10
49.293429
 20
164.791445
  0
LWPOLYLINE
  5
F1
100
AcDbEntity
  8
ALPHA
100
AcDbPolyline
 90
        6
 70
     0
 43
0.0
 10
48.693429
 20
162.302783
 10
48.880821
 20
162.320684
 10
49.04909
 20
162.372714
 10
49.182298
 20
162.454727
 10
49.266013
 20
162.558271
 10
49.293429
 20
162.670125
  0
LWPOLYLINE
  5
F9
100
AcDbEntity
  8
ALPHA
100
AcDbPolyline
 90
       12
 70
     0
 43
0.0
 10
36.34357
 20
182.110709
 10
36.324132
 20
182.111471
 10
36.252129
 20
182.141297
 10
36.214158
 20
182.216065
 10
36.202371
 20
182.332792
 10
36.213926
 20
182.480654
 10
36.251583
 20
182.643288
 10
36.322943
 20
182.804585
 10
36.439329
 20
182.950912
 10
36.612186
 20
183.068279
 10
36.844082
 20
183.143465
 10
37.118886
 20
183.16923
  0
LWPOLYLINE
  5
107
100
AcDbEntity
  8
ALPHA
100
AcDbPolyline
 90
        6
 70
     0
 43
0.0
 10
48.693429
 20
159.529662
 10
48.880821
 20
159.531594
 10
49.04909
 20
159.537534
 10
49.182298
 20
159.547852
 10
49.266013
 20
159.562493
 10
49.293429
 20
159.580244
  0
LINE
  5
10F
100
AcDbEntity
  8
ALPHA
100
AcDbLine
 10
48.693429
 20
185.199371
 30
0.0
 11
37.118886
 21
185.199371
 31
0.0
  0
LWPOLYLINE
  5
110
100
AcDbEntity
  8
ALPHA
100
AcDbPolyline
 90
        5
 70
     0
 43
0.0
 10
48.693429
 20
162.999395
 10
48.693429
 20
162.830719
 10
48.693429
 20
162.646738
 10
48.693429
 20
162.464985
 10
48.693429
 20
162.302783
  0
LINE
  5
117
100
AcDbEntity
  8
ALPHA
100
AcDbLine
 10
48.693429
 20
163.057111
 30
0.0
 11
48.693429
 21
162.999395
 31
0.0
  0
LWPOLYLINE
  5
118
100
AcDbEntity
  8
ALPHA
100
AcDbPolyline
 90
       11
 70
     0
 43
0.0
 10
48.693429
 20
172.848941
 10
48.693429
 20
172.835881
 10
48.693429
 20
172.767087
 10
48.693429
 20
172.649118
 10
48.693429
 20
172.493214
 10
48.693429
 20
172.314235
 10
48.693429
 20
172.129236
 10
48.693429
 20
171.955849
 10
48.693429
 20
171.810598
 10
48.693429
 20
171.707325
 10
48.693429
 20
171.655872
  0
LINE
  5
125
100
AcDbEntity
  8
ALPHA
100
AcDbLine
 10
37.118886
 20
159.529662
 30
0.0
 11
37.118886
 21
159.501077
 31
0.0
  0
LWPOLYLINE
  5
126
100
AcDbEntity
  8
ALPHA
100
AcDbPolyline
 90
        5
 70
     0
 43
0.0
 10
37.118886
 20
162.302783
 10
37.118886
 20
161.351267
 10
37.118886
 20
160.585794
 10
37.118886
 20
160.017847
 10
37.118886
 20
159.65595
  0
LWPOLYLINE
  5
12D
100
AcDbEntity
  8
ALPHA
100
AcDbPolyline
 90
        3
 70
     0
 43
0.0
 10
37.118886
 20
164.332924
 10
37.118886
 20
163.674805
 10
37.118886
 20
163.057111
  0
LWPOLYLINE
  5
132
100
AcDbEntity
  8
ALPHA
100
AcDbPolyline
 90
        5
 70
     0
 43
0.0
 10
37.118886
 20
171.655872
 10
37.118886
 20
169.948328
 10
37.118886
 20
168.297838
 10
37.118886
 20
166.729167
 10
37.118886
 20
165.26585
  0
LWPOLYLINE
  5
139
100
AcDbEntity
  8
ALPHA
100
AcDbPolyline
 90
        3
 70
     0
 43
0.0
 10
37.118886
 20
173.751077
 10
37.118886
 20
173.299783
 10
37.118886
 20
172.848941
  0
LWPOLYLINE
  5
13E
100
AcDbEntity
  8
ALPHA
100
AcDbPolyline
 90
        3
 70
     0
 43
0.0
 10
37.118886
 20
173.751077
 10
37.118886
 20
174.202371
 10
37.118886
 20
174.653213
  0
LWPOLYLINE
  5
143
100
AcDbEntity
  8
ALPHA
100
AcDbPolyline
 90
        5
 70
     0
 43
0.0
 10
37.118886
 20
175.846282
 10
37.118886
 20
177.553826
 10
37.118886
 20
179.204316
 10
37.118886
 20
180.772987
 10
37.118886
 20
182.236304
  0
LWPOLYLINE
  5
14A
100
AcDbEntity
  8
ALPHA
100
AcDbPolyline
 90
        3
 70
     0
 43
0.0
 10
37.118886
 20
183.16923
 10
37.118886
 20
183.827349
 10
37.118886
 20
184.445043
  0
LWPOLYLINE
  5
14F
100
AcDbEntity
  8
ALPHA
100
AcDbPolyline
 90
       14
 70
     0
 43
0.0
 10
36.813635
 20
174.651085
 10
36.612308
 20
174.657533
 10
36.439762
 20
174.692284
 10
36.323147
 20
174.765452
 10
36.251703
 20
174.876881
 10
36.213989
 20
175.021493
 10
36.202371
 20
175.18838
 10
36.214118
 20
175.360425
 10
36.251949
 20
175.519476
 10
36.323499
 20
175.652618
 10
36.440345
 20
175.752066
 10
36.612709
 20
175.813175
 10
36.84419
 20
175.840207
 10
37.118886
 20
175.846282
  0
LINE
  5
15F
100
AcDbEntity
  8
ALPHA
100
AcDbLine
 10
48.693429
 20
175.846282
 30
0.0
 11
37.118886
 21
175.846282
 31
0.0
  0
LINE
  5
160
100
AcDbEntity
  8
ALPHA
100
AcDbLine
 10
48.693429
 20
159.65595
 30
0.0
 11
48.693429
 21
159.529662
 31
0.0
  0
LINE
  5
161
100
AcDbEntity
  8
ALPHA
100
AcDbLine
 10
48.693429
 20
183.16923
 30
0.0
 11
37.118886
 21
183.16923
 31
0.0
  0
LINE
  5
162
100
AcDbEntity
  8
ALPHA
100
AcDbLine
 10
48.693429
 20
171.655872
 30
0.0
 11
37.118886
 21
171.655872
 31
0.0
  0
LWPOLYLINE
  5
163
100
AcDbEntity
  8
ALPHA
100
AcDbPolyline
 90
        7
 70
     0
 43
0.0
 10
34.309058
 20
173.741077
 10
34.309113
 20
173.420143
 10
34.309148
 20
173.121077
 10
34.30916
 20
172.864265
 10
34.309148
 20
172.667205
 10
34.309113
 20
172.543328
 10
34.309058
 20
172.501077
  0
LINE
  5
16C
100
AcDbEntity
  8
ALPHA
100
AcDbLine
 10
45.921401
 20
187.946147
 30
0.0
 11
37.118886
 21
187.946147
 31
0.0
  0
LINE
  5
16D
100
AcDbEntity
  8
ALPHA
100
AcDbLine
 10
47.993429
 20
187.946147
 30
0.0
 11
45.921401
 21
187.946147
 31
0.0
  0
LWPOLYLINE
  5
16E
100
AcDbEntity
  8
ALPHA
100
AcDbPolyline
 90
        6
 70
     0
 43
0.0
 10
37.118886
 20
184.445043
 10
36.84554
 20
184.416731
 10
36.614223
 20
184.350945
 10
36.441722
 20
184.28319
 10
36.324461
 20
184.239831
 10
36.276724
 20
184.23203
  0
LWPOLYLINE
  5
176
100
AcDbEntity
  8
ALPHA
100
AcDbPolyline
 90
        5
 70
     0
 43
0.0
 10
37.118886
 20
182.236304
 10
36.845784
 20
182.213992
 10
36.614196
 20
182.165214
 10
36.441322
 20
182.123194
 10
36.34357
 20
182.110709
  0
LWPOLYLINE
  5
17D
100
AcDbEntity
  8
ALPHA
100
AcDbPolyline
 90
        3
 70
     0
 43
0.0
 10
37.118886
 20
174.653213
 10
36.844098
 20
174.6512
 10
36.813635
 20
174.651085
  0
LWPOLYLINE
  5
182
100
AcDbEntity
  8
ALPHA
100
AcDbPolyline
 90
        6
 70
     0
 43
0.0
 10
48.693429
 20
184.445043
 10
48.880821
 20
184.46486
 10
49.04909
 20
184.521876
 10
49.182298
 20
184.610028
 10
49.266013
 20
184.718421
 10
49.293429
 20
184.832029
  0
LWPOLYLINE
  5
18A
100
AcDbEntity
  8
ALPHA
100
AcDbPolyline
 90
        6
 70
     0
 43
0.0
 10
48.693429
 20
182.236304
 10
48.875937
 20
182.259069
 10
49.044931
 20
182.327475
 10
49.179789
 20
182.434852
 10
49.265117
 20
182.568151
 10
49.293429
 20
182.710709
  0
LWPOLYLINE
  5
192
100
AcDbEntity
  8
ALPHA
100
AcDbPolyline
 90
        6
 70
     0
 43
0.0
 10
48.693429
 20
174.653213
 10
48.880821
 20
174.683171
 10
49.04909
 20
174.769744
 10
49.182298
 20
174.904728
 10
49.266013
 20
175.072659
 10
49.293429
 20
175.251077
  0
LWPOLYLINE
  5
19A
100
AcDbEntity
  8
ALPHA
100
AcDbPolyline
 90
        6
 70
     0
 43
0.0
 10
48.693429
 20
172.848941
 10
48.880821
 20
172.818983
 10
49.04909
 20
172.73241
 10
49.182298
 20
172.597426
 10
49.266013
 20
172.429495
 10
49.293429
 20
172.251077
  0
LWPOLYLINE
  5
1A2
100
AcDbEntity
  8
ALPHA
100
AcDbPolyline
 90
        6
 70
     0
 43
0.0
 10
48.693429
 20
165.26585
 10
48.880821
 20
165.241751
 10
49.04909
 20
165.172303
 10
49.182298
 20
165.064595
 10
49.266013
 20
164.931577
 10
49.293429
 20
164.791445
  0
LWPOLYLINE
  5
1AA
100
AcDbEntity
  8
ALPHA
100
AcDbPolyline
 90
        6
 70
     0
 43
0.0
 10
48.693429
 20
163.057111
 10
48.880821
 20
163.037294
 10
49.04909
 20
162.980278
 10
49.182298
 20
162.892126
 10
49.266013
 20
162.783733
 10
49.293429
 20
162.670125
  0
LWPOLYLINE
  5
1B2
100
AcDbEntity
  8
ALPHA
100
AcDbPolyline
 90
        6
 70
     0
 43
0.0
 10
48.693429
 20
159.65595
 10
48.880821
 20
159.651567
 10
49.04909
 20
159.63925
 10
49.182298
 20
159.621081
 10
49.266013
 20
159.600239
 10
49.293429
 20
159.580244
  0
LINE
  5
1BA
100
AcDbEntity
  8
ALPHA
100
AcDbLine
 10
50.793429
 20
159.501077
 30
0.0
 11
50.293429
 21
159.501077
 31
0.0
  0
LINE
  5
1BB
100
AcDbEntity
  8
ALPHA
100
AcDbLine
 10
50.793429
 20
188.001077
 30
0.0
 11
50.293429
 21
188.001077
 31
0.0
  0
LINE
  5
1BC
100
AcDbEntity
  8
ALPHA
100
AcDbLine
 10
50.293429
 20
188.001077
 30
0.0
 11
49.51911
 21
188.001077
 31
0.0
  0
ARC
  5
1BD
100
AcDbEntity
  8
ALPHA
100
AcDbCircle
 10
84.293429
 20
173.751077
 30
0.0
 40
50.0
100
AcDbArc
 50
181.432544
 51
195.688556
  0
LINE
  5
1BE
100
AcDbEntity
  8
ALPHA
100
AcDbLine
 10
34.309057
 20
172.501077
 30
0.0
 11
34.309058
 21
172.501077
 31
0.0
  0
LINE
  5
1BF
100
AcDbEntity
  8
ALPHA
100
AcDbLine
 10
50.793429
 20
159.501077
 30
0.0
 11
50.293429
 21
159.501077
 31
0.0
  0
LINE
  5
1C0
100
AcDbEntity
  8
ALPHA
100
AcDbLine
 10
48.693429
 20
159.501077
 30
0.0
 11
37.118886
 21
159.501077
 31
0.0
  0
LINE
  5
1C1
100
AcDbEntity
  8
ALPHA
100
AcDbLine
 10
50.293429
 20
159.501077
 30
0.0
 11
48.693429
 21
159.501077
 31
0.0
  0
LINE
  5
1C2
100
AcDbEntity
  8
ALPHA
100
AcDbLine
 10
50.793429
 20
188.001077
 30
0.0
 11
50.293429
 21
188.001077
 31
0.0
  0
ARC
  5
1C3
100
AcDbEntity
  8
ALPHA
100
AcDbCircle
 10
37.118886
 20
160.501077
 30
0.0
 40
1.0
100
AcDbArc
 50
195.688556
 51
199.428969
  0
ARC
  5
1C4
100
AcDbEntity
  8
ALPHA
100
AcDbCircle
 10
37.118886
 20
160.501077
 30
0.0
 40
1.0
100
AcDbArc
 50
199.428969
 51
270.0
  0
LWPOLYLINE
  5
1C5
100
AcDbEntity
  8
ALPHA
100
AcDbPolyline
 90
       15
 70
     0
 43
0.0
 10
50.793429
 20
179.205204
 10
50.793429
 20
177.765766
 10
50.793429
 20
175.779063
 10
50.793429
 20
173.751077
 10
50.793429
 20
171.723091
 10
50.793429
 20
169.736388
 10
50.793429
 20
167.831413
 10
50.793429
 20
166.046945
 10
50.793429
 20
164.419312
 10
50.793429
 20
162.981646
 10
50.793429
 20
161.763214
 10
50.793429
 20
160.788821
 10
50.793429
 20
160.078302
 10
50.793429
 20
159.646121
 10
50.793429
 20
159.501077
  0
LWPOLYLINE
  5
1D6
100
AcDbEntity
  8
ALPHA
100
AcDbPolyline
 90
        4
 70
     0
 43
0.0
 10
50.793429
 20
181.956999
 10
50.793429
 20
181.455209
 10
50.793429
 20
179.670741
 10
50.793429
 20
179.205204
  0
LINE
  5
1DC
100
AcDbEntity
  8
ALPHA
100
AcDbLine
 10
50.793429
 20
182.080572
 30
0.0
 11
50.793429
 21
181.956999
 31
0.0
  0
LWPOLYLINE
  5
1DD
100
AcDbEntity
  8
ALPHA
100
AcDbPolyline
 90
        3
 70
     0
 43
0.0
 10
50.793429
 20
183.151077
 10
50.793429
 20
183.082842
 10
50.793429
 20
182.080572
  0
LWPOLYLINE
  5
1E2
100
AcDbEntity
  8
ALPHA
100
AcDbPolyline
 90
        3
 70
     0
 43
0.0
 10
50.793429
 20
184.876894
 10
50.793429
 20
184.520508
 10
50.793429
 20
183.151077
  0
LINE
  5
1E7
100
AcDbEntity
  8
ALPHA
100
AcDbLine
 10
50.793429
 20
185.207516
 30
0.0
 11
50.793429
 21
184.876894
 31
0.0
  0
LWPOLYLINE
  5
1E8
100
AcDbEntity
  8
ALPHA
100
AcDbPolyline
 90
        3
 70
     0
 43
0.0
 10
50.793429
 20
186.211013
 10
50.793429
 20
185.73894
 10
50.793429
 20
185.207516
  0
LWPOLYLINE
  5
1ED
100
AcDbEntity
  8
ALPHA
100
AcDbPolyline
 90
        5
 70
     0
 43
0.0
 10
50.793429
 20
188.001077
 10
50.793429
 20
187.856033
 10
50.793429
 20
187.423852
 10
50.793429
 20
186.713333
 10
50.793429
 20
186.211013
  0
LWPOLYLINE
  5
1F4
100
AcDbEntity
  8
ALPHA
100
AcDbPolyline
 90
        7
 70
     0
 43
0.0
 10
37.118886
 20
187.946147
 10
36.905915
 20
187.923116
 10
36.699388
 20
187.853544
 10
36.515261
 20
187.742619
 10
36.358973
 20
187.594783
 10
36.236134
 20
187.413854
 10
36.156141
 20
187.213578
  0
LINE
  5
1FD
100
AcDbEntity
  8
ALPHA
100
AcDbLine
 10
48.693429
 20
172.848941
 30
0.0
 11
37.118886
 21
172.848941
 31
0.0
  0
LINE
  5
1FE
100
AcDbEntity
  8
ALPHA
100
AcDbLine
 10
48.693429
 20
165.26585
 30
0.0
 11
37.118886
 21
165.26585
 31
0.0
  0
LINE
  5
1FF
100
AcDbEntity
  8
ALPHA
100
AcDbLine
 10
48.693429
 20
163.057111
 30
0.0
 11
37.118886
 21
163.057111
 31
0.0
  0
LINE
  5
200
100
AcDbEntity
  8
ALPHA
100
AcDbLine
 10
48.693429
 20
159.65595
 30
0.0
 11
37.118886
 21
159.65595
 31
0.0
  0
LWPOLYLINE
  5
201
100
AcDbEntity
  8
ALPHA
100
AcDbPolyline
 90
        3
 70
     0
 43
0.0
 10
36.813921
 20
172.851068
 10
36.845484
 20
172.850946
 10
37.118886
 20
172.848941
  0
LWPOLYLINE
  5
206
100
AcDbEntity
  8
ALPHA
100
AcDbPolyline
 90
       17
 70
     0
 43
0.0
 10
34.309058
 20
173.741077
 10
34.311942
 20
174.288145
 10
34.319562
 20
174.775829
 10
34.33074
 20
175.223211
 10
34.346422
 20
175.683427
 10
34.368882
 20
176.19588
 10
34.400834
 20
176.778698
 10
34.444998
 20
177.435015
 10
34.504504
 20
178.167
 10
34.582979
 20
178.976844
 10
34.684616
 20
179.866887
 10
34.814356
 20
180.84042
 10
34.978221
 20
181.902627
 10
35.183721
 20
183.060967
 10
35.440282
 20
184.324984
 10
35.759585
 20
185.705303
 10
36.156141
 20
187.213578
  0
LINE
  5
219
100
AcDbEntity
  8
ALPHA
100
AcDbLine
 10
34.309058
 20
172.501077
 30
0.0
 11
34.309057
 21
172.501077
 31
0.0
  0
LWPOLYLINE
  5
21A
100
AcDbEntity
  8
ALPHA
100
AcDbPolyline
 90
        8
 70
     0
 43
0.0
 10
36.203828
 20
160.180244
 10
36.214393
 20
160.169835
 10
36.252568
 20
160.116004
 10
36.324784
 20
160.024602
 10
36.442198
 20
159.908835
 10
36.614671
 20
159.789016
 10
36.845794
 20
159.693489
 10
37.118886
 20
159.65595
  0
LWPOLYLINE
  5
224
100
AcDbEntity
  8
ALPHA
100
AcDbPolyline
 90
        5
 70
     0
 43
0.0
 10
36.34358
 20
165.391445
 10
36.441285
 20
165.378968
 10
36.613996
 20
165.33699
 10
36.845508
 20
165.288206
 10
37.118886
 20
165.26585
  0
LWPOLYLINE
  5
22B
100
AcDbEntity
  8
ALPHA
100
AcDbPolyline
 90
        6
 70
     0
 43
0.0
 10
36.276725
 20
163.270124
 10
36.324523
 20
163.262306
 10
36.441798
 20
163.218932
 10
36.614318
 20
163.151176
 10
36.845605
 20
163.085409
 10
37.118886
 20
163.057111
  0
LINE
  5
233
100
AcDbEntity
  8
ALPHA
100
AcDbLine
 10
48.693429
 20
174.653213
 30
0.0
 11
37.118886
 21
174.653213
 31
0.0
  0
LINE
  5
234
100
AcDbEntity
  8
ALPHA
100
AcDbLine
 10
48.019884
 20
187.946522
 30
0.0
 11
47.993429
 21
187.946147
 31
0.0
  0
LWPOLYLINE
  5
235
100
AcDbEntity
  8
ALPHA
100
AcDbPolyline
 90
        4
 70
     0
 43
0.0
 10
49.493429
 20
187.965946
 10
48.993088
 20
187.959834
 10
48.49308
 20
187.953234
 10
48.019884
 20
187.946522
  0
LINE
  5
23B
100
AcDbEntity
  8
ALPHA
100
AcDbLine
 10
48.693429
 20
184.445043
 30
0.0
 11
37.118886
 21
184.445043
 31
0.0
  0
LINE
  5
23C
100
AcDbEntity
  8
ALPHA
100
AcDbLine
 10
48.693429
 20
182.236304
 30
0.0
 11
37.118886
 21
182.236304
 31
0.0
  0
LWPOLYLINE
  5
23D
100
AcDbEntity
  8
ALPHA
100
AcDbPolyline
 90
        8
 70
     0
 43
0.0
 10
71.404751
 20
163.651077
 10
71.404751
 20
164.396469
 10
71.404751
 20
165.32669
 10
71.404751
 20
166.423357
 10
71.404751
 20
167.664796
 10
71.404751
 20
169.026475
 10
71.404751
 20
170.481486
 10
71.404751
 20
172.001077
  0
LWPOLYLINE
  5
247
100
AcDbEntity
  8
ALPHA
100
AcDbPolyline
 90
        8
 70
     0
 43
0.0
 10
71.404751
 20
175.501077
 10
71.404751
 20
177.020668
 10
71.404751
 20
178.475679
 10
71.404751
 20
179.837358
 10
71.404751
 20
181.078797
 10
71.404751
 20
182.175464
 10
71.404751
 20
183.105685
 10
71.404751
 20
183.851077
  0
LWPOLYLINE
  5
251
100
AcDbEntity
  8
ALPHA
100
AcDbPolyline
 90
        5
 70
     0
 43
0.0
 10
51.21911
 20
185.951077
 10
51.21911
 20
186.713333
 10
51.21911
 20
187.423852
 10
51.21911
 20
187.856033
 10
51.21911
 20
188.001077
  0
LINE
  5
258
100
AcDbEntity
  8
ALPHA
100
AcDbLine
 10
51.21911
 20
185.910024
 30
0.0
 11
51.21911
 21
185.951077
 31
0.0
  0
LWPOLYLINE
  5
259
100
AcDbEntity
  8
ALPHA
100
AcDbPolyline
 90
        3
 70
     0
 43
0.0
 10
51.21911
 20
185.251074
 10
51.21911
 20
185.73894
 10
51.21911
 20
185.910024
  0
LINE
  5
25E
100
AcDbEntity
  8
ALPHA
100
AcDbLine
 10
51.21911
 20
185.207516
 30
0.0
 11
51.21911
 21
185.251074
 31
0.0
  0
LWPOLYLINE
  5
25F
100
AcDbEntity
  8
ALPHA
100
AcDbPolyline
 90
        5
 70
     0
 43
0.0
 10
51.21911
 20
180.278965
 10
51.21911
 20
181.455209
 10
51.21911
 20
183.082842
 10
51.21911
 20
184.520508
 10
51.21911
 20
185.207516
  0
LWPOLYLINE
  5
266
100
AcDbEntity
  8
ALPHA
100
AcDbPolyline
 90
        3
 70
     0
 43
0.0
 10
51.21911
 20
179.412939
 10
51.21911
 20
179.670741
 10
51.21911
 20
180.278965
  0
LWPOLYLINE
  5
26B
100
AcDbEntity
  8
ALPHA
100
AcDbPolyline
 90
        3
 70
     0
 43
0.0
 10
51.21911
 20
177.123477
 10
51.21911
 20
177.765766
 10
51.21911
 20
179.412939
  0
LINE
  5
270
100
AcDbEntity
  8
ALPHA
100
AcDbLine
 10
51.21911
 20
176.257452
 30
0.0
 11
51.21911
 21
177.123477
 31
0.0
  0
LWPOLYLINE
  5
271
100
AcDbEntity
  8
ALPHA
100
AcDbPolyline
 90
        3
 70
     0
 43
0.0
 10
51.21911
 20
174.251077
 10
51.21911
 20
175.779063
 10
51.21911
 20
176.257452
  0
LINE
  5
276
100
AcDbEntity
  8
ALPHA
100
AcDbLine
 10
51.21911
 20
173.751077
 30
0.0
 11
51.21911
 21
174.251077
 31
0.0
  0
LINE
  5
277
100
AcDbEntity
  8
ALPHA
100
AcDbLine
 10
51.21911
 20
173.251077
 30
0.0
 11
51.21911
 21
173.751077
 31
0.0
  0
LWPOLYLINE
  5
278
100
AcDbEntity
  8
ALPHA
100
AcDbPolyline
 90
        3
 70
     0
 43
0.0
 10
51.21911
 20
171.244702
 10
51.21911
 20
171.723091
 10
51.21911
 20
173.251077
  0
LWPOLYLINE
  5
27D
100
AcDbEntity
  8
ALPHA
100
AcDbPolyline
 90
        3
 70
     0
 43
0.0
 10
51.21911
 20
168.089215
 10
51.21911
 20
169.736388
 10
51.21911
 20
171.244702
  0
LWPOLYLINE
  5
282
100
AcDbEntity
  8
ALPHA
100
AcDbPolyline
 90
        3
 70
     0
 43
0.0
 10
51.21911
 20
167.223189
 10
51.21911
 20
167.831413
 10
51.21911
 20
168.089215
  0
LWPOLYLINE
  5
287
100
AcDbEntity
  8
ALPHA
100
AcDbPolyline
 90
        5
 70
     0
 43
0.0
 10
51.21911
 20
162.294638
 10
51.21911
 20
162.981646
 10
51.21911
 20
164.419312
 10
51.21911
 20
166.046945
 10
51.21911
 20
167.223189
  0
LINE
  5
28E
100
AcDbEntity
  8
ALPHA
100
AcDbLine
 10
51.21911
 20
162.25108
 30
0.0
 11
51.21911
 21
162.294638
 31
0.0
  0
LWPOLYLINE
  5
28F
100
AcDbEntity
  8
ALPHA
100
AcDbPolyline
 90
        3
 70
     0
 43
0.0
 10
51.21911
 20
161.59213
 10
51.21911
 20
161.763214
 10
51.21911
 20
162.25108
  0
LINE
  5
294
100
AcDbEntity
  8
ALPHA
100
AcDbLine
 10
51.21911
 20
161.55108
 30
0.0
 11
51.21911
 21
161.59213
 31
0.0
  0
LWPOLYLINE
  5
295
100
AcDbEntity
  8
ALPHA
100
AcDbPolyline
 90
        5
 70
     0
 43
0.0
 10
51.21911
 20
159.501077
 10
51.21911
 20
159.646121
 10
51.21911
 20
160.078302
 10
51.21911
 20
160.788821
 10
51.21911
 20
161.55108
  0
LWPOLYLINE
  5
29C
100
AcDbEntity
  8
ALPHA
100
AcDbPolyline
 90
        5
 70
     0
 43
0.0
 10
78.285955
 20
170.051077
 10
78.231987
 20
170.065452
 10
78.165999
 20
170.102185
 10
78.093724
 20
170.154735
 10
78.01911
 20
170.218609
  0
LINE
  5
2A3
100
AcDbEntity
  8
ALPHA
100
AcDbLine
 10
77.71911
 20
173.951077
 30
0.0
 11
77.11911
 21
173.951077
 31
0.0
  0
LWPOLYLINE
  5
2A4
100
AcDbEntity
  8
ALPHA
100
AcDbPolyline
 90
        3
 70
     0
 43
0.0
 10
78.01911
 20
170.634194
 10
78.01911
 20
170.428184
 10
78.01911
 20
170.218609
  0
LWPOLYLINE
  5
2A9
100
AcDbEntity
  8
ALPHA
100
AcDbPolyline
 90
        7
 70
     0
 43
0.0
 10
78.31911
 20
171.029595
 10
78.303181
 20
170.97875
 10
78.264124
 20
170.913297
 10
78.211112
 20
170.841644
 10
78.149816
 20
170.768769
 10
78.08443
 20
170.698397
 10
78.01911
 20
170.634194
  0
LWPOLYLINE
  5
2B2
100
AcDbEntity
  8
ALPHA
100
AcDbPolyline
 90
       13
 70
     0
 43
0.0
 10
76.81911
 20
178.937357
 10
75.858114
 20
178.046436
 10
75.105018
 20
177.143345
 10
74.552551
 20
176.247894
 10
74.187095
 20
175.38261
 10
73.983783
 20
174.554624
 10
73.919112
 20
173.746803
 10
73.985444
 20
172.937294
 10
74.190933
 20
172.107982
 10
74.557881
 20
171.243946
 10
75.110741
 20
170.350884
 10
75.862282
 20
169.451339
 10
76.81911
 20
168.564797
  0
LINE
  5
2C1
100
AcDbEntity
  8
ALPHA
100
AcDbLine
 10
78.01911
 20
170.218609
 30
0.0
 11
77.11911
 21
170.218609
 31
0.0
  0
LWPOLYLINE
  5
2C2
100
AcDbEntity
  8
ALPHA
100
AcDbPolyline
 90
       20
 70
     0
 43
0.0
 10
73.51911
 20
170.05028
 10
73.510105
 20
169.764637
 10
73.482987
 20
169.50515
 10
73.437749
 20
169.272033
 10
73.375436
 20
169.06814
 10
73.297327
 20
168.893897
 10
73.204245
 20
168.748651
 10
73.093309
 20
168.629574
 10
72.962143
 20
168.540397
 10
72.817659
 20
168.491291
 10
72.668088
 20
168.487061
 10
72.519137
 20
168.529379
 10
72.382963
 20
168.614366
 10
72.267674
 20
168.731238
 10
72.170232
 20
168.876829
 10
72.088428
 20
169.053215
 10
72.023299
 20
169.260711
 10
71.97637
 20
169.497482
 10
71.948419
 20
169.760098
 10
71.93911
 20
170.05028
  0
LWPOLYLINE
  5
2D8
100
AcDbEntity
  8
ALPHA
100
AcDbPolyline
 90
       20
 70
     0
 43
0.0
 10
71.93911
 20
177.451874
 10
71.948419
 20
177.742056
 10
71.97637
 20
178.004672
 10
72.023299
 20
178.241443
 10
72.088428
 20
178.448939
 10
72.170232
 20
178.625325
 10
72.267674
 20
178.770916
 10
72.382963
 20
178.887788
 10
72.519137
 20
178.972775
 10
72.668088
 20
179.015093
 10
72.817659
 20
179.010863
 10
72.962143
 20
178.961757
 10
73.093309
 20
178.87258
 10
73.204245
 20
178.753503
 10
73.297327
 20
178.608257
 10
73.375436
 20
178.434014
 10
73.437749
 20
178.230121
 10
73.482987
 20
177.997004
 10
73.510105
 20
177.737517
 10
73.51911
 20
177.451874
  0
LINE
  5
2EE
100
AcDbEntity
  8
ALPHA
100
AcDbLine
 10
60.21911
 20
185.551077
 30
0.0
 11
59.41911
 21
185.551077
 31
0.0
  0
LWPOLYLINE
  5
2EF
100
AcDbEntity
  8
ALPHA
100
AcDbPolyline
 90
        4
 70
     0
 43
0.0
 10
77.11911
 20
168.900304
 10
77.020861
 20
168.789426
 10
76.92086
 20
168.677595
 10
76.81911
 20
168.564797
  0
LWPOLYLINE
  5
2F5
100
AcDbEntity
  8
ALPHA
100
AcDbPolyline
 90
        5
 70
     0
 43
0.0
 10
76.81911
 20
178.937357
 10
76.895615
 20
178.852637
 10
76.971138
 20
178.768458
 10
77.04568
 20
178.684815
 10
77.11911
 20
178.60185
  0
LWPOLYLINE
  5
2FC
100
AcDbEntity
  8
ALPHA
100
AcDbPolyline
 90
        5
 70
     0
 43
0.0
 10
76.81911
 20
178.937357
 10
76.81911
 20
180.16276
 10
76.81911
 20
181.242683
 10
76.81911
 20
182.152622
 10
76.81911
 20
182.871932
  0
LWPOLYLINE
  5
303
100
AcDbEntity
  8
ALPHA
100
AcDbPolyline
 90
        5
 70
     0
 43
0.0
 10
76.81911
 20
164.785155
 10
76.81911
 20
165.500403
 10
76.81911
 20
166.381019
 10
76.81911
 20
167.409354
 10
76.81911
 20
168.564797
  0
LINE
  5
30A
100
AcDbEntity
  8
ALPHA
100
AcDbLine
 10
78.01911
 20
170.634194
 30
0.0
 11
77.11911
 21
170.634194
 31
0.0
  0
LWPOLYLINE
  5
30B
100
AcDbEntity
  8
ALPHA
100
AcDbPolyline
 90
        4
 70
     0
 43
0.0
 10
73.61911
 20
164.094991
 10
74.720404
 20
164.286852
 10
75.789195
 20
164.517766
 10
76.81911
 20
164.785155
  0
LWPOLYLINE
  5
311
100
AcDbEntity
  8
ALPHA
100
AcDbPolyline
 90
        4
 70
     0
 43
0.0
 10
77.11911
 20
165.211171
 10
77.021094
 20
165.070452
 10
76.921101
 20
164.928451
 10
76.81911
 20
164.785155
  0
LINE
  5
317
100
AcDbEntity
  8
ALPHA
100
AcDbLine
 10
71.61911
 20
164.094991
 30
0.0
 11
73.61911
 21
164.094991
 31
0.0
  0
LINE
  5
318
100
AcDbEntity
  8
ALPHA
100
AcDbLine
 10
61.81911
 20
175.501077
 30
0.0
 11
62.21911
 21
175.501077
 31
0.0
  0
LINE
  5
319
100
AcDbEntity
  8
ALPHA
100
AcDbLine
 10
71.404751
 20
175.501077
 30
0.0
 11
71.61911
 21
175.501077
 31
0.0
  0
LINE
  5
31A
100
AcDbEntity
  8
ALPHA
100
AcDbLine
 10
61.81911
 20
172.001077
 30
0.0
 11
62.21911
 21
172.001077
 31
0.0
  0
LINE
  5
31B
100
AcDbEntity
  8
ALPHA
100
AcDbLine
 10
71.61911
 20
172.001077
 30
0.0
 11
71.404751
 21
172.001077
 31
0.0
  0
LINE
  5
31C
100
AcDbEntity
  8
ALPHA
100
AcDbLine
 10
60.21911
 20
184.651077
 30
0.0
 11
60.21911
 21
185.551077
 31
0.0
  0
LINE
  5
31D
100
AcDbEntity
  8
ALPHA
100
AcDbLine
 10
60.055962
 20
184.487929
 30
0.0
 11
60.21911
 21
184.651077
 31
0.0
  0
LINE
  5
31E
100
AcDbEntity
  8
ALPHA
100
AcDbLine
 10
76.81911
 20
182.871932
 30
0.0
 11
76.81911
 21
183.751021
 31
0.0
  0
LWPOLYLINE
  5
31F
100
AcDbEntity
  8
ALPHA
100
AcDbPolyline
 90
        4
 70
     0
 43
0.0
 10
76.81911
 20
182.871932
 10
76.919994
 20
182.76121
 10
77.019994
 20
182.651227
 10
77.11911
 20
182.541981
  0
LINE
  5
325
100
AcDbEntity
  8
ALPHA
100
AcDbLine
 10
75.11911
 20
176.251077
 30
0.0
 11
75.11911
 21
174.551077
 31
0.0
  0
LINE
  5
326
100
AcDbEntity
  8
ALPHA
100
AcDbLine
 10
77.11911
 20
174.251077
 30
0.0
 11
75.41911
 21
174.251077
 31
0.0
  0
ARC
  5
327
100
AcDbEntity
  8
ALPHA
100
AcDbCircle
 10
77.11911
 20
176.251077
 30
0.0
 40
2.0
100
AcDbArc
 50
90.0
 51
180.0
  0
LINE
  5
328
100
AcDbEntity
  8
ALPHA
100
AcDbLine
 10
58.21911
 20
172.621077
 30
0.0
 11
57.01911
 21
172.726077
 31
0.0
  0
LINE
  5
329
100
AcDbEntity
  8
ALPHA
100
AcDbLine
 10
57.01911
 20
174.776077
 30
0.0
 11
58.21911
 21
174.881077
 31
0.0
  0
LINE
  5
32A
100
AcDbEntity
  8
ALPHA
100
AcDbLine
 10
60.01911
 20
185.751077
 30
0.0
 11
59.41911
 21
185.751077
 31
0.0
  0
ARC
  5
32B
100
AcDbEntity
  8
ALPHA
100
AcDbCircle
 10
60.01911
 20
185.551077
 30
0.0
 40
0.2
100
AcDbArc
 50
0.0
 51
90.0
  0
LINE
  5
32C
100
AcDbEntity
  8
ALPHA
100
AcDbLine
 10
78.31911
 20
171.051077
 30
0.0
 11
78.31911
 21
171.951077
 31
0.0
  0
LINE
  5
32D
100
AcDbEntity
  8
ALPHA
100
AcDbLine
 10
77.71911
 20
173.951077
 30
0.0
 11
77.71911
 21
171.951077
 31
0.0
  0
LINE
  5
32E
100
AcDbEntity
  8
ALPHA
100
AcDbLine
 10
78.31911
 20
171.951077
 30
0.0
 11
77.71911
 21
171.951077
 31
0.0
  0
LINE
  5
32F
100
AcDbEntity
  8
ALPHA
100
AcDbLine
 10
77.71911
 20
174.251077
 30
0.0
 11
77.11911
 21
174.251077
 31
0.0
  0
LINE
  5
330
100
AcDbEntity
  8
ALPHA
100
AcDbLine
 10
71.404751
 20
183.851077
 30
0.0
 11
62.81911
 21
183.851077
 31
0.0
  0
LINE
  5
331
100
AcDbEntity
  8
ALPHA
100
AcDbLine
 10
71.404751
 20
183.851077
 30
0.0
 11
71.61911
 21
183.851077
 31
0.0
  0
LINE
  5
332
100
AcDbEntity
  8
ALPHA
100
AcDbLine
 10
71.61911
 20
163.651077
 30
0.0
 11
71.404751
 21
163.651077
 31
0.0
  0
LINE
  5
333
100
AcDbEntity
  8
ALPHA
100
AcDbLine
 10
62.81911
 20
163.651077
 30
0.0
 11
71.404751
 21
163.651077
 31
0.0
  0
LINE
  5
334
100
AcDbEntity
  8
ALPHA
100
AcDbLine
 10
62.81911
 20
163.651077
 30
0.0
 11
62.81911
 21
163.251077
 31
0.0
  0
LINE
  5
335
100
AcDbEntity
  8
ALPHA
100
AcDbLine
 10
78.31911
 20
171.051077
 30
0.0
 11
77.11911
 21
171.051077
 31
0.0
  0
LINE
  5
336
100
AcDbEntity
  8
ALPHA
100
AcDbLine
 10
78.31911
 20
171.029595
 30
0.0
 11
78.31911
 21
171.051077
 31
0.0
  0
LINE
  5
337
100
AcDbEntity
  8
ALPHA
100
AcDbLine
 10
78.31911
 20
171.029595
 30
0.0
 11
78.31911
 21
170.051077
 31
0.0
  0
LINE
  5
338
100
AcDbEntity
  8
ALPHA
100
AcDbLine
 10
73.51911
 20
170.05028
 30
0.0
 11
73.51911
 21
177.451874
 31
0.0
  0
LINE
  5
339
100
AcDbEntity
  8
ALPHA
100
AcDbLine
 10
78.285955
 20
170.051077
 30
0.0
 11
78.31911
 21
170.051077
 31
0.0
  0
LINE
  5
33A
100
AcDbEntity
  8
ALPHA
100
AcDbLine
 10
71.93911
 20
170.05028
 30
0.0
 11
71.93911
 21
177.451874
 31
0.0
  0
LINE
  5
33B
100
AcDbEntity
  8
ALPHA
100
AcDbLine
 10
78.285955
 20
170.051077
 30
0.0
 11
77.11911
 21
170.051077
 31
0.0
  0
LINE
  5
33C
100
AcDbEntity
  8
ALPHA
100
AcDbLine
 10
77.71911
 20
173.951077
 30
0.0
 11
77.71911
 21
174.251077
 31
0.0
  0
ARC
  5
33D
100
AcDbEntity
  8
ALPHA
100
AcDbCircle
 10
75.41911
 20
174.551077
 30
0.0
 40
0.3
100
AcDbArc
 50
180.0
 51
270.0
  0
LINE
  5
33E
100
AcDbEntity
  8
ALPHA
100
AcDbLine
 10
71.61911
 20
172.001077
 30
0.0
 11
71.61911
 21
175.501077
 31
0.0
  0
LINE
  5
33F
100
AcDbEntity
  8
ALPHA
100
AcDbLine
 10
62.21911
 20
184.251077
 30
0.0
 11
62.81911
 21
184.251077
 31
0.0
  0
LINE
  5
340
100
AcDbEntity
  8
ALPHA
100
AcDbLine
 10
62.81911
 20
184.251077
 30
0.0
 11
62.81911
 21
183.851077
 31
0.0
  0
LINE
  5
341
100
AcDbEntity
  8
ALPHA
100
AcDbLine
 10
71.61911
 20
164.067479
 30
0.0
 11
71.61911
 21
163.651077
 31
0.0
  0
LINE
  5
342
100
AcDbEntity
  8
ALPHA
100
AcDbLine
 10
71.61911
 20
164.094991
 30
0.0
 11
71.61911
 21
164.067479
 31
0.0
  0
LINE
  5
343
100
AcDbEntity
  8
ALPHA
100
AcDbLine
 10
71.61911
 20
172.001077
 30
0.0
 11
71.61911
 21
164.094991
 31
0.0
  0
LINE
  5
344
100
AcDbEntity
  8
ALPHA
100
AcDbLine
 10
62.21911
 20
163.251077
 30
0.0
 11
62.81911
 21
163.251077
 31
0.0
  0
LINE
  5
345
100
AcDbEntity
  8
ALPHA
100
AcDbLine
 10
58.21911
 20
188.001077
 30
0.0
 11
51.21911
 21
188.001077
 31
0.0
  0
LINE
  5
346
100
AcDbEntity
  8
ALPHA
100
AcDbLine
 10
71.61911
 20
183.851077
 30
0.0
 11
71.61911
 21
175.501077
 31
0.0
  0
LINE
  5
347
100
AcDbEntity
  8
ALPHA
100
AcDbLine
 10
58.21911
 20
178.850097
 30
0.0
 11
58.21911
 21
174.881077
 31
0.0
  0
LINE
  5
348
100
AcDbEntity
  8
ALPHA
100
AcDbLine
 10
58.21911
 20
182.362749
 30
0.0
 11
58.21911
 21
178.850097
 31
0.0
  0
LINE
  5
349
100
AcDbEntity
  8
ALPHA
100
AcDbLine
 10
58.21911
 20
182.598676
 30
0.0
 11
58.21911
 21
182.362749
 31
0.0
  0
LINE
  5
34A
100
AcDbEntity
  8
ALPHA
100
AcDbLine
 10
58.21911
 20
183.851077
 30
0.0
 11
58.21911
 21
182.598676
 31
0.0
  0
LINE
  5
34B
100
AcDbEntity
  8
ALPHA
100
AcDbLine
 10
58.21911
 20
184.311065
 30
0.0
 11
58.21911
 21
183.851077
 31
0.0
  0
LINE
  5
34C
100
AcDbEntity
  8
ALPHA
100
AcDbLine
 10
58.21911
 20
184.351077
 30
0.0
 11
58.21911
 21
184.311065
 31
0.0
  0
LINE
  5
34D
100
AcDbEntity
  8
ALPHA
100
AcDbLine
 10
58.21911
 20
185.60148
 30
0.0
 11
58.21911
 21
184.351077
 31
0.0
  0
LINE
  5
34E
100
AcDbEntity
  8
ALPHA
100
AcDbLine
 10
58.21911
 20
185.751019
 30
0.0
 11
58.21911
 21
185.60148
 31
0.0
  0
LINE
  5
34F
100
AcDbEntity
  8
ALPHA
100
AcDbLine
 10
58.21911
 20
185.781077
 30
0.0
 11
58.21911
 21
185.751019
 31
0.0
  0
LINE
  5
350
100
AcDbEntity
  8
ALPHA
100
AcDbLine
 10
58.21911
 20
187.251058
 30
0.0
 11
58.21911
 21
185.781077
 31
0.0
  0
LINE
  5
351
100
AcDbEntity
  8
ALPHA
100
AcDbLine
 10
58.21911
 20
188.001077
 30
0.0
 11
58.21911
 21
187.251058
 31
0.0
  0
LINE
  5
352
100
AcDbEntity
  8
ALPHA
100
AcDbLine
 10
58.21911
 20
159.501077
 30
0.0
 11
51.21911
 21
159.501077
 31
0.0
  0
LINE
  5
353
100
AcDbEntity
  8
ALPHA
100
AcDbLine
 10
76.81911
 20
183.751077
 30
0.0
 11
71.61911
 21
183.751077
 31
0.0
  0
LINE
  5
354
100
AcDbEntity
  8
ALPHA
100
AcDbLine
 10
77.11911
 20
168.900304
 30
0.0
 11
77.11911
 21
174.251077
 31
0.0
  0
LINE
  5
355
100
AcDbEntity
  8
ALPHA
100
AcDbLine
 10
77.11911
 20
168.900304
 30
0.0
 11
77.11911
 21
165.211171
 31
0.0
  0
ARC
  5
356
100
AcDbEntity
  8
ALPHA
100
AcDbCircle
 10
95.507061
 20
170.830539
 30
0.0
 40
47.5
100
AcDbArc
 50
158.808577
 51
160.287028
  0
ARC
  5
357
100
AcDbEntity
  8
ALPHA
100
AcDbCircle
 10
95.507061
 20
176.671615
 30
0.0
 40
47.5
100
AcDbArc
 50
199.712972
 51
201.191423
  0
LINE
  5
358
100
AcDbEntity
  8
ALPHA
100
AcDbLine
 10
77.11911
 20
178.251077
 30
0.0
 11
77.11911
 21
178.60185
 31
0.0
  0
LINE
  5
359
100
AcDbEntity
  8
ALPHA
100
AcDbLine
 10
77.11911
 20
182.541981
 30
0.0
 11
77.11911
 21
178.60185
 31
0.0
  0
LINE
  5
35A
100
AcDbEntity
  8
ALPHA
100
AcDbLine
 10
58.21911
 20
174.881077
 30
0.0
 11
58.21911
 21
172.621077
 31
0.0
  0
LINE
  5
35B
100
AcDbEntity
  8
ALPHA
100
AcDbLine
 10
57.01911
 20
173.751077
 30
0.0
 11
57.01911
 21
174.776077
 31
0.0
  0
LINE
  5
35C
100
AcDbEntity
  8
ALPHA
100
AcDbLine
 10
57.01911
 20
172.726077
 30
0.0
 11
57.01911
 21
173.751077
 31
0.0
  0
LINE
  5
35D
100
AcDbEntity
  8
ALPHA
100
AcDbLine
 10
58.21911
 20
160.251077
 30
0.0
 11
58.21911
 21
159.501077
 31
0.0
  0
LINE
  5
35E
100
AcDbEntity
  8
ALPHA
100
AcDbLine
 10
58.21911
 20
161.721077
 30
0.0
 11
58.21911
 21
160.251077
 31
0.0
  0
LINE
  5
35F
100
AcDbEntity
  8
ALPHA
100
AcDbLine
 10
58.21911
 20
161.851149
 30
0.0
 11
58.21911
 21
161.721077
 31
0.0
  0
LINE
  5
360
100
AcDbEntity
  8
ALPHA
100
AcDbLine
 10
58.21911
 20
163.651077
 30
0.0
 11
58.21911
 21
161.851149
 31
0.0
  0
LINE
  5
361
100
AcDbEntity
  8
ALPHA
100
AcDbLine
 10
58.21911
 20
163.686694
 30
0.0
 11
58.21911
 21
163.651077
 31
0.0
  0
LINE
  5
362
100
AcDbEntity
  8
ALPHA
100
AcDbLine
 10
58.21911
 20
164.251077
 30
0.0
 11
58.21911
 21
163.686694
 31
0.0
  0
LINE
  5
363
100
AcDbEntity
  8
ALPHA
100
AcDbLine
 10
58.21911
 20
168.652057
 30
0.0
 11
58.21911
 21
164.251077
 31
0.0
  0
LINE
  5
364
100
AcDbEntity
  8
ALPHA
100
AcDbLine
 10
58.21911
 20
168.913722
 30
0.0
 11
58.21911
 21
168.652057
 31
0.0
  0
LINE
  5
365
100
AcDbEntity
  8
ALPHA
100
AcDbLine
 10
58.21911
 20
169.360075
 30
0.0
 11
58.21911
 21
168.913722
 31
0.0
  0
LINE
  5
366
100
AcDbEntity
  8
ALPHA
100
AcDbLine
 10
58.21911
 20
172.621077
 30
0.0
 11
58.21911
 21
169.360075
 31
0.0
  0
LINE
  5
367
100
AcDbEntity
  8
ALPHA
100
AcDbLine
 10
60.01911
 20
185.751077
 30
0.0
 11
59.41911
 21
185.751077
 31
0.0
  0
LINE
  5
368
100
AcDbEntity
  8
ALPHA
100
AcDbLine
 10
62.81911
 20
183.851077
 30
0.0
 11
62.81911
 21
176.751077
 31
0.0
  0
LINE
  5
369
100
AcDbEntity
  8
ALPHA
100
AcDbLine
 10
62.81911
 20
170.751077
 30
0.0
 11
62.81911
 21
163.651077
 31
0.0
  0
LINE
  5
36A
100
AcDbEntity
  8
ALPHA
100
AcDbLine
 10
78.285955
 20
170.051077
 30
0.0
 11
77.11911
 21
170.051077
 31
0.0
  0
LINE
  5
36B
100
AcDbEntity
  8
ALPHA
100
AcDbLine
 10
62.81911
 20
176.751077
 30
0.0
 11
62.21911
 21
176.251077
 31
0.0
  0
LINE
  5
36C
100
AcDbEntity
  8
ALPHA
100
AcDbLine
 10
62.21911
 20
176.251077
 30
0.0
 11
62.21911
 21
175.501077
 31
0.0
  0
LINE
  5
36D
100
AcDbEntity
  8
ALPHA
100
AcDbLine
 10
71.404751
 20
175.501077
 30
0.0
 11
62.21911
 21
175.501077
 31
0.0
  0
LINE
  5
36E
100
AcDbEntity
  8
ALPHA
100
AcDbLine
 10
62.21911
 20
172.001077
 30
0.0
 11
62.21911
 21
171.251077
 31
0.0
  0
LINE
  5
36F
100
AcDbEntity
  8
ALPHA
100
AcDbLine
 10
62.21911
 20
171.251077
 30
0.0
 11
62.81911
 21
170.751077
 31
0.0
  0
LINE
  5
370
100
AcDbEntity
  8
ALPHA
100
AcDbLine
 10
62.21911
 20
172.001077
 30
0.0
 11
71.404751
 21
172.001077
 31
0.0
  0
LINE
  5
371
100
AcDbEntity
  8
ALPHA
100
AcDbLine
 10
48.01911
 20
188.001077
 30
0.0
 11
48.01911
 21
187.946147
 31
0.0
  0
LINE
  5
372
100
AcDbEntity
  8
ALPHA
100
AcDbLine
 10
49.492419
 20
188.039657
 30
0.0
 11
49.51911
 21
188.040356
 31
0.0
  0
LINE
  5
373
100
AcDbEntity
  8
ALPHA
100
AcDbLine
 10
48.01911
 20
188.001077
 30
0.0
 11
49.492419
 21
188.039657
 31
0.0
  0
LINE
  5
374
100
AcDbEntity
  8
ALPHA
100
AcDbLine
 10
49.51911
 20
188.001073
 30
0.0
 11
49.51911
 21
187.965946
 31
0.0
  0
LINE
  5
375
100
AcDbEntity
  8
ALPHA
100
AcDbLine
 10
49.51911
 20
188.040356
 30
0.0
 11
49.51911
 21
188.001073
 31
0.0
  0
LINE
  5
376
100
AcDbEntity
  8
ALPHA
100
AcDbLine
 10
47.992009
 20
188.000367
 30
0.0
 11
45.921401
 21
187.946147
 31
0.0
  0
LINE
  5
377
100
AcDbEntity
  8
ALPHA
100
AcDbLine
 10
48.01911
 20
188.001077
 30
0.0
 11
47.992009
 21
188.000367
 31
0.0
  0
LWPOLYLINE
  5
378
100
AcDbEntity
  8
ALPHA
100
AcDbPolyline
 90
        9
 70
     0
 43
0.0
 10
61.91911
 20
168.276017
 10
61.888531
 20
168.542077
 10
61.794928
 20
168.811592
 10
61.631611
 20
169.084988
 10
61.389864
 20
169.358501
 10
61.065308
 20
169.623413
 10
60.659525
 20
169.871015
 10
60.176372
 20
170.096334
 10
59.61911
 20
170.297807
  0
LWPOLYLINE
  5
383
100
AcDbEntity
  8
ALPHA
100
AcDbPolyline
 90
        8
 70
     0
 43
0.0
 10
59.61911
 20
166.478653
 10
60.249865
 20
166.664059
 10
60.783305
 20
166.880371
 10
61.21449
 20
167.127416
 10
61.53842
 20
167.399561
 10
61.755914
 20
167.685132
 10
61.879109
 20
167.977312
 10
61.91911
 20
168.276017
  0
LINE
  5
38D
100
AcDbEntity
  8
ALPHA
100
AcDbLine
 10
59.61911
 20
163.796104
 30
0.0
 11
59.41911
 21
163.796104
 31
0.0
  0
LINE
  5
38E
100
AcDbEntity
  8
ALPHA
100
AcDbLine
 10
59.61911
 20
171.404942
 30
0.0
 11
59.41911
 21
171.404942
 31
0.0
  0
LWPOLYLINE
  5
38F
100
AcDbEntity
  8
ALPHA
100
AcDbPolyline
 90
        9
 70
     0
 43
0.0
 10
61.91911
 20
168.276017
 10
61.91911
 20
167.085091
 10
61.91911
 20
166.00822
 10
61.91911
 20
165.063831
 10
61.91911
 20
164.268081
 10
61.91911
 20
163.634586
 10
61.91911
 20
163.174184
 10
61.91911
 20
162.894754
 10
61.91911
 20
162.801077
  0
LWPOLYLINE
  5
39A
100
AcDbEntity
  8
ALPHA
100
AcDbPolyline
 90
        3
 70
     0
 43
0.0
 10
61.91911
 20
170.176164
 10
61.91911
 20
169.20537
 10
61.91911
 20
168.276017
  0
LWPOLYLINE
  5
39F
100
AcDbEntity
  8
ALPHA
100
AcDbPolyline
 90
        9
 70
     0
 43
0.0
 10
62.157665
 20
169.866624
 10
62.12725
 20
169.850599
 10
62.09354
 20
169.860227
 10
62.061356
 20
169.888429
 10
62.031227
 20
169.928425
 10
62.002167
 20
169.978054
 10
61.973925
 20
170.036095
 10
61.946268
 20
170.102179
 10
61.91911
 20
170.176164
  0
LWPOLYLINE
  5
3AA
100
AcDbEntity
  8
ALPHA
100
AcDbPolyline
 90
        9
 70
     0
 43
0.0
 10
59.61911
 20
180.91803
 10
60.178559
 20
181.078416
 10
60.663157
 20
181.255787
 10
61.06951
 20
181.448081
 10
61.394059
 20
181.650777
 10
61.634908
 20
181.856224
 10
61.796617
 20
182.057032
 10
61.888925
 20
182.250676
 10
61.91911
 20
182.438297
  0
LWPOLYLINE
  5
3B5
100
AcDbEntity
  8
ALPHA
100
AcDbPolyline
 90
        7
 70
     0
 43
0.0
 10
61.91911
 20
182.438297
 10
61.879622
 20
182.644565
 10
61.757972
 20
182.841553
 10
61.542112
 20
183.030013
 10
61.218722
 20
183.205494
 10
60.787282
 20
183.360435
 10
60.699704
 20
183.385527
  0
LINE
  5
3BE
100
AcDbEntity
  8
ALPHA
100
AcDbLine
 10
59.61911
 20
184.179719
 30
0.0
 11
59.41911
 21
184.179719
 31
0.0
  0
LWPOLYLINE
  5
3BF
100
AcDbEntity
  8
ALPHA
100
AcDbPolyline
 90
        9
 70
     0
 43
0.0
 10
62.157665
 20
177.63553
 10
62.12725
 20
177.651555
 10
62.09354
 20
177.641927
 10
62.061356
 20
177.613725
 10
62.031227
 20
177.573729
 10
62.002167
 20
177.5241
 10
61.973925
 20
177.466059
 10
61.946268
 20
177.399975
 10
61.91911
 20
177.32599
  0
LINE
  5
3CA
100
AcDbEntity
  8
ALPHA
100
AcDbLine
 10
59.61911
 20
184.159012
 30
0.0
 11
59.41911
 21
184.159012
 31
0.0
  0
LINE
  5
3CB
100
AcDbEntity
  8
ALPHA
100
AcDbLine
 10
59.41911
 20
178.850097
 30
0.0
 11
58.21911
 21
178.850097
 31
0.0
  0
LWPOLYLINE
  5
3CC
100
AcDbEntity
  8
ALPHA
100
AcDbPolyline
 90
        6
 70
     0
 43
0.0
 10
61.91911
 20
177.32599
 10
61.91911
 20
178.507223
 10
61.91911
 20
179.623707
 10
61.91911
 20
180.660242
 10
61.91911
 20
181.602715
 10
61.91911
 20
182.438297
  0
LINE
  5
3D4
100
AcDbEntity
  8
ALPHA
100
AcDbLine
 10
59.41911
 20
168.652057
 30
0.0
 11
58.21911
 21
168.652057
 31
0.0
  0
LWPOLYLINE
  5
3D5
100
AcDbEntity
  8
ALPHA
100
AcDbPolyline
 90
        5
 70
     0
 43
0.0
 10
61.31911
 20
173.751077
 10
61.355454
 20
172.85967
 10
61.465436
 20
171.966943
 10
61.651822
 20
171.07233
 10
61.91911
 20
170.176164
  0
LWPOLYLINE
  5
3DC
100
AcDbEntity
  8
ALPHA
100
AcDbPolyline
 90
        5
 70
     0
 43
0.0
 10
61.31911
 20
173.751077
 10
61.355456
 20
174.642508
 10
61.465441
 20
175.53524
 10
61.651826
 20
176.429841
 10
61.91911
 20
177.32599
  0
LWPOLYLINE
  5
3E3
100
AcDbEntity
  8
ALPHA
100
AcDbPolyline
 90
        6
 70
     0
 43
0.0
 10
61.91911
 20
182.438297
 10
61.91911
 20
183.234056
 10
61.91911
 20
183.867559
 10
61.91911
 20
184.327965
 10
61.91911
 20
184.607398
 10
61.91911
 20
184.701077
  0
LINE
  5
3EB
100
AcDbEntity
  8
ALPHA
100
AcDbLine
 10
59.61911
 20
180.049887
 30
0.0
 11
59.41911
 21
180.049887
 31
0.0
  0
LINE
  5
3EC
100
AcDbEntity
  8
ALPHA
100
AcDbLine
 10
59.61911
 20
180.049887
 30
0.0
 11
59.61911
 21
180.918015
 31
0.0
  0
LINE
  5
3ED
100
AcDbEntity
  8
ALPHA
100
AcDbLine
 10
60.71911
 20
184.487929
 30
0.0
 11
60.71911
 21
184.701077
 31
0.0
  0
LINE
  5
3EE
100
AcDbEntity
  8
ALPHA
100
AcDbLine
 10
59.61911
 20
183.691229
 30
0.0
 11
59.61911
 21
184.179719
 31
0.0
  0
LINE
  5
3EF
100
AcDbEntity
  8
ALPHA
100
AcDbLine
 10
60.71911
 20
184.487929
 30
0.0
 11
59.41911
 21
184.487929
 31
0.0
  0
LINE
  5
3F0
100
AcDbEntity
  8
ALPHA
100
AcDbLine
 10
59.61911
 20
163.796104
 30
0.0
 11
59.61911
 21
166.478649
 31
0.0
  0
LINE
  5
3F1
100
AcDbEntity
  8
ALPHA
100
AcDbLine
 10
59.61911
 20
170.297821
 30
0.0
 11
59.61911
 21
166.478651
 31
0.0
  0
LINE
  5
3F2
100
AcDbEntity
  8
ALPHA
100
AcDbLine
 10
59.61911
 20
170.297821
 30
0.0
 11
59.61911
 21
171.404942
 31
0.0
  0
LINE
  5
3F3
100
AcDbEntity
  8
ALPHA
100
AcDbLine
 10
61.81911
 20
171.251077
 30
0.0
 11
61.81911
 21
176.251077
 31
0.0
  0
ARC
  5
3F4
100
AcDbEntity
  8
ALPHA
100
AcDbCircle
 10
64.81911
 20
176.251077
 30
0.0
 40
3.0
100
AcDbArc
 50
152.517078
 51
180.0
  0
ARC
  5
3F5
100
AcDbEntity
  8
ALPHA
100
AcDbCircle
 10
64.81911
 20
171.251077
 30
0.0
 40
3.0
100
AcDbArc
 50
180.0
 51
207.482922
  0
LINE
  5
3F6
100
AcDbEntity
  8
ALPHA
100
AcDbLine
 10
62.21911
 20
184.308724
 30
0.0
 11
62.21911
 21
184.401077
 31
0.0
  0
LINE
  5
3F7
100
AcDbEntity
  8
ALPHA
100
AcDbLine
 10
62.21911
 20
177.74774
 30
0.0
 11
62.21911
 21
184.308724
 31
0.0
  0
LINE
  5
3F8
100
AcDbEntity
  8
ALPHA
100
AcDbLine
 10
62.21911
 20
163.19343
 30
0.0
 11
62.21911
 21
163.101077
 31
0.0
  0
LINE
  5
3F9
100
AcDbEntity
  8
ALPHA
100
AcDbLine
 10
62.21911
 20
169.754414
 30
0.0
 11
62.21911
 21
163.19343
 31
0.0
  0
LINE
  5
3FA
100
AcDbEntity
  8
ALPHA
100
AcDbLine
 10
59.41911
 20
187.251077
 30
0.0
 11
58.21911
 21
187.251077
 31
0.0
  0
LINE
  5
3FB
100
AcDbEntity
  8
ALPHA
100
AcDbLine
 10
61.91911
 20
184.701077
 30
0.0
 11
60.71911
 21
184.701077
 31
0.0
  0
LINE
  5
3FC
100
AcDbEntity
  8
ALPHA
100
AcDbLine
 10
59.41911
 20
160.251077
 30
0.0
 11
58.21911
 21
160.251077
 31
0.0
  0
LINE
  5
3FD
100
AcDbEntity
  8
ALPHA
100
AcDbLine
 10
61.91911
 20
162.801077
 30
0.0
 11
59.41911
 21
162.801077
 31
0.0
  0
LWPOLYLINE
  5
3FE
100
AcDbEntity
  8
ALPHA
100
AcDbPolyline
 90
        3
 70
     0
 43
0.0
 10
60.699727
 20
183.385546
 10
60.449276
 20
183.455405
 10
59.61911
 20
183.691257
  0
LINE
  5
403
100
AcDbEntity
  8
ALPHA
100
AcDbLine
 10
59.61911
 20
182.844157
 30
0.0
 11
59.61911
 21
180.918015
 31
0.0
  0
LINE
  5
404
100
AcDbEntity
  8
ALPHA
100
AcDbLine
 10
59.61911
 20
182.904046
 30
0.0
 11
59.61911
 21
182.856039
 31
0.0
  0
LINE
  5
405
100
AcDbEntity
  8
ALPHA
100
AcDbLine
 10
59.61911
 20
183.691229
 30
0.0
 11
59.61911
 21
182.891255
 31
0.0
  0
LINE
  5
406
100
AcDbEntity
  8
ALPHA
100
AcDbLine
 10
59.41911
 20
185.751077
 30
0.0
 11
59.41911
 21
187.251058
 31
0.0
  0
LINE
  5
407
100
AcDbEntity
  8
ALPHA
100
AcDbLine
 10
59.41911
 20
185.711987
 30
0.0
 11
59.41911
 21
185.751077
 31
0.0
  0
LINE
  5
408
100
AcDbEntity
  8
ALPHA
100
AcDbLine
 10
59.41911
 20
184.487929
 30
0.0
 11
59.41911
 21
185.711987
 31
0.0
  0
LINE
  5
409
100
AcDbEntity
  8
ALPHA
100
AcDbLine
 10
59.41911
 20
184.351077
 30
0.0
 11
59.41911
 21
184.487929
 31
0.0
  0
LINE
  5
40A
100
AcDbEntity
  8
ALPHA
100
AcDbLine
 10
59.41911
 20
184.179719
 30
0.0
 11
59.41911
 21
184.351077
 31
0.0
  0
LINE
  5
40B
100
AcDbEntity
  8
ALPHA
100
AcDbLine
 10
59.41911
 20
180.049887
 30
0.0
 11
59.41911
 21
184.179719
 31
0.0
  0
LINE
  5
40C
100
AcDbEntity
  8
ALPHA
100
AcDbLine
 10
59.41911
 20
178.850097
 30
0.0
 11
59.41911
 21
180.049887
 31
0.0
  0
LINE
  5
40D
100
AcDbEntity
  8
ALPHA
100
AcDbLine
 10
59.41911
 20
178.850097
 30
0.0
 11
59.41911
 21
168.652057
 31
0.0
  0
LINE
  5
40E
100
AcDbEntity
  8
ALPHA
100
AcDbLine
 10
59.41911
 20
162.801077
 30
0.0
 11
59.41911
 21
160.251096
 31
0.0
  0
LINE
  5
40F
100
AcDbEntity
  8
ALPHA
100
AcDbLine
 10
59.41911
 20
163.651077
 30
0.0
 11
59.41911
 21
162.801077
 31
0.0
  0
LINE
  5
410
100
AcDbEntity
  8
ALPHA
100
AcDbLine
 10
59.41911
 20
163.796104
 30
0.0
 11
59.41911
 21
163.651077
 31
0.0
  0
LINE
  5
411
100
AcDbEntity
  8
ALPHA
100
AcDbLine
 10
59.41911
 20
163.828849
 30
0.0
 11
59.41911
 21
163.796104
 31
0.0
  0
LINE
  5
412
100
AcDbEntity
  8
ALPHA
100
AcDbLine
 10
59.41911
 20
167.474049
 30
0.0
 11
59.41911
 21
163.828849
 31
0.0
  0
LINE
  5
413
100
AcDbEntity
  8
ALPHA
100
AcDbLine
 10
59.41911
 20
167.921281
 30
0.0
 11
59.41911
 21
167.474049
 31
0.0
  0
LINE
  5
414
100
AcDbEntity
  8
ALPHA
100
AcDbLine
 10
59.41911
 20
168.652057
 30
0.0
 11
59.41911
 21
167.921281
 31
0.0
  0
LINE
  5
415
100
AcDbEntity
  8
ALPHA
100
AcDbLine
 10
62.21911
 20
184.378469
 30
0.0
 11
62.21911
 21
177.74774
 31
0.0
  0
ARC
  5
416
100
AcDbEntity
  8
ALPHA
100
AcDbCircle
 10
64.81911
 20
176.251077
 30
0.0
 40
3.0
100
AcDbArc
 50
150.073565
 51
152.517078
  0
LINE
  5
417
100
AcDbEntity
  8
ALPHA
100
AcDbLine
 10
62.21911
 20
184.378469
 30
0.0
 11
62.21911
 21
184.401077
 31
0.0
  0
ARC
  5
418
100
AcDbEntity
  8
ALPHA
100
AcDbCircle
 10
61.91911
 20
184.401077
 30
0.0
 40
0.3
100
AcDbArc
 50
0.0
 51
90.0
  0
LINE
  5
419
100
AcDbEntity
  8
ALPHA
100
AcDbLine
 10
62.21911
 20
169.754414
 30
0.0
 11
62.21911
 21
163.101077
 31
0.0
  0
ARC
  5
41A
100
AcDbEntity
  8
ALPHA
100
AcDbCircle
 10
64.81911
 20
171.251077
 30
0.0
 40
3.0
100
AcDbArc
 50
207.482922
 51
209.926435
  0
ARC
  5
41B
100
AcDbEntity
  8
ALPHA
100
AcDbCircle
 10
61.91911
 20
163.101077
 30
0.0
 40
0.3
100
AcDbArc
 50
270.0
 51
0.0
  0
ENDSEC
  0
SECTION
  2
OBJECTS
  0
DICTIONARY
  5
6F0
100
AcDbDictionary
  3
ACAD_GROUP
350
6F1
  3
ACAD_MLINESTYLE
350
6FE
  3
ACDBVARIABLEDICTIONARY
350
70C
  0
DICTIONARY
  5
6F1
102
{ACAD_REACTORS
330
6F0
102
}
100
AcDbDictionary
  0
DICTIONARY
  5
6FE
102
{ACAD_REACTORS
330
6F0
102
}
100
AcDbDictionary
  3
STANDARD
350
6FF
  0
DICTIONARY
  5
70C
102
{ACAD_REACTORS
330
6F0
102
}
100
AcDbDictionary
  3
DIMADEC
350
70D
  0
MLINESTYLE
  5
6FF
102
{ACAD_REACTORS
330
6FE
102
}
100
AcDbMlineStyle
  2
STANDARD
 70
     0
  3

 62
   256
 51
90.0
 52
90.0
 71
     2
 49
0.5
 62
   256
  6
BYLAYER
 49
-0.5
 62
   256
  6
BYLAYER
  0
DICTIONARYVAR
  5
70D
102
{ACAD_REACTORS
330
70C
102
}
100
DictionaryVariables
280
     0
  1
0
  0
ENDSEC
  0
EOF
