  0
SECTION
  2
HEADER
  9
$ACADVER
  1
AC1014
  9
$ACADMAINTVER
 70
     0
  9
$DWGCODEPAGE
  3
ANSI_1252
  9
$INSBASE
 10
75.139668
 20
106.425
 30
0.0
  9
$EXTMIN
 10
37.191995
 20
80.764537
 30
0.0
  9
$EXTMAX
 10
90.000669
 20
117.700082
 30
0.0
  9
$LIMMIN
 10
0.0
 20
0.0
  9
$LIMMAX
 10
210.0
 20
297.0
  9
$ORTHOMODE
 70
     0
  9
$REGENMODE
 70
     1
  9
$FILLMODE
 70
     1
  9
$QTEXTMODE
 70
     0
  9
$MIRRTEXT
 70
     1
  9
$DRAGMODE
 70
     2
  9
$LTSCALE
 40
19.36
  9
$OSMODE
 70
     0
  9
$ATTMODE
 70
     1
  9
$TEXTSIZE
 40
0.2
  9
$TRACEWID
 40
0.05
  9
$TEXTSTYLE
  7
ROMANS
  9
$CLAYER
  8
0
  9
$CELTYPE
  6
BYLAYER
  9
$CECOLOR
 62
   256
  9
$CELTSCALE
 40
1.0
  9
$DELOBJ
 70
     1
  9
$DISPSILH
 70
     0
  9
$DIMSCALE
 40
1.0
  9
$DIMASZ
 40
3.0
  9
$DIMEXO
 40
0.0625
  9
$DIMDLI
 40
0.38
  9
$DIMRND
 40
0.01
  9
$DIMDLE
 40
0.0
  9
$DIMEXE
 40
0.18
  9
$DIMTP
 40
0.0
  9
$DIMTM
 40
0.0
  9
$DIMTXT
 40
2.5
  9
$DIMCEN
 40
0.09
  9
$DIMTSZ
 40
0.0
  9
$DIMTOL
 70
     0
  9
$DIMLIM
 70
     0
  9
$DIMTIH
 70
     0
  9
$DIMTOH
 70
     0
  9
$DIMSE1
 70
     0
  9
$DIMSE2
 70
     0
  9
$DIMTAD
 70
     1
  9
$DIMZIN
 70
    12
  9
$DIMBLK
  1

  9
$DIMASO
 70
     1
  9
$DIMSHO
 70
     1
  9
$DIMPOST
  1

  9
$DIMAPOST
  1

  9
$DIMALT
 70
     0
  9
$DIMALTD
 70
     2
  9
$DIMALTF
 40
25.4
  9
$DIMLFAC
 40
1.0
  9
$DIMTOFL
 70
     1
  9
$DIMTVP
 40
0.0
  9
$DIMTIX
 70
     0
  9
$DIMSOXD
 70
     0
  9
$DIMSAH
 70
     0
  9
$DIMBLK1
  1

  9
$DIMBLK2
  1

  9
$DIMSTYLE
  2
SC_STAND
  9
$DIMCLRD
 70
     0
  9
$DIMCLRE
 70
     0
  9
$DIMCLRT
 70
     0
  9
$DIMTFAC
 40
1.0
  9
$DIMGAP
 40
1.0
  9
$DIMJUST
 70
     0
  9
$DIMSD1
 70
     0
  9
$DIMSD2
 70
     0
  9
$DIMTOLJ
 70
     1
  9
$DIMTZIN
 70
    12
  9
$DIMALTZ
 70
    12
  9
$DIMALTTZ
 70
    12
  9
$DIMFIT
 70
     5
  9
$DIMUPT
 70
     0
  9
$DIMUNIT
 70
     2
  9
$DIMDEC
 70
     4
  9
$DIMTDEC
 70
     4
  9
$DIMALTU
 70
     2
  9
$DIMALTTD
 70
     2
  9
$DIMTXSTY
  7
ROMANS
  9
$DIMAUNIT
 70
     0
  9
$LUNITS
 70
     2
  9
$LUPREC
 70
     4
  9
$SKETCHINC
 40
0.1
  9
$FILLETRAD
 40
0.0
  9
$AUNITS
 70
     0
  9
$AUPREC
 70
     0
  9
$MENU
  1
acad
  9
$ELEVATION
 40
0.0
  9
$PELEVATION
 40
0.0
  9
$THICKNESS
 40
0.0
  9
$LIMCHECK
 70
     0
  9
$BLIPMODE
 70
     1
  9
$CHAMFERA
 40
0.0
  9
$CHAMFERB
 40
0.0
  9
$CHAMFERC
 40
0.0
  9
$CHAMFERD
 40
0.0
  9
$SKPOLY
 70
     0
  9
$TDCREATE
 40
2450574.681257291
  9
$TDUPDATE
 40
2451387.898378668
  9
$TDINDWG
 40
0.0004233912
  9
$TDUSRTIMER
 40
0.0004233912
  9
$USRTIMER
 70
     1
  9
$ANGBASE
 50
0.0
  9
$ANGDIR
 70
     0
  9
$PDMODE
 70
     0
  9
$PDSIZE
 40
0.0
  9
$PLINEWID
 40
0.0
  9
$COORDS
 70
     1
  9
$SPLFRAME
 70
     0
  9
$SPLINETYPE
 70
     6
  9
$SPLINESEGS
 70
     8
  9
$ATTDIA
 70
     0
  9
$ATTREQ
 70
     1
  9
$HANDLING
 70
     1
  9
$HANDSEED
  5
517
  9
$SURFTAB1
 70
     6
  9
$SURFTAB2
 70
     6
  9
$SURFTYPE
 70
     6
  9
$SURFU
 70
     6
  9
$SURFV
 70
     6
  9
$UCSNAME
  2

  9
$UCSORG
 10
0.0
 20
0.0
 30
0.0
  9
$UCSXDIR
 10
1.0
 20
0.0
 30
0.0
  9
$UCSYDIR
 10
0.0
 20
1.0
 30
0.0
  9
$PUCSNAME
  2

  9
$PUCSORG
 10
0.0
 20
0.0
 30
0.0
  9
$PUCSXDIR
 10
1.0
 20
0.0
 30
0.0
  9
$PUCSYDIR
 10
0.0
 20
1.0
 30
0.0
  9
$USERI1
 70
     0
  9
$USERI2
 70
     0
  9
$USERI3
 70
     0
  9
$USERI4
 70
     0
  9
$USERI5
 70
     0
  9
$USERR1
 40
0.0
  9
$USERR2
 40
0.0
  9
$USERR3
 40
0.0
  9
$USERR4
 40
0.0
  9
$USERR5
 40
0.0
  9
$WORLDVIEW
 70
     1
  9
$SHADEDGE
 70
     3
  9
$SHADEDIF
 70
    70
  9
$TILEMODE
 70
     1
  9
$MAXACTVP
 70
    16
  9
$PINSBASE
 10
0.0
 20
0.0
 30
0.0
  9
$PLIMCHECK
 70
     0
  9
$PEXTMIN
 10
1.000000E+20
 20
1.000000E+20
 30
1.000000E+20
  9
$PEXTMAX
 10
-1.000000E+20
 20
-1.000000E+20
 30
-1.000000E+20
  9
$PLIMMIN
 10
0.0
 20
0.0
  9
$PLIMMAX
 10
12.0
 20
9.0
  9
$UNITMODE
 70
     0
  9
$VISRETAIN
 70
     0
  9
$PLINEGEN
 70
     0
  9
$PSLTSCALE
 70
     1
  9
$TREEDEPTH
 70
  3020
  9
$PICKSTYLE
 70
     1
  9
$CMLSTYLE
  2
STANDARD
  9
$CMLJUST
 70
     0
  9
$CMLSCALE
 40
1.0
  9
$PROXYGRAPHICS
 70
     1
  9
$MEASUREMENT
 70
     0
  0
ENDSEC
  0
SECTION
  2
CLASSES
  0
CLASS
  1
DICTIONARYVAR
  2
AcDbDictionaryVar
  3
"AutoCAD"
 90
        0
280
     0
281
     0
  0
CLASS
  1
LWPOLYLINE
  2
AcDbPolyline
  3
"AutoCAD"
 90
        0
280
     0
281
     1
  0
ENDSEC
  0
SECTION
  2
TABLES
  0
TABLE
  2
VPORT
  5
4BB
100
AcDbSymbolTable
 70
     1
  0
VPORT
  5
512
100
AcDbSymbolTableRecord
100
AcDbViewportTableRecord
  2
*ACTIVE
 70
     0
 10
0.0
 20
0.0
 11
1.0
 21
1.0
 12
283.244621
 22
169.500718
 13
0.0
 23
0.0
 14
1.0
 24
1.0
 15
10.0
 25
10.0
 16
0.0
 26
0.0
 36
1.0
 17
0.0
 27
0.0
 37
0.0
 40
339.001436
 41
1.671053
 42
50.0
 43
0.0
 44
0.0
 50
0.0
 51
0.0
 71
     0
 72
   100
 73
     1
 74
     1
 75
     0
 76
     1
 77
     0
 78
     0
  0
ENDTAB
  0
TABLE
  2
LTYPE
  5
4B8
100
AcDbSymbolTable
 70
    23
  0
LTYPE
  5
4C4
100
AcDbSymbolTableRecord
100
AcDbLinetypeTableRecord
  2
BYBLOCK
 70
     0
  3

 72
    65
 73
     0
 40
0.0
  0
LTYPE
  5
4C5
100
AcDbSymbolTableRecord
100
AcDbLinetypeTableRecord
  2
BYLAYER
 70
     0
  3

 72
    65
 73
     0
 40
0.0
  0
LTYPE
  5
4C6
100
AcDbSymbolTableRecord
100
AcDbLinetypeTableRecord
  2
CONTINUOUS
 70
     0
  3
Solid line
 72
    65
 73
     0
 40
0.0
  0
LTYPE
  5
4D9
100
AcDbSymbolTableRecord
100
AcDbLinetypeTableRecord
  2
AXES
 70
     0
  3
____ _ ____ _ ____ _ ____ _ ____ _ ____ _ ____ 
 72
    65
 73
     4
 40
2.0
 49
1.25
 74
     0
 49
-0.25
 74
     0
 49
0.25
 74
     0
 49
-0.25
 74
     0
  0
LTYPE
  5
4DA
100
AcDbSymbolTableRecord
100
AcDbLinetypeTableRecord
  2
AXES2
 70
     0
  3
___ _ ___ _ ___ _ ___ _ ___ _ ___ _ ___ _ ___ _
 72
    65
 73
     4
 40
1.125
 49
0.75
 74
     0
 49
-0.125
 74
     0
 49
0.125
 74
     0
 49
-0.125
 74
     0
  0
LTYPE
  5
4DB
100
AcDbSymbolTableRecord
100
AcDbLinetypeTableRecord
  2
AXESX2
 70
     0
  3
________  __  ________  __  ________  __  _____
 72
    65
 73
     4
 40
4.0
 49
2.5
 74
     0
 49
-0.5
 74
     0
 49
0.5
 74
     0
 49
-0.5
 74
     0
  0
LTYPE
  5
4DC
100
AcDbSymbolTableRecord
100
AcDbLinetypeTableRecord
  2
TIRETPT
 70
     0
  3
__ . __ . __ . __ . __ . __ . __ . __ . __ . __
 72
    65
 73
     4
 40
1.0
 49
0.5
 74
     0
 49
-0.25
 74
     0
 49
0.0
 74
     0
 49
-0.25
 74
     0
  0
LTYPE
  5
4DD
100
AcDbSymbolTableRecord
100
AcDbLinetypeTableRecord
  2
TIRETPT2
 70
     0
  3
_._._._._._._._._._._._._._._._._._._._._._._._
 72
    65
 73
     4
 40
0.5
 49
0.25
 74
     0
 49
-0.125
 74
     0
 49
0.0
 74
     0
 49
-0.125
 74
     0
  0
LTYPE
  5
4DE
100
AcDbSymbolTableRecord
100
AcDbLinetypeTableRecord
  2
TIRETPTX2
 70
     0
  3
____  .  ____  .  ____  .  ____  .  ____  .  __
 72
    65
 73
     4
 40
2.0
 49
1.0
 74
     0
 49
-0.5
 74
     0
 49
0.0
 74
     0
 49
-0.5
 74
     0
  0
LTYPE
  5
4DF
100
AcDbSymbolTableRecord
100
AcDbLinetypeTableRecord
  2
DISCONTINU
 70
     0
  3
__ __ __ __ __ __ __ __ __ __ __ __ __ __ __ __
 72
    65
 73
     2
 40
0.75
 49
0.5
 74
     0
 49
-0.25
 74
     0
  0
LTYPE
  5
4E0
100
AcDbSymbolTableRecord
100
AcDbLinetypeTableRecord
  2
DISCONTINU2
 70
     0
  3
_ _ _ _ _ _ _ _ _ _ _ _ _ _ _ _ _ _ _ _ _ _ _ _
 72
    65
 73
     2
 40
0.375
 49
0.25
 74
     0
 49
-0.125
 74
     0
  0
LTYPE
  5
4E1
100
AcDbSymbolTableRecord
100
AcDbLinetypeTableRecord
  2
DISCONTINUX2
 70
     0
  3
____  ____  ____  ____  ____  ____  ____  ____ 
 72
    65
 73
     2
 40
1.5
 49
1.0
 74
     0
 49
-0.5
 74
     0
  0
LTYPE
  5
4E2
100
AcDbSymbolTableRecord
100
AcDbLinetypeTableRecord
  2
DIVISE
 70
     0
  3
____ . . ____ . . ____ . . ____ . . ____ . . __
 72
    65
 73
     6
 40
1.25
 49
0.5
 74
     0
 49
-0.25
 74
     0
 49
0.0
 74
     0
 49
-0.25
 74
     0
 49
0.0
 74
     0
 49
-0.25
 74
     0
  0
LTYPE
  5
4E3
100
AcDbSymbolTableRecord
100
AcDbLinetypeTableRecord
  2
DIVISE2
 70
     0
  3
__..__..__..__..__..__..__..__..__..__..__..__.
 72
    65
 73
     6
 40
0.625
 49
0.25
 74
     0
 49
-0.125
 74
     0
 49
0.0
 74
     0
 49
-0.125
 74
     0
 49
0.0
 74
     0
 49
-0.125
 74
     0
  0
LTYPE
  5
4E4
100
AcDbSymbolTableRecord
100
AcDbLinetypeTableRecord
  2
DIVISEX2
 70
     0
  3
________  .  .  ________  .  .  ________  .  . 
 72
    65
 73
     6
 40
2.5
 49
1.0
 74
     0
 49
-0.5
 74
     0
 49
0.0
 74
     0
 49
-0.5
 74
     0
 49
0.0
 74
     0
 49
-0.5
 74
     0
  0
LTYPE
  5
4E5
100
AcDbSymbolTableRecord
100
AcDbLinetypeTableRecord
  2
POINTILLE
 70
     0
  3
. . . . . . . . . . . . . . . . . . . . . . . .
 72
    65
 73
     2
 40
0.25
 49
0.0
 74
     0
 49
-0.25
 74
     0
  0
LTYPE
  5
4E6
100
AcDbSymbolTableRecord
100
AcDbLinetypeTableRecord
  2
POINTILLE2
 70
     0
  3
...............................................
 72
    65
 73
     2
 40
0.125
 49
0.0
 74
     0
 49
-0.125
 74
     0
  0
LTYPE
  5
4E7
100
AcDbSymbolTableRecord
100
AcDbLinetypeTableRecord
  2
POINTILLEX2
 70
     0
  3
.  .  .  .  .  .  .  .  .  .  .  .  .  .  .  . 
 72
    65
 73
     2
 40
0.5
 49
0.0
 74
     0
 49
-0.5
 74
     0
  0
LTYPE
  5
4E8
100
AcDbSymbolTableRecord
100
AcDbLinetypeTableRecord
  2
CACHE
 70
     0
  3
__ __ __ __ __ __ __ __ __ __ __ __ __ __ __ __
 72
    65
 73
     2
 40
0.375
 49
0.25
 74
     0
 49
-0.125
 74
     0
  0
LTYPE
  5
4E9
100
AcDbSymbolTableRecord
100
AcDbLinetypeTableRecord
  2
CACHE2
 70
     0
  3
_ _ _ _ _ _ _ _ _ _ _ _ _ _ _ _ _ _ _ _ _ _ _ _
 72
    65
 73
     2
 40
0.1875
 49
0.125
 74
     0
 49
-0.0625
 74
     0
  0
LTYPE
  5
4EA
100
AcDbSymbolTableRecord
100
AcDbLinetypeTableRecord
  2
CACHEX2
 70
     0
  3
____ ____ ____ ____ ____ ____ ____ ____ ____ __
 72
    65
 73
     2
 40
0.75
 49
0.5
 74
     0
 49
-0.25
 74
     0
  0
LTYPE
  5
4EB
100
AcDbSymbolTableRecord
100
AcDbLinetypeTableRecord
  2
FANTOME
 70
     0
  3
______  __  __  ______  __  __  ______  __  __ 
 72
    65
 73
     6
 40
2.5
 49
1.25
 74
     0
 49
-0.25
 74
     0
 49
0.25
 74
     0
 49
-0.25
 74
     0
 49
0.25
 74
     0
 49
-0.25
 74
     0
  0
LTYPE
  5
4EC
100
AcDbSymbolTableRecord
100
AcDbLinetypeTableRecord
  2
FANTOME2
 70
     0
  3
___ _ _ ___ _ _ ___ _ _ ___ _ _ ___ _ _ ___ _ _
 72
    65
 73
     6
 40
1.25
 49
0.625
 74
     0
 49
-0.125
 74
     0
 49
0.125
 74
     0
 49
-0.125
 74
     0
 49
0.125
 74
     0
 49
-0.125
 74
     0
  0
LTYPE
  5
4ED
100
AcDbSymbolTableRecord
100
AcDbLinetypeTableRecord
  2
FANTOMEX2
 70
     0
  3
____________    ____    ____    ____________   
 72
    65
 73
     6
 40
5.0
 49
2.5
 74
     0
 49
-0.5
 74
     0
 49
0.5
 74
     0
 49
-0.5
 74
     0
 49
0.5
 74
     0
 49
-0.5
 74
     0
  0
LTYPE
  5
4EE
100
AcDbSymbolTableRecord
100
AcDbLinetypeTableRecord
  2
0
 70
     0
  3
MEDUSA PEN 0
 72
    65
 73
     0
 40
0.0
  0
ENDTAB
  0
TABLE
  2
LAYER
  5
4B5
100
AcDbSymbolTable
 70
    21
  0
LAYER
  5
4C1
100
AcDbSymbolTableRecord
100
AcDbLayerTableRecord
  2
0
 70
     0
 62
     7
  6
CONTINUOUS
  0
LAYER
  5
4F5
100
AcDbSymbolTableRecord
100
AcDbLayerTableRecord
  2
AXE
 70
     0
 62
    80
  6
AXES2
  0
LAYER
  5
4F6
100
AcDbSymbolTableRecord
100
AcDbLayerTableRecord
  2
CONSTRUCTION
 70
     0
 62
     6
  6
CONTINUOUS
  0
LAYER
  5
4F7
100
AcDbSymbolTableRecord
100
AcDbLayerTableRecord
  2
COTATION1
 70
     0
 62
     2
  6
CONTINUOUS
  0
LAYER
  5
4F8
100
AcDbSymbolTableRecord
100
AcDbLayerTableRecord
  2
HACHURES
 70
     0
 62
     9
  6
CONTINUOUS
  0
LAYER
  5
4F9
100
AcDbSymbolTableRecord
100
AcDbLayerTableRecord
  2
FMULT
 70
     0
 62
     6
  6
CONTINUOUS
  0
LAYER
  5
4FA
100
AcDbSymbolTableRecord
100
AcDbLayerTableRecord
  2
TEXTE
 70
     0
 62
   131
  6
CONTINUOUS
  0
LAYER
  5
4FB
100
AcDbSymbolTableRecord
100
AcDbLayerTableRecord
  2
FDP_CARTOUCHE
 70
     0
 62
     4
  6
CONTINUOUS
  0
LAYER
  5
4FC
100
AcDbSymbolTableRecord
100
AcDbLayerTableRecord
  2
FDP_TEXTES
 70
     0
 62
     5
  6
CONTINUOUS
  0
LAYER
  5
4FD
100
AcDbSymbolTableRecord
100
AcDbLayerTableRecord
  2
FDP_LOGO_MG
 70
     0
 62
    30
  6
CONTINUOUS
  0
LAYER
  5
4FE
100
AcDbSymbolTableRecord
100
AcDbLayerTableRecord
  2
FDP_LOGO_SCH
 70
     0
 62
     3
  6
CONTINUOUS
  0
LAYER
  5
4FF
100
AcDbSymbolTableRecord
100
AcDbLayerTableRecord
  2
FDP_FDP
 70
     0
 62
     5
  6
CONTINUOUS
  0
LAYER
  5
500
100
AcDbSymbolTableRecord
100
AcDbLayerTableRecord
  2
COTATION2
 70
     0
 62
     2
  6
CONTINUOUS
  0
LAYER
  5
501
100
AcDbSymbolTableRecord
100
AcDbLayerTableRecord
  2
COTATION3
 70
     0
 62
     2
  6
CONTINUOUS
  0
LAYER
  5
502
100
AcDbSymbolTableRecord
100
AcDbLayerTableRecord
  2
COTATION4
 70
     0
 62
     2
  6
CONTINUOUS
  0
LAYER
  5
503
100
AcDbSymbolTableRecord
100
AcDbLayerTableRecord
  2
ASHADE
 70
     0
 62
     7
  6
CONTINUOUS
  0
LAYER
  5
504
100
AcDbSymbolTableRecord
100
AcDbLayerTableRecord
  2
POINTILLE_COURT
 70
     0
 62
    40
  6
CACHE2
  0
LAYER
  5
505
100
AcDbSymbolTableRecord
100
AcDbLayerTableRecord
  2
POINTILLE_MOYEN
 70
     0
 62
   140
  6
CACHE
  0
LAYER
  5
506
100
AcDbSymbolTableRecord
100
AcDbLayerTableRecord
  2
POINTILLE_LONG
 70
     0
 62
   240
  6
CACHEX2
  0
LAYER
  5
507
100
AcDbSymbolTableRecord
100
AcDbLayerTableRecord
  2
ALPHA
 70
     0
 62
   255
  6
CONTINUOUS
  0
LAYER
  5
508
100
AcDbSymbolTableRecord
100
AcDbLayerTableRecord
  2
DEFPOINTS
 70
     0
 62
     7
  6
CONTINUOUS
  0
ENDTAB
  0
TABLE
  2
STYLE
  5
4B6
100
AcDbSymbolTable
 70
     4
  0
STYLE
  5
4C2
100
AcDbSymbolTableRecord
100
AcDbTextStyleTableRecord
  2
STANDARD
 70
     0
 40
0.0
 41
1.0
 50
0.0
 71
     0
 42
0.2
  3
txt
  4

  0
STYLE
  5
4D6
100
AcDbSymbolTableRecord
100
AcDbTextStyleTableRecord
  2
ROMANS
 70
     0
 40
0.0
 41
1.0
 50
0.0
 71
     0
 42
2.9
  3
romans.shx
  4

  0
STYLE
  5
4D7
100
AcDbSymbolTableRecord
100
AcDbTextStyleTableRecord
  2
INFOCAR
 70
     0
 40
0.0
 41
1.34
 50
0.0
 71
     0
 42
2.0
  3
ROMANS.SHX
  4

  0
STYLE
  5
4D8
100
AcDbSymbolTableRecord
100
AcDbTextStyleTableRecord
  2
CARTOUCHE
 70
     0
 40
0.0
 41
1.0
 50
0.0
 71
     0
 42
0.2
  3
ROMANS.SHX
  4

  0
ENDTAB
  0
TABLE
  2
VIEW
  5
4B9
100
AcDbSymbolTable
 70
     0
  0
ENDTAB
  0
TABLE
  2
UCS
  5
4BA
100
AcDbSymbolTable
 70
     0
  0
ENDTAB
  0
TABLE
  2
APPID
  5
4BC
100
AcDbSymbolTable
 70
     3
  0
APPID
  5
4C3
100
AcDbSymbolTableRecord
100
AcDbRegAppTableRecord
  2
ACAD
 70
     0
  0
APPID
  5
4F1
100
AcDbSymbolTableRecord
100
AcDbRegAppTableRecord
  2
AVE_RENDER
 70
     0
  0
APPID
  5
4F2
100
AcDbSymbolTableRecord
100
AcDbRegAppTableRecord
  2
AVE_MATERIAL
 70
     0
  0
ENDTAB
  0
TABLE
  2
DIMSTYLE
  5
4BD
100
AcDbSymbolTable
 70
     2
  0
DIMSTYLE
105
4F3
100
AcDbSymbolTableRecord
100
AcDbDimStyleTableRecord
  2
STANDARD
 70
     0
  3

  4

  5

  6

  7

 40
1.0
 41
0.18
 42
0.0625
 43
0.38
 44
0.18
 45
0.0
 46
0.0
 47
0.0
 48
0.0
140
0.18
141
0.09
142
0.0
143
25.4
144
1.0
145
0.0
146
1.0
147
0.09
 71
     0
 72
     0
 73
     1
 74
     1
 75
     0
 76
     0
 77
     0
 78
     0
170
     0
171
     2
172
     0
173
     0
174
     0
175
     0
176
     0
177
     0
178
     0
270
     2
271
     4
272
     4
273
     2
274
     2
340
4D6
275
     0
280
     0
281
     0
282
     0
283
     1
284
    12
285
    12
286
    12
287
     5
288
     0
  0
DIMSTYLE
105
4F4
102
{ACAD_REACTORS
330
481
330
490
102
}
100
AcDbSymbolTableRecord
100
AcDbDimStyleTableRecord
  2
SC_STAND
 70
     0
  3

  4

  5

  6

  7

 40
1.0
 41
3.0
 42
0.0625
 43
0.38
 44
0.18
 45
0.01
 46
0.0
 47
0.0
 48
0.0
140
2.5
141
0.09
142
0.0
143
25.4
144
1.0
145
0.0
146
1.0
147
1.0
 71
     0
 72
     0
 73
     0
 74
     0
 75
     0
 76
     0
 77
     1
 78
    12
170
     0
171
     2
172
     1
173
     0
174
     0
175
     0
176
     0
177
     0
178
     0
270
     2
271
     4
272
     4
273
     2
274
     2
340
4D6
275
     0
280
     0
281
     0
282
     0
283
     1
284
    12
285
    12
286
    12
287
     5
288
     0
  0
ENDTAB
  0
TABLE
  2
BLOCK_RECORD
  5
4B4
100
AcDbSymbolTable
 70
     7
  0
BLOCK_RECORD
  5
4CA
100
AcDbSymbolTableRecord
100
AcDbBlockTableRecord
  2
*MODEL_SPACE
  0
BLOCK_RECORD
  5
4C7
100
AcDbSymbolTableRecord
100
AcDbBlockTableRecord
  2
*PAPER_SPACE
  0
BLOCK_RECORD
  5
4CF
100
AcDbSymbolTableRecord
100
AcDbBlockTableRecord
  2
AVE_RENDER
  0
BLOCK_RECORD
  5
4D0
100
AcDbSymbolTableRecord
100
AcDbBlockTableRecord
  2
AVE_GLOBAL
  0
BLOCK_RECORD
  5
4D1
100
AcDbSymbolTableRecord
100
AcDbBlockTableRecord
  2
SCH_ISO
  0
BLOCK_RECORD
  5
4D4
100
AcDbSymbolTableRecord
100
AcDbBlockTableRecord
  2
*D5
  0
BLOCK_RECORD
  5
4D5
100
AcDbSymbolTableRecord
100
AcDbBlockTableRecord
  2
*D6
  0
ENDTAB
  0
ENDSEC
  0
SECTION
  2
BLOCKS
  0
BLOCK
  5
50B
100
AcDbEntity
  8
0
100
AcDbBlockBegin
  2
*MODEL_SPACE
 70
     0
 10
0.0
 20
0.0
 30
0.0
  3
*MODEL_SPACE
  1

  0
ENDBLK
  5
50C
100
AcDbEntity
  8
0
100
AcDbBlockEnd
  0
BLOCK
  5
509
100
AcDbEntity
 67
     1
  8
0
100
AcDbBlockBegin
  2
*PAPER_SPACE
 70
     0
 10
0.0
 20
0.0
 30
0.0
  3
*PAPER_SPACE
  1

  0
ENDBLK
  5
50A
100
AcDbEntity
 67
     1
  8
0
100
AcDbBlockEnd
  0
BLOCK
  5
432
100
AcDbEntity
  8
0
100
AcDbBlockBegin
  2
AVE_RENDER
 70
     0
 10
0.0
 20
0.0
 30
0.0
  3
AVE_RENDER
  1
AVE_RENDER
  0
ENDBLK
  5
433
100
AcDbEntity
  8
0
100
AcDbBlockEnd
  0
BLOCK
  5
435
100
AcDbEntity
  8
0
100
AcDbBlockBegin
  2
AVE_GLOBAL
 70
     0
 10
0.0
 20
0.0
 30
0.0
  3
AVE_GLOBAL
  1
AVE_GLOBAL
  0
ENDBLK
  5
436
100
AcDbEntity
  8
0
100
AcDbBlockEnd
  0
BLOCK
  5
471
100
AcDbEntity
  8
0
100
AcDbBlockBegin
  2
SCH_ISO
 70
     0
 10
0.0
 20
0.0
 30
0.0
  3
SCH_ISO
  1

  0
INSERT
  5
468
100
AcDbEntity
  8
ASHADE
 62
     1
100
AcDbBlockReference
  2
AVE_RENDER
 10
0.0
 20
0.0
 30
0.0
1001
AVE_RENDER
1002
{
1070
     6
1000
Pref
1070
    50
1070
    20
1070
     1
1070
     0
1000

1070
    10
1070
     1
1070
    30
1040
25.4
1070
     1
1040
0.3
1040
0.7
1040
0.0
1040
10.0
1010
-1.0
1020
-1.0
1030
-1.0
1040
0.3
1070
    49
1070
     0
1070
     0
1010
1.0
1020
1.0
1030
1.0
1040
45.0
1070
     1
1070
     0
1000
WCS
1040
0.0
1002
}
  0
INSERT
  5
469
100
AcDbEntity
  8
ASHADE
 62
     3
100
AcDbBlockReference
  2
AVE_RENDER
 10
0.0
 20
0.0
 30
0.0
1001
AVE_RENDER
1002
{
1070
     0
1000
Full Opt
1070
     0
1070
     1
1070
     1
1070
     1
1070
     0
1070
     0
1070
     0
1070
     1
1070
     1
1040
0.0001
1040
0.0001
1002
}
  0
INSERT
  5
46A
100
AcDbEntity
  8
ASHADE
 62
     4
100
AcDbBlockReference
  2
AVE_RENDER
 10
0.0
 20
0.0
 30
0.0
1001
AVE_RENDER
1002
{
1070
     0
1000
Quick Opt
1070
     0
1070
     1
1070
     1
1070
     1
1070
     0
1070
     0
1070
     1
1002
}
  0
INSERT
  5
46B
100
AcDbEntity
  8
ASHADE
 62
     5
100
AcDbBlockReference
  2
AVE_RENDER
 10
0.0
 20
0.0
 30
0.0
1001
AVE_RENDER
1002
{
1070
     1
1000
Scanl Opt
1070
     2
1070
     0
1070
     2
1040
2.0
1040
4.0
1070
     0
1070
     1
1070
     0
1040
0.03
1002
}
  0
INSERT
  5
46C
100
AcDbEntity
  8
ASHADE
 62
     6
100
AcDbBlockReference
  2
AVE_RENDER
 10
0.0
 20
0.0
 30
0.0
1001
AVE_RENDER
1002
{
1070
     2
1000
Raytr Opt
1070
     2
1070
     0
1070
     2
1040
2.0
1040
4.0
1070
     0
1070
     1
1070
     1
1040
0.03
1070
     3
1040
0.03
1002
}
  0
INSERT
  5
46D
100
AcDbEntity
  8
ASHADE
 62
     7
100
AcDbBlockReference
  2
AVE_RENDER
 10
0.0
 20
0.0
 30
0.0
1001
AVE_RENDER
1002
{
1070
     0
1000
RFile Opt
1070
     5
1070
   640
1070
   480
1070
 10000
1070
     3
1070
    32
1070
    24
1070
     0
1070
     0
1070
     0
1070
     1
1070
     0
1070
     0
1070
     0
1002
}
  0
INSERT
  5
46E
100
AcDbEntity
  8
ASHADE
 62
     8
100
AcDbBlockReference
  2
AVE_RENDER
 10
0.0
 20
0.0
 30
0.0
1001
AVE_RENDER
1002
{
1070
     0
1000
Fog Opt
1070
     0
1070
     0
1040
0.0
1040
1.0
1040
0.0
1040
1.0
1010
0.5
1020
0.5
1030
0.5
1002
}
  0
INSERT
  5
46F
100
AcDbEntity
  8
ASHADE
 62
     9
100
AcDbBlockReference
  2
AVE_RENDER
 10
0.0
 20
0.0
 30
0.0
1001
AVE_RENDER
1002
{
1070
     0
1000
BG Opt
1070
     0
1070
     1
1010
0.0
1020
0.0
1030
0.0
1010
1.0
1020
0.0
1030
0.0
1010
0.0
1020
1.0
1030
0.0
1010
0.0
1020
0.0
1030
1.0
1040
0.5
1040
0.33
1040
0.0
1000

1070
     1
1000

1070
     1
1070
     1
1040
1.0
1040
1.0
1040
0.0
1040
0.0
1070
     0
1002
}
  0
INSERT
  5
470
100
AcDbEntity
  8
ASHADE
 62
     1
100
AcDbBlockReference
  2
AVE_GLOBAL
 10
0.0
 20
0.0
 30
0.0
1001
AVE_MATERIAL
1002
{
1000
*GLOBAL*
1000
1
1000
Finition globale.
1002
{
1002
}
1002
{
1070
    63
1002
{
1002
{
1010
-1.0
1020
-1.0
1030
-1.0
1002
}
1040
0.1
1000

1040
0.0
1002
{
1002
}
1040
0.0
1002
{
1002
}
1040
0.0
1002
}
1002
{
1002
{
1010
-1.0
1020
-1.0
1030
-1.0
1002
}
1040
0.7
1000

1040
0.0
1002
{
1002
}
1040
0.0
1002
{
1002
}
1040
0.0
1002
}
1002
{
1002
{
1010
-1.0
1020
-1.0
1030
-1.0
1002
}
1040
0.2
1000

1040
0.0
1002
{
1002
}
1040
0.0
1002
{
1002
}
1040
0.0
1002
}
1002
{
1070
     0
1002
{
1070
     1
1002
{
1040
1.0
1040
1.0
1000

1040
0.0
1002
{
1002
}
1040
0.0
1002
{
1002
}
1040
0.0
1002
}
1002
}
1040
1.0
1040
0.0
1040
0.0
1002
}
1002
{
1040
1.0
1040
1.0
1000

1040
0.0
1002
{
1002
}
1040
0.0
1002
{
1002
}
1040
0.0
1002
}
1002
{
1040
0.5
1040
1.0
1000

1040
0.0
1002
{
1002
}
1040
0.0
1002
{
1002
}
1040
0.0
1002
}
1002
{
1070
     0
1040
0.0
1002
{
1002
}
1040
1.0
1002
{
1002
}
1040
0.0
1002
}
1002
{
1040
0.0
1002
{
1002
{
1010
0.0
1020
0.0
1030
0.0
1002
}
1040
1.0
1000

1040
0.0
1002
{
1002
}
1040
0.0
1002
{
1002
}
1040
0.0
1002
}
1002
}
1002
{
1002
{
1070
     1
1002
{
1040
0.0
1040
1.0
1000

1040
0.0
1002
{
1002
}
1040
0.0
1002
{
1002
}
1040
0.0
1002
}
1002
}
1040
0.0
1002
{
1002
}
1010
1.0
1020
0.0
1030
0.0
1010
0.0
1020
1.0
1030
0.0
1010
0.0
1020
0.0
1030
1.0
1070
     0
1002
}
1002
{
1002
{
1040
1.0
1040
1.0
1002
{
1070
     1
1002
{
1040
1.0
1040
1.0
1000

1040
0.0
1002
{
1002
}
1040
0.0
1002
{
1002
}
1040
0.0
1002
}
1002
}
1002
}
1070
     0
1040
0.0
1002
{
1002
}
1002
}
1002
{
1002
}
1002
}
1002
{
1071
        3
1070
     3
1070
     0
1002
{
1070
     2
1070
     0
1070
     0
1040
0.0
1002
}
1070
     0
1070
     2
1002
{
1002
}
1002
}
1002
{
1040
8030.0
1040
190.300003
1040
0.305
1040
228.0
1040
545.0
1040
14.0
1040
17.4
1040
0.456
1002
}
1002
}
  0
ENDBLK
  5
472
100
AcDbEntity
  8
0
100
AcDbBlockEnd
  0
BLOCK
  5
49B
100
AcDbEntity
  8
0
100
AcDbBlockBegin
  2
*D5
 70
     1
 10
0.0
 20
0.0
 30
0.0
  3
*D5
  1

  0
LINE
  5
49C
100
AcDbEntity
  8
0
  6
BYBLOCK
 62
     0
100
AcDbLine
 10
57.597977
 20
94.096161
 30
0.0
 11
57.597977
 21
81.084537
 31
0.0
  0
LINE
  5
49D
100
AcDbEntity
  8
0
  6
BYBLOCK
 62
     0
100
AcDbLine
 10
67.900669
 20
97.746161
 30
0.0
 11
67.900669
 21
81.084537
 31
0.0
  0
LINE
  5
49E
100
AcDbEntity
  8
0
  6
BYBLOCK
 62
     0
100
AcDbLine
 10
54.597977
 20
81.264537
 30
0.0
 11
51.597977
 21
81.264537
 31
0.0
  0
LINE
  5
49F
100
AcDbEntity
  8
0
  6
BYBLOCK
 62
     0
100
AcDbLine
 10
70.900669
 20
81.264537
 30
0.0
 11
73.900669
 21
81.264537
 31
0.0
  0
LINE
  5
4A0
100
AcDbEntity
  8
0
  6
BYBLOCK
 62
     0
100
AcDbLine
 10
73.900669
 20
81.264537
 30
0.0
 11
82.162574
 21
81.264537
 31
0.0
  0
SOLID
  5
4A1
100
AcDbEntity
  8
0
  6
BYBLOCK
 62
     0
100
AcDbTrace
 10
54.597977
 20
81.764537
 30
0.0
 11
54.597977
 21
80.764537
 31
0.0
 12
57.597977
 22
81.264537
 32
0.0
 13
57.597977
 23
81.264537
 33
0.0
  0
SOLID
  5
4A2
100
AcDbEntity
  8
0
  6
BYBLOCK
 62
     0
100
AcDbTrace
 10
70.900669
 20
81.764537
 30
0.0
 11
70.900669
 21
80.764537
 31
0.0
 12
67.900669
 22
81.264537
 32
0.0
 13
67.900669
 23
81.264537
 33
0.0
  0
LINE
  5
4A3
100
AcDbEntity
  8
0
  6
BYBLOCK
 62
     0
100
AcDbLine
 10
57.597977
 20
81.264537
 30
0.0
 11
67.900669
 21
81.264537
 31
0.0
  0
TEXT
  5
4A4
100
AcDbEntity
  8
0
  6
BYBLOCK
 62
     0
100
AcDbText
 10
74.186383
 20
82.514537
 30
0.0
 40
2.5
  1
10.3
  7
ROMANS
 72
     1
 11
78.531622
 21
83.764537
 31
0.0
100
AcDbText
 73
     2
  0
POINT
  5
4A5
100
AcDbEntity
  8
DEFPOINTS
  6
BYBLOCK
 62
     0
100
AcDbPoint
 10
57.597977
 20
94.158661
 30
0.0
  0
POINT
  5
4A6
100
AcDbEntity
  8
DEFPOINTS
  6
BYBLOCK
 62
     0
100
AcDbPoint
 10
67.900669
 20
97.808661
 30
0.0
  0
POINT
  5
4A7
100
AcDbEntity
  8
DEFPOINTS
  6
BYBLOCK
 62
     0
100
AcDbPoint
 10
67.900669
 20
81.264537
 30
0.0
  0
ENDBLK
  5
4A8
100
AcDbEntity
  8
0
100
AcDbBlockEnd
  0
BLOCK
  5
4A9
100
AcDbEntity
  8
0
100
AcDbBlockBegin
  2
*D6
 70
     1
 10
0.0
 20
0.0
 30
0.0
  3
*D6
  1

  0
LINE
  5
4AA
100
AcDbEntity
  8
0
  6
BYBLOCK
 62
     0
100
AcDbLine
 10
67.838169
 20
97.808661
 30
0.0
 11
40.761995
 21
97.808661
 31
0.0
  0
LINE
  5
4AB
100
AcDbEntity
  8
0
  6
BYBLOCK
 62
     0
100
AcDbLine
 10
67.838169
 20
113.808661
 30
0.0
 11
40.761995
 21
113.808661
 31
0.0
  0
LINE
  5
4AC
100
AcDbEntity
  8
0
  6
BYBLOCK
 62
     0
100
AcDbLine
 10
40.941995
 20
100.808661
 30
0.0
 11
40.941995
 21
110.808661
 31
0.0
  0
SOLID
  5
4AD
100
AcDbEntity
  8
0
  6
BYBLOCK
 62
     0
100
AcDbTrace
 10
40.441995
 20
100.808661
 30
0.0
 11
41.441995
 21
100.808661
 31
0.0
 12
40.941995
 22
97.808661
 32
0.0
 13
40.941995
 23
97.808661
 33
0.0
  0
SOLID
  5
4AE
100
AcDbEntity
  8
0
  6
BYBLOCK
 62
     0
100
AcDbTrace
 10
40.441995
 20
110.808661
 30
0.0
 11
41.441995
 21
110.808661
 31
0.0
 12
40.941995
 22
113.808661
 32
0.0
 13
40.941995
 23
113.808661
 33
0.0
  0
TEXT
  5
4AF
100
AcDbEntity
  8
0
  6
BYBLOCK
 62
     0
100
AcDbText
 10
39.691995
 20
103.249137
 30
0.0
 40
2.5
  1
16
 50
90.0
  7
ROMANS
 72
     1
 11
38.441995
 21
105.808661
 31
0.0
100
AcDbText
 73
     2
  0
POINT
  5
4B0
100
AcDbEntity
  8
DEFPOINTS
  6
BYBLOCK
 62
     0
100
AcDbPoint
 10
67.900669
 20
97.808661
 30
0.0
  0
POINT
  5
4B1
100
AcDbEntity
  8
DEFPOINTS
  6
BYBLOCK
 62
     0
100
AcDbPoint
 10
67.900669
 20
113.808661
 30
0.0
  0
POINT
  5
4B2
100
AcDbEntity
  8
DEFPOINTS
  6
BYBLOCK
 62
     0
100
AcDbPoint
 10
40.941995
 20
113.808661
 30
0.0
  0
ENDBLK
  5
4B3
100
AcDbEntity
  8
0
100
AcDbBlockEnd
  0
ENDSEC
  0
SECTION
  2
ENTITIES
  0
ARC
  5
1D
100
AcDbEntity
  8
ALPHA
100
AcDbCircle
 10
58.940976
 20
97.165512
 30
0.0
 40
0.2
100
AcDbArc
 50
270.0
 51
347.328221
  0
ARC
  5
1E
100
AcDbEntity
  8
ALPHA
100
AcDbCircle
 10
20.500026
 20
105.808661
 30
0.0
 40
39.600643
100
AcDbArc
 50
347.328221
 51
12.671779
  0
ARC
  5
1F
100
AcDbEntity
  8
ALPHA
100
AcDbCircle
 10
58.940976
 20
114.45181
 30
0.0
 40
0.2
100
AcDbArc
 50
12.671779
 51
90.0
  0
ARC
  5
20
100
AcDbEntity
  8
ALPHA
100
AcDbCircle
 10
57.797977
 20
94.158661
 30
0.0
 40
0.2
100
AcDbArc
 50
180.0
 51
270.0
  0
ARC
  5
21
100
AcDbEntity
  8
ALPHA
100
AcDbCircle
 10
57.797977
 20
117.458661
 30
0.0
 40
0.2
100
AcDbArc
 50
90.0
 51
180.0
  0
LINE
  5
22
100
AcDbEntity
  8
ALPHA
100
AcDbLine
 10
90.000669
 20
102.858661
 30
0.0
 11
90.000669
 21
108.758661
 31
0.0
  0
LINE
  5
23
100
AcDbEntity
  8
ALPHA
100
AcDbLine
 10
89.600669
 20
99.033661
 30
0.0
 11
89.600669
 21
102.358661
 31
0.0
  0
LINE
  5
24
100
AcDbEntity
  8
ALPHA
100
AcDbLine
 10
89.600669
 20
112.583661
 30
0.0
 11
89.600669
 21
109.258661
 31
0.0
  0
LINE
  5
25
100
AcDbEntity
  8
ALPHA
100
AcDbLine
 10
88.500669
 20
104.308661
 30
0.0
 11
88.500669
 21
107.308661
 31
0.0
  0
LINE
  5
26
100
AcDbEntity
  8
ALPHA
100
AcDbLine
 10
88.400669
 20
102.358661
 30
0.0
 11
88.400669
 21
102.008661
 31
0.0
  0
LINE
  5
27
100
AcDbEntity
  8
ALPHA
100
AcDbLine
 10
87.800669
 20
102.358661
 30
0.0
 11
87.800669
 21
102.131706
 31
0.0
  0
LINE
  5
28
100
AcDbEntity
  8
ALPHA
100
AcDbLine
 10
65.600669
 20
117.658661
 30
0.0
 11
57.797977
 21
117.658661
 31
0.0
  0
LINE
  5
29
100
AcDbEntity
  8
ALPHA
100
AcDbLine
 10
85.700669
 20
113.085379
 30
0.0
 11
85.700669
 21
113.183661
 31
0.0
  0
LINE
  5
2A
100
AcDbEntity
  8
ALPHA
100
AcDbLine
 10
85.700669
 20
108.758661
 30
0.0
 11
85.700669
 21
109.258661
 31
0.0
  0
LINE
  5
2B
100
AcDbEntity
  8
ALPHA
100
AcDbLine
 10
85.700669
 20
102.008661
 30
0.0
 11
85.700669
 21
102.858661
 31
0.0
  0
LINE
  5
2C
100
AcDbEntity
  8
ALPHA
100
AcDbLine
 10
85.700669
 20
98.433661
 30
0.0
 11
85.700669
 21
98.531943
 31
0.0
  0
LINE
  5
2D
100
AcDbEntity
  8
ALPHA
100
AcDbLine
 10
85.700669
 20
107.308661
 30
0.0
 11
85.700669
 21
104.308661
 31
0.0
  0
LINE
  5
2E
100
AcDbEntity
  8
ALPHA
100
AcDbLine
 10
85.200669
 20
107.108661
 30
0.0
 11
85.200669
 21
109.508661
 31
0.0
  0
LINE
  5
2F
100
AcDbEntity
  8
ALPHA
100
AcDbLine
 10
84.800669
 20
108.968235
 30
0.0
 11
84.800669
 21
109.308661
 31
0.0
  0
LINE
  5
30
100
AcDbEntity
  8
ALPHA
100
AcDbLine
 10
84.800669
 20
107.308661
 30
0.0
 11
84.800669
 21
107.521427
 31
0.0
  0
LINE
  5
31
100
AcDbEntity
  8
ALPHA
100
AcDbLine
 10
57.643468
 20
116.448661
 30
0.0
 11
57.610099
 21
116.448661
 31
0.0
  0
LINE
  5
32
100
AcDbEntity
  8
ALPHA
100
AcDbLine
 10
84.600669
 20
112.458661
 30
0.0
 11
84.600669
 21
113.183661
 31
0.0
  0
LINE
  5
33
100
AcDbEntity
  8
ALPHA
100
AcDbLine
 10
84.600669
 20
110.733055
 30
0.0
 11
84.600669
 21
111.29874
 31
0.0
  0
LINE
  5
34
100
AcDbEntity
  8
ALPHA
100
AcDbLine
 10
84.600669
 20
98.433661
 30
0.0
 11
84.600669
 21
99.158661
 31
0.0
  0
LINE
  5
35
100
AcDbEntity
  8
ALPHA
100
AcDbLine
 10
84.200669
 20
104.508661
 30
0.0
 11
84.200669
 21
107.108661
 31
0.0
  0
LINE
  5
36
100
AcDbEntity
  8
ALPHA
100
AcDbLine
 10
83.717336
 20
109.053342
 30
0.0
 11
83.717336
 21
109.308661
 31
0.0
  0
LINE
  5
37
100
AcDbEntity
  8
ALPHA
100
AcDbLine
 10
83.717336
 20
107.308661
 30
0.0
 11
83.717336
 21
107.606533
 31
0.0
  0
LINE
  5
38
100
AcDbEntity
  8
ALPHA
100
AcDbLine
 10
83.600669
 20
99.158661
 30
0.0
 11
83.600669
 21
98.433661
 31
0.0
  0
LINE
  5
39
100
AcDbEntity
  8
ALPHA
100
AcDbLine
 10
83.600669
 20
113.183661
 30
0.0
 11
83.600669
 21
112.458661
 31
0.0
  0
LINE
  5
3A
100
AcDbEntity
  8
ALPHA
100
AcDbLine
 10
83.500669
 20
107.308661
 30
0.0
 11
83.500669
 21
109.308661
 31
0.0
  0
LINE
  5
3B
100
AcDbEntity
  8
ALPHA
100
AcDbLine
 10
82.688169
 20
108.542704
 30
0.0
 11
82.661086
 21
108.670363
 31
0.0
  0
LINE
  5
3C
100
AcDbEntity
  8
ALPHA
100
AcDbLine
 10
82.525669
 20
108.50015
 30
0.0
 11
82.498586
 21
108.62781
 31
0.0
  0
LINE
  5
3D
100
AcDbEntity
  8
ALPHA
100
AcDbLine
 10
82.688169
 20
107.69164
 30
0.0
 11
82.661086
 21
107.819299
 31
0.0
  0
LINE
  5
3E
100
AcDbEntity
  8
ALPHA
100
AcDbLine
 10
82.525669
 20
107.649086
 30
0.0
 11
82.498586
 21
107.776746
 31
0.0
  0
LINE
  5
3F
100
AcDbEntity
  8
ALPHA
100
AcDbLine
 10
82.119419
 20
108.712916
 30
0.0
 11
82.092336
 21
108.840576
 31
0.0
  0
LINE
  5
40
100
AcDbEntity
  8
ALPHA
100
AcDbLine
 10
82.254836
 20
108.75547
 30
0.0
 11
82.200669
 21
108.968235
 31
0.0
  0
LINE
  5
41
100
AcDbEntity
  8
ALPHA
100
AcDbLine
 10
82.092336
 20
108.840576
 30
0.0
 11
82.038169
 21
108.968235
 31
0.0
  0
LINE
  5
42
100
AcDbEntity
  8
ALPHA
100
AcDbLine
 10
82.606919
 20
108.329938
 30
0.0
 11
82.525669
 21
108.50015
 31
0.0
  0
LINE
  5
43
100
AcDbEntity
  8
ALPHA
100
AcDbLine
 10
82.200669
 20
108.968235
 30
0.0
 11
82.119419
 21
109.138448
 31
0.0
  0
LINE
  5
44
100
AcDbEntity
  8
ALPHA
100
AcDbLine
 10
82.606919
 20
107.478874
 30
0.0
 11
82.525669
 21
107.649086
 31
0.0
  0
LINE
  5
45
100
AcDbEntity
  8
ALPHA
100
AcDbLine
 10
82.742336
 20
108.457597
 30
0.0
 11
82.688169
 21
108.542704
 31
0.0
  0
LINE
  5
46
100
AcDbEntity
  8
ALPHA
100
AcDbLine
 10
82.742336
 20
107.606533
 30
0.0
 11
82.688169
 21
107.69164
 31
0.0
  0
LINE
  5
47
100
AcDbEntity
  8
ALPHA
100
AcDbLine
 10
89.600669
 20
112.583661
 30
0.0
 11
87.099356
 21
113.02471
 31
0.0
  0
LWPOLYLINE
  5
48
100
AcDbEntity
  8
ALPHA
100
AcDbPolyline
 90
       17
 70
     0
 43
0.0
 10
58.554221
 20
114.65181
 10
58.540788
 20
114.652234
 10
58.525846
 20
114.653662
 10
58.509741
 20
114.656267
 10
58.492755
 20
114.660169
 10
58.475031
 20
114.665472
 10
58.456858
 20
114.67221
 10
58.438227
 20
114.680506
 10
58.419188
 20
114.690494
 10
58.399892
 20
114.702279
 10
58.380597
 20
114.715905
 10
58.361315
 20
114.731622
 10
58.342133
 20
114.749748
 10
58.323355
 20
114.770549
 10
58.305447
 20
114.794287
 10
58.289031
 20
114.821305
 10
58.275119
 20
114.85181
  0
LINE
  5
5B
100
AcDbEntity
  8
ALPHA
100
AcDbLine
 10
58.554221
 20
114.65181
 30
0.0
 11
58.940976
 21
114.65181
 31
0.0
  0
LINE
  5
5C
100
AcDbEntity
  8
ALPHA
100
AcDbLine
 10
59.075574
 20
114.599323
 30
0.0
 11
58.327372
 21
114.599323
 31
0.0
  0
LINE
  5
5D
100
AcDbEntity
  8
ALPHA
100
AcDbLine
 10
65.600669
 20
114.508661
 30
0.0
 11
66.200669
 21
114.508661
 31
0.0
  0
LINE
  5
5E
100
AcDbEntity
  8
ALPHA
100
AcDbLine
 10
82.661086
 20
107.904406
 30
0.0
 11
82.688169
 21
108.032065
 31
0.0
  0
LINE
  5
5F
100
AcDbEntity
  8
ALPHA
100
AcDbLine
 10
82.254836
 20
107.861852
 30
0.0
 11
82.281919
 21
108.159725
 31
0.0
  0
LINE
  5
60
100
AcDbEntity
  8
ALPHA
100
AcDbLine
 10
83.338169
 20
108.415044
 30
0.0
 11
83.338169
 21
109.053342
 31
0.0
  0
LINE
  5
61
100
AcDbEntity
  8
ALPHA
100
AcDbLine
 10
83.338169
 20
107.56398
 30
0.0
 11
83.338169
 21
108.159725
 31
0.0
  0
LINE
  5
62
100
AcDbEntity
  8
ALPHA
100
AcDbLine
 10
82.661086
 20
108.670363
 30
0.0
 11
82.661086
 21
108.798023
 31
0.0
  0
LINE
  5
63
100
AcDbEntity
  8
ALPHA
100
AcDbLine
 10
82.661086
 20
107.819299
 30
0.0
 11
82.661086
 21
107.904406
 31
0.0
  0
LINE
  5
64
100
AcDbEntity
  8
ALPHA
100
AcDbLine
 10
82.498586
 20
108.62781
 30
0.0
 11
82.498586
 21
108.840576
 31
0.0
  0
LINE
  5
65
100
AcDbEntity
  8
ALPHA
100
AcDbLine
 10
82.498586
 20
107.776746
 30
0.0
 11
82.498586
 21
107.946959
 31
0.0
  0
LINE
  5
66
100
AcDbEntity
  8
ALPHA
100
AcDbLine
 10
82.281919
 20
108.159725
 30
0.0
 11
82.281919
 21
108.457597
 31
0.0
  0
LINE
  5
67
100
AcDbEntity
  8
ALPHA
100
AcDbLine
 10
82.146502
 20
108.159725
 30
0.0
 11
82.146502
 21
108.244831
 31
0.0
  0
LINE
  5
68
100
AcDbEntity
  8
ALPHA
100
AcDbLine
 10
82.119419
 20
108.585257
 30
0.0
 11
82.119419
 21
108.712916
 31
0.0
  0
LINE
  5
69
100
AcDbEntity
  8
ALPHA
100
AcDbLine
 10
82.281919
 20
108.457597
 30
0.0
 11
82.254836
 21
108.75547
 31
0.0
  0
LINE
  5
6A
100
AcDbEntity
  8
ALPHA
100
AcDbLine
 10
81.469419
 20
108.457597
 30
0.0
 11
81.442336
 21
108.585257
 31
0.0
  0
LINE
  5
6B
100
AcDbEntity
  8
ALPHA
100
AcDbLine
 10
81.388169
 20
107.649086
 30
0.0
 11
81.361086
 21
107.776746
 31
0.0
  0
LINE
  5
6C
100
AcDbEntity
  8
ALPHA
100
AcDbLine
 10
81.361086
 20
108.329938
 30
0.0
 11
81.306919
 21
108.542704
 31
0.0
  0
LINE
  5
6D
100
AcDbEntity
  8
ALPHA
100
AcDbLine
 10
81.550669
 20
107.649086
 30
0.0
 11
81.496502
 21
107.776746
 31
0.0
  0
LINE
  5
6E
100
AcDbEntity
  8
ALPHA
100
AcDbLine
 10
81.469419
 20
107.478874
 30
0.0
 11
81.388169
 21
107.649086
 31
0.0
  0
LINE
  5
6F
100
AcDbEntity
  8
ALPHA
100
AcDbLine
 10
81.523586
 20
108.372491
 30
0.0
 11
81.469419
 21
108.457597
 31
0.0
  0
LINE
  5
70
100
AcDbEntity
  8
ALPHA
100
AcDbLine
 10
81.442336
 20
108.202278
 30
0.0
 11
81.361086
 21
108.329938
 31
0.0
  0
LINE
  5
71
100
AcDbEntity
  8
ALPHA
100
AcDbLine
 10
82.715252
 20
107.351214
 30
0.0
 11
82.606919
 21
107.478874
 31
0.0
  0
LINE
  5
72
100
AcDbEntity
  8
ALPHA
100
AcDbLine
 10
82.038169
 20
108.968235
 30
0.0
 11
81.956919
 21
109.053342
 31
0.0
  0
LINE
  5
73
100
AcDbEntity
  8
ALPHA
100
AcDbLine
 10
81.604836
 20
108.287384
 30
0.0
 11
81.523586
 21
108.372491
 31
0.0
  0
LINE
  5
74
100
AcDbEntity
  8
ALPHA
100
AcDbLine
 10
81.631919
 20
107.56398
 30
0.0
 11
81.550669
 21
107.649086
 31
0.0
  0
LINE
  5
75
100
AcDbEntity
  8
ALPHA
100
AcDbLine
 10
82.119419
 20
109.138448
 30
0.0
 11
81.984003
 21
109.266108
 31
0.0
  0
LINE
  5
76
100
AcDbEntity
  8
ALPHA
100
AcDbLine
 10
81.577753
 20
108.074618
 30
0.0
 11
81.442336
 21
108.202278
 31
0.0
  0
LINE
  5
77
100
AcDbEntity
  8
ALPHA
100
AcDbLine
 10
82.661086
 20
108.287384
 30
0.0
 11
82.606919
 21
108.329938
 31
0.0
  0
LINE
  5
78
100
AcDbEntity
  8
ALPHA
100
AcDbLine
 10
78.100669
 20
112.565948
 30
0.0
 11
78.725669
 21
112.112069
 31
0.0
  0
LWPOLYLINE
  5
79
100
AcDbEntity
  8
ALPHA
100
AcDbPolyline
 90
        4
 70
     0
 43
0.0
 10
87.099356
 20
113.02471
 10
86.635069
 20
113.046503
 10
86.168791
 20
113.06673
 10
85.700669
 20
113.085379
  0
LINE
  5
7F
100
AcDbEntity
  8
ALPHA
100
AcDbLine
 10
67.900669
 20
113.808661
 30
0.0
 11
66.200669
 21
113.808661
 31
0.0
  0
LINE
  5
80
100
AcDbEntity
  8
ALPHA
100
AcDbLine
 10
78.725669
 20
113.183661
 30
0.0
 11
67.900669
 21
113.183661
 31
0.0
  0
LINE
  5
81
100
AcDbEntity
  8
ALPHA
100
AcDbLine
 10
83.600669
 20
113.183661
 30
0.0
 11
78.725669
 21
113.183661
 31
0.0
  0
LINE
  5
82
100
AcDbEntity
  8
ALPHA
100
AcDbLine
 10
85.700669
 20
113.183661
 30
0.0
 11
84.600669
 21
113.183661
 31
0.0
  0
LINE
  5
83
100
AcDbEntity
  8
ALPHA
100
AcDbLine
 10
67.900669
 20
113.133661
 30
0.0
 11
78.725669
 21
113.133661
 31
0.0
  0
LINE
  5
84
100
AcDbEntity
  8
ALPHA
100
AcDbLine
 10
83.852752
 20
107.521427
 30
0.0
 11
84.800669
 21
108.968235
 31
0.0
  0
LINE
  5
85
100
AcDbEntity
  8
ALPHA
100
AcDbLine
 10
83.717336
 20
107.606533
 30
0.0
 11
84.638169
 21
109.053342
 31
0.0
  0
LINE
  5
86
100
AcDbEntity
  8
ALPHA
100
AcDbLine
 10
82.525669
 20
108.074618
 30
0.0
 11
82.606919
 21
108.244831
 31
0.0
  0
LINE
  5
87
100
AcDbEntity
  8
ALPHA
100
AcDbLine
 10
82.200669
 20
107.649086
 30
0.0
 11
82.254836
 21
107.861852
 31
0.0
  0
LINE
  5
88
100
AcDbEntity
  8
ALPHA
100
AcDbLine
 10
82.498586
 20
107.946959
 30
0.0
 11
82.525669
 21
108.074618
 31
0.0
  0
LINE
  5
89
100
AcDbEntity
  8
ALPHA
100
AcDbLine
 10
82.661086
 20
108.798023
 30
0.0
 11
82.688169
 21
108.925682
 31
0.0
  0
LINE
  5
8A
100
AcDbEntity
  8
ALPHA
100
AcDbLine
 10
82.498586
 20
108.840576
 30
0.0
 11
82.525669
 21
108.968235
 31
0.0
  0
LINE
  5
8B
100
AcDbEntity
  8
ALPHA
100
AcDbLine
 10
82.092336
 20
107.776746
 30
0.0
 11
82.119419
 21
107.904406
 31
0.0
  0
LINE
  5
8C
100
AcDbEntity
  8
ALPHA
100
AcDbLine
 10
82.092336
 20
108.457597
 30
0.0
 11
82.119419
 21
108.585257
 31
0.0
  0
LINE
  5
8D
100
AcDbEntity
  8
ALPHA
100
AcDbLine
 10
81.442336
 20
108.712916
 30
0.0
 11
81.469419
 21
108.840576
 31
0.0
  0
LINE
  5
8E
100
AcDbEntity
  8
ALPHA
100
AcDbLine
 10
82.119419
 20
107.904406
 30
0.0
 11
82.146502
 21
108.159725
 31
0.0
  0
LINE
  5
8F
100
AcDbEntity
  8
ALPHA
100
AcDbLine
 10
81.442336
 20
108.585257
 30
0.0
 11
81.442336
 21
108.712916
 31
0.0
  0
LINE
  5
90
100
AcDbEntity
  8
ALPHA
100
AcDbLine
 10
81.306919
 20
108.542704
 30
0.0
 11
81.306919
 21
108.75547
 31
0.0
  0
LINE
  5
91
100
AcDbEntity
  8
ALPHA
100
AcDbLine
 10
81.090252
 20
107.308661
 30
0.0
 11
81.090252
 21
109.308661
 31
0.0
  0
LINE
  5
92
100
AcDbEntity
  8
ALPHA
100
AcDbLine
 10
80.927752
 20
107.56398
 30
0.0
 11
80.927752
 21
109.053342
 31
0.0
  0
LINE
  5
93
100
AcDbEntity
  8
ALPHA
100
AcDbLine
 10
80.034002
 20
107.776746
 30
0.0
 11
80.006919
 21
107.989512
 31
0.0
  0
LINE
  5
94
100
AcDbEntity
  8
ALPHA
100
AcDbLine
 10
80.196502
 20
107.819299
 30
0.0
 11
80.169419
 21
107.989512
 31
0.0
  0
LINE
  5
95
100
AcDbEntity
  8
ALPHA
100
AcDbLine
 10
80.088169
 20
107.606533
 30
0.0
 11
80.034002
 21
107.776746
 31
0.0
  0
LINE
  5
96
100
AcDbEntity
  8
ALPHA
100
AcDbLine
 10
80.250669
 20
107.69164
 30
0.0
 11
80.196502
 21
107.819299
 31
0.0
  0
LINE
  5
97
100
AcDbEntity
  8
ALPHA
100
AcDbLine
 10
80.196502
 20
107.436321
 30
0.0
 11
80.088169
 21
107.606533
 31
0.0
  0
LINE
  5
98
100
AcDbEntity
  8
ALPHA
100
AcDbLine
 10
80.331919
 20
107.606533
 30
0.0
 11
80.250669
 21
107.69164
 31
0.0
  0
LINE
  5
99
100
AcDbEntity
  8
ALPHA
100
AcDbLine
 10
81.604836
 20
107.351214
 30
0.0
 11
81.469419
 21
107.478874
 31
0.0
  0
LINE
  5
9A
100
AcDbEntity
  8
ALPHA
100
AcDbLine
 10
78.725669
 20
109.637195
 30
0.0
 11
78.100669
 21
110.091075
 31
0.0
  0
LINE
  5
9B
100
AcDbEntity
  8
ALPHA
100
AcDbLine
 10
81.956919
 20
109.053342
 30
0.0
 11
81.875669
 21
109.095895
 31
0.0
  0
LINE
  5
9C
100
AcDbEntity
  8
ALPHA
100
AcDbLine
 10
82.823586
 20
108.415044
 30
0.0
 11
82.742336
 21
108.457597
 31
0.0
  0
LINE
  5
9D
100
AcDbEntity
  8
ALPHA
100
AcDbLine
 10
81.686086
 20
108.244831
 30
0.0
 11
81.604836
 21
108.287384
 31
0.0
  0
LINE
  5
9E
100
AcDbEntity
  8
ALPHA
100
AcDbLine
 10
82.823586
 20
107.56398
 30
0.0
 11
82.742336
 21
107.606533
 31
0.0
  0
LINE
  5
9F
100
AcDbEntity
  8
ALPHA
100
AcDbLine
 10
81.984003
 20
109.266108
 30
0.0
 11
81.848586
 21
109.308661
 31
0.0
  0
LWPOLYLINE
  5
A0
100
AcDbEntity
  8
ALPHA
100
AcDbPolyline
 90
        4
 70
     0
 43
0.0
 10
84.600669
 20
111.29874
 10
79.893111
 20
111.593503
 10
75.237261
 20
111.865012
 10
70.658534
 20
112.112069
  0
LWPOLYLINE
  5
A6
100
AcDbEntity
  8
ALPHA
100
AcDbPolyline
 90
       12
 70
     0
 43
0.0
 10
67.000669
 20
111.759449
 10
67.039428
 20
111.757567
 10
67.077765
 20
111.751949
 10
67.113616
 20
111.743172
 10
67.148336
 20
111.731194
 10
67.183116
 20
111.715417
 10
67.212276
 20
111.698894
 10
67.241296
 20
111.678978
 10
67.27012
 20
111.655077
 10
67.295653
 20
111.629606
 10
67.319095
 20
111.601533
 10
67.341
 20
111.569628
  0
LINE
  5
B4
100
AcDbEntity
  8
ALPHA
100
AcDbLine
 10
69.300669
 20
112.565948
 30
0.0
 11
78.100669
 21
112.565948
 31
0.0
  0
LINE
  5
B5
100
AcDbEntity
  8
ALPHA
100
AcDbLine
 10
84.600669
 20
112.458661
 30
0.0
 11
83.600669
 21
112.458661
 31
0.0
  0
LINE
  5
B6
100
AcDbEntity
  8
ALPHA
100
AcDbLine
 10
70.658534
 20
112.112069
 30
0.0
 11
78.725669
 21
112.112069
 31
0.0
  0
LINE
  5
B7
100
AcDbEntity
  8
ALPHA
100
AcDbLine
 10
69.300669
 20
112.112069
 30
0.0
 11
69.903102
 21
112.112069
 31
0.0
  0
LWPOLYLINE
  5
B8
100
AcDbEntity
  8
ALPHA
100
AcDbPolyline
 90
       22
 70
     0
 43
0.0
 10
67.000669
 20
111.194699
 10
67.035657
 20
111.195934
 10
67.070365
 20
111.199632
 10
67.104456
 20
111.205756
 10
67.137652
 20
111.214254
 10
67.169627
 20
111.225037
 10
67.200134
 20
111.23802
 10
67.228853
 20
111.253059
 10
67.255568
 20
111.270037
 10
67.279995
 20
111.288769
 10
67.301971
 20
111.309137
 10
67.321194
 20
111.330865
 10
67.33748
 20
111.353717
 10
67.350733
 20
111.377548
 10
67.360848
 20
111.402238
 10
67.367653
 20
111.427462
 10
67.371056
 20
111.452863
 10
67.371055
 20
111.478153
 10
67.367648
 20
111.503337
 10
67.36084
 20
111.528116
 10
67.350725
 20
111.55215
 10
67.341
 20
111.569628
  0
LINE
  5
D0
100
AcDbEntity
  8
ALPHA
100
AcDbLine
 10
82.688169
 20
108.032065
 30
0.0
 11
82.742336
 21
108.117172
 31
0.0
  0
LINE
  5
D1
100
AcDbEntity
  8
ALPHA
100
AcDbLine
 10
82.688169
 20
108.925682
 30
0.0
 11
82.742336
 21
109.010789
 31
0.0
  0
LINE
  5
D2
100
AcDbEntity
  8
ALPHA
100
AcDbLine
 10
82.038169
 20
108.372491
 30
0.0
 11
82.092336
 21
108.457597
 31
0.0
  0
LINE
  5
D3
100
AcDbEntity
  8
ALPHA
100
AcDbLine
 10
82.119419
 20
107.478874
 30
0.0
 11
82.200669
 21
107.649086
 31
0.0
  0
LINE
  5
D4
100
AcDbEntity
  8
ALPHA
100
AcDbLine
 10
82.525669
 20
108.968235
 30
0.0
 11
82.606919
 21
109.138448
 31
0.0
  0
LINE
  5
D5
100
AcDbEntity
  8
ALPHA
100
AcDbLine
 10
82.038169
 20
107.649086
 30
0.0
 11
82.092336
 21
107.776746
 31
0.0
  0
LINE
  5
D6
100
AcDbEntity
  8
ALPHA
100
AcDbLine
 10
81.469419
 20
108.840576
 30
0.0
 11
81.523586
 21
108.968235
 31
0.0
  0
LINE
  5
D7
100
AcDbEntity
  8
ALPHA
100
AcDbLine
 10
81.306919
 20
108.75547
 30
0.0
 11
81.361086
 21
108.968235
 31
0.0
  0
LINE
  5
D8
100
AcDbEntity
  8
ALPHA
100
AcDbLine
 10
80.169419
 20
108.62781
 30
0.0
 11
80.196502
 21
108.798023
 31
0.0
  0
LINE
  5
D9
100
AcDbEntity
  8
ALPHA
100
AcDbLine
 10
80.006919
 20
108.62781
 30
0.0
 11
80.034002
 21
108.840576
 31
0.0
  0
LINE
  5
DA
100
AcDbEntity
  8
ALPHA
100
AcDbLine
 10
80.169419
 20
107.989512
 30
0.0
 11
80.169419
 21
108.62781
 31
0.0
  0
LINE
  5
DB
100
AcDbEntity
  8
ALPHA
100
AcDbLine
 10
80.006919
 20
107.989512
 30
0.0
 11
80.006919
 21
108.62781
 31
0.0
  0
LINE
  5
DC
100
AcDbEntity
  8
ALPHA
100
AcDbLine
 10
79.790252
 20
109.095895
 30
0.0
 11
79.790252
 21
109.308661
 31
0.0
  0
LINE
  5
DD
100
AcDbEntity
  8
ALPHA
100
AcDbLine
 10
79.654836
 20
109.095895
 30
0.0
 11
79.654836
 21
109.308661
 31
0.0
  0
LINE
  5
DE
100
AcDbEntity
  8
ALPHA
100
AcDbLine
 10
79.600669
 20
107.108661
 30
0.0
 11
79.600669
 21
104.508661
 31
0.0
  0
LINE
  5
DF
100
AcDbEntity
  8
ALPHA
100
AcDbLine
 10
80.304836
 20
107.351214
 30
0.0
 11
80.196502
 21
107.436321
 31
0.0
  0
LINE
  5
E0
100
AcDbEntity
  8
ALPHA
100
AcDbLine
 10
81.713169
 20
107.521427
 30
0.0
 11
81.631919
 21
107.56398
 31
0.0
  0
LINE
  5
E1
100
AcDbEntity
  8
ALPHA
100
AcDbLine
 10
81.713169
 20
108.032065
 30
0.0
 11
81.577753
 21
108.074618
 31
0.0
  0
LINE
  5
E2
100
AcDbEntity
  8
ALPHA
100
AcDbLine
 10
71.003456
 20
111.194412
 30
0.0
 11
81.311778
 21
110.488618
 31
0.0
  0
LINE
  5
E3
100
AcDbEntity
  8
ALPHA
100
AcDbLine
 10
84.600669
 20
111.29874
 30
0.0
 11
89.600669
 21
111.29874
 31
0.0
  0
LINE
  5
E4
100
AcDbEntity
  8
ALPHA
100
AcDbLine
 10
69.903102
 20
110.733068
 30
0.0
 11
70.610526
 21
110.733068
 31
0.0
  0
LINE
  5
E5
100
AcDbEntity
  8
ALPHA
100
AcDbLine
 10
89.600669
 20
110.733055
 30
0.0
 11
84.600669
 21
110.733055
 31
0.0
  0
LINE
  5
E6
100
AcDbEntity
  8
ALPHA
100
AcDbLine
 10
69.839498
 20
110.208661
 30
0.0
 11
70.563451
 21
110.208661
 31
0.0
  0
LINE
  5
E7
100
AcDbEntity
  8
ALPHA
100
AcDbLine
 10
78.100669
 20
110.091075
 30
0.0
 11
69.300669
 21
110.091075
 31
0.0
  0
LINE
  5
E8
100
AcDbEntity
  8
ALPHA
100
AcDbLine
 10
81.984003
 20
107.351214
 30
0.0
 11
82.119419
 21
107.478874
 31
0.0
  0
LINE
  5
E9
100
AcDbEntity
  8
ALPHA
100
AcDbLine
 10
81.956919
 20
107.56398
 30
0.0
 11
82.038169
 21
107.649086
 31
0.0
  0
LINE
  5
EA
100
AcDbEntity
  8
ALPHA
100
AcDbLine
 10
81.984003
 20
108.074618
 30
0.0
 11
82.146502
 21
108.244831
 31
0.0
  0
LINE
  5
EB
100
AcDbEntity
  8
ALPHA
100
AcDbLine
 10
82.606919
 20
109.138448
 30
0.0
 11
82.715252
 21
109.266108
 31
0.0
  0
LINE
  5
EC
100
AcDbEntity
  8
ALPHA
100
AcDbLine
 10
81.361086
 20
108.968235
 30
0.0
 11
81.442336
 21
109.138448
 31
0.0
  0
LINE
  5
ED
100
AcDbEntity
  8
ALPHA
100
AcDbLine
 10
80.196502
 20
108.798023
 30
0.0
 11
80.250669
 21
108.925682
 31
0.0
  0
LINE
  5
EE
100
AcDbEntity
  8
ALPHA
100
AcDbLine
 10
80.034002
 20
108.840576
 30
0.0
 11
80.088169
 21
109.010789
 31
0.0
  0
LINE
  5
EF
100
AcDbEntity
  8
ALPHA
100
AcDbLine
 10
79.200669
 20
107.108661
 30
0.0
 11
79.200669
 21
109.508661
 31
0.0
  0
LINE
  5
F0
100
AcDbEntity
  8
ALPHA
100
AcDbLine
 10
78.725669
 20
98.433661
 30
0.0
 11
78.725669
 21
113.183661
 31
0.0
  0
LINE
  5
F1
100
AcDbEntity
  8
ALPHA
100
AcDbLine
 10
78.100669
 20
98.483661
 30
0.0
 11
78.100669
 21
110.091075
 31
0.0
  0
LINE
  5
F2
100
AcDbEntity
  8
ALPHA
100
AcDbLine
 10
78.100669
 20
113.133661
 30
0.0
 11
78.100669
 21
112.565948
 31
0.0
  0
LINE
  5
F3
100
AcDbEntity
  8
ALPHA
100
AcDbLine
 10
80.440252
 20
107.56398
 30
0.0
 11
80.331919
 21
107.606533
 31
0.0
  0
LINE
  5
F4
100
AcDbEntity
  8
ALPHA
100
AcDbLine
 10
82.850669
 20
107.308661
 30
0.0
 11
82.715252
 21
107.351214
 31
0.0
  0
LINE
  5
F5
100
AcDbEntity
  8
ALPHA
100
AcDbLine
 10
81.740252
 20
107.308661
 30
0.0
 11
81.604836
 21
107.351214
 31
0.0
  0
LINE
  5
F6
100
AcDbEntity
  8
ALPHA
100
AcDbLine
 10
80.440252
 20
107.308661
 30
0.0
 11
80.304836
 21
107.351214
 31
0.0
  0
LINE
  5
F7
100
AcDbEntity
  8
ALPHA
100
AcDbLine
 10
85.200669
 20
109.508661
 30
0.0
 11
79.200669
 21
109.508661
 31
0.0
  0
LINE
  5
F8
100
AcDbEntity
  8
ALPHA
100
AcDbLine
 10
79.790252
 20
109.308661
 30
0.0
 11
79.654836
 21
109.308661
 31
0.0
  0
LINE
  5
F9
100
AcDbEntity
  8
ALPHA
100
AcDbLine
 10
81.090252
 20
109.308661
 30
0.0
 11
80.440252
 21
109.308661
 31
0.0
  0
LINE
  5
FA
100
AcDbEntity
  8
ALPHA
100
AcDbLine
 10
81.848586
 20
109.308661
 30
0.0
 11
81.713169
 21
109.308661
 31
0.0
  0
LINE
  5
FB
100
AcDbEntity
  8
ALPHA
100
AcDbLine
 10
83.500669
 20
109.308661
 30
0.0
 11
82.850669
 21
109.308661
 31
0.0
  0
LINE
  5
FC
100
AcDbEntity
  8
ALPHA
100
AcDbLine
 10
84.800669
 20
109.308661
 30
0.0
 11
83.717336
 21
109.308661
 31
0.0
  0
LINE
  5
FD
100
AcDbEntity
  8
ALPHA
100
AcDbLine
 10
89.600669
 20
109.258661
 30
0.0
 11
85.700669
 21
109.258661
 31
0.0
  0
LINE
  5
FE
100
AcDbEntity
  8
ALPHA
100
AcDbLine
 10
79.790252
 20
109.095895
 30
0.0
 11
79.654836
 21
109.095895
 31
0.0
  0
LINE
  5
FF
100
AcDbEntity
  8
ALPHA
100
AcDbLine
 10
81.875669
 20
109.095895
 30
0.0
 11
81.686086
 21
109.095895
 31
0.0
  0
LINE
  5
100
100
AcDbEntity
  8
ALPHA
100
AcDbLine
 10
80.927752
 20
109.053342
 30
0.0
 11
80.440252
 21
109.053342
 31
0.0
  0
LINE
  5
101
100
AcDbEntity
  8
ALPHA
100
AcDbLine
 10
83.338169
 20
109.053342
 30
0.0
 11
82.823586
 21
109.053342
 31
0.0
  0
LINE
  5
102
100
AcDbEntity
  8
ALPHA
100
AcDbLine
 10
84.638169
 20
109.053342
 30
0.0
 11
83.717336
 21
109.053342
 31
0.0
  0
LINE
  5
103
100
AcDbEntity
  8
ALPHA
100
AcDbLine
 10
85.700669
 20
108.758661
 30
0.0
 11
90.000669
 21
108.758661
 31
0.0
  0
LWPOLYLINE
  5
104
100
AcDbEntity
  8
ALPHA
100
AcDbPolyline
 90
        3
 70
     0
 43
0.0
 10
76.17774
 20
110.091075
 10
79.893111
 20
110.383181
 10
84.600669
 20
110.733055
  0
LINE
  5
109
100
AcDbEntity
  8
ALPHA
100
AcDbLine
 10
82.606919
 20
108.244831
 30
0.0
 11
82.661086
 21
108.287384
 31
0.0
  0
LINE
  5
10A
100
AcDbEntity
  8
ALPHA
100
AcDbLine
 10
81.956919
 20
108.287384
 30
0.0
 11
82.038169
 21
108.372491
 31
0.0
  0
LINE
  5
10B
100
AcDbEntity
  8
ALPHA
100
AcDbLine
 10
81.523586
 20
108.968235
 30
0.0
 11
81.604836
 21
109.053342
 31
0.0
  0
LINE
  5
10C
100
AcDbEntity
  8
ALPHA
100
AcDbLine
 10
80.088169
 20
109.010789
 30
0.0
 11
80.196502
 21
109.181001
 31
0.0
  0
LINE
  5
10D
100
AcDbEntity
  8
ALPHA
100
AcDbLine
 10
83.338169
 20
108.415044
 30
0.0
 11
82.823586
 21
108.415044
 31
0.0
  0
LINE
  5
10E
100
AcDbEntity
  8
ALPHA
100
AcDbLine
 10
81.875669
 20
108.244831
 30
0.0
 11
81.686086
 21
108.244831
 31
0.0
  0
LINE
  5
10F
100
AcDbEntity
  8
ALPHA
100
AcDbLine
 10
83.338169
 20
108.159725
 30
0.0
 11
82.823586
 21
108.159725
 31
0.0
  0
LINE
  5
110
100
AcDbEntity
  8
ALPHA
100
AcDbLine
 10
81.848586
 20
108.032065
 30
0.0
 11
81.713169
 21
108.032065
 31
0.0
  0
LINE
  5
111
100
AcDbEntity
  8
ALPHA
100
AcDbLine
 10
59.400669
 20
107.808661
 30
0.0
 11
60.049499
 21
107.808661
 31
0.0
  0
LINE
  5
112
100
AcDbEntity
  8
ALPHA
100
AcDbLine
 10
81.496502
 20
107.776746
 30
0.0
 11
81.361086
 21
107.776746
 31
0.0
  0
LINE
  5
113
100
AcDbEntity
  8
ALPHA
100
AcDbLine
 10
80.927752
 20
107.56398
 30
0.0
 11
80.440252
 21
107.56398
 31
0.0
  0
LINE
  5
114
100
AcDbEntity
  8
ALPHA
100
AcDbLine
 10
83.338169
 20
107.56398
 30
0.0
 11
82.823586
 21
107.56398
 31
0.0
  0
LINE
  5
115
100
AcDbEntity
  8
ALPHA
100
AcDbLine
 10
81.875669
 20
107.521427
 30
0.0
 11
81.713169
 21
107.521427
 31
0.0
  0
LINE
  5
116
100
AcDbEntity
  8
ALPHA
100
AcDbLine
 10
84.800669
 20
107.521427
 30
0.0
 11
83.852752
 21
107.521427
 31
0.0
  0
LINE
  5
117
100
AcDbEntity
  8
ALPHA
100
AcDbLine
 10
81.875669
 20
107.521427
 30
0.0
 11
81.956919
 21
107.56398
 31
0.0
  0
LINE
  5
118
100
AcDbEntity
  8
ALPHA
100
AcDbLine
 10
82.742336
 20
108.117172
 30
0.0
 11
82.823586
 21
108.159725
 31
0.0
  0
LINE
  5
119
100
AcDbEntity
  8
ALPHA
100
AcDbLine
 10
81.875669
 20
108.244831
 30
0.0
 11
81.956919
 21
108.287384
 31
0.0
  0
LINE
  5
11A
100
AcDbEntity
  8
ALPHA
100
AcDbLine
 10
81.442336
 20
109.138448
 30
0.0
 11
81.577753
 21
109.266108
 31
0.0
  0
LINE
  5
11B
100
AcDbEntity
  8
ALPHA
100
AcDbLine
 10
80.250669
 20
108.925682
 30
0.0
 11
80.331919
 21
109.010789
 31
0.0
  0
LINE
  5
11C
100
AcDbEntity
  8
ALPHA
100
AcDbLine
 10
81.090252
 20
107.308661
 30
0.0
 11
80.440252
 21
107.308661
 31
0.0
  0
LINE
  5
11D
100
AcDbEntity
  8
ALPHA
100
AcDbLine
 10
81.848586
 20
107.308661
 30
0.0
 11
81.740252
 21
107.308661
 31
0.0
  0
LINE
  5
11E
100
AcDbEntity
  8
ALPHA
100
AcDbLine
 10
83.500669
 20
107.308661
 30
0.0
 11
82.850669
 21
107.308661
 31
0.0
  0
LINE
  5
11F
100
AcDbEntity
  8
ALPHA
100
AcDbLine
 10
84.800669
 20
107.308661
 30
0.0
 11
83.717336
 21
107.308661
 31
0.0
  0
LINE
  5
120
100
AcDbEntity
  8
ALPHA
100
AcDbLine
 10
88.500669
 20
107.308661
 30
0.0
 11
85.700669
 21
107.308661
 31
0.0
  0
LINE
  5
121
100
AcDbEntity
  8
ALPHA
100
AcDbLine
 10
85.200669
 20
107.108661
 30
0.0
 11
79.200669
 21
107.108661
 31
0.0
  0
LINE
  5
122
100
AcDbEntity
  8
ALPHA
100
AcDbLine
 10
81.848586
 20
107.308661
 30
0.0
 11
81.984003
 21
107.351214
 31
0.0
  0
LINE
  5
123
100
AcDbEntity
  8
ALPHA
100
AcDbLine
 10
81.848586
 20
108.032065
 30
0.0
 11
81.984003
 21
108.074618
 31
0.0
  0
LINE
  5
124
100
AcDbEntity
  8
ALPHA
100
AcDbLine
 10
82.742336
 20
109.010789
 30
0.0
 11
82.823586
 21
109.053342
 31
0.0
  0
LINE
  5
125
100
AcDbEntity
  8
ALPHA
100
AcDbLine
 10
81.604836
 20
109.053342
 30
0.0
 11
81.686086
 21
109.095895
 31
0.0
  0
LINE
  5
126
100
AcDbEntity
  8
ALPHA
100
AcDbLine
 10
80.196502
 20
109.181001
 30
0.0
 11
80.304836
 21
109.266108
 31
0.0
  0
LINE
  5
127
100
AcDbEntity
  8
ALPHA
100
AcDbLine
 10
87.800669
 20
102.131706
 30
0.0
 11
88.400669
 21
102.018025
 31
0.0
  0
LINE
  5
128
100
AcDbEntity
  8
ALPHA
100
AcDbLine
 10
82.715252
 20
109.266108
 30
0.0
 11
82.850669
 21
109.308661
 31
0.0
  0
LINE
  5
129
100
AcDbEntity
  8
ALPHA
100
AcDbLine
 10
81.577753
 20
109.266108
 30
0.0
 11
81.713169
 21
109.308661
 31
0.0
  0
LINE
  5
12A
100
AcDbEntity
  8
ALPHA
100
AcDbLine
 10
80.331919
 20
109.010789
 30
0.0
 11
80.440252
 21
109.053342
 31
0.0
  0
LWPOLYLINE
  5
12B
100
AcDbEntity
  8
ALPHA
100
AcDbPolyline
 90
       32
 70
     0
 43
0.0
 10
83.656293
 20
100.546449
 10
83.639598
 20
100.540582
 10
83.622938
 20
100.534946
 10
83.606311
 20
100.529537
 10
83.589714
 20
100.524352
 10
83.573145
 20
100.519385
 10
83.5566
 20
100.514632
 10
83.540079
 20
100.51009
 10
83.523582
 20
100.505756
 10
83.507112
 20
100.501628
 10
83.490674
 20
100.497704
 10
83.474269
 20
100.493982
 10
83.457899
 20
100.490461
 10
83.441564
 20
100.487137
 10
83.425261
 20
100.484008
 10
83.408986
 20
100.481071
 10
83.392738
 20
100.478322
 10
83.376514
 20
100.47576
 10
83.36031
 20
100.473383
 10
83.344123
 20
100.471188
 10
83.32795
 20
100.469174
 10
83.311787
 20
100.467339
 10
83.295632
 20
100.465682
 10
83.279484
 20
100.464203
 10
83.263344
 20
100.462899
 10
83.247215
 20
100.461771
 10
83.231096
 20
100.460819
 10
83.214989
 20
100.46004
 10
83.198893
 20
100.459436
 10
83.182808
 20
100.459005
 10
83.166733
 20
100.458747
 10
83.150669
 20
100.458661
  0
LWPOLYLINE
  5
14D
100
AcDbEntity
  8
ALPHA
100
AcDbPolyline
 90
      200
 70
     0
 43
0.0
 10
83.150669
 20
103.458661
 10
83.170958
 20
103.458524
 10
83.191228
 20
103.458113
 10
83.211482
 20
103.457429
 10
83.23172
 20
103.45647
 10
83.251946
 20
103.455238
 10
83.27216
 20
103.453732
 10
83.292357
 20
103.451953
 10
83.312531
 20
103.449901
 10
83.332675
 20
103.447577
 10
83.352784
 20
103.444982
 10
83.372851
 20
103.442115
 10
83.392874
 20
103.438978
 10
83.412852
 20
103.435571
 10
83.432782
 20
103.431894
 10
83.452663
 20
103.427947
 10
83.472491
 20
103.42373
 10
83.492263
 20
103.419246
 10
83.511969
 20
103.414497
 10
83.531605
 20
103.409483
 10
83.551164
 20
103.404207
 10
83.57064
 20
103.398671
 10
83.590032
 20
103.392873
 10
83.609343
 20
103.386815
 10
83.628573
 20
103.380495
 10
83.647723
 20
103.373913
 10
83.666793
 20
103.367069
 10
83.685778
 20
103.359966
 10
83.70467
 20
103.352605
 10
83.723462
 20
103.344989
 10
83.742148
 20
103.337121
 10
83.760721
 20
103.329003
 10
83.779179
 20
103.320637
 10
83.797519
 20
103.312022
 10
83.815739
 20
103.303162
 10
83.833838
 20
103.294056
 10
83.851813
 20
103.284706
 10
83.869662
 20
103.275114
 10
83.887383
 20
103.26528
 10
83.904972
 20
103.255206
 10
83.922428
 20
103.244891
 10
83.939747
 20
103.234339
 10
83.956925
 20
103.223552
 10
83.973958
 20
103.212532
 10
83.990841
 20
103.201283
 10
84.007568
 20
103.189809
 10
84.024136
 20
103.178111
 10
84.040543
 20
103.166191
 10
84.056792
 20
103.154046
 10
84.07288
 20
103.141678
 10
84.088809
 20
103.129086
 10
84.104577
 20
103.116269
 10
84.12018
 20
103.103232
 10
84.135613
 20
103.089979
 10
84.150868
 20
103.076516
 10
84.165941
 20
103.062845
 10
84.180826
 20
103.048972
 10
84.195524
 20
103.034897
 10
84.210033
 20
103.020618
 10
84.224354
 20
103.006135
 10
84.238489
 20
102.991448
 10
84.252435
 20
102.976556
 10
84.26619
 20
102.961462
 10
84.279748
 20
102.946171
 10
84.293107
 20
102.930687
 10
84.30626
 20
102.915013
 10
84.319205
 20
102.899154
 10
84.331939
 20
102.883109
 10
84.34446
 20
102.866881
 10
84.356769
 20
102.85047
 10
84.368863
 20
102.833877
 10
84.380741
 20
102.817103
 10
84.392401
 20
102.800149
 10
84.403839
 20
102.783018
 10
84.415054
 20
102.765712
 10
84.426043
 20
102.748232
 10
84.436803
 20
102.73058
 10
84.447331
 20
102.71276
 10
84.457624
 20
102.694776
 10
84.467679
 20
102.676632
 10
84.477493
 20
102.658331
 10
84.487062
 20
102.639877
 10
84.496385
 20
102.62127
 10
84.505462
 20
102.602509
 10
84.514289
 20
102.583595
 10
84.522868
 20
102.564525
 10
84.531194
 20
102.545302
 10
84.539267
 20
102.525929
 10
84.54708
 20
102.506413
 10
84.554632
 20
102.486758
 10
84.561917
 20
102.46697
 10
84.568934
 20
102.447054
 10
84.575679
 20
102.427011
 10
84.582151
 20
102.406838
 10
84.58835
 20
102.386537
 10
84.594272
 20
102.366105
 10
84.599917
 20
102.345543
 10
84.605281
 20
102.324858
 10
84.610361
 20
102.304054
 10
84.615152
 20
102.28314
 10
84.619652
 20
102.262122
 10
84.623857
 20
102.241006
 10
84.627766
 20
102.219792
 10
84.631375
 20
102.198482
 10
84.634683
 20
102.177076
 10
84.637688
 20
102.155574
 10
84.640388
 20
102.133979
 10
84.64278
 20
102.112293
 10
84.644861
 20
102.090523
 10
84.646629
 20
102.068673
 10
84.64808
 20
102.046748
 10
84.649212
 20
102.024754
 10
84.650023
 20
102.002696
 10
84.650509
 20
101.980579
 10
84.650669
 20
101.958407
 10
84.650501
 20
101.936187
 10
84.650002
 20
101.913922
 10
84.64917
 20
101.891619
 10
84.648004
 20
101.869282
 10
84.646501
 20
101.846916
 10
84.64466
 20
101.824525
 10
84.642478
 20
101.802116
 10
84.639954
 20
101.779695
 10
84.637088
 20
101.757269
 10
84.633877
 20
101.734845
 10
84.630321
 20
101.712429
 10
84.626418
 20
101.690028
 10
84.622169
 20
101.667651
 10
84.617573
 20
101.645306
 10
84.61263
 20
101.623
 10
84.607342
 20
101.600743
 10
84.601707
 20
101.57854
 10
84.595725
 20
101.556395
 10
84.589395
 20
101.534313
 10
84.582716
 20
101.512295
 10
84.575688
 20
101.490345
 10
84.56831
 20
101.468467
 10
84.560584
 20
101.44667
 10
84.552513
 20
101.424966
 10
84.544098
 20
101.403365
 10
84.535343
 20
101.381877
 10
84.526249
 20
101.360515
 10
84.516822
 20
101.339287
 10
84.507066
 20
101.318203
 10
84.496985
 20
101.297273
 10
84.486583
 20
101.276507
 10
84.475865
 20
101.255914
 10
84.464838
 20
101.235502
 10
84.453506
 20
101.215281
 10
84.441876
 20
101.195258
 10
84.429954
 20
101.175443
 10
84.417746
 20
101.155843
 10
84.405258
 20
101.136466
 10
84.392499
 20
101.117319
 10
84.379476
 20
101.098409
 10
84.366195
 20
101.079742
 10
84.352664
 20
101.061327
 10
84.338892
 20
101.043169
 10
84.324886
 20
101.025273
 10
84.310656
 20
101.007646
 10
84.29621
 20
100.990293
 10
84.281556
 20
100.97322
 10
84.266705
 20
100.956433
 10
84.251667
 20
100.939936
 10
84.236452
 20
100.923734
 10
84.221071
 20
100.907833
 10
84.205535
 20
100.892237
 10
84.18985
 20
100.876947
 10
84.174026
 20
100.861965
 10
84.158071
 20
100.847291
 10
84.141993
 20
100.832927
 10
84.125799
 20
100.818872
 10
84.109503
 20
100.80513
 10
84.093114
 20
100.791702
 10
84.076645
 20
100.778591
 10
84.060108
 20
100.765798
 10
84.043513
 20
100.753326
 10
84.026864
 20
100.741169
 10
84.010166
 20
100.729324
 10
83.993421
 20
100.717786
 10
83.976633
 20
100.706549
 10
83.959806
 20
100.695611
 10
83.942946
 20
100.684967
 10
83.926059
 20
100.674617
 10
83.909153
 20
100.664559
 10
83.892235
 20
100.65479
 10
83.875309
 20
100.645308
 10
83.858382
 20
100.636109
 10
83.841458
 20
100.627192
 10
83.824541
 20
100.61855
 10
83.807636
 20
100.610183
 10
83.790747
 20
100.602084
 10
83.773875
 20
100.59425
 10
83.75702
 20
100.586677
 10
83.740182
 20
100.579358
 10
83.723361
 20
100.57229
 10
83.706559
 20
100.565468
 10
83.689777
 20
100.55889
 10
83.673021
 20
100.552551
 10
83.656293
 20
100.546449
  0
LINE
  5
217
100
AcDbEntity
  8
ALPHA
100
AcDbLine
 10
84.200669
 20
104.508661
 30
0.0
 11
79.600669
 21
104.508661
 31
0.0
  0
LINE
  5
218
100
AcDbEntity
  8
ALPHA
100
AcDbLine
 10
88.500669
 20
104.308661
 30
0.0
 11
85.700669
 21
104.308661
 31
0.0
  0
LINE
  5
219
100
AcDbEntity
  8
ALPHA
100
AcDbLine
 10
59.400669
 20
103.808661
 30
0.0
 11
60.049499
 21
103.808661
 31
0.0
  0
LINE
  5
21A
100
AcDbEntity
  8
ALPHA
100
AcDbLine
 10
80.304836
 20
109.266108
 30
0.0
 11
80.440252
 21
109.308661
 31
0.0
  0
LWPOLYLINE
  5
21B
100
AcDbEntity
  8
ALPHA
100
AcDbPolyline
 90
       11
 70
     0
 43
0.0
 10
67.340993
 20
100.047683
 10
67.324917
 20
100.023643
 10
67.299
 20
99.991417
 10
67.269484
 20
99.961666
 10
67.234247
 20
99.933155
 10
67.198909
 20
99.910452
 10
67.160533
 20
99.891207
 10
67.120533
 20
99.876254
 10
67.081165
 20
99.866056
 10
67.040269
 20
99.859838
 10
67.000669
 20
99.857873
  0
LINE
  5
228
100
AcDbEntity
  8
ALPHA
100
AcDbLine
 10
85.700669
 20
102.858661
 30
0.0
 11
90.000669
 21
102.858661
 31
0.0
  0
LINE
  5
229
100
AcDbEntity
  8
ALPHA
100
AcDbLine
 10
85.700669
 20
102.358661
 30
0.0
 11
89.600669
 21
102.358661
 31
0.0
  0
LINE
  5
22A
100
AcDbEntity
  8
ALPHA
100
AcDbLine
 10
87.800669
 20
102.131706
 30
0.0
 11
85.700669
 21
102.131706
 31
0.0
  0
LINE
  5
22B
100
AcDbEntity
  8
ALPHA
100
AcDbLine
 10
89.600669
 20
102.008661
 30
0.0
 11
85.700669
 21
102.008661
 31
0.0
  0
LWPOLYLINE
  5
22C
100
AcDbEntity
  8
ALPHA
100
AcDbPolyline
 90
       22
 70
     0
 43
0.0
 10
67.340993
 20
100.047683
 10
67.350733
 20
100.065187
 10
67.360848
 20
100.089229
 10
67.367653
 20
100.114008
 10
67.371056
 20
100.139183
 10
67.371055
 20
100.164473
 10
67.367648
 20
100.189883
 10
67.36084
 20
100.215108
 10
67.350725
 20
100.239789
 10
67.337475
 20
100.263613
 10
67.321185
 20
100.286468
 10
67.301965
 20
100.308191
 10
67.279994
 20
100.328554
 10
67.255573
 20
100.347282
 10
67.228856
 20
100.364261
 10
67.200139
 20
100.3793
 10
67.169629
 20
100.392284
 10
67.137657
 20
100.403067
 10
67.104459
 20
100.411566
 10
67.07037
 20
100.417689
 10
67.035659
 20
100.421387
 10
67.000669
 20
100.422623
  0
LWPOLYLINE
  5
244
100
AcDbEntity
  8
ALPHA
100
AcDbPolyline
 90
        3
 70
     0
 43
0.0
 10
70.555255
 20
110.091075
 10
70.589532
 20
110.582834
 10
70.658534
 20
111.076606
  0
LWPOLYLINE
  5
249
100
AcDbEntity
  8
ALPHA
100
AcDbPolyline
 90
        4
 70
     0
 43
0.0
 10
70.90134
 20
110.091075
 10
70.90134
 20
110.223951
 10
70.935406
 20
110.710075
 10
71.003456
 20
111.194412
  0
LINE
  5
24F
100
AcDbEntity
  8
ALPHA
100
AcDbLine
 10
70.658534
 20
112.112069
 30
0.0
 11
70.658534
 21
111.076606
 31
0.0
  0
LWPOLYLINE
  5
250
100
AcDbEntity
  8
ALPHA
100
AcDbPolyline
 90
       22
 70
     0
 43
0.0
 10
67.000669
 20
100.422623
 10
66.965681
 20
100.421387
 10
66.930973
 20
100.41769
 10
66.896882
 20
100.411566
 10
66.863686
 20
100.403068
 10
66.831712
 20
100.392285
 10
66.801204
 20
100.379302
 10
66.772486
 20
100.364263
 10
66.74577
 20
100.347285
 10
66.721343
 20
100.328553
 10
66.699367
 20
100.308185
 10
66.680144
 20
100.286457
 10
66.663858
 20
100.263605
 10
66.650605
 20
100.239774
 10
66.640491
 20
100.215084
 10
66.633685
 20
100.18986
 10
66.630282
 20
100.164459
 10
66.630283
 20
100.139169
 10
66.63369
 20
100.113985
 10
66.640499
 20
100.089206
 10
66.650613
 20
100.065172
 10
66.660338
 20
100.047694
  0
LWPOLYLINE
  5
268
100
AcDbEntity
  8
ALPHA
100
AcDbPolyline
 90
        5
 70
     0
 43
0.0
 10
69.903102
 20
110.733068
 10
69.876345
 20
110.613429
 10
69.853471
 20
110.483914
 10
69.834591
 20
110.344769
 10
69.831281
 20
110.311527
  0
LWPOLYLINE
  5
26F
100
AcDbEntity
  8
ALPHA
100
AcDbPolyline
 90
        7
 70
     0
 43
0.0
 10
69.903102
 20
112.112069
 10
69.869302
 20
111.937625
 10
69.842195
 20
111.752277
 10
69.821851
 20
111.556521
 10
69.808297
 20
111.350802
 10
69.801517
 20
111.135098
 10
69.800669
 20
111.023575
  0
LINE
  5
278
100
AcDbEntity
  8
ALPHA
100
AcDbLine
 10
69.903102
 20
110.733068
 30
0.0
 11
69.903102
 21
112.112069
 31
0.0
  0
LINE
  5
279
100
AcDbEntity
  8
ALPHA
100
AcDbLine
 10
69.300669
 20
110.091075
 30
0.0
 11
69.300669
 21
112.565948
 31
0.0
  0
LWPOLYLINE
  5
27A
100
AcDbEntity
  8
ALPHA
100
AcDbPolyline
 90
        6
 70
     0
 43
0.0
 10
69.800669
 20
111.023575
 10
69.801516
 20
110.909623
 10
69.808296
 20
110.674401
 10
69.82185
 20
110.429576
 10
69.842194
 20
110.174913
 10
69.850795
 20
110.091075
  0
LWPOLYLINE
  5
282
100
AcDbEntity
  8
ALPHA
100
AcDbPolyline
 90
       12
 70
     0
 43
0.0
 10
67.000669
 20
99.857873
 10
66.961911
 20
99.859755
 10
66.923573
 20
99.865373
 10
66.887723
 20
99.87415
 10
66.853002
 20
99.886128
 10
66.818223
 20
99.901905
 10
66.789062
 20
99.918428
 10
66.760042
 20
99.938344
 10
66.731218
 20
99.962245
 10
66.705685
 20
99.987716
 10
66.682243
 20
100.015789
 10
66.660338
 20
100.047694
  0
LWPOLYLINE
  5
290
100
AcDbEntity
  8
ALPHA
100
AcDbPolyline
 90
       32
 70
     0
 43
0.0
 10
82.540612
 20
103.329001
 10
82.559185
 20
103.337119
 10
82.577871
 20
103.344987
 10
82.596664
 20
103.352603
 10
82.615556
 20
103.359964
 10
82.63454
 20
103.367067
 10
82.653611
 20
103.373911
 10
82.672761
 20
103.380493
 10
82.691992
 20
103.386813
 10
82.711303
 20
103.392872
 10
82.730696
 20
103.39867
 10
82.750172
 20
103.404207
 10
82.769731
 20
103.409483
 10
82.789368
 20
103.414497
 10
82.809075
 20
103.419246
 10
82.828847
 20
103.42373
 10
82.848676
 20
103.427947
 10
82.868557
 20
103.431894
 10
82.888487
 20
103.435571
 10
82.908464
 20
103.438978
 10
82.928487
 20
103.442115
 10
82.948555
 20
103.444982
 10
82.968664
 20
103.447577
 10
82.988809
 20
103.449901
 10
83.008983
 20
103.451953
 10
83.029181
 20
103.453732
 10
83.049395
 20
103.455238
 10
83.069621
 20
103.45647
 10
83.089859
 20
103.457429
 10
83.110112
 20
103.458113
 10
83.130381
 20
103.458524
 10
83.150669
 20
103.458661
  0
LWPOLYLINE
  5
2B2
100
AcDbEntity
  8
ALPHA
100
AcDbPolyline
 90
      200
 70
     0
 43
0.0
 10
83.150669
 20
100.458661
 10
83.134607
 20
100.458747
 10
83.118533
 20
100.459005
 10
83.102449
 20
100.459436
 10
83.086354
 20
100.46004
 10
83.070247
 20
100.460818
 10
83.054128
 20
100.461771
 10
83.037998
 20
100.462899
 10
83.021858
 20
100.464202
 10
83.00571
 20
100.465682
 10
82.989554
 20
100.467339
 10
82.97339
 20
100.469173
 10
82.957216
 20
100.471187
 10
82.941029
 20
100.473382
 10
82.924825
 20
100.47576
 10
82.908601
 20
100.478322
 10
82.892354
 20
100.48107
 10
82.87608
 20
100.484008
 10
82.859777
 20
100.487137
 10
82.843442
 20
100.49046
 10
82.827074
 20
100.493981
 10
82.810669
 20
100.497703
 10
82.79423
 20
100.501627
 10
82.777761
 20
100.505755
 10
82.761263
 20
100.510089
 10
82.744741
 20
100.514631
 10
82.728196
 20
100.519384
 10
82.711627
 20
100.524351
 10
82.69503
 20
100.529537
 10
82.678403
 20
100.534945
 10
82.661742
 20
100.540581
 10
82.645046
 20
100.546449
 10
82.628318
 20
100.55255
 10
82.611561
 20
100.558889
 10
82.59478
 20
100.565468
 10
82.577977
 20
100.57229
 10
82.561157
 20
100.579358
 10
82.54432
 20
100.586676
 10
82.527465
 20
100.594249
 10
82.510594
 20
100.602083
 10
82.493705
 20
100.610181
 10
82.476801
 20
100.618548
 10
82.459885
 20
100.627189
 10
82.442962
 20
100.636107
 10
82.426035
 20
100.645304
 10
82.40911
 20
100.654786
 10
82.392192
 20
100.664555
 10
82.375287
 20
100.674613
 10
82.358401
 20
100.684962
 10
82.341542
 20
100.695604
 10
82.324716
 20
100.706542
 10
82.30793
 20
100.717777
 10
82.291186
 20
100.729314
 10
82.274489
 20
100.741158
 10
82.257842
 20
100.753314
 10
82.241247
 20
100.765786
 10
82.224711
 20
100.778577
 10
82.208242
 20
100.791688
 10
82.191853
 20
100.805116
 10
82.175556
 20
100.818858
 10
82.159362
 20
100.832912
 10
82.143283
 20
100.847277
 10
82.127328
 20
100.86195
 10
82.111504
 20
100.876932
 10
82.095819
 20
100.892222
 10
82.080282
 20
100.907818
 10
82.064901
 20
100.923719
 10
82.049685
 20
100.939921
 10
82.034647
 20
100.956418
 10
82.019795
 20
100.973205
 10
82.005141
 20
100.990278
 10
81.990694
 20
101.007631
 10
81.976464
 20
101.025258
 10
81.962459
 20
101.043153
 10
81.948686
 20
101.061311
 10
81.935155
 20
101.079726
 10
81.921874
 20
101.098392
 10
81.90885
 20
101.117303
 10
81.896091
 20
101.13645
 10
81.883603
 20
101.155827
 10
81.871394
 20
101.175427
 10
81.859472
 20
101.195242
 10
81.847842
 20
101.215263
 10
81.83651
 20
101.235484
 10
81.825483
 20
101.255895
 10
81.814765
 20
101.276488
 10
81.804363
 20
101.297254
 10
81.794282
 20
101.318183
 10
81.784525
 20
101.339267
 10
81.775097
 20
101.360495
 10
81.766004
 20
101.381858
 10
81.757248
 20
101.403345
 10
81.748833
 20
101.424947
 10
81.740761
 20
101.446652
 10
81.733034
 20
101.468449
 10
81.725655
 20
101.490328
 10
81.718627
 20
101.512279
 10
81.711948
 20
101.534298
 10
81.705617
 20
101.556382
 10
81.699635
 20
101.578528
 10
81.693999
 20
101.600732
 10
81.68871
 20
101.622991
 10
81.683768
 20
101.645297
 10
81.679171
 20
101.667643
 10
81.674922
 20
101.690021
 10
81.671018
 20
101.712421
 10
81.667462
 20
101.734838
 10
81.664251
 20
101.757263
 10
81.661385
 20
101.779689
 10
81.658861
 20
101.802111
 10
81.656679
 20
101.82452
 10
81.654838
 20
101.84691
 10
81.653335
 20
101.869276
 10
81.652168
 20
101.891613
 10
81.651337
 20
101.913916
 10
81.650838
 20
101.93618
 10
81.650669
 20
101.9584
 10
81.650829
 20
101.980572
 10
81.651315
 20
102.002689
 10
81.652126
 20
102.024747
 10
81.653257
 20
102.046741
 10
81.654709
 20
102.068665
 10
81.656476
 20
102.090515
 10
81.658557
 20
102.112286
 10
81.660949
 20
102.133972
 10
81.663649
 20
102.155568
 10
81.666654
 20
102.177069
 10
81.669962
 20
102.198475
 10
81.673571
 20
102.219785
 10
81.67748
 20
102.240999
 10
81.681685
 20
102.262116
 10
81.686185
 20
102.283134
 10
81.690976
 20
102.304048
 10
81.696056
 20
102.324851
 10
81.701419
 20
102.345536
 10
81.707064
 20
102.366098
 10
81.712987
 20
102.38653
 10
81.719185
 20
102.406832
 10
81.725657
 20
102.427004
 10
81.732402
 20
102.447048
 10
81.739418
 20
102.466964
 10
81.746704
 20
102.486751
 10
81.754256
 20
102.506406
 10
81.762069
 20
102.525923
 10
81.770141
 20
102.545296
 10
81.778468
 20
102.564519
 10
81.787046
 20
102.583588
 10
81.795874
 20
102.602503
 10
81.80495
 20
102.621264
 10
81.814273
 20
102.639871
 10
81.823842
 20
102.658325
 10
81.833656
 20
102.676626
 10
81.84371
 20
102.69477
 10
81.854004
 20
102.712754
 10
81.864532
 20
102.730574
 10
81.875292
 20
102.748226
 10
81.88628
 20
102.765706
 10
81.897495
 20
102.783013
 10
81.908934
 20
102.800144
 10
81.920593
 20
102.817097
 10
81.932471
 20
102.833872
 10
81.944565
 20
102.850465
 10
81.956874
 20
102.866876
 10
81.969396
 20
102.883104
 10
81.98213
 20
102.899149
 10
81.995074
 20
102.915008
 10
82.008228
 20
102.930682
 10
82.021586
 20
102.946167
 10
82.035144
 20
102.961458
 10
82.048899
 20
102.976551
 10
82.062845
 20
102.991443
 10
82.07698
 20
103.006131
 10
82.091301
 20
103.020614
 10
82.105811
 20
103.034893
 10
82.120508
 20
103.048968
 10
82.135393
 20
103.062841
 10
82.150466
 20
103.076512
 10
82.165721
 20
103.089975
 10
82.181153
 20
103.103228
 10
82.196756
 20
103.116265
 10
82.212525
 20
103.129082
 10
82.228454
 20
103.141675
 10
82.244542
 20
103.154043
 10
82.26079
 20
103.166187
 10
82.277198
 20
103.178108
 10
82.293766
 20
103.189806
 10
82.310493
 20
103.20128
 10
82.327375
 20
103.212529
 10
82.344408
 20
103.223548
 10
82.361586
 20
103.234336
 10
82.378905
 20
103.244888
 10
82.396361
 20
103.255203
 10
82.41395
 20
103.265277
 10
82.431671
 20
103.275111
 10
82.44952
 20
103.284704
 10
82.467495
 20
103.294054
 10
82.485594
 20
103.303159
 10
82.503815
 20
103.31202
 10
82.522155
 20
103.320634
 10
82.540612
 20
103.329001
  0
LINE
  5
37C
100
AcDbEntity
  8
ALPHA
100
AcDbLine
 10
71.003456
 20
111.194412
 30
0.0
 11
70.658534
 21
111.076606
 31
0.0
  0
LINE
  5
37D
100
AcDbEntity
  8
ALPHA
100
AcDbLine
 10
67.900669
 20
97.808662
 30
0.0
 11
67.900669
 21
113.80866
 31
0.0
  0
LINE
  5
37E
100
AcDbEntity
  8
ALPHA
100
AcDbLine
 10
84.600669
 20
99.158661
 30
0.0
 11
83.600669
 21
99.158661
 31
0.0
  0
LINE
  5
37F
100
AcDbEntity
  8
ALPHA
100
AcDbLine
 10
78.725669
 20
98.483661
 30
0.0
 11
67.900669
 21
98.483661
 31
0.0
  0
LINE
  5
380
100
AcDbEntity
  8
ALPHA
100
AcDbLine
 10
78.725669
 20
98.433661
 30
0.0
 11
67.900669
 21
98.433661
 31
0.0
  0
LINE
  5
381
100
AcDbEntity
  8
ALPHA
100
AcDbLine
 10
83.600669
 20
98.433661
 30
0.0
 11
78.725669
 21
98.433661
 31
0.0
  0
LINE
  5
382
100
AcDbEntity
  8
ALPHA
100
AcDbLine
 10
85.700669
 20
98.433661
 30
0.0
 11
84.600669
 21
98.433661
 31
0.0
  0
LWPOLYLINE
  5
383
100
AcDbEntity
  8
ALPHA
100
AcDbPolyline
 90
        4
 70
     0
 43
0.0
 10
87.099356
 20
98.592612
 10
86.635069
 20
98.570819
 10
86.168791
 20
98.550592
 10
85.700669
 20
98.531943
  0
LINE
  5
389
100
AcDbEntity
  8
ALPHA
100
AcDbLine
 10
66.200669
 20
97.108661
 30
0.0
 11
66.200669
 21
114.508661
 31
0.0
  0
LINE
  5
38A
100
AcDbEntity
  8
ALPHA
100
AcDbLine
 10
67.900669
 20
97.808661
 30
0.0
 11
66.200669
 21
97.808661
 31
0.0
  0
LINE
  5
38B
100
AcDbEntity
  8
ALPHA
100
AcDbLine
 10
65.600669
 20
97.108661
 30
0.0
 11
66.200669
 21
97.108661
 31
0.0
  0
LINE
  5
38C
100
AcDbEntity
  8
ALPHA
100
AcDbLine
 10
59.075574
 20
97.017999
 30
0.0
 11
58.327372
 21
97.017999
 31
0.0
  0
LINE
  5
38D
100
AcDbEntity
  8
ALPHA
100
AcDbLine
 10
58.940976
 20
96.965512
 30
0.0
 11
58.554221
 21
96.965512
 31
0.0
  0
LWPOLYLINE
  5
38E
100
AcDbEntity
  8
ALPHA
100
AcDbPolyline
 90
       17
 70
     0
 43
0.0
 10
58.554221
 20
96.965512
 10
58.540788
 20
96.965088
 10
58.525846
 20
96.96366
 10
58.509741
 20
96.961054
 10
58.492755
 20
96.957153
 10
58.475031
 20
96.95185
 10
58.456858
 20
96.945112
 10
58.438227
 20
96.936816
 10
58.419188
 20
96.926828
 10
58.399892
 20
96.915043
 10
58.380597
 20
96.901417
 10
58.361315
 20
96.8857
 10
58.342133
 20
96.867574
 10
58.323355
 20
96.846773
 10
58.305447
 20
96.823035
 10
58.289031
 20
96.796017
 10
58.275119
 20
96.765512
  0
LWPOLYLINE
  5
3A1
100
AcDbEntity
  8
ALPHA
100
AcDbPolyline
 90
       11
 70
     0
 43
0.0
 10
66.660346
 20
111.569639
 10
66.676421
 20
111.593679
 10
66.702338
 20
111.625905
 10
66.731854
 20
111.655656
 10
66.767091
 20
111.684167
 10
66.802429
 20
111.70687
 10
66.840805
 20
111.726115
 10
66.880806
 20
111.741068
 10
66.920173
 20
111.751266
 10
66.961069
 20
111.757484
 10
67.000669
 20
111.759449
  0
LWPOLYLINE
  5
3AE
100
AcDbEntity
  8
ALPHA
100
AcDbPolyline
 90
       22
 70
     0
 43
0.0
 10
66.660346
 20
111.569639
 10
66.650605
 20
111.552135
 10
66.640491
 20
111.528093
 10
66.633685
 20
111.503314
 10
66.630282
 20
111.478139
 10
66.630283
 20
111.452849
 10
66.63369
 20
111.427439
 10
66.640499
 20
111.402214
 10
66.650613
 20
111.377533
 10
66.663863
 20
111.353709
 10
66.680153
 20
111.330854
 10
66.699373
 20
111.309131
 10
66.721344
 20
111.288768
 10
66.745766
 20
111.27004
 10
66.772483
 20
111.253061
 10
66.801199
 20
111.238022
 10
66.831709
 20
111.225038
 10
66.863682
 20
111.214255
 10
66.89688
 20
111.205756
 10
66.930969
 20
111.199633
 10
66.965679
 20
111.195935
 10
67.000669
 20
111.194699
  0
LINE
  5
3C6
100
AcDbEntity
  8
ALPHA
100
AcDbLine
 10
65.600669
 20
93.958661
 30
0.0
 11
65.600669
 21
117.658661
 31
0.0
  0
LINE
  5
3C7
100
AcDbEntity
  8
ALPHA
100
AcDbLine
 10
87.099356
 20
98.592612
 30
0.0
 11
89.600669
 21
99.033661
 31
0.0
  0
LWPOLYLINE
  5
3C8
100
AcDbEntity
  8
ALPHA
100
AcDbPolyline
 90
        4
 70
     0
 43
0.0
 10
58.327372
 20
114.599323
 10
58.049601
 20
115.328421
 10
57.833132
 20
115.876845
 10
57.685148
 20
116.242795
  0
LWPOLYLINE
  5
3CE
100
AcDbEntity
  8
ALPHA
100
AcDbPolyline
 90
        4
 70
     0
 43
0.0
 10
57.928611
 20
115.744804
 10
58.087927
 20
115.339732
 10
58.178192
 20
115.106137
 10
58.275119
 20
114.85181
  0
LINE
  5
3D4
100
AcDbEntity
  8
ALPHA
100
AcDbLine
 10
57.799196
 20
116.067475
 30
0.0
 11
57.928611
 21
115.744804
 31
0.0
  0
LINE
  5
3D5
100
AcDbEntity
  8
ALPHA
100
AcDbLine
 10
57.701028
 20
116.308652
 30
0.0
 11
57.799196
 21
116.067475
 31
0.0
  0
LINE
  5
3D6
100
AcDbEntity
  8
ALPHA
100
AcDbLine
 10
57.685148
 20
116.242795
 30
0.0
 11
57.600718
 21
116.448661
 31
0.0
  0
LINE
  5
3D7
100
AcDbEntity
  8
ALPHA
100
AcDbLine
 10
57.597977
 20
116.558661
 30
0.0
 11
57.701028
 21
116.308652
 31
0.0
  0
LINE
  5
3D8
100
AcDbEntity
  8
ALPHA
100
AcDbLine
 10
57.643468
 20
95.168661
 30
0.0
 11
57.610099
 21
95.168661
 31
0.0
  0
LINE
  5
3D9
100
AcDbEntity
  8
ALPHA
100
AcDbLine
 10
57.797977
 20
93.958661
 30
0.0
 11
65.600669
 21
93.958661
 31
0.0
  0
LINE
  5
3DA
100
AcDbEntity
  8
ALPHA
100
AcDbLine
 10
57.63517
 20
95.14853
 30
0.0
 11
57.597977
 21
95.058661
 31
0.0
  0
LINE
  5
3DB
100
AcDbEntity
  8
ALPHA
100
AcDbLine
 10
57.746119
 20
95.419075
 30
0.0
 11
57.63517
 21
95.14853
 31
0.0
  0
LINE
  5
3DC
100
AcDbEntity
  8
ALPHA
100
AcDbLine
 10
57.600718
 20
95.168661
 30
0.0
 11
57.685148
 21
95.374527
 31
0.0
  0
LINE
  5
3DD
100
AcDbEntity
  8
ALPHA
100
AcDbLine
 10
57.860082
 20
95.700967
 30
0.0
 11
57.746119
 21
95.419075
 31
0.0
  0
LWPOLYLINE
  5
3DE
100
AcDbEntity
  8
ALPHA
100
AcDbPolyline
 90
        3
 70
     0
 43
0.0
 10
57.685148
 20
95.374527
 10
57.833132
 20
95.740477
 10
58.049601
 20
96.288901
  0
LINE
  5
3E3
100
AcDbEntity
  8
ALPHA
100
AcDbLine
 10
58.004634
 20
96.064693
 30
0.0
 11
57.860082
 21
95.700967
 31
0.0
  0
LINE
  5
3E4
100
AcDbEntity
  8
ALPHA
100
AcDbLine
 10
58.178192
 20
96.511183
 30
0.0
 11
58.004634
 21
96.064693
 31
0.0
  0
LINE
  5
3E5
100
AcDbEntity
  8
ALPHA
100
AcDbLine
 10
58.275119
 20
96.765512
 30
0.0
 11
58.178192
 21
96.511183
 31
0.0
  0
LINE
  5
3E6
100
AcDbEntity
  8
ALPHA
100
AcDbLine
 10
58.049601
 20
96.288901
 30
0.0
 11
58.327372
 21
97.017999
 31
0.0
  0
LINE
  5
3E7
100
AcDbEntity
  8
ALPHA
100
AcDbLine
 10
59.400669
 20
107.808661
 30
0.0
 11
59.400669
 21
103.808661
 31
0.0
  0
LWPOLYLINE
  5
3E8
100
AcDbEntity
  8
ALPHA
100
AcDbPolyline
 90
       16
 70
     0
 43
0.0
 10
57.602765
 20
111.294462
 10
57.612433
 20
111.224274
 10
57.637186
 20
111.037999
 10
57.669964
 20
110.780626
 10
57.705454
 20
110.487322
 10
57.740599
 20
110.177669
 10
57.773609
 20
109.865228
 10
57.803614
 20
109.558644
 10
57.830306
 20
109.263337
 10
57.853705
 20
108.982447
 10
57.873996
 20
108.717543
 10
57.891438
 20
108.469215
 10
57.906323
 20
108.237439
 10
57.918943
 20
108.021783
 10
57.929579
 20
107.821612
 10
57.938505
 20
107.636188
  0
LINE
  5
3FA
100
AcDbEntity
  8
ALPHA
100
AcDbLine
 10
57.613087
 20
100.39785
 30
0.0
 11
57.60243
 21
100.320532
 31
0.0
  0
LWPOLYLINE
  5
3FB
100
AcDbEntity
  8
ALPHA
100
AcDbPolyline
 90
        6
 70
     0
 43
0.0
 10
57.602353
 20
100.319944
 10
57.602208
 20
100.318807
 10
57.601877
 20
100.315992
 10
57.601233
 20
100.309048
 10
57.600742
 20
100.299384
 10
57.60067
 20
100.294052
  0
LWPOLYLINE
  5
403
100
AcDbEntity
  8
ALPHA
100
AcDbPolyline
 90
       17
 70
     0
 43
0.0
 10
57.957609
 20
104.461505
 10
57.946179
 20
104.157334
 10
57.938739
 20
103.986263
 10
57.929862
 20
103.801326
 10
57.919284
 20
103.601668
 10
57.906731
 20
103.386548
 10
57.891922
 20
103.155326
 10
57.874566
 20
102.907563
 10
57.85437
 20
102.643215
 10
57.831074
 20
102.36285
 10
57.80449
 20
102.067998
 10
57.774589
 20
101.761738
 10
57.741667
 20
101.449408
 10
57.706569
 20
101.139511
 10
57.671059
 20
100.845492
 10
57.638123
 20
100.586518
 10
57.613087
 20
100.39785
  0
LINE
  5
416
100
AcDbEntity
  8
ALPHA
100
AcDbLine
 10
57.965557
 20
104.720898
 30
0.0
 11
57.957609
 21
104.461505
 31
0.0
  0
LINE
  5
417
100
AcDbEntity
  8
ALPHA
100
AcDbLine
 10
57.971029
 20
104.941965
 30
0.0
 11
57.965557
 21
104.720898
 31
0.0
  0
LINE
  5
418
100
AcDbEntity
  8
ALPHA
100
AcDbLine
 10
57.974739
 20
105.130195
 30
0.0
 11
57.971029
 21
104.941965
 31
0.0
  0
LINE
  5
419
100
AcDbEntity
  8
ALPHA
100
AcDbLine
 10
57.978059
 20
105.358757
 30
0.0
 11
57.974739
 21
105.130195
 31
0.0
  0
LINE
  5
41A
100
AcDbEntity
  8
ALPHA
100
AcDbLine
 10
57.979996
 20
105.576999
 30
0.0
 11
57.978059
 21
105.358757
 31
0.0
  0
LINE
  5
41B
100
AcDbEntity
  8
ALPHA
100
AcDbLine
 10
57.980648
 20
105.743385
 30
0.0
 11
57.979996
 21
105.576999
 31
0.0
  0
LINE
  5
41C
100
AcDbEntity
  8
ALPHA
100
AcDbLine
 10
57.980509
 20
105.929885
 30
0.0
 11
57.980648
 21
105.743385
 31
0.0
  0
LINE
  5
41D
100
AcDbEntity
  8
ALPHA
100
AcDbLine
 10
58.327372
 20
97.017999
 30
0.0
 11
58.327372
 21
114.599323
 31
0.0
  0
LINE
  5
41E
100
AcDbEntity
  8
ALPHA
100
AcDbLine
 10
57.979271
 20
106.138975
 30
0.0
 11
57.980509
 21
105.929885
 31
0.0
  0
LINE
  5
41F
100
AcDbEntity
  8
ALPHA
100
AcDbLine
 10
57.977168
 20
106.329583
 30
0.0
 11
57.979271
 21
106.138975
 31
0.0
  0
LINE
  5
420
100
AcDbEntity
  8
ALPHA
100
AcDbLine
 10
57.973025
 20
106.579661
 30
0.0
 11
57.977168
 21
106.329583
 31
0.0
  0
LINE
  5
421
100
AcDbEntity
  8
ALPHA
100
AcDbLine
 10
57.968483
 20
106.784292
 30
0.0
 11
57.973025
 21
106.579661
 31
0.0
  0
LINE
  5
422
100
AcDbEntity
  8
ALPHA
100
AcDbLine
 10
57.961841
 20
107.024423
 30
0.0
 11
57.968483
 21
106.784292
 31
0.0
  0
LINE
  5
423
100
AcDbEntity
  8
ALPHA
100
AcDbLine
 10
57.952247
 20
107.30612
 30
0.0
 11
57.961841
 21
107.024423
 31
0.0
  0
LINE
  5
424
100
AcDbEntity
  8
ALPHA
100
AcDbLine
 10
57.938505
 20
107.636188
 30
0.0
 11
57.952247
 21
107.30612
 31
0.0
  0
LINE
  5
425
100
AcDbEntity
  8
ALPHA
100
AcDbLine
 10
57.600669
 20
111.312436
 30
0.0
 11
57.600669
 21
116.425788
 31
0.0
  0
LINE
  5
426
100
AcDbEntity
  8
ALPHA
100
AcDbLine
 10
57.600669
 20
95.191534
 30
0.0
 11
57.600669
 21
100.304932
 31
0.0
  0
LINE
  5
427
100
AcDbEntity
  8
ALPHA
100
AcDbLine
 10
57.597977
 20
95.058661
 30
0.0
 11
57.597977
 21
94.158661
 31
0.0
  0
LINE
  5
428
100
AcDbEntity
  8
ALPHA
100
AcDbLine
 10
57.597977
 20
117.458661
 30
0.0
 11
57.597977
 21
116.558661
 31
0.0
  0
LWPOLYLINE
  5
429
100
AcDbEntity
  8
ALPHA
100
AcDbPolyline
 90
        4
 70
     0
 43
0.0
 10
57.600671
 20
111.323329
 10
57.600818
 20
111.315678
 10
57.601463
 20
111.305546
 10
57.602572
 20
111.295822
  0
INSERT
  5
474
100
AcDbEntity
  8
0
100
AcDbBlockReference
  2
SCH_ISO
 10
0.0
 20
0.0
 30
0.0
  0
DIMENSION
  5
481
100
AcDbEntity
  8
COTATION1
100
AcDbDimension
  2
*D6
 10
40.941995
 20
113.808661
 30
0.0
 11
38.441995
 21
105.808661
 31
0.0
  3
SC_STAND
100
AcDbAlignedDimension
 13
67.900669
 23
97.808661
 33
0.0
 14
67.900669
 24
113.808661
 34
0.0
 50
90.0
100
AcDbRotatedDimension
  0
DIMENSION
  5
490
100
AcDbEntity
  8
COTATION1
100
AcDbDimension
  2
*D5
 10
67.900669
 20
81.264537
 30
0.0
 11
78.531622
 21
83.764537
 31
0.0
  3
SC_STAND
100
AcDbAlignedDimension
 13
57.597977
 23
94.158661
 33
0.0
 14
67.900669
 24
97.808661
 34
0.0
100
AcDbRotatedDimension
  0
ENDSEC
  0
SECTION
  2
OBJECTS
  0
DICTIONARY
  5
4BF
100
AcDbDictionary
  3
ACAD_GROUP
350
4C0
  3
ACAD_MLINESTYLE
350
4CD
  3
ACDBVARIABLEDICTIONARY
350
50D
  0
DICTIONARY
  5
4C0
102
{ACAD_REACTORS
330
4BF
102
}
100
AcDbDictionary
  0
DICTIONARY
  5
4CD
102
{ACAD_REACTORS
330
4BF
102
}
100
AcDbDictionary
  3
STANDARD
350
4CE
  0
DICTIONARY
  5
50D
102
{ACAD_REACTORS
330
4BF
102
}
100
AcDbDictionary
  3
DIMADEC
350
50E
  0
MLINESTYLE
  5
4CE
102
{ACAD_REACTORS
330
4CD
102
}
100
AcDbMlineStyle
  2
STANDARD
 70
     0
  3

 62
   256
 51
90.0
 52
90.0
 71
     2
 49
0.5
 62
   256
  6
BYLAYER
 49
-0.5
 62
   256
  6
BYLAYER
  0
DICTIONARYVAR
  5
50E
102
{ACAD_REACTORS
330
50D
102
}
100
DictionaryVariables
280
     0
  1
0
  0
ENDSEC
  0
EOF
