  0
SECTION
  2
HEADER
  9
$ACADVER
  1
AC1009
  9
$INSBASE
 10
-146.27124
 20
-153.796096
 30
0.0
  9
$EXTMIN
 10
1319.648168
 20
228.033489
 30
0.0
  9
$EXTMAX
 10
1463.156933
 20
305.977183
 30
0.0
  9
$LIMMIN
 10
-407.970438
 20
-367.832444
  9
$LIMMAX
 10
429.804077
 20
234.370848
  9
$ORTHOMODE
 70
     1
  9
$REGENMODE
 70
     1
  9
$FILLMODE
 70
     1
  9
$QTEXTMODE
 70
     0
  9
$MIRRTEXT
 70
     1
  9
$DRAGMODE
 70
     2
  9
$LTSCALE
 40
10.0
  9
$OSMODE
 70
    33
  9
$ATTMODE
 70
     1
  9
$TEXTSIZE
 40
6.0
  9
$TRACEWID
 40
1.0
  9
$TEXTSTYLE
  7
ROMANS
  9
$CLAYER
  8
COTATION1
  9
$CELTYPE
  6
BYLAYER
  9
$CECOLOR
 62
   256
  9
$DIMSCALE
 40
1.0
  9
$DIMASZ
 40
3.0
  9
$DIMEXO
 40
1.0
  9
$DIMDLI
 40
0.1
  9
$DIMRND
 40
0.0
  9
$DIMDLE
 40
0.0
  9
$DIMEXE
 40
0.5
  9
$DIMTP
 40
0.0
  9
$DIMTM
 40
0.0
  9
$DIMTXT
 40
3.0
  9
$DIMCEN
 40
0.0
  9
$DIMTSZ
 40
0.0
  9
$DIMTOL
 70
     0
  9
$DIMLIM
 70
     0
  9
$DIMTIH
 70
     0
  9
$DIMTOH
 70
     0
  9
$DIMSE1
 70
     0
  9
$DIMSE2
 70
     0
  9
$DIMTAD
 70
     1
  9
$DIMZIN
 70
    12
  9
$DIMBLK
  1
OPEN30
  9
$DIMASO
 70
     1
  9
$DIMSHO
 70
     1
  9
$DIMPOST
  1

  9
$DIMAPOST
  1

  9
$DIMALT
 70
     0
  9
$DIMALTD
 70
     2
  9
$DIMALTF
 40
25.4
  9
$DIMLFAC
 40
1.0
  9
$DIMTOFL
 70
     0
  9
$DIMTVP
 40
0.0
  9
$DIMTIX
 70
     0
  9
$DIMSOXD
 70
     0
  9
$DIMSAH
 70
     0
  9
$DIMBLK1
  1

  9
$DIMBLK2
  1

  9
$DIMSTYLE
  2
SC_DEFAUT
  9
$DIMCLRD
 70
     0
  9
$DIMCLRE
 70
     0
  9
$DIMCLRT
 70
     0
  9
$DIMTFAC
 40
1.0
  9
$DIMGAP
 40
0.6
  9
$LUNITS
 70
     2
  9
$LUPREC
 70
     1
  9
$SKETCHINC
 40
0.1
  9
$FILLETRAD
 40
2.0
  9
$AUNITS
 70
     0
  9
$AUPREC
 70
     0
  9
$MENU
  1
acad
  9
$ELEVATION
 40
0.0
  9
$PELEVATION
 40
0.0
  9
$THICKNESS
 40
0.0
  9
$LIMCHECK
 70
     0
  9
$BLIPMODE
 70
     0
  9
$CHAMFERA
 40
0.0
  9
$CHAMFERB
 40
0.0
  9
$SKPOLY
 70
     0
  9
$TDCREATE
 40
2450365.355314
  9
$TDUPDATE
 40
2452576.582684
  9
$TDINDWG
 40
1.004637
  9
$TDUSRTIMER
 40
1.004637
  9
$USRTIMER
 70
     1
  9
$ANGBASE
 50
0.0
  9
$ANGDIR
 70
     0
  9
$PDMODE
 70
    32
  9
$PDSIZE
 40
0.0
  9
$PLINEWID
 40
0.0
  9
$COORDS
 70
     2
  9
$SPLFRAME
 70
     0
  9
$SPLINETYPE
 70
     6
  9
$SPLINESEGS
 70
     8
  9
$ATTDIA
 70
     0
  9
$ATTREQ
 70
     1
  9
$HANDLING
 70
     1
  9
$HANDSEED
  5
7052
  9
$SURFTAB1
 70
     6
  9
$SURFTAB2
 70
     6
  9
$SURFTYPE
 70
     6
  9
$SURFU
 70
     6
  9
$SURFV
 70
     6
  9
$UCSNAME
  2

  9
$UCSORG
 10
0.0
 20
0.0
 30
0.0
  9
$UCSXDIR
 10
1.0
 20
0.0
 30
0.0
  9
$UCSYDIR
 10
0.0
 20
1.0
 30
0.0
  9
$PUCSNAME
  2

  9
$PUCSORG
 10
0.0
 20
0.0
 30
0.0
  9
$PUCSXDIR
 10
1.0
 20
0.0
 30
0.0
  9
$PUCSYDIR
 10
0.0
 20
1.0
 30
0.0
  9
$USERI1
 70
     0
  9
$USERI2
 70
     0
  9
$USERI3
 70
     0
  9
$USERI4
 70
     0
  9
$USERI5
 70
     0
  9
$USERR1
 40
0.0
  9
$USERR2
 40
0.0
  9
$USERR3
 40
0.0
  9
$USERR4
 40
0.0
  9
$USERR5
 40
0.0
  9
$WORLDVIEW
 70
     1
  9
$SHADEDGE
 70
     3
  9
$SHADEDIF
 70
    70
  9
$TILEMODE
 70
     1
  9
$MAXACTVP
 70
    16
  9
$PLIMCHECK
 70
     0
  9
$PEXTMIN
 10
1.000000E+020
 20
1.000000E+020
 30
1.000000E+020
  9
$PEXTMAX
 10
-1.000000E+020
 20
-1.000000E+020
 30
-1.000000E+020
  9
$PLIMMIN
 10
0.0
 20
0.0
  9
$PLIMMAX
 10
12.0
 20
9.0
  9
$UNITMODE
 70
     0
  9
$VISRETAIN
 70
     0
  9
$PLINEGEN
 70
     0
  9
$PSLTSCALE
 70
     0
  0
ENDSEC
  0
SECTION
  2
TABLES
  0
TABLE
  2
VPORT
 70
     2
  0
VPORT
  2
*ACTIVE
 70
     0
 10
0.0
 20
0.0
 11
1.0
 21
1.0
 12
1391.407929
 22
267.005087
 13
0.0
 23
0.0
 14
1.0
 24
1.0
 15
10.0
 25
10.0
 16
0.0
 26
0.0
 36
1.0
 17
0.0
 27
0.0
 37
0.0
 40
88.517285
 41
1.63142
 42
50.0
 43
0.0
 44
0.0
 50
0.0
 51
0.0
 71
     0
 72
   100
 73
     1
 74
     0
 75
     0
 76
     0
 77
     0
 78
     0
  0
ENDTAB
  0
TABLE
  2
LTYPE
 70
    25
  0
LTYPE
  2
CONTINUOUS
 70
     0
  3
Solid line
 72
    65
 73
     0
 40
0.0
  0
LTYPE
  2
AXES2
 70
     0
  3
___ _ ___ _ ___ _ ___ _ ___ _ ___ _ ___ _ ___ _
 72
    65
 73
     4
 40
1.125
 49
0.75
 49
-0.125
 49
0.125
 49
-0.125
  0
LTYPE
  2
AXES
 70
     0
  3
____ _ ____ _ ____ _ ____ _ ____ _ ____ _ ____ 
 72
    65
 73
     4
 40
2.0
 49
1.25
 49
-0.25
 49
0.25
 49
-0.25
  0
LTYPE
  2
AXESX2
 70
     0
  3
________  __  ________  __  ________  __  _____
 72
    65
 73
     4
 40
4.0
 49
2.5
 49
-0.5
 49
0.5
 49
-0.5
  0
LTYPE
  2
TIRETPT
 70
     0
  3
__ . __ . __ . __ . __ . __ . __ . __ . __ . __
 72
    65
 73
     4
 40
1.0
 49
0.5
 49
-0.25
 49
0.0
 49
-0.25
  0
LTYPE
  2
TIRETPT2
 70
     0
  3
_._._._._._._._._._._._._._._._._._._._._._._._
 72
    65
 73
     4
 40
0.5
 49
0.25
 49
-0.125
 49
0.0
 49
-0.125
  0
LTYPE
  2
TIRETPTX2
 70
     0
  3
____  .  ____  .  ____  .  ____  .  ____  .  __
 72
    65
 73
     4
 40
2.0
 49
1.0
 49
-0.5
 49
0.0
 49
-0.5
  0
LTYPE
  2
DISCONTINU
 70
     0
  3
__ __ __ __ __ __ __ __ __ __ __ __ __ __ __ __
 72
    65
 73
     2
 40
0.75
 49
0.5
 49
-0.25
  0
LTYPE
  2
DISCONTINU2
 70
     0
  3
_ _ _ _ _ _ _ _ _ _ _ _ _ _ _ _ _ _ _ _ _ _ _ _
 72
    65
 73
     2
 40
0.375
 49
0.25
 49
-0.125
  0
LTYPE
  2
DISCONTINUX2
 70
     0
  3
____  ____  ____  ____  ____  ____  ____  ____ 
 72
    65
 73
     2
 40
1.5
 49
1.0
 49
-0.5
  0
LTYPE
  2
DIVISE
 70
     0
  3
____ . . ____ . . ____ . . ____ . . ____ . . __
 72
    65
 73
     6
 40
1.25
 49
0.5
 49
-0.25
 49
0.0
 49
-0.25
 49
0.0
 49
-0.25
  0
LTYPE
  2
DIVISE2
 70
     0
  3
__..__..__..__..__..__..__..__..__..__..__..__.
 72
    65
 73
     6
 40
0.625
 49
0.25
 49
-0.125
 49
0.0
 49
-0.125
 49
0.0
 49
-0.125
  0
LTYPE
  2
DIVISEX2
 70
     0
  3
________  .  .  ________  .  .  ________  .  . 
 72
    65
 73
     6
 40
2.5
 49
1.0
 49
-0.5
 49
0.0
 49
-0.5
 49
0.0
 49
-0.5
  0
LTYPE
  2
POINTILLE
 70
     0
  3
. . . . . . . . . . . . . . . . . . . . . . . .
 72
    65
 73
     2
 40
0.25
 49
0.0
 49
-0.25
  0
LTYPE
  2
POINTILLE2
 70
     0
  3
...............................................
 72
    65
 73
     2
 40
0.125
 49
0.0
 49
-0.125
  0
LTYPE
  2
POINTILLEX2
 70
     0
  3
.  .  .  .  .  .  .  .  .  .  .  .  .  .  .  . 
 72
    65
 73
     2
 40
0.5
 49
0.0
 49
-0.5
  0
LTYPE
  2
CACHE
 70
     0
  3
__ __ __ __ __ __ __ __ __ __ __ __ __ __ __ __
 72
    65
 73
     2
 40
0.375
 49
0.25
 49
-0.125
  0
LTYPE
  2
CACHE2
 70
     0
  3
_ _ _ _ _ _ _ _ _ _ _ _ _ _ _ _ _ _ _ _ _ _ _ _
 72
    65
 73
     2
 40
0.1875
 49
0.125
 49
-0.0625
  0
LTYPE
  2
CACHEX2
 70
     0
  3
____ ____ ____ ____ ____ ____ ____ ____ ____ __
 72
    65
 73
     2
 40
0.75
 49
0.5
 49
-0.25
  0
LTYPE
  2
FANTOME
 70
     0
  3
______  __  __  ______  __  __  ______  __  __ 
 72
    65
 73
     6
 40
2.5
 49
1.25
 49
-0.25
 49
0.25
 49
-0.25
 49
0.25
 49
-0.25
  0
LTYPE
  2
FANTOME2
 70
     0
  3
___ _ _ ___ _ _ ___ _ _ ___ _ _ ___ _ _ ___ _ _
 72
    65
 73
     6
 40
1.25
 49
0.625
 49
-0.125
 49
0.125
 49
-0.125
 49
0.125
 49
-0.125
  0
LTYPE
  2
FANTOMEX2
 70
     0
  3
____________    ____    ____    ____________   
 72
    65
 73
     6
 40
5.0
 49
2.5
 49
-0.5
 49
0.5
 49
-0.5
 49
0.5
 49
-0.5
  0
LTYPE
  2
0
 70
     0
  3
MEDUSA PEN 0
 72
    65
 73
     0
 40
0.0
  0
LTYPE
  2
AI9-LTYPE1
 70
     0
  3
Illustrator Dash Style No.1
 72
    65
 73
     4
 40
5.64621
 49
4.106333
 49
-0.307975
 49
0.923926
 49
-0.307975
  0
LTYPE
  2
ACAD_ISO04W100
 70
     0
  3
ISO Lang gestrichelt punktiert ____ . ____ . __
 72
    65
 73
     4
 40
30.5
 49
24.0
 49
-3.0
 49
0.5
 49
-3.0
  0
ENDTAB
  0
TABLE
  2
LAYER
 70
    17
  0
LAYER
  2
0
 70
     0
 62
     7
  6
CONTINUOUS
  0
LAYER
  2
TEXTE_MOYEN
 70
     0
 62
   131
  6
CONTINUOUS
  0
LAYER
  2
ALPHA
 70
     0
 62
   254
  6
CONTINUOUS
  0
LAYER
  2
COTATION1
 70
     0
 62
    50
  6
CONTINUOUS
  0
LAYER
  2
AXE
 70
     0
 62
    80
  6
AXES2
  0
LAYER
  2
DEFPOINTS
 70
     0
 62
     7
  6
CONTINUOUS
  0
LAYER
  2
HACHURES1
 70
     0
 62
   130
  6
CONTINUOUS
  0
LAYER
  2
FMULT
 70
     0
 62
   210
  6
CONTINUOUS
  0
LAYER
  2
FDP_CARTOUCHE
 70
     0
 62
   136
  6
CONTINUOUS
  0
LAYER
  2
FDP_TEXTES
 70
     0
 62
   171
  6
CONTINUOUS
  0
LAYER
  2
FDP_LOGO_MG
 70
     0
 62
    30
  6
CONTINUOUS
  0
LAYER
  2
FDP_LOGO_SCH
 70
     0
 62
    90
  6
CONTINUOUS
  0
LAYER
  2
FDP_FDP
 70
     0
 62
   170
  6
CONTINUOUS
  0
LAYER
  2
POINTILLE_COURT2
 70
     0
 62
    41
  6
CACHE2
  0
LAYER
  2
POINTILLE_MOYEN2
 70
     0
 62
   141
  6
CACHE
  0
LAYER
  2
POINTILLE_LONG2
 70
     0
 62
   241
  6
CACHEX2
  0
LAYER
  2
ALPHA_FIN
 70
     0
 62
   255
  6
CONTINUOUS
  0
ENDTAB
  0
TABLE
  2
STYLE
 70
     4
  0
STYLE
  2
ROMANS
 70
     0
 40
0.0
 41
1.0
 50
0.0
 71
     0
 42
6.0
  3
romans
  4

  0
STYLE
  2
STANDARD
 70
     0
 40
0.2
 41
1.0
 50
0.0
 71
     0
 42
0.2
  3
txt
  4

  0
STYLE
  2
CARTOUCHE
 70
     0
 40
0.0
 41
1.0
 50
0.0
 71
     0
 42
0.2
  3
ROMANS.SHX
  4

  0
STYLE
  2
STD
 70
     0
 40
0.0
 41
1.0
 50
0.0
 71
     0
 42
0.0
  3
txt
  4

  0
ENDTAB
  0
TABLE
  2
VIEW
 70
     0
  0
ENDTAB
  0
TABLE
  2
UCS
 70
     0
  0
ENDTAB
  0
TABLE
  2
APPID
 70
     3
  0
APPID
  2
ACAD
 70
     0
  0
APPID
  2
AVE_RENDER
 70
     0
  0
APPID
  2
AVE_MATERIAL
 70
     0
  0
ENDTAB
  0
TABLE
  2
DIMSTYLE
 70
     2
  0
DIMSTYLE
  2
SC_DEFAUT
 70
     0
  3

  4

  5
OPEN30
  6

  7

 40
1.0
 41
3.0
 42
1.0
 43
0.1
 44
0.5
 45
0.0
 46
0.0
 47
0.0
 48
0.0
140
3.0
141
0.0
142
0.0
143
25.4
144
1.0
145
0.0
146
1.0
147
0.6
 71
     0
 72
     0
 73
     0
 74
     0
 75
     0
 76
     0
 77
     1
 78
    12
170
     0
171
     2
172
     0
173
     0
174
     0
175
     0
176
     0
177
     0
178
     0
  0
DIMSTYLE
  2
STANDARD
 70
     0
  3

  4

  5

  6

  7

 40
1.0
 41
0.18
 42
0.0625
 43
0.38
 44
0.18
 45
0.0
 46
0.0
 47
0.0
 48
0.0
140
0.18
141
0.09
142
0.0
143
25.4
144
1.0
145
0.0
146
1.0
147
0.09
 71
     0
 72
     0
 73
     1
 74
     1
 75
     0
 76
     0
 77
     0
 78
     0
170
     0
171
     2
172
     0
173
     0
174
     0
175
     0
176
     0
177
     0
178
     0
  0
ENDTAB
  0
ENDSEC
  0
SECTION
  2
BLOCKS
  0
BLOCK
  8
0
  2
$MODEL_SPACE
 70
     0
 10
0.0
 20
0.0
 30
0.0
  3
$MODEL_SPACE
  1

  0
ENDBLK
  5
7047
  8
0
  0
BLOCK
 67
     1
  8
0
  2
$PAPER_SPACE
 70
     0
 10
0.0
 20
0.0
 30
0.0
  3
$PAPER_SPACE
  1

  0
ENDBLK
  5
7045
 67
     1
  8
0
  0
BLOCK
  8
0
  2
COTE
 70
     0
 10
0.0
 20
0.0
 30
0.0
  3
COTE
  1

  0
ENDBLK
  5
35
  8
0
  0
BLOCK
  8
0
  2
FOND
 70
     0
 10
0.0
 20
0.0
 30
0.0
  3
FOND
  1

  0
ENDBLK
  5
39
  8
0
  0
BLOCK
  8
0
  2
SCH_ISO
 70
     0
 10
0.0
 20
0.0
 30
0.0
  3
SCH_ISO
  1

  0
ENDBLK
  5
24AD
  8
0
  0
BLOCK
  8
0
  2
_OPEN30
 70
     0
 10
0.0
 20
0.0
 30
0.0
  3
_OPEN30
  1

  0
LINE
  5
27E1
  8
COTATION1
 62
     0
 10
-1.0
 20
0.267949
 30
0.0
 11
0.0
 21
0.0
 31
0.0
1001
ACAD
1000
RTLwPs
1070
   158
  0
LINE
  5
27E2
  8
COTATION1
 62
     0
 10
0.0
 20
0.0
 30
0.0
 11
-1.0
 21
-0.267949
 31
0.0
1001
ACAD
1000
RTLwPs
1070
   158
  0
LINE
  5
27E3
  8
COTATION1
 62
     0
 10
0.0
 20
0.0
 30
0.0
 11
-1.0
 21
0.0
 31
0.0
1001
ACAD
1000
RTLwPs
1070
   158
  0
ENDBLK
  5
27E5
  8
0
  0
BLOCK
  8
0
  2
*D4
 70
     1
 10
0.0
 20
0.0
 30
0.0
  3
*D4
  1

  0
LINE
  5
6C9B
  8
COTATION1
 62
     0
 10
1420.053086
 20
278.877183
 30
0.0
 11
1420.053086
 21
292.877183
 31
0.0
1001
ACAD
1000
RTLwPs
1070
   158
  0
LINE
  5
6C9C
  8
COTATION1
 62
     0
 10
1392.053086
 20
278.877183
 30
0.0
 11
1392.053086
 21
292.877183
 31
0.0
1001
ACAD
1000
RTLwPs
1070
   158
  0
LINE
  5
6C9D
  8
COTATION1
 62
     0
 10
1417.053086
 20
292.377183
 30
0.0
 11
1395.053086
 21
292.377183
 31
0.0
1001
ACAD
1000
RTLwPs
1070
   158
  0
INSERT
  5
6C9E
  8
COTATION1
 62
     0
  2
_OPEN30
 10
1420.053086
 20
292.377183
 30
0.0
 41
3.0
 42
3.0
 43
3.0
1001
ACAD
1000
RTLwPs
1070
   158
  0
INSERT
  5
6C9F
  8
COTATION1
 62
     0
  2
_OPEN30
 10
1392.053086
 20
292.377183
 30
0.0
 41
3.0
 42
3.0
 43
3.0
 50
180.0
1001
ACAD
1000
RTLwPs
1070
   158
  0
TEXT
  5
6CA0
  8
COTATION1
 62
     0
 10
1403.195943
 20
292.977183
 30
0.0
 40
3.0
  1
28
1001
ACAD
1000
MTEXTBEGIN
1070
    73
1070
     1
1070
    44
1040
1.0
1070
    74
1070
     0
1000
MTEXTEND
1000
MTEXTBEGIN
1070
    73
1070
     1
1070
    44
1040
1.0
1070
    74
1070
     0
1000
MTEXTEND
1000
MTEXTBEGIN
1070
    73
1070
     1
1070
    44
1040
1.0
1070
    74
1070
     0
1000
MTEXTEND
  0
POINT
  5
6CA1
  8
DEFPOINTS
 62
     0
 10
1420.053086
 20
277.877183
 30
0.0
  0
POINT
  5
6CA2
  8
DEFPOINTS
 62
     0
 10
1392.053086
 20
277.877183
 30
0.0
  0
POINT
  5
6CA3
  8
DEFPOINTS
 62
     0
 10
1392.053086
 20
292.377183
 30
0.0
  0
ENDBLK
  5
6BDD
  8
0
  0
BLOCK
  8
0
  2
*D5
 70
     1
 10
0.0
 20
0.0
 30
0.0
  3
*D5
  1

  0
LINE
  5
6C92
  8
COTATION1
 62
     0
 10
1392.053086
 20
278.877183
 30
0.0
 11
1392.053086
 21
292.877183
 31
0.0
1001
ACAD
1000
RTLwPs
1070
   158
  0
LINE
  5
6C93
  8
COTATION1
 62
     0
 10
1364.553086
 20
278.377183
 30
0.0
 11
1364.553086
 21
292.877183
 31
0.0
1001
ACAD
1000
RTLwPs
1070
   158
  0
LINE
  5
6C94
  8
COTATION1
 62
     0
 10
1389.053086
 20
292.377183
 30
0.0
 11
1367.553086
 21
292.377183
 31
0.0
1001
ACAD
1000
RTLwPs
1070
   158
  0
INSERT
  5
6C95
  8
COTATION1
 62
     0
  2
_OPEN30
 10
1392.053086
 20
292.377183
 30
0.0
 41
3.0
 42
3.0
 43
3.0
1001
ACAD
1000
RTLwPs
1070
   158
  0
INSERT
  5
6C96
  8
COTATION1
 62
     0
  2
_OPEN30
 10
1364.553086
 20
292.377183
 30
0.0
 41
3.0
 42
3.0
 43
3.0
 50
180.0
1001
ACAD
1000
RTLwPs
1070
   158
  0
TEXT
  5
6C97
  8
COTATION1
 62
     0
 10
1373.303086
 20
292.977183
 30
0.0
 40
3.0
  1
27.5
1001
ACAD
1000
MTEXTBEGIN
1070
    73
1070
     1
1070
    44
1040
1.0
1070
    74
1070
     0
1000
MTEXTEND
1000
MTEXTBEGIN
1070
    73
1070
     1
1070
    44
1040
1.0
1070
    74
1070
     0
1000
MTEXTEND
1000
MTEXTBEGIN
1070
    73
1070
     1
1070
    44
1040
1.0
1070
    74
1070
     0
1000
MTEXTEND
  0
POINT
  5
6C98
  8
DEFPOINTS
 62
     0
 10
1392.053086
 20
277.877183
 30
0.0
  0
POINT
  5
6C99
  8
DEFPOINTS
 62
     0
 10
1364.553086
 20
277.377183
 30
0.0
  0
POINT
  5
6C9A
  8
DEFPOINTS
 62
     0
 10
1364.553086
 20
292.377183
 30
0.0
  0
ENDBLK
  5
6BE9
  8
0
  0
BLOCK
  8
0
  2
*D6
 70
     1
 10
0.0
 20
0.0
 30
0.0
  3
*D6
  1

  0
LINE
  5
6CE3
  8
COTATION1
 62
     0
 10
1427.353086
 20
276.377183
 30
0.0
 11
1427.353086
 21
302.877183
 31
0.0
1001
ACAD
1000
RTLwPs
1070
   158
  0
LINE
  5
6CE4
  8
COTATION1
 62
     0
 10
1346.153086
 20
275.377183
 30
0.0
 11
1346.153086
 21
302.877183
 31
0.0
1001
ACAD
1000
RTLwPs
1070
   158
  0
LINE
  5
6CE5
  8
COTATION1
 62
     0
 10
1424.353086
 20
302.377183
 30
0.0
 11
1349.153086
 21
302.377183
 31
0.0
1001
ACAD
1000
RTLwPs
1070
   158
  0
INSERT
  5
6CE6
  8
COTATION1
 62
     0
  2
_OPEN30
 10
1427.353086
 20
302.377183
 30
0.0
 41
3.0
 42
3.0
 43
3.0
1001
ACAD
1000
RTLwPs
1070
   158
  0
INSERT
  5
6CE7
  8
COTATION1
 62
     0
  2
_OPEN30
 10
1346.153086
 20
302.377183
 30
0.0
 41
3.0
 42
3.0
 43
3.0
 50
180.0
1001
ACAD
1000
RTLwPs
1070
   158
  0
TEXT
  5
6CE8
  8
COTATION1
 62
     0
 10
1381.753086
 20
302.977183
 30
0.0
 40
3.0
  1
81.2
1001
ACAD
1000
MTEXTBEGIN
1070
    73
1070
     1
1070
    44
1040
1.0
1070
    74
1070
     0
1000
MTEXTEND
1000
MTEXTBEGIN
1070
    73
1070
     1
1070
    44
1040
1.0
1070
    74
1070
     0
1000
MTEXTEND
1000
MTEXTBEGIN
1070
    73
1070
     1
1070
    44
1040
1.0
1070
    74
1070
     0
1000
MTEXTEND
  0
POINT
  5
6CE9
  8
DEFPOINTS
 62
     0
 10
1427.353086
 20
275.377183
 30
0.0
  0
POINT
  5
6CEA
  8
DEFPOINTS
 62
     0
 10
1346.153086
 20
274.377183
 30
0.0
  0
POINT
  5
6CEB
  8
DEFPOINTS
 62
     0
 10
1346.153086
 20
302.377183
 30
0.0
  0
ENDBLK
  5
6BF5
  8
0
  0
BLOCK
  8
0
  2
*D7
 70
     1
 10
0.0
 20
0.0
 30
0.0
  3
*D7
  1

  0
LINE
  5
6CDA
  8
COTATION1
 62
     0
 10
1442.353086
 20
259.377183
 30
0.0
 11
1442.353086
 21
302.877183
 31
0.0
1001
ACAD
1000
RTLwPs
1070
   158
  0
LINE
  5
6CDB
  8
COTATION1
 62
     0
 10
1427.353086
 20
276.377183
 30
0.0
 11
1427.353086
 21
302.877183
 31
0.0
1001
ACAD
1000
RTLwPs
1070
   158
  0
LINE
  5
6CDC
  8
COTATION1
 62
     0
 10
1439.353086
 20
302.377183
 30
0.0
 11
1430.353086
 21
302.377183
 31
0.0
1001
ACAD
1000
RTLwPs
1070
   158
  0
INSERT
  5
6CDD
  8
COTATION1
 62
     0
  2
_OPEN30
 10
1442.353086
 20
302.377183
 30
0.0
 41
3.0
 42
3.0
 43
3.0
1001
ACAD
1000
RTLwPs
1070
   158
  0
INSERT
  5
6CDE
  8
COTATION1
 62
     0
  2
_OPEN30
 10
1427.353086
 20
302.377183
 30
0.0
 41
3.0
 42
3.0
 43
3.0
 50
180.0
1001
ACAD
1000
RTLwPs
1070
   158
  0
TEXT
  5
6CDF
  8
COTATION1
 62
     0
 10
1431.781657
 20
302.977183
 30
0.0
 40
3.0
  1
15
1001
ACAD
1000
MTEXTBEGIN
1070
    73
1070
     1
1070
    44
1040
1.0
1070
    74
1070
     0
1000
MTEXTEND
1000
MTEXTBEGIN
1070
    73
1070
     1
1070
    44
1040
1.0
1070
    74
1070
     0
1000
MTEXTEND
1000
MTEXTBEGIN
1070
    73
1070
     1
1070
    44
1040
1.0
1070
    74
1070
     0
1000
MTEXTEND
  0
POINT
  5
6CE0
  8
DEFPOINTS
 62
     0
 10
1442.353086
 20
258.377183
 30
0.0
  0
POINT
  5
6CE1
  8
DEFPOINTS
 62
     0
 10
1427.353086
 20
275.377183
 30
0.0
  0
POINT
  5
6CE2
  8
DEFPOINTS
 62
     0
 10
1427.353086
 20
302.377183
 30
0.0
  0
ENDBLK
  5
6C01
  8
0
  0
BLOCK
  8
0
  2
*D8
 70
     1
 10
0.0
 20
0.0
 30
0.0
  3
*D8
  1

  0
LINE
  5
6CB1
  8
COTATION1
 62
     0
 10
1364.553086
 20
278.377183
 30
0.0
 11
1364.553086
 21
292.877183
 31
0.0
1001
ACAD
1000
RTLwPs
1070
   158
  0
LINE
  5
6CB2
  8
COTATION1
 62
     0
 10
1350.453086
 20
275.377183
 30
0.0
 11
1350.453086
 21
292.877183
 31
0.0
1001
ACAD
1000
RTLwPs
1070
   158
  0
LINE
  5
6CB3
  8
COTATION1
 62
     0
 10
1361.553086
 20
292.377183
 30
0.0
 11
1353.453086
 21
292.377183
 31
0.0
1001
ACAD
1000
RTLwPs
1070
   158
  0
INSERT
  5
6CB4
  8
COTATION1
 62
     0
  2
_OPEN30
 10
1364.553086
 20
292.377183
 30
0.0
 41
3.0
 42
3.0
 43
3.0
1001
ACAD
1000
RTLwPs
1070
   158
  0
INSERT
  5
6CB5
  8
COTATION1
 62
     0
  2
_OPEN30
 10
1350.453086
 20
292.377183
 30
0.0
 41
3.0
 42
3.0
 43
3.0
 50
180.0
1001
ACAD
1000
RTLwPs
1070
   158
  0
TEXT
  5
6CB6
  8
COTATION1
 62
     0
 10
1352.717372
 20
292.977183
 30
0.0
 40
3.0
  1
14.1
1001
ACAD
1000
MTEXTBEGIN
1070
    73
1070
     1
1070
    44
1040
1.0
1070
    74
1070
     0
1000
MTEXTEND
1000
MTEXTBEGIN
1070
    73
1070
     1
1070
    44
1040
1.0
1070
    74
1070
     0
1000
MTEXTEND
1000
MTEXTBEGIN
1070
    73
1070
     1
1070
    44
1040
1.0
1070
    74
1070
     0
1000
MTEXTEND
  0
POINT
  5
6CB7
  8
DEFPOINTS
 62
     0
 10
1364.553086
 20
277.377183
 30
0.0
  0
POINT
  5
6CB8
  8
DEFPOINTS
 62
     0
 10
1350.453086
 20
274.377183
 30
0.0
  0
POINT
  5
6CB9
  8
DEFPOINTS
 62
     0
 10
1350.453086
 20
292.377183
 30
0.0
  0
ENDBLK
  5
6CB0
  8
0
  0
BLOCK
  8
0
  2
*D9
 70
     1
 10
0.0
 20
0.0
 30
0.0
  3
*D9
  1

  0
LINE
  5
6CBC
  8
COTATION1
 62
     0
 10
1350.453086
 20
276.377183
 30
0.0
 11
1350.453086
 21
292.877183
 31
0.0
1001
ACAD
1000
RTLwPs
1070
   158
  0
LINE
  5
6CBD
  8
COTATION1
 62
     0
 10
1346.153086
 20
275.377183
 30
0.0
 11
1346.153086
 21
292.877183
 31
0.0
1001
ACAD
1000
RTLwPs
1070
   158
  0
LINE
  5
6CBE
  8
COTATION1
 62
     0
 10
1353.453086
 20
292.377183
 30
0.0
 11
1356.453086
 21
292.377183
 31
0.0
1001
ACAD
1000
RTLwPs
1070
   158
  0
LINE
  5
6CBF
  8
COTATION1
 62
     0
 10
1343.153086
 20
292.377183
 30
0.0
 11
1332.667372
 21
292.377183
 31
0.0
1001
ACAD
1000
RTLwPs
1070
   158
  0
INSERT
  5
6CC0
  8
COTATION1
 62
     0
  2
_OPEN30
 10
1350.453086
 20
292.377183
 30
0.0
 41
3.0
 42
3.0
 43
3.0
 50
180.0
1001
ACAD
1000
RTLwPs
1070
   158
  0
INSERT
  5
6CC1
  8
COTATION1
 62
     0
  2
_OPEN30
 10
1346.153086
 20
292.377183
 30
0.0
 41
3.0
 42
3.0
 43
3.0
1001
ACAD
1000
RTLwPs
1070
   158
  0
TEXT
  5
6CC2
  8
COTATION1
 62
     0
 10
1332.8388
 20
292.977183
 30
0.0
 40
3.0
  1
4.3
1001
ACAD
1000
MTEXTBEGIN
1070
    73
1070
     1
1070
    44
1040
1.0
1070
    74
1070
     0
1000
MTEXTEND
1000
MTEXTBEGIN
1070
    73
1070
     1
1070
    44
1040
1.0
1070
    74
1070
     0
1000
MTEXTEND
1000
MTEXTBEGIN
1070
    73
1070
     1
1070
    44
1040
1.0
1070
    74
1070
     0
1000
MTEXTEND
  0
POINT
  5
6CC3
  8
DEFPOINTS
 62
     0
 10
1350.453086
 20
275.377183
 30
0.0
  0
POINT
  5
6CC4
  8
DEFPOINTS
 62
     0
 10
1346.153086
 20
274.377183
 30
0.0
  0
POINT
  5
6CC5
  8
DEFPOINTS
 62
     0
 10
1346.153086
 20
292.377183
 30
0.0
  0
ENDBLK
  5
6CC7
  8
0
  0
BLOCK
  8
0
  2
*D10
 70
     1
 10
0.0
 20
0.0
 30
0.0
  3
*D10
  1

  0
LINE
  5
6D14
  8
COTATION1
 62
     0
 10
1345.153086
 20
249.377183
 30
0.0
 11
1332.748168
 21
249.377183
 31
0.0
1001
ACAD
1000
RTLwPs
1070
   158
  0
LINE
  5
6D15
  8
COTATION1
 62
     0
 10
1345.153086
 20
274.377183
 30
0.0
 11
1332.748168
 21
274.377183
 31
0.0
1001
ACAD
1000
RTLwPs
1070
   158
  0
LINE
  5
6D16
  8
COTATION1
 62
     0
 10
1333.248168
 20
252.377183
 30
0.0
 11
1333.248168
 21
271.377183
 31
0.0
1001
ACAD
1000
RTLwPs
1070
   158
  0
INSERT
  5
6D17
  8
COTATION1
 62
     0
  2
_OPEN30
 10
1333.248168
 20
249.377183
 30
0.0
 41
3.0
 42
3.0
 43
3.0
 50
270.0
1001
ACAD
1000
RTLwPs
1070
   158
  0
INSERT
  5
6D18
  8
COTATION1
 62
     0
  2
_OPEN30
 10
1333.248168
 20
274.377183
 30
0.0
 41
3.0
 42
3.0
 43
3.0
 50
90.0
1001
ACAD
1000
RTLwPs
1070
   158
  0
TEXT
  5
6D19
  8
COTATION1
 62
     0
 10
1332.648168
 20
257.805754
 30
0.0
 40
3.0
  1
%%c
 50
90.0
1001
ACAD
1000
MTEXTBEGIN
1070
    73
1070
     1
1070
    44
1040
1.0
1070
    74
1070
     0
1000
MTEXTEND
1000
MTEXTBEGIN
1070
    73
1070
     1
1070
    44
1040
1.0
1070
    74
1070
     0
1000
MTEXTEND
1000
MTEXTBEGIN
1070
    73
1070
     1
1070
    44
1040
1.0
1070
    74
1070
     0
1000
MTEXTEND
  0
TEXT
  5
6FEA
  8
COTATION1
 62
     0
 10
1332.648168
 20
260.52004
 30
0.0
 40
3.0
  1
25
 50
90.0
1001
ACAD
1000
R13OBJECT
1002
{
1005
6D19
1002
}
  0
POINT
  5
6D1A
  8
DEFPOINTS
 62
     0
 10
1346.153086
 20
249.377183
 30
0.0
  0
POINT
  5
6D1B
  8
DEFPOINTS
 62
     0
 10
1346.153086
 20
274.377183
 30
0.0
  0
POINT
  5
6D1C
  8
DEFPOINTS
 62
     0
 10
1333.248168
 20
274.377183
 30
0.0
  0
ENDBLK
  5
6CF8
  8
0
  0
BLOCK
  8
0
  2
*D11
 70
     1
 10
0.0
 20
0.0
 30
0.0
  3
*D11
  1

  0
LINE
  5
6DA3
  8
COTATION1
 62
     0
 10
1442.193563
 20
261.877183
 30
0.0
 11
1452.853086
 21
261.877183
 31
0.0
1001
ACAD
1000
RTLwPs
1070
   158
  0
LINE
  5
6DA4
  8
COTATION1
 62
     0
 10
1448.353086
 20
253.377183
 30
0.0
 11
1452.853086
 21
253.377183
 31
0.0
1001
ACAD
1000
RTLwPs
1070
   158
  0
LINE
  5
6DA5
  8
COTATION1
 62
     0
 10
1452.353086
 20
258.877183
 30
0.0
 11
1452.353086
 21
256.377183
 31
0.0
1001
ACAD
1000
RTLwPs
1070
   158
  0
INSERT
  5
6DA6
  8
COTATION1
 62
     0
  2
_OPEN30
 10
1452.353086
 20
261.877183
 30
0.0
 41
3.0
 42
3.0
 43
3.0
 50
90.0
1001
ACAD
1000
RTLwPs
1070
   158
  0
INSERT
  5
6DA7
  8
COTATION1
 62
     0
  2
_OPEN30
 10
1452.353086
 20
253.377183
 30
0.0
 41
3.0
 42
3.0
 43
3.0
 50
270.0
1001
ACAD
1000
RTLwPs
1070
   158
  0
TEXT
  5
6DA8
  8
COTATION1
 62
     0
 10
1451.753086
 20
254.055754
 30
0.0
 40
3.0
  1
8.5
 50
90.0
1001
ACAD
1000
MTEXTBEGIN
1070
    73
1070
     1
1070
    44
1040
1.0
1070
    74
1070
     0
1000
MTEXTEND
1000
MTEXTBEGIN
1070
    73
1070
     1
1070
    44
1040
1.0
1070
    74
1070
     0
1000
MTEXTEND
1000
MTEXTBEGIN
1070
    73
1070
     1
1070
    44
1040
1.0
1070
    74
1070
     0
1000
MTEXTEND
  0
POINT
  5
6DA9
  8
DEFPOINTS
 62
     0
 10
1441.193563
 20
261.877183
 30
0.0
  0
POINT
  5
6DAA
  8
DEFPOINTS
 62
     0
 10
1447.353086
 20
253.377183
 30
0.0
  0
POINT
  5
6DAB
  8
DEFPOINTS
 62
     0
 10
1452.353086
 20
253.377183
 30
0.0
  0
ENDBLK
  5
6D60
  8
0
  0
BLOCK
  8
0
  2
*D12
 70
     1
 10
0.0
 20
0.0
 30
0.0
  3
*D12
  1

  0
LINE
  5
6DB5
  8
COTATION1
 62
     0
 10
1426.553086
 20
272.377183
 30
0.0
 11
1462.853086
 21
272.377183
 31
0.0
1001
ACAD
1000
RTLwPs
1070
   158
  0
LINE
  5
6DB6
  8
COTATION1
 62
     0
 10
1426.553086
 20
251.377183
 30
0.0
 11
1462.853086
 21
251.377183
 31
0.0
1001
ACAD
1000
RTLwPs
1070
   158
  0
LINE
  5
6DB7
  8
COTATION1
 62
     0
 10
1462.353086
 20
269.377183
 30
0.0
 11
1462.353086
 21
254.377183
 31
0.0
1001
ACAD
1000
RTLwPs
1070
   158
  0
INSERT
  5
6DB8
  8
COTATION1
 62
     0
  2
_OPEN30
 10
1462.353086
 20
272.377183
 30
0.0
 41
3.0
 42
3.0
 43
3.0
 50
90.0
1001
ACAD
1000
RTLwPs
1070
   158
  0
INSERT
  5
6DB9
  8
COTATION1
 62
     0
  2
_OPEN30
 10
1462.353086
 20
251.377183
 30
0.0
 41
3.0
 42
3.0
 43
3.0
 50
270.0
1001
ACAD
1000
RTLwPs
1070
   158
  0
TEXT
  5
6DBA
  8
COTATION1
 62
     0
 10
1461.753086
 20
259.448611
 30
0.0
 40
3.0
  1
21
 50
90.0
1001
ACAD
1000
MTEXTBEGIN
1070
    73
1070
     1
1070
    44
1040
1.0
1070
    74
1070
     0
1000
MTEXTEND
1000
MTEXTBEGIN
1070
    73
1070
     1
1070
    44
1040
1.0
1070
    74
1070
     0
1000
MTEXTEND
1000
MTEXTBEGIN
1070
    73
1070
     1
1070
    44
1040
1.0
1070
    74
1070
     0
1000
MTEXTEND
  0
POINT
  5
6DBB
  8
DEFPOINTS
 62
     0
 10
1425.553086
 20
272.377183
 30
0.0
  0
POINT
  5
6DBC
  8
DEFPOINTS
 62
     0
 10
1425.553086
 20
251.377183
 30
0.0
  0
POINT
  5
6DBD
  8
DEFPOINTS
 62
     0
 10
1462.353086
 20
251.377183
 30
0.0
  0
ENDBLK
  5
6D6C
  8
0
  0
BLOCK
  8
0
  2
*D13
 70
     1
 10
0.0
 20
0.0
 30
0.0
  3
*D13
  1

  0
LINE
  5
6EF8
  8
COTATION1
 62
     0
 10
1351.453086
 20
277.377183
 30
0.0
 11
1322.748168
 21
277.377183
 31
0.0
1001
ACAD
1000
RTLwPs
1070
   158
  0
LINE
  5
6EF9
  8
COTATION1
 62
     0
 10
1351.453086
 20
246.377183
 30
0.0
 11
1322.748168
 21
246.377183
 31
0.0
1001
ACAD
1000
RTLwPs
1070
   158
  0
LINE
  5
6EFA
  8
COTATION1
 62
     0
 10
1323.248168
 20
274.377183
 30
0.0
 11
1323.248168
 21
249.377183
 31
0.0
1001
ACAD
1000
RTLwPs
1070
   158
  0
INSERT
  5
6EFB
  8
COTATION1
 62
     0
  2
_OPEN30
 10
1323.248168
 20
277.377183
 30
0.0
 41
3.0
 42
3.0
 43
3.0
 50
90.0
1001
ACAD
1000
RTLwPs
1070
   158
  0
INSERT
  5
6EFC
  8
COTATION1
 62
     0
  2
_OPEN30
 10
1323.248168
 20
246.377183
 30
0.0
 41
3.0
 42
3.0
 43
3.0
 50
270.0
1001
ACAD
1000
RTLwPs
1070
   158
  0
TEXT
  5
6EFD
  8
COTATION1
 62
     0
 10
1322.648168
 20
259.448611
 30
0.0
 40
3.0
  1
31
 50
90.0
1001
ACAD
1000
MTEXTBEGIN
1070
    73
1070
     1
1070
    44
1040
1.0
1070
    74
1070
     0
1000
MTEXTEND
1000
MTEXTBEGIN
1070
    73
1070
     1
1070
    44
1040
1.0
1070
    74
1070
     0
1000
MTEXTEND
1000
MTEXTBEGIN
1070
    73
1070
     1
1070
    44
1040
1.0
1070
    74
1070
     0
1000
MTEXTEND
  0
POINT
  5
6EFE
  8
DEFPOINTS
 62
     0
 10
1352.453086
 20
277.377183
 30
0.0
  0
POINT
  5
6EFF
  8
DEFPOINTS
 62
     0
 10
1352.453086
 20
246.377183
 30
0.0
  0
POINT
  5
6F00
  8
DEFPOINTS
 62
     0
 10
1323.248168
 20
246.377183
 30
0.0
  0
ENDBLK
  5
6EF7
  8
0
  0
ENDSEC
  0
SECTION
  2
ENTITIES
  0
INSERT
  5
32
  8
0
  2
COTE
 10
0.0
 20
0.0
 30
0.0
  0
INSERT
  5
36
  8
0
  2
FOND
 10
0.0
 20
0.0
 30
0.0
  0
INSERT
  5
24AE
  8
ALPHA
  2
SCH_ISO
 10
-66.27012
 20
-238.940658
 30
0.0
  0
LINE
  5
6B55
  8
ALPHA
 10
1350.453086
 20
275.377183
 30
0.0
 11
1350.453086
 21
248.377183
 31
0.0
  0
LINE
  5
6B56
  8
ALPHA
 10
1346.153086
 20
274.377183
 30
0.0
 11
1346.153086
 21
261.877183
 31
0.0
  0
LINE
  5
6B57
  8
ALPHA
 10
1346.153086
 20
249.377183
 30
0.0
 11
1346.153086
 21
261.877183
 31
0.0
  0
LINE
  5
6B60
  8
ALPHA
 10
1350.453086
 20
249.377183
 30
0.0
 11
1346.153086
 21
249.377183
 31
0.0
  0
LINE
  5
6B61
  8
ALPHA
 10
1350.453086
 20
274.377183
 30
0.0
 11
1346.153086
 21
274.377183
 31
0.0
  0
LINE
  5
6B66
  8
AXE
 10
1420.053086
 20
266.877183
 30
0.0
 11
1420.053086
 21
277.877183
 31
0.0
  0
ARC
  5
6B67
  8
ALPHA_FIN
 10
1420.053086
 20
272.377183
 30
0.0
 40
1.99999
 50
270.0
 51
180.0
  0
CIRCLE
  5
6B68
  8
ALPHA
 10
1420.053086
 20
272.377183
 30
0.0
 40
2.5
  0
LINE
  5
6B69
  8
ALPHA
 10
1427.353086
 20
275.377183
 30
0.0
 11
1427.353086
 21
248.377183
 31
0.0
  0
CIRCLE
  5
6B6A
  8
ALPHA
 10
1392.053086
 20
272.377183
 30
0.0
 40
2.5
  0
ARC
  5
6B6B
  8
ALPHA_FIN
 10
1392.053086
 20
272.377183
 30
0.0
 40
1.99999
 50
270.0
 51
180.0
  0
LINE
  5
6B6C
  8
AXE
 10
1392.053086
 20
266.877183
 30
0.0
 11
1392.053086
 21
277.877183
 31
0.0
  0
LINE
  5
6B79
  8
AXE
 10
1397.553086
 20
272.377183
 30
0.0
 11
1386.553086
 21
272.377183
 31
0.0
  0
LINE
  5
6B7A
  8
AXE
 10
1425.553086
 20
272.377183
 30
0.0
 11
1414.553086
 21
272.377183
 31
0.0
  0
LINE
  5
6B91
  8
ALPHA
 10
1425.353086
 20
246.377183
 30
0.0
 11
1352.453086
 21
246.377183
 31
0.0
  0
LINE
  5
6B92
  8
ALPHA
 10
1425.353086
 20
277.377183
 30
0.0
 11
1352.453086
 21
277.377183
 31
0.0
  0
LINE
  5
6B93
  8
ALPHA
 10
1427.353086
 20
275.377183
 30
0.0
 11
1350.453086
 21
275.377183
 31
0.0
  0
ARC
  5
6B95
  8
ALPHA
 10
1352.453086
 20
248.377183
 30
0.0
 40
2.0
 50
180.0
 51
270.0
  0
ARC
  5
6B96
  8
ALPHA
 10
1352.453086
 20
275.377183
 30
0.0
 40
2.0
 50
90.0
 51
180.0
  0
ARC
  5
6B97
  8
ALPHA
 10
1425.353086
 20
275.377183
 30
0.0
 40
2.0
 50
0.0
 51
90.0
  0
ARC
  5
6B98
  8
ALPHA
 10
1425.353086
 20
248.377183
 30
0.0
 40
2.0
 50
270.0
 51
360.0
  0
CIRCLE
  5
6B9B
  8
ALPHA
 10
1392.053086
 20
251.377183
 30
0.0
 40
2.5
  0
LINE
  5
6B9C
  8
AXE
 10
1392.053086
 20
245.877183
 30
0.0
 11
1392.053086
 21
256.877183
 31
0.0
  0
LINE
  5
6B9D
  8
AXE
 10
1397.553086
 20
251.377183
 30
0.0
 11
1386.553086
 21
251.377183
 31
0.0
  0
ARC
  5
6B9E
  8
ALPHA_FIN
 10
1392.053086
 20
251.377183
 30
0.0
 40
1.99999
 50
270.0
 51
180.0
  0
LINE
  5
6B9F
  8
AXE
 10
1420.053086
 20
245.877183
 30
0.0
 11
1420.053086
 21
256.877183
 31
0.0
  0
CIRCLE
  5
6BA0
  8
ALPHA
 10
1420.053086
 20
251.377183
 30
0.0
 40
2.5
  0
LINE
  5
6BA1
  8
AXE
 10
1425.553086
 20
251.377183
 30
0.0
 11
1414.553086
 21
251.377183
 31
0.0
  0
ARC
  5
6BA2
  8
ALPHA_FIN
 10
1420.053086
 20
251.377183
 30
0.0
 40
1.99999
 50
270.0
 51
180.0
  0
LINE
  5
6BA3
  8
AXE
 10
1364.553086
 20
246.377183
 30
0.0
 11
1364.553086
 21
277.377183
 31
0.0
  0
CIRCLE
  5
6BA4
  8
ALPHA
 10
1364.553086
 20
261.877183
 30
0.0
 40
12.5
  0
CIRCLE
  5
6BA5
  8
ALPHA
 10
1364.553086
 20
261.877183
 30
0.0
 40
10.5
  0
LINE
  5
6BA7
  8
AXE
 10
1341.153086
 20
261.877183
 30
0.0
 11
1441.193563
 21
261.877183
 31
0.0
  0
TEXT
  5
6BA8
  8
AXE
 10
1442.178081
 20
262.877183
 30
0.0
 40
8.0
  1
X
 71
     2
 72
     2
 11
1435.70189
 21
262.877183
 31
0.0
  0
LINE
  5
6BA9
  8
AXE
 10
1391.753086
 20
282.377183
 30
0.0
 11
1391.753086
 21
228.033489
 31
0.0
  0
TEXT
  5
6BAA
  8
AXE
 10
1384.276895
 20
228.033489
 30
0.0
 40
8.0
  1
Z
 72
     2
 11
1390.753086
 21
228.033489
 31
0.0
  0
LINE
  5
6BBD
  8
ALPHA
 10
1432.853086
 20
260.377183
 30
0.0
 11
1427.353086
 21
260.377183
 31
0.0
  0
LINE
  5
6BBF
  8
ALPHA
 10
1432.853086
 20
246.377183
 30
0.0
 11
1425.353086
 21
246.377183
 31
0.0
  0
LINE
  5
6BC0
  8
AXE
 10
1447.353086
 20
253.377183
 30
0.0
 11
1422.353086
 21
253.377183
 31
0.0
  0
LINE
  5
6BC1
  8
ALPHA
 10
1432.853086
 20
260.377183
 30
0.0
 11
1432.853086
 21
246.377183
 31
0.0
  0
LINE
  5
6BC2
  8
ALPHA
 10
1441.353086
 20
247.377183
 30
0.0
 11
1432.853086
 21
247.377183
 31
0.0
  0
LINE
  5
6BC3
  8
ALPHA_FIN
 10
1442.353086
 20
248.377183
 30
0.0
 11
1432.853086
 21
248.377183
 31
0.0
  0
LINE
  5
6BC4
  8
ALPHA_FIN
 10
1442.353086
 20
258.377183
 30
0.0
 11
1432.853086
 21
258.377183
 31
0.0
  0
LINE
  5
6BC5
  8
ALPHA
 10
1441.353086
 20
259.377183
 30
0.0
 11
1432.853086
 21
259.377183
 31
0.0
  0
LINE
  5
6BC6
  8
ALPHA
 10
1442.353086
 20
253.377183
 30
0.0
 11
1442.353086
 21
258.377183
 31
0.0
  0
LINE
  5
6BC7
  8
ALPHA
 10
1441.353086
 20
253.377183
 30
0.0
 11
1441.353086
 21
259.377183
 31
0.0
  0
LINE
  5
6BC8
  8
ALPHA
 10
1442.353086
 20
248.377183
 30
0.0
 11
1441.353086
 21
247.377183
 31
0.0
  0
LINE
  5
6BC9
  8
ALPHA
 10
1441.353086
 20
253.377183
 30
0.0
 11
1441.353086
 21
247.377183
 31
0.0
  0
LINE
  5
6BCA
  8
ALPHA
 10
1442.353086
 20
253.377183
 30
0.0
 11
1442.353086
 21
248.377183
 31
0.0
  0
LINE
  5
6BCB
  8
ALPHA
 10
1442.353086
 20
258.377183
 30
0.0
 11
1441.353086
 21
259.377183
 31
0.0
  0
DIMENSION
  5
6BCE
  8
COTATION1
  2
*D6
 10
1346.153086
 20
302.377183
 30
0.0
 11
1386.753086
 21
304.477183
 31
0.0
 13
1427.353086
 23
275.377183
 33
0.0
 14
1346.153086
 24
274.377183
 34
0.0
 50
180.0
  0
DIMENSION
  5
6BCF
  8
COTATION1
  2
*D7
 10
1427.353086
 20
302.377183
 30
0.0
 11
1434.853086
 21
304.477183
 31
0.0
 13
1442.353086
 23
258.377183
 33
0.0
 14
1427.353086
 24
275.377183
 34
0.0
 50
180.0
  0
DIMENSION
  5
6BD0
  8
COTATION1
  2
*D4
 10
1392.053086
 20
292.377183
 30
0.0
 11
1406.053086
 21
294.477183
 31
0.0
 13
1420.053086
 23
277.877183
 33
0.0
 14
1392.053086
 24
277.877183
 34
0.0
 50
180.0
  0
DIMENSION
  5
6BD1
  8
COTATION1
  2
*D5
 10
1364.553086
 20
292.377183
 30
0.0
 11
1378.303086
 21
294.477183
 31
0.0
 13
1392.053086
 23
277.877183
 33
0.0
 14
1364.553086
 24
277.377183
 34
0.0
 50
180.0
  0
DIMENSION
  5
6CA4
  8
COTATION1
  2
*D8
 10
1350.453086
 20
292.377183
 30
0.0
 11
1357.503086
 21
294.477183
 31
0.0
 13
1364.553086
 23
277.377183
 33
0.0
 14
1350.453086
 24
274.377183
 34
0.0
  0
DIMENSION
  5
6CBA
  8
COTATION1
  2
*D9
 10
1346.153086
 20
292.377183
 30
0.0
 11
1336.410229
 21
294.477183
 31
0.0
 13
1350.453086
 23
275.377183
 33
0.0
 14
1346.153086
 24
274.377183
 34
0.0
  0
DIMENSION
  5
6CEC
  8
COTATION1
  2
*D10
 10
1333.248168
 20
274.377183
 30
0.0
 11
1331.148168
 21
261.877183
 31
0.0
  1
%%c<>
 13
1346.153086
 23
249.377183
 33
0.0
 14
1346.153086
 24
274.377183
 34
0.0
 50
90.0
  0
DIMENSION
  5
6D53
  8
COTATION1
  2
*D12
 10
1462.353086
 20
251.377183
 30
0.0
 11
1460.253086
 21
261.877183
 31
0.0
 13
1425.553086
 23
272.377183
 33
0.0
 14
1425.553086
 24
251.377183
 34
0.0
 50
90.0
  0
DIMENSION
  5
6D54
  8
COTATION1
  2
*D11
 10
1452.353086
 20
253.377183
 30
0.0
 11
1450.253086
 21
257.627183
 31
0.0
 13
1441.193563
 23
261.877183
 33
0.0
 14
1447.353086
 24
253.377183
 34
0.0
 50
90.0
  0
TEXT
  5
6DBE
  8
COTATION1
 10
1446.319123
 20
236.113284
 30
0.0
 40
3.0
  1
M12x1
1001
ACAD
1000
MTEXTBEGIN
1070
    73
1070
     1
1070
    44
1040
1.0
1070
    74
1070
     0
1000
MTEXTEND
1000
MTEXTBEGIN
1070
    73
1070
     1
1070
    44
1040
1.0
1070
    74
1070
     0
1000
MTEXTEND
1000
MTEXTBEGIN
1070
    73
1070
     1
1070
    44
1040
1.0
1070
    74
1070
     0
1000
MTEXTEND
1000
MTEXTBEGIN
1070
    73
1070
     1
1070
    44
1040
1.0
1070
    74
1070
     0
1000
MTEXTEND
1000
MTEXTBEGIN
1070
    73
1070
     1
1070
    44
1040
1.0
1070
    74
1070
     0
1000
MTEXTEND
1000
MTEXTBEGIN
1070
    73
1070
     1
1070
    44
1040
1.0
1070
    74
1070
     0
1000
MTEXTEND
1000
MTEXTBEGIN
1070
    73
1070
     1
1070
    44
1040
1.0
1070
    74
1070
     0
1000
MTEXTEND
1000
MTEXTBEGIN
1070
    73
1070
     1
1070
    44
1040
1.0
1070
    74
1070
     0
1000
MTEXTEND
1000
MTEXTBEGIN
1070
    73
1070
     1
1070
    44
1040
1.0
1070
    74
1070
     0
1000
MTEXTEND
1000
MTEXTBEGIN
1070
    73
1070
     1
1070
    44
1040
1.0
1070
    74
1070
     0
1000
MTEXTEND
1000
MTEXTBEGIN
1070
    73
1070
     1
1070
    44
1040
1.0
1070
    74
1070
     0
1000
MTEXTEND
1000
MTEXTBEGIN
1070
    73
1070
     1
1070
    44
1040
1.0
1070
    74
1070
     0
1000
MTEXTEND
1000
MTEXTBEGIN
1070
    73
1070
     1
1070
    44
1040
1.0
1070
    74
1070
     0
1000
MTEXTEND
1000
MTEXTBEGIN
1070
    73
1070
     1
1070
    44
1040
1.0
1070
    74
1070
     0
1000
MTEXTEND
1000
MTEXTBEGIN
1070
    73
1070
     1
1070
    44
1040
1.0
1070
    74
1070
     0
1000
MTEXTEND
1000
MTEXTBEGIN
1070
    73
1070
     1
1070
    44
1040
1.0
1070
    74
1070
     0
1000
MTEXTEND
1000
MTEXTBEGIN
1070
    73
1070
     1
1070
    44
1040
1.0
1070
    74
1070
     0
1000
MTEXTEND
1000
MTEXTBEGIN
1070
    73
1070
     1
1070
    44
1040
1.0
1070
    74
1070
     0
1000
MTEXTEND
1000
MTEXTBEGIN
1070
    73
1070
     1
1070
    44
1040
1.0
1070
    74
1070
     0
1000
MTEXTEND
1000
MTEXTBEGIN
1070
    73
1070
     1
1070
    44
1040
1.0
1070
    74
1070
     0
1000
MTEXTEND
  0
SOLID
  5
6DBF
  8
COTATION1
  6
CONTINUOUS
 10
-1438.568546
 20
244.445895
 30
0.0
 11
-1437.757649
 21
247.377183
 31
0.0
 12
-1439.475402
 22
244.867337
 32
0.0
 13
-1439.475402
 23
244.867337
 33
0.0
210
0.0
220
0.0
230
-1.0
1001
ACAD
1000
DSTYLE
1002
{
1070
     5
1000
OPEN30
1070
   342
1005
CC0F0F03000027E0
1002
}
  0
POLYLINE
  5
6FE5
  8
COTATION1
 66
     1
 10
0.0
 20
0.0
 30
0.0
 70
   128
1001
ACAD
1000
R13OBJECT
1002
{
1005
6DBF
1002
}
  0
VERTEX
  5
704D
  8
COTATION1
 10
1439.021974
 20
244.656616
 30
0.0
  0
VERTEX
  5
704E
  8
COTATION1
 10
1443.529722
 20
234.956871
 30
0.0
  0
VERTEX
  5
704F
  8
COTATION1
 10
1459.701151
 20
234.956871
 30
0.0
  0
SEQEND
  5
7050
  8
COTATION1
  0
DIMENSION
  5
6EEB
  8
COTATION1
  2
*D13
 10
1323.248168
 20
246.377183
 30
0.0
 11
1321.148168
 21
261.877183
 31
0.0
 13
1352.453086
 23
277.377183
 33
0.0
 14
1352.453086
 24
246.377183
 34
0.0
 50
90.0
  0
ENDSEC
  0
EOF
