  0
SECTION
  2
HEADER
  9
$ACADVER
  1
AC1012
  9
$DWGCODEPAGE
  3
ANSI_1252
  9
$INSBASE
 10
0.0
 20
0.0
 30
0.0
  9
$EXTMIN
 10
29.521621
 20
32.340829
 30
-0.001526
  9
$EXTMAX
 10
157.031441
 20
158.360913
 30
0.0
  9
$LIMMIN
 10
20.850579
 20
46.948039
  9
$LIMMAX
 10
113.7133
 20
232.828855
  9
$ORTHOMODE
 70
     0
  9
$REGENMODE
 70
     1
  9
$FILLMODE
 70
     1
  9
$QTEXTMODE
 70
     0
  9
$MIRRTEXT
 70
     1
  9
$DRAGMODE
 70
     2
  9
$LTSCALE
 40
10.0
  9
$OSMODE
 70
    37
  9
$ATTMODE
 70
     1
  9
$TEXTSIZE
 40
0.2
  9
$TRACEWID
 40
0.05
  9
$TEXTSTYLE
  7
STANDARD
  9
$CLAYER
  8
0
  9
$CELTYPE
  6
CONTINUOUS
  9
$CECOLOR
 62
   256
  9
$CELTSCALE
 40
1.0
  9
$DELOBJ
 70
     1
  9
$DISPSILH
 70
     0
  9
$DIMSCALE
 40
1.0
  9
$DIMASZ
 40
0.18
  9
$DIMEXO
 40
0.0625
  9
$DIMDLI
 40
0.38
  9
$DIMRND
 40
0.0
  9
$DIMDLE
 40
0.0
  9
$DIMEXE
 40
0.18
  9
$DIMTP
 40
0.0
  9
$DIMTM
 40
0.0
  9
$DIMTXT
 40
0.18
  9
$DIMCEN
 40
0.09
  9
$DIMTSZ
 40
0.0
  9
$DIMTOL
 70
     0
  9
$DIMLIM
 70
     0
  9
$DIMTIH
 70
     1
  9
$DIMTOH
 70
     1
  9
$DIMSE1
 70
     0
  9
$DIMSE2
 70
     0
  9
$DIMTAD
 70
     0
  9
$DIMZIN
 70
     0
  9
$DIMBLK
  1

  9
$DIMASO
 70
     1
  9
$DIMSHO
 70
     1
  9
$DIMPOST
  1

  9
$DIMAPOST
  1

  9
$DIMALT
 70
     0
  9
$DIMALTD
 70
     2
  9
$DIMALTF
 40
25.4
  9
$DIMLFAC
 40
1.0
  9
$DIMTOFL
 70
     0
  9
$DIMTVP
 40
0.0
  9
$DIMTIX
 70
     0
  9
$DIMSOXD
 70
     0
  9
$DIMSAH
 70
     0
  9
$DIMBLK1
  1

  9
$DIMBLK2
  1

  9
$DIMSTYLE
  2
STANDARD
  9
$DIMCLRD
 70
     0
  9
$DIMCLRE
 70
     0
  9
$DIMCLRT
 70
     0
  9
$DIMTFAC
 40
1.0
  9
$DIMGAP
 40
0.09
  9
$DIMJUST
 70
     0
  9
$DIMSD1
 70
     0
  9
$DIMSD2
 70
     0
  9
$DIMTOLJ
 70
     1
  9
$DIMTZIN
 70
     0
  9
$DIMALTZ
 70
     0
  9
$DIMALTTZ
 70
     0
  9
$DIMFIT
 70
     3
  9
$DIMUPT
 70
     0
  9
$DIMUNIT
 70
     2
  9
$DIMDEC
 70
     4
  9
$DIMTDEC
 70
     4
  9
$DIMALTU
 70
     2
  9
$DIMALTTD
 70
     2
  9
$DIMTXSTY
  7
STANDARD
  9
$DIMAUNIT
 70
     0
  9
$LUNITS
 70
     2
  9
$LUPREC
 70
     4
  9
$SKETCHINC
 40
0.1
  9
$FILLETRAD
 40
0.0
  9
$AUNITS
 70
     0
  9
$AUPREC
 70
     0
  9
$MENU
  1
acad
  9
$ELEVATION
 40
0.0
  9
$PELEVATION
 40
0.0
  9
$THICKNESS
 40
0.0
  9
$LIMCHECK
 70
     0
  9
$BLIPMODE
 70
     0
  9
$CHAMFERA
 40
0.0
  9
$CHAMFERB
 40
0.0
  9
$CHAMFERC
 40
0.0
  9
$CHAMFERD
 40
0.0
  9
$SKPOLY
 70
     0
  9
$TDCREATE
 40
2453626.726421076
  9
$TDUPDATE
 40
2453644.591237106
  9
$TDINDWG
 40
0.1060406019
  9
$TDUSRTIMER
 40
0.1060402315
  9
$USRTIMER
 70
     1
  9
$ANGBASE
 50
0.0
  9
$ANGDIR
 70
     0
  9
$PDMODE
 70
     0
  9
$PDSIZE
 40
0.0
  9
$PLINEWID
 40
0.0
  9
$COORDS
 70
     1
  9
$SPLFRAME
 70
     0
  9
$SPLINETYPE
 70
     6
  9
$SPLINESEGS
 70
     8
  9
$ATTDIA
 70
     0
  9
$ATTREQ
 70
     1
  9
$HANDLING
 70
     1
  9
$HANDSEED
  5
87B
  9
$SURFTAB1
 70
     6
  9
$SURFTAB2
 70
     6
  9
$SURFTYPE
 70
     6
  9
$SURFU
 70
     6
  9
$SURFV
 70
     6
  9
$UCSNAME
  2

  9
$UCSORG
 10
0.0
 20
0.0
 30
0.0
  9
$UCSXDIR
 10
1.0
 20
0.0
 30
0.0
  9
$UCSYDIR
 10
0.0
 20
1.0
 30
0.0
  9
$PUCSNAME
  2

  9
$PUCSORG
 10
0.0
 20
0.0
 30
0.0
  9
$PUCSXDIR
 10
1.0
 20
0.0
 30
0.0
  9
$PUCSYDIR
 10
0.0
 20
1.0
 30
0.0
  9
$USERI1
 70
     0
  9
$USERI2
 70
     0
  9
$USERI3
 70
     0
  9
$USERI4
 70
     0
  9
$USERI5
 70
     0
  9
$USERR1
 40
0.0
  9
$USERR2
 40
0.0
  9
$USERR3
 40
0.0
  9
$USERR4
 40
0.0
  9
$USERR5
 40
0.0
  9
$WORLDVIEW
 70
     1
  9
$SHADEDGE
 70
     3
  9
$SHADEDIF
 70
    70
  9
$TILEMODE
 70
     1
  9
$MAXACTVP
 70
    16
  9
$PINSBASE
 10
0.0
 20
0.0
 30
0.0
  9
$PLIMCHECK
 70
     0
  9
$PEXTMIN
 10
1.000000E+20
 20
1.000000E+20
 30
1.000000E+20
  9
$PEXTMAX
 10
-1.000000E+20
 20
-1.000000E+20
 30
-1.000000E+20
  9
$PLIMMIN
 10
0.0
 20
0.0
  9
$PLIMMAX
 10
12.0
 20
9.0
  9
$UNITMODE
 70
     0
  9
$VISRETAIN
 70
     0
  9
$PLINEGEN
 70
     1
  9
$PSLTSCALE
 70
     0
  9
$TREEDEPTH
 70
  3020
  9
$PICKSTYLE
 70
     0
  9
$CMLSTYLE
  2
STANDARD
  9
$CMLJUST
 70
     0
  9
$CMLSCALE
 40
1.0
  9
$SAVEIMAGES
 70
     0
  0
ENDSEC
  0
SECTION
  2
CLASSES
  0
CLASS
  1
LWPOLYLINE
  2
AcDbPolyline
  3
"AutoCAD"
 90
    32768
280
     0
281
     1
  0
CLASS
  1
IMAGE
  2
AcDbRasterImage
  3
ISM
 90
    32895
280
     0
281
     1
  0
CLASS
  1
OLE2FRAME
  2
AcDbOle2Frame
  3
""
 90
    32768
280
     0
281
     1
  0
CLASS
  1
HATCH
  2
AcDbHatch
  3
"ACAD_SEDONA"
 90
    32768
280
     0
281
     1
  0
CLASS
  1
DICTIONARYVAR
  2
AcDbDictionaryVar
  3
"AutoCAD"
 90
    32768
280
     0
281
     0
  0
CLASS
  1
RASTERVARIABLES
  2
AcDbRasterVariables
  3
ISM
 90
    32768
280
     0
281
     0
  0
CLASS
  1
IMAGEDEF
  2
AcDbRasterImageDef
  3
ISM
 90
    32768
280
     0
281
     0
  0
CLASS
  1
IMAGEDEF_REACTOR
  2
AcDbRasterImageDefReactor
  3
ISM
 90
    32769
280
     0
281
     0
  0
CLASS
  1
SPATIAL_FILTER
  2
AcDbSpatialFilter
  3
"Acad"
 90
    32768
280
     0
281
     0
  0
CLASS
  1
XRECORD
  2
AcDbXrecord
  3
"<Built In>"
 90
    32768
280
     0
281
     0
  0
CLASS
  1
SORTENTSTABLE
  2
AcDbSortentsTable
  3
"AutoCAD"
 90
    32768
280
     0
281
     0
  0
CLASS
  1
LAYER_INDEX
  2
AcDbLayerIndex
  3
"Acad"
 90
    32768
280
     0
281
     0
  0
CLASS
  1
SPATIAL_INDEX
  2
AcDbSpatialIndex
  3
"Acad"
 90
    32768
280
     0
281
     0
  0
CLASS
  1
OBJECT_PTR
  2
CAseDLPNTableRecord
  3
"ASE-LPNTableRecord"
 90
    32769
280
     0
281
     0
  0
CLASS
  1
LAYOUT
  2
AcDbLayout
  3
AutoCAD 2000
 90
    32768
280
     0
281
     0
  0
CLASS
  1
PLOTSETTINGS
  2
AcDbPlotSettings
  3
AutoCAD 2000
 90
    32768
280
     0
281
     0
  0
CLASS
  1
ACDBDICTIONARYWDFLT
  2
AcDbDictionaryWithDefault
  3
AutoCAD 2000
 90
    32768
280
     0
281
     0
  0
CLASS
  1
ACDBPLACEHOLDER
  2
AcDbPlaceHolder
  3
AutoCAD 2000
 90
    32768
280
     0
281
     0
  0
CLASS
  1
VBA_PROJECT
  2
AcDbVbaProject
  3
acad
 90
    32768
280
     0
281
     0
  0
CLASS
  1
WIPEOUT
  2
AcDbWipeout
  3
WipeOut|AutoCAD Express Tool|expresstools@autodesk.com
 90
    32895
280
     0
281
     1
  0
CLASS
  1
WIPEOUTVARIABLES
  2
AcDbWipeoutVariables
  3
WipeOut|AutoCAD Express Tool|expresstools@autodesk.com
 90
    32768
280
     0
281
     0
  0
CLASS
  1
RTEXT
  2
RText
  3
RText|AutoCAD Express Tool|expresstools@autodesk.com
 90
    32768
280
     0
281
     1
  0
CLASS
  1
ARCALIGNEDTEXT
  2
AcDbArcAlignedText
  3
ATEXT|AutoCAD Express Tool|expresstools@autodesk.com
 90
    32768
280
     0
281
     1
  0
CLASS
  1
TABLESTYLE
  2
AcDbTableStyle
  3
ObjectDBX Classes
 90
    34815
280
     0
281
     0
  0
CLASS
  1
ACAD_PROXY_OBJECT_WRAPPER
  2
AcDbProxyObjectWrapper
  3
AutoCAD 2000
 90
    32768
280
     0
281
     0
  0
CLASS
  1
LONG_TRANSACTION
  2
AcDbLongTransaction
  3
AutoCAD 2000
 90
    32768
280
     0
281
     0
  0
CLASS
  1
LWPOLYLINE
  2
AcDbPolyline
  3
"AutoCAD"
 90
    32768
280
     0
281
     1
  0
CLASS
  1
HATCH
  2
AcDbHatch
  3
"ACAD_SEDONA"
 90
    32768
280
     0
281
     1
  0
CLASS
  1
XRECORD
  2
AcDbXrecord
  3
"<Built In>"
 90
    32768
280
     0
281
     0
  0
ENDSEC
  0
SECTION
  2
TABLES
  0
TABLE
  2
VPORT
  5
7
100
AcDbSymbolTable
 70
     2
  0
VPORT
  5
87A
100
AcDbSymbolTableRecord
100
AcDbViewportTableRecord
  2
*ACTIVE
 70
     0
 10
0.0
 20
0.0
 11
1.0
 21
1.0
 12
93.276531
 22
95.350871
 13
0.0
 23
0.0
 14
1.0
 24
1.0
 15
0.0
 25
0.0
 16
0.0
 26
0.0
 36
1.0
 17
0.0
 27
0.0
 37
0.0
 40
127.330518
 41
1.673611
 42
50.0
 43
0.0
 44
0.0
 50
0.0
 51
0.0
 71
     0
 72
   100
 73
     1
 74
     3
 75
     0
 76
     0
 77
     0
 78
     0
  0
ENDTAB
  0
TABLE
  2
LTYPE
  5
4
100
AcDbSymbolTable
 70
     3
  0
LTYPE
  5
11
102
{ACAD_XDICTIONARY
360
83B
102
}
100
AcDbSymbolTableRecord
100
AcDbLinetypeTableRecord
  2
BYBLOCK
 70
     0
  3

 72
    65
 73
     0
 40
0.0
  0
LTYPE
  5
12
102
{ACAD_XDICTIONARY
360
83D
102
}
100
AcDbSymbolTableRecord
100
AcDbLinetypeTableRecord
  2
BYLAYER
 70
     0
  3

 72
    65
 73
     0
 40
0.0
  0
LTYPE
  5
13
102
{ACAD_XDICTIONARY
360
83F
102
}
100
AcDbSymbolTableRecord
100
AcDbLinetypeTableRecord
  2
CONTINUOUS
 70
     0
  3
Solid line
 72
    65
 73
     0
 40
0.0
  0
LTYPE
  5
1B7
100
AcDbSymbolTableRecord
100
AcDbLinetypeTableRecord
  2
AXES2
 70
     0
  3
___ _ ___ _ ___ _ ___ _ ___ _ ___ _ ___ _ ___ _
 72
    65
 73
     4
 40
1.125
 49
0.75
 74
     0
 49
-0.125
 74
     0
 49
0.125
 74
     0
 49
-0.125
 74
     0
  0
LTYPE
  5
1B8
100
AcDbSymbolTableRecord
100
AcDbLinetypeTableRecord
  2
CACHE2
 70
     0
  3
Caché (x.5) _ _ _ _ _ _ _ _ _ _ _ _ _ _ _ _ _
 72
    65
 73
     2
 40
0.1875
 49
0.125
 74
     0
 49
-0.0625
 74
     0
  0
ENDTAB
  0
TABLE
  2
LAYER
  5
2
100
AcDbSymbolTable
 70
     6
  0
LAYER
  5
14
100
AcDbSymbolTableRecord
100
AcDbLayerTableRecord
  2
0
 70
     0
 62
     7
  6
CONTINUOUS
  0
LAYER
  5
1B9
100
AcDbSymbolTableRecord
100
AcDbLayerTableRecord
  2
COTATION1
 70
     0
 62
     2
  6
CONTINUOUS
  0
LAYER
  5
1BA
100
AcDbSymbolTableRecord
100
AcDbLayerTableRecord
  2
AXE
 70
     0
 62
    80
  6
AXES2
  0
LAYER
  5
1BB
102
{ACAD_XDICTIONARY
360
871
102
}
100
AcDbSymbolTableRecord
100
AcDbLayerTableRecord
  2
DEFPOINTS
 70
     0
 62
     7
  6
CONTINUOUS
  0
LAYER
  5
1BC
100
AcDbSymbolTableRecord
100
AcDbLayerTableRecord
  2
ALPHA
 70
     0
 62
   254
  6
CONTINUOUS
  0
LAYER
  5
1BD
100
AcDbSymbolTableRecord
100
AcDbLayerTableRecord
  2
POINTILLE_COURT
 70
     0
 62
    41
  6
CACHE2
  0
ENDTAB
  0
TABLE
  2
STYLE
  5
3
100
AcDbSymbolTable
 70
     2
  0
STYLE
  5
17
102
{ACAD_XDICTIONARY
360
841
102
}
100
AcDbSymbolTableRecord
100
AcDbTextStyleTableRecord
  2
STANDARD
 70
     0
 40
0.0
 41
1.0
 50
0.0
 71
     0
 42
0.0
  3
txt
  4

  0
STYLE
  5
1BE
100
AcDbSymbolTableRecord
100
AcDbTextStyleTableRecord
  2
ROMANS
 70
     0
 40
0.0
 41
1.0
 50
0.0
 71
     0
 42
6.0
  3
romans
  4

  0
ENDTAB
  0
TABLE
  2
VIEW
  5
5
100
AcDbSymbolTable
 70
     0
  0
ENDTAB
  0
TABLE
  2
UCS
  5
6
100
AcDbSymbolTable
 70
     0
  0
ENDTAB
  0
TABLE
  2
APPID
  5
8
100
AcDbSymbolTable
 70
     1
  0
APPID
  5
16
100
AcDbSymbolTableRecord
100
AcDbRegAppTableRecord
  2
ACAD
 70
     0
  0
ENDTAB
  0
TABLE
  2
DIMSTYLE
  5
9
100
AcDbSymbolTable
 70
     2
  0
DIMSTYLE
105
18
102
{ACAD_XDICTIONARY
360
839
102
}
100
AcDbSymbolTableRecord
100
AcDbDimStyleTableRecord
  2
STANDARD
 70
     0
  3

  4

  5

  6

  7

 40
1.0
 41
0.18
 42
0.0625
 43
0.38
 44
0.18
 45
0.0
 46
0.0
 47
0.0
 48
0.0
140
0.18
141
0.09
142
0.0
143
25.4
144
1.0
145
0.0
146
1.0
147
0.09
 71
     0
 72
     0
 73
     1
 74
     1
 75
     0
 76
     0
 77
     0
 78
     0
170
     0
171
     2
172
     0
173
     0
174
     0
175
     0
176
     0
177
     0
178
     0
270
     2
271
     4
272
     4
273
     2
274
     2
340
17
275
     0
280
     0
281
     0
282
     0
283
     1
284
     0
285
     0
286
     0
287
     3
288
     0
  0
DIMSTYLE
105
1BF
102
{ACAD_XDICTIONARY
360
873
102
}
102
{ACAD_REACTORS
330
74B
330
731
330
7A9
330
7CB
330
7F0
102
}
100
AcDbSymbolTableRecord
100
AcDbDimStyleTableRecord
  2
SC_DEFAUT
 70
     0
  3

  4

  5
OPEN30
  6

  7

 40
1.0
 41
5.0
 42
2.0
 43
0.38
 44
2.5
 45
0.0
 46
0.0
 47
0.0
 48
0.0
140
2.5
141
0.0
142
0.0
143
25.4
144
1.0
145
0.0
146
1.0
147
2.0
 71
     0
 72
     0
 73
     1
 74
     1
 75
     0
 76
     0
 77
     1
 78
    12
170
     0
171
     2
172
     0
173
     0
174
     0
175
     0
176
     0
177
     0
178
     0
270
     2
271
     1
272
     1
273
     2
274
     2
340
1BE
275
     0
280
     0
281
     0
282
     0
283
     1
284
    12
285
    12
286
    12
287
     5
288
     0
  0
ENDTAB
  0
TABLE
  2
BLOCK_RECORD
  5
1
100
AcDbSymbolTable
 70
     5
  0
BLOCK_RECORD
  5
A
102
{ACAD_XDICTIONARY
360
184
102
}
100
AcDbSymbolTableRecord
100
AcDbBlockTableRecord
  2
*MODEL_SPACE
  0
BLOCK_RECORD
  5
B
102
{ACAD_XDICTIONARY
360
867
102
}
100
AcDbSymbolTableRecord
100
AcDbBlockTableRecord
  2
*PAPER_SPACE
  0
BLOCK_RECORD
  5
18C
100
AcDbSymbolTableRecord
100
AcDbBlockTableRecord
  2
_OPEN30
  0
BLOCK_RECORD
  5
732
100
AcDbSymbolTableRecord
100
AcDbBlockTableRecord
  2
*D1
  0
BLOCK_RECORD
  5
74C
100
AcDbSymbolTableRecord
100
AcDbBlockTableRecord
  2
*D2
  0
BLOCK_RECORD
  5
7AA
100
AcDbSymbolTableRecord
100
AcDbBlockTableRecord
  2
*D3
  0
BLOCK_RECORD
  5
7CC
100
AcDbSymbolTableRecord
100
AcDbBlockTableRecord
  2
*D4
  0
ENDTAB
  0
ENDSEC
  0
SECTION
  2
BLOCKS
  0
BLOCK
  5
D
100
AcDbEntity
  8
0
100
AcDbBlockBegin
  2
*MODEL_SPACE
 70
     0
 10
0.0
 20
0.0
 30
0.0
  3
*MODEL_SPACE
  1

  0
ENDBLK
  5
E
100
AcDbEntity
  8
0
100
AcDbBlockEnd
  0
BLOCK
  5
F
100
AcDbEntity
 67
     1
  8
0
100
AcDbBlockBegin
  2
*PAPER_SPACE
 70
     0
 10
0.0
 20
0.0
 30
0.0
  3
*PAPER_SPACE
  1

  0
ENDBLK
  5
10
100
AcDbEntity
 67
     1
  8
0
100
AcDbBlockEnd
  0
BLOCK
  5
18D
100
AcDbEntity
  8
0
100
AcDbBlockBegin
  2
_OPEN30
 70
     0
 10
0.0
 20
0.0
 30
0.0
  3
_OPEN30
  1

  0
LINE
  5
18E
100
AcDbEntity
  8
COTATION1
 62
     0
100
AcDbLine
 10
-1.0
 20
0.267949
 30
0.0
 11
0.0
 21
0.0
 31
0.0
1001
ACAD
1000
RTLwPs
1070
   158
  0
LINE
  5
18F
100
AcDbEntity
  8
COTATION1
 62
     0
100
AcDbLine
 10
0.0
 20
0.0
 30
0.0
 11
-1.0
 21
-0.267949
 31
0.0
1001
ACAD
1000
RTLwPs
1070
   158
  0
LINE
  5
190
100
AcDbEntity
  8
COTATION1
 62
     0
100
AcDbLine
 10
0.0
 20
0.0
 30
0.0
 11
-1.0
 21
0.0
 31
0.0
1001
ACAD
1000
RTLwPs
1070
   158
  0
ENDBLK
  5
191
100
AcDbEntity
  8
0
100
AcDbBlockEnd
  0
BLOCK
  5
73D
100
AcDbEntity
  8
0
100
AcDbBlockBegin
  2
*D1
 70
     1
 10
0.0
 20
0.0
 30
0.0
  3
*D1
  1

1001
ACAD
1000
RTLwPs
1070
   128
  0
LINE
  5
7F8
100
AcDbEntity
  8
COTATION1
 62
     0
100
AcDbLine
 10
49.527285
 20
120.846947
 30
0.0
 11
49.527285
 21
156.346947
 31
0.0
1001
ACAD
1000
RTLwPs
1070
   158
  0
LINE
  5
7F9
100
AcDbEntity
  8
COTATION1
 62
     0
100
AcDbLine
 10
109.527285
 20
120.846947
 30
0.0
 11
109.527285
 21
156.346947
 31
0.0
1001
ACAD
1000
RTLwPs
1070
   158
  0
LINE
  5
7FA
100
AcDbEntity
  8
COTATION1
 62
     0
100
AcDbLine
 10
54.527285
 20
153.846947
 30
0.0
 11
104.527285
 21
153.846947
 31
0.0
1001
ACAD
1000
RTLwPs
1070
   158
  0
INSERT
  5
7FB
100
AcDbEntity
  8
COTATION1
 62
     0
100
AcDbBlockReference
  2
_OPEN30
 10
49.527285
 20
153.846947
 30
0.0
 41
5.0
 42
5.0
 43
5.0
 50
180.0
1001
ACAD
1000
RTLwPs
1070
   158
  0
INSERT
  5
7FC
100
AcDbEntity
  8
COTATION1
 62
     0
100
AcDbBlockReference
  2
_OPEN30
 10
109.527285
 20
153.846947
 30
0.0
 41
5.0
 42
5.0
 43
5.0
1001
ACAD
1000
RTLwPs
1070
   158
  0
MTEXT
  5
7FD
100
AcDbEntity
  8
COTATION1
 62
     0
100
AcDbMText
 10
79.527285
 20
157.096947
 30
0.0
 40
2.5
 41
0.0
 71
     5
 72
     1
  1
\A1;60
  7
ROMANS
1001
ACAD
1000
MTEXTBEGIN
1070
    73
1070
     1
1070
    44
1040
1.0
1070
    74
1070
     0
1000
MTEXTEND
1000
MTEXTBEGIN
1070
    73
1070
     1
1070
    44
1040
1.0
1070
    74
1070
     0
1000
MTEXTEND
  0
POINT
  5
7FE
100
AcDbEntity
  8
DEFPOINTS
 62
     0
100
AcDbPoint
 10
49.527285
 20
118.846947
 30
0.0
1001
ACAD
1000
RTLwPs
1070
   128
  0
POINT
  5
7FF
100
AcDbEntity
  8
DEFPOINTS
 62
     0
100
AcDbPoint
 10
109.527285
 20
118.846947
 30
0.0
1001
ACAD
1000
RTLwPs
1070
   128
  0
POINT
  5
800
100
AcDbEntity
  8
DEFPOINTS
 62
     0
100
AcDbPoint
 10
109.527285
 20
153.846947
 30
0.0
1001
ACAD
1000
RTLwPs
1070
   128
  0
ENDBLK
  5
73E
100
AcDbEntity
  8
0
100
AcDbBlockEnd
1001
ACAD
1000
RTLwPs
1070
   128
  0
BLOCK
  5
757
100
AcDbEntity
  8
0
100
AcDbBlockBegin
  2
*D2
 70
     1
 10
0.0
 20
0.0
 30
0.0
  3
*D2
  1

1001
ACAD
1000
RTLwPs
1070
   128
  0
LINE
  5
801
100
AcDbEntity
  8
COTATION1
 62
     0
100
AcDbLine
 10
51.527285
 20
59.846947
 30
0.0
 11
51.527285
 21
32.346947
 31
0.0
1001
ACAD
1000
RTLwPs
1070
   158
  0
LINE
  5
802
100
AcDbEntity
  8
COTATION1
 62
     0
100
AcDbLine
 10
107.527285
 20
59.846947
 30
0.0
 11
107.527285
 21
32.346947
 31
0.0
1001
ACAD
1000
RTLwPs
1070
   158
  0
LINE
  5
803
100
AcDbEntity
  8
COTATION1
 62
     0
100
AcDbLine
 10
56.527285
 20
34.846947
 30
0.0
 11
102.527285
 21
34.846947
 31
0.0
1001
ACAD
1000
RTLwPs
1070
   158
  0
INSERT
  5
804
100
AcDbEntity
  8
COTATION1
 62
     0
100
AcDbBlockReference
  2
_OPEN30
 10
51.527285
 20
34.846947
 30
0.0
 41
5.0
 42
5.0
 43
5.0
 50
180.0
1001
ACAD
1000
RTLwPs
1070
   158
  0
INSERT
  5
805
100
AcDbEntity
  8
COTATION1
 62
     0
100
AcDbBlockReference
  2
_OPEN30
 10
107.527285
 20
34.846947
 30
0.0
 41
5.0
 42
5.0
 43
5.0
1001
ACAD
1000
RTLwPs
1070
   158
  0
MTEXT
  5
806
100
AcDbEntity
  8
COTATION1
 62
     0
100
AcDbMText
 10
79.527285
 20
38.096947
 30
0.0
 40
2.5
 41
0.0
 71
     5
 72
     1
  1
\A1;56
  7
ROMANS
1001
ACAD
1000
MTEXTBEGIN
1070
    73
1070
     1
1070
    44
1040
1.0
1070
    74
1070
     0
1000
MTEXTEND
1000
MTEXTBEGIN
1070
    73
1070
     1
1070
    44
1040
1.0
1070
    74
1070
     0
1000
MTEXTEND
  0
POINT
  5
807
100
AcDbEntity
  8
DEFPOINTS
 62
     0
100
AcDbPoint
 10
51.527285
 20
61.846947
 30
0.0
1001
ACAD
1000
RTLwPs
1070
   128
  0
POINT
  5
808
100
AcDbEntity
  8
DEFPOINTS
 62
     0
100
AcDbPoint
 10
107.527285
 20
61.846947
 30
0.0
1001
ACAD
1000
RTLwPs
1070
   128
  0
POINT
  5
809
100
AcDbEntity
  8
DEFPOINTS
 62
     0
100
AcDbPoint
 10
107.527285
 20
34.846947
 30
0.0
1001
ACAD
1000
RTLwPs
1070
   128
  0
ENDBLK
  5
758
100
AcDbEntity
  8
0
100
AcDbBlockEnd
1001
ACAD
1000
RTLwPs
1070
   128
  0
BLOCK
  5
7B5
100
AcDbEntity
  8
0
100
AcDbBlockBegin
  2
*D3
 70
     1
 10
0.0
 20
0.0
 30
0.0
  3
*D3
  1

1001
ACAD
1000
RTLwPs
1070
   128
  0
LINE
  5
80A
100
AcDbEntity
  8
COTATION1
 62
     0
100
AcDbLine
 10
111.527285
 20
118.846947
 30
0.0
 11
147.027285
 21
118.846947
 31
0.0
1001
ACAD
1000
RTLwPs
1070
   158
  0
LINE
  5
80B
100
AcDbEntity
  8
COTATION1
 62
     0
100
AcDbLine
 10
111.527285
 20
74.846947
 30
0.0
 11
147.027285
 21
74.846947
 31
0.0
1001
ACAD
1000
RTLwPs
1070
   158
  0
LINE
  5
80C
100
AcDbEntity
  8
COTATION1
 62
     0
100
AcDbLine
 10
144.527285
 20
113.846947
 30
0.0
 11
144.527285
 21
100.096947
 31
0.0
1001
ACAD
1000
RTLwPs
1070
   158
  0
LINE
  5
80D
100
AcDbEntity
  8
COTATION1
 62
     0
100
AcDbLine
 10
144.527285
 20
79.846947
 30
0.0
 11
144.527285
 21
93.596947
 31
0.0
1001
ACAD
1000
RTLwPs
1070
   158
  0
INSERT
  5
80E
100
AcDbEntity
  8
COTATION1
 62
     0
100
AcDbBlockReference
  2
_OPEN30
 10
144.527285
 20
118.846947
 30
0.0
 41
5.0
 42
5.0
 43
5.0
 50
90.0
1001
ACAD
1000
RTLwPs
1070
   158
  0
INSERT
  5
80F
100
AcDbEntity
  8
COTATION1
 62
     0
100
AcDbBlockReference
  2
_OPEN30
 10
144.527285
 20
74.846947
 30
0.0
 41
5.0
 42
5.0
 43
5.0
 50
270.0
1001
ACAD
1000
RTLwPs
1070
   158
  0
MTEXT
  5
810
100
AcDbEntity
  8
COTATION1
 62
     0
100
AcDbMText
 10
144.527285
 20
96.846947
 30
0.0
 40
2.5
 41
0.0
 71
     5
 72
     1
  1
\A1;44
  7
ROMANS
1001
ACAD
1000
MTEXTBEGIN
1070
    73
1070
     1
1070
    44
1040
1.0
1070
    74
1070
     0
1000
MTEXTEND
1000
MTEXTBEGIN
1070
    73
1070
     1
1070
    44
1040
1.0
1070
    74
1070
     0
1000
MTEXTEND
  0
POINT
  5
811
100
AcDbEntity
  8
DEFPOINTS
 62
     0
100
AcDbPoint
 10
109.527285
 20
118.846947
 30
0.0
1001
ACAD
1000
RTLwPs
1070
   128
  0
POINT
  5
812
100
AcDbEntity
  8
DEFPOINTS
 62
     0
100
AcDbPoint
 10
109.527285
 20
74.846947
 30
0.0
1001
ACAD
1000
RTLwPs
1070
   128
  0
POINT
  5
813
100
AcDbEntity
  8
DEFPOINTS
 62
     0
100
AcDbPoint
 10
144.527285
 20
74.846947
 30
0.0
1001
ACAD
1000
RTLwPs
1070
   128
  0
ENDBLK
  5
7B6
100
AcDbEntity
  8
0
100
AcDbBlockEnd
1001
ACAD
1000
RTLwPs
1070
   128
  0
BLOCK
  5
7D7
100
AcDbEntity
  8
0
100
AcDbBlockBegin
  2
*D4
 70
     1
 10
0.0
 20
0.0
 30
0.0
  3
*D4
  1

1001
ACAD
1000
RTLwPs
1070
   128
  0
LINE
  5
814
100
AcDbEntity
  8
COTATION1
 62
     0
100
AcDbLine
 10
116.527285
 20
124.846947
 30
0.0
 11
157.027285
 21
124.846947
 31
0.0
1001
ACAD
1000
RTLwPs
1070
   158
  0
LINE
  5
815
100
AcDbEntity
  8
COTATION1
 62
     0
100
AcDbLine
 10
116.527285
 20
68.846947
 30
0.0
 11
157.027285
 21
68.846947
 31
0.0
1001
ACAD
1000
RTLwPs
1070
   158
  0
LINE
  5
816
100
AcDbEntity
  8
COTATION1
 62
     0
100
AcDbLine
 10
154.527285
 20
119.846947
 30
0.0
 11
154.527285
 21
100.096947
 31
0.0
1001
ACAD
1000
RTLwPs
1070
   158
  0
LINE
  5
817
100
AcDbEntity
  8
COTATION1
 62
     0
100
AcDbLine
 10
154.527285
 20
73.846947
 30
0.0
 11
154.527285
 21
93.596947
 31
0.0
1001
ACAD
1000
RTLwPs
1070
   158
  0
INSERT
  5
818
100
AcDbEntity
  8
COTATION1
 62
     0
100
AcDbBlockReference
  2
_OPEN30
 10
154.527285
 20
124.846947
 30
0.0
 41
5.0
 42
5.0
 43
5.0
 50
90.0
1001
ACAD
1000
RTLwPs
1070
   158
  0
INSERT
  5
819
100
AcDbEntity
  8
COTATION1
 62
     0
100
AcDbBlockReference
  2
_OPEN30
 10
154.527285
 20
68.846947
 30
0.0
 41
5.0
 42
5.0
 43
5.0
 50
270.0
1001
ACAD
1000
RTLwPs
1070
   158
  0
MTEXT
  5
81A
100
AcDbEntity
  8
COTATION1
 62
     0
100
AcDbMText
 10
154.527285
 20
96.846947
 30
0.0
 40
2.5
 41
0.0
 71
     5
 72
     1
  1
\A1;56
  7
ROMANS
1001
ACAD
1000
MTEXTBEGIN
1070
    73
1070
     1
1070
    44
1040
1.0
1070
    74
1070
     0
1000
MTEXTEND
1000
MTEXTBEGIN
1070
    73
1070
     1
1070
    44
1040
1.0
1070
    74
1070
     0
1000
MTEXTEND
  0
POINT
  5
81B
100
AcDbEntity
  8
DEFPOINTS
 62
     0
100
AcDbPoint
 10
114.527285
 20
124.846947
 30
0.0
1001
ACAD
1000
RTLwPs
1070
   128
  0
POINT
  5
81C
100
AcDbEntity
  8
DEFPOINTS
 62
     0
100
AcDbPoint
 10
114.527285
 20
68.846947
 30
0.0
1001
ACAD
1000
RTLwPs
1070
   128
  0
POINT
  5
81D
100
AcDbEntity
  8
DEFPOINTS
 62
     0
100
AcDbPoint
 10
154.527285
 20
68.846947
 30
0.0
1001
ACAD
1000
RTLwPs
1070
   128
  0
ENDBLK
  5
7D8
100
AcDbEntity
  8
0
100
AcDbBlockEnd
1001
ACAD
1000
RTLwPs
1070
   128
  0
ENDSEC
  0
SECTION
  2
ENTITIES
  0
CIRCLE
  5
71
100
AcDbEntity
  8
ALPHA
100
AcDbCircle
 10
51.527285
 20
124.846947
 30
0.0
 40
2.0
  0
LINE
  5
70D
100
AcDbEntity
  8
AXE
100
AcDbLine
 10
51.527285
 20
117.846947
 30
0.0
 11
51.527285
 21
131.846947
 31
0.0
  0
LINE
  5
70E
100
AcDbEntity
  8
AXE
100
AcDbLine
 10
44.527285
 20
124.846947
 30
0.0
 11
58.527285
 21
124.846947
 31
0.0
  0
LINE
  5
70F
100
AcDbEntity
  8
ALPHA
  6
CONTINUOUS
100
AcDbLine
 10
49.527285
 20
118.846947
 30
0.0
 11
49.527285
 21
74.846947
 31
0.0
1001
ACAD
1000
RTLwPs
1070
   128
  0
LINE
  5
710
100
AcDbEntity
  8
ALPHA
  6
CONTINUOUS
100
AcDbLine
 10
49.527285
 20
74.846947
 30
0.0
 11
109.527285
 21
74.846947
 31
0.0
1001
ACAD
1000
RTLwPs
1070
   128
  0
LINE
  5
711
100
AcDbEntity
  8
ALPHA
  6
CONTINUOUS
100
AcDbLine
 10
109.527285
 20
74.846947
 30
0.0
 11
109.527285
 21
118.846947
 31
0.0
1001
ACAD
1000
RTLwPs
1070
   128
  0
LINE
  5
712
100
AcDbEntity
  8
ALPHA
  6
CONTINUOUS
100
AcDbLine
 10
109.527285
 20
118.846947
 30
0.0
 11
49.527285
 21
118.846947
 31
0.0
1001
ACAD
1000
RTLwPs
1070
   128
  0
CIRCLE
  5
716
100
AcDbEntity
  8
ALPHA
100
AcDbCircle
 10
107.527285
 20
124.846947
 30
0.0
 40
2.0
  0
LINE
  5
717
100
AcDbEntity
  8
AXE
100
AcDbLine
 10
107.527285
 20
117.846947
 30
0.0
 11
107.527285
 21
131.846947
 31
0.0
  0
LINE
  5
718
100
AcDbEntity
  8
AXE
100
AcDbLine
 10
100.527285
 20
124.846947
 30
0.0
 11
114.527285
 21
124.846947
 31
0.0
  0
CIRCLE
  5
71C
100
AcDbEntity
  8
ALPHA
100
AcDbCircle
 10
51.527285
 20
68.846947
 30
0.0
 40
2.0
  0
LINE
  5
71D
100
AcDbEntity
  8
AXE
100
AcDbLine
 10
51.527285
 20
75.846947
 30
0.0
 11
51.527285
 21
61.846947
 31
0.0
  0
LINE
  5
71E
100
AcDbEntity
  8
AXE
100
AcDbLine
 10
44.527285
 20
68.846947
 30
0.0
 11
58.527285
 21
68.846947
 31
0.0
  0
CIRCLE
  5
71F
100
AcDbEntity
  8
ALPHA
100
AcDbCircle
 10
107.527285
 20
68.846947
 30
0.0
 40
2.0
  0
LINE
  5
720
100
AcDbEntity
  8
AXE
100
AcDbLine
 10
107.527285
 20
75.846947
 30
0.0
 11
107.527285
 21
61.846947
 31
0.0
  0
LINE
  5
721
100
AcDbEntity
  8
AXE
100
AcDbLine
 10
100.527285
 20
68.846947
 30
0.0
 11
114.527285
 21
68.846947
 31
0.0
  0
LINE
  5
725
100
AcDbEntity
  8
AXE
100
AcDbLine
 10
39.527285
 20
133.846947
 30
0.0
 11
119.527285
 21
133.846947
 31
0.0
  0
LINE
  5
726
100
AcDbEntity
  8
AXE
100
AcDbLine
 10
119.527285
 20
133.846947
 30
0.0
 11
119.527285
 21
59.846947
 31
0.0
  0
LINE
  5
727
100
AcDbEntity
  8
AXE
100
AcDbLine
 10
119.527285
 20
59.846947
 30
0.0
 11
39.527285
 21
59.846947
 31
0.0
  0
LINE
  5
728
100
AcDbEntity
  8
AXE
100
AcDbLine
 10
39.527285
 20
133.846947
 30
0.0
 11
39.527285
 21
59.846947
 31
0.0
  0
LINE
  5
72D
100
AcDbEntity
  8
AXE
100
AcDbLine
 10
79.527285
 20
44.846947
 30
0.0
 11
79.527285
 21
143.846947
 31
0.0
  0
TEXT
  5
72E
100
AcDbEntity
  8
AXE
100
AcDbText
 10
72.051094
 20
44.846947
 30
0.0
 40
8.0
  1
Y
  7
ROMANS
 72
     2
 11
78.527285
 21
44.846947
 31
0.0
100
AcDbText
  0
LINE
  5
72F
100
AcDbEntity
  8
AXE
100
AcDbLine
 10
29.527285
 20
96.846947
 30
0.0
 11
134.527285
 21
96.846947
 31
0.0
  0
TEXT
  5
730
100
AcDbEntity
  8
AXE
100
AcDbText
 10
128.051094
 20
97.846947
 30
0.0
 40
8.0
  1
X
  7
ROMANS
 72
     2
 11
134.527285
 21
97.846947
 31
0.0
100
AcDbText
  0
DIMENSION
  5
731
100
AcDbEntity
  8
COTATION1
100
AcDbDimension
  2
*D1
 10
109.527285
 20
153.846947
 30
0.0
 11
79.527285
 21
157.096947
 31
0.0
 70
    32
  3
SC_DEFAUT
100
AcDbAlignedDimension
 13
49.527285
 23
118.846947
 33
0.0
 14
109.527285
 24
118.846947
 34
0.0
100
AcDbRotatedDimension
  0
DIMENSION
  5
74B
100
AcDbEntity
  8
COTATION1
100
AcDbDimension
  2
*D2
 10
107.527285
 20
34.846947
 30
0.0
 11
79.527285
 21
38.096947
 31
0.0
 70
    32
  3
SC_DEFAUT
100
AcDbAlignedDimension
 13
51.527285
 23
61.846947
 33
0.0
 14
107.527285
 24
61.846947
 34
0.0
100
AcDbRotatedDimension
  0
DIMENSION
  5
7A9
100
AcDbEntity
  8
COTATION1
100
AcDbDimension
  2
*D3
 10
144.527285
 20
74.846947
 30
0.0
 11
144.527285
 21
96.846947
 31
0.0
 70
    32
  3
SC_DEFAUT
100
AcDbAlignedDimension
 13
109.527285
 23
118.846947
 33
0.0
 14
109.527285
 24
74.846947
 34
0.0
 50
90.0
100
AcDbRotatedDimension
  0
DIMENSION
  5
7CB
100
AcDbEntity
  8
COTATION1
100
AcDbDimension
  2
*D4
 10
154.527285
 20
68.846947
 30
0.0
 11
154.527285
 21
96.846947
 31
0.0
 70
    32
  3
SC_DEFAUT
100
AcDbAlignedDimension
 13
114.527285
 23
124.846947
 33
0.0
 14
114.527285
 24
68.846947
 34
0.0
 50
90.0
100
AcDbRotatedDimension
  0
LEADER
  5
7F0
100
AcDbEntity
  8
COTATION1
100
AcDbLeader
  3
SC_DEFAUT
 73
     0
 74
     0
 75
     1
 40
2.5
 41
14.047619
 76
     3
 10
109.048197
 20
67.548168
 30
0.0
 10
122.52387
 20
50.650634
 30
0.0
 10
127.52387
 20
50.650634
 30
0.0
 77
   256
340
7F1
213
0.0
223
-0.09
233
0.0
1001
ACAD
1000
DSTYLE
1002
{
1070
     5
1000
OPEN30
1002
}
1000
LEANOF
1010
0.0
1020
-0.09
1030
0.0
  0
MTEXT
  5
7F1
102
{ACAD_REACTORS
330
7F0
102
}
100
AcDbEntity
  8
COTATION1
100
AcDbMText
 10
129.52387
 20
55.240634
 30
0.0
 40
2.5
 41
0.0
 71
     1
 72
     1
  1
\A1;4 x M4
  7
ROMANS
1001
ACAD
1000
MTEXTBEGIN
1070
    73
1070
     1
1070
    44
1040
1.0
1070
    74
1070
     0
1000
MTEXTEND
1000
MTEXTBEGIN
1070
    73
1070
     1
1070
    44
1040
1.0
1070
    74
1070
     0
1000
MTEXTEND
  0
ENDSEC
  0
SECTION
  2
OBJECTS
  0
DICTIONARY
  5
19
102
{ACAD_XDICTIONARY
360
869
102
}
100
AcDbDictionary
  3
ACAD_COLOR
350
16C
  3
ACAD_GROUP
350
1A
  3
ACAD_LAYOUT
350
1E
  3
ACAD_MATERIAL
350
16B
  3
ACAD_MLINESTYLE
350
1B
  3
ACAD_PLOTSETTINGS
350
22
  3
ACAD_PLOTSTYLENAME
350
1F
  3
ACAD_TABLESTYLE
350
16D
  3
ACAD_WIPEOUT_VARS
350
23
  3
ACADDIM
350
7EF
  3
ACDBHEADERROUNDTRIPXREC
350
845
  3
ACDBVARIABLEDICTIONARY
350
178
  0
DICTIONARY
  5
83B
100
AcDbDictionary
  3
ACAD_XREC_ROUNDTRIP
360
83C
  0
DICTIONARY
  5
83D
100
AcDbDictionary
  3
ACAD_XREC_ROUNDTRIP
360
83E
  0
DICTIONARY
  5
83F
100
AcDbDictionary
  3
ACAD_XREC_ROUNDTRIP
360
840
  0
DICTIONARY
  5
871
100
AcDbDictionary
  3
ACAD_XREC_ROUNDTRIP
360
872
  0
DICTIONARY
  5
841
100
AcDbDictionary
  3
ACAD_XREC_ROUNDTRIP
360
842
  0
DICTIONARY
  5
839
100
AcDbDictionary
  3
ACAD_XREC_ROUNDTRIP
360
83A
  0
DICTIONARY
  5
873
100
AcDbDictionary
  3
ACAD_XREC_ROUNDTRIP
360
874
  0
DICTIONARY
  5
184
100
AcDbDictionary
  3
ACAD_LAYOUTSELFREF
360
866
  3
ACAD_SORTENTS
360
185
  0
DICTIONARY
  5
867
100
AcDbDictionary
  3
ACAD_LAYOUTSELFREF
360
868
  0
DICTIONARY
  5
869
100
AcDbDictionary
  3
ACAD_XREC_ROUNDTRIP
360
86A
  0
DICTIONARY
  5
16C
102
{ACAD_REACTORS
330
19
102
}
100
AcDbDictionary
  0
DICTIONARY
  5
1A
102
{ACAD_REACTORS
330
19
102
}
100
AcDbDictionary
  0
DICTIONARY
  5
1E
102
{ACAD_XDICTIONARY
360
86D
102
}
102
{ACAD_REACTORS
330
19
102
}
100
AcDbDictionary
  3
LAYOUT1
350
21
  3
MODEL
350
20
  0
DICTIONARY
  5
16B
102
{ACAD_REACTORS
330
19
102
}
100
AcDbDictionary
  0
DICTIONARY
  5
1B
102
{ACAD_XDICTIONARY
360
86B
102
}
102
{ACAD_REACTORS
330
19
102
}
100
AcDbDictionary
  3
STANDARD
350
1C
  0
DICTIONARY
  5
22
102
{ACAD_REACTORS
330
19
102
}
100
AcDbDictionary
  0
ACAD_ZOMBIE_OBJECT
  5
1F
102
{ACAD_REACTORS
330
19
102
}
100
AcDbZombieObject
 90
      499
 91
      517
 93
       86
310
405010041939BDC9B585B2
350
1D
340
1D
 94
        0
  0
DICTIONARY
  5
16D
102
{ACAD_XDICTIONARY
360
86F
102
}
102
{ACAD_REACTORS
330
19
102
}
100
AcDbDictionary
  3
STANDARD
350
16E
  0
ACAD_ZOMBIE_OBJECT
  5
23
102
{ACAD_REACTORS
330
19
102
}
100
AcDbZombieObject
 90
      499
 91
      521
 93
       10
310
4043
 94
        0
  0
XRECORD
  5
7EF
102
{ACAD_REACTORS
330
19
102
}
100
AcDbXrecord
 90
   990106
  3

 60
     0
 61
     0
 62
     1
 63
     3
 64
     0
 65
     0
 66
     0
 67
     3
 68
     1
 69
     0
 70
     0
 71
     0
 72
     0
 40
0.0
170
     0
340
7F1
  0
DICTIONARY
  5
845
102
{ACAD_REACTORS
330
19
102
}
100
AcDbDictionary
  3
CEPSNTYPE
350
84F
  3
DIMSTYLEDATA
350
853
  3
FINGERPRINTGUID
350
850
  3
HYPERLINKBASE
350
848
  3
INSUNITS
350
84E
  3
LAYOUTDICT
350
84A
  3
LWETCUNION
350
84D
  3
PLOTSETDICT
350
84B
  3
PLOTSTYLNAMDICT
350
84C
  3
PSVPSCALE
350
852
  3
PUCSBASE
350
856
  3
PUCSORGBACK
350
85C
  3
PUCSORGBOTTOM
350
858
  3
PUCSORGFRONT
350
85B
  3
PUCSORGLEFT
350
859
  3
PUCSORGRIGHT
350
85A
  3
PUCSORGTOP
350
857
  3
PUCSORTHOREF
350
854
  3
PUCSORTHOVIEW
350
855
  3
STYLESHEET
350
849
  3
TSTACKALIGN
350
846
  3
TSTACKSIZE
350
847
  3
UCSBASE
350
85F
  3
UCSORGBACK
350
865
  3
UCSORGBOTTOM
350
861
  3
UCSORGFRONT
350
864
  3
UCSORGLEFT
350
862
  3
UCSORGRIGHT
350
863
  3
UCSORGTOP
350
860
  3
UCSORTHOREF
350
85D
  3
UCSORTHOVIEW
350
85E
  3
VERSIONGUID
350
851
  0
DICTIONARY
  5
178
102
{ACAD_REACTORS
330
19
102
}
100
AcDbDictionary
  3
CTABLESTYLE
350
179
  3
DIMASSOC
350
17A
  3
PROJECTNAME
350
17B
  0
XRECORD
  5
83C
102
{ACAD_REACTORS
330
83B
102
}
100
AcDbXrecord
102
EXTNAMES
  1
BYBLOCK
  2
ByBlock
  0
XRECORD
  5
83E
102
{ACAD_REACTORS
330
83D
102
}
100
AcDbXrecord
102
EXTNAMES
  1
BYLAYER
  2
ByLayer
  0
XRECORD
  5
840
102
{ACAD_REACTORS
330
83F
102
}
100
AcDbXrecord
102
EXTNAMES
  1
CONTINUOUS
  2
Continuous
  0
XRECORD
  5
872
102
{ACAD_REACTORS
330
871
102
}
100
AcDbXrecord
102
PLOTBIT
280
     0
  0
XRECORD
  5
842
102
{ACAD_REACTORS
330
841
102
}
100
AcDbXrecord
102
EXTNAMES
  1
STANDARD
  2
Standard
  0
XRECORD
  5
83A
102
{ACAD_REACTORS
330
839
102
}
100
AcDbXrecord
102
EXTNAMES
  1
STANDARD
  2
Standard
  0
XRECORD
  5
874
102
{ACAD_REACTORS
330
873
102
}
100
AcDbXrecord
102
ACADR14ROUNDTRIP
1000
DSTYLE
1002
{
1070
   279
 70
     2
1070
   341
340
18C
1070
   342
340
18C
1002
}
  0
XRECORD
  5
866
102
{ACAD_REACTORS
330
184
102
}
100
AcDbXrecord
340
A
  0
SORTENTSTABLE
  5
185
102
{ACAD_REACTORS
330
184
102
}
100
AcDbSortentsTable
330
A
331
71
  5
71
  0
XRECORD
  5
868
102
{ACAD_REACTORS
330
867
102
}
100
AcDbXrecord
340
B
  0
XRECORD
  5
86A
102
{ACAD_REACTORS
330
869
102
}
100
AcDbXrecord
102
EXTNAMES
  1
ACADDIM
  2
AcadDim
  1
ACDBVARIABLEDICTIONARY
  2
AcDbVariableDictionary
  0
DICTIONARY
  5
86D
100
AcDbDictionary
  3
ACAD_XREC_ROUNDTRIP
360
86E
  0
ACAD_ZOMBIE_OBJECT
  5
21
102
{ACAD_XDICTIONARY
360
832
102
}
102
{ACAD_REACTORS
330
1E
102
}
100
AcDbZombieObject
 90
      499
 91
      515
 93
      812
310
AAAAAAAAAA5A69074C61796F757431406A800000000000000000000000000000000000000000000A1000000000000008902A6A6A10232D5E076BC5510408CB5781DAF154410232D5E076BC5510408CB5781DAF15C410232D5E076BC5710408CB5781DAF15C48
330
B
330
0
340
0
340
0
 94
        0
  0
ACAD_ZOMBIE_OBJECT
  5
20
102
{ACAD_XDICTIONARY
360
830
102
}
102
{ACAD_REACTORS
330
1E
102
}
100
AcDbZombieObject
 90
      499
 91
      515
 93
      420
310
A00012AAAAAAAA5A69054D6F64656CAA80000000000000000000000000000000000000000000000000000000000000002AAAAAAAA7
330
A
330
0
340
0
340
0
 94
        0
  0
DICTIONARY
  5
86B
100
AcDbDictionary
  3
ACAD_XREC_ROUNDTRIP
360
86C
  0
MLINESTYLE
  5
1C
102
{ACAD_REACTORS
330
1B
102
}
100
AcDbMlineStyle
  2
STANDARD
 70
     0
  3

 62
     0
 51
90.0
 52
90.0
 71
     2
 49
0.5
 62
   256
  6
BYLAYER
 49
-0.5
 62
   256
  6
BYLAYER
  0
ACAD_ZOMBIE_OBJECT
  5
1D
102
{ACAD_REACTORS
330
1F
102
}
100
AcDbZombieObject
 90
      499
 91
      518
 93
        0
 94
        0
  0
DICTIONARY
  5
86F
100
AcDbDictionary
  3
ACAD_XREC_ROUNDTRIP
360
870
  0
ACAD_ZOMBIE_OBJECT
  5
16E
102
{ACAD_REACTORS
330
16D
102
}
100
AcDbZombieObject
 90
      499
 91
      525
 93
     1841
310
4214DD185B99185C9928000000000000F83F0000000000003E0FC00000000000004901028000000C1008070000C3001FDFF8000000C1003FBFF000000182007F7FE00000030400FEFFC00000060801FDFF8000000C1003FBFF000000182000000000000000C2020B0000001820100E000186003FBFF000000182007F7FE000
310
00030400FEFFC00000060801FDFF8000000C1003FBFF000000182007F7FE0000003040000000000000012404160000003040201C00030C007F7FE00000030400FEFFC00000060801FDFF8000000C1003FBFF000000182007F7FE00000030400FEFFC000000608009
340
17
340
17
340
17
 94
        0
1001
ACAD
1000
AcadProxyRoundTripData
1071
      524
1071
   393239
1070
     0
  0
XRECORD
  5
84F
102
{ACAD_REACTORS
330
845
102
}
100
AcDbXrecord
 90
        0
  0
XRECORD
  5
853
102
{ACAD_REACTORS
330
845
102
}
100
AcDbXrecord
1000
DSTYLE
1002
{
1070
   278
 70
     0
1070
   371
 70
     0
1070
   372
 70
     0
1002
}
  0
XRECORD
  5
850
102
{ACAD_REACTORS
330
845
102
}
100
AcDbXrecord
  1

  0
XRECORD
  5
848
102
{ACAD_REACTORS
330
845
102
}
100
AcDbXrecord
  1

  0
XRECORD
  5
84E
102
{ACAD_REACTORS
330
845
102
}
100
AcDbXrecord
 90
        0
  0
XRECORD
  5
84A
102
{ACAD_REACTORS
330
845
102
}
100
AcDbXrecord
340
1E
  0
XRECORD
  5
84D
102
{ACAD_REACTORS
330
845
102
}
100
AcDbXrecord
 90
    10752
  0
XRECORD
  5
84B
102
{ACAD_REACTORS
330
845
102
}
100
AcDbXrecord
340
22
  0
XRECORD
  5
84C
102
{ACAD_REACTORS
330
845
102
}
100
AcDbXrecord
340
1F
  0
XRECORD
  5
852
102
{ACAD_REACTORS
330
845
102
}
100
AcDbXrecord
 40
0.0
  0
XRECORD
  5
856
102
{ACAD_REACTORS
330
845
102
}
100
AcDbXrecord
340
0
  0
XRECORD
  5
85C
102
{ACAD_REACTORS
330
845
102
}
100
AcDbXrecord
 10
0.0
 20
0.0
 30
0.0
  0
XRECORD
  5
858
102
{ACAD_REACTORS
330
845
102
}
100
AcDbXrecord
 10
0.0
 20
0.0
 30
0.0
  0
XRECORD
  5
85B
102
{ACAD_REACTORS
330
845
102
}
100
AcDbXrecord
 10
0.0
 20
0.0
 30
0.0
  0
XRECORD
  5
859
102
{ACAD_REACTORS
330
845
102
}
100
AcDbXrecord
 10
0.0
 20
0.0
 30
0.0
  0
XRECORD
  5
85A
102
{ACAD_REACTORS
330
845
102
}
100
AcDbXrecord
 10
0.0
 20
0.0
 30
0.0
  0
XRECORD
  5
857
102
{ACAD_REACTORS
330
845
102
}
100
AcDbXrecord
 10
0.0
 20
0.0
 30
0.0
  0
XRECORD
  5
854
102
{ACAD_REACTORS
330
845
102
}
100
AcDbXrecord
340
0
  0
XRECORD
  5
855
102
{ACAD_REACTORS
330
845
102
}
100
AcDbXrecord
 70
     0
  0
XRECORD
  5
849
102
{ACAD_REACTORS
330
845
102
}
100
AcDbXrecord
  1

  0
XRECORD
  5
846
102
{ACAD_REACTORS
330
845
102
}
100
AcDbXrecord
 90
        1
  0
XRECORD
  5
847
102
{ACAD_REACTORS
330
845
102
}
100
AcDbXrecord
 90
       70
  0
XRECORD
  5
85F
102
{ACAD_REACTORS
330
845
102
}
100
AcDbXrecord
340
0
  0
XRECORD
  5
865
102
{ACAD_REACTORS
330
845
102
}
100
AcDbXrecord
 10
0.0
 20
0.0
 30
0.0
  0
XRECORD
  5
861
102
{ACAD_REACTORS
330
845
102
}
100
AcDbXrecord
 10
0.0
 20
0.0
 30
0.0
  0
XRECORD
  5
864
102
{ACAD_REACTORS
330
845
102
}
100
AcDbXrecord
 10
0.0
 20
0.0
 30
0.0
  0
XRECORD
  5
862
102
{ACAD_REACTORS
330
845
102
}
100
AcDbXrecord
 10
0.0
 20
0.0
 30
0.0
  0
XRECORD
  5
863
102
{ACAD_REACTORS
330
845
102
}
100
AcDbXrecord
 10
0.0
 20
0.0
 30
0.0
  0
XRECORD
  5
860
102
{ACAD_REACTORS
330
845
102
}
100
AcDbXrecord
 10
0.0
 20
0.0
 30
0.0
  0
XRECORD
  5
85D
102
{ACAD_REACTORS
330
845
102
}
100
AcDbXrecord
340
0
  0
XRECORD
  5
85E
102
{ACAD_REACTORS
330
845
102
}
100
AcDbXrecord
 70
     0
  0
XRECORD
  5
851
102
{ACAD_REACTORS
330
845
102
}
100
AcDbXrecord
  1
{7A326E6C-8785-4A67-96D7-787F7F6977F9}
  0
DICTIONARYVAR
  5
179
102
{ACAD_REACTORS
330
178
102
}
100
DictionaryVariables
280
     0
  1
STANDARD
  0
DICTIONARYVAR
  5
17A
102
{ACAD_REACTORS
330
178
102
}
100
DictionaryVariables
280
     0
  1
1
  0
DICTIONARYVAR
  5
17B
102
{ACAD_REACTORS
330
178
102
}
100
DictionaryVariables
280
     0
  1

  0
XRECORD
  5
86E
102
{ACAD_REACTORS
330
86D
102
}
100
AcDbXrecord
102
EXTNAMES
  1
LAYOUT1
  2
Layout1
  1
MODEL
  2
Model
  0
DICTIONARY
  5
832
100
AcDbDictionary
  3
ACAD_XREC_ROUNDTRIP
360
833
  0
DICTIONARY
  5
830
100
AcDbDictionary
  3
ACAD_XREC_ROUNDTRIP
360
831
  0
XRECORD
  5
86C
102
{ACAD_REACTORS
330
86B
102
}
100
AcDbXrecord
102
EXTNAMES
  1
STANDARD
  2
Standard
  0
XRECORD
  5
870
102
{ACAD_REACTORS
330
86F
102
}
100
AcDbXrecord
102
EXTNAMES
  1
STANDARD
  2
Standard
  0
XRECORD
  5
833
102
{ACAD_REACTORS
330
832
102
}
100
AcDbXrecord
102
SHADEPLOT
 70
     0
102
SHADEPLOTRESLEVEL
 70
     2
102
SHADEPLOTCUSTOMDPI
 70
   300
  0
XRECORD
  5
831
102
{ACAD_REACTORS
330
830
102
}
100
AcDbXrecord
102
SHADEPLOT
 70
     0
102
SHADEPLOTRESLEVEL
 70
     2
102
SHADEPLOTCUSTOMDPI
 70
   300
  0
ENDSEC
  0
EOF
