  0
SECTION
  2
HEADER
  9
$ACADVER
  1
AC1014
  9
$ACADMAINTVER
 70
     0
  9
$DWGCODEPAGE
  3
ANSI_1252
  9
$INSBASE
 10
66.650887
 20
103.02824
 30
0.0
  9
$EXTMIN
 10
51.654422
 20
71.188426
 30
0.0
  9
$EXTMAX
 10
90.545211
 20
128.259956
 30
0.0
  9
$LIMMIN
 10
0.0
 20
0.0
  9
$LIMMAX
 10
210.0
 20
297.0
  9
$ORTHOMODE
 70
     1
  9
$REGENMODE
 70
     1
  9
$FILLMODE
 70
     1
  9
$QTEXTMODE
 70
     0
  9
$MIRRTEXT
 70
     1
  9
$DRAGMODE
 70
     2
  9
$LTSCALE
 40
7.0
  9
$OSMODE
 70
     0
  9
$ATTMODE
 70
     1
  9
$TEXTSIZE
 40
0.2
  9
$TRACEWID
 40
0.05
  9
$TEXTSTYLE
  7
STANDARD
  9
$CLAYER
  8
COTATION1
  9
$CELTYPE
  6
BYLAYER
  9
$CECOLOR
 62
   256
  9
$CELTSCALE
 40
1.0
  9
$DELOBJ
 70
     1
  9
$DISPSILH
 70
     0
  9
$DIMSCALE
 40
1.0
  9
$DIMASZ
 40
3.0
  9
$DIMEXO
 40
0.0625
  9
$DIMDLI
 40
0.38
  9
$DIMRND
 40
0.01
  9
$DIMDLE
 40
0.0
  9
$DIMEXE
 40
0.18
  9
$DIMTP
 40
0.0
  9
$DIMTM
 40
0.0
  9
$DIMTXT
 40
2.5
  9
$DIMCEN
 40
0.09
  9
$DIMTSZ
 40
0.0
  9
$DIMTOL
 70
     0
  9
$DIMLIM
 70
     0
  9
$DIMTIH
 70
     0
  9
$DIMTOH
 70
     0
  9
$DIMSE1
 70
     0
  9
$DIMSE2
 70
     0
  9
$DIMTAD
 70
     1
  9
$DIMZIN
 70
    12
  9
$DIMBLK
  1

  9
$DIMASO
 70
     1
  9
$DIMSHO
 70
     1
  9
$DIMPOST
  1

  9
$DIMAPOST
  1

  9
$DIMALT
 70
     0
  9
$DIMALTD
 70
     2
  9
$DIMALTF
 40
25.4
  9
$DIMLFAC
 40
1.0
  9
$DIMTOFL
 70
     1
  9
$DIMTVP
 40
0.0
  9
$DIMTIX
 70
     0
  9
$DIMSOXD
 70
     0
  9
$DIMSAH
 70
     0
  9
$DIMBLK1
  1

  9
$DIMBLK2
  1

  9
$DIMSTYLE
  2
SC_STAND
  9
$DIMCLRD
 70
     0
  9
$DIMCLRE
 70
     0
  9
$DIMCLRT
 70
     0
  9
$DIMTFAC
 40
1.0
  9
$DIMGAP
 40
1.0
  9
$DIMJUST
 70
     0
  9
$DIMSD1
 70
     0
  9
$DIMSD2
 70
     0
  9
$DIMTOLJ
 70
     1
  9
$DIMTZIN
 70
    12
  9
$DIMALTZ
 70
    12
  9
$DIMALTTZ
 70
    12
  9
$DIMFIT
 70
     5
  9
$DIMUPT
 70
     0
  9
$DIMUNIT
 70
     2
  9
$DIMDEC
 70
     4
  9
$DIMTDEC
 70
     4
  9
$DIMALTU
 70
     2
  9
$DIMALTTD
 70
     2
  9
$DIMTXSTY
  7
STANDARD
  9
$DIMAUNIT
 70
     0
  9
$LUNITS
 70
     2
  9
$LUPREC
 70
     4
  9
$SKETCHINC
 40
0.1
  9
$FILLETRAD
 40
0.0
  9
$AUNITS
 70
     0
  9
$AUPREC
 70
     0
  9
$MENU
  1
acad
  9
$ELEVATION
 40
0.0
  9
$PELEVATION
 40
0.0
  9
$THICKNESS
 40
0.0
  9
$LIMCHECK
 70
     0
  9
$BLIPMODE
 70
     1
  9
$CHAMFERA
 40
0.0
  9
$CHAMFERB
 40
0.0
  9
$CHAMFERC
 40
0.0
  9
$CHAMFERD
 40
0.0
  9
$SKPOLY
 70
     0
  9
$TDCREATE
 40
2451086.440811342
  9
$TDUPDATE
 40
2451387.897851863
  9
$TDINDWG
 40
0.0000355324
  9
$TDUSRTIMER
 40
0.0000355324
  9
$USRTIMER
 70
     1
  9
$ANGBASE
 50
0.0
  9
$ANGDIR
 70
     0
  9
$PDMODE
 70
     0
  9
$PDSIZE
 40
0.0
  9
$PLINEWID
 40
0.0
  9
$COORDS
 70
     1
  9
$SPLFRAME
 70
     0
  9
$SPLINETYPE
 70
     6
  9
$SPLINESEGS
 70
     8
  9
$ATTDIA
 70
     0
  9
$ATTREQ
 70
     1
  9
$HANDLING
 70
     1
  9
$HANDSEED
  5
1017
  9
$SURFTAB1
 70
     6
  9
$SURFTAB2
 70
     6
  9
$SURFTYPE
 70
     6
  9
$SURFU
 70
     6
  9
$SURFV
 70
     6
  9
$UCSNAME
  2

  9
$UCSORG
 10
0.0
 20
0.0
 30
0.0
  9
$UCSXDIR
 10
1.0
 20
0.0
 30
0.0
  9
$UCSYDIR
 10
0.0
 20
1.0
 30
0.0
  9
$PUCSNAME
  2

  9
$PUCSORG
 10
0.0
 20
0.0
 30
0.0
  9
$PUCSXDIR
 10
1.0
 20
0.0
 30
0.0
  9
$PUCSYDIR
 10
0.0
 20
1.0
 30
0.0
  9
$USERI1
 70
     0
  9
$USERI2
 70
     0
  9
$USERI3
 70
     0
  9
$USERI4
 70
     0
  9
$USERI5
 70
     0
  9
$USERR1
 40
0.0
  9
$USERR2
 40
0.0
  9
$USERR3
 40
0.0
  9
$USERR4
 40
0.0
  9
$USERR5
 40
0.0
  9
$WORLDVIEW
 70
     1
  9
$SHADEDGE
 70
     3
  9
$SHADEDIF
 70
    70
  9
$TILEMODE
 70
     1
  9
$MAXACTVP
 70
    16
  9
$PINSBASE
 10
0.0
 20
0.0
 30
0.0
  9
$PLIMCHECK
 70
     0
  9
$PEXTMIN
 10
1.000000E+20
 20
1.000000E+20
 30
1.000000E+20
  9
$PEXTMAX
 10
-1.000000E+20
 20
-1.000000E+20
 30
-1.000000E+20
  9
$PLIMMIN
 10
0.0
 20
0.0
  9
$PLIMMAX
 10
12.0
 20
9.0
  9
$UNITMODE
 70
     0
  9
$VISRETAIN
 70
     0
  9
$PLINEGEN
 70
     0
  9
$PSLTSCALE
 70
     1
  9
$TREEDEPTH
 70
  3020
  9
$PICKSTYLE
 70
     1
  9
$CMLSTYLE
  2
STANDARD
  9
$CMLJUST
 70
     0
  9
$CMLSCALE
 40
1.0
  9
$PROXYGRAPHICS
 70
     1
  9
$MEASUREMENT
 70
     0
  0
ENDSEC
  0
SECTION
  2
CLASSES
  0
CLASS
  1
DICTIONARYVAR
  2
AcDbDictionaryVar
  3
"AutoCAD"
 90
        0
280
     0
281
     0
  0
CLASS
  1
LWPOLYLINE
  2
AcDbPolyline
  3
"AutoCAD"
 90
        0
280
     0
281
     1
  0
ENDSEC
  0
SECTION
  2
TABLES
  0
TABLE
  2
VPORT
  5
FEB
100
AcDbSymbolTable
 70
     1
  0
VPORT
  5
1012
100
AcDbSymbolTableRecord
100
AcDbViewportTableRecord
  2
*ACTIVE
 70
     0
 10
0.0
 20
0.0
 11
1.0
 21
1.0
 12
225.654671
 22
135.037441
 13
0.0
 23
0.0
 14
1.0
 24
1.0
 15
0.0
 25
0.0
 16
0.0
 26
0.0
 36
1.0
 17
0.0
 27
0.0
 37
0.0
 40
270.074882
 41
1.671053
 42
50.0
 43
0.0
 44
0.0
 50
0.0
 51
0.0
 71
     0
 72
   100
 73
     1
 74
     1
 75
     0
 76
     0
 77
     0
 78
     0
  0
ENDTAB
  0
TABLE
  2
LTYPE
  5
FE8
100
AcDbSymbolTable
 70
     2
  0
LTYPE
  5
FF4
100
AcDbSymbolTableRecord
100
AcDbLinetypeTableRecord
  2
BYBLOCK
 70
     0
  3

 72
    65
 73
     0
 40
0.0
  0
LTYPE
  5
FF5
100
AcDbSymbolTableRecord
100
AcDbLinetypeTableRecord
  2
BYLAYER
 70
     0
  3

 72
    65
 73
     0
 40
0.0
  0
LTYPE
  5
FF6
100
AcDbSymbolTableRecord
100
AcDbLinetypeTableRecord
  2
CONTINUOUS
 70
     0
  3
Solid line
 72
    65
 73
     0
 40
0.0
  0
LTYPE
  5
1002
100
AcDbSymbolTableRecord
100
AcDbLinetypeTableRecord
  2
AXES2
 70
     0
  3
___ _ ___ _ ___ _ ___ _ ___ _ ___ _ ___ _ ___ _
 72
    65
 73
     4
 40
1.125
 49
0.75
 74
     0
 49
-0.125
 74
     0
 49
0.125
 74
     0
 49
-0.125
 74
     0
  0
ENDTAB
  0
TABLE
  2
LAYER
  5
FE5
100
AcDbSymbolTable
 70
     5
  0
LAYER
  5
FF1
100
AcDbSymbolTableRecord
100
AcDbLayerTableRecord
  2
0
 70
     0
 62
     7
  6
CONTINUOUS
  0
LAYER
  5
1005
100
AcDbSymbolTableRecord
100
AcDbLayerTableRecord
  2
AXE
 70
     0
 62
    80
  6
AXES2
  0
LAYER
  5
1006
100
AcDbSymbolTableRecord
100
AcDbLayerTableRecord
  2
COTATION1
 70
     0
 62
     2
  6
CONTINUOUS
  0
LAYER
  5
1007
100
AcDbSymbolTableRecord
100
AcDbLayerTableRecord
  2
ALPHA
 70
     0
 62
   255
  6
CONTINUOUS
  0
LAYER
  5
1008
100
AcDbSymbolTableRecord
100
AcDbLayerTableRecord
  2
DEFPOINTS
 70
     0
 62
     7
  6
CONTINUOUS
  0
ENDTAB
  0
TABLE
  2
STYLE
  5
FE6
100
AcDbSymbolTable
 70
     2
  0
STYLE
  5
FF2
100
AcDbSymbolTableRecord
100
AcDbTextStyleTableRecord
  2
STANDARD
 70
     0
 40
0.0
 41
1.0
 50
0.0
 71
     0
 42
0.2
  3
txt
  4

  0
STYLE
  5
1001
100
AcDbSymbolTableRecord
100
AcDbTextStyleTableRecord
  2
ROMANS
 70
     0
 40
0.0
 41
1.0
 50
0.0
 71
     0
 42
2.9
  3
romans.shx
  4

  0
ENDTAB
  0
TABLE
  2
VIEW
  5
FE9
100
AcDbSymbolTable
 70
     0
  0
ENDTAB
  0
TABLE
  2
UCS
  5
FEA
100
AcDbSymbolTable
 70
     0
  0
ENDTAB
  0
TABLE
  2
APPID
  5
FEC
100
AcDbSymbolTable
 70
     1
  0
APPID
  5
FF3
100
AcDbSymbolTableRecord
100
AcDbRegAppTableRecord
  2
ACAD
 70
     0
  0
ENDTAB
  0
TABLE
  2
DIMSTYLE
  5
FED
100
AcDbSymbolTable
 70
     1
  0
DIMSTYLE
105
1004
102
{ACAD_REACTORS
330
1F
330
2D
102
}
100
AcDbSymbolTableRecord
100
AcDbDimStyleTableRecord
  2
SC_STAND
 70
     0
  3

  4

  5

  6

  7

 40
1.0
 41
3.0
 42
0.0625
 43
0.38
 44
0.18
 45
0.01
 46
0.0
 47
0.0
 48
0.0
140
2.5
141
0.09
142
0.0
143
25.4
144
1.0
145
0.0
146
1.0
147
1.0
 71
     0
 72
     0
 73
     0
 74
     0
 75
     0
 76
     0
 77
     1
 78
    12
170
     0
171
     2
172
     1
173
     0
174
     0
175
     0
176
     0
177
     0
178
     0
270
     2
271
     4
272
     4
273
     2
274
     2
340
FF2
275
     0
280
     0
281
     0
282
     0
283
     1
284
    12
285
    12
286
    12
287
     5
288
     0
  0
ENDTAB
  0
TABLE
  2
BLOCK_RECORD
  5
FE4
100
AcDbSymbolTable
 70
     2
  0
BLOCK_RECORD
  5
FFA
100
AcDbSymbolTableRecord
100
AcDbBlockTableRecord
  2
*MODEL_SPACE
  0
BLOCK_RECORD
  5
FF7
100
AcDbSymbolTableRecord
100
AcDbBlockTableRecord
  2
*PAPER_SPACE
  0
BLOCK_RECORD
  5
FFF
100
AcDbSymbolTableRecord
100
AcDbBlockTableRecord
  2
*D0
  0
BLOCK_RECORD
  5
1000
100
AcDbSymbolTableRecord
100
AcDbBlockTableRecord
  2
*D1
  0
ENDTAB
  0
ENDSEC
  0
SECTION
  2
BLOCKS
  0
BLOCK
  5
100B
100
AcDbEntity
  8
0
100
AcDbBlockBegin
  2
*MODEL_SPACE
 70
     0
 10
0.0
 20
0.0
 30
0.0
  3
*MODEL_SPACE
  1

  0
ENDBLK
  5
100C
100
AcDbEntity
  8
0
100
AcDbBlockEnd
  0
BLOCK
  5
1009
100
AcDbEntity
 67
     1
  8
0
100
AcDbBlockBegin
  2
*PAPER_SPACE
 70
     0
 10
0.0
 20
0.0
 30
0.0
  3
*PAPER_SPACE
  1

  0
ENDBLK
  5
100A
100
AcDbEntity
 67
     1
  8
0
100
AcDbBlockEnd
  0
BLOCK
  5
38
100
AcDbEntity
  8
0
100
AcDbBlockBegin
  2
*D0
 70
     1
 10
0.0
 20
0.0
 30
0.0
  3
*D0
  1
AVE_GLOBAL
  0
LINE
  5
2F
100
AcDbEntity
  8
0
  6
BYBLOCK
 62
     0
100
AcDbLine
 10
81.661528
 20
90.247456
 30
0.0
 11
81.661528
 21
71.508426
 31
0.0
  0
LINE
  5
30
100
AcDbEntity
  8
0
  6
BYBLOCK
 62
     0
100
AcDbLine
 10
51.861528
 20
90.247456
 30
0.0
 11
51.861528
 21
71.508426
 31
0.0
  0
LINE
  5
31
100
AcDbEntity
  8
0
  6
BYBLOCK
 62
     0
100
AcDbLine
 10
78.661528
 20
71.688426
 30
0.0
 11
54.861528
 21
71.688426
 31
0.0
  0
SOLID
  5
32
100
AcDbEntity
  8
0
  6
BYBLOCK
 62
     0
100
AcDbTrace
 10
78.661528
 20
72.188426
 30
0.0
 11
78.661528
 21
71.188426
 31
0.0
 12
81.661528
 22
71.688426
 32
0.0
 13
81.661528
 23
71.688426
 33
0.0
  0
SOLID
  5
33
100
AcDbEntity
  8
0
  6
BYBLOCK
 62
     0
100
AcDbTrace
 10
54.861528
 20
72.188426
 30
0.0
 11
54.861528
 21
71.188426
 31
0.0
 12
51.861528
 22
71.688426
 32
0.0
 13
51.861528
 23
71.688426
 33
0.0
  0
TEXT
  5
34
100
AcDbEntity
  8
0
  6
BYBLOCK
 62
     0
100
AcDbText
 10
62.594862
 20
72.688426
 30
0.0
 40
2.5
  1
29.8
  7
ROMANS
100
AcDbText
  0
POINT
  5
35
100
AcDbEntity
  8
DEFPOINTS
  6
BYBLOCK
 62
     0
100
AcDbPoint
 10
81.661528
 20
90.309956
 30
0.0
  0
POINT
  5
36
100
AcDbEntity
  8
DEFPOINTS
  6
BYBLOCK
 62
     0
100
AcDbPoint
 10
51.861528
 20
90.309956
 30
0.0
  0
POINT
  5
37
100
AcDbEntity
  8
DEFPOINTS
  6
BYBLOCK
 62
     0
100
AcDbPoint
 10
51.861528
 20
71.688426
 30
0.0
  0
ENDBLK
  5
39
100
AcDbEntity
  8
0
100
AcDbBlockEnd
  0
BLOCK
  5
2B
100
AcDbEntity
  8
0
100
AcDbBlockBegin
  2
*D1
 70
     1
 10
0.0
 20
0.0
 30
0.0
  3
*D1
  1
AVE_GLOBAL
  0
LINE
  5
21
100
AcDbEntity
  8
0
  6
BYBLOCK
 62
     0
100
AcDbLine
 10
80.724028
 20
87.009956
 30
0.0
 11
90.225211
 21
87.009956
 31
0.0
  0
LINE
  5
22
100
AcDbEntity
  8
0
  6
BYBLOCK
 62
     0
100
AcDbLine
 10
79.624028
 20
126.809956
 30
0.0
 11
90.225211
 21
126.809956
 31
0.0
  0
LINE
  5
23
100
AcDbEntity
  8
0
  6
BYBLOCK
 62
     0
100
AcDbLine
 10
90.045211
 20
90.009956
 30
0.0
 11
90.045211
 21
123.809956
 31
0.0
  0
SOLID
  5
24
100
AcDbEntity
  8
0
  6
BYBLOCK
 62
     0
100
AcDbTrace
 10
89.545211
 20
90.009956
 30
0.0
 11
90.545211
 21
90.009956
 31
0.0
 12
90.045211
 22
87.009956
 32
0.0
 13
90.045211
 23
87.009956
 33
0.0
  0
SOLID
  5
25
100
AcDbEntity
  8
0
  6
BYBLOCK
 62
     0
100
AcDbTrace
 10
89.545211
 20
123.809956
 30
0.0
 11
90.545211
 21
123.809956
 31
0.0
 12
90.045211
 22
126.809956
 32
0.0
 13
90.045211
 23
126.809956
 33
0.0
  0
TEXT
  5
26
100
AcDbEntity
  8
0
  6
BYBLOCK
 62
     0
100
AcDbText
 10
89.045211
 20
102.74329
 30
0.0
 40
2.5
  1
39.8
 50
90.0
  7
ROMANS
100
AcDbText
  0
POINT
  5
27
100
AcDbEntity
  8
DEFPOINTS
  6
BYBLOCK
 62
     0
100
AcDbPoint
 10
80.661528
 20
87.009956
 30
0.0
  0
POINT
  5
29
100
AcDbEntity
  8
DEFPOINTS
  6
BYBLOCK
 62
     0
100
AcDbPoint
 10
79.561528
 20
126.809956
 30
0.0
  0
POINT
  5
2A
100
AcDbEntity
  8
DEFPOINTS
  6
BYBLOCK
 62
     0
100
AcDbPoint
 10
90.045211
 20
126.809956
 30
0.0
  0
ENDBLK
  5
2C
100
AcDbEntity
  8
0
100
AcDbBlockEnd
  0
ENDSEC
  0
SECTION
  2
ENTITIES
  0
DIMENSION
  5
1F
100
AcDbEntity
  8
COTATION1
100
AcDbDimension
  2
*D1
 10
90.045211
 20
126.809956
 30
0.0
 11
87.795211
 21
106.909956
 31
0.0
  3
SC_STAND
100
AcDbAlignedDimension
 13
80.661528
 23
87.009956
 33
0.0
 14
79.561528
 24
126.809956
 34
0.0
 50
90.0
100
AcDbRotatedDimension
  0
DIMENSION
  5
2D
100
AcDbEntity
  8
COTATION1
100
AcDbDimension
  2
*D0
 10
51.861528
 20
71.688426
 30
0.0
 11
66.761528
 21
73.938426
 31
0.0
  3
SC_STAND
100
AcDbAlignedDimension
 13
81.661528
 23
90.309956
 33
0.0
 14
51.861528
 24
90.309956
 34
0.0
100
AcDbRotatedDimension
  0
LINE
  5
3A
100
AcDbEntity
  8
AXE
100
AcDbLine
 10
75.260578
 20
91.143931
 30
0.0
 11
69.746509
 21
87.960605
 31
0.0
  0
ARC
  5
3D
100
AcDbEntity
  8
AXE
100
AcDbCircle
 10
74.510618
 20
92.442992
 30
0.0
 40
1.5
100
AcDbArc
 50
299.998256
 51
359.998256
  0
LINE
  5
3E
100
AcDbEntity
  8
AXE
100
AcDbLine
 10
76.01149
 20
121.109895
 30
0.0
 11
76.010618
 21
92.442946
 31
0.0
  0
ARC
  5
3F
100
AcDbEntity
  8
AXE
100
AcDbCircle
 10
74.01149
 20
121.109956
 30
0.0
 40
2.0
100
AcDbArc
 50
359.998256
 51
90.0
  0
LINE
  5
40
100
AcDbEntity
  8
AXE
100
AcDbLine
 10
70.499894
 20
123.109956
 30
0.0
 11
74.01149
 21
123.109956
 31
0.0
  0
ARC
  5
41
100
AcDbEntity
  8
ALPHA
100
AcDbCircle
 10
70.499894
 20
124.609956
 30
0.0
 40
1.5
100
AcDbArc
 50
257.905243
 51
270.0
  0
LINE
  5
43
100
AcDbEntity
  8
ALPHA
100
AcDbLine
 10
67.075822
 20
123.809634
 30
0.0
 11
70.185601
 21
123.143253
 31
0.0
  0
ARC
  5
44
100
AcDbEntity
  8
ALPHA
100
AcDbCircle
 10
66.761528
 20
122.34293
 30
0.0
 40
1.5
100
AcDbArc
 50
77.905243
 51
102.094757
  0
LINE
  5
45
100
AcDbEntity
  8
ALPHA
100
AcDbLine
 10
63.337456
 20
123.143253
 30
0.0
 11
66.447235
 21
123.809634
 31
0.0
  0
ARC
  5
46
100
AcDbEntity
  8
ALPHA
100
AcDbCircle
 10
63.023163
 20
124.609956
 30
0.0
 40
1.5
100
AcDbArc
 50
270.0
 51
282.094757
  0
LINE
  5
47
100
AcDbEntity
  8
AXE
100
AcDbLine
 10
59.511567
 20
123.109956
 30
0.0
 11
63.023163
 21
123.109956
 31
0.0
  0
ARC
  5
48
100
AcDbEntity
  8
AXE
100
AcDbCircle
 10
59.511567
 20
121.109956
 30
0.0
 40
2.0
100
AcDbArc
 50
90.0
 51
180.001744
  0
LINE
  5
49
100
AcDbEntity
  8
AXE
100
AcDbLine
 10
57.512439
 20
92.442946
 30
0.0
 11
57.511567
 21
121.109895
 31
0.0
  0
ARC
  5
4A
100
AcDbEntity
  8
AXE
100
AcDbCircle
 10
59.012439
 20
92.442992
 30
0.0
 40
1.5
100
AcDbArc
 50
180.001744
 51
240.001744
  0
LINE
  5
4B
100
AcDbEntity
  8
AXE
100
AcDbLine
 10
63.776548
 20
87.960605
 30
0.0
 11
58.262479
 21
91.143931
 31
0.0
  0
LINE
  5
4C
100
AcDbEntity
  8
ALPHA
100
AcDbLine
 10
69.90829
 20
101.509956
 30
0.0
 11
69.90829
 21
104.009956
 31
0.0
  0
LINE
  5
4D
100
AcDbEntity
  8
ALPHA
100
AcDbLine
 10
69.90829
 20
117.509956
 30
0.0
 11
69.90829
 21
115.009956
 31
0.0
  0
LINE
  5
4E
100
AcDbEntity
  8
ALPHA
100
AcDbLine
 10
71.861528
 20
118.543912
 30
0.0
 11
71.711528
 21
118.543912
 31
0.0
  0
LINE
  5
4F
100
AcDbEntity
  8
ALPHA
100
AcDbLine
 10
76.761528
 20
106.959956
 30
0.0
 11
76.761528
 21
106.809956
 31
0.0
  0
LINE
  5
50
100
AcDbEntity
  8
ALPHA
100
AcDbLine
 10
77.461528
 20
106.809956
 30
0.0
 11
77.461528
 21
106.959956
 31
0.0
  0
LINE
  5
51
100
AcDbEntity
  8
ALPHA
100
AcDbLine
 10
77.461528
 20
102.659956
 30
0.0
 11
77.461528
 21
102.809956
 31
0.0
  0
LINE
  5
52
100
AcDbEntity
  8
ALPHA
100
AcDbLine
 10
62.815535
 20
88.803498
 30
0.0
 11
63.323964
 21
88.509956
 31
0.0
  0
LINE
  5
53
100
AcDbEntity
  8
ALPHA
100
AcDbLine
 10
62.111528
 20
89.209956
 30
0.0
 11
62.815535
 21
88.803498
 31
0.0
  0
LINE
  5
54
100
AcDbEntity
  8
ALPHA
100
AcDbLine
 10
62.815535
 20
122.016414
 30
0.0
 11
63.323964
 21
122.309956
 31
0.0
  0
LINE
  5
55
100
AcDbEntity
  8
ALPHA
100
AcDbLine
 10
62.111528
 20
121.609956
 30
0.0
 11
62.815535
 21
122.016414
 31
0.0
  0
LINE
  5
56
100
AcDbEntity
  8
ALPHA
100
AcDbLine
 10
71.861528
 20
120.309956
 30
0.0
 11
71.711528
 21
120.309956
 31
0.0
  0
LINE
  5
57
100
AcDbEntity
  8
ALPHA
100
AcDbLine
 10
66.761528
 20
119.509956
 30
0.0
 11
66.761528
 21
121.109956
 31
0.0
  0
LINE
  5
58
100
AcDbEntity
  8
ALPHA
100
AcDbLine
 10
66.761528
 20
118.643931
 30
0.0
 11
66.761528
 21
117.509956
 31
0.0
  0
LINE
  5
59
100
AcDbEntity
  8
ALPHA
100
AcDbLine
 10
66.761528
 20
117.509956
 30
0.0
 11
66.761528
 21
115.009956
 31
0.0
  0
LINE
  5
5A
100
AcDbEntity
  8
ALPHA
100
AcDbLine
 10
66.761528
 20
111.509956
 30
0.0
 11
66.761528
 21
107.509956
 31
0.0
  0
LINE
  5
5B
100
AcDbEntity
  8
ALPHA
100
AcDbLine
 10
66.761528
 20
104.009956
 30
0.0
 11
66.761528
 21
101.509956
 31
0.0
  0
LINE
  5
5C
100
AcDbEntity
  8
ALPHA
100
AcDbLine
 10
66.761528
 20
101.509956
 30
0.0
 11
66.761528
 21
100.375982
 31
0.0
  0
LINE
  5
5D
100
AcDbEntity
  8
ALPHA
100
AcDbLine
 10
66.761528
 20
89.909956
 30
0.0
 11
66.761528
 21
99.509956
 31
0.0
  0
LINE
  5
5E
100
AcDbEntity
  8
ALPHA
100
AcDbLine
 10
66.761528
 20
89.709956
 30
0.0
 11
66.761528
 21
89.909956
 31
0.0
  0
LINE
  5
5F
100
AcDbEntity
  8
ALPHA
100
AcDbLine
 10
72.511528
 20
122.309956
 30
0.0
 11
63.323964
 21
122.309956
 31
0.0
  0
LINE
  5
60
100
AcDbEntity
  8
ALPHA
100
AcDbLine
 10
62.111528
 20
121.309956
 30
0.0
 11
62.111528
 21
121.609956
 31
0.0
  0
LINE
  5
61
100
AcDbEntity
  8
ALPHA
100
AcDbLine
 10
62.111528
 20
121.309956
 30
0.0
 11
62.111528
 21
121.109956
 31
0.0
  0
LINE
  5
62
100
AcDbEntity
  8
ALPHA
100
AcDbLine
 10
72.511528
 20
121.109956
 30
0.0
 11
72.511528
 21
122.309956
 31
0.0
  0
LINE
  5
63
100
AcDbEntity
  8
ALPHA
100
AcDbLine
 10
71.861528
 20
107.009956
 30
0.0
 11
71.461528
 21
107.009956
 31
0.0
  0
LINE
  5
64
100
AcDbEntity
  8
ALPHA
100
AcDbLine
 10
62.111528
 20
89.509956
 30
0.0
 11
66.761528
 21
89.509956
 31
0.0
  0
LINE
  5
65
100
AcDbEntity
  8
ALPHA
100
AcDbLine
 10
72.511528
 20
88.509956
 30
0.0
 11
63.323964
 21
88.509956
 31
0.0
  0
LINE
  5
66
100
AcDbEntity
  8
ALPHA
100
AcDbLine
 10
66.761528
 20
89.709956
 30
0.0
 11
66.761528
 21
89.509956
 31
0.0
  0
LINE
  5
67
100
AcDbEntity
  8
ALPHA
100
AcDbLine
 10
71.861528
 20
104.009956
 30
0.0
 11
71.461528
 21
104.009956
 31
0.0
  0
LINE
  5
68
100
AcDbEntity
  8
ALPHA
100
AcDbLine
 10
73.011528
 20
104.009956
 30
0.0
 11
72.861528
 21
104.009956
 31
0.0
  0
LINE
  5
69
100
AcDbEntity
  8
ALPHA
100
AcDbLine
 10
80.661528
 20
104.009956
 30
0.0
 11
80.511528
 21
104.009956
 31
0.0
  0
LINE
  5
6A
100
AcDbEntity
  8
ALPHA
100
AcDbLine
 10
62.111528
 20
89.209956
 30
0.0
 11
62.111528
 21
89.509956
 31
0.0
  0
LINE
  5
6B
100
AcDbEntity
  8
ALPHA
100
AcDbLine
 10
62.111528
 20
89.709956
 30
0.0
 11
62.111528
 21
89.509956
 31
0.0
  0
LINE
  5
6C
100
AcDbEntity
  8
ALPHA
100
AcDbLine
 10
72.511528
 20
88.509956
 30
0.0
 11
72.511528
 21
88.809956
 31
0.0
  0
LINE
  5
6D
100
AcDbEntity
  8
ALPHA
100
AcDbLine
 10
62.111528
 20
121.309956
 30
0.0
 11
66.761528
 21
121.309956
 31
0.0
  0
LINE
  5
6E
100
AcDbEntity
  8
ALPHA
100
AcDbLine
 10
66.761528
 20
121.109956
 30
0.0
 11
66.761528
 21
121.309956
 31
0.0
  0
LINE
  5
6F
100
AcDbEntity
  8
ALPHA
100
AcDbLine
 10
71.461528
 20
106.759956
 30
0.0
 11
71.661528
 21
106.759956
 31
0.0
  0
LINE
  5
70
100
AcDbEntity
  8
ALPHA
100
AcDbLine
 10
71.661528
 20
104.259956
 30
0.0
 11
71.461528
 21
104.259956
 31
0.0
  0
LINE
  5
71
100
AcDbEntity
  8
ALPHA
100
AcDbLine
 10
71.461528
 20
108.509956
 30
0.0
 11
71.861528
 21
108.509956
 31
0.0
  0
LINE
  5
72
100
AcDbEntity
  8
ALPHA
100
AcDbLine
 10
71.861528
 20
102.509956
 30
0.0
 11
71.461528
 21
102.509956
 31
0.0
  0
LINE
  5
73
100
AcDbEntity
  8
ALPHA
100
AcDbLine
 10
69.561529
 20
97.509956
 30
0.0
 11
69.261528
 21
97.509956
 31
0.0
  0
LINE
  5
74
100
AcDbEntity
  8
ALPHA
100
AcDbLine
 10
71.711528
 20
121.109956
 30
0.0
 11
66.761528
 21
121.109956
 31
0.0
  0
LINE
  5
75
100
AcDbEntity
  8
ALPHA
100
AcDbLine
 10
70.261528
 20
95.892935
 30
0.0
 11
69.561529
 21
97.509956
 31
0.0
  0
LINE
  5
76
100
AcDbEntity
  8
ALPHA
100
AcDbLine
 10
70.961528
 20
97.509956
 30
0.0
 11
70.261528
 21
95.892935
 31
0.0
  0
LINE
  5
77
100
AcDbEntity
  8
ALPHA
100
AcDbLine
 10
72.911528
 20
121.109956
 30
0.0
 11
72.511528
 21
121.109956
 31
0.0
  0
LINE
  5
78
100
AcDbEntity
  8
ALPHA
100
AcDbLine
 10
71.261528
 20
97.509956
 30
0.0
 11
70.961528
 21
97.509956
 31
0.0
  0
LINE
  5
79
100
AcDbEntity
  8
ALPHA
100
AcDbLine
 10
80.511528
 20
121.109956
 30
0.0
 11
72.911528
 21
121.109956
 31
0.0
  0
LINE
  5
7A
100
AcDbEntity
  8
ALPHA
100
AcDbLine
 10
70.411528
 20
95.467403
 30
0.0
 11
71.261528
 21
97.509956
 31
0.0
  0
LINE
  5
7B
100
AcDbEntity
  8
ALPHA
100
AcDbLine
 10
81.511528
 20
121.109956
 30
0.0
 11
80.511528
 21
121.109956
 31
0.0
  0
LINE
  5
7C
100
AcDbEntity
  8
ALPHA
100
AcDbLine
 10
71.261528
 20
93.509956
 30
0.0
 11
70.411528
 21
95.467403
 31
0.0
  0
LINE
  5
7D
100
AcDbEntity
  8
ALPHA
100
AcDbLine
 10
70.961528
 20
93.509956
 30
0.0
 11
71.261528
 21
93.509956
 31
0.0
  0
LINE
  5
7E
100
AcDbEntity
  8
ALPHA
100
AcDbLine
 10
66.761528
 20
104.009956
 30
0.0
 11
66.761528
 21
107.509956
 31
0.0
  0
LINE
  5
7F
100
AcDbEntity
  8
ALPHA
100
AcDbLine
 10
70.261528
 20
95.126978
 30
0.0
 11
70.961528
 21
93.509956
 31
0.0
  0
LINE
  5
80
100
AcDbEntity
  8
ALPHA
100
AcDbLine
 10
69.561529
 20
93.509956
 30
0.0
 11
70.261528
 21
95.126978
 31
0.0
  0
LINE
  5
81
100
AcDbEntity
  8
ALPHA
100
AcDbLine
 10
80.511528
 20
121.109956
 30
0.0
 11
80.511528
 21
120.809956
 31
0.0
  0
LINE
  5
82
100
AcDbEntity
  8
ALPHA
100
AcDbLine
 10
72.911528
 20
121.109956
 30
0.0
 11
72.911528
 21
120.809956
 31
0.0
  0
LINE
  5
83
100
AcDbEntity
  8
ALPHA
100
AcDbLine
 10
71.711528
 20
117.509956
 30
0.0
 11
71.861528
 21
117.509956
 31
0.0
  0
LINE
  5
84
100
AcDbEntity
  8
ALPHA
100
AcDbLine
 10
71.711528
 20
121.109956
 30
0.0
 11
71.711528
 21
117.509956
 31
0.0
  0
LINE
  5
85
100
AcDbEntity
  8
ALPHA
100
AcDbLine
 10
69.261528
 20
93.509956
 30
0.0
 11
69.561529
 21
93.509956
 31
0.0
  0
LINE
  5
86
100
AcDbEntity
  8
ALPHA
100
AcDbLine
 10
70.111529
 20
95.467403
 30
0.0
 11
69.261528
 21
93.509956
 31
0.0
  0
LINE
  5
87
100
AcDbEntity
  8
ALPHA
100
AcDbLine
 10
69.261528
 20
97.509956
 30
0.0
 11
70.111529
 21
95.467403
 31
0.0
  0
LINE
  5
88
100
AcDbEntity
  8
ALPHA
100
AcDbLine
 10
66.761528
 20
111.509956
 30
0.0
 11
66.761528
 21
115.009956
 31
0.0
  0
LINE
  5
89
100
AcDbEntity
  8
ALPHA
100
AcDbLine
 10
68.261528
 20
97.509956
 30
0.0
 11
68.261528
 21
93.509956
 31
0.0
  0
LINE
  5
8A
100
AcDbEntity
  8
ALPHA
100
AcDbLine
 10
68.561529
 20
97.509956
 30
0.0
 11
68.261528
 21
97.509956
 31
0.0
  0
LINE
  5
8B
100
AcDbEntity
  8
ALPHA
100
AcDbLine
 10
68.561529
 20
94.190807
 30
0.0
 11
68.561529
 21
97.509956
 31
0.0
  0
LINE
  5
8C
100
AcDbEntity
  8
ALPHA
100
AcDbLine
 10
68.861529
 20
94.786552
 30
0.0
 11
68.561529
 21
94.190807
 31
0.0
  0
LINE
  5
8D
100
AcDbEntity
  8
ALPHA
100
AcDbLine
 10
68.861529
 20
94.105701
 30
0.0
 11
68.861529
 21
94.786552
 31
0.0
  0
LINE
  5
8E
100
AcDbEntity
  8
ALPHA
100
AcDbLine
 10
68.561529
 20
93.509956
 30
0.0
 11
68.861529
 21
94.105701
 31
0.0
  0
LINE
  5
8F
100
AcDbEntity
  8
ALPHA
100
AcDbLine
 10
68.261528
 20
93.509956
 30
0.0
 11
68.561529
 21
93.509956
 31
0.0
  0
LINE
  5
90
100
AcDbEntity
  8
ALPHA
100
AcDbLine
 10
69.661528
 20
118.643931
 30
0.0
 11
69.661528
 21
117.509956
 31
0.0
  0
LINE
  5
91
100
AcDbEntity
  8
ALPHA
100
AcDbLine
 10
69.661528
 20
101.509956
 30
0.0
 11
69.661528
 21
100.375982
 31
0.0
  0
LINE
  5
92
100
AcDbEntity
  8
ALPHA
100
AcDbLine
 10
66.761528
 20
104.009956
 30
0.0
 11
69.90829
 21
104.009956
 31
0.0
  0
LINE
  5
93
100
AcDbEntity
  8
ALPHA
100
AcDbLine
 10
69.90829
 20
115.009956
 30
0.0
 11
66.761528
 21
115.009956
 31
0.0
  0
LINE
  5
94
100
AcDbEntity
  8
ALPHA
100
AcDbLine
 10
69.661528
 20
99.509956
 30
0.0
 11
69.661528
 21
100.375982
 31
0.0
  0
LINE
  5
95
100
AcDbEntity
  8
ALPHA
100
AcDbLine
 10
66.761528
 20
99.509956
 30
0.0
 11
69.661528
 21
99.509956
 31
0.0
  0
LINE
  5
96
100
AcDbEntity
  8
ALPHA
100
AcDbLine
 10
66.761528
 20
99.509956
 30
0.0
 11
66.761528
 21
100.375982
 31
0.0
  0
LINE
  5
97
100
AcDbEntity
  8
ALPHA
100
AcDbLine
 10
66.761528
 20
118.643931
 30
0.0
 11
66.761528
 21
119.509956
 31
0.0
  0
LINE
  5
98
100
AcDbEntity
  8
ALPHA
100
AcDbLine
 10
66.761528
 20
119.509956
 30
0.0
 11
69.661528
 21
119.509956
 31
0.0
  0
LINE
  5
99
100
AcDbEntity
  8
ALPHA
100
AcDbLine
 10
69.661528
 20
118.643931
 30
0.0
 11
69.661528
 21
119.509956
 31
0.0
  0
LINE
  5
9A
100
AcDbEntity
  8
ALPHA
100
AcDbLine
 10
66.761528
 20
118.643931
 30
0.0
 11
69.661528
 21
118.643931
 31
0.0
  0
LINE
  5
9B
100
AcDbEntity
  8
ALPHA
100
AcDbLine
 10
66.761528
 20
117.509956
 30
0.0
 11
69.661528
 21
117.509956
 31
0.0
  0
LINE
  5
9C
100
AcDbEntity
  8
ALPHA
100
AcDbLine
 10
66.761528
 20
101.509956
 30
0.0
 11
69.661528
 21
101.509956
 31
0.0
  0
LINE
  5
9D
100
AcDbEntity
  8
ALPHA
100
AcDbLine
 10
66.761528
 20
100.375982
 30
0.0
 11
69.661528
 21
100.375982
 31
0.0
  0
LINE
  5
9E
100
AcDbEntity
  8
ALPHA
100
AcDbLine
 10
71.461528
 20
108.509956
 30
0.0
 11
71.461528
 21
102.509956
 31
0.0
  0
LINE
  5
9F
100
AcDbEntity
  8
ALPHA
100
AcDbLine
 10
69.061528
 20
111.509956
 30
0.0
 11
69.061528
 21
107.509956
 31
0.0
  0
LINE
  5
A0
100
AcDbEntity
  8
ALPHA
100
AcDbLine
 10
66.761528
 20
111.509956
 30
0.0
 11
69.061528
 21
111.509956
 31
0.0
  0
LINE
  5
A1
100
AcDbEntity
  8
ALPHA
100
AcDbLine
 10
66.761528
 20
89.709956
 30
0.0
 11
71.861528
 21
89.709956
 31
0.0
  0
LINE
  5
A2
100
AcDbEntity
  8
ALPHA
100
AcDbLine
 10
66.761528
 20
107.509956
 30
0.0
 11
69.061528
 21
107.509956
 31
0.0
  0
ARC
  5
A3
100
AcDbEntity
  8
ALPHA
100
AcDbCircle
 10
77.161528
 20
102.909956
 30
0.0
 40
0.4
100
AcDbArc
 50
194.597206
 51
219.002055
  0
LINE
  5
A4
100
AcDbEntity
  8
ALPHA
100
AcDbLine
 10
69.661528
 20
117.509956
 30
0.0
 11
69.90829
 21
117.509956
 31
0.0
  0
LINE
  5
A5
100
AcDbEntity
  8
ALPHA
100
AcDbLine
 10
69.90829
 20
101.509956
 30
0.0
 11
69.661528
 21
101.509956
 31
0.0
  0
LINE
  5
A6
100
AcDbEntity
  8
ALPHA
100
AcDbLine
 10
69.90829
 20
104.009956
 30
0.0
 11
70.108215
 21
104.009956
 31
0.0
  0
LINE
  5
A7
100
AcDbEntity
  8
ALPHA
100
AcDbLine
 10
69.90829
 20
117.509956
 30
0.0
 11
70.108215
 21
117.509956
 31
0.0
  0
LINE
  5
A8
100
AcDbEntity
  8
ALPHA
100
AcDbLine
 10
81.511528
 20
121.109956
 30
0.0
 11
81.511528
 21
120.809956
 31
0.0
  0
LINE
  5
A9
100
AcDbEntity
  8
ALPHA
100
AcDbLine
 10
70.10829
 20
101.509956
 30
0.0
 11
70.10829
 21
104.009956
 31
0.0
  0
LINE
  5
AA
100
AcDbEntity
  8
ALPHA
100
AcDbLine
 10
70.108215
 20
101.509956
 30
0.0
 11
69.90829
 21
101.509956
 31
0.0
  0
LINE
  5
AB
100
AcDbEntity
  8
ALPHA
100
AcDbLine
 10
70.10829
 20
117.509956
 30
0.0
 11
70.10829
 21
115.009956
 31
0.0
  0
LINE
  5
AC
100
AcDbEntity
  8
ALPHA
100
AcDbLine
 10
70.108215
 20
115.009956
 30
0.0
 11
69.90829
 21
115.009956
 31
0.0
  0
LINE
  5
AD
100
AcDbEntity
  8
ALPHA
100
AcDbLine
 10
63.614767
 20
117.509956
 30
0.0
 11
63.614767
 21
115.009956
 31
0.0
  0
LINE
  5
AE
100
AcDbEntity
  8
ALPHA
100
AcDbLine
 10
61.811528
 20
118.543912
 30
0.0
 11
61.711528
 21
118.543912
 31
0.0
  0
LINE
  5
AF
100
AcDbEntity
  8
ALPHA
100
AcDbLine
 10
62.017336
 20
89.384979
 30
0.0
 11
62.111528
 21
89.313989
 31
0.0
  0
LINE
  5
B0
100
AcDbEntity
  8
ALPHA
100
AcDbLine
 10
61.761528
 20
89.577776
 30
0.0
 11
62.017336
 21
89.384979
 31
0.0
  0
LINE
  5
B1
100
AcDbEntity
  8
ALPHA
100
AcDbLine
 10
63.614767
 20
101.509956
 30
0.0
 11
63.614767
 21
104.009956
 31
0.0
  0
LINE
  5
B2
100
AcDbEntity
  8
ALPHA
100
AcDbLine
 10
60.761528
 20
122.309956
 30
0.0
 11
60.761528
 21
121.109956
 31
0.0
  0
LINE
  5
B3
100
AcDbEntity
  8
ALPHA
100
AcDbLine
 10
62.761528
 20
122.309956
 30
0.0
 11
62.761528
 21
122.109956
 31
0.0
  0
LINE
  5
B4
100
AcDbEntity
  8
ALPHA
100
AcDbLine
 10
60.761528
 20
88.809956
 30
0.0
 11
60.761528
 21
88.509956
 31
0.0
  0
LINE
  5
B5
100
AcDbEntity
  8
ALPHA
100
AcDbLine
 10
62.761528
 20
88.824099
 30
0.0
 11
62.761528
 21
88.709956
 31
0.0
  0
LINE
  5
B6
100
AcDbEntity
  8
ALPHA
100
AcDbLine
 10
62.761528
 20
88.709956
 30
0.0
 11
62.761528
 21
88.509956
 31
0.0
  0
LINE
  5
B7
100
AcDbEntity
  8
ALPHA
100
AcDbLine
 10
61.761528
 20
89.709956
 30
0.0
 11
61.761528
 21
89.287307
 31
0.0
  0
LINE
  5
B8
100
AcDbEntity
  8
ALPHA
100
AcDbLine
 10
62.057522
 20
89.116414
 30
0.0
 11
62.761528
 21
88.709956
 31
0.0
  0
LINE
  5
B9
100
AcDbEntity
  8
ALPHA
100
AcDbLine
 10
61.761528
 20
89.287307
 30
0.0
 11
62.057522
 21
89.116414
 31
0.0
  0
LINE
  5
BA
100
AcDbEntity
  8
ALPHA
100
AcDbLine
 10
60.761528
 20
88.509956
 30
0.0
 11
62.761528
 21
88.509956
 31
0.0
  0
LINE
  5
BB
100
AcDbEntity
  8
ALPHA
100
AcDbLine
 10
56.761528
 20
106.809956
 30
0.0
 11
56.761528
 21
106.959956
 31
0.0
  0
LINE
  5
BC
100
AcDbEntity
  8
ALPHA
100
AcDbLine
 10
62.761528
 20
122.110209
 30
0.0
 11
62.761528
 21
121.985234
 31
0.0
  0
LINE
  5
BD
100
AcDbEntity
  8
ALPHA
100
AcDbLine
 10
61.811528
 20
120.309956
 30
0.0
 11
61.711528
 21
120.309956
 31
0.0
  0
LINE
  5
BE
100
AcDbEntity
  8
ALPHA
100
AcDbLine
 10
52.011528
 20
121.109956
 30
0.0
 11
52.011528
 21
120.809956
 31
0.0
  0
LINE
  5
BF
100
AcDbEntity
  8
ALPHA
100
AcDbLine
 10
61.661528
 20
107.009956
 30
0.0
 11
62.061528
 21
107.009956
 31
0.0
  0
LINE
  5
C0
100
AcDbEntity
  8
ALPHA
100
AcDbLine
 10
61.661528
 20
104.009956
 30
0.0
 11
62.061528
 21
104.009956
 31
0.0
  0
LINE
  5
C1
100
AcDbEntity
  8
ALPHA
100
AcDbLine
 10
60.511528
 20
104.009956
 30
0.0
 11
60.661528
 21
104.009956
 31
0.0
  0
LINE
  5
C2
100
AcDbEntity
  8
ALPHA
100
AcDbLine
 10
52.861528
 20
104.009956
 30
0.0
 11
53.011528
 21
104.009956
 31
0.0
  0
LINE
  5
C3
100
AcDbEntity
  8
ALPHA
100
AcDbLine
 10
66.761528
 20
101.509956
 30
0.0
 11
66.761528
 21
104.009956
 31
0.0
  0
LINE
  5
C4
100
AcDbEntity
  8
ALPHA
100
AcDbLine
 10
66.761528
 20
100.375982
 30
0.0
 11
66.761528
 21
101.509956
 31
0.0
  0
LINE
  5
C5
100
AcDbEntity
  8
ALPHA
100
AcDbLine
 10
66.761528
 20
117.509956
 30
0.0
 11
66.761528
 21
118.643931
 31
0.0
  0
LINE
  5
C6
100
AcDbEntity
  8
ALPHA
100
AcDbLine
 10
66.761528
 20
115.009956
 30
0.0
 11
66.761528
 21
117.509956
 31
0.0
  0
LINE
  5
C7
100
AcDbEntity
  8
ALPHA
100
AcDbLine
 10
66.761528
 20
107.509956
 30
0.0
 11
66.761528
 21
111.509956
 31
0.0
  0
LINE
  5
C8
100
AcDbEntity
  8
ALPHA
100
AcDbLine
 10
60.761528
 20
122.309956
 30
0.0
 11
62.761528
 21
122.309956
 31
0.0
  0
LINE
  5
C9
100
AcDbEntity
  8
ALPHA
100
AcDbLine
 10
61.811528
 20
121.109956
 30
0.0
 11
61.761528
 21
121.109956
 31
0.0
  0
LINE
  5
CA
100
AcDbEntity
  8
ALPHA
100
AcDbLine
 10
61.761528
 20
121.532606
 30
0.0
 11
61.761528
 21
121.109956
 31
0.0
  0
LINE
  5
CB
100
AcDbEntity
  8
ALPHA
100
AcDbLine
 10
62.057522
 20
121.703498
 30
0.0
 11
61.761528
 21
121.532606
 31
0.0
  0
LINE
  5
CC
100
AcDbEntity
  8
ALPHA
100
AcDbLine
 10
62.761528
 20
122.109956
 30
0.0
 11
62.057522
 21
121.703498
 31
0.0
  0
LINE
  5
CD
100
AcDbEntity
  8
ALPHA
100
AcDbLine
 10
66.661528
 20
89.809956
 30
0.0
 11
66.761528
 21
89.909956
 31
0.0
  0
LINE
  5
CE
100
AcDbEntity
  8
ALPHA
100
AcDbLine
 10
66.561528
 20
89.709956
 30
0.0
 11
66.661528
 21
89.809956
 31
0.0
  0
LINE
  5
CF
100
AcDbEntity
  8
ALPHA
100
AcDbLine
 10
61.761528
 20
106.759956
 30
0.0
 11
62.061528
 21
106.759956
 31
0.0
  0
LINE
  5
D0
100
AcDbEntity
  8
ALPHA
100
AcDbLine
 10
62.061528
 20
104.259956
 30
0.0
 11
61.761528
 21
104.259956
 31
0.0
  0
LINE
  5
D1
100
AcDbEntity
  8
ALPHA
100
AcDbLine
 10
61.661528
 20
108.509956
 30
0.0
 11
62.061528
 21
108.509956
 31
0.0
  0
LINE
  5
D2
100
AcDbEntity
  8
ALPHA
100
AcDbLine
 10
62.061528
 20
102.509956
 30
0.0
 11
61.661528
 21
102.509956
 31
0.0
  0
LINE
  5
D3
100
AcDbEntity
  8
ALPHA
100
AcDbLine
 10
63.561529
 20
97.509956
 30
0.0
 11
63.261528
 21
97.509956
 31
0.0
  0
LINE
  5
D4
100
AcDbEntity
  8
ALPHA
100
AcDbLine
 10
64.261528
 20
95.892935
 30
0.0
 11
63.561529
 21
97.509956
 31
0.0
  0
LINE
  5
D5
100
AcDbEntity
  8
ALPHA
100
AcDbLine
 10
64.961529
 20
97.509956
 30
0.0
 11
64.261528
 21
95.892935
 31
0.0
  0
LINE
  5
D6
100
AcDbEntity
  8
ALPHA
100
AcDbLine
 10
65.261528
 20
97.509956
 30
0.0
 11
64.961529
 21
97.509956
 31
0.0
  0
LINE
  5
D7
100
AcDbEntity
  8
ALPHA
100
AcDbLine
 10
64.411529
 20
95.467403
 30
0.0
 11
65.261528
 21
97.509956
 31
0.0
  0
LINE
  5
D8
100
AcDbEntity
  8
ALPHA
100
AcDbLine
 10
65.261528
 20
93.509956
 30
0.0
 11
64.411529
 21
95.467403
 31
0.0
  0
LINE
  5
D9
100
AcDbEntity
  8
ALPHA
100
AcDbLine
 10
64.961529
 20
93.509956
 30
0.0
 11
65.261528
 21
93.509956
 31
0.0
  0
LINE
  5
DA
100
AcDbEntity
  8
ALPHA
100
AcDbLine
 10
64.261528
 20
95.126978
 30
0.0
 11
64.961529
 21
93.509956
 31
0.0
  0
LINE
  5
DB
100
AcDbEntity
  8
ALPHA
100
AcDbLine
 10
63.561529
 20
93.509956
 30
0.0
 11
64.261528
 21
95.126978
 31
0.0
  0
LINE
  5
DC
100
AcDbEntity
  8
ALPHA
100
AcDbLine
 10
63.261528
 20
93.509956
 30
0.0
 11
63.561529
 21
93.509956
 31
0.0
  0
LINE
  5
DD
100
AcDbEntity
  8
ALPHA
100
AcDbLine
 10
64.111528
 20
95.467403
 30
0.0
 11
63.261528
 21
93.509956
 31
0.0
  0
LINE
  5
DE
100
AcDbEntity
  8
ALPHA
100
AcDbLine
 10
63.261528
 20
97.509956
 30
0.0
 11
64.111528
 21
95.467403
 31
0.0
  0
LINE
  5
DF
100
AcDbEntity
  8
ALPHA
100
AcDbLine
 10
62.861528
 20
97.084424
 30
0.0
 11
62.861528
 21
97.509956
 31
0.0
  0
LINE
  5
E0
100
AcDbEntity
  8
ALPHA
100
AcDbLine
 10
61.661528
 20
95.260716
 30
0.0
 11
62.861528
 21
97.084424
 31
0.0
  0
LINE
  5
E1
100
AcDbEntity
  8
ALPHA
100
AcDbLine
 10
61.861528
 20
93.935488
 30
0.0
 11
61.661528
 21
94.003573
 31
0.0
  0
LINE
  5
E2
100
AcDbEntity
  8
ALPHA
100
AcDbLine
 10
62.061529
 20
93.935488
 30
0.0
 11
61.861528
 21
93.935488
 31
0.0
  0
LINE
  5
E3
100
AcDbEntity
  8
ALPHA
100
AcDbLine
 10
62.311529
 20
94.020595
 30
0.0
 11
62.061529
 21
93.935488
 31
0.0
  0
LINE
  5
E4
100
AcDbEntity
  8
ALPHA
100
AcDbLine
 10
62.461528
 20
94.190807
 30
0.0
 11
62.311529
 21
94.020595
 31
0.0
  0
LINE
  5
E5
100
AcDbEntity
  8
ALPHA
100
AcDbLine
 10
62.561529
 20
94.446127
 30
0.0
 11
62.461528
 21
94.190807
 31
0.0
  0
LINE
  5
E6
100
AcDbEntity
  8
ALPHA
100
AcDbLine
 10
62.811529
 20
94.446127
 30
0.0
 11
62.561529
 21
94.446127
 31
0.0
  0
LINE
  5
E7
100
AcDbEntity
  8
ALPHA
100
AcDbLine
 10
62.761528
 20
94.105701
 30
0.0
 11
62.811529
 21
94.446127
 31
0.0
  0
LINE
  5
E8
100
AcDbEntity
  8
ALPHA
100
AcDbLine
 10
62.561529
 20
93.765276
 30
0.0
 11
62.761528
 21
94.105701
 31
0.0
  0
LINE
  5
E9
100
AcDbEntity
  8
ALPHA
100
AcDbLine
 10
66.761528
 20
121.109956
 30
0.0
 11
61.811528
 21
121.109956
 31
0.0
  0
LINE
  5
EA
100
AcDbEntity
  8
ALPHA
100
AcDbLine
 10
62.361528
 20
93.595063
 30
0.0
 11
62.561529
 21
93.765276
 31
0.0
  0
LINE
  5
EB
100
AcDbEntity
  8
ALPHA
100
AcDbLine
 10
62.011528
 20
93.509956
 30
0.0
 11
62.361528
 21
93.595063
 31
0.0
  0
LINE
  5
EC
100
AcDbEntity
  8
ALPHA
100
AcDbLine
 10
61.811529
 20
93.509956
 30
0.0
 11
62.011528
 21
93.509956
 31
0.0
  0
LINE
  5
ED
100
AcDbEntity
  8
ALPHA
100
AcDbLine
 10
60.611528
 20
121.109956
 30
0.0
 11
53.011528
 21
121.109956
 31
0.0
  0
LINE
  5
EE
100
AcDbEntity
  8
ALPHA
100
AcDbLine
 10
61.661528
 20
93.552509
 30
0.0
 11
61.811529
 21
93.509956
 31
0.0
  0
LINE
  5
EF
100
AcDbEntity
  8
ALPHA
100
AcDbLine
 10
60.761528
 20
121.109956
 30
0.0
 11
60.611528
 21
121.109956
 31
0.0
  0
LINE
  5
F0
100
AcDbEntity
  8
ALPHA
100
AcDbLine
 10
52.011528
 20
121.109956
 30
0.0
 11
53.011528
 21
121.109956
 31
0.0
  0
LINE
  5
F1
100
AcDbEntity
  8
ALPHA
100
AcDbLine
 10
66.761528
 20
115.009956
 30
0.0
 11
66.761528
 21
111.509956
 31
0.0
  0
LINE
  5
F2
100
AcDbEntity
  8
ALPHA
100
AcDbLine
 10
66.761528
 20
119.509956
 30
0.0
 11
66.761528
 21
121.109956
 31
0.0
  0
LINE
  5
F3
100
AcDbEntity
  8
ALPHA
100
AcDbLine
 10
61.811528
 20
121.109956
 30
0.0
 11
61.811528
 21
117.509956
 31
0.0
  0
LINE
  5
F4
100
AcDbEntity
  8
ALPHA
100
AcDbLine
 10
61.811528
 20
117.509956
 30
0.0
 11
61.661528
 21
117.509956
 31
0.0
  0
LINE
  5
F5
100
AcDbEntity
  8
ALPHA
100
AcDbLine
 10
60.611528
 20
121.109956
 30
0.0
 11
60.611528
 21
120.809956
 31
0.0
  0
LINE
  5
F6
100
AcDbEntity
  8
ALPHA
100
AcDbLine
 10
53.011528
 20
121.109956
 30
0.0
 11
53.011528
 21
120.809956
 31
0.0
  0
LINE
  5
F7
100
AcDbEntity
  8
ALPHA
100
AcDbLine
 10
66.561528
 20
89.709956
 30
0.0
 11
61.661528
 21
89.709956
 31
0.0
  0
LINE
  5
F8
100
AcDbEntity
  8
ALPHA
100
AcDbLine
 10
66.761528
 20
89.909956
 30
0.0
 11
66.761528
 21
99.509956
 31
0.0
  0
LINE
  5
F9
100
AcDbEntity
  8
ALPHA
100
AcDbLine
 10
62.461528
 20
97.084424
 30
0.0
 11
61.661528
 21
95.886127
 31
0.0
  0
LINE
  5
FA
100
AcDbEntity
  8
ALPHA
100
AcDbLine
 10
61.661528
 20
97.084424
 30
0.0
 11
62.461528
 21
97.084424
 31
0.0
  0
LINE
  5
FB
100
AcDbEntity
  8
ALPHA
100
AcDbLine
 10
66.761528
 20
107.509956
 30
0.0
 11
66.761528
 21
104.009956
 31
0.0
  0
LINE
  5
FC
100
AcDbEntity
  8
ALPHA
100
AcDbLine
 10
62.861528
 20
97.509956
 30
0.0
 11
61.661528
 21
97.509956
 31
0.0
  0
LINE
  5
FD
100
AcDbEntity
  8
ALPHA
100
AcDbLine
 10
63.861528
 20
100.375982
 30
0.0
 11
63.861528
 21
101.509956
 31
0.0
  0
LINE
  5
FE
100
AcDbEntity
  8
ALPHA
100
AcDbLine
 10
63.861528
 20
117.509956
 30
0.0
 11
63.861528
 21
118.643931
 31
0.0
  0
LINE
  5
FF
100
AcDbEntity
  8
ALPHA
100
AcDbLine
 10
66.761528
 20
115.009956
 30
0.0
 11
63.614767
 21
115.009956
 31
0.0
  0
LINE
  5
100
100
AcDbEntity
  8
ALPHA
100
AcDbLine
 10
63.614767
 20
104.009956
 30
0.0
 11
66.761528
 21
104.009956
 31
0.0
  0
LINE
  5
101
100
AcDbEntity
  8
ALPHA
100
AcDbLine
 10
66.761528
 20
100.375982
 30
0.0
 11
66.761528
 21
99.509956
 31
0.0
  0
LINE
  5
102
100
AcDbEntity
  8
ALPHA
100
AcDbLine
 10
66.761528
 20
99.509956
 30
0.0
 11
63.861528
 21
99.509956
 31
0.0
  0
LINE
  5
103
100
AcDbEntity
  8
ALPHA
100
AcDbLine
 10
63.861528
 20
100.375982
 30
0.0
 11
63.861528
 21
99.509956
 31
0.0
  0
LINE
  5
104
100
AcDbEntity
  8
ALPHA
100
AcDbLine
 10
63.861528
 20
119.509956
 30
0.0
 11
63.861528
 21
118.643931
 31
0.0
  0
LINE
  5
105
100
AcDbEntity
  8
ALPHA
100
AcDbLine
 10
66.761528
 20
119.509956
 30
0.0
 11
63.861528
 21
119.509956
 31
0.0
  0
LINE
  5
106
100
AcDbEntity
  8
ALPHA
100
AcDbLine
 10
66.761528
 20
119.509956
 30
0.0
 11
66.761528
 21
118.643931
 31
0.0
  0
LINE
  5
107
100
AcDbEntity
  8
ALPHA
100
AcDbLine
 10
66.761528
 20
117.509956
 30
0.0
 11
63.861528
 21
117.509956
 31
0.0
  0
LINE
  5
108
100
AcDbEntity
  8
ALPHA
100
AcDbLine
 10
66.761528
 20
118.643931
 30
0.0
 11
63.861528
 21
118.643931
 31
0.0
  0
LINE
  5
109
100
AcDbEntity
  8
ALPHA
100
AcDbLine
 10
66.761528
 20
100.375982
 30
0.0
 11
63.861528
 21
100.375982
 31
0.0
  0
LINE
  5
10A
100
AcDbEntity
  8
ALPHA
100
AcDbLine
 10
66.761528
 20
101.509956
 30
0.0
 11
63.861528
 21
101.509956
 31
0.0
  0
LINE
  5
10B
100
AcDbEntity
  8
ALPHA
100
AcDbLine
 10
64.461528
 20
107.509956
 30
0.0
 11
64.461528
 21
111.509956
 31
0.0
  0
LINE
  5
10C
100
AcDbEntity
  8
ALPHA
100
AcDbLine
 10
66.761528
 20
107.509956
 30
0.0
 11
64.461528
 21
107.509956
 31
0.0
  0
LINE
  5
10D
100
AcDbEntity
  8
ALPHA
100
AcDbLine
 10
66.761528
 20
111.509956
 30
0.0
 11
64.461528
 21
111.509956
 31
0.0
  0
ARC
  5
10E
100
AcDbEntity
  8
ALPHA
100
AcDbCircle
 10
56.361528
 20
102.909956
 30
0.0
 40
0.4
100
AcDbArc
 50
320.997945
 51
345.402794
  0
LINE
  5
10F
100
AcDbEntity
  8
ALPHA
100
AcDbLine
 10
63.861528
 20
101.509956
 30
0.0
 11
63.614767
 21
101.509956
 31
0.0
  0
LINE
  5
110
100
AcDbEntity
  8
ALPHA
100
AcDbLine
 10
63.614767
 20
117.509956
 30
0.0
 11
63.861528
 21
117.509956
 31
0.0
  0
LINE
  5
111
100
AcDbEntity
  8
ALPHA
100
AcDbLine
 10
63.614767
 20
101.509956
 30
0.0
 11
63.414842
 21
101.509956
 31
0.0
  0
LINE
  5
112
100
AcDbEntity
  8
ALPHA
100
AcDbLine
 10
63.614767
 20
115.009956
 30
0.0
 11
63.414842
 21
115.009956
 31
0.0
  0
LINE
  5
113
100
AcDbEntity
  8
ALPHA
100
AcDbLine
 10
62.061528
 20
102.509956
 30
0.0
 11
62.061528
 21
108.509956
 31
0.0
  0
LINE
  5
114
100
AcDbEntity
  8
ALPHA
100
AcDbLine
 10
63.414767
 20
101.509956
 30
0.0
 11
63.414767
 21
104.009956
 31
0.0
  0
LINE
  5
115
100
AcDbEntity
  8
ALPHA
100
AcDbLine
 10
63.414842
 20
104.009956
 30
0.0
 11
63.614767
 21
104.009956
 31
0.0
  0
LINE
  5
116
100
AcDbEntity
  8
ALPHA
100
AcDbLine
 10
63.414767
 20
117.509956
 30
0.0
 11
63.414767
 21
115.009956
 31
0.0
  0
LINE
  5
117
100
AcDbEntity
  8
ALPHA
100
AcDbLine
 10
63.414842
 20
117.509956
 30
0.0
 11
63.614767
 21
117.509956
 31
0.0
  0
LINE
  5
118
100
AcDbEntity
  8
ALPHA
100
AcDbLine
 10
78.761528
 20
121.735057
 30
0.0
 11
78.761528
 21
121.109956
 31
0.0
  0
LINE
  5
119
100
AcDbEntity
  8
ALPHA
100
AcDbLine
 10
78.761528
 20
121.735057
 30
0.0
 11
79.061528
 21
121.735057
 31
0.0
  0
LWPOLYLINE
  5
11A
100
AcDbEntity
  8
ALPHA
100
AcDbPolyline
 90
        8
 70
     0
 43
0.0
 10
65.394935
 20
126.709956
 10
65.767761
 20
126.937004
 10
66.158705
 20
127.087003
 10
66.559634
 20
127.161521
 10
66.963687
 20
127.161497
 10
67.364582
 20
127.086938
 10
67.755503
 20
126.936902
 10
68.128056
 20
126.709956
  0
LWPOLYLINE
  5
124
100
AcDbEntity
  8
ALPHA
100
AcDbPolyline
 90
        3
 70
     0
 43
0.0
 10
79.004234
 20
121.910721
 10
79.046845
 20
121.82741
 10
79.061528
 20
121.735057
  0
LWPOLYLINE
  5
129
100
AcDbEntity
  8
ALPHA
100
AcDbPolyline
 90
        4
 70
     0
 43
0.0
 10
78.761528
 20
122.033915
 10
78.854234
 20
122.019288
 10
78.937864
 20
121.976839
 10
79.004234
 20
121.910721
  0
LINE
  5
12F
100
AcDbEntity
  8
ALPHA
100
AcDbLine
 10
78.761528
 20
121.735057
 30
0.0
 11
78.761528
 21
122.033915
 31
0.0
  0
LINE
  5
130
100
AcDbEntity
  8
ALPHA
100
AcDbLine
 10
74.861528
 20
121.735057
 30
0.0
 11
78.761528
 21
121.735057
 31
0.0
  0
LINE
  5
131
100
AcDbEntity
  8
ALPHA
100
AcDbLine
 10
65.394935
 20
126.709956
 30
0.0
 11
64.161528
 21
126.709956
 31
0.0
  0
LWPOLYLINE
  5
132
100
AcDbEntity
  8
ALPHA
100
AcDbPolyline
 90
        4
 70
     0
 43
0.0
 10
65.394935
 20
126.709956
 10
65.20185
 20
126.337983
 10
65.029776
 20
125.937415
 10
64.875746
 20
125.509956
  0
LINE
  5
138
100
AcDbEntity
  8
ALPHA
100
AcDbLine
 10
74.861528
 20
121.735057
 30
0.0
 11
74.861528
 21
122.033915
 31
0.0
  0
LWPOLYLINE
  5
139
100
AcDbEntity
  8
ALPHA
100
AcDbPolyline
 90
        4
 70
     0
 43
0.0
 10
68.128056
 20
126.709956
 10
68.321203
 20
126.337992
 10
68.493279
 20
125.937419
 10
68.647311
 20
125.509956
  0
LINE
  5
13F
100
AcDbEntity
  8
ALPHA
100
AcDbLine
 10
69.361528
 20
126.709956
 30
0.0
 11
68.128056
 21
126.709956
 31
0.0
  0
LINE
  5
140
100
AcDbEntity
  8
ALPHA
100
AcDbLine
 10
74.861528
 20
122.033915
 30
0.0
 11
78.761528
 21
122.033915
 31
0.0
  0
LWPOLYLINE
  5
141
100
AcDbEntity
  8
ALPHA
100
AcDbPolyline
 90
        5
 70
     0
 43
0.0
 10
74.861528
 20
121.735057
 10
74.746724
 20
121.734934
 10
74.649396
 20
121.734891
 10
74.584365
 20
121.734934
 10
74.561528
 20
121.735057
  0
LINE
  5
148
100
AcDbEntity
  8
ALPHA
100
AcDbLine
 10
69.361528
 20
126.709956
 30
0.0
 11
69.361528
 21
125.509956
 31
0.0
  0
LWPOLYLINE
  5
149
100
AcDbEntity
  8
ALPHA
100
AcDbPolyline
 90
        6
 70
     0
 43
0.0
 10
69.361528
 20
126.709956
 10
69.448777
 20
126.691618
 10
69.532503
 20
126.634311
 10
69.599362
 20
126.544285
 10
69.644549
 20
126.426402
 10
69.661528
 20
126.285692
  0
LINE
  5
151
100
AcDbEntity
  8
ALPHA
100
AcDbLine
 10
74.861528
 20
121.109956
 30
0.0
 11
74.861528
 21
121.735057
 31
0.0
  0
LINE
  5
152
100
AcDbEntity
  8
ALPHA
100
AcDbLine
 10
64.161528
 20
125.509956
 30
0.0
 11
64.161528
 21
126.709956
 31
0.0
  0
LWPOLYLINE
  5
153
100
AcDbEntity
  8
ALPHA
100
AcDbPolyline
 90
        6
 70
     0
 43
0.0
 10
63.861528
 20
126.285692
 10
63.878508
 20
126.426402
 10
63.923695
 20
126.544285
 10
63.990554
 20
126.634311
 10
64.07428
 20
126.691618
 10
64.161528
 20
126.709956
  0
LWPOLYLINE
  5
15B
100
AcDbEntity
  8
ALPHA
100
AcDbPolyline
 90
        5
 70
     0
 43
0.0
 10
74.561528
 20
122.013271
 10
74.584427
 20
122.128665
 10
74.64951
 20
122.226327
 10
74.746874
 20
122.291556
 10
74.861528
 20
122.314417
  0
LINE
  5
162
100
AcDbEntity
  8
ALPHA
100
AcDbLine
 10
80.661528
 20
88.156082
 30
0.0
 11
80.661528
 21
87.009956
 31
0.0
  0
LINE
  5
163
100
AcDbEntity
  8
ALPHA
100
AcDbLine
 10
60.561528
 20
124.983161
 30
0.0
 11
52.961528
 21
124.983161
 31
0.0
  0
LINE
  5
164
100
AcDbEntity
  8
ALPHA
100
AcDbLine
 10
60.561528
 20
124.723354
 30
0.0
 11
52.961528
 21
124.723354
 31
0.0
  0
LINE
  5
165
100
AcDbEntity
  8
ALPHA
100
AcDbLine
 10
80.561528
 20
124.983161
 30
0.0
 11
72.961528
 21
124.983161
 31
0.0
  0
LWPOLYLINE
  5
166
100
AcDbEntity
  8
ALPHA
100
AcDbPolyline
 90
        6
 70
     0
 43
0.0
 10
80.661528
 20
88.156082
 10
80.918197
 20
88.190099
 10
81.158803
 20
88.290531
 10
81.366081
 20
88.450909
 10
81.525986
 20
88.661048
 10
81.58719
 20
88.809956
  0
LINE
  5
16E
100
AcDbEntity
  8
ALPHA
100
AcDbLine
 10
80.561528
 20
124.723354
 30
0.0
 11
72.961528
 21
124.723354
 31
0.0
  0
LINE
  5
16F
100
AcDbEntity
  8
ALPHA
100
AcDbLine
 10
63.635366
 20
88.156082
 30
0.0
 11
52.861528
 21
88.156082
 31
0.0
  0
LINE
  5
170
100
AcDbEntity
  8
ALPHA
100
AcDbLine
 10
80.661528
 20
88.156082
 30
0.0
 11
69.887691
 21
88.156082
 31
0.0
  0
LWPOLYLINE
  5
171
100
AcDbEntity
  8
ALPHA
100
AcDbPolyline
 90
        4
 70
     0
 43
0.0
 10
74.618823
 20
121.910721
 10
74.685193
 20
121.976839
 10
74.768823
 20
122.019288
 10
74.861528
 20
122.033915
  0
LWPOLYLINE
  5
177
100
AcDbEntity
  8
ALPHA
100
AcDbPolyline
 90
        3
 70
     0
 43
0.0
 10
74.561528
 20
121.735057
 10
74.576212
 20
121.82741
 10
74.618823
 20
121.910721
  0
LINE
  5
17C
100
AcDbEntity
  8
ALPHA
100
AcDbLine
 10
52.861528
 20
87.009956
 30
0.0
 11
52.861528
 21
88.156082
 31
0.0
  0
LINE
  5
17D
100
AcDbEntity
  8
ALPHA
100
AcDbLine
 10
63.861528
 20
124.983161
 30
0.0
 11
62.961528
 21
124.983161
 31
0.0
  0
LINE
  5
17E
100
AcDbEntity
  8
ALPHA
100
AcDbLine
 10
63.861528
 20
124.723354
 30
0.0
 11
62.961528
 21
124.723354
 31
0.0
  0
LINE
  5
17F
100
AcDbEntity
  8
ALPHA
100
AcDbLine
 10
70.561528
 20
124.983161
 30
0.0
 11
69.661528
 21
124.983161
 31
0.0
  0
LINE
  5
180
100
AcDbEntity
  8
ALPHA
100
AcDbLine
 10
70.561528
 20
124.723354
 30
0.0
 11
69.661528
 21
124.723354
 31
0.0
  0
LWPOLYLINE
  5
181
100
AcDbEntity
  8
ALPHA
100
AcDbPolyline
 90
        6
 70
     0
 43
0.0
 10
54.461528
 20
121.735057
 10
54.476212
 20
121.735057
 10
54.518823
 20
121.735057
 10
54.585193
 20
121.735057
 10
54.668823
 20
121.735057
 10
54.761528
 20
121.735057
  0
LINE
  5
189
100
AcDbEntity
  8
ALPHA
100
AcDbLine
 10
54.761528
 20
121.735057
 30
0.0
 11
54.761528
 21
121.109956
 31
0.0
  0
LINE
  5
18A
100
AcDbEntity
  8
ALPHA
100
AcDbLine
 10
54.761528
 20
122.314417
 30
0.0
 11
54.761528
 21
122.033915
 31
0.0
  0
LINE
  5
18B
100
AcDbEntity
  8
ALPHA
100
AcDbLine
 10
54.761528
 20
121.735057
 30
0.0
 11
58.661528
 21
121.735057
 31
0.0
  0
LWPOLYLINE
  5
18C
100
AcDbEntity
  8
ALPHA
100
AcDbPolyline
 90
        5
 70
     0
 43
0.0
 10
54.761528
 20
121.735057
 10
54.761532
 20
121.842332
 10
54.761527
 20
121.936977
 10
54.761529
 20
122.003913
 10
54.761528
 20
122.033915
  0
LINE
  5
193
100
AcDbEntity
  8
ALPHA
100
AcDbLine
 10
54.761528
 20
122.033915
 30
0.0
 11
58.661528
 21
122.033915
 31
0.0
  0
LWPOLYLINE
  5
194
100
AcDbEntity
  8
ALPHA
100
AcDbPolyline
 90
        5
 70
     0
 43
0.0
 10
58.661528
 20
121.735057
 10
58.661528
 20
121.843788
 10
58.661528
 20
121.937734
 10
58.661528
 20
122.004119
 10
58.661528
 20
122.033915
  0
LINE
  5
19B
100
AcDbEntity
  8
ALPHA
100
AcDbLine
 10
58.661528
 20
122.033915
 30
0.0
 11
58.661528
 21
122.314417
 31
0.0
  0
LWPOLYLINE
  5
19C
100
AcDbEntity
  8
ALPHA
100
AcDbPolyline
 90
        5
 70
     0
 43
0.0
 10
58.661528
 20
122.314417
 10
58.776183
 20
122.291556
 10
58.873547
 20
122.226327
 10
58.93863
 20
122.128665
 10
58.961528
 20
122.013271
  0
LINE
  5
1A3
100
AcDbEntity
  8
ALPHA
100
AcDbLine
 10
58.661528
 20
121.109956
 30
0.0
 11
58.661528
 21
121.735057
 31
0.0
  0
LINE
  5
1A4
100
AcDbEntity
  8
ALPHA
100
AcDbLine
 10
58.661528
 20
122.314417
 30
0.0
 11
54.761528
 21
122.314417
 31
0.0
  0
LINE
  5
1A5
100
AcDbEntity
  8
ALPHA
100
AcDbLine
 10
70.561528
 20
123.133736
 30
0.0
 11
70.161528
 21
122.858512
 31
0.0
  0
LINE
  5
1A6
100
AcDbEntity
  8
ALPHA
100
AcDbLine
 10
70.161528
 20
122.309956
 30
0.0
 11
70.161528
 21
122.858512
 31
0.0
  0
LINE
  5
1A7
100
AcDbEntity
  8
ALPHA
100
AcDbLine
 10
73.361528
 20
123.262658
 30
0.0
 11
73.361528
 21
121.109956
 31
0.0
  0
LINE
  5
1A8
100
AcDbEntity
  8
ALPHA
100
AcDbLine
 10
72.961528
 20
123.537881
 30
0.0
 11
73.361528
 21
123.262658
 31
0.0
  0
LINE
  5
1A9
100
AcDbEntity
  8
ALPHA
100
AcDbLine
 10
80.561528
 20
123.537881
 30
0.0
 11
80.161528
 21
123.262658
 31
0.0
  0
LINE
  5
1AA
100
AcDbEntity
  8
ALPHA
100
AcDbLine
 10
80.161528
 20
123.262658
 30
0.0
 11
80.161528
 21
121.109956
 31
0.0
  0
LINE
  5
1AB
100
AcDbEntity
  8
ALPHA
100
AcDbLine
 10
80.161528
 20
123.262658
 30
0.0
 11
73.361528
 21
123.262658
 31
0.0
  0
LINE
  5
1AC
100
AcDbEntity
  8
ALPHA
100
AcDbLine
 10
74.861528
 20
122.314417
 30
0.0
 11
74.861528
 21
122.033915
 31
0.0
  0
LINE
  5
1AD
100
AcDbEntity
  8
ALPHA
100
AcDbLine
 10
78.761528
 20
122.033915
 30
0.0
 11
78.761528
 21
122.314417
 31
0.0
  0
LWPOLYLINE
  5
1AE
100
AcDbEntity
  8
ALPHA
100
AcDbPolyline
 90
        5
 70
     0
 43
0.0
 10
78.761528
 20
122.314417
 10
78.876183
 20
122.291556
 10
78.973547
 20
122.226327
 10
79.03863
 20
122.128665
 10
79.061528
 20
122.013271
  0
LINE
  5
1B5
100
AcDbEntity
  8
ALPHA
100
AcDbLine
 10
63.361528
 20
122.309956
 30
0.0
 11
63.361528
 21
122.858512
 31
0.0
  0
LINE
  5
1B6
100
AcDbEntity
  8
ALPHA
100
AcDbLine
 10
62.961528
 20
123.133736
 30
0.0
 11
63.361528
 21
122.858512
 31
0.0
  0
LINE
  5
1B7
100
AcDbEntity
  8
ALPHA
100
AcDbLine
 10
60.561528
 20
123.537881
 30
0.0
 11
60.161528
 21
123.262658
 31
0.0
  0
LINE
  5
1B8
100
AcDbEntity
  8
ALPHA
100
AcDbLine
 10
60.161528
 20
121.109956
 30
0.0
 11
60.161528
 21
123.262658
 31
0.0
  0
LINE
  5
1B9
100
AcDbEntity
  8
ALPHA
100
AcDbLine
 10
53.361528
 20
121.109956
 30
0.0
 11
53.361528
 21
123.262658
 31
0.0
  0
LINE
  5
1BA
100
AcDbEntity
  8
ALPHA
100
AcDbLine
 10
52.961528
 20
123.537881
 30
0.0
 11
53.361528
 21
123.262658
 31
0.0
  0
LINE
  5
1BB
100
AcDbEntity
  8
ALPHA
100
AcDbLine
 10
60.161528
 20
123.262658
 30
0.0
 11
53.361528
 21
123.262658
 31
0.0
  0
LINE
  5
1BC
100
AcDbEntity
  8
ALPHA
100
AcDbLine
 10
70.161528
 20
122.858512
 30
0.0
 11
63.361528
 21
122.858512
 31
0.0
  0
LINE
  5
1BD
100
AcDbEntity
  8
ALPHA
100
AcDbLine
 10
74.861528
 20
122.314417
 30
0.0
 11
78.761528
 21
122.314417
 31
0.0
  0
LWPOLYLINE
  5
1BE
100
AcDbEntity
  8
ALPHA
100
AcDbPolyline
 90
        6
 70
     0
 43
0.0
 10
51.935867
 20
88.809956
 10
51.997071
 20
88.661048
 10
52.156976
 20
88.450909
 10
52.364254
 20
88.290531
 10
52.60486
 20
88.190099
 10
52.861528
 20
88.156082
  0
LINE
  5
1C6
100
AcDbEntity
  8
ALPHA
100
AcDbLine
 10
62.961528
 20
123.309956
 30
0.0
 11
60.561528
 21
123.309956
 31
0.0
  0
LINE
  5
1C7
100
AcDbEntity
  8
ALPHA
100
AcDbLine
 10
72.961528
 20
123.309956
 30
0.0
 11
70.561528
 21
123.309956
 31
0.0
  0
LWPOLYLINE
  5
1C8
100
AcDbEntity
  8
ALPHA
100
AcDbPolyline
 90
        5
 70
     0
 43
0.0
 10
54.461528
 20
122.013271
 10
54.484427
 20
122.128665
 10
54.54951
 20
122.226327
 10
54.646874
 20
122.291556
 10
54.761528
 20
122.314417
  0
LWPOLYLINE
  5
1CF
100
AcDbEntity
  8
ALPHA
100
AcDbPolyline
 90
        4
 70
     0
 43
0.0
 10
54.517961
 20
121.909529
 10
54.584594
 20
121.976408
 10
54.668436
 20
122.019159
 10
54.761528
 20
122.033915
  0
LWPOLYLINE
  5
1D5
100
AcDbEntity
  8
ALPHA
100
AcDbPolyline
 90
        3
 70
     0
 43
0.0
 10
54.461528
 20
121.735057
 10
54.475781
 20
121.826083
 10
54.517961
 20
121.909529
  0
LWPOLYLINE
  5
1DA
100
AcDbEntity
  8
ALPHA
100
AcDbPolyline
 90
        4
 70
     0
 43
0.0
 10
58.903768
 20
121.911363
 10
58.836657
 20
121.977701
 10
58.752907
 20
122.019719
 10
58.661528
 20
122.033915
  0
LWPOLYLINE
  5
1E0
100
AcDbEntity
  8
ALPHA
100
AcDbPolyline
 90
        3
 70
     0
 43
0.0
 10
58.961528
 20
121.735057
 10
58.946704
 20
121.82784
 10
58.903768
 20
121.911363
  0
LWPOLYLINE
  5
1E5
100
AcDbEntity
  8
ALPHA
100
AcDbPolyline
 90
        6
 70
     0
 43
0.0
 10
58.961528
 20
121.735057
 10
58.946704
 20
121.735097
 10
58.903768
 20
121.735002
 10
58.836657
 20
121.735127
 10
58.752907
 20
121.734999
 10
58.661528
 20
121.735057
  0
LINE
  5
1ED
100
AcDbEntity
  8
ALPHA
100
AcDbLine
 10
65.586114
 20
125.509956
 30
0.0
 11
64.875746
 21
125.509956
 31
0.0
  0
LINE
  5
1EE
100
AcDbEntity
  8
ALPHA
100
AcDbLine
 10
68.647311
 20
125.509956
 30
0.0
 11
67.936943
 21
125.509956
 31
0.0
  0
LWPOLYLINE
  5
1EF
100
AcDbEntity
  8
ALPHA
100
AcDbPolyline
 90
        6
 70
     0
 43
0.0
 10
67.936943
 20
125.509956
 10
67.47825
 20
125.723711
 10
67.002216
 20
125.829698
 10
66.520841
 20
125.829698
 10
66.044807
 20
125.723711
 10
65.586114
 20
125.509956
  0
LWPOLYLINE
  5
1F7
100
AcDbEntity
  8
ALPHA
100
AcDbPolyline
 90
        8
 70
     0
 43
0.0
 10
68.340168
 20
123.375069
 10
67.919058
 20
123.21857
 10
67.466913
 20
123.115123
 10
66.998356
 20
123.063828
 10
66.524701
 20
123.063828
 10
66.056144
 20
123.115123
 10
65.604
 20
123.21857
 10
65.182889
 20
123.375069
  0
LINE
  5
201
100
AcDbEntity
  8
ALPHA
100
AcDbLine
 10
64.875746
 20
125.509956
 30
0.0
 11
64.161528
 21
125.509956
 31
0.0
  0
LINE
  5
202
100
AcDbEntity
  8
ALPHA
100
AcDbLine
 10
69.361528
 20
125.509956
 30
0.0
 11
68.647311
 21
125.509956
 31
0.0
  0
LWPOLYLINE
  5
203
100
AcDbEntity
  8
ALPHA
100
AcDbPolyline
 90
        6
 70
     0
 43
0.0
 10
64.161528
 20
123.375069
 10
64.077964
 20
123.382317
 10
63.993448
 20
123.406508
 10
63.924804
 20
123.445699
 10
63.878529
 20
123.497417
 10
63.861528
 20
123.558185
  0
ARC
  5
20B
100
AcDbEntity
  8
ALPHA
100
AcDbCircle
 10
69.361528
 20
125.209956
 30
0.0
 40
0.3
100
AcDbArc
 50
0.0
 51
90.0
  0
ARC
  5
20C
100
AcDbEntity
  8
ALPHA
100
AcDbCircle
 10
64.161528
 20
125.209956
 30
0.0
 40
0.3
100
AcDbArc
 50
90.0
 51
180.0
  0
LINE
  5
20D
100
AcDbEntity
  8
ALPHA
100
AcDbLine
 10
60.561528
 20
124.983161
 30
0.0
 11
60.561528
 21
124.723354
 31
0.0
  0
LINE
  5
20E
100
AcDbEntity
  8
ALPHA
100
AcDbLine
 10
52.961528
 20
124.723354
 30
0.0
 11
52.961528
 21
124.983161
 31
0.0
  0
LINE
  5
20F
100
AcDbEntity
  8
ALPHA
100
AcDbLine
 10
80.561528
 20
124.983161
 30
0.0
 11
80.561528
 21
124.723354
 31
0.0
  0
ARC
  5
210
100
AcDbEntity
  8
ALPHA
100
AcDbCircle
 10
66.761528
 20
81.009956
 30
0.0
 40
7.8
100
AcDbArc
 50
105.905694
 51
113.627579
  0
ARC
  5
211
100
AcDbEntity
  8
ALPHA
100
AcDbCircle
 10
66.761528
 20
81.009956
 30
0.0
 40
7.8
100
AcDbArc
 50
66.372421
 51
74.094306
  0
LINE
  5
212
100
AcDbEntity
  8
ALPHA
100
AcDbLine
 10
72.961528
 20
124.723354
 30
0.0
 11
72.961528
 21
124.983161
 31
0.0
  0
LINE
  5
213
100
AcDbEntity
  8
ALPHA
100
AcDbLine
 10
63.861528
 20
124.983161
 30
0.0
 11
63.861528
 21
124.723354
 31
0.0
  0
LINE
  5
214
100
AcDbEntity
  8
ALPHA
100
AcDbLine
 10
62.961528
 20
124.723354
 30
0.0
 11
62.961528
 21
124.983161
 31
0.0
  0
LINE
  5
215
100
AcDbEntity
  8
ALPHA
100
AcDbLine
 10
70.561528
 20
124.983161
 30
0.0
 11
70.561528
 21
124.723354
 31
0.0
  0
LINE
  5
216
100
AcDbEntity
  8
ALPHA
100
AcDbLine
 10
69.661528
 20
124.723354
 30
0.0
 11
69.661528
 21
124.983161
 31
0.0
  0
ARC
  5
217
100
AcDbEntity
  8
ALPHA
100
AcDbCircle
 10
66.761528
 20
81.009956
 30
0.0
 40
7.8
100
AcDbArc
 50
118.087839
 51
129.715137
  0
ARC
  5
218
100
AcDbEntity
  8
ALPHA
100
AcDbCircle
 10
66.761528
 20
81.009956
 30
0.0
 40
7.8
100
AcDbArc
 50
50.284863
 51
61.912017
  0
LINE
  5
219
100
AcDbEntity
  8
ALPHA
100
AcDbLine
 10
80.161528
 20
87.009956
 30
0.0
 11
73.261528
 21
87.009956
 31
0.0
  0
LINE
  5
21A
100
AcDbEntity
  8
ALPHA
100
AcDbLine
 10
60.261528
 20
87.009956
 30
0.0
 11
53.361528
 21
87.009956
 31
0.0
  0
LINE
  5
21B
100
AcDbEntity
  8
ALPHA
100
AcDbLine
 10
70.561528
 20
122.309956
 30
0.0
 11
70.561528
 21
123.133736
 31
0.0
  0
LINE
  5
21C
100
AcDbEntity
  8
ALPHA
100
AcDbLine
 10
72.961528
 20
123.537881
 30
0.0
 11
72.961528
 21
121.109956
 31
0.0
  0
LINE
  5
21D
100
AcDbEntity
  8
ALPHA
100
AcDbLine
 10
80.561528
 20
123.537881
 30
0.0
 11
80.561528
 21
121.109956
 31
0.0
  0
LINE
  5
21E
100
AcDbEntity
  8
ALPHA
100
AcDbLine
 10
80.561528
 20
124.723354
 30
0.0
 11
80.561528
 21
123.537881
 31
0.0
  0
LINE
  5
21F
100
AcDbEntity
  8
ALPHA
100
AcDbLine
 10
72.961528
 20
124.723354
 30
0.0
 11
72.961528
 21
123.537881
 31
0.0
  0
LINE
  5
220
100
AcDbEntity
  8
ALPHA
100
AcDbLine
 10
62.961528
 20
122.100704
 30
0.0
 11
62.961528
 21
123.133736
 31
0.0
  0
LINE
  5
221
100
AcDbEntity
  8
ALPHA
100
AcDbLine
 10
60.561528
 20
121.109956
 30
0.0
 11
60.561528
 21
123.537881
 31
0.0
  0
LINE
  5
222
100
AcDbEntity
  8
ALPHA
100
AcDbLine
 10
52.961528
 20
121.109956
 30
0.0
 11
52.961528
 21
123.537881
 31
0.0
  0
LINE
  5
223
100
AcDbEntity
  8
ALPHA
100
AcDbLine
 10
52.961528
 20
123.537881
 30
0.0
 11
52.961528
 21
124.723354
 31
0.0
  0
LINE
  5
224
100
AcDbEntity
  8
ALPHA
100
AcDbLine
 10
60.561528
 20
123.537881
 30
0.0
 11
60.561528
 21
124.723354
 31
0.0
  0
LINE
  5
225
100
AcDbEntity
  8
ALPHA
100
AcDbLine
 10
69.661528
 20
123.558185
 30
0.0
 11
69.661528
 21
124.723354
 31
0.0
  0
LINE
  5
226
100
AcDbEntity
  8
ALPHA
100
AcDbLine
 10
69.361528
 20
123.375069
 30
0.0
 11
68.340168
 21
123.375069
 31
0.0
  0
LINE
  5
227
100
AcDbEntity
  8
ALPHA
100
AcDbLine
 10
65.182889
 20
123.375069
 30
0.0
 11
64.161528
 21
123.375069
 31
0.0
  0
LINE
  5
228
100
AcDbEntity
  8
ALPHA
100
AcDbLine
 10
63.861528
 20
123.558185
 30
0.0
 11
63.861528
 21
124.723354
 31
0.0
  0
LINE
  5
229
100
AcDbEntity
  8
ALPHA
100
AcDbLine
 10
62.961528
 20
123.133736
 30
0.0
 11
62.961528
 21
124.723354
 31
0.0
  0
LINE
  5
22A
100
AcDbEntity
  8
ALPHA
100
AcDbLine
 10
70.561528
 20
123.133736
 30
0.0
 11
70.561528
 21
124.723354
 31
0.0
  0
ARC
  5
22B
100
AcDbEntity
  8
ALPHA
100
AcDbCircle
 10
53.961528
 20
125.809956
 30
0.0
 40
1.0
100
AcDbArc
 50
90.0
 51
180.0
  0
ARC
  5
22C
100
AcDbEntity
  8
ALPHA
100
AcDbCircle
 10
79.561528
 20
125.809956
 30
0.0
 40
1.0
100
AcDbArc
 50
0.0
 51
90.0
  0
LINE
  5
22D
100
AcDbEntity
  8
ALPHA
100
AcDbLine
 10
80.161528
 20
87.009956
 30
0.0
 11
80.161528
 21
87.891591
 31
0.0
  0
LINE
  5
22E
100
AcDbEntity
  8
ALPHA
100
AcDbLine
 10
73.261528
 20
87.891591
 30
0.0
 11
80.161528
 21
87.891591
 31
0.0
  0
LINE
  5
22F
100
AcDbEntity
  8
ALPHA
100
AcDbLine
 10
73.261528
 20
87.009956
 30
0.0
 11
73.261528
 21
87.891591
 31
0.0
  0
LINE
  5
230
100
AcDbEntity
  8
ALPHA
100
AcDbLine
 10
52.961528
 20
125.809956
 30
0.0
 11
52.961528
 21
124.983161
 31
0.0
  0
LINE
  5
231
100
AcDbEntity
  8
ALPHA
100
AcDbLine
 10
63.861528
 20
124.983161
 30
0.0
 11
63.861528
 21
126.285692
 31
0.0
  0
LINE
  5
232
100
AcDbEntity
  8
ALPHA
100
AcDbLine
 10
69.661528
 20
124.983161
 30
0.0
 11
69.661528
 21
126.285692
 31
0.0
  0
LINE
  5
233
100
AcDbEntity
  8
ALPHA
100
AcDbLine
 10
80.561528
 20
125.809956
 30
0.0
 11
80.561528
 21
124.983161
 31
0.0
  0
LINE
  5
234
100
AcDbEntity
  8
ALPHA
100
AcDbLine
 10
71.761528
 20
87.009956
 30
0.0
 11
71.761528
 21
87.891591
 31
0.0
  0
LINE
  5
235
100
AcDbEntity
  8
ALPHA
100
AcDbLine
 10
70.433463
 20
87.891591
 30
0.0
 11
71.761528
 21
87.891591
 31
0.0
  0
ARC
  5
236
100
AcDbEntity
  8
ALPHA
100
AcDbCircle
 10
66.761528
 20
81.009956
 30
0.0
 40
7.8
100
AcDbArc
 50
61.916307
 51
66.372421
  0
ARC
  5
237
100
AcDbEntity
  8
ALPHA
100
AcDbCircle
 10
66.761528
 20
81.009956
 30
0.0
 40
7.8
100
AcDbArc
 50
113.627579
 51
118.083693
  0
LINE
  5
238
100
AcDbEntity
  8
ALPHA
100
AcDbLine
 10
61.761528
 20
87.891591
 30
0.0
 11
63.089594
 21
87.891591
 31
0.0
  0
LINE
  5
239
100
AcDbEntity
  8
ALPHA
100
AcDbLine
 10
61.761528
 20
87.009956
 30
0.0
 11
61.761528
 21
87.891591
 31
0.0
  0
LINE
  5
23A
100
AcDbEntity
  8
ALPHA
100
AcDbLine
 10
60.261528
 20
87.009956
 30
0.0
 11
60.261528
 21
87.891591
 31
0.0
  0
LINE
  5
23B
100
AcDbEntity
  8
ALPHA
100
AcDbLine
 10
53.361528
 20
87.891591
 30
0.0
 11
60.261528
 21
87.891591
 31
0.0
  0
LINE
  5
23C
100
AcDbEntity
  8
ALPHA
100
AcDbLine
 10
53.361528
 20
87.009956
 30
0.0
 11
53.361528
 21
87.891591
 31
0.0
  0
ARC
  5
23D
100
AcDbEntity
  8
ALPHA
100
AcDbCircle
 10
71.275119
 20
128.809956
 30
0.0
 40
2.0
100
AcDbArc
 50
234.518642
 51
270.0
  0
ARC
  5
23E
100
AcDbEntity
  8
ALPHA
100
AcDbCircle
 10
62.247938
 20
128.809956
 30
0.0
 40
2.0
100
AcDbArc
 50
270.0
 51
305.481358
  0
ARC
  5
23F
100
AcDbEntity
  8
ALPHA
100
AcDbCircle
 10
66.761528
 20
122.509956
 30
0.0
 40
5.75
100
AcDbArc
 50
54.332551
 51
125.667449
  0
ARC
  5
240
100
AcDbEntity
  8
ALPHA
100
AcDbCircle
 10
80.661528
 20
88.009956
 30
0.0
 40
1.0
100
AcDbArc
 50
270.0
 51
0.0
  0
LINE
  5
241
100
AcDbEntity
  8
ALPHA
100
AcDbLine
 10
81.661528
 20
88.809956
 30
0.0
 11
81.661528
 21
88.009956
 31
0.0
  0
LINE
  5
242
100
AcDbEntity
  8
ALPHA
100
AcDbLine
 10
51.861528
 20
88.009956
 30
0.0
 11
51.861528
 21
88.809956
 31
0.0
  0
LINE
  5
243
100
AcDbEntity
  8
ALPHA
100
AcDbLine
 10
53.961528
 20
126.809956
 30
0.0
 11
62.247938
 21
126.809956
 31
0.0
  0
LINE
  5
244
100
AcDbEntity
  8
ALPHA
100
AcDbLine
 10
71.275119
 20
126.809956
 30
0.0
 11
79.561528
 21
126.809956
 31
0.0
  0
LINE
  5
245
100
AcDbEntity
  8
ALPHA
100
AcDbLine
 10
61.777554
 20
87.009956
 30
0.0
 11
61.761528
 21
87.009956
 31
0.0
  0
LINE
  5
246
100
AcDbEntity
  8
ALPHA
100
AcDbLine
 10
61.761528
 20
87.009956
 30
0.0
 11
60.261528
 21
87.009956
 31
0.0
  0
LINE
  5
247
100
AcDbEntity
  8
ALPHA
100
AcDbLine
 10
53.361528
 20
87.009956
 30
0.0
 11
52.861528
 21
87.009956
 31
0.0
  0
LINE
  5
248
100
AcDbEntity
  8
ALPHA
100
AcDbLine
 10
80.661528
 20
87.009956
 30
0.0
 11
80.161528
 21
87.009956
 31
0.0
  0
LINE
  5
249
100
AcDbEntity
  8
ALPHA
100
AcDbLine
 10
73.261528
 20
87.009956
 30
0.0
 11
71.761528
 21
87.009956
 31
0.0
  0
LINE
  5
24A
100
AcDbEntity
  8
ALPHA
100
AcDbLine
 10
71.761528
 20
87.009956
 30
0.0
 11
71.745503
 21
87.009956
 31
0.0
  0
LWPOLYLINE
  5
24B
100
AcDbEntity
  8
ALPHA
100
AcDbPolyline
 90
        6
 70
     0
 43
0.0
 10
69.661528
 20
123.558185
 10
69.644528
 20
123.497417
 10
69.598253
 20
123.445699
 10
69.529609
 20
123.406508
 10
69.445093
 20
123.382317
 10
69.361528
 20
123.375069
  0
LINE
  5
253
100
AcDbEntity
  8
ALPHA
100
AcDbLine
 10
51.861528
 20
88.009956
 30
0.0
 11
51.861528
 21
88.809956
 31
0.0
  0
ARC
  5
254
100
AcDbEntity
  8
ALPHA
100
AcDbCircle
 10
52.861528
 20
88.009956
 30
0.0
 40
1.0
100
AcDbArc
 50
180.0
 51
270.0
  0
LINE
  5
255
100
AcDbEntity
  8
ALPHA
100
AcDbLine
 10
54.461528
 20
122.013271
 30
0.0
 11
54.461528
 21
121.109956
 31
0.0
  0
LINE
  5
256
100
AcDbEntity
  8
ALPHA
100
AcDbLine
 10
58.961528
 20
122.013271
 30
0.0
 11
58.961528
 21
121.109956
 31
0.0
  0
LINE
  5
257
100
AcDbEntity
  8
ALPHA
100
AcDbLine
 10
74.561528
 20
122.013271
 30
0.0
 11
74.561528
 21
121.109956
 31
0.0
  0
LINE
  5
258
100
AcDbEntity
  8
ALPHA
100
AcDbLine
 10
79.061528
 20
122.013271
 30
0.0
 11
79.061528
 21
121.109956
 31
0.0
  0
LINE
  5
259
100
AcDbEntity
  8
ALPHA
100
AcDbLine
 10
61.661528
 20
106.959956
 30
0.0
 11
62.061528
 21
106.959956
 31
0.0
  0
LINE
  5
25A
100
AcDbEntity
  8
ALPHA
100
AcDbLine
 10
60.661528
 20
104.059956
 30
0.0
 11
60.511528
 21
104.059956
 31
0.0
  0
LINE
  5
25B
100
AcDbEntity
  8
ALPHA
100
AcDbLine
 10
62.061528
 20
104.059956
 30
0.0
 11
61.661528
 21
104.059956
 31
0.0
  0
LINE
  5
25C
100
AcDbEntity
  8
ALPHA
100
AcDbLine
 10
71.461528
 20
106.959956
 30
0.0
 11
71.861528
 21
106.959956
 31
0.0
  0
LINE
  5
25D
100
AcDbEntity
  8
ALPHA
100
AcDbLine
 10
71.861528
 20
104.059956
 30
0.0
 11
71.461528
 21
104.059956
 31
0.0
  0
LINE
  5
25E
100
AcDbEntity
  8
ALPHA
100
AcDbLine
 10
73.011528
 20
104.059956
 30
0.0
 11
72.861528
 21
104.059956
 31
0.0
  0
LINE
  5
25F
100
AcDbEntity
  8
ALPHA
100
AcDbLine
 10
76.761528
 20
110.727429
 30
0.0
 11
76.761528
 21
110.150022
 31
0.0
  0
LINE
  5
260
100
AcDbEntity
  8
ALPHA
100
AcDbLine
 10
76.761528
 20
111.109455
 30
0.0
 11
76.761528
 21
110.883712
 31
0.0
  0
LINE
  5
261
100
AcDbEntity
  8
ALPHA
100
AcDbLine
 10
76.761528
 20
98.510457
 30
0.0
 11
76.761528
 21
99.46989
 31
0.0
  0
LINE
  5
262
100
AcDbEntity
  8
ALPHA
100
AcDbLine
 10
80.811528
 20
114.577706
 30
0.0
 11
79.57338
 21
114.577706
 31
0.0
  0
LWPOLYLINE
  5
263
100
AcDbEntity
  8
ALPHA
100
AcDbPolyline
 90
       10
 70
     0
 43
0.0
 10
76.761528
 20
99.46989
 10
77.331274
 20
99.414449
 10
77.881024
 20
99.249842
 10
78.391135
 20
98.981273
 10
78.842828
 20
98.617541
 10
79.21885
 20
98.17108
 10
79.504265
 20
97.657843
 10
79.687332
 20
97.096917
 10
79.760327
 20
96.509811
 10
79.761498
 20
96.423951
  0
LINE
  5
26F
100
AcDbEntity
  8
ALPHA
100
AcDbLine
 10
80.811528
 20
114.299551
 30
0.0
 11
79.669035
 21
114.299551
 31
0.0
  0
LWPOLYLINE
  5
270
100
AcDbEntity
  8
ALPHA
100
AcDbPolyline
 90
        8
 70
     0
 43
0.0
 10
79.631734
 20
112.309956
 10
79.423887
 20
111.792276
 10
79.127275
 20
111.323055
 10
78.752719
 20
110.91777
 10
78.313422
 20
110.589279
 10
77.824309
 20
110.347583
 10
77.301473
 20
110.199768
 10
76.761528
 20
110.150022
  0
LINE
  5
27A
100
AcDbEntity
  8
ALPHA
100
AcDbLine
 10
80.811528
 20
112.609956
 30
0.0
 11
79.61545
 21
112.609956
 31
0.0
  0
LINE
  5
27B
100
AcDbEntity
  8
ALPHA
100
AcDbLine
 10
81.661528
 20
120.765837
 30
0.0
 11
80.661528
 21
120.765837
 31
0.0
  0
LWPOLYLINE
  5
27C
100
AcDbEntity
  8
ALPHA
100
AcDbPolyline
 90
        6
 70
     0
 43
0.0
 10
79.61545
 20
112.609956
 10
79.584004
 20
112.513804
 10
79.555516
 20
112.428839
 10
79.534531
 20
112.363911
 10
79.523906
 20
112.323642
 10
79.524785
 20
112.309956
  0
LINE
  5
284
100
AcDbEntity
  8
ALPHA
100
AcDbLine
 10
76.930385
 20
110.727429
 30
0.0
 11
76.761528
 21
110.727429
 31
0.0
  0
LINE
  5
285
100
AcDbEntity
  8
ALPHA
100
AcDbLine
 10
77.050703
 20
110.727429
 30
0.0
 11
76.930385
 21
110.727429
 31
0.0
  0
LINE
  5
286
100
AcDbEntity
  8
ALPHA
100
AcDbLine
 10
76.761528
 20
110.727429
 30
0.0
 11
76.930385
 21
110.722872
 31
0.0
  0
LINE
  5
287
100
AcDbEntity
  8
ALPHA
100
AcDbLine
 10
78.503403
 20
111.231249
 30
0.0
 11
78.069198
 21
111.231249
 31
0.0
  0
LINE
  5
288
100
AcDbEntity
  8
ALPHA
100
AcDbLine
 10
77.853532
 20
110.883712
 30
0.0
 11
76.761528
 21
110.883712
 31
0.0
  0
LWPOLYLINE
  5
289
100
AcDbEntity
  8
ALPHA
100
AcDbPolyline
 90
        5
 70
     0
 43
0.0
 10
78.069198
 20
111.231249
 10
77.797496
 20
111.113539
 10
77.489509
 20
111.009162
 10
77.144975
 20
110.928607
 10
76.761528
 20
110.883712
  0
LINE
  5
290
100
AcDbEntity
  8
ALPHA
100
AcDbLine
 10
72.861528
 20
99.46989
 30
0.0
 11
76.761528
 21
99.46989
 31
0.0
  0
LINE
  5
291
100
AcDbEntity
  8
ALPHA
100
AcDbLine
 10
73.261528
 20
89.162051
 30
0.0
 11
80.261528
 21
89.162051
 31
0.0
  0
LINE
  5
292
100
AcDbEntity
  8
ALPHA
100
AcDbLine
 10
80.561528
 20
89.677183
 30
0.0
 11
80.561528
 21
88.809956
 31
0.0
  0
LINE
  5
293
100
AcDbEntity
  8
ALPHA
100
AcDbLine
 10
73.961528
 20
120.457862
 30
0.0
 11
80.261528
 21
120.457862
 31
0.0
  0
LINE
  5
294
100
AcDbEntity
  8
ALPHA
100
AcDbLine
 10
80.561528
 20
119.942729
 30
0.0
 11
80.561528
 21
120.809956
 31
0.0
  0
LINE
  5
295
100
AcDbEntity
  8
ALPHA
100
AcDbLine
 10
79.734092
 20
113.551063
 30
0.0
 11
79.740607
 21
113.631771
 31
0.0
  0
LWPOLYLINE
  5
296
100
AcDbEntity
  8
ALPHA
100
AcDbPolyline
 90
        7
 70
     0
 43
0.0
 10
78.069198
 20
111.231249
 10
78.560797
 20
111.526151
 10
78.986158
 20
111.908092
 10
79.329619
 20
112.363012
 10
79.578532
 20
112.874164
 10
79.723732
 20
113.422731
 10
79.734092
 20
113.551063
  0
LWPOLYLINE
  5
29F
100
AcDbEntity
  8
ALPHA
100
AcDbPolyline
 90
        4
 70
     0
 43
0.0
 10
79.61545
 20
112.609956
 10
79.716798
 20
113.024869
 10
79.759979
 20
113.451046
 10
79.761513
 20
113.54885
  0
LINE
  5
2A5
100
AcDbEntity
  8
ALPHA
100
AcDbLine
 10
81.661528
 20
90.309956
 30
0.0
 11
76.761528
 21
90.309956
 31
0.0
  0
LINE
  5
2A6
100
AcDbEntity
  8
ALPHA
100
AcDbLine
 10
80.261528
 20
119.309956
 30
0.0
 11
76.761528
 21
119.309956
 31
0.0
  0
LINE
  5
2A7
100
AcDbEntity
  8
ALPHA
100
AcDbLine
 10
78.921894
 20
115.309956
 30
0.0
 11
80.811528
 21
115.309956
 31
0.0
  0
LINE
  5
2A8
100
AcDbEntity
  8
ALPHA
100
AcDbLine
 10
81.661528
 20
116.909956
 30
0.0
 11
80.261528
 21
116.909956
 31
0.0
  0
LINE
  5
2A9
100
AcDbEntity
  8
ALPHA
100
AcDbLine
 10
80.261528
 20
119.309956
 30
0.0
 11
80.261528
 21
116.909956
 31
0.0
  0
LINE
  5
2AA
100
AcDbEntity
  8
ALPHA
100
AcDbLine
 10
80.261528
 20
119.309956
 30
0.0
 11
80.661528
 21
119.483461
 31
0.0
  0
LINE
  5
2AB
100
AcDbEntity
  8
ALPHA
100
AcDbLine
 10
72.861528
 20
110.150022
 30
0.0
 11
76.761528
 21
110.150022
 31
0.0
  0
LINE
  5
2AC
100
AcDbEntity
  8
ALPHA
100
AcDbLine
 10
80.261528
 20
116.909956
 30
0.0
 11
80.661528
 21
117.309956
 31
0.0
  0
LINE
  5
2AD
100
AcDbEntity
  8
ALPHA
100
AcDbLine
 10
74.861528
 20
98.510457
 30
0.0
 11
76.761528
 21
98.510457
 31
0.0
  0
LINE
  5
2AE
100
AcDbEntity
  8
ALPHA
100
AcDbLine
 10
74.861528
 20
111.109455
 30
0.0
 11
76.761528
 21
111.109455
 31
0.0
  0
LWPOLYLINE
  5
2AF
100
AcDbEntity
  8
ALPHA
100
AcDbPolyline
 90
        6
 70
     0
 43
0.0
 10
76.761528
 20
116.242582
 10
77.240734
 20
116.203467
 10
77.707542
 20
116.087159
 10
78.150797
 20
115.896255
 10
78.559135
 20
115.635147
 10
78.921894
 20
115.309956
  0
LINE
  5
2B7
100
AcDbEntity
  8
ALPHA
100
AcDbLine
 10
79.71053
 20
113.553948
 30
0.0
 11
79.718574
 21
113.634378
 31
0.0
  0
LWPOLYLINE
  5
2B8
100
AcDbEntity
  8
ALPHA
100
AcDbPolyline
 90
        9
 70
     0
 43
0.0
 10
76.761528
 20
111.109455
 10
77.346799
 20
111.166223
 10
77.909579
 20
111.334347
 10
78.428239
 20
111.607365
 10
78.882849
 20
111.974786
 10
79.255937
 20
112.422489
 10
79.533167
 20
112.933269
 10
79.703884
 20
113.487499
 10
79.71053
 20
113.553948
  0
LINE
  5
2C3
100
AcDbEntity
  8
ALPHA
100
AcDbLine
 10
80.196608
 20
89.677183
 30
0.0
 11
80.261528
 21
89.637215
 31
0.0
  0
LINE
  5
2C4
100
AcDbEntity
  8
ALPHA
100
AcDbLine
 10
76.761528
 20
89.677183
 30
0.0
 11
80.561528
 21
89.677183
 31
0.0
  0
LINE
  5
2C5
100
AcDbEntity
  8
ALPHA
100
AcDbLine
 10
76.761528
 20
119.942729
 30
0.0
 11
80.561528
 21
119.942729
 31
0.0
  0
LINE
  5
2C6
100
AcDbEntity
  8
ALPHA
100
AcDbLine
 10
80.261528
 20
119.982698
 30
0.0
 11
80.196608
 21
119.942729
 31
0.0
  0
LINE
  5
2C7
100
AcDbEntity
  8
ALPHA
100
AcDbLine
 10
73.961528
 20
120.051458
 30
0.0
 11
73.961528
 21
120.457862
 31
0.0
  0
LINE
  5
2C8
100
AcDbEntity
  8
ALPHA
100
AcDbLine
 10
73.261528
 20
120.051458
 30
0.0
 11
73.961528
 21
120.051458
 31
0.0
  0
LINE
  5
2C9
100
AcDbEntity
  8
ALPHA
100
AcDbLine
 10
76.761528
 20
119.309956
 30
0.0
 11
76.761528
 21
119.942729
 31
0.0
  0
LINE
  5
2CA
100
AcDbEntity
  8
ALPHA
100
AcDbLine
 10
76.761528
 20
89.677183
 30
0.0
 11
76.761528
 21
90.309956
 31
0.0
  0
LINE
  5
2CB
100
AcDbEntity
  8
ALPHA
100
AcDbLine
 10
72.861528
 20
99.46989
 30
0.0
 11
72.861528
 21
102.659956
 31
0.0
  0
LINE
  5
2CC
100
AcDbEntity
  8
ALPHA
100
AcDbLine
 10
72.861528
 20
106.959956
 30
0.0
 11
72.861528
 21
110.150022
 31
0.0
  0
LINE
  5
2CD
100
AcDbEntity
  8
ALPHA
100
AcDbLine
 10
80.661528
 20
119.483461
 30
0.0
 11
80.661528
 21
120.765837
 31
0.0
  0
LWPOLYLINE
  5
2CE
100
AcDbEntity
  8
ALPHA
100
AcDbPolyline
 90
        7
 70
     0
 43
0.0
 10
78.069198
 20
110.970777
 10
78.560797
 20
111.265679
 10
78.986158
 20
111.64762
 10
79.329619
 20
112.102539
 10
79.578532
 20
112.613691
 10
79.723732
 20
113.162258
 10
79.754982
 20
113.549377
  0
LWPOLYLINE
  5
2D7
100
AcDbEntity
  8
ALPHA
100
AcDbPolyline
 90
        4
 70
     0
 43
0.0
 10
79.57338
 20
114.577706
 10
79.397925
 20
114.850488
 10
79.178823
 20
115.094464
 10
78.921894
 20
115.309956
  0
LINE
  5
2DD
100
AcDbEntity
  8
ALPHA
100
AcDbLine
 10
79.524785
 20
112.309956
 30
0.0
 11
79.631734
 21
112.309956
 31
0.0
  0
LINE
  5
2DE
100
AcDbEntity
  8
ALPHA
100
AcDbLine
 10
80.511528
 20
105.809956
 30
0.0
 11
80.661528
 21
105.809956
 31
0.0
  0
LINE
  5
2DF
100
AcDbEntity
  8
ALPHA
100
AcDbLine
 10
77.961528
 20
106.809956
 30
0.0
 11
77.961528
 21
106.959956
 31
0.0
  0
LINE
  5
2E0
100
AcDbEntity
  8
ALPHA
100
AcDbLine
 10
81.661528
 20
117.309956
 30
0.0
 11
80.661528
 21
117.309956
 31
0.0
  0
LINE
  5
2E1
100
AcDbEntity
  8
ALPHA
100
AcDbLine
 10
81.661528
 20
116.909956
 30
0.0
 11
81.661528
 21
117.309956
 31
0.0
  0
LINE
  5
2E2
100
AcDbEntity
  8
ALPHA
100
AcDbLine
 10
80.661528
 20
119.483461
 30
0.0
 11
80.661528
 21
117.309956
 31
0.0
  0
LINE
  5
2E3
100
AcDbEntity
  8
ALPHA
100
AcDbLine
 10
77.961528
 20
102.659956
 30
0.0
 11
77.961528
 21
102.809956
 31
0.0
  0
LINE
  5
2E4
100
AcDbEntity
  8
ALPHA
100
AcDbLine
 10
80.511528
 20
103.809956
 30
0.0
 11
80.661528
 21
103.809956
 31
0.0
  0
LWPOLYLINE
  5
2E5
100
AcDbEntity
  8
ALPHA
100
AcDbPolyline
 90
        7
 70
     0
 43
0.0
 10
76.761528
 20
92.760186
 10
77.26501
 20
92.803393
 10
77.754263
 20
92.931808
 10
78.216202
 20
93.142267
 10
78.637695
 20
93.429413
 10
79.006504
 20
93.785771
 10
79.311528
 20
94.201738
  0
LWPOLYLINE
  5
2EE
100
AcDbEntity
  8
ALPHA
100
AcDbPolyline
 90
        5
 70
     0
 43
0.0
 10
79.57338
 20
114.577706
 10
79.593786
 20
114.533525
 10
79.618834
 20
114.468141
 10
79.644978
 20
114.387487
 10
79.669035
 20
114.299551
  0
LINE
  5
2F5
100
AcDbEntity
  8
ALPHA
100
AcDbLine
 10
80.661528
 20
104.309956
 30
0.0
 11
80.661528
 21
103.709956
 31
0.0
  0
LINE
  5
2F6
100
AcDbEntity
  8
ALPHA
100
AcDbLine
 10
80.661528
 20
105.909956
 30
0.0
 11
80.661528
 21
105.309956
 31
0.0
  0
LINE
  5
2F7
100
AcDbEntity
  8
ALPHA
100
AcDbLine
 10
73.011528
 20
88.809956
 30
0.0
 11
80.561528
 21
88.809956
 31
0.0
  0
LINE
  5
2F8
100
AcDbEntity
  8
ALPHA
100
AcDbLine
 10
80.261528
 20
89.677183
 30
0.0
 11
80.261528
 21
89.109956
 31
0.0
  0
ARC
  5
2F9
100
AcDbEntity
  8
ALPHA
100
AcDbCircle
 10
80.561528
 20
89.109956
 30
0.0
 40
0.3
100
AcDbArc
 50
180.0
 51
270.0
  0
LINE
  5
2FA
100
AcDbEntity
  8
ALPHA
100
AcDbLine
 10
73.961528
 20
120.809956
 30
0.0
 11
80.561528
 21
120.809956
 31
0.0
  0
LINE
  5
2FB
100
AcDbEntity
  8
ALPHA
100
AcDbLine
 10
80.261528
 20
119.942729
 30
0.0
 11
80.261528
 21
120.509956
 31
0.0
  0
LINE
  5
2FC
100
AcDbEntity
  8
ALPHA
100
AcDbLine
 10
81.661528
 20
120.809956
 30
0.0
 11
80.561528
 21
120.809956
 31
0.0
  0
LINE
  5
2FD
100
AcDbEntity
  8
ALPHA
100
AcDbLine
 10
76.761528
 20
90.309956
 30
0.0
 11
76.761528
 21
92.759956
 31
0.0
  0
LINE
  5
2FE
100
AcDbEntity
  8
ALPHA
100
AcDbLine
 10
76.761528
 20
116.242582
 30
0.0
 11
76.761528
 21
119.309956
 31
0.0
  0
LINE
  5
2FF
100
AcDbEntity
  8
ALPHA
100
AcDbLine
 10
80.811528
 20
115.309956
 30
0.0
 11
80.811528
 21
112.309956
 31
0.0
  0
LINE
  5
300
100
AcDbEntity
  8
ALPHA
100
AcDbLine
 10
79.631734
 20
112.309956
 30
0.0
 11
80.811528
 21
112.309956
 31
0.0
  0
LINE
  5
301
100
AcDbEntity
  8
ALPHA
100
AcDbLine
 10
72.861528
 20
106.959956
 30
0.0
 11
80.661528
 21
106.959956
 31
0.0
  0
LINE
  5
302
100
AcDbEntity
  8
ALPHA
100
AcDbLine
 10
80.661528
 20
105.909956
 30
0.0
 11
80.661528
 21
106.959956
 31
0.0
  0
LINE
  5
303
100
AcDbEntity
  8
ALPHA
100
AcDbLine
 10
80.861528
 20
105.909956
 30
0.0
 11
80.661528
 21
105.909956
 31
0.0
  0
LINE
  5
304
100
AcDbEntity
  8
ALPHA
100
AcDbLine
 10
80.861528
 20
105.909956
 30
0.0
 11
80.861528
 21
105.309956
 31
0.0
  0
LINE
  5
305
100
AcDbEntity
  8
ALPHA
100
AcDbLine
 10
80.861528
 20
105.309956
 30
0.0
 11
80.661528
 21
105.309956
 31
0.0
  0
LINE
  5
306
100
AcDbEntity
  8
ALPHA
100
AcDbLine
 10
80.661528
 20
104.309956
 30
0.0
 11
80.661528
 21
105.309956
 31
0.0
  0
LINE
  5
307
100
AcDbEntity
  8
ALPHA
100
AcDbLine
 10
80.861528
 20
104.309956
 30
0.0
 11
80.661528
 21
104.309956
 31
0.0
  0
LINE
  5
308
100
AcDbEntity
  8
ALPHA
100
AcDbLine
 10
80.861528
 20
104.309956
 30
0.0
 11
80.861528
 21
103.709956
 31
0.0
  0
LINE
  5
309
100
AcDbEntity
  8
ALPHA
100
AcDbLine
 10
80.861528
 20
103.709956
 30
0.0
 11
80.661528
 21
103.709956
 31
0.0
  0
LINE
  5
30A
100
AcDbEntity
  8
ALPHA
100
AcDbLine
 10
80.661528
 20
102.659956
 30
0.0
 11
80.661528
 21
103.709956
 31
0.0
  0
LINE
  5
30B
100
AcDbEntity
  8
ALPHA
100
AcDbLine
 10
72.861528
 20
102.659956
 30
0.0
 11
80.661528
 21
102.659956
 31
0.0
  0
LINE
  5
30C
100
AcDbEntity
  8
ALPHA
100
AcDbLine
 10
79.311528
 20
94.818883
 30
0.0
 11
79.311528
 21
92.759956
 31
0.0
  0
LINE
  5
30D
100
AcDbEntity
  8
ALPHA
100
AcDbLine
 10
76.761528
 20
92.759956
 30
0.0
 11
79.311528
 21
92.759956
 31
0.0
  0
LWPOLYLINE
  5
30E
100
AcDbEntity
  8
ALPHA
100
AcDbPolyline
 90
        3
 70
     0
 43
0.0
 10
79.761513
 20
113.54885
 10
79.743871
 20
113.87898
 10
79.669035
 20
114.299551
  0
LWPOLYLINE
  5
313
100
AcDbEntity
  8
ALPHA
100
AcDbPolyline
 90
        4
 70
     0
 43
0.0
 10
79.761498
 20
96.423951
 10
79.720106
 20
95.91914
 10
79.568353
 20
95.348151
 10
79.311528
 20
94.818883
  0
LWPOLYLINE
  5
319
100
AcDbEntity
  8
ALPHA
100
AcDbPolyline
 90
        9
 70
     0
 43
0.0
 10
79.722407
 20
95.947203
 10
79.703884
 20
96.132414
 10
79.533167
 20
96.686643
 10
79.255937
 20
97.197424
 10
78.882849
 20
97.645127
 10
78.428239
 20
98.012547
 10
77.909579
 20
98.285565
 10
77.346799
 20
98.453689
 10
76.761528
 20
98.510457
  0
LINE
  5
324
100
AcDbEntity
  8
ALPHA
100
AcDbLine
 10
81.661528
 20
88.809956
 30
0.0
 11
80.561528
 21
88.809956
 31
0.0
  0
LINE
  5
325
100
AcDbEntity
  8
ALPHA
100
AcDbLine
 10
81.661528
 20
120.765837
 30
0.0
 11
81.661528
 21
120.809956
 31
0.0
  0
LINE
  5
326
100
AcDbEntity
  8
ALPHA
100
AcDbLine
 10
81.661528
 20
120.765837
 30
0.0
 11
81.661528
 21
117.309956
 31
0.0
  0
LINE
  5
327
100
AcDbEntity
  8
ALPHA
100
AcDbLine
 10
81.661528
 20
90.309956
 30
0.0
 11
81.661528
 21
116.909956
 31
0.0
  0
LINE
  5
328
100
AcDbEntity
  8
ALPHA
100
AcDbLine
 10
81.661528
 20
88.809956
 30
0.0
 11
81.661528
 21
90.309956
 31
0.0
  0
LWPOLYLINE
  5
329
100
AcDbEntity
  8
ALPHA
100
AcDbPolyline
 90
        5
 70
     0
 43
0.0
 10
76.930385
 20
110.722872
 10
77.144975
 20
110.730999
 10
77.489509
 20
110.778587
 10
77.797496
 20
110.861091
 10
78.069198
 20
110.970777
  0
LINE
  5
330
100
AcDbEntity
  8
ALPHA
100
AcDbLine
 10
80.561528
 20
88.809956
 30
0.0
 11
73.011528
 21
88.809956
 31
0.0
  0
LINE
  5
331
100
AcDbEntity
  8
ALPHA
100
AcDbLine
 10
73.961528
 20
120.809956
 30
0.0
 11
80.561528
 21
120.809956
 31
0.0
  0
LINE
  5
332
100
AcDbEntity
  8
ALPHA
100
AcDbLine
 10
73.961528
 20
120.809956
 30
0.0
 11
73.961528
 21
120.457862
 31
0.0
  0
LINE
  5
333
100
AcDbEntity
  8
ALPHA
100
AcDbLine
 10
80.261528
 20
119.942729
 30
0.0
 11
80.261528
 21
120.509956
 31
0.0
  0
ARC
  5
334
100
AcDbEntity
  8
ALPHA
100
AcDbCircle
 10
80.561528
 20
120.509956
 30
0.0
 40
0.3
100
AcDbArc
 50
90.0
 51
180.0
  0
LINE
  5
335
100
AcDbEntity
  8
ALPHA
100
AcDbLine
 10
56.761528
 20
110.727429
 30
0.0
 11
56.761528
 21
110.150022
 31
0.0
  0
LINE
  5
336
100
AcDbEntity
  8
ALPHA
100
AcDbLine
 10
56.761528
 20
111.109455
 30
0.0
 11
56.761528
 21
110.883712
 31
0.0
  0
LINE
  5
337
100
AcDbEntity
  8
ALPHA
100
AcDbLine
 10
56.761528
 20
98.510457
 30
0.0
 11
56.761528
 21
99.46989
 31
0.0
  0
LINE
  5
338
100
AcDbEntity
  8
ALPHA
100
AcDbLine
 10
60.811528
 20
114.577706
 30
0.0
 11
59.57338
 21
114.577706
 31
0.0
  0
LWPOLYLINE
  5
339
100
AcDbEntity
  8
ALPHA
100
AcDbPolyline
 90
       10
 70
     0
 43
0.0
 10
56.761528
 20
99.46989
 10
57.331274
 20
99.414449
 10
57.881024
 20
99.249842
 10
58.391135
 20
98.981273
 10
58.842828
 20
98.617541
 10
59.21885
 20
98.17108
 10
59.504265
 20
97.657843
 10
59.687332
 20
97.096917
 10
59.760327
 20
96.509811
 10
59.761498
 20
96.423951
  0
LINE
  5
345
100
AcDbEntity
  8
ALPHA
100
AcDbLine
 10
60.811528
 20
114.299551
 30
0.0
 11
59.669035
 21
114.299551
 31
0.0
  0
LWPOLYLINE
  5
346
100
AcDbEntity
  8
ALPHA
100
AcDbPolyline
 90
        8
 70
     0
 43
0.0
 10
59.631734
 20
112.309956
 10
59.423887
 20
111.792276
 10
59.127275
 20
111.323055
 10
58.752719
 20
110.91777
 10
58.313422
 20
110.589279
 10
57.824309
 20
110.347583
 10
57.301473
 20
110.199768
 10
56.761528
 20
110.150022
  0
LINE
  5
350
100
AcDbEntity
  8
ALPHA
100
AcDbLine
 10
60.811528
 20
112.609956
 30
0.0
 11
59.61545
 21
112.609956
 31
0.0
  0
LINE
  5
351
100
AcDbEntity
  8
ALPHA
100
AcDbLine
 10
61.661528
 20
120.765837
 30
0.0
 11
60.661528
 21
120.765837
 31
0.0
  0
LWPOLYLINE
  5
352
100
AcDbEntity
  8
ALPHA
100
AcDbPolyline
 90
        6
 70
     0
 43
0.0
 10
59.61545
 20
112.609956
 10
59.584004
 20
112.513804
 10
59.555516
 20
112.428839
 10
59.534531
 20
112.363911
 10
59.523906
 20
112.323642
 10
59.524785
 20
112.309956
  0
LINE
  5
35A
100
AcDbEntity
  8
ALPHA
100
AcDbLine
 10
56.930385
 20
110.727429
 30
0.0
 11
56.761528
 21
110.727429
 31
0.0
  0
LINE
  5
35B
100
AcDbEntity
  8
ALPHA
100
AcDbLine
 10
57.050703
 20
110.727429
 30
0.0
 11
56.930385
 21
110.727429
 31
0.0
  0
LINE
  5
35C
100
AcDbEntity
  8
ALPHA
100
AcDbLine
 10
56.761528
 20
110.727429
 30
0.0
 11
56.930385
 21
110.722872
 31
0.0
  0
LINE
  5
35D
100
AcDbEntity
  8
ALPHA
100
AcDbLine
 10
58.503403
 20
111.231249
 30
0.0
 11
58.069198
 21
111.231249
 31
0.0
  0
LINE
  5
35E
100
AcDbEntity
  8
ALPHA
100
AcDbLine
 10
57.853532
 20
110.883712
 30
0.0
 11
56.761528
 21
110.883712
 31
0.0
  0
LWPOLYLINE
  5
35F
100
AcDbEntity
  8
ALPHA
100
AcDbPolyline
 90
        5
 70
     0
 43
0.0
 10
58.069198
 20
111.231249
 10
57.797496
 20
111.113539
 10
57.489509
 20
111.009162
 10
57.144975
 20
110.928607
 10
56.761528
 20
110.883712
  0
LINE
  5
366
100
AcDbEntity
  8
ALPHA
100
AcDbLine
 10
52.861528
 20
99.46989
 30
0.0
 11
56.761528
 21
99.46989
 31
0.0
  0
LINE
  5
367
100
AcDbEntity
  8
ALPHA
100
AcDbLine
 10
53.261528
 20
89.162051
 30
0.0
 11
60.261528
 21
89.162051
 31
0.0
  0
LINE
  5
368
100
AcDbEntity
  8
ALPHA
100
AcDbLine
 10
60.561528
 20
89.677183
 30
0.0
 11
60.561528
 21
88.809956
 31
0.0
  0
LINE
  5
369
100
AcDbEntity
  8
ALPHA
100
AcDbLine
 10
53.961528
 20
120.457862
 30
0.0
 11
60.261528
 21
120.457862
 31
0.0
  0
LINE
  5
36A
100
AcDbEntity
  8
ALPHA
100
AcDbLine
 10
60.561528
 20
119.942729
 30
0.0
 11
60.561528
 21
120.809956
 31
0.0
  0
LINE
  5
36B
100
AcDbEntity
  8
ALPHA
100
AcDbLine
 10
59.734092
 20
113.551063
 30
0.0
 11
59.740607
 21
113.631771
 31
0.0
  0
LWPOLYLINE
  5
36C
100
AcDbEntity
  8
ALPHA
100
AcDbPolyline
 90
        7
 70
     0
 43
0.0
 10
58.069198
 20
111.231249
 10
58.560797
 20
111.526151
 10
58.986158
 20
111.908092
 10
59.329619
 20
112.363012
 10
59.578532
 20
112.874164
 10
59.723732
 20
113.422731
 10
59.734092
 20
113.551063
  0
LWPOLYLINE
  5
375
100
AcDbEntity
  8
ALPHA
100
AcDbPolyline
 90
        4
 70
     0
 43
0.0
 10
59.61545
 20
112.609956
 10
59.716798
 20
113.024869
 10
59.759979
 20
113.451046
 10
59.761513
 20
113.54885
  0
LINE
  5
37B
100
AcDbEntity
  8
ALPHA
100
AcDbLine
 10
61.661528
 20
90.309956
 30
0.0
 11
56.761528
 21
90.309956
 31
0.0
  0
LINE
  5
37C
100
AcDbEntity
  8
ALPHA
100
AcDbLine
 10
60.261528
 20
119.309956
 30
0.0
 11
56.761528
 21
119.309956
 31
0.0
  0
LINE
  5
37D
100
AcDbEntity
  8
ALPHA
100
AcDbLine
 10
58.921894
 20
115.309956
 30
0.0
 11
60.811528
 21
115.309956
 31
0.0
  0
LINE
  5
37E
100
AcDbEntity
  8
ALPHA
100
AcDbLine
 10
61.661528
 20
116.909956
 30
0.0
 11
60.261528
 21
116.909956
 31
0.0
  0
LINE
  5
37F
100
AcDbEntity
  8
ALPHA
100
AcDbLine
 10
60.261528
 20
119.309956
 30
0.0
 11
60.261528
 21
116.909956
 31
0.0
  0
LINE
  5
380
100
AcDbEntity
  8
ALPHA
100
AcDbLine
 10
60.261528
 20
119.309956
 30
0.0
 11
60.661528
 21
119.483461
 31
0.0
  0
LINE
  5
381
100
AcDbEntity
  8
ALPHA
100
AcDbLine
 10
52.861528
 20
110.150022
 30
0.0
 11
56.761528
 21
110.150022
 31
0.0
  0
LINE
  5
382
100
AcDbEntity
  8
ALPHA
100
AcDbLine
 10
60.261528
 20
116.909956
 30
0.0
 11
60.661528
 21
117.309956
 31
0.0
  0
LINE
  5
383
100
AcDbEntity
  8
ALPHA
100
AcDbLine
 10
54.861528
 20
98.510457
 30
0.0
 11
56.761528
 21
98.510457
 31
0.0
  0
LINE
  5
384
100
AcDbEntity
  8
ALPHA
100
AcDbLine
 10
54.861528
 20
111.109455
 30
0.0
 11
56.761528
 21
111.109455
 31
0.0
  0
LWPOLYLINE
  5
385
100
AcDbEntity
  8
ALPHA
100
AcDbPolyline
 90
        6
 70
     0
 43
0.0
 10
56.761528
 20
116.242582
 10
57.240734
 20
116.203467
 10
57.707542
 20
116.087159
 10
58.150797
 20
115.896255
 10
58.559135
 20
115.635147
 10
58.921894
 20
115.309956
  0
LINE
  5
38D
100
AcDbEntity
  8
ALPHA
100
AcDbLine
 10
59.71053
 20
113.553948
 30
0.0
 11
59.718574
 21
113.634378
 31
0.0
  0
LWPOLYLINE
  5
38E
100
AcDbEntity
  8
ALPHA
100
AcDbPolyline
 90
        9
 70
     0
 43
0.0
 10
56.761528
 20
111.109455
 10
57.346799
 20
111.166223
 10
57.909579
 20
111.334347
 10
58.428239
 20
111.607365
 10
58.882849
 20
111.974786
 10
59.255937
 20
112.422489
 10
59.533167
 20
112.933269
 10
59.703884
 20
113.487499
 10
59.71053
 20
113.553948
  0
LINE
  5
399
100
AcDbEntity
  8
ALPHA
100
AcDbLine
 10
60.196608
 20
89.677183
 30
0.0
 11
60.261528
 21
89.637215
 31
0.0
  0
LINE
  5
39A
100
AcDbEntity
  8
ALPHA
100
AcDbLine
 10
56.761528
 20
89.677183
 30
0.0
 11
60.561528
 21
89.677183
 31
0.0
  0
LINE
  5
39B
100
AcDbEntity
  8
ALPHA
100
AcDbLine
 10
56.761528
 20
119.942729
 30
0.0
 11
60.561528
 21
119.942729
 31
0.0
  0
LINE
  5
39C
100
AcDbEntity
  8
ALPHA
100
AcDbLine
 10
60.261528
 20
119.982698
 30
0.0
 11
60.196608
 21
119.942729
 31
0.0
  0
LINE
  5
39D
100
AcDbEntity
  8
ALPHA
100
AcDbLine
 10
53.961528
 20
120.051458
 30
0.0
 11
53.961528
 21
120.457862
 31
0.0
  0
LINE
  5
39E
100
AcDbEntity
  8
ALPHA
100
AcDbLine
 10
53.261528
 20
120.051458
 30
0.0
 11
53.961528
 21
120.051458
 31
0.0
  0
LINE
  5
39F
100
AcDbEntity
  8
ALPHA
100
AcDbLine
 10
56.761528
 20
119.309956
 30
0.0
 11
56.761528
 21
119.942729
 31
0.0
  0
LINE
  5
3A0
100
AcDbEntity
  8
ALPHA
100
AcDbLine
 10
56.761528
 20
89.677183
 30
0.0
 11
56.761528
 21
90.309956
 31
0.0
  0
LINE
  5
3A1
100
AcDbEntity
  8
ALPHA
100
AcDbLine
 10
52.861528
 20
99.46989
 30
0.0
 11
52.861528
 21
102.659956
 31
0.0
  0
LINE
  5
3A2
100
AcDbEntity
  8
ALPHA
100
AcDbLine
 10
52.861528
 20
106.959956
 30
0.0
 11
52.861528
 21
110.150022
 31
0.0
  0
LINE
  5
3A3
100
AcDbEntity
  8
ALPHA
100
AcDbLine
 10
60.661528
 20
119.483461
 30
0.0
 11
60.661528
 21
120.765837
 31
0.0
  0
LWPOLYLINE
  5
3A4
100
AcDbEntity
  8
ALPHA
100
AcDbPolyline
 90
        7
 70
     0
 43
0.0
 10
58.069198
 20
110.970777
 10
58.560797
 20
111.265679
 10
58.986158
 20
111.64762
 10
59.329619
 20
112.102539
 10
59.578532
 20
112.613691
 10
59.723732
 20
113.162258
 10
59.754982
 20
113.549377
  0
LWPOLYLINE
  5
3AD
100
AcDbEntity
  8
ALPHA
100
AcDbPolyline
 90
        4
 70
     0
 43
0.0
 10
59.57338
 20
114.577706
 10
59.397925
 20
114.850488
 10
59.178823
 20
115.094464
 10
58.921894
 20
115.309956
  0
LINE
  5
3B3
100
AcDbEntity
  8
ALPHA
100
AcDbLine
 10
59.524785
 20
112.309956
 30
0.0
 11
59.631734
 21
112.309956
 31
0.0
  0
LINE
  5
3B4
100
AcDbEntity
  8
ALPHA
100
AcDbLine
 10
60.511528
 20
105.809956
 30
0.0
 11
60.661528
 21
105.809956
 31
0.0
  0
LINE
  5
3B5
100
AcDbEntity
  8
ALPHA
100
AcDbLine
 10
57.961528
 20
106.809956
 30
0.0
 11
57.961528
 21
106.959956
 31
0.0
  0
LINE
  5
3B6
100
AcDbEntity
  8
ALPHA
100
AcDbLine
 10
61.661528
 20
117.309956
 30
0.0
 11
60.661528
 21
117.309956
 31
0.0
  0
LINE
  5
3B7
100
AcDbEntity
  8
ALPHA
100
AcDbLine
 10
61.661528
 20
116.909956
 30
0.0
 11
61.661528
 21
117.309956
 31
0.0
  0
LINE
  5
3B8
100
AcDbEntity
  8
ALPHA
100
AcDbLine
 10
60.661528
 20
119.483461
 30
0.0
 11
60.661528
 21
117.309956
 31
0.0
  0
LINE
  5
3B9
100
AcDbEntity
  8
ALPHA
100
AcDbLine
 10
57.961528
 20
102.659956
 30
0.0
 11
57.961528
 21
102.809956
 31
0.0
  0
LINE
  5
3BA
100
AcDbEntity
  8
ALPHA
100
AcDbLine
 10
60.511528
 20
103.809956
 30
0.0
 11
60.661528
 21
103.809956
 31
0.0
  0
LWPOLYLINE
  5
3BB
100
AcDbEntity
  8
ALPHA
100
AcDbPolyline
 90
        7
 70
     0
 43
0.0
 10
56.761528
 20
92.760186
 10
57.26501
 20
92.803393
 10
57.754263
 20
92.931808
 10
58.216202
 20
93.142267
 10
58.637695
 20
93.429413
 10
59.006504
 20
93.785771
 10
59.311528
 20
94.201738
  0
LWPOLYLINE
  5
3C4
100
AcDbEntity
  8
ALPHA
100
AcDbPolyline
 90
        5
 70
     0
 43
0.0
 10
59.57338
 20
114.577706
 10
59.593786
 20
114.533525
 10
59.618834
 20
114.468141
 10
59.644978
 20
114.387487
 10
59.669035
 20
114.299551
  0
LINE
  5
3CB
100
AcDbEntity
  8
ALPHA
100
AcDbLine
 10
60.661528
 20
104.309956
 30
0.0
 11
60.661528
 21
103.709956
 31
0.0
  0
LINE
  5
3CC
100
AcDbEntity
  8
ALPHA
100
AcDbLine
 10
60.661528
 20
105.909956
 30
0.0
 11
60.661528
 21
105.309956
 31
0.0
  0
LINE
  5
3CD
100
AcDbEntity
  8
ALPHA
100
AcDbLine
 10
53.011528
 20
88.809956
 30
0.0
 11
60.561528
 21
88.809956
 31
0.0
  0
LINE
  5
3CE
100
AcDbEntity
  8
ALPHA
100
AcDbLine
 10
60.261528
 20
89.677183
 30
0.0
 11
60.261528
 21
89.109956
 31
0.0
  0
ARC
  5
3CF
100
AcDbEntity
  8
ALPHA
100
AcDbCircle
 10
60.561528
 20
89.109956
 30
0.0
 40
0.3
100
AcDbArc
 50
180.0
 51
270.0
  0
LINE
  5
3D0
100
AcDbEntity
  8
ALPHA
100
AcDbLine
 10
53.961528
 20
120.809956
 30
0.0
 11
60.561528
 21
120.809956
 31
0.0
  0
LINE
  5
3D1
100
AcDbEntity
  8
ALPHA
100
AcDbLine
 10
60.261528
 20
119.942729
 30
0.0
 11
60.261528
 21
120.509956
 31
0.0
  0
LINE
  5
3D2
100
AcDbEntity
  8
ALPHA
100
AcDbLine
 10
61.661528
 20
120.809956
 30
0.0
 11
60.561528
 21
120.809956
 31
0.0
  0
LINE
  5
3D3
100
AcDbEntity
  8
ALPHA
100
AcDbLine
 10
56.761528
 20
90.309956
 30
0.0
 11
56.761528
 21
92.759956
 31
0.0
  0
LINE
  5
3D4
100
AcDbEntity
  8
ALPHA
100
AcDbLine
 10
56.761528
 20
116.242582
 30
0.0
 11
56.761528
 21
119.309956
 31
0.0
  0
LINE
  5
3D5
100
AcDbEntity
  8
ALPHA
100
AcDbLine
 10
60.811528
 20
115.309956
 30
0.0
 11
60.811528
 21
112.309956
 31
0.0
  0
LINE
  5
3D6
100
AcDbEntity
  8
ALPHA
100
AcDbLine
 10
59.631734
 20
112.309956
 30
0.0
 11
60.811528
 21
112.309956
 31
0.0
  0
LINE
  5
3D7
100
AcDbEntity
  8
ALPHA
100
AcDbLine
 10
52.861528
 20
106.959956
 30
0.0
 11
60.661528
 21
106.959956
 31
0.0
  0
LINE
  5
3D8
100
AcDbEntity
  8
ALPHA
100
AcDbLine
 10
60.661528
 20
105.909956
 30
0.0
 11
60.661528
 21
106.959956
 31
0.0
  0
LINE
  5
3D9
100
AcDbEntity
  8
ALPHA
100
AcDbLine
 10
60.861528
 20
105.909956
 30
0.0
 11
60.661528
 21
105.909956
 31
0.0
  0
LINE
  5
3DA
100
AcDbEntity
  8
ALPHA
100
AcDbLine
 10
60.861528
 20
105.909956
 30
0.0
 11
60.861528
 21
105.309956
 31
0.0
  0
LINE
  5
3DB
100
AcDbEntity
  8
ALPHA
100
AcDbLine
 10
60.861528
 20
105.309956
 30
0.0
 11
60.661528
 21
105.309956
 31
0.0
  0
LINE
  5
3DC
100
AcDbEntity
  8
ALPHA
100
AcDbLine
 10
60.661528
 20
104.309956
 30
0.0
 11
60.661528
 21
105.309956
 31
0.0
  0
LINE
  5
3DD
100
AcDbEntity
  8
ALPHA
100
AcDbLine
 10
60.861528
 20
104.309956
 30
0.0
 11
60.661528
 21
104.309956
 31
0.0
  0
LINE
  5
3DE
100
AcDbEntity
  8
ALPHA
100
AcDbLine
 10
60.861528
 20
104.309956
 30
0.0
 11
60.861528
 21
103.709956
 31
0.0
  0
LINE
  5
3DF
100
AcDbEntity
  8
ALPHA
100
AcDbLine
 10
60.861528
 20
103.709956
 30
0.0
 11
60.661528
 21
103.709956
 31
0.0
  0
LINE
  5
3E0
100
AcDbEntity
  8
ALPHA
100
AcDbLine
 10
60.661528
 20
102.659956
 30
0.0
 11
60.661528
 21
103.709956
 31
0.0
  0
LINE
  5
3E1
100
AcDbEntity
  8
ALPHA
100
AcDbLine
 10
52.861528
 20
102.659956
 30
0.0
 11
60.661528
 21
102.659956
 31
0.0
  0
LINE
  5
3E2
100
AcDbEntity
  8
ALPHA
100
AcDbLine
 10
59.311528
 20
94.818883
 30
0.0
 11
59.311528
 21
92.759956
 31
0.0
  0
LINE
  5
3E3
100
AcDbEntity
  8
ALPHA
100
AcDbLine
 10
56.761528
 20
92.759956
 30
0.0
 11
59.311528
 21
92.759956
 31
0.0
  0
LWPOLYLINE
  5
3E4
100
AcDbEntity
  8
ALPHA
100
AcDbPolyline
 90
        3
 70
     0
 43
0.0
 10
59.761513
 20
113.54885
 10
59.743871
 20
113.87898
 10
59.669035
 20
114.299551
  0
LWPOLYLINE
  5
3E9
100
AcDbEntity
  8
ALPHA
100
AcDbPolyline
 90
        4
 70
     0
 43
0.0
 10
59.761498
 20
96.423951
 10
59.720106
 20
95.91914
 10
59.568353
 20
95.348151
 10
59.311528
 20
94.818883
  0
LWPOLYLINE
  5
3EF
100
AcDbEntity
  8
ALPHA
100
AcDbPolyline
 90
        9
 70
     0
 43
0.0
 10
59.722407
 20
95.947203
 10
59.703884
 20
96.132414
 10
59.533167
 20
96.686643
 10
59.255937
 20
97.197424
 10
58.882849
 20
97.645127
 10
58.428239
 20
98.012547
 10
57.909579
 20
98.285565
 10
57.346799
 20
98.453689
 10
56.761528
 20
98.510457
  0
LINE
  5
3FA
100
AcDbEntity
  8
ALPHA
100
AcDbLine
 10
61.661528
 20
88.809956
 30
0.0
 11
60.561528
 21
88.809956
 31
0.0
  0
LINE
  5
3FB
100
AcDbEntity
  8
ALPHA
100
AcDbLine
 10
61.661528
 20
120.765837
 30
0.0
 11
61.661528
 21
120.809956
 31
0.0
  0
LINE
  5
3FC
100
AcDbEntity
  8
ALPHA
100
AcDbLine
 10
61.661528
 20
120.765837
 30
0.0
 11
61.661528
 21
117.309956
 31
0.0
  0
LINE
  5
3FD
100
AcDbEntity
  8
ALPHA
100
AcDbLine
 10
61.661528
 20
90.309956
 30
0.0
 11
61.661528
 21
116.909956
 31
0.0
  0
LINE
  5
3FE
100
AcDbEntity
  8
ALPHA
100
AcDbLine
 10
61.661528
 20
88.809956
 30
0.0
 11
61.661528
 21
90.309956
 31
0.0
  0
LWPOLYLINE
  5
3FF
100
AcDbEntity
  8
ALPHA
100
AcDbPolyline
 90
        5
 70
     0
 43
0.0
 10
56.930385
 20
110.722872
 10
57.144975
 20
110.730999
 10
57.489509
 20
110.778587
 10
57.797496
 20
110.861091
 10
58.069198
 20
110.970777
  0
LINE
  5
406
100
AcDbEntity
  8
ALPHA
100
AcDbLine
 10
60.561528
 20
88.809956
 30
0.0
 11
53.011528
 21
88.809956
 31
0.0
  0
LINE
  5
407
100
AcDbEntity
  8
ALPHA
100
AcDbLine
 10
53.961528
 20
120.809956
 30
0.0
 11
60.561528
 21
120.809956
 31
0.0
  0
LINE
  5
408
100
AcDbEntity
  8
ALPHA
100
AcDbLine
 10
53.961528
 20
120.809956
 30
0.0
 11
53.961528
 21
120.457862
 31
0.0
  0
LINE
  5
409
100
AcDbEntity
  8
ALPHA
100
AcDbLine
 10
60.261528
 20
119.942729
 30
0.0
 11
60.261528
 21
120.509956
 31
0.0
  0
ARC
  5
40A
100
AcDbEntity
  8
ALPHA
100
AcDbCircle
 10
60.561528
 20
120.509956
 30
0.0
 40
0.3
100
AcDbArc
 50
90.0
 51
180.0
  0
LWPOLYLINE
  5
40B
100
AcDbEntity
  8
ALPHA
100
AcDbPolyline
 90
       11
 70
     0
 43
0.0
 10
66.290088
 20
124.542986
 10
66.297779
 20
124.507093
 10
66.3201
 20
124.402928
 10
66.354866
 20
124.240687
 10
66.398674
 20
124.036252
 10
66.447235
 20
123.809634
 10
66.495796
 20
123.583016
 10
66.539603
 20
123.37858
 10
66.574369
 20
123.21634
 10
66.59669
 20
123.112175
 10
66.604382
 20
123.076282
  0
LWPOLYLINE
  5
418
100
AcDbEntity
  8
ALPHA
100
AcDbPolyline
 90
       11
 70
     0
 43
0.0
 10
67.232969
 20
124.542986
 10
67.225278
 20
124.507093
 10
67.202957
 20
124.402928
 10
67.168191
 20
124.240687
 10
67.124383
 20
124.036252
 10
67.075822
 20
123.809634
 10
67.027261
 20
123.583016
 10
66.983454
 20
123.37858
 10
66.948688
 20
123.21634
 10
66.926367
 20
123.112175
 10
66.918675
 20
123.076282
  0
LINE
  5
425
100
AcDbEntity
  8
ALPHA
100
AcDbLine
 10
63.955542
 20
88.270653
 30
0.0
 11
63.960881
 21
88.279901
 31
0.0
  0
LINE
  5
426
100
AcDbEntity
  8
ALPHA
100
AcDbLine
 10
63.401568
 20
87.311075
 30
0.0
 11
63.955542
 21
88.270653
 31
0.0
  0
LINE
  5
427
100
AcDbEntity
  8
ALPHA
100
AcDbLine
 10
63.401568
 20
87.311075
 30
0.0
 11
62.741207
 21
87.692307
 31
0.0
  0
LINE
  5
428
100
AcDbEntity
  8
ALPHA
100
AcDbLine
 10
63.861528
 20
124.02258
 30
0.0
 11
66.290088
 21
124.542986
 31
0.0
  0
LINE
  5
429
100
AcDbEntity
  8
ALPHA
100
AcDbLine
 10
63.401568
 20
87.311075
 30
0.0
 11
62.741207
 21
87.692307
 31
0.0
  0
LINE
  5
42A
100
AcDbEntity
  8
ALPHA
100
AcDbLine
 10
66.546262
 20
123.063828
 30
0.0
 11
66.604382
 21
123.076282
 31
0.0
  0
LINE
  5
42B
100
AcDbEntity
  8
ALPHA
100
AcDbLine
 10
63.861528
 20
124.02258
 30
0.0
 11
66.290088
 21
124.542986
 31
0.0
  0
LINE
  5
42C
100
AcDbEntity
  8
ALPHA
100
AcDbLine
 10
66.546262
 20
123.063828
 30
0.0
 11
66.604382
 21
123.076282
 31
0.0
  0
ARC
  5
42D
100
AcDbEntity
  8
ALPHA
100
AcDbCircle
 10
66.761528
 20
122.34293
 30
0.0
 40
2.25
100
AcDbArc
 50
77.905243
 51
102.094757
  0
ARC
  5
42E
100
AcDbEntity
  8
ALPHA
100
AcDbCircle
 10
66.761528
 20
122.34293
 30
0.0
 40
0.75
100
AcDbArc
 50
77.905243
 51
102.094757
  0
ARC
  5
42F
100
AcDbEntity
  8
ALPHA
100
AcDbCircle
 10
66.761528
 20
122.34293
 30
0.0
 40
2.25
100
AcDbArc
 50
77.905243
 51
102.094757
  0
ARC
  5
430
100
AcDbEntity
  8
ALPHA
100
AcDbCircle
 10
66.761528
 20
122.34293
 30
0.0
 40
0.75
100
AcDbArc
 50
77.905243
 51
102.094757
  0
LINE
  5
431
100
AcDbEntity
  8
ALPHA
100
AcDbLine
 10
67.232969
 20
124.542986
 30
0.0
 11
69.661528
 21
124.02258
 31
0.0
  0
LINE
  5
432
100
AcDbEntity
  8
ALPHA
100
AcDbLine
 10
66.918675
 20
123.076282
 30
0.0
 11
66.976795
 21
123.063828
 31
0.0
  0
LINE
  5
433
100
AcDbEntity
  8
ALPHA
100
AcDbLine
 10
67.232969
 20
124.542986
 30
0.0
 11
69.661528
 21
124.02258
 31
0.0
  0
LINE
  5
434
100
AcDbEntity
  8
ALPHA
100
AcDbLine
 10
66.918675
 20
123.076282
 30
0.0
 11
66.976795
 21
123.063828
 31
0.0
  0
LINE
  5
435
100
AcDbEntity
  8
ALPHA
100
AcDbLine
 10
70.781895
 20
87.692334
 30
0.0
 11
70.121489
 21
87.311075
 31
0.0
  0
LINE
  5
436
100
AcDbEntity
  8
ALPHA
100
AcDbLine
 10
70.781895
 20
87.692334
 30
0.0
 11
70.121489
 21
87.311075
 31
0.0
  0
LINE
  5
437
100
AcDbEntity
  8
ALPHA
100
AcDbLine
 10
69.567515
 20
88.270653
 30
0.0
 11
69.562231
 21
88.279805
 31
0.0
  0
LINE
  5
438
100
AcDbEntity
  8
ALPHA
100
AcDbLine
 10
70.121489
 20
87.311075
 30
0.0
 11
69.567515
 21
88.270653
 31
0.0
  0
LWPOLYLINE
  5
439
100
AcDbEntity
  8
ALPHA
100
AcDbPolyline
 90
        3
 70
     0
 43
0.0
 10
73.761533
 20
113.43771
 10
73.818615
 20
112.846426
 10
73.974743
 20
112.309956
  0
LINE
  5
43E
100
AcDbEntity
  8
ALPHA
100
AcDbLine
 10
73.261528
 20
120.209956
 30
0.0
 11
73.861528
 21
120.209956
 31
0.0
  0
LINE
  5
43F
100
AcDbEntity
  8
ALPHA
100
AcDbLine
 10
71.861528
 20
120.765837
 30
0.0
 11
72.861528
 21
120.765837
 31
0.0
  0
LINE
  5
440
100
AcDbEntity
  8
ALPHA
100
AcDbLine
 10
72.711528
 20
114.501904
 30
0.0
 11
73.950484
 21
114.501904
 31
0.0
  0
LINE
  5
441
100
AcDbEntity
  8
ALPHA
100
AcDbLine
 10
71.861528
 20
116.909956
 30
0.0
 11
73.261528
 21
116.909956
 31
0.0
  0
LINE
  5
442
100
AcDbEntity
  8
ALPHA
100
AcDbLine
 10
73.261528
 20
119.309956
 30
0.0
 11
73.261528
 21
116.909956
 31
0.0
  0
LINE
  5
443
100
AcDbEntity
  8
ALPHA
100
AcDbLine
 10
73.261528
 20
116.909956
 30
0.0
 11
72.861528
 21
117.309956
 31
0.0
  0
LINE
  5
444
100
AcDbEntity
  8
ALPHA
100
AcDbLine
 10
73.011528
 20
120.809956
 30
0.0
 11
73.011528
 21
119.942729
 31
0.0
  0
LINE
  5
445
100
AcDbEntity
  8
ALPHA
100
AcDbLine
 10
73.261528
 20
119.309956
 30
0.0
 11
72.861528
 21
119.483461
 31
0.0
  0
LWPOLYLINE
  5
446
100
AcDbEntity
  8
ALPHA
100
AcDbPolyline
 90
        6
 70
     0
 43
0.0
 10
74.861528
 20
98.892149
 10
74.478447
 20
98.510879
 10
74.167646
 20
98.065188
 10
73.939762
 20
97.569054
 10
73.802895
 20
97.038832
 10
73.761534
 20
96.534522
  0
LWPOLYLINE
  5
44E
100
AcDbEntity
  8
ALPHA
100
AcDbPolyline
 90
        5
 70
     0
 43
0.0
 10
73.790998
 20
113.442806
 10
73.871024
 20
112.980041
 10
74.094547
 20
112.418062
 10
74.429373
 20
111.912543
 10
74.861528
 20
111.484583
  0
LINE
  5
455
100
AcDbEntity
  8
ALPHA
100
AcDbLine
 10
73.778837
 20
113.513128
 30
0.0
 11
73.790998
 21
113.442806
 31
0.0
  0
LINE
  5
456
100
AcDbEntity
  8
ALPHA
100
AcDbLine
 10
73.771557
 20
113.555221
 30
0.0
 11
73.778837
 21
113.513128
 31
0.0
  0
LWPOLYLINE
  5
457
100
AcDbEntity
  8
ALPHA
100
AcDbPolyline
 90
        5
 70
     0
 43
0.0
 10
74.861528
 20
110.727764
 10
74.522729
 20
111.057468
 10
74.238839
 20
111.436582
 10
74.015959
 20
111.857495
 10
73.860305
 20
112.309956
  0
LINE
  5
45E
100
AcDbEntity
  8
ALPHA
100
AcDbLine
 10
74.712193
 20
115.309956
 30
0.0
 11
72.711528
 21
115.309956
 31
0.0
  0
LINE
  5
45F
100
AcDbEntity
  8
ALPHA
100
AcDbLine
 10
76.761528
 20
119.309956
 30
0.0
 11
73.261528
 21
119.309956
 31
0.0
  0
LINE
  5
460
100
AcDbEntity
  8
ALPHA
100
AcDbLine
 10
76.761528
 20
90.309956
 30
0.0
 11
71.861528
 21
90.309956
 31
0.0
  0
LINE
  5
461
100
AcDbEntity
  8
ALPHA
100
AcDbLine
 10
73.661528
 20
102.809956
 30
0.0
 11
73.661528
 21
102.659956
 31
0.0
  0
LINE
  5
462
100
AcDbEntity
  8
ALPHA
100
AcDbLine
 10
73.661528
 20
106.959956
 30
0.0
 11
73.661528
 21
106.809956
 31
0.0
  0
LINE
  5
463
100
AcDbEntity
  8
ALPHA
100
AcDbLine
 10
72.861528
 20
103.609956
 30
0.0
 11
73.011528
 21
103.523354
 31
0.0
  0
LINE
  5
464
100
AcDbEntity
  8
ALPHA
100
AcDbLine
 10
73.011528
 20
106.096559
 30
0.0
 11
72.861528
 21
106.009956
 31
0.0
  0
LINE
  5
465
100
AcDbEntity
  8
ALPHA
100
AcDbLine
 10
76.761528
 20
116.242582
 30
0.0
 11
76.761528
 21
116.131496
 31
0.0
  0
LINE
  5
466
100
AcDbEntity
  8
ALPHA
100
AcDbLine
 10
76.761528
 20
119.309956
 30
0.0
 11
76.761528
 21
116.242582
 31
0.0
  0
LINE
  5
467
100
AcDbEntity
  8
ALPHA
100
AcDbLine
 10
76.761528
 20
119.942729
 30
0.0
 11
76.761528
 21
119.309956
 31
0.0
  0
LINE
  5
468
100
AcDbEntity
  8
ALPHA
100
AcDbLine
 10
73.011528
 20
120.809956
 30
0.0
 11
73.861528
 21
120.809956
 31
0.0
  0
LINE
  5
469
100
AcDbEntity
  8
ALPHA
100
AcDbLine
 10
73.808621
 20
113.515304
 30
0.0
 11
73.78586
 21
113.722891
 31
0.0
  0
LINE
  5
46A
100
AcDbEntity
  8
ALPHA
100
AcDbLine
 10
73.816469
 20
113.443734
 30
0.0
 11
73.808621
 21
113.515304
 31
0.0
  0
LWPOLYLINE
  5
46B
100
AcDbEntity
  8
ALPHA
100
AcDbPolyline
 90
        5
 70
     0
 43
0.0
 10
74.861528
 20
111.658231
 10
74.394672
 20
112.129239
 10
74.04529
 20
112.69035
 10
73.830725
 20
113.313713
 10
73.816469
 20
113.443734
  0
LINE
  5
472
100
AcDbEntity
  8
ALPHA
100
AcDbLine
 10
73.861528
 20
120.809956
 30
0.0
 11
73.861528
 21
120.209956
 31
0.0
  0
LINE
  5
473
100
AcDbEntity
  8
ALPHA
100
AcDbLine
 10
73.861528
 20
120.209956
 30
0.0
 11
73.861528
 21
120.051458
 31
0.0
  0
LINE
  5
474
100
AcDbEntity
  8
ALPHA
100
AcDbLine
 10
73.011528
 20
119.942729
 30
0.0
 11
76.761528
 21
119.942729
 31
0.0
  0
LINE
  5
475
100
AcDbEntity
  8
ALPHA
100
AcDbLine
 10
74.861528
 20
111.30893
 30
0.0
 11
74.861528
 21
111.484583
 31
0.0
  0
LINE
  5
476
100
AcDbEntity
  8
ALPHA
100
AcDbLine
 10
74.861528
 20
111.224111
 30
0.0
 11
74.861528
 21
110.727764
 31
0.0
  0
LINE
  5
477
100
AcDbEntity
  8
ALPHA
100
AcDbLine
 10
74.861528
 20
111.658231
 30
0.0
 11
74.861528
 21
111.484583
 31
0.0
  0
LINE
  5
478
100
AcDbEntity
  8
ALPHA
100
AcDbLine
 10
74.861528
 20
110.54665
 30
0.0
 11
74.341913
 21
110.242022
 31
0.0
  0
LINE
  5
479
100
AcDbEntity
  8
ALPHA
100
AcDbLine
 10
74.825084
 20
111.288208
 30
0.0
 11
74.807118
 21
111.277993
 31
0.0
  0
LINE
  5
47A
100
AcDbEntity
  8
ALPHA
100
AcDbLine
 10
74.861528
 20
111.30893
 30
0.0
 11
74.825084
 21
111.288208
 31
0.0
  0
LINE
  5
47B
100
AcDbEntity
  8
ALPHA
100
AcDbLine
 10
76.761528
 20
92.871272
 30
0.0
 11
76.761528
 21
92.759956
 31
0.0
  0
LINE
  5
47C
100
AcDbEntity
  8
ALPHA
100
AcDbLine
 10
76.761528
 20
90.309956
 30
0.0
 11
76.761528
 21
89.677183
 31
0.0
  0
LINE
  5
47D
100
AcDbEntity
  8
ALPHA
100
AcDbLine
 10
76.761528
 20
90.309956
 30
0.0
 11
76.761528
 21
92.759956
 31
0.0
  0
LWPOLYLINE
  5
47E
100
AcDbEntity
  8
ALPHA
100
AcDbPolyline
 90
        5
 70
     0
 43
0.0
 10
74.861528
 20
97.961681
 10
74.394672
 20
97.490673
 10
74.04529
 20
96.929563
 10
73.830725
 20
96.3062
 10
73.805545
 20
96.076554
  0
LINE
  5
485
100
AcDbEntity
  8
ALPHA
100
AcDbLine
 10
73.261528
 20
89.677183
 30
0.0
 11
76.761528
 21
89.677183
 31
0.0
  0
LINE
  5
486
100
AcDbEntity
  8
ALPHA
100
AcDbLine
 10
74.861528
 20
97.961681
 30
0.0
 11
74.861528
 21
98.892149
 31
0.0
  0
LINE
  5
487
100
AcDbEntity
  8
ALPHA
100
AcDbLine
 10
74.861528
 20
99.073263
 30
0.0
 11
74.341913
 21
99.377891
 31
0.0
  0
LINE
  5
488
100
AcDbEntity
  8
ALPHA
100
AcDbLine
 10
71.861528
 20
120.809956
 30
0.0
 11
73.011528
 21
120.809956
 31
0.0
  0
LINE
  5
489
100
AcDbEntity
  8
ALPHA
100
AcDbLine
 10
72.861528
 20
119.483461
 30
0.0
 11
72.861528
 21
120.765837
 31
0.0
  0
LWPOLYLINE
  5
48A
100
AcDbEntity
  8
ALPHA
100
AcDbPolyline
 90
        4
 70
     0
 43
0.0
 10
74.712193
 20
115.309956
 10
74.409692
 20
115.077769
 10
74.152967
 20
114.808577
 10
73.950484
 20
114.501904
  0
LWPOLYLINE
  5
490
100
AcDbEntity
  8
ALPHA
100
AcDbPolyline
 90
        3
 70
     0
 43
0.0
 10
73.950484
 20
114.501904
 10
73.806248
 20
113.96189
 10
73.761533
 20
113.43771
  0
LINE
  5
495
100
AcDbEntity
  8
ALPHA
100
AcDbLine
 10
73.860305
 20
112.309956
 30
0.0
 11
73.974743
 21
112.309956
 31
0.0
  0
LINE
  5
496
100
AcDbEntity
  8
ALPHA
100
AcDbLine
 10
71.861528
 20
116.909956
 30
0.0
 11
71.861528
 21
117.309956
 31
0.0
  0
LINE
  5
497
100
AcDbEntity
  8
ALPHA
100
AcDbLine
 10
71.861528
 20
117.309956
 30
0.0
 11
72.861528
 21
117.309956
 31
0.0
  0
LINE
  5
498
100
AcDbEntity
  8
ALPHA
100
AcDbLine
 10
72.861528
 20
119.483461
 30
0.0
 11
72.861528
 21
117.309956
 31
0.0
  0
LWPOLYLINE
  5
499
100
AcDbEntity
  8
ALPHA
100
AcDbPolyline
 90
        7
 70
     0
 43
0.0
 10
76.761528
 20
92.871272
 10
76.258056
 20
92.914478
 10
75.768794
 20
93.042894
 10
75.306849
 20
93.253357
 10
74.885353
 20
93.540507
 10
74.516547
 20
93.896864
 10
74.211528
 20
94.312824
  0
LINE
  5
4A2
100
AcDbEntity
  8
ALPHA
100
AcDbLine
 10
74.861528
 20
99.073263
 30
0.0
 11
74.861528
 21
98.892149
 31
0.0
  0
LINE
  5
4A3
100
AcDbEntity
  8
ALPHA
100
AcDbLine
 10
72.861528
 20
99.377891
 30
0.0
 11
74.341913
 21
99.377891
 31
0.0
  0
LINE
  5
4A4
100
AcDbEntity
  8
ALPHA
100
AcDbLine
 10
72.861528
 20
103.709956
 30
0.0
 11
72.661528
 21
103.709956
 31
0.0
  0
LINE
  5
4A5
100
AcDbEntity
  8
ALPHA
100
AcDbLine
 10
72.661528
 20
104.309956
 30
0.0
 11
72.661528
 21
103.709956
 31
0.0
  0
LINE
  5
4A6
100
AcDbEntity
  8
ALPHA
100
AcDbLine
 10
72.861528
 20
104.309956
 30
0.0
 11
72.661528
 21
104.309956
 31
0.0
  0
LINE
  5
4A7
100
AcDbEntity
  8
ALPHA
100
AcDbLine
 10
72.861528
 20
105.309956
 30
0.0
 11
72.661528
 21
105.309956
 31
0.0
  0
LINE
  5
4A8
100
AcDbEntity
  8
ALPHA
100
AcDbLine
 10
72.661528
 20
105.909956
 30
0.0
 11
72.661528
 21
105.309956
 31
0.0
  0
LINE
  5
4A9
100
AcDbEntity
  8
ALPHA
100
AcDbLine
 10
72.861528
 20
105.909956
 30
0.0
 11
72.661528
 21
105.909956
 31
0.0
  0
LINE
  5
4AA
100
AcDbEntity
  8
ALPHA
100
AcDbLine
 10
72.861528
 20
110.242022
 30
0.0
 11
74.341913
 21
110.242022
 31
0.0
  0
LINE
  5
4AB
100
AcDbEntity
  8
ALPHA
100
AcDbLine
 10
74.861528
 20
110.54665
 30
0.0
 11
74.861528
 21
110.727764
 31
0.0
  0
LINE
  5
4AC
100
AcDbEntity
  8
ALPHA
100
AcDbLine
 10
73.860305
 20
112.309956
 30
0.0
 11
72.711528
 21
112.309956
 31
0.0
  0
LINE
  5
4AD
100
AcDbEntity
  8
ALPHA
100
AcDbLine
 10
72.711528
 20
112.309956
 30
0.0
 11
72.711528
 21
115.309956
 31
0.0
  0
LWPOLYLINE
  5
4AE
100
AcDbEntity
  8
ALPHA
100
AcDbPolyline
 90
        5
 70
     0
 43
0.0
 10
74.712193
 20
115.309956
 10
75.15941
 20
115.660722
 10
75.661831
 20
115.919451
 10
76.202368
 20
116.078114
 10
76.761528
 20
116.131496
  0
LINE
  5
4B5
100
AcDbEntity
  8
ALPHA
100
AcDbLine
 10
76.761528
 20
92.759956
 30
0.0
 11
74.211528
 21
92.759956
 31
0.0
  0
LINE
  5
4B6
100
AcDbEntity
  8
ALPHA
100
AcDbLine
 10
74.211528
 20
92.759956
 30
0.0
 11
74.211528
 21
94.929969
 31
0.0
  0
LINE
  5
4B7
100
AcDbEntity
  8
ALPHA
100
AcDbLine
 10
71.861528
 20
88.809956
 30
0.0
 11
73.011528
 21
88.809956
 31
0.0
  0
LINE
  5
4B8
100
AcDbEntity
  8
ALPHA
100
AcDbLine
 10
71.861528
 20
90.309956
 30
0.0
 11
71.861528
 21
88.809956
 31
0.0
  0
LINE
  5
4B9
100
AcDbEntity
  8
ALPHA
100
AcDbLine
 10
71.861528
 20
90.309956
 30
0.0
 11
71.861528
 21
116.909956
 31
0.0
  0
LINE
  5
4BA
100
AcDbEntity
  8
ALPHA
100
AcDbLine
 10
71.861528
 20
120.765837
 30
0.0
 11
71.861528
 21
117.309956
 31
0.0
  0
LINE
  5
4BB
100
AcDbEntity
  8
ALPHA
100
AcDbLine
 10
71.861528
 20
120.809956
 30
0.0
 11
71.861528
 21
120.765837
 31
0.0
  0
LINE
  5
4BC
100
AcDbEntity
  8
ALPHA
100
AcDbLine
 10
72.861528
 20
110.150022
 30
0.0
 11
72.861528
 21
110.242022
 31
0.0
  0
LINE
  5
4BD
100
AcDbEntity
  8
ALPHA
100
AcDbLine
 10
72.861528
 20
106.959956
 30
0.0
 11
72.861528
 21
110.150022
 31
0.0
  0
LINE
  5
4BE
100
AcDbEntity
  8
ALPHA
100
AcDbLine
 10
72.861528
 20
105.909956
 30
0.0
 11
72.861528
 21
106.959956
 31
0.0
  0
LINE
  5
4BF
100
AcDbEntity
  8
ALPHA
100
AcDbLine
 10
72.861528
 20
105.309956
 30
0.0
 11
72.861528
 21
105.909956
 31
0.0
  0
LINE
  5
4C0
100
AcDbEntity
  8
ALPHA
100
AcDbLine
 10
73.261528
 20
89.677183
 30
0.0
 11
73.261528
 21
89.059956
 31
0.0
  0
LINE
  5
4C1
100
AcDbEntity
  8
ALPHA
100
AcDbLine
 10
72.861528
 20
104.309956
 30
0.0
 11
72.861528
 21
105.309956
 31
0.0
  0
LINE
  5
4C2
100
AcDbEntity
  8
ALPHA
100
AcDbLine
 10
72.861528
 20
103.709956
 30
0.0
 11
72.861528
 21
104.309956
 31
0.0
  0
LINE
  5
4C3
100
AcDbEntity
  8
ALPHA
100
AcDbLine
 10
72.861528
 20
102.659956
 30
0.0
 11
72.861528
 21
103.709956
 31
0.0
  0
LINE
  5
4C4
100
AcDbEntity
  8
ALPHA
100
AcDbLine
 10
72.861528
 20
99.46989
 30
0.0
 11
72.861528
 21
102.659956
 31
0.0
  0
LINE
  5
4C5
100
AcDbEntity
  8
ALPHA
100
AcDbLine
 10
72.861528
 20
99.377891
 30
0.0
 11
72.861528
 21
99.46989
 31
0.0
  0
LINE
  5
4C6
100
AcDbEntity
  8
ALPHA
100
AcDbLine
 10
73.261528
 20
120.559956
 30
0.0
 11
73.261528
 21
119.942729
 31
0.0
  0
ARC
  5
4C7
100
AcDbEntity
  8
ALPHA
100
AcDbCircle
 10
73.011528
 20
89.059956
 30
0.0
 40
0.25
100
AcDbArc
 50
270.0
 51
0.0
  0
LWPOLYLINE
  5
4C8
100
AcDbEntity
  8
ALPHA
100
AcDbPolyline
 90
        6
 70
     0
 43
0.0
 10
73.764031
 20
113.437793
 10
73.768132
 20
113.314555
 10
73.871024
 20
112.719569
 10
74.094547
 20
112.157589
 10
74.429373
 20
111.652071
 10
74.861528
 20
111.224111
  0
LWPOLYLINE
  5
4D0
100
AcDbEntity
  8
ALPHA
100
AcDbPolyline
 90
        4
 70
     0
 43
0.0
 10
73.761534
 20
96.534522
 10
73.818103
 20
95.945885
 10
73.969711
 20
95.419688
 10
74.211528
 20
94.929969
  0
LINE
  5
4D6
100
AcDbEntity
  8
ALPHA
100
AcDbLine
 10
73.261528
 20
120.559956
 30
0.0
 11
73.261528
 21
119.942729
 31
0.0
  0
ARC
  5
4D7
100
AcDbEntity
  8
ALPHA
100
AcDbCircle
 10
73.011528
 20
120.559956
 30
0.0
 40
0.25
100
AcDbArc
 50
0.0
 51
90.0
  0
LWPOLYLINE
  5
4D8
100
AcDbEntity
  8
ALPHA
100
AcDbPolyline
 90
        3
 70
     0
 43
0.0
 10
53.761533
 20
113.43771
 10
53.818615
 20
112.846426
 10
53.974743
 20
112.309956
  0
LINE
  5
4DD
100
AcDbEntity
  8
ALPHA
100
AcDbLine
 10
53.261528
 20
120.209956
 30
0.0
 11
53.861528
 21
120.209956
 31
0.0
  0
LINE
  5
4DE
100
AcDbEntity
  8
ALPHA
100
AcDbLine
 10
51.861528
 20
120.765837
 30
0.0
 11
52.861528
 21
120.765837
 31
0.0
  0
LINE
  5
4DF
100
AcDbEntity
  8
ALPHA
100
AcDbLine
 10
52.711528
 20
114.501904
 30
0.0
 11
53.950484
 21
114.501904
 31
0.0
  0
LINE
  5
4E0
100
AcDbEntity
  8
ALPHA
100
AcDbLine
 10
51.861528
 20
116.909956
 30
0.0
 11
53.261528
 21
116.909956
 31
0.0
  0
LINE
  5
4E1
100
AcDbEntity
  8
ALPHA
100
AcDbLine
 10
53.261528
 20
119.309956
 30
0.0
 11
53.261528
 21
116.909956
 31
0.0
  0
LINE
  5
4E2
100
AcDbEntity
  8
ALPHA
100
AcDbLine
 10
53.261528
 20
116.909956
 30
0.0
 11
52.861528
 21
117.309956
 31
0.0
  0
LINE
  5
4E3
100
AcDbEntity
  8
ALPHA
100
AcDbLine
 10
53.011528
 20
120.809956
 30
0.0
 11
53.011528
 21
119.942729
 31
0.0
  0
LINE
  5
4E4
100
AcDbEntity
  8
ALPHA
100
AcDbLine
 10
53.261528
 20
119.309956
 30
0.0
 11
52.861528
 21
119.483461
 31
0.0
  0
LWPOLYLINE
  5
4E5
100
AcDbEntity
  8
ALPHA
100
AcDbPolyline
 90
        6
 70
     0
 43
0.0
 10
54.861528
 20
98.892149
 10
54.478447
 20
98.510879
 10
54.167646
 20
98.065188
 10
53.939762
 20
97.569054
 10
53.802895
 20
97.038832
 10
53.761534
 20
96.534522
  0
LWPOLYLINE
  5
4ED
100
AcDbEntity
  8
ALPHA
100
AcDbPolyline
 90
        5
 70
     0
 43
0.0
 10
53.790998
 20
113.442806
 10
53.871024
 20
112.980041
 10
54.094547
 20
112.418062
 10
54.429373
 20
111.912543
 10
54.861528
 20
111.484583
  0
LINE
  5
4F4
100
AcDbEntity
  8
ALPHA
100
AcDbLine
 10
53.778837
 20
113.513128
 30
0.0
 11
53.790998
 21
113.442806
 31
0.0
  0
LINE
  5
4F5
100
AcDbEntity
  8
ALPHA
100
AcDbLine
 10
53.771557
 20
113.555221
 30
0.0
 11
53.778837
 21
113.513128
 31
0.0
  0
LWPOLYLINE
  5
4F6
100
AcDbEntity
  8
ALPHA
100
AcDbPolyline
 90
        5
 70
     0
 43
0.0
 10
54.861528
 20
110.727764
 10
54.522729
 20
111.057468
 10
54.238839
 20
111.436582
 10
54.015959
 20
111.857495
 10
53.860305
 20
112.309956
  0
LINE
  5
4FD
100
AcDbEntity
  8
ALPHA
100
AcDbLine
 10
54.712193
 20
115.309956
 30
0.0
 11
52.711528
 21
115.309956
 31
0.0
  0
LINE
  5
4FE
100
AcDbEntity
  8
ALPHA
100
AcDbLine
 10
56.761528
 20
119.309956
 30
0.0
 11
53.261528
 21
119.309956
 31
0.0
  0
LINE
  5
4FF
100
AcDbEntity
  8
ALPHA
100
AcDbLine
 10
56.761528
 20
90.309956
 30
0.0
 11
51.861528
 21
90.309956
 31
0.0
  0
LINE
  5
500
100
AcDbEntity
  8
ALPHA
100
AcDbLine
 10
53.661528
 20
102.809956
 30
0.0
 11
53.661528
 21
102.659956
 31
0.0
  0
LINE
  5
501
100
AcDbEntity
  8
ALPHA
100
AcDbLine
 10
53.661528
 20
106.959956
 30
0.0
 11
53.661528
 21
106.809956
 31
0.0
  0
LINE
  5
502
100
AcDbEntity
  8
ALPHA
100
AcDbLine
 10
52.861528
 20
103.609956
 30
0.0
 11
53.011528
 21
103.523354
 31
0.0
  0
LINE
  5
503
100
AcDbEntity
  8
ALPHA
100
AcDbLine
 10
53.011528
 20
106.096559
 30
0.0
 11
52.861528
 21
106.009956
 31
0.0
  0
LINE
  5
504
100
AcDbEntity
  8
ALPHA
100
AcDbLine
 10
56.761528
 20
116.242582
 30
0.0
 11
56.761528
 21
116.131496
 31
0.0
  0
LINE
  5
505
100
AcDbEntity
  8
ALPHA
100
AcDbLine
 10
56.761528
 20
119.309956
 30
0.0
 11
56.761528
 21
116.242582
 31
0.0
  0
LINE
  5
506
100
AcDbEntity
  8
ALPHA
100
AcDbLine
 10
56.761528
 20
119.942729
 30
0.0
 11
56.761528
 21
119.309956
 31
0.0
  0
LINE
  5
507
100
AcDbEntity
  8
ALPHA
100
AcDbLine
 10
53.011528
 20
120.809956
 30
0.0
 11
53.861528
 21
120.809956
 31
0.0
  0
LINE
  5
508
100
AcDbEntity
  8
ALPHA
100
AcDbLine
 10
53.808621
 20
113.515304
 30
0.0
 11
53.78586
 21
113.722891
 31
0.0
  0
LINE
  5
509
100
AcDbEntity
  8
ALPHA
100
AcDbLine
 10
53.816469
 20
113.443734
 30
0.0
 11
53.808621
 21
113.515304
 31
0.0
  0
LWPOLYLINE
  5
50A
100
AcDbEntity
  8
ALPHA
100
AcDbPolyline
 90
        5
 70
     0
 43
0.0
 10
54.861528
 20
111.658231
 10
54.394672
 20
112.129239
 10
54.04529
 20
112.69035
 10
53.830725
 20
113.313713
 10
53.816469
 20
113.443734
  0
LINE
  5
511
100
AcDbEntity
  8
ALPHA
100
AcDbLine
 10
53.861528
 20
120.809956
 30
0.0
 11
53.861528
 21
120.209956
 31
0.0
  0
LINE
  5
512
100
AcDbEntity
  8
ALPHA
100
AcDbLine
 10
53.861528
 20
120.209956
 30
0.0
 11
53.861528
 21
120.051458
 31
0.0
  0
LINE
  5
513
100
AcDbEntity
  8
ALPHA
100
AcDbLine
 10
53.011528
 20
119.942729
 30
0.0
 11
56.761528
 21
119.942729
 31
0.0
  0
LINE
  5
514
100
AcDbEntity
  8
ALPHA
100
AcDbLine
 10
54.861528
 20
111.30893
 30
0.0
 11
54.861528
 21
111.484583
 31
0.0
  0
LINE
  5
515
100
AcDbEntity
  8
ALPHA
100
AcDbLine
 10
54.861528
 20
111.224111
 30
0.0
 11
54.861528
 21
110.727764
 31
0.0
  0
LINE
  5
516
100
AcDbEntity
  8
ALPHA
100
AcDbLine
 10
54.861528
 20
111.658231
 30
0.0
 11
54.861528
 21
111.484583
 31
0.0
  0
LINE
  5
517
100
AcDbEntity
  8
ALPHA
100
AcDbLine
 10
54.861528
 20
110.54665
 30
0.0
 11
54.341913
 21
110.242022
 31
0.0
  0
LINE
  5
518
100
AcDbEntity
  8
ALPHA
100
AcDbLine
 10
54.825084
 20
111.288208
 30
0.0
 11
54.807118
 21
111.277993
 31
0.0
  0
LINE
  5
519
100
AcDbEntity
  8
ALPHA
100
AcDbLine
 10
54.861528
 20
111.30893
 30
0.0
 11
54.825084
 21
111.288208
 31
0.0
  0
LINE
  5
51A
100
AcDbEntity
  8
ALPHA
100
AcDbLine
 10
56.761528
 20
92.871272
 30
0.0
 11
56.761528
 21
92.759956
 31
0.0
  0
LINE
  5
51B
100
AcDbEntity
  8
ALPHA
100
AcDbLine
 10
56.761528
 20
90.309956
 30
0.0
 11
56.761528
 21
89.677183
 31
0.0
  0
LINE
  5
51C
100
AcDbEntity
  8
ALPHA
100
AcDbLine
 10
56.761528
 20
90.309956
 30
0.0
 11
56.761528
 21
92.759956
 31
0.0
  0
LWPOLYLINE
  5
51D
100
AcDbEntity
  8
ALPHA
100
AcDbPolyline
 90
        5
 70
     0
 43
0.0
 10
54.861528
 20
97.961681
 10
54.394672
 20
97.490673
 10
54.04529
 20
96.929563
 10
53.830725
 20
96.3062
 10
53.805545
 20
96.076554
  0
LINE
  5
524
100
AcDbEntity
  8
ALPHA
100
AcDbLine
 10
53.261528
 20
89.677183
 30
0.0
 11
56.761528
 21
89.677183
 31
0.0
  0
LINE
  5
525
100
AcDbEntity
  8
ALPHA
100
AcDbLine
 10
54.861528
 20
97.961681
 30
0.0
 11
54.861528
 21
98.892149
 31
0.0
  0
LINE
  5
526
100
AcDbEntity
  8
ALPHA
100
AcDbLine
 10
54.861528
 20
99.073263
 30
0.0
 11
54.341913
 21
99.377891
 31
0.0
  0
LINE
  5
527
100
AcDbEntity
  8
ALPHA
100
AcDbLine
 10
51.861528
 20
120.809956
 30
0.0
 11
53.011528
 21
120.809956
 31
0.0
  0
LINE
  5
528
100
AcDbEntity
  8
ALPHA
100
AcDbLine
 10
52.861528
 20
119.483461
 30
0.0
 11
52.861528
 21
120.765837
 31
0.0
  0
LWPOLYLINE
  5
529
100
AcDbEntity
  8
ALPHA
100
AcDbPolyline
 90
        4
 70
     0
 43
0.0
 10
54.712193
 20
115.309956
 10
54.409692
 20
115.077769
 10
54.152967
 20
114.808577
 10
53.950484
 20
114.501904
  0
LWPOLYLINE
  5
52F
100
AcDbEntity
  8
ALPHA
100
AcDbPolyline
 90
        3
 70
     0
 43
0.0
 10
53.950484
 20
114.501904
 10
53.806248
 20
113.96189
 10
53.761533
 20
113.43771
  0
LINE
  5
534
100
AcDbEntity
  8
ALPHA
100
AcDbLine
 10
53.860305
 20
112.309956
 30
0.0
 11
53.974743
 21
112.309956
 31
0.0
  0
LINE
  5
535
100
AcDbEntity
  8
ALPHA
100
AcDbLine
 10
51.861528
 20
116.909956
 30
0.0
 11
51.861528
 21
117.309956
 31
0.0
  0
LINE
  5
536
100
AcDbEntity
  8
ALPHA
100
AcDbLine
 10
51.861528
 20
117.309956
 30
0.0
 11
52.861528
 21
117.309956
 31
0.0
  0
LINE
  5
537
100
AcDbEntity
  8
ALPHA
100
AcDbLine
 10
52.861528
 20
119.483461
 30
0.0
 11
52.861528
 21
117.309956
 31
0.0
  0
LWPOLYLINE
  5
538
100
AcDbEntity
  8
ALPHA
100
AcDbPolyline
 90
        7
 70
     0
 43
0.0
 10
56.761528
 20
92.871272
 10
56.258056
 20
92.914478
 10
55.768794
 20
93.042894
 10
55.306849
 20
93.253357
 10
54.885353
 20
93.540507
 10
54.516547
 20
93.896864
 10
54.211528
 20
94.312824
  0
LINE
  5
541
100
AcDbEntity
  8
ALPHA
100
AcDbLine
 10
54.861528
 20
99.073263
 30
0.0
 11
54.861528
 21
98.892149
 31
0.0
  0
LINE
  5
542
100
AcDbEntity
  8
ALPHA
100
AcDbLine
 10
52.861528
 20
99.377891
 30
0.0
 11
54.341913
 21
99.377891
 31
0.0
  0
LINE
  5
543
100
AcDbEntity
  8
ALPHA
100
AcDbLine
 10
52.861528
 20
103.709956
 30
0.0
 11
52.661528
 21
103.709956
 31
0.0
  0
LINE
  5
544
100
AcDbEntity
  8
ALPHA
100
AcDbLine
 10
52.661528
 20
104.309956
 30
0.0
 11
52.661528
 21
103.709956
 31
0.0
  0
LINE
  5
545
100
AcDbEntity
  8
ALPHA
100
AcDbLine
 10
52.861528
 20
104.309956
 30
0.0
 11
52.661528
 21
104.309956
 31
0.0
  0
LINE
  5
546
100
AcDbEntity
  8
ALPHA
100
AcDbLine
 10
52.861528
 20
105.309956
 30
0.0
 11
52.661528
 21
105.309956
 31
0.0
  0
LINE
  5
547
100
AcDbEntity
  8
ALPHA
100
AcDbLine
 10
52.661528
 20
105.909956
 30
0.0
 11
52.661528
 21
105.309956
 31
0.0
  0
LINE
  5
548
100
AcDbEntity
  8
ALPHA
100
AcDbLine
 10
52.861528
 20
105.909956
 30
0.0
 11
52.661528
 21
105.909956
 31
0.0
  0
LINE
  5
549
100
AcDbEntity
  8
ALPHA
100
AcDbLine
 10
52.861528
 20
110.242022
 30
0.0
 11
54.341913
 21
110.242022
 31
0.0
  0
LINE
  5
54A
100
AcDbEntity
  8
ALPHA
100
AcDbLine
 10
54.861528
 20
110.54665
 30
0.0
 11
54.861528
 21
110.727764
 31
0.0
  0
LINE
  5
54B
100
AcDbEntity
  8
ALPHA
100
AcDbLine
 10
53.860305
 20
112.309956
 30
0.0
 11
52.711528
 21
112.309956
 31
0.0
  0
LINE
  5
54C
100
AcDbEntity
  8
ALPHA
100
AcDbLine
 10
52.711528
 20
112.309956
 30
0.0
 11
52.711528
 21
115.309956
 31
0.0
  0
LWPOLYLINE
  5
54D
100
AcDbEntity
  8
ALPHA
100
AcDbPolyline
 90
        5
 70
     0
 43
0.0
 10
54.712193
 20
115.309956
 10
55.15941
 20
115.660722
 10
55.661831
 20
115.919451
 10
56.202368
 20
116.078114
 10
56.761528
 20
116.131496
  0
LINE
  5
554
100
AcDbEntity
  8
ALPHA
100
AcDbLine
 10
56.761528
 20
92.759956
 30
0.0
 11
54.211528
 21
92.759956
 31
0.0
  0
LINE
  5
555
100
AcDbEntity
  8
ALPHA
100
AcDbLine
 10
54.211528
 20
92.759956
 30
0.0
 11
54.211528
 21
94.929969
 31
0.0
  0
LINE
  5
556
100
AcDbEntity
  8
ALPHA
100
AcDbLine
 10
51.861528
 20
88.809956
 30
0.0
 11
53.011528
 21
88.809956
 31
0.0
  0
LINE
  5
557
100
AcDbEntity
  8
ALPHA
100
AcDbLine
 10
51.861528
 20
90.309956
 30
0.0
 11
51.861528
 21
88.809956
 31
0.0
  0
LINE
  5
558
100
AcDbEntity
  8
ALPHA
100
AcDbLine
 10
51.861528
 20
90.309956
 30
0.0
 11
51.861528
 21
116.909956
 31
0.0
  0
LINE
  5
559
100
AcDbEntity
  8
ALPHA
100
AcDbLine
 10
51.861528
 20
120.765837
 30
0.0
 11
51.861528
 21
117.309956
 31
0.0
  0
LINE
  5
55A
100
AcDbEntity
  8
ALPHA
100
AcDbLine
 10
51.861528
 20
120.809956
 30
0.0
 11
51.861528
 21
120.765837
 31
0.0
  0
LINE
  5
55B
100
AcDbEntity
  8
ALPHA
100
AcDbLine
 10
52.861528
 20
110.150022
 30
0.0
 11
52.861528
 21
110.242022
 31
0.0
  0
LINE
  5
55C
100
AcDbEntity
  8
ALPHA
100
AcDbLine
 10
52.861528
 20
106.959956
 30
0.0
 11
52.861528
 21
110.150022
 31
0.0
  0
LINE
  5
55D
100
AcDbEntity
  8
ALPHA
100
AcDbLine
 10
52.861528
 20
105.909956
 30
0.0
 11
52.861528
 21
106.959956
 31
0.0
  0
LINE
  5
55E
100
AcDbEntity
  8
ALPHA
100
AcDbLine
 10
52.861528
 20
105.309956
 30
0.0
 11
52.861528
 21
105.909956
 31
0.0
  0
LINE
  5
55F
100
AcDbEntity
  8
ALPHA
100
AcDbLine
 10
53.261528
 20
89.677183
 30
0.0
 11
53.261528
 21
89.059956
 31
0.0
  0
LINE
  5
560
100
AcDbEntity
  8
ALPHA
100
AcDbLine
 10
52.861528
 20
104.309956
 30
0.0
 11
52.861528
 21
105.309956
 31
0.0
  0
LINE
  5
561
100
AcDbEntity
  8
ALPHA
100
AcDbLine
 10
52.861528
 20
103.709956
 30
0.0
 11
52.861528
 21
104.309956
 31
0.0
  0
LINE
  5
562
100
AcDbEntity
  8
ALPHA
100
AcDbLine
 10
52.861528
 20
102.659956
 30
0.0
 11
52.861528
 21
103.709956
 31
0.0
  0
LINE
  5
563
100
AcDbEntity
  8
ALPHA
100
AcDbLine
 10
52.861528
 20
99.46989
 30
0.0
 11
52.861528
 21
102.659956
 31
0.0
  0
LINE
  5
564
100
AcDbEntity
  8
ALPHA
100
AcDbLine
 10
52.861528
 20
99.377891
 30
0.0
 11
52.861528
 21
99.46989
 31
0.0
  0
LINE
  5
565
100
AcDbEntity
  8
ALPHA
100
AcDbLine
 10
53.261528
 20
120.559956
 30
0.0
 11
53.261528
 21
119.942729
 31
0.0
  0
ARC
  5
566
100
AcDbEntity
  8
ALPHA
100
AcDbCircle
 10
53.011528
 20
89.059956
 30
0.0
 40
0.25
100
AcDbArc
 50
270.0
 51
0.0
  0
LWPOLYLINE
  5
567
100
AcDbEntity
  8
ALPHA
100
AcDbPolyline
 90
        6
 70
     0
 43
0.0
 10
53.764031
 20
113.437793
 10
53.768132
 20
113.314555
 10
53.871024
 20
112.719569
 10
54.094547
 20
112.157589
 10
54.429373
 20
111.652071
 10
54.861528
 20
111.224111
  0
LWPOLYLINE
  5
56F
100
AcDbEntity
  8
ALPHA
100
AcDbPolyline
 90
        4
 70
     0
 43
0.0
 10
53.761534
 20
96.534522
 10
53.818103
 20
95.945885
 10
53.969711
 20
95.419688
 10
54.211528
 20
94.929969
  0
LINE
  5
575
100
AcDbEntity
  8
ALPHA
100
AcDbLine
 10
53.261528
 20
120.559956
 30
0.0
 11
53.261528
 21
119.942729
 31
0.0
  0
ARC
  5
576
100
AcDbEntity
  8
ALPHA
100
AcDbCircle
 10
53.011528
 20
120.559956
 30
0.0
 40
0.25
100
AcDbArc
 50
0.0
 51
90.0
  0
LINE
  5
577
100
AcDbEntity
  8
ALPHA
100
AcDbLine
 10
81.711528
 20
116.291552
 30
0.0
 11
81.661528
 21
116.291552
 31
0.0
  0
LINE
  5
578
100
AcDbEntity
  8
ALPHA
100
AcDbLine
 10
73.961528
 20
120.409956
 30
0.0
 11
73.861528
 21
120.409956
 31
0.0
  0
LINE
  5
579
100
AcDbEntity
  8
ALPHA
100
AcDbLine
 10
81.711528
 20
117.609956
 30
0.0
 11
81.711528
 21
120.409956
 31
0.0
  0
LINE
  5
57A
100
AcDbEntity
  8
ALPHA
100
AcDbLine
 10
81.711528
 20
116.291552
 30
0.0
 11
81.711528
 21
117.609956
 31
0.0
  0
LINE
  5
57B
100
AcDbEntity
  8
ALPHA
100
AcDbLine
 10
81.711528
 20
120.409956
 30
0.0
 11
81.711528
 21
117.609956
 31
0.0
  0
LINE
  5
57C
100
AcDbEntity
  8
ALPHA
100
AcDbLine
 10
81.711528
 20
120.409956
 30
0.0
 11
81.661528
 21
120.409956
 31
0.0
  0
LINE
  5
57D
100
AcDbEntity
  8
ALPHA
100
AcDbLine
 10
81.711528
 20
117.609956
 30
0.0
 11
81.661528
 21
117.609956
 31
0.0
  0
LINE
  5
57E
100
AcDbEntity
  8
ALPHA
100
AcDbLine
 10
81.711528
 20
116.159956
 30
0.0
 11
81.661528
 21
116.159956
 31
0.0
  0
LINE
  5
57F
100
AcDbEntity
  8
ALPHA
100
AcDbLine
 10
81.711528
 20
116.159973
 30
0.0
 11
81.711528
 21
116.291552
 31
0.0
  0
LINE
  5
580
100
AcDbEntity
  8
ALPHA
100
AcDbLine
 10
53.961528
 20
120.409956
 30
0.0
 11
53.861528
 21
120.409956
 31
0.0
  0
LINE
  5
581
100
AcDbEntity
  8
ALPHA
100
AcDbLine
 10
61.711528
 20
117.609956
 30
0.0
 11
61.711528
 21
120.409956
 31
0.0
  0
LINE
  5
582
100
AcDbEntity
  8
ALPHA
100
AcDbLine
 10
61.711528
 20
117.509956
 30
0.0
 11
61.711528
 21
117.609956
 31
0.0
  0
LINE
  5
583
100
AcDbEntity
  8
ALPHA
100
AcDbLine
 10
61.711528
 20
120.409956
 30
0.0
 11
61.711528
 21
117.609956
 31
0.0
  0
LINE
  5
584
100
AcDbEntity
  8
ALPHA
100
AcDbLine
 10
61.711528
 20
120.409956
 30
0.0
 11
61.661528
 21
120.409956
 31
0.0
  0
LINE
  5
585
100
AcDbEntity
  8
ALPHA
100
AcDbLine
 10
61.711528
 20
117.609956
 30
0.0
 11
61.661528
 21
117.609956
 31
0.0
  0
ARC
  5
586
100
AcDbEntity
  8
ALPHA
100
AcDbCircle
 10
66.761528
 20
105.509956
 30
0.0
 40
5.0
100
AcDbArc
 50
189.790974
 51
194.533537
  0
ARC
  5
587
100
AcDbEntity
  8
ALPHA
100
AcDbCircle
 10
66.761528
 20
105.509956
 30
0.0
 40
5.0
100
AcDbArc
 50
345.466463
 51
348.938141
  0
ARC
  5
588
100
AcDbEntity
  8
ALPHA
100
AcDbCircle
 10
66.761528
 20
105.509956
 30
0.0
 40
5.0
100
AcDbArc
 50
165.466463
 51
170.209026
  0
ARC
  5
589
100
AcDbEntity
  8
ALPHA
100
AcDbCircle
 10
66.761528
 20
105.509956
 30
0.0
 40
5.0
100
AcDbArc
 50
11.061859
 51
14.533537
  0
LINE
  5
58A
100
AcDbEntity
  8
ALPHA
100
AcDbLine
 10
61.761528
 20
106.359956
 30
0.0
 11
62.061528
 21
106.359956
 31
0.0
  0
LINE
  5
58B
100
AcDbEntity
  8
ALPHA
100
AcDbLine
 10
71.461528
 20
106.359956
 30
0.0
 11
71.661528
 21
106.359956
 31
0.0
  0
LINE
  5
58C
100
AcDbEntity
  8
ALPHA
100
AcDbLine
 10
61.761528
 20
104.659956
 30
0.0
 11
62.061528
 21
104.659956
 31
0.0
  0
LINE
  5
58D
100
AcDbEntity
  8
ALPHA
100
AcDbLine
 10
71.461528
 20
104.659956
 30
0.0
 11
71.661528
 21
104.659956
 31
0.0
  0
LINE
  5
58E
100
AcDbEntity
  8
ALPHA
100
AcDbLine
 10
61.761528
 20
106.359956
 30
0.0
 11
62.061528
 21
106.359956
 31
0.0
  0
LINE
  5
58F
100
AcDbEntity
  8
ALPHA
100
AcDbLine
 10
71.461528
 20
106.359956
 30
0.0
 11
71.661528
 21
106.359956
 31
0.0
  0
LINE
  5
590
100
AcDbEntity
  8
ALPHA
100
AcDbLine
 10
61.761528
 20
104.659956
 30
0.0
 11
62.061528
 21
104.659956
 31
0.0
  0
LINE
  5
591
100
AcDbEntity
  8
ALPHA
100
AcDbLine
 10
71.461528
 20
104.659956
 30
0.0
 11
71.661528
 21
104.659956
 31
0.0
  0
LINE
  5
592
100
AcDbEntity
  8
ALPHA
100
AcDbLine
 10
72.761528
 20
121.109956
 30
0.0
 11
72.761528
 21
121.409956
 31
0.0
  0
LINE
  5
593
100
AcDbEntity
  8
ALPHA
100
AcDbLine
 10
72.761528
 20
121.409956
 30
0.0
 11
72.761528
 21
121.109956
 31
0.0
  0
LINE
  5
594
100
AcDbEntity
  8
ALPHA
100
AcDbLine
 10
72.761528
 20
121.409956
 30
0.0
 11
72.511528
 21
121.409956
 31
0.0
  0
LINE
  5
595
100
AcDbEntity
  8
ALPHA
100
AcDbLine
 10
59.717183
 20
95.999438
 30
0.0
 11
59.507187
 21
95.999438
 31
0.0
  0
LINE
  5
596
100
AcDbEntity
  8
ALPHA
100
AcDbLine
 10
59.72669
 20
95.999438
 30
0.0
 11
59.717183
 21
95.999438
 31
0.0
  0
LINE
  5
597
100
AcDbEntity
  8
ALPHA
100
AcDbLine
 10
54.861528
 20
98.313736
 30
0.0
 11
56.011528
 21
98.313736
 31
0.0
  0
LINE
  5
598
100
AcDbEntity
  8
ALPHA
100
AcDbLine
 10
57.511528
 20
98.313736
 30
0.0
 11
57.815279
 21
98.313736
 31
0.0
  0
LINE
  5
599
100
AcDbEntity
  8
ALPHA
100
AcDbLine
 10
53.886117
 20
95.709824
 30
0.0
 11
53.97937
 21
95.709824
 31
0.0
  0
LWPOLYLINE
  5
59A
100
AcDbEntity
  8
ALPHA
100
AcDbPolyline
 90
        4
 70
     0
 43
0.0
 10
57.511528
 20
98.313736
 10
57.506114
 20
98.358317
 10
57.489313
 20
98.400099
 10
57.477832
 20
98.414545
  0
LINE
  5
5A0
100
AcDbEntity
  8
ALPHA
100
AcDbLine
 10
57.261528
 20
98.46196
 30
0.0
 11
57.261528
 21
98.342953
 31
0.0
  0
LINE
  5
5A1
100
AcDbEntity
  8
ALPHA
100
AcDbLine
 10
57.261528
 20
98.467286
 30
0.0
 11
57.261528
 21
98.46196
 31
0.0
  0
LWPOLYLINE
  5
5A2
100
AcDbEntity
  8
ALPHA
100
AcDbPolyline
 90
        7
 70
     0
 43
0.0
 10
56.011528
 20
98.313736
 10
56.016943
 20
98.358317
 10
56.033744
 20
98.400099
 10
56.062373
 20
98.436122
 10
56.10217
 20
98.462906
 10
56.152153
 20
98.477399
 10
56.176003
 20
98.478737
  0
LINE
  5
5AB
100
AcDbEntity
  8
ALPHA
100
AcDbLine
 10
56.261528
 20
98.467286
 30
0.0
 11
56.261528
 21
98.344651
 31
0.0
  0
LINE
  5
5AC
100
AcDbEntity
  8
ALPHA
100
AcDbLine
 10
59.664476
 20
95.709824
 30
0.0
 11
59.543687
 21
95.709824
 31
0.0
  0
LINE
  5
5AD
100
AcDbEntity
  8
ALPHA
100
AcDbLine
 10
53.812956
 20
95.999438
 30
0.0
 11
54.01587
 21
95.999438
 31
0.0
  0
LINE
  5
5AE
100
AcDbEntity
  8
ALPHA
100
AcDbLine
 10
56.011528
 20
98.313736
 30
0.0
 11
56.011528
 21
98.283817
 31
0.0
  0
LINE
  5
5AF
100
AcDbEntity
  8
ALPHA
100
AcDbLine
 10
57.511528
 20
98.313736
 30
0.0
 11
57.511528
 21
98.285837
 31
0.0
  0
LINE
  5
5B0
100
AcDbEntity
  8
ALPHA
100
AcDbLine
 10
56.211528
 20
98.475968
 30
0.0
 11
56.261528
 21
98.467286
 31
0.0
  0
LINE
  5
5B1
100
AcDbEntity
  8
ALPHA
100
AcDbLine
 10
57.206619
 20
98.467286
 30
0.0
 11
56.261528
 21
98.467286
 31
0.0
  0
LINE
  5
5B2
100
AcDbEntity
  8
ALPHA
100
AcDbLine
 10
56.177148
 20
98.479007
 30
0.0
 11
54.861528
 21
98.479007
 31
0.0
  0
LINE
  5
5B3
100
AcDbEntity
  8
ALPHA
100
AcDbLine
 10
56.176003
 20
98.478737
 30
0.0
 11
56.211528
 21
98.475968
 31
0.0
  0
LINE
  5
5B4
100
AcDbEntity
  8
ALPHA
100
AcDbLine
 10
79.717183
 20
95.999438
 30
0.0
 11
79.507187
 21
95.999438
 31
0.0
  0
LINE
  5
5B5
100
AcDbEntity
  8
ALPHA
100
AcDbLine
 10
79.72669
 20
95.999438
 30
0.0
 11
79.717183
 21
95.999438
 31
0.0
  0
LINE
  5
5B6
100
AcDbEntity
  8
ALPHA
100
AcDbLine
 10
74.861528
 20
98.313736
 30
0.0
 11
76.011528
 21
98.313736
 31
0.0
  0
LINE
  5
5B7
100
AcDbEntity
  8
ALPHA
100
AcDbLine
 10
77.511528
 20
98.313736
 30
0.0
 11
77.815279
 21
98.313736
 31
0.0
  0
LINE
  5
5B8
100
AcDbEntity
  8
ALPHA
100
AcDbLine
 10
73.886117
 20
95.709824
 30
0.0
 11
73.97937
 21
95.709824
 31
0.0
  0
LWPOLYLINE
  5
5B9
100
AcDbEntity
  8
ALPHA
100
AcDbPolyline
 90
        4
 70
     0
 43
0.0
 10
77.511528
 20
98.313736
 10
77.506114
 20
98.358317
 10
77.489313
 20
98.400099
 10
77.477832
 20
98.414545
  0
LINE
  5
5BF
100
AcDbEntity
  8
ALPHA
100
AcDbLine
 10
77.261528
 20
98.46196
 30
0.0
 11
77.261528
 21
98.342953
 31
0.0
  0
LINE
  5
5C0
100
AcDbEntity
  8
ALPHA
100
AcDbLine
 10
77.261528
 20
98.467286
 30
0.0
 11
77.261528
 21
98.46196
 31
0.0
  0
LWPOLYLINE
  5
5C1
100
AcDbEntity
  8
ALPHA
100
AcDbPolyline
 90
        7
 70
     0
 43
0.0
 10
76.011528
 20
98.313736
 10
76.016943
 20
98.358317
 10
76.033744
 20
98.400099
 10
76.062373
 20
98.436122
 10
76.10217
 20
98.462906
 10
76.152153
 20
98.477399
 10
76.176003
 20
98.478737
  0
LINE
  5
5CA
100
AcDbEntity
  8
ALPHA
100
AcDbLine
 10
76.261528
 20
98.467286
 30
0.0
 11
76.261528
 21
98.344651
 31
0.0
  0
LINE
  5
5CB
100
AcDbEntity
  8
ALPHA
100
AcDbLine
 10
79.664476
 20
95.709824
 30
0.0
 11
79.543687
 21
95.709824
 31
0.0
  0
LINE
  5
5CC
100
AcDbEntity
  8
ALPHA
100
AcDbLine
 10
73.812956
 20
95.999438
 30
0.0
 11
74.01587
 21
95.999438
 31
0.0
  0
LINE
  5
5CD
100
AcDbEntity
  8
ALPHA
100
AcDbLine
 10
76.011528
 20
98.313736
 30
0.0
 11
76.011528
 21
98.283817
 31
0.0
  0
LINE
  5
5CE
100
AcDbEntity
  8
ALPHA
100
AcDbLine
 10
77.511528
 20
98.313736
 30
0.0
 11
77.511528
 21
98.285837
 31
0.0
  0
LINE
  5
5CF
100
AcDbEntity
  8
ALPHA
100
AcDbLine
 10
76.211528
 20
98.475968
 30
0.0
 11
76.261528
 21
98.467286
 31
0.0
  0
LINE
  5
5D0
100
AcDbEntity
  8
ALPHA
100
AcDbLine
 10
77.206619
 20
98.467286
 30
0.0
 11
76.261528
 21
98.467286
 31
0.0
  0
LINE
  5
5D1
100
AcDbEntity
  8
ALPHA
100
AcDbLine
 10
76.177148
 20
98.479007
 30
0.0
 11
74.861528
 21
98.479007
 31
0.0
  0
LINE
  5
5D2
100
AcDbEntity
  8
ALPHA
100
AcDbLine
 10
76.176003
 20
98.478737
 30
0.0
 11
76.211528
 21
98.475968
 31
0.0
  0
LINE
  5
5D3
100
AcDbEntity
  8
ALPHA
100
AcDbLine
 10
58.624944
 20
111.766344
 30
0.0
 11
57.511528
 21
111.766344
 31
0.0
  0
LINE
  5
5D4
100
AcDbEntity
  8
ALPHA
100
AcDbLine
 10
56.011528
 20
111.766344
 30
0.0
 11
54.754369
 21
111.766344
 31
0.0
  0
LWPOLYLINE
  5
5D5
100
AcDbEntity
  8
ALPHA
100
AcDbPolyline
 90
        7
 70
     0
 43
0.0
 10
56.011528
 20
111.766344
 10
56.016943
 20
111.721763
 10
56.033744
 20
111.679981
 10
56.062373
 20
111.643958
 10
56.10217
 20
111.617174
 10
56.152153
 20
111.602681
 10
56.176003
 20
111.601343
  0
LINE
  5
5DE
100
AcDbEntity
  8
ALPHA
100
AcDbLine
 10
56.261528
 20
111.612794
 30
0.0
 11
56.261528
 21
111.790264
 31
0.0
  0
LWPOLYLINE
  5
5DF
100
AcDbEntity
  8
ALPHA
100
AcDbPolyline
 90
        7
 70
     0
 43
0.0
 10
57.511528
 20
111.766344
 10
57.506114
 20
111.721763
 10
57.489313
 20
111.679981
 10
57.460684
 20
111.643958
 10
57.420887
 20
111.617174
 10
57.370904
 20
111.602681
 10
57.347054
 20
111.601343
  0
LINE
  5
5E8
100
AcDbEntity
  8
ALPHA
100
AcDbLine
 10
57.261528
 20
111.612794
 30
0.0
 11
57.261528
 21
111.788689
 31
0.0
  0
LINE
  5
5E9
100
AcDbEntity
  8
ALPHA
100
AcDbLine
 10
59.707988
 20
114.080642
 30
0.0
 11
59.694122
 21
114.080642
 31
0.0
  0
LINE
  5
5EA
100
AcDbEntity
  8
ALPHA
100
AcDbLine
 10
57.511528
 20
111.766344
 30
0.0
 11
57.511528
 21
111.841453
 31
0.0
  0
LINE
  5
5EB
100
AcDbEntity
  8
ALPHA
100
AcDbLine
 10
56.011528
 20
111.766344
 30
0.0
 11
56.011528
 21
111.839297
 31
0.0
  0
LINE
  5
5EC
100
AcDbEntity
  8
ALPHA
100
AcDbLine
 10
54.861528
 20
111.601073
 30
0.0
 11
56.177148
 21
111.601073
 31
0.0
  0
LINE
  5
5ED
100
AcDbEntity
  8
ALPHA
100
AcDbLine
 10
57.311528
 20
111.604112
 30
0.0
 11
57.261528
 21
111.612794
 31
0.0
  0
LINE
  5
5EE
100
AcDbEntity
  8
ALPHA
100
AcDbLine
 10
56.261528
 20
111.612794
 30
0.0
 11
57.261528
 21
111.612794
 31
0.0
  0
LINE
  5
5EF
100
AcDbEntity
  8
ALPHA
100
AcDbLine
 10
56.211528
 20
111.604112
 30
0.0
 11
56.261528
 21
111.612794
 31
0.0
  0
LINE
  5
5F0
100
AcDbEntity
  8
ALPHA
100
AcDbLine
 10
56.176003
 20
111.601343
 30
0.0
 11
56.211528
 21
111.604112
 31
0.0
  0
LINE
  5
5F1
100
AcDbEntity
  8
ALPHA
100
AcDbLine
 10
57.345909
 20
111.601073
 30
0.0
 11
58.416287
 21
111.601073
 31
0.0
  0
LINE
  5
5F2
100
AcDbEntity
  8
ALPHA
100
AcDbLine
 10
57.347054
 20
111.601343
 30
0.0
 11
57.311528
 21
111.604112
 31
0.0
  0
LINE
  5
5F3
100
AcDbEntity
  8
ALPHA
100
AcDbLine
 10
78.624944
 20
111.766344
 30
0.0
 11
77.511528
 21
111.766344
 31
0.0
  0
LINE
  5
5F4
100
AcDbEntity
  8
ALPHA
100
AcDbLine
 10
76.011528
 20
111.766344
 30
0.0
 11
74.754369
 21
111.766344
 31
0.0
  0
LWPOLYLINE
  5
5F5
100
AcDbEntity
  8
ALPHA
100
AcDbPolyline
 90
        7
 70
     0
 43
0.0
 10
76.011528
 20
111.766344
 10
76.016943
 20
111.721763
 10
76.033744
 20
111.679981
 10
76.062373
 20
111.643958
 10
76.10217
 20
111.617174
 10
76.152153
 20
111.602681
 10
76.176003
 20
111.601343
  0
LINE
  5
5FE
100
AcDbEntity
  8
ALPHA
100
AcDbLine
 10
76.261528
 20
111.612794
 30
0.0
 11
76.261528
 21
111.790264
 31
0.0
  0
LWPOLYLINE
  5
5FF
100
AcDbEntity
  8
ALPHA
100
AcDbPolyline
 90
        7
 70
     0
 43
0.0
 10
77.511528
 20
111.766344
 10
77.506114
 20
111.721763
 10
77.489313
 20
111.679981
 10
77.460684
 20
111.643958
 10
77.420887
 20
111.617174
 10
77.370904
 20
111.602681
 10
77.347054
 20
111.601343
  0
LINE
  5
608
100
AcDbEntity
  8
ALPHA
100
AcDbLine
 10
77.261528
 20
111.612794
 30
0.0
 11
77.261528
 21
111.788689
 31
0.0
  0
LINE
  5
609
100
AcDbEntity
  8
ALPHA
100
AcDbLine
 10
79.707988
 20
114.080642
 30
0.0
 11
79.694122
 21
114.080642
 31
0.0
  0
LINE
  5
60A
100
AcDbEntity
  8
ALPHA
100
AcDbLine
 10
77.511528
 20
111.766344
 30
0.0
 11
77.511528
 21
111.841453
 31
0.0
  0
LINE
  5
60B
100
AcDbEntity
  8
ALPHA
100
AcDbLine
 10
76.011528
 20
111.766344
 30
0.0
 11
76.011528
 21
111.839297
 31
0.0
  0
LINE
  5
60C
100
AcDbEntity
  8
ALPHA
100
AcDbLine
 10
74.861528
 20
111.601073
 30
0.0
 11
76.177148
 21
111.601073
 31
0.0
  0
LINE
  5
60D
100
AcDbEntity
  8
ALPHA
100
AcDbLine
 10
77.311528
 20
111.604112
 30
0.0
 11
77.261528
 21
111.612794
 31
0.0
  0
LINE
  5
60E
100
AcDbEntity
  8
ALPHA
100
AcDbLine
 10
76.261528
 20
111.612794
 30
0.0
 11
77.261528
 21
111.612794
 31
0.0
  0
LINE
  5
60F
100
AcDbEntity
  8
ALPHA
100
AcDbLine
 10
76.211528
 20
111.604112
 30
0.0
 11
76.261528
 21
111.612794
 31
0.0
  0
LINE
  5
610
100
AcDbEntity
  8
ALPHA
100
AcDbLine
 10
76.176003
 20
111.601343
 30
0.0
 11
76.211528
 21
111.604112
 31
0.0
  0
LINE
  5
611
100
AcDbEntity
  8
ALPHA
100
AcDbLine
 10
77.345909
 20
111.601073
 30
0.0
 11
78.416287
 21
111.601073
 31
0.0
  0
LINE
  5
612
100
AcDbEntity
  8
ALPHA
100
AcDbLine
 10
77.347054
 20
111.601343
 30
0.0
 11
77.311528
 21
111.604112
 31
0.0
  0
LINE
  5
613
100
AcDbEntity
  8
ALPHA
100
AcDbLine
 10
73.937019
 20
114.451492
 30
0.0
 11
73.981204
 21
114.451492
 31
0.0
  0
LINE
  5
614
100
AcDbEntity
  8
ALPHA
100
AcDbLine
 10
79.699174
 20
114.098467
 30
0.0
 11
79.701651
 21
114.116254
 31
0.0
  0
LWPOLYLINE
  5
615
100
AcDbEntity
  8
ALPHA
100
AcDbPolyline
 90
       22
 70
     0
 43
0.0
 10
73.832546
 20
114.060349
 10
73.83338
 20
114.054963
 10
73.948768
 20
113.67029
 10
74.11601
 20
113.304537
 10
74.332004
 20
112.964486
 10
74.592798
 20
112.656359
 10
74.893547
 20
112.385881
 10
75.22875
 20
112.157999
 10
75.592186
 20
111.976943
 10
75.97719
 20
111.846032
 10
76.376646
 20
111.767686
 10
76.783191
 20
111.743348
 10
77.189527
 20
111.773492
 10
77.587965
 20
111.857586
 10
77.971157
 20
111.994079
 10
78.332031
 20
112.180451
 10
78.663931
 20
112.413266
 10
78.960732
 20
112.688227
 10
79.216959
 20
113.000262
 10
79.427885
 20
113.343613
 10
79.589618
 20
113.711947
 10
79.699174
 20
114.098467
  0
LINE
  5
62D
100
AcDbEntity
  8
ALPHA
100
AcDbLine
 10
53.937019
 20
114.451492
 30
0.0
 11
53.981204
 21
114.451492
 31
0.0
  0
LINE
  5
62E
100
AcDbEntity
  8
ALPHA
100
AcDbLine
 10
59.699174
 20
114.098467
 30
0.0
 11
59.701651
 21
114.116254
 31
0.0
  0
LWPOLYLINE
  5
62F
100
AcDbEntity
  8
ALPHA
100
AcDbPolyline
 90
       22
 70
     0
 43
0.0
 10
53.832546
 20
114.060349
 10
53.83338
 20
114.054963
 10
53.948768
 20
113.67029
 10
54.11601
 20
113.304537
 10
54.332004
 20
112.964486
 10
54.592798
 20
112.656359
 10
54.893547
 20
112.385881
 10
55.22875
 20
112.157999
 10
55.592186
 20
111.976943
 10
55.97719
 20
111.846032
 10
56.376646
 20
111.767686
 10
56.783191
 20
111.743348
 10
57.189527
 20
111.773492
 10
57.587965
 20
111.857586
 10
57.971157
 20
111.994079
 10
58.332031
 20
112.180451
 10
58.663931
 20
112.413266
 10
58.960732
 20
112.688227
 10
59.216959
 20
113.000262
 10
59.427885
 20
113.343613
 10
59.589618
 20
113.711947
 10
59.699174
 20
114.098467
  0
LINE
  5
647
100
AcDbEntity
  8
ALPHA
100
AcDbLine
 10
76.511528
 20
106.959956
 30
0.0
 11
76.511528
 21
106.809956
 31
0.0
  0
LINE
  5
648
100
AcDbEntity
  8
ALPHA
100
AcDbLine
 10
74.011528
 20
106.809956
 30
0.0
 11
74.011528
 21
106.959956
 31
0.0
  0
LINE
  5
649
100
AcDbEntity
  8
ALPHA
100
AcDbLine
 10
74.011528
 20
102.659956
 30
0.0
 11
74.011528
 21
102.809956
 31
0.0
  0
LINE
  5
64A
100
AcDbEntity
  8
ALPHA
100
AcDbLine
 10
76.511528
 20
102.809956
 30
0.0
 11
76.511528
 21
102.659956
 31
0.0
  0
LINE
  5
64B
100
AcDbEntity
  8
ALPHA
100
AcDbLine
 10
56.511528
 20
106.959956
 30
0.0
 11
56.511528
 21
106.809956
 31
0.0
  0
LINE
  5
64C
100
AcDbEntity
  8
ALPHA
100
AcDbLine
 10
54.011528
 20
106.809956
 30
0.0
 11
54.011528
 21
106.959956
 31
0.0
  0
LINE
  5
64D
100
AcDbEntity
  8
ALPHA
100
AcDbLine
 10
54.011528
 20
102.659956
 30
0.0
 11
54.011528
 21
102.809956
 31
0.0
  0
LINE
  5
64E
100
AcDbEntity
  8
ALPHA
100
AcDbLine
 10
56.511528
 20
102.809956
 30
0.0
 11
56.511528
 21
102.659956
 31
0.0
  0
LWPOLYLINE
  5
64F
100
AcDbEntity
  8
ALPHA
100
AcDbPolyline
 90
        4
 70
     0
 43
0.0
 10
54.095477
 20
96.120751
 10
54.114055
 20
96.157107
 10
54.132579
 20
96.19335
 10
54.151049
 20
96.229481
  0
LWPOLYLINE
  5
655
100
AcDbEntity
  8
ALPHA
100
AcDbPolyline
 90
        4
 70
     0
 43
0.0
 10
59.372008
 20
96.229481
 10
59.390478
 20
96.193351
 10
59.409002
 20
96.157108
 10
59.42758
 20
96.120751
  0
LINE
  5
65B
100
AcDbEntity
  8
ALPHA
100
AcDbLine
 10
56.361528
 20
97.557285
 30
0.0
 11
56.361528
 21
96.277035
 31
0.0
  0
LINE
  5
65C
100
AcDbEntity
  8
ALPHA
100
AcDbLine
 10
57.161528
 20
97.557285
 30
0.0
 11
56.361528
 21
97.557285
 31
0.0
  0
LINE
  5
65D
100
AcDbEntity
  8
ALPHA
100
AcDbLine
 10
57.137961
 20
96.120751
 30
0.0
 11
59.42758
 21
96.120751
 31
0.0
  0
LWPOLYLINE
  5
65E
100
AcDbEntity
  8
ALPHA
100
AcDbPolyline
 90
        4
 70
     0
 43
0.0
 10
59.42758
 20
96.120751
 10
59.461075
 20
95.826231
 10
59.461075
 20
95.528945
 10
59.42758
 20
95.234424
  0
LINE
  5
664
100
AcDbEntity
  8
ALPHA
100
AcDbLine
 10
54.095477
 20
96.120751
 30
0.0
 11
56.385096
 21
96.120751
 31
0.0
  0
LWPOLYLINE
  5
665
100
AcDbEntity
  8
ALPHA
100
AcDbPolyline
 90
        4
 70
     0
 43
0.0
 10
54.095477
 20
95.234424
 10
54.061982
 20
95.528945
 10
54.061982
 20
95.826231
 10
54.095477
 20
96.120751
  0
LINE
  5
66B
100
AcDbEntity
  8
ALPHA
100
AcDbLine
 10
56.126528
 20
95.390708
 30
0.0
 11
56.126528
 21
95.94722
 31
0.0
  0
LINE
  5
66C
100
AcDbEntity
  8
ALPHA
100
AcDbLine
 10
55.769661
 20
96.071511
 30
0.0
 11
55.769661
 21
95.390708
 31
0.0
  0
LINE
  5
66D
100
AcDbEntity
  8
ALPHA
100
AcDbLine
 10
57.396528
 20
95.390708
 30
0.0
 11
57.396528
 21
95.94722
 31
0.0
  0
LINE
  5
66E
100
AcDbEntity
  8
ALPHA
100
AcDbLine
 10
57.753396
 20
96.071511
 30
0.0
 11
57.753396
 21
95.390708
 31
0.0
  0
LINE
  5
66F
100
AcDbEntity
  8
ALPHA
100
AcDbLine
 10
56.761528
 20
95.137676
 30
0.0
 11
56.761528
 21
95.494667
 31
0.0
  0
LINE
  5
670
100
AcDbEntity
  8
ALPHA
100
AcDbLine
 10
56.761528
 20
95.494667
 30
0.0
 11
56.761528
 21
95.88859
 31
0.0
  0
LINE
  5
671
100
AcDbEntity
  8
ALPHA
100
AcDbLine
 10
55.769661
 20
96.071511
 30
0.0
 11
56.126528
 21
95.94722
 31
0.0
  0
LINE
  5
672
100
AcDbEntity
  8
ALPHA
100
AcDbLine
 10
56.126528
 20
95.94722
 30
0.0
 11
56.761528
 21
95.88859
 31
0.0
  0
LINE
  5
673
100
AcDbEntity
  8
ALPHA
100
AcDbLine
 10
56.761528
 20
95.88859
 30
0.0
 11
57.396528
 21
95.94722
 31
0.0
  0
LINE
  5
674
100
AcDbEntity
  8
ALPHA
100
AcDbLine
 10
57.396528
 20
95.94722
 30
0.0
 11
57.753396
 21
96.071511
 31
0.0
  0
LINE
  5
675
100
AcDbEntity
  8
ALPHA
100
AcDbLine
 10
57.137961
 20
96.071511
 30
0.0
 11
57.753396
 21
96.071511
 31
0.0
  0
LINE
  5
676
100
AcDbEntity
  8
ALPHA
100
AcDbLine
 10
55.769661
 20
96.071511
 30
0.0
 11
56.385096
 21
96.071511
 31
0.0
  0
LINE
  5
677
100
AcDbEntity
  8
ALPHA
100
AcDbLine
 10
57.161528
 20
97.557285
 30
0.0
 11
57.161528
 21
96.277035
 31
0.0
  0
LINE
  5
678
100
AcDbEntity
  8
ALPHA
100
AcDbLine
 10
57.161528
 20
96.277035
 30
0.0
 11
59.068167
 21
96.277035
 31
0.0
  0
LINE
  5
679
100
AcDbEntity
  8
ALPHA
100
AcDbLine
 10
54.45489
 20
96.277035
 30
0.0
 11
56.361528
 21
96.277035
 31
0.0
  0
LWPOLYLINE
  5
67A
100
AcDbEntity
  8
ALPHA
100
AcDbPolyline
 90
       19
 70
     0
 43
0.0
 10
54.45489
 20
95.390708
 10
54.550015
 20
95.050787
 10
54.697321
 20
94.727496
 10
54.892876
 20
94.430315
 10
55.132274
 20
94.165906
 10
55.409815
 20
93.940593
 10
55.719026
 20
93.759625
 10
56.052656
 20
93.627247
 10
56.402892
 20
93.546559
 10
56.761528
 20
93.519452
 10
57.120165
 20
93.546559
 10
57.470401
 20
93.627247
 10
57.804031
 20
93.759625
 10
58.113242
 20
93.940593
 10
58.390783
 20
94.165906
 10
58.630181
 20
94.430315
 10
58.825736
 20
94.727496
 10
58.973042
 20
95.050787
 10
59.068167
 20
95.390708
  0
LINE
  5
68F
100
AcDbEntity
  8
ALPHA
100
AcDbLine
 10
57.161528
 20
95.390708
 30
0.0
 11
57.161528
 21
94.110458
 31
0.0
  0
LINE
  5
690
100
AcDbEntity
  8
ALPHA
100
AcDbLine
 10
57.161528
 20
94.110458
 30
0.0
 11
56.361528
 21
94.110458
 31
0.0
  0
LINE
  5
691
100
AcDbEntity
  8
ALPHA
100
AcDbLine
 10
56.761528
 20
95.494667
 30
0.0
 11
56.407754
 21
95.87573
 31
0.0
  0
LINE
  5
692
100
AcDbEntity
  8
ALPHA
100
AcDbLine
 10
56.761528
 20
95.494667
 30
0.0
 11
57.115303
 21
95.87573
 31
0.0
  0
LINE
  5
693
100
AcDbEntity
  8
ALPHA
100
AcDbLine
 10
56.403839
 20
96.17865
 30
0.0
 11
57.119218
 21
96.17865
 31
0.0
  0
LINE
  5
694
100
AcDbEntity
  8
ALPHA
100
AcDbLine
 10
57.115946
 20
95.925522
 30
0.0
 11
56.407111
 21
95.925522
 31
0.0
  0
LINE
  5
695
100
AcDbEntity
  8
ALPHA
100
AcDbLine
 10
56.368779
 20
97.068532
 30
0.0
 11
57.154278
 21
97.068532
 31
0.0
  0
LINE
  5
696
100
AcDbEntity
  8
ALPHA
100
AcDbLine
 10
56.368779
 20
94.503044
 30
0.0
 11
57.154278
 21
94.503044
 31
0.0
  0
LINE
  5
697
100
AcDbEntity
  8
ALPHA
100
AcDbLine
 10
56.403839
 20
94.927944
 30
0.0
 11
57.119218
 21
94.927944
 31
0.0
  0
LINE
  5
698
100
AcDbEntity
  8
ALPHA
100
AcDbLine
 10
56.41268
 20
95.494667
 30
0.0
 11
56.761528
 21
95.494667
 31
0.0
  0
LINE
  5
699
100
AcDbEntity
  8
ALPHA
100
AcDbLine
 10
56.761528
 20
95.494667
 30
0.0
 11
56.407754
 21
95.178932
 31
0.0
  0
LINE
  5
69A
100
AcDbEntity
  8
ALPHA
100
AcDbLine
 10
56.761528
 20
95.494667
 30
0.0
 11
57.110377
 21
95.494667
 31
0.0
  0
LINE
  5
69B
100
AcDbEntity
  8
ALPHA
100
AcDbLine
 10
56.761528
 20
95.494667
 30
0.0
 11
57.115303
 21
95.178932
 31
0.0
  0
LINE
  5
69C
100
AcDbEntity
  8
ALPHA
100
AcDbLine
 10
56.361528
 20
95.390708
 30
0.0
 11
56.361528
 21
94.110458
 31
0.0
  0
LINE
  5
69D
100
AcDbEntity
  8
ALPHA
100
AcDbLine
 10
57.115946
 20
95.137676
 30
0.0
 11
57.119218
 21
94.927944
 31
0.0
  0
LINE
  5
69E
100
AcDbEntity
  8
ALPHA
100
AcDbLine
 10
57.119218
 20
94.927944
 30
0.0
 11
57.154278
 21
94.503044
 31
0.0
  0
LWPOLYLINE
  5
69F
100
AcDbEntity
  8
ALPHA
100
AcDbPolyline
 90
        6
 70
     0
 43
0.0
 10
57.154278
 20
94.503044
 10
57.156707
 20
94.460174
 10
57.158745
 20
94.395546
 10
57.160259
 20
94.31354
 10
57.161209
 20
94.216411
 10
57.161528
 20
94.110458
  0
LWPOLYLINE
  5
6A7
100
AcDbEntity
  8
ALPHA
100
AcDbPolyline
 90
        7
 70
     0
 43
0.0
 10
54.151049
 20
96.229481
 10
54.16644
 20
96.241882
 10
54.199754
 20
96.253506
 10
54.248102
 20
96.263254
 10
54.308949
 20
96.270698
 10
54.380001
 20
96.275445
 10
54.45489
 20
96.277035
  0
LINE
  5
6B0
100
AcDbEntity
  8
ALPHA
100
AcDbLine
 10
57.137961
 20
95.283665
 30
0.0
 11
57.137961
 21
95.234424
 31
0.0
  0
LINE
  5
6B1
100
AcDbEntity
  8
ALPHA
100
AcDbLine
 10
57.161528
 20
96.277035
 30
0.0
 11
57.137961
 21
96.120751
 31
0.0
  0
LWPOLYLINE
  5
6B2
100
AcDbEntity
  8
ALPHA
100
AcDbPolyline
 90
        6
 70
     0
 43
0.0
 10
57.161528
 20
97.557285
 10
57.161209
 20
97.447098
 10
57.160259
 20
97.337368
 10
57.158745
 20
97.235277
 10
57.156707
 20
97.143628
 10
57.154278
 20
97.068532
  0
LINE
  5
6BA
100
AcDbEntity
  8
ALPHA
100
AcDbLine
 10
57.154278
 20
97.068532
 30
0.0
 11
57.119218
 21
96.17865
 31
0.0
  0
LINE
  5
6BB
100
AcDbEntity
  8
ALPHA
100
AcDbLine
 10
57.119218
 20
96.17865
 30
0.0
 11
57.115946
 21
95.925522
 31
0.0
  0
LINE
  5
6BC
100
AcDbEntity
  8
ALPHA
100
AcDbLine
 10
57.115946
 20
95.925522
 30
0.0
 11
57.137961
 21
96.071511
 31
0.0
  0
LINE
  5
6BD
100
AcDbEntity
  8
ALPHA
100
AcDbLine
 10
57.137961
 20
96.120751
 30
0.0
 11
57.137961
 21
96.071511
 31
0.0
  0
LINE
  5
6BE
100
AcDbEntity
  8
ALPHA
100
AcDbLine
 10
57.115303
 20
95.87573
 30
0.0
 11
57.110377
 21
95.494667
 31
0.0
  0
LINE
  5
6BF
100
AcDbEntity
  8
ALPHA
100
AcDbLine
 10
57.110377
 20
95.494667
 30
0.0
 11
57.115303
 21
95.178932
 31
0.0
  0
LINE
  5
6C0
100
AcDbEntity
  8
ALPHA
100
AcDbLine
 10
57.115303
 20
95.87573
 30
0.0
 11
57.115303
 21
95.178932
 31
0.0
  0
LWPOLYLINE
  5
6C1
100
AcDbEntity
  8
ALPHA
100
AcDbPolyline
 90
       19
 70
     0
 43
0.0
 10
59.068167
 20
96.277035
 10
58.973042
 20
96.616956
 10
58.825736
 20
96.940247
 10
58.630181
 20
97.237428
 10
58.390783
 20
97.501837
 10
58.113242
 20
97.72715
 10
57.804031
 20
97.908118
 10
57.470401
 20
98.040496
 10
57.120165
 20
98.121183
 10
56.761528
 20
98.148291
 10
56.402892
 20
98.121183
 10
56.052656
 20
98.040496
 10
55.719026
 20
97.908118
 10
55.409815
 20
97.72715
 10
55.132274
 20
97.501837
 10
54.892876
 20
97.237428
 10
54.697321
 20
96.940247
 10
54.550015
 20
96.616956
 10
54.45489
 20
96.277035
  0
LWPOLYLINE
  5
6D6
100
AcDbEntity
  8
ALPHA
100
AcDbPolyline
 90
        6
 70
     0
 43
0.0
 10
56.368779
 20
94.503044
 10
56.36635
 20
94.460174
 10
56.364312
 20
94.395546
 10
56.362798
 20
94.31354
 10
56.361848
 20
94.216411
 10
56.361528
 20
94.110458
  0
LINE
  5
6DE
100
AcDbEntity
  8
ALPHA
100
AcDbLine
 10
56.403839
 20
94.927944
 30
0.0
 11
56.368779
 21
94.503044
 31
0.0
  0
LINE
  5
6DF
100
AcDbEntity
  8
ALPHA
100
AcDbLine
 10
56.407111
 20
95.137676
 30
0.0
 11
56.403839
 21
94.927944
 31
0.0
  0
LWPOLYLINE
  5
6E0
100
AcDbEntity
  8
ALPHA
100
AcDbPolyline
 90
        7
 70
     0
 43
0.0
 10
59.068167
 20
96.277035
 10
59.143056
 20
96.275445
 10
59.214108
 20
96.270698
 10
59.274955
 20
96.263254
 10
59.323303
 20
96.253506
 10
59.356617
 20
96.241882
 10
59.372008
 20
96.229481
  0
LINE
  5
6E9
100
AcDbEntity
  8
ALPHA
100
AcDbLine
 10
56.385096
 20
95.283665
 30
0.0
 11
56.385096
 21
95.234424
 31
0.0
  0
LINE
  5
6EA
100
AcDbEntity
  8
ALPHA
100
AcDbLine
 10
56.407111
 20
95.925522
 30
0.0
 11
56.385096
 21
96.071511
 31
0.0
  0
LINE
  5
6EB
100
AcDbEntity
  8
ALPHA
100
AcDbLine
 10
56.403839
 20
96.17865
 30
0.0
 11
56.407111
 21
95.925522
 31
0.0
  0
LINE
  5
6EC
100
AcDbEntity
  8
ALPHA
100
AcDbLine
 10
56.368779
 20
97.068532
 30
0.0
 11
56.403839
 21
96.17865
 31
0.0
  0
LWPOLYLINE
  5
6ED
100
AcDbEntity
  8
ALPHA
100
AcDbPolyline
 90
        6
 70
     0
 43
0.0
 10
56.361528
 20
97.557285
 10
56.361848
 20
97.447098
 10
56.362798
 20
97.337368
 10
56.364312
 20
97.235277
 10
56.36635
 20
97.143628
 10
56.368779
 20
97.068532
  0
LINE
  5
6F5
100
AcDbEntity
  8
ALPHA
100
AcDbLine
 10
56.361528
 20
96.277035
 30
0.0
 11
56.385096
 21
96.120751
 31
0.0
  0
LINE
  5
6F6
100
AcDbEntity
  8
ALPHA
100
AcDbLine
 10
56.385096
 20
96.120751
 30
0.0
 11
56.385096
 21
96.071511
 31
0.0
  0
LINE
  5
6F7
100
AcDbEntity
  8
ALPHA
100
AcDbLine
 10
56.41268
 20
95.494667
 30
0.0
 11
56.407754
 21
95.178932
 31
0.0
  0
LINE
  5
6F8
100
AcDbEntity
  8
ALPHA
100
AcDbLine
 10
56.407754
 20
95.87573
 30
0.0
 11
56.41268
 21
95.494667
 31
0.0
  0
LINE
  5
6F9
100
AcDbEntity
  8
ALPHA
100
AcDbLine
 10
56.407754
 20
95.87573
 30
0.0
 11
56.407754
 21
95.178932
 31
0.0
  0
LWPOLYLINE
  5
6FA
100
AcDbEntity
  8
ALPHA
100
AcDbPolyline
 90
        4
 70
     0
 43
0.0
 10
59.372008
 20
96.229481
 10
59.270762
 20
96.62245
 10
59.108912
 20
96.995224
 10
59.061437
 20
97.080702
  0
LWPOLYLINE
  5
700
100
AcDbEntity
  8
ALPHA
100
AcDbPolyline
 90
        4
 70
     0
 43
0.0
 10
54.151049
 20
96.229481
 10
54.252295
 20
96.62245
 10
54.414145
 20
96.995224
 10
54.46162
 20
97.080702
  0
LINE
  5
706
100
AcDbEntity
  8
ALPHA
100
AcDbLine
 10
54.252295
 20
94.950185
 30
0.0
 11
54.151049
 21
95.343154
 31
0.0
  0
LINE
  5
707
100
AcDbEntity
  8
ALPHA
100
AcDbLine
 10
54.253215
 20
94.948068
 30
0.0
 11
54.252295
 21
94.950185
 31
0.0
  0
LWPOLYLINE
  5
708
100
AcDbEntity
  8
ALPHA
100
AcDbPolyline
 90
        9
 70
     0
 43
0.0
 10
56.761528
 20
93.177579
 10
56.351098
 20
93.209082
 10
55.95058
 20
93.302831
 10
55.569648
 20
93.45656
 10
55.217502
 20
93.666557
 10
54.902647
 20
93.927751
 10
54.632688
 20
94.233833
 10
54.414145
 20
94.57741
 10
54.253215
 20
94.948068
  0
LWPOLYLINE
  5
713
100
AcDbEntity
  8
ALPHA
100
AcDbPolyline
 90
       10
 70
     0
 43
0.0
 10
56.761528
 20
93.177579
 10
57.171959
 20
93.209082
 10
57.572477
 20
93.302831
 10
57.953409
 20
93.45656
 10
58.305555
 20
93.666557
 10
58.62041
 20
93.927751
 10
58.890369
 20
94.233833
 10
59.108912
 20
94.57741
 10
59.270762
 20
94.950185
 10
59.372008
 20
95.343154
  0
LWPOLYLINE
  5
71F
100
AcDbEntity
  8
ALPHA
100
AcDbPolyline
 90
        4
 70
     0
 43
0.0
 10
59.42758
 20
95.234424
 10
59.409002
 20
95.27078
 10
59.390478
 20
95.307024
 10
59.372008
 20
95.343154
  0
LWPOLYLINE
  5
725
100
AcDbEntity
  8
ALPHA
100
AcDbPolyline
 90
        4
 70
     0
 43
0.0
 10
54.151049
 20
95.343154
 10
54.132579
 20
95.307024
 10
54.114055
 20
95.270781
 10
54.095477
 20
95.234424
  0
LINE
  5
72B
100
AcDbEntity
  8
ALPHA
100
AcDbLine
 10
57.137961
 20
95.283665
 30
0.0
 11
57.145387
 21
95.283665
 31
0.0
  0
LINE
  5
72C
100
AcDbEntity
  8
ALPHA
100
AcDbLine
 10
56.37767
 20
95.283665
 30
0.0
 11
56.385096
 21
95.283665
 31
0.0
  0
LINE
  5
72D
100
AcDbEntity
  8
ALPHA
100
AcDbLine
 10
57.115946
 20
95.137676
 30
0.0
 11
56.407111
 21
95.137676
 31
0.0
  0
LINE
  5
72E
100
AcDbEntity
  8
ALPHA
100
AcDbLine
 10
57.115946
 20
95.137676
 30
0.0
 11
57.137961
 21
95.283665
 31
0.0
  0
LINE
  5
72F
100
AcDbEntity
  8
ALPHA
100
AcDbLine
 10
57.145221
 20
95.28257
 30
0.0
 11
57.137961
 21
95.234424
 31
0.0
  0
LINE
  5
730
100
AcDbEntity
  8
ALPHA
100
AcDbLine
 10
57.161528
 20
95.390708
 30
0.0
 11
57.145221
 21
95.28257
 31
0.0
  0
LINE
  5
731
100
AcDbEntity
  8
ALPHA
100
AcDbLine
 10
56.377836
 20
95.28257
 30
0.0
 11
56.385096
 21
95.234424
 31
0.0
  0
LINE
  5
732
100
AcDbEntity
  8
ALPHA
100
AcDbLine
 10
56.361528
 20
95.390708
 30
0.0
 11
56.377836
 21
95.28257
 31
0.0
  0
LINE
  5
733
100
AcDbEntity
  8
ALPHA
100
AcDbLine
 10
56.407111
 20
95.137676
 30
0.0
 11
56.385096
 21
95.283665
 31
0.0
  0
LWPOLYLINE
  5
734
100
AcDbEntity
  8
ALPHA
100
AcDbPolyline
 90
        6
 70
     0
 43
0.0
 10
59.54694
 20
95.304022
 10
59.561528
 20
95.486575
 10
59.527056
 20
95.917937
 10
59.424487
 20
96.338677
 10
59.256347
 20
96.738436
 10
59.192604
 20
96.854611
  0
LINE
  5
73C
100
AcDbEntity
  8
ALPHA
100
AcDbLine
 10
59.256347
 20
94.234714
 30
0.0
 11
59.311528
 21
94.36591
 31
0.0
  0
LWPOLYLINE
  5
73D
100
AcDbEntity
  8
ALPHA
100
AcDbPolyline
 90
        4
 70
     0
 43
0.0
 10
58.512
 20
93.343783
 10
58.741427
 20
93.536755
 10
59.026776
 20
93.86578
 10
59.256347
 20
94.234714
  0
LINE
  5
743
100
AcDbEntity
  8
ALPHA
100
AcDbLine
 10
54.46162
 20
97.080702
 30
0.0
 11
54.330502
 21
96.854753
 31
0.0
  0
LWPOLYLINE
  5
744
100
AcDbEntity
  8
ALPHA
100
AcDbPolyline
 90
       15
 70
     0
 43
0.0
 10
54.461695
 20
97.080831
 10
54.61238
 20
97.311484
 10
54.880128
 20
97.623053
 10
55.193799
 20
97.889674
 10
55.54588
 20
98.104914
 10
55.927716
 20
98.263423
 10
56.329903
 20
98.361288
 10
56.742682
 20
98.39613
 10
57.155882
 20
98.367089
 10
57.559344
 20
98.274913
 10
57.943254
 20
98.121887
 10
58.29828
 20
97.91176
 10
58.615607
 20
97.64983
 10
58.887746
 20
97.34236
 10
59.061349
 20
97.080853
  0
LINE
  5
755
100
AcDbEntity
  8
ALPHA
100
AcDbLine
 10
57.161528
 20
95.390708
 30
0.0
 11
59.068167
 21
95.390708
 31
0.0
  0
LINE
  5
756
100
AcDbEntity
  8
ALPHA
100
AcDbLine
 10
54.45489
 20
95.390708
 30
0.0
 11
56.361528
 21
95.390708
 31
0.0
  0
LWPOLYLINE
  5
757
100
AcDbEntity
  8
ALPHA
100
AcDbPolyline
 90
        7
 70
     0
 43
0.0
 10
54.45489
 20
95.390708
 10
54.380001
 20
95.389118
 10
54.308949
 20
95.384371
 10
54.248102
 20
95.376927
 10
54.199754
 20
95.36718
 10
54.16644
 20
95.355555
 10
54.151049
 20
95.343154
  0
LWPOLYLINE
  5
760
100
AcDbEntity
  8
ALPHA
100
AcDbPolyline
 90
        7
 70
     0
 43
0.0
 10
59.372008
 20
95.343154
 10
59.356617
 20
95.355555
 10
59.323303
 20
95.36718
 10
59.274955
 20
95.376927
 10
59.214108
 20
95.384371
 10
59.143056
 20
95.389118
 10
59.068167
 20
95.390708
  0
LWPOLYLINE
  5
769
100
AcDbEntity
  8
ALPHA
100
AcDbPolyline
 90
        6
 70
     0
 43
0.0
 10
53.965785
 20
95.433315
 10
53.961528
 20
95.486575
 10
53.996001
 20
95.917937
 10
54.09857
 20
96.338677
 10
54.26671
 20
96.738436
 10
54.330453
 20
96.854611
  0
LINE
  5
771
100
AcDbEntity
  8
ALPHA
100
AcDbLine
 10
54.263891
 20
94.241417
 30
0.0
 11
54.2305
 21
94.320804
 31
0.0
  0
LINE
  5
772
100
AcDbEntity
  8
ALPHA
100
AcDbLine
 10
59.061437
 20
97.080702
 30
0.0
 11
59.192555
 21
96.854753
 31
0.0
  0
LWPOLYLINE
  5
773
100
AcDbEntity
  8
ALPHA
100
AcDbPolyline
 90
        4
 70
     0
 43
0.0
 10
74.095477
 20
96.120751
 10
74.114055
 20
96.157107
 10
74.132579
 20
96.19335
 10
74.151049
 20
96.229481
  0
LWPOLYLINE
  5
779
100
AcDbEntity
  8
ALPHA
100
AcDbPolyline
 90
        4
 70
     0
 43
0.0
 10
79.372008
 20
96.229481
 10
79.390478
 20
96.193351
 10
79.409002
 20
96.157108
 10
79.42758
 20
96.120751
  0
LINE
  5
77F
100
AcDbEntity
  8
ALPHA
100
AcDbLine
 10
76.361528
 20
97.557285
 30
0.0
 11
76.361528
 21
96.277035
 31
0.0
  0
LINE
  5
780
100
AcDbEntity
  8
ALPHA
100
AcDbLine
 10
77.161528
 20
97.557285
 30
0.0
 11
76.361528
 21
97.557285
 31
0.0
  0
LINE
  5
781
100
AcDbEntity
  8
ALPHA
100
AcDbLine
 10
77.137961
 20
96.120751
 30
0.0
 11
79.42758
 21
96.120751
 31
0.0
  0
LWPOLYLINE
  5
782
100
AcDbEntity
  8
ALPHA
100
AcDbPolyline
 90
        4
 70
     0
 43
0.0
 10
79.42758
 20
96.120751
 10
79.461075
 20
95.826231
 10
79.461075
 20
95.528945
 10
79.42758
 20
95.234424
  0
LINE
  5
788
100
AcDbEntity
  8
ALPHA
100
AcDbLine
 10
74.095477
 20
96.120751
 30
0.0
 11
76.385096
 21
96.120751
 31
0.0
  0
LWPOLYLINE
  5
789
100
AcDbEntity
  8
ALPHA
100
AcDbPolyline
 90
        4
 70
     0
 43
0.0
 10
74.095477
 20
95.234424
 10
74.061982
 20
95.528945
 10
74.061982
 20
95.826231
 10
74.095477
 20
96.120751
  0
LINE
  5
78F
100
AcDbEntity
  8
ALPHA
100
AcDbLine
 10
76.126528
 20
95.390708
 30
0.0
 11
76.126528
 21
95.94722
 31
0.0
  0
LINE
  5
790
100
AcDbEntity
  8
ALPHA
100
AcDbLine
 10
75.769661
 20
96.071511
 30
0.0
 11
75.769661
 21
95.390708
 31
0.0
  0
LINE
  5
791
100
AcDbEntity
  8
ALPHA
100
AcDbLine
 10
77.396528
 20
95.390708
 30
0.0
 11
77.396528
 21
95.94722
 31
0.0
  0
LINE
  5
792
100
AcDbEntity
  8
ALPHA
100
AcDbLine
 10
77.753396
 20
96.071511
 30
0.0
 11
77.753396
 21
95.390708
 31
0.0
  0
LINE
  5
793
100
AcDbEntity
  8
ALPHA
100
AcDbLine
 10
76.761528
 20
95.137676
 30
0.0
 11
76.761528
 21
95.494667
 31
0.0
  0
LINE
  5
794
100
AcDbEntity
  8
ALPHA
100
AcDbLine
 10
76.761528
 20
95.494667
 30
0.0
 11
76.761528
 21
95.88859
 31
0.0
  0
LINE
  5
795
100
AcDbEntity
  8
ALPHA
100
AcDbLine
 10
75.769661
 20
96.071511
 30
0.0
 11
76.126528
 21
95.94722
 31
0.0
  0
LINE
  5
796
100
AcDbEntity
  8
ALPHA
100
AcDbLine
 10
76.126528
 20
95.94722
 30
0.0
 11
76.761528
 21
95.88859
 31
0.0
  0
LINE
  5
797
100
AcDbEntity
  8
ALPHA
100
AcDbLine
 10
76.761528
 20
95.88859
 30
0.0
 11
77.396528
 21
95.94722
 31
0.0
  0
LINE
  5
798
100
AcDbEntity
  8
ALPHA
100
AcDbLine
 10
77.396528
 20
95.94722
 30
0.0
 11
77.753396
 21
96.071511
 31
0.0
  0
LINE
  5
799
100
AcDbEntity
  8
ALPHA
100
AcDbLine
 10
77.137961
 20
96.071511
 30
0.0
 11
77.753396
 21
96.071511
 31
0.0
  0
LINE
  5
79A
100
AcDbEntity
  8
ALPHA
100
AcDbLine
 10
75.769661
 20
96.071511
 30
0.0
 11
76.385096
 21
96.071511
 31
0.0
  0
LINE
  5
79B
100
AcDbEntity
  8
ALPHA
100
AcDbLine
 10
77.161528
 20
97.557285
 30
0.0
 11
77.161528
 21
96.277035
 31
0.0
  0
LINE
  5
79C
100
AcDbEntity
  8
ALPHA
100
AcDbLine
 10
77.161528
 20
96.277035
 30
0.0
 11
79.068167
 21
96.277035
 31
0.0
  0
LINE
  5
79D
100
AcDbEntity
  8
ALPHA
100
AcDbLine
 10
74.45489
 20
96.277035
 30
0.0
 11
76.361528
 21
96.277035
 31
0.0
  0
LWPOLYLINE
  5
79E
100
AcDbEntity
  8
ALPHA
100
AcDbPolyline
 90
       19
 70
     0
 43
0.0
 10
74.45489
 20
95.390708
 10
74.550015
 20
95.050787
 10
74.697321
 20
94.727496
 10
74.892876
 20
94.430315
 10
75.132274
 20
94.165906
 10
75.409815
 20
93.940593
 10
75.719026
 20
93.759625
 10
76.052656
 20
93.627247
 10
76.402892
 20
93.546559
 10
76.761528
 20
93.519452
 10
77.120165
 20
93.546559
 10
77.470401
 20
93.627247
 10
77.804031
 20
93.759625
 10
78.113242
 20
93.940593
 10
78.390783
 20
94.165906
 10
78.630181
 20
94.430315
 10
78.825736
 20
94.727496
 10
78.973042
 20
95.050787
 10
79.068167
 20
95.390708
  0
LINE
  5
7B3
100
AcDbEntity
  8
ALPHA
100
AcDbLine
 10
77.161528
 20
95.390708
 30
0.0
 11
77.161528
 21
94.110458
 31
0.0
  0
LINE
  5
7B4
100
AcDbEntity
  8
ALPHA
100
AcDbLine
 10
77.161528
 20
94.110458
 30
0.0
 11
76.361528
 21
94.110458
 31
0.0
  0
LINE
  5
7B5
100
AcDbEntity
  8
ALPHA
100
AcDbLine
 10
76.761528
 20
95.494667
 30
0.0
 11
76.407754
 21
95.87573
 31
0.0
  0
LINE
  5
7B6
100
AcDbEntity
  8
ALPHA
100
AcDbLine
 10
76.761528
 20
95.494667
 30
0.0
 11
77.115303
 21
95.87573
 31
0.0
  0
LINE
  5
7B7
100
AcDbEntity
  8
ALPHA
100
AcDbLine
 10
76.403839
 20
96.17865
 30
0.0
 11
77.119218
 21
96.17865
 31
0.0
  0
LINE
  5
7B8
100
AcDbEntity
  8
ALPHA
100
AcDbLine
 10
77.115946
 20
95.925522
 30
0.0
 11
76.407111
 21
95.925522
 31
0.0
  0
LINE
  5
7B9
100
AcDbEntity
  8
ALPHA
100
AcDbLine
 10
76.368779
 20
97.068532
 30
0.0
 11
77.154278
 21
97.068532
 31
0.0
  0
LINE
  5
7BA
100
AcDbEntity
  8
ALPHA
100
AcDbLine
 10
76.368779
 20
94.503044
 30
0.0
 11
77.154278
 21
94.503044
 31
0.0
  0
LINE
  5
7BB
100
AcDbEntity
  8
ALPHA
100
AcDbLine
 10
76.403839
 20
94.927944
 30
0.0
 11
77.119218
 21
94.927944
 31
0.0
  0
LINE
  5
7BC
100
AcDbEntity
  8
ALPHA
100
AcDbLine
 10
76.41268
 20
95.494667
 30
0.0
 11
76.761528
 21
95.494667
 31
0.0
  0
LINE
  5
7BD
100
AcDbEntity
  8
ALPHA
100
AcDbLine
 10
76.761528
 20
95.494667
 30
0.0
 11
76.407754
 21
95.178932
 31
0.0
  0
LINE
  5
7BE
100
AcDbEntity
  8
ALPHA
100
AcDbLine
 10
76.761528
 20
95.494667
 30
0.0
 11
77.110377
 21
95.494667
 31
0.0
  0
LINE
  5
7BF
100
AcDbEntity
  8
ALPHA
100
AcDbLine
 10
76.761528
 20
95.494667
 30
0.0
 11
77.115303
 21
95.178932
 31
0.0
  0
LINE
  5
7C0
100
AcDbEntity
  8
ALPHA
100
AcDbLine
 10
76.361528
 20
95.390708
 30
0.0
 11
76.361528
 21
94.110458
 31
0.0
  0
LINE
  5
7C1
100
AcDbEntity
  8
ALPHA
100
AcDbLine
 10
77.115946
 20
95.137676
 30
0.0
 11
77.119218
 21
94.927944
 31
0.0
  0
LINE
  5
7C2
100
AcDbEntity
  8
ALPHA
100
AcDbLine
 10
77.119218
 20
94.927944
 30
0.0
 11
77.154278
 21
94.503044
 31
0.0
  0
LWPOLYLINE
  5
7C3
100
AcDbEntity
  8
ALPHA
100
AcDbPolyline
 90
        6
 70
     0
 43
0.0
 10
77.154278
 20
94.503044
 10
77.156707
 20
94.460174
 10
77.158745
 20
94.395546
 10
77.160259
 20
94.31354
 10
77.161209
 20
94.216411
 10
77.161528
 20
94.110458
  0
LWPOLYLINE
  5
7CB
100
AcDbEntity
  8
ALPHA
100
AcDbPolyline
 90
        7
 70
     0
 43
0.0
 10
74.151049
 20
96.229481
 10
74.16644
 20
96.241882
 10
74.199754
 20
96.253506
 10
74.248102
 20
96.263254
 10
74.308949
 20
96.270698
 10
74.380001
 20
96.275445
 10
74.45489
 20
96.277035
  0
LINE
  5
7D4
100
AcDbEntity
  8
ALPHA
100
AcDbLine
 10
77.137961
 20
95.283665
 30
0.0
 11
77.137961
 21
95.234424
 31
0.0
  0
LINE
  5
7D5
100
AcDbEntity
  8
ALPHA
100
AcDbLine
 10
77.161528
 20
96.277035
 30
0.0
 11
77.137961
 21
96.120751
 31
0.0
  0
LWPOLYLINE
  5
7D6
100
AcDbEntity
  8
ALPHA
100
AcDbPolyline
 90
        6
 70
     0
 43
0.0
 10
77.161528
 20
97.557285
 10
77.161209
 20
97.447098
 10
77.160259
 20
97.337368
 10
77.158745
 20
97.235277
 10
77.156707
 20
97.143628
 10
77.154278
 20
97.068532
  0
LINE
  5
7DE
100
AcDbEntity
  8
ALPHA
100
AcDbLine
 10
77.154278
 20
97.068532
 30
0.0
 11
77.119218
 21
96.17865
 31
0.0
  0
LINE
  5
7DF
100
AcDbEntity
  8
ALPHA
100
AcDbLine
 10
77.119218
 20
96.17865
 30
0.0
 11
77.115946
 21
95.925522
 31
0.0
  0
LINE
  5
7E0
100
AcDbEntity
  8
ALPHA
100
AcDbLine
 10
77.115946
 20
95.925522
 30
0.0
 11
77.137961
 21
96.071511
 31
0.0
  0
LINE
  5
7E1
100
AcDbEntity
  8
ALPHA
100
AcDbLine
 10
77.137961
 20
96.120751
 30
0.0
 11
77.137961
 21
96.071511
 31
0.0
  0
LINE
  5
7E2
100
AcDbEntity
  8
ALPHA
100
AcDbLine
 10
77.115303
 20
95.87573
 30
0.0
 11
77.110377
 21
95.494667
 31
0.0
  0
LINE
  5
7E3
100
AcDbEntity
  8
ALPHA
100
AcDbLine
 10
77.110377
 20
95.494667
 30
0.0
 11
77.115303
 21
95.178932
 31
0.0
  0
LINE
  5
7E4
100
AcDbEntity
  8
ALPHA
100
AcDbLine
 10
77.115303
 20
95.87573
 30
0.0
 11
77.115303
 21
95.178932
 31
0.0
  0
LWPOLYLINE
  5
7E5
100
AcDbEntity
  8
ALPHA
100
AcDbPolyline
 90
       19
 70
     0
 43
0.0
 10
79.068167
 20
96.277035
 10
78.973042
 20
96.616956
 10
78.825736
 20
96.940247
 10
78.630181
 20
97.237428
 10
78.390783
 20
97.501837
 10
78.113242
 20
97.72715
 10
77.804031
 20
97.908118
 10
77.470401
 20
98.040496
 10
77.120165
 20
98.121183
 10
76.761528
 20
98.148291
 10
76.402892
 20
98.121183
 10
76.052656
 20
98.040496
 10
75.719026
 20
97.908118
 10
75.409815
 20
97.72715
 10
75.132274
 20
97.501837
 10
74.892876
 20
97.237428
 10
74.697321
 20
96.940247
 10
74.550015
 20
96.616956
 10
74.45489
 20
96.277035
  0
LWPOLYLINE
  5
7FA
100
AcDbEntity
  8
ALPHA
100
AcDbPolyline
 90
        6
 70
     0
 43
0.0
 10
76.368779
 20
94.503044
 10
76.36635
 20
94.460174
 10
76.364312
 20
94.395546
 10
76.362798
 20
94.31354
 10
76.361848
 20
94.216411
 10
76.361528
 20
94.110458
  0
LINE
  5
802
100
AcDbEntity
  8
ALPHA
100
AcDbLine
 10
76.403839
 20
94.927944
 30
0.0
 11
76.368779
 21
94.503044
 31
0.0
  0
LINE
  5
803
100
AcDbEntity
  8
ALPHA
100
AcDbLine
 10
76.407111
 20
95.137676
 30
0.0
 11
76.403839
 21
94.927944
 31
0.0
  0
LWPOLYLINE
  5
804
100
AcDbEntity
  8
ALPHA
100
AcDbPolyline
 90
        7
 70
     0
 43
0.0
 10
79.068167
 20
96.277035
 10
79.143056
 20
96.275445
 10
79.214108
 20
96.270698
 10
79.274955
 20
96.263254
 10
79.323303
 20
96.253506
 10
79.356617
 20
96.241882
 10
79.372008
 20
96.229481
  0
LINE
  5
80D
100
AcDbEntity
  8
ALPHA
100
AcDbLine
 10
76.385096
 20
95.283665
 30
0.0
 11
76.385096
 21
95.234424
 31
0.0
  0
LINE
  5
80E
100
AcDbEntity
  8
ALPHA
100
AcDbLine
 10
76.407111
 20
95.925522
 30
0.0
 11
76.385096
 21
96.071511
 31
0.0
  0
LINE
  5
80F
100
AcDbEntity
  8
ALPHA
100
AcDbLine
 10
76.403839
 20
96.17865
 30
0.0
 11
76.407111
 21
95.925522
 31
0.0
  0
LINE
  5
810
100
AcDbEntity
  8
ALPHA
100
AcDbLine
 10
76.368779
 20
97.068532
 30
0.0
 11
76.403839
 21
96.17865
 31
0.0
  0
LWPOLYLINE
  5
811
100
AcDbEntity
  8
ALPHA
100
AcDbPolyline
 90
        6
 70
     0
 43
0.0
 10
76.361528
 20
97.557285
 10
76.361848
 20
97.447098
 10
76.362798
 20
97.337368
 10
76.364312
 20
97.235277
 10
76.36635
 20
97.143628
 10
76.368779
 20
97.068532
  0
LINE
  5
819
100
AcDbEntity
  8
ALPHA
100
AcDbLine
 10
76.361528
 20
96.277035
 30
0.0
 11
76.385096
 21
96.120751
 31
0.0
  0
LINE
  5
81A
100
AcDbEntity
  8
ALPHA
100
AcDbLine
 10
76.385096
 20
96.120751
 30
0.0
 11
76.385096
 21
96.071511
 31
0.0
  0
LINE
  5
81B
100
AcDbEntity
  8
ALPHA
100
AcDbLine
 10
76.41268
 20
95.494667
 30
0.0
 11
76.407754
 21
95.178932
 31
0.0
  0
LINE
  5
81C
100
AcDbEntity
  8
ALPHA
100
AcDbLine
 10
76.407754
 20
95.87573
 30
0.0
 11
76.41268
 21
95.494667
 31
0.0
  0
LINE
  5
81D
100
AcDbEntity
  8
ALPHA
100
AcDbLine
 10
76.407754
 20
95.87573
 30
0.0
 11
76.407754
 21
95.178932
 31
0.0
  0
LWPOLYLINE
  5
81E
100
AcDbEntity
  8
ALPHA
100
AcDbPolyline
 90
        4
 70
     0
 43
0.0
 10
79.372008
 20
96.229481
 10
79.270762
 20
96.62245
 10
79.108912
 20
96.995224
 10
79.061437
 20
97.080702
  0
LWPOLYLINE
  5
824
100
AcDbEntity
  8
ALPHA
100
AcDbPolyline
 90
        4
 70
     0
 43
0.0
 10
74.151049
 20
96.229481
 10
74.252295
 20
96.62245
 10
74.414145
 20
96.995224
 10
74.46162
 20
97.080702
  0
LINE
  5
82A
100
AcDbEntity
  8
ALPHA
100
AcDbLine
 10
74.252295
 20
94.950185
 30
0.0
 11
74.151049
 21
95.343154
 31
0.0
  0
LINE
  5
82B
100
AcDbEntity
  8
ALPHA
100
AcDbLine
 10
74.253215
 20
94.948068
 30
0.0
 11
74.252295
 21
94.950185
 31
0.0
  0
LWPOLYLINE
  5
82C
100
AcDbEntity
  8
ALPHA
100
AcDbPolyline
 90
        9
 70
     0
 43
0.0
 10
76.761528
 20
93.177579
 10
76.351098
 20
93.209082
 10
75.95058
 20
93.302831
 10
75.569648
 20
93.45656
 10
75.217502
 20
93.666557
 10
74.902647
 20
93.927751
 10
74.632688
 20
94.233833
 10
74.414145
 20
94.57741
 10
74.253215
 20
94.948068
  0
LWPOLYLINE
  5
837
100
AcDbEntity
  8
ALPHA
100
AcDbPolyline
 90
       10
 70
     0
 43
0.0
 10
76.761528
 20
93.177579
 10
77.171959
 20
93.209082
 10
77.572477
 20
93.302831
 10
77.953409
 20
93.45656
 10
78.305555
 20
93.666557
 10
78.62041
 20
93.927751
 10
78.890369
 20
94.233833
 10
79.108912
 20
94.57741
 10
79.270762
 20
94.950185
 10
79.372008
 20
95.343154
  0
LWPOLYLINE
  5
843
100
AcDbEntity
  8
ALPHA
100
AcDbPolyline
 90
        4
 70
     0
 43
0.0
 10
79.42758
 20
95.234424
 10
79.409002
 20
95.27078
 10
79.390478
 20
95.307024
 10
79.372008
 20
95.343154
  0
LWPOLYLINE
  5
849
100
AcDbEntity
  8
ALPHA
100
AcDbPolyline
 90
        4
 70
     0
 43
0.0
 10
74.151049
 20
95.343154
 10
74.132579
 20
95.307024
 10
74.114055
 20
95.270781
 10
74.095477
 20
95.234424
  0
LINE
  5
84F
100
AcDbEntity
  8
ALPHA
100
AcDbLine
 10
77.137961
 20
95.283665
 30
0.0
 11
77.145387
 21
95.283665
 31
0.0
  0
LINE
  5
850
100
AcDbEntity
  8
ALPHA
100
AcDbLine
 10
76.37767
 20
95.283665
 30
0.0
 11
76.385096
 21
95.283665
 31
0.0
  0
LINE
  5
851
100
AcDbEntity
  8
ALPHA
100
AcDbLine
 10
77.115946
 20
95.137676
 30
0.0
 11
76.407111
 21
95.137676
 31
0.0
  0
LINE
  5
852
100
AcDbEntity
  8
ALPHA
100
AcDbLine
 10
77.115946
 20
95.137676
 30
0.0
 11
77.137961
 21
95.283665
 31
0.0
  0
LINE
  5
853
100
AcDbEntity
  8
ALPHA
100
AcDbLine
 10
77.145221
 20
95.28257
 30
0.0
 11
77.137961
 21
95.234424
 31
0.0
  0
LINE
  5
854
100
AcDbEntity
  8
ALPHA
100
AcDbLine
 10
77.161528
 20
95.390708
 30
0.0
 11
77.145221
 21
95.28257
 31
0.0
  0
LINE
  5
855
100
AcDbEntity
  8
ALPHA
100
AcDbLine
 10
76.377836
 20
95.28257
 30
0.0
 11
76.385096
 21
95.234424
 31
0.0
  0
LINE
  5
856
100
AcDbEntity
  8
ALPHA
100
AcDbLine
 10
76.361528
 20
95.390708
 30
0.0
 11
76.377836
 21
95.28257
 31
0.0
  0
LINE
  5
857
100
AcDbEntity
  8
ALPHA
100
AcDbLine
 10
76.407111
 20
95.137676
 30
0.0
 11
76.385096
 21
95.283665
 31
0.0
  0
LWPOLYLINE
  5
858
100
AcDbEntity
  8
ALPHA
100
AcDbPolyline
 90
        6
 70
     0
 43
0.0
 10
79.54694
 20
95.304022
 10
79.561528
 20
95.486575
 10
79.527056
 20
95.917937
 10
79.424487
 20
96.338677
 10
79.256347
 20
96.738436
 10
79.192604
 20
96.854611
  0
LINE
  5
860
100
AcDbEntity
  8
ALPHA
100
AcDbLine
 10
79.256347
 20
94.234714
 30
0.0
 11
79.311528
 21
94.36591
 31
0.0
  0
LWPOLYLINE
  5
861
100
AcDbEntity
  8
ALPHA
100
AcDbPolyline
 90
        4
 70
     0
 43
0.0
 10
78.512
 20
93.343783
 10
78.741427
 20
93.536755
 10
79.026776
 20
93.86578
 10
79.256347
 20
94.234714
  0
LINE
  5
867
100
AcDbEntity
  8
ALPHA
100
AcDbLine
 10
74.46162
 20
97.080702
 30
0.0
 11
74.330502
 21
96.854753
 31
0.0
  0
LWPOLYLINE
  5
868
100
AcDbEntity
  8
ALPHA
100
AcDbPolyline
 90
       15
 70
     0
 43
0.0
 10
74.461695
 20
97.080831
 10
74.61238
 20
97.311484
 10
74.880128
 20
97.623053
 10
75.193799
 20
97.889674
 10
75.54588
 20
98.104914
 10
75.927716
 20
98.263423
 10
76.329903
 20
98.361288
 10
76.742682
 20
98.39613
 10
77.155882
 20
98.367089
 10
77.559344
 20
98.274913
 10
77.943254
 20
98.121887
 10
78.29828
 20
97.91176
 10
78.615607
 20
97.64983
 10
78.887746
 20
97.34236
 10
79.061349
 20
97.080853
  0
LINE
  5
879
100
AcDbEntity
  8
ALPHA
100
AcDbLine
 10
77.161528
 20
95.390708
 30
0.0
 11
79.068167
 21
95.390708
 31
0.0
  0
LINE
  5
87A
100
AcDbEntity
  8
ALPHA
100
AcDbLine
 10
74.45489
 20
95.390708
 30
0.0
 11
76.361528
 21
95.390708
 31
0.0
  0
LWPOLYLINE
  5
87B
100
AcDbEntity
  8
ALPHA
100
AcDbPolyline
 90
        7
 70
     0
 43
0.0
 10
74.45489
 20
95.390708
 10
74.380001
 20
95.389118
 10
74.308949
 20
95.384371
 10
74.248102
 20
95.376927
 10
74.199754
 20
95.36718
 10
74.16644
 20
95.355555
 10
74.151049
 20
95.343154
  0
LWPOLYLINE
  5
884
100
AcDbEntity
  8
ALPHA
100
AcDbPolyline
 90
        7
 70
     0
 43
0.0
 10
79.372008
 20
95.343154
 10
79.356617
 20
95.355555
 10
79.323303
 20
95.36718
 10
79.274955
 20
95.376927
 10
79.214108
 20
95.384371
 10
79.143056
 20
95.389118
 10
79.068167
 20
95.390708
  0
LWPOLYLINE
  5
88D
100
AcDbEntity
  8
ALPHA
100
AcDbPolyline
 90
        6
 70
     0
 43
0.0
 10
73.965785
 20
95.433315
 10
73.961528
 20
95.486575
 10
73.996001
 20
95.917937
 10
74.09857
 20
96.338677
 10
74.26671
 20
96.738436
 10
74.330453
 20
96.854611
  0
LINE
  5
895
100
AcDbEntity
  8
ALPHA
100
AcDbLine
 10
74.263891
 20
94.241417
 30
0.0
 11
74.2305
 21
94.320804
 31
0.0
  0
LINE
  5
896
100
AcDbEntity
  8
ALPHA
100
AcDbLine
 10
79.061437
 20
97.080702
 30
0.0
 11
79.192555
 21
96.854753
 31
0.0
  0
LINE
  5
897
100
AcDbEntity
  8
ALPHA
100
AcDbLine
 10
77.137961
 20
114.063518
 30
0.0
 11
79.42758
 21
114.063518
 31
0.0
  0
LWPOLYLINE
  5
898
100
AcDbEntity
  8
ALPHA
100
AcDbPolyline
 90
        4
 70
     0
 43
0.0
 10
79.42758
 20
114.063518
 10
79.409002
 20
114.027162
 10
79.390478
 20
113.990919
 10
79.372008
 20
113.954788
  0
LINE
  5
89E
100
AcDbEntity
  8
ALPHA
100
AcDbLine
 10
74.095477
 20
114.063518
 30
0.0
 11
76.385096
 21
114.063518
 31
0.0
  0
LWPOLYLINE
  5
89F
100
AcDbEntity
  8
ALPHA
100
AcDbPolyline
 90
        4
 70
     0
 43
0.0
 10
74.151049
 20
113.954788
 10
74.132579
 20
113.990918
 10
74.114055
 20
114.027161
 10
74.095477
 20
114.063518
  0
LINE
  5
8A5
100
AcDbEntity
  8
ALPHA
100
AcDbLine
 10
76.361528
 20
116.073811
 30
0.0
 11
76.361528
 21
114.793561
 31
0.0
  0
LWPOLYLINE
  5
8A6
100
AcDbEntity
  8
ALPHA
100
AcDbPolyline
 90
        4
 70
     0
 43
0.0
 10
79.447676
 20
114.773139
 10
79.461075
 20
114.655324
 10
79.461075
 20
114.358038
 10
79.42758
 20
114.063518
  0
LINE
  5
8AC
100
AcDbEntity
  8
ALPHA
100
AcDbLine
 10
77.161528
 20
116.073811
 30
0.0
 11
76.361528
 21
116.073811
 31
0.0
  0
LWPOLYLINE
  5
8AD
100
AcDbEntity
  8
ALPHA
100
AcDbPolyline
 90
        4
 70
     0
 43
0.0
 10
74.095477
 20
114.063518
 10
74.061982
 20
114.358038
 10
74.061982
 20
114.655324
 10
74.064105
 20
114.673991
  0
LINE
  5
8B3
100
AcDbEntity
  8
ALPHA
100
AcDbLine
 10
76.126528
 20
114.237049
 30
0.0
 11
76.126528
 21
114.793561
 31
0.0
  0
LINE
  5
8B4
100
AcDbEntity
  8
ALPHA
100
AcDbLine
 10
75.769661
 20
114.793561
 30
0.0
 11
75.769661
 21
114.112758
 31
0.0
  0
LINE
  5
8B5
100
AcDbEntity
  8
ALPHA
100
AcDbLine
 10
77.396528
 20
114.237049
 30
0.0
 11
77.396528
 21
114.793561
 31
0.0
  0
LINE
  5
8B6
100
AcDbEntity
  8
ALPHA
100
AcDbLine
 10
77.753396
 20
114.793561
 30
0.0
 11
77.753396
 21
114.112758
 31
0.0
  0
LINE
  5
8B7
100
AcDbEntity
  8
ALPHA
100
AcDbLine
 10
76.761528
 20
114.295679
 30
0.0
 11
76.761528
 21
114.689602
 31
0.0
  0
LINE
  5
8B8
100
AcDbEntity
  8
ALPHA
100
AcDbLine
 10
76.761528
 20
114.689602
 30
0.0
 11
76.761528
 21
115.046593
 31
0.0
  0
LINE
  5
8B9
100
AcDbEntity
  8
ALPHA
100
AcDbLine
 10
77.161528
 20
116.073811
 30
0.0
 11
77.161528
 21
114.793561
 31
0.0
  0
LWPOLYLINE
  5
8BA
100
AcDbEntity
  8
ALPHA
100
AcDbPolyline
 90
        7
 70
     0
 43
0.0
 10
79.372008
 20
113.954788
 10
79.356617
 20
113.942387
 10
79.323303
 20
113.930763
 10
79.274955
 20
113.921015
 10
79.214108
 20
113.913571
 10
79.143056
 20
113.908824
 10
79.068167
 20
113.907234
  0
LWPOLYLINE
  5
8C3
100
AcDbEntity
  8
ALPHA
100
AcDbPolyline
 90
       19
 70
     0
 43
0.0
 10
74.45489
 20
113.907234
 10
74.550015
 20
113.567313
 10
74.697321
 20
113.244022
 10
74.892876
 20
112.946842
 10
75.132274
 20
112.682432
 10
75.409815
 20
112.457119
 10
75.719026
 20
112.276151
 10
76.052656
 20
112.143774
 10
76.402892
 20
112.063086
 10
76.761528
 20
112.035978
 10
77.120165
 20
112.063086
 10
77.470401
 20
112.143774
 10
77.804031
 20
112.276151
 10
78.113242
 20
112.457119
 10
78.390783
 20
112.682432
 10
78.630181
 20
112.946842
 10
78.825736
 20
113.244022
 10
78.973042
 20
113.567313
 10
79.068167
 20
113.907234
  0
LINE
  5
8D8
100
AcDbEntity
  8
ALPHA
100
AcDbLine
 10
77.161528
 20
113.907234
 30
0.0
 11
79.068167
 21
113.907234
 31
0.0
  0
LINE
  5
8D9
100
AcDbEntity
  8
ALPHA
100
AcDbLine
 10
77.161528
 20
113.907234
 30
0.0
 11
77.161528
 21
112.626984
 31
0.0
  0
LINE
  5
8DA
100
AcDbEntity
  8
ALPHA
100
AcDbLine
 10
77.137961
 20
114.112758
 30
0.0
 11
77.753396
 21
114.112758
 31
0.0
  0
LINE
  5
8DB
100
AcDbEntity
  8
ALPHA
100
AcDbLine
 10
77.396528
 20
114.237049
 30
0.0
 11
77.753396
 21
114.112758
 31
0.0
  0
LINE
  5
8DC
100
AcDbEntity
  8
ALPHA
100
AcDbLine
 10
76.761528
 20
114.295679
 30
0.0
 11
77.396528
 21
114.237049
 31
0.0
  0
LINE
  5
8DD
100
AcDbEntity
  8
ALPHA
100
AcDbLine
 10
76.126528
 20
114.237049
 30
0.0
 11
76.761528
 21
114.295679
 31
0.0
  0
LINE
  5
8DE
100
AcDbEntity
  8
ALPHA
100
AcDbLine
 10
75.769661
 20
114.112758
 30
0.0
 11
76.126528
 21
114.237049
 31
0.0
  0
LINE
  5
8DF
100
AcDbEntity
  8
ALPHA
100
AcDbLine
 10
75.769661
 20
114.112758
 30
0.0
 11
76.385096
 21
114.112758
 31
0.0
  0
LINE
  5
8E0
100
AcDbEntity
  8
ALPHA
100
AcDbLine
 10
76.761528
 20
114.689602
 30
0.0
 11
76.407754
 21
115.005338
 31
0.0
  0
LINE
  5
8E1
100
AcDbEntity
  8
ALPHA
100
AcDbLine
 10
76.761528
 20
114.689602
 30
0.0
 11
77.115303
 21
115.005338
 31
0.0
  0
LINE
  5
8E2
100
AcDbEntity
  8
ALPHA
100
AcDbLine
 10
76.403839
 20
115.256325
 30
0.0
 11
77.119218
 21
115.256325
 31
0.0
  0
LINE
  5
8E3
100
AcDbEntity
  8
ALPHA
100
AcDbLine
 10
77.161528
 20
112.626984
 30
0.0
 11
76.361528
 21
112.626984
 31
0.0
  0
LINE
  5
8E4
100
AcDbEntity
  8
ALPHA
100
AcDbLine
 10
76.368779
 20
115.681226
 30
0.0
 11
77.154278
 21
115.681226
 31
0.0
  0
LINE
  5
8E5
100
AcDbEntity
  8
ALPHA
100
AcDbLine
 10
76.368779
 20
113.115737
 30
0.0
 11
77.154278
 21
113.115737
 31
0.0
  0
LINE
  5
8E6
100
AcDbEntity
  8
ALPHA
100
AcDbLine
 10
76.403839
 20
114.005619
 30
0.0
 11
77.119218
 21
114.005619
 31
0.0
  0
LINE
  5
8E7
100
AcDbEntity
  8
ALPHA
100
AcDbLine
 10
76.41268
 20
114.689602
 30
0.0
 11
76.761528
 21
114.689602
 31
0.0
  0
LINE
  5
8E8
100
AcDbEntity
  8
ALPHA
100
AcDbLine
 10
76.761528
 20
114.689602
 30
0.0
 11
76.407754
 21
114.308539
 31
0.0
  0
LINE
  5
8E9
100
AcDbEntity
  8
ALPHA
100
AcDbLine
 10
76.761528
 20
114.689602
 30
0.0
 11
77.110377
 21
114.689602
 31
0.0
  0
LINE
  5
8EA
100
AcDbEntity
  8
ALPHA
100
AcDbLine
 10
76.761528
 20
114.689602
 30
0.0
 11
77.115303
 21
114.308539
 31
0.0
  0
LINE
  5
8EB
100
AcDbEntity
  8
ALPHA
100
AcDbLine
 10
77.115946
 20
114.258747
 30
0.0
 11
76.407111
 21
114.258747
 31
0.0
  0
LINE
  5
8EC
100
AcDbEntity
  8
ALPHA
100
AcDbLine
 10
77.115946
 20
114.258747
 30
0.0
 11
77.137961
 21
114.112758
 31
0.0
  0
LINE
  5
8ED
100
AcDbEntity
  8
ALPHA
100
AcDbLine
 10
77.115946
 20
114.258747
 30
0.0
 11
77.119218
 21
114.005619
 31
0.0
  0
LINE
  5
8EE
100
AcDbEntity
  8
ALPHA
100
AcDbLine
 10
77.119218
 20
114.005619
 30
0.0
 11
77.154278
 21
113.115737
 31
0.0
  0
LWPOLYLINE
  5
8EF
100
AcDbEntity
  8
ALPHA
100
AcDbPolyline
 90
        6
 70
     0
 43
0.0
 10
77.154278
 20
113.115737
 10
77.156707
 20
113.040641
 10
77.158745
 20
112.948992
 10
77.160259
 20
112.846901
 10
77.161209
 20
112.737171
 10
77.161528
 20
112.626984
  0
LINE
  5
8F7
100
AcDbEntity
  8
ALPHA
100
AcDbLine
 10
77.161528
 20
113.907234
 30
0.0
 11
77.137961
 21
114.063518
 31
0.0
  0
LINE
  5
8F8
100
AcDbEntity
  8
ALPHA
100
AcDbLine
 10
77.137961
 20
114.112758
 30
0.0
 11
77.137961
 21
114.063518
 31
0.0
  0
LINE
  5
8F9
100
AcDbEntity
  8
ALPHA
100
AcDbLine
 10
76.361528
 20
113.907234
 30
0.0
 11
76.361528
 21
112.626984
 31
0.0
  0
LWPOLYLINE
  5
8FA
100
AcDbEntity
  8
ALPHA
100
AcDbPolyline
 90
        6
 70
     0
 43
0.0
 10
77.161528
 20
116.073811
 10
77.161209
 20
115.967858
 10
77.160259
 20
115.870729
 10
77.158745
 20
115.788724
 10
77.156707
 20
115.724095
 10
77.154278
 20
115.681226
  0
LINE
  5
902
100
AcDbEntity
  8
ALPHA
100
AcDbLine
 10
77.154278
 20
115.681226
 30
0.0
 11
77.119218
 21
115.256325
 31
0.0
  0
LINE
  5
903
100
AcDbEntity
  8
ALPHA
100
AcDbLine
 10
77.119218
 20
115.256325
 30
0.0
 11
77.115946
 21
115.046593
 31
0.0
  0
LINE
  5
904
100
AcDbEntity
  8
ALPHA
100
AcDbLine
 10
74.45489
 20
113.907234
 30
0.0
 11
76.361528
 21
113.907234
 31
0.0
  0
LINE
  5
905
100
AcDbEntity
  8
ALPHA
100
AcDbLine
 10
77.137961
 20
114.949845
 30
0.0
 11
77.137961
 21
114.900604
 31
0.0
  0
LINE
  5
906
100
AcDbEntity
  8
ALPHA
100
AcDbLine
 10
77.115303
 20
115.005338
 30
0.0
 11
77.110377
 21
114.689602
 31
0.0
  0
LINE
  5
907
100
AcDbEntity
  8
ALPHA
100
AcDbLine
 10
77.110377
 20
114.689602
 30
0.0
 11
77.115303
 21
114.308539
 31
0.0
  0
LINE
  5
908
100
AcDbEntity
  8
ALPHA
100
AcDbLine
 10
77.115303
 20
115.005338
 30
0.0
 11
77.115303
 21
114.308539
 31
0.0
  0
LINE
  5
909
100
AcDbEntity
  8
ALPHA
100
AcDbLine
 10
76.361528
 20
113.907234
 30
0.0
 11
76.385096
 21
114.063518
 31
0.0
  0
LWPOLYLINE
  5
90A
100
AcDbEntity
  8
ALPHA
100
AcDbPolyline
 90
        6
 70
     0
 43
0.0
 10
76.368779
 20
113.115737
 10
76.36635
 20
113.040641
 10
76.364312
 20
112.948992
 10
76.362798
 20
112.846901
 10
76.361848
 20
112.737171
 10
76.361528
 20
112.626984
  0
LINE
  5
912
100
AcDbEntity
  8
ALPHA
100
AcDbLine
 10
76.403839
 20
114.005619
 30
0.0
 11
76.368779
 21
113.115737
 31
0.0
  0
LINE
  5
913
100
AcDbEntity
  8
ALPHA
100
AcDbLine
 10
76.407111
 20
114.258747
 30
0.0
 11
76.403839
 21
114.005619
 31
0.0
  0
LINE
  5
914
100
AcDbEntity
  8
ALPHA
100
AcDbLine
 10
76.407111
 20
114.258747
 30
0.0
 11
76.385096
 21
114.112758
 31
0.0
  0
LINE
  5
915
100
AcDbEntity
  8
ALPHA
100
AcDbLine
 10
76.385096
 20
114.112758
 30
0.0
 11
76.385096
 21
114.063518
 31
0.0
  0
LINE
  5
916
100
AcDbEntity
  8
ALPHA
100
AcDbLine
 10
76.403839
 20
115.256325
 30
0.0
 11
76.407111
 21
115.046593
 31
0.0
  0
LINE
  5
917
100
AcDbEntity
  8
ALPHA
100
AcDbLine
 10
76.368779
 20
115.681226
 30
0.0
 11
76.403839
 21
115.256325
 31
0.0
  0
LWPOLYLINE
  5
918
100
AcDbEntity
  8
ALPHA
100
AcDbPolyline
 90
        6
 70
     0
 43
0.0
 10
76.361528
 20
116.073811
 10
76.361848
 20
115.967858
 10
76.362798
 20
115.870729
 10
76.364312
 20
115.788724
 10
76.36635
 20
115.724095
 10
76.368779
 20
115.681226
  0
LWPOLYLINE
  5
920
100
AcDbEntity
  8
ALPHA
100
AcDbPolyline
 90
        3
 70
     0
 43
0.0
 10
74.586446
 20
115.213438
 10
74.550015
 20
115.133483
 10
74.45489
 20
114.793561
  0
LINE
  5
925
100
AcDbEntity
  8
ALPHA
100
AcDbLine
 10
78.897663
 20
115.298916
 30
0.0
 11
78.872428
 21
115.354299
 31
0.0
  0
LWPOLYLINE
  5
926
100
AcDbEntity
  8
ALPHA
100
AcDbPolyline
 90
        3
 70
     0
 43
0.0
 10
79.068167
 20
114.793561
 10
78.973042
 20
115.133483
 10
78.897663
 20
115.298916
  0
LINE
  5
92B
100
AcDbEntity
  8
ALPHA
100
AcDbLine
 10
76.385096
 20
114.949845
 30
0.0
 11
76.385096
 21
114.900604
 31
0.0
  0
LINE
  5
92C
100
AcDbEntity
  8
ALPHA
100
AcDbLine
 10
76.41268
 20
114.689602
 30
0.0
 11
76.407754
 21
114.308539
 31
0.0
  0
LINE
  5
92D
100
AcDbEntity
  8
ALPHA
100
AcDbLine
 10
76.407754
 20
115.005338
 30
0.0
 11
76.41268
 21
114.689602
 31
0.0
  0
LINE
  5
92E
100
AcDbEntity
  8
ALPHA
100
AcDbLine
 10
76.407754
 20
115.005338
 30
0.0
 11
76.407754
 21
114.308539
 31
0.0
  0
LWPOLYLINE
  5
92F
100
AcDbEntity
  8
ALPHA
100
AcDbPolyline
 90
        4
 70
     0
 43
0.0
 10
79.061437
 20
113.103567
 10
79.108912
 20
113.189045
 10
79.270762
 20
113.56182
 10
79.372008
 20
113.954788
  0
LINE
  5
935
100
AcDbEntity
  8
ALPHA
100
AcDbLine
 10
79.372008
 20
114.841115
 30
0.0
 11
79.358195
 21
114.894728
 31
0.0
  0
LWPOLYLINE
  5
936
100
AcDbEntity
  8
ALPHA
100
AcDbPolyline
 90
        7
 70
     0
 43
0.0
 10
74.45489
 20
113.907234
 10
74.380001
 20
113.908824
 10
74.308949
 20
113.913571
 10
74.248102
 20
113.921015
 10
74.199754
 20
113.930763
 10
74.16644
 20
113.942387
 10
74.151049
 20
113.954788
  0
LWPOLYLINE
  5
93F
100
AcDbEntity
  8
ALPHA
100
AcDbPolyline
 90
        4
 70
     0
 43
0.0
 10
74.46162
 20
113.103567
 10
74.414145
 20
113.189045
 10
74.252295
 20
113.56182
 10
74.151049
 20
113.954788
  0
LINE
  5
945
100
AcDbEntity
  8
ALPHA
100
AcDbLine
 10
79.372008
 20
114.841115
 30
0.0
 11
79.384463
 21
114.865478
 31
0.0
  0
LINE
  5
946
100
AcDbEntity
  8
ALPHA
100
AcDbLine
 10
77.137961
 20
114.900604
 30
0.0
 11
77.145387
 21
114.900604
 31
0.0
  0
LINE
  5
947
100
AcDbEntity
  8
ALPHA
100
AcDbLine
 10
76.37767
 20
114.900604
 30
0.0
 11
76.385096
 21
114.900604
 31
0.0
  0
LINE
  5
948
100
AcDbEntity
  8
ALPHA
100
AcDbLine
 10
77.115946
 20
115.046593
 30
0.0
 11
76.407111
 21
115.046593
 31
0.0
  0
LINE
  5
949
100
AcDbEntity
  8
ALPHA
100
AcDbLine
 10
77.145221
 20
114.901699
 30
0.0
 11
77.137961
 21
114.949845
 31
0.0
  0
LINE
  5
94A
100
AcDbEntity
  8
ALPHA
100
AcDbLine
 10
77.161528
 20
114.793561
 30
0.0
 11
77.145221
 21
114.901699
 31
0.0
  0
LINE
  5
94B
100
AcDbEntity
  8
ALPHA
100
AcDbLine
 10
77.115946
 20
115.046593
 30
0.0
 11
77.137961
 21
114.900604
 31
0.0
  0
LINE
  5
94C
100
AcDbEntity
  8
ALPHA
100
AcDbLine
 10
76.407111
 20
115.046593
 30
0.0
 11
76.385096
 21
114.900604
 31
0.0
  0
LINE
  5
94D
100
AcDbEntity
  8
ALPHA
100
AcDbLine
 10
76.377836
 20
114.901699
 30
0.0
 11
76.385096
 21
114.949845
 31
0.0
  0
LINE
  5
94E
100
AcDbEntity
  8
ALPHA
100
AcDbLine
 10
76.361528
 20
114.793561
 30
0.0
 11
76.377836
 21
114.901699
 31
0.0
  0
LINE
  5
94F
100
AcDbEntity
  8
ALPHA
100
AcDbLine
 10
74.46162
 20
113.103567
 30
0.0
 11
74.330502
 21
113.329516
 31
0.0
  0
LINE
  5
950
100
AcDbEntity
  8
ALPHA
100
AcDbLine
 10
73.977006
 20
114.504023
 30
0.0
 11
73.974293
 21
114.537965
 31
0.0
  0
LWPOLYLINE
  5
951
100
AcDbEntity
  8
ALPHA
100
AcDbPolyline
 90
        5
 70
     0
 43
0.0
 10
74.330453
 20
113.329658
 10
74.26671
 20
113.445833
 10
74.09857
 20
113.845592
 10
73.996001
 20
114.266332
 10
73.977006
 20
114.504023
  0
LINE
  5
958
100
AcDbEntity
  8
ALPHA
100
AcDbLine
 10
77.161528
 20
114.793561
 30
0.0
 11
79.068167
 21
114.793561
 31
0.0
  0
LINE
  5
959
100
AcDbEntity
  8
ALPHA
100
AcDbLine
 10
74.45489
 20
114.793561
 30
0.0
 11
76.361528
 21
114.793561
 31
0.0
  0
LWPOLYLINE
  5
95A
100
AcDbEntity
  8
ALPHA
100
AcDbPolyline
 90
        6
 70
     0
 43
0.0
 10
74.17074
 20
114.827214
 10
74.199754
 20
114.81709
 10
74.248102
 20
114.807342
 10
74.308949
 20
114.799898
 10
74.380001
 20
114.795151
 10
74.45489
 20
114.793561
  0
LWPOLYLINE
  5
962
100
AcDbEntity
  8
ALPHA
100
AcDbPolyline
 90
        7
 70
     0
 43
0.0
 10
79.068167
 20
114.793561
 10
79.143056
 20
114.795151
 10
79.214108
 20
114.799898
 10
79.274955
 20
114.807342
 10
79.323303
 20
114.81709
 10
79.356617
 20
114.828714
 10
79.372008
 20
114.841115
  0
LWPOLYLINE
  5
96B
100
AcDbEntity
  8
ALPHA
100
AcDbPolyline
 90
       15
 70
     0
 43
0.0
 10
79.061349
 20
113.103415
 10
78.88748
 20
112.841557
 10
78.615099
 20
112.533948
 10
78.297481
 20
112.271949
 10
77.942164
 20
112.061847
 10
77.558006
 20
111.90894
 10
77.15438
 20
111.816957
 10
76.741126
 20
111.78815
 10
76.328411
 20
111.823224
 10
75.9264
 20
111.921277
 10
75.544817
 20
112.079897
 10
75.193029
 20
112.295153
 10
74.879642
 20
112.5617
 10
74.612132
 20
112.873124
 10
74.461694
 20
113.103439
  0
LINE
  5
97C
100
AcDbEntity
  8
ALPHA
100
AcDbLine
 10
79.061437
 20
113.103567
 30
0.0
 11
79.192555
 21
113.329516
 31
0.0
  0
LWPOLYLINE
  5
97D
100
AcDbEntity
  8
ALPHA
100
AcDbPolyline
 90
        5
 70
     0
 43
0.0
 10
79.192604
 20
113.329658
 10
79.256347
 20
113.445833
 10
79.424487
 20
113.845592
 10
79.527056
 20
114.266332
 10
79.552076
 20
114.579409
  0
LINE
  5
984
100
AcDbEntity
  8
ALPHA
100
AcDbLine
 10
57.137961
 20
114.063518
 30
0.0
 11
59.42758
 21
114.063518
 31
0.0
  0
LWPOLYLINE
  5
985
100
AcDbEntity
  8
ALPHA
100
AcDbPolyline
 90
        4
 70
     0
 43
0.0
 10
59.42758
 20
114.063518
 10
59.409002
 20
114.027162
 10
59.390478
 20
113.990919
 10
59.372008
 20
113.954788
  0
LINE
  5
98B
100
AcDbEntity
  8
ALPHA
100
AcDbLine
 10
54.095477
 20
114.063518
 30
0.0
 11
56.385096
 21
114.063518
 31
0.0
  0
LWPOLYLINE
  5
98C
100
AcDbEntity
  8
ALPHA
100
AcDbPolyline
 90
        4
 70
     0
 43
0.0
 10
54.151049
 20
113.954788
 10
54.132579
 20
113.990918
 10
54.114055
 20
114.027161
 10
54.095477
 20
114.063518
  0
LINE
  5
992
100
AcDbEntity
  8
ALPHA
100
AcDbLine
 10
56.361528
 20
116.073811
 30
0.0
 11
56.361528
 21
114.793561
 31
0.0
  0
LWPOLYLINE
  5
993
100
AcDbEntity
  8
ALPHA
100
AcDbPolyline
 90
        4
 70
     0
 43
0.0
 10
59.447676
 20
114.773139
 10
59.461075
 20
114.655324
 10
59.461075
 20
114.358038
 10
59.42758
 20
114.063518
  0
LINE
  5
999
100
AcDbEntity
  8
ALPHA
100
AcDbLine
 10
57.161528
 20
116.073811
 30
0.0
 11
56.361528
 21
116.073811
 31
0.0
  0
LWPOLYLINE
  5
99A
100
AcDbEntity
  8
ALPHA
100
AcDbPolyline
 90
        4
 70
     0
 43
0.0
 10
54.095477
 20
114.063518
 10
54.061982
 20
114.358038
 10
54.061982
 20
114.655324
 10
54.064105
 20
114.673991
  0
LINE
  5
9A0
100
AcDbEntity
  8
ALPHA
100
AcDbLine
 10
56.126528
 20
114.237049
 30
0.0
 11
56.126528
 21
114.793561
 31
0.0
  0
LINE
  5
9A1
100
AcDbEntity
  8
ALPHA
100
AcDbLine
 10
55.769661
 20
114.793561
 30
0.0
 11
55.769661
 21
114.112758
 31
0.0
  0
LINE
  5
9A2
100
AcDbEntity
  8
ALPHA
100
AcDbLine
 10
57.396528
 20
114.237049
 30
0.0
 11
57.396528
 21
114.793561
 31
0.0
  0
LINE
  5
9A3
100
AcDbEntity
  8
ALPHA
100
AcDbLine
 10
57.753396
 20
114.793561
 30
0.0
 11
57.753396
 21
114.112758
 31
0.0
  0
LINE
  5
9A4
100
AcDbEntity
  8
ALPHA
100
AcDbLine
 10
56.761528
 20
114.295679
 30
0.0
 11
56.761528
 21
114.689602
 31
0.0
  0
LINE
  5
9A5
100
AcDbEntity
  8
ALPHA
100
AcDbLine
 10
56.761528
 20
114.689602
 30
0.0
 11
56.761528
 21
115.046593
 31
0.0
  0
LINE
  5
9A6
100
AcDbEntity
  8
ALPHA
100
AcDbLine
 10
57.161528
 20
116.073811
 30
0.0
 11
57.161528
 21
114.793561
 31
0.0
  0
LWPOLYLINE
  5
9A7
100
AcDbEntity
  8
ALPHA
100
AcDbPolyline
 90
        7
 70
     0
 43
0.0
 10
59.372008
 20
113.954788
 10
59.356617
 20
113.942387
 10
59.323303
 20
113.930763
 10
59.274955
 20
113.921015
 10
59.214108
 20
113.913571
 10
59.143056
 20
113.908824
 10
59.068167
 20
113.907234
  0
LWPOLYLINE
  5
9B0
100
AcDbEntity
  8
ALPHA
100
AcDbPolyline
 90
       19
 70
     0
 43
0.0
 10
54.45489
 20
113.907234
 10
54.550015
 20
113.567313
 10
54.697321
 20
113.244022
 10
54.892876
 20
112.946842
 10
55.132274
 20
112.682432
 10
55.409815
 20
112.457119
 10
55.719026
 20
112.276151
 10
56.052656
 20
112.143774
 10
56.402892
 20
112.063086
 10
56.761528
 20
112.035978
 10
57.120165
 20
112.063086
 10
57.470401
 20
112.143774
 10
57.804031
 20
112.276151
 10
58.113242
 20
112.457119
 10
58.390783
 20
112.682432
 10
58.630181
 20
112.946842
 10
58.825736
 20
113.244022
 10
58.973042
 20
113.567313
 10
59.068167
 20
113.907234
  0
LINE
  5
9C5
100
AcDbEntity
  8
ALPHA
100
AcDbLine
 10
57.161528
 20
113.907234
 30
0.0
 11
59.068167
 21
113.907234
 31
0.0
  0
LINE
  5
9C6
100
AcDbEntity
  8
ALPHA
100
AcDbLine
 10
57.161528
 20
113.907234
 30
0.0
 11
57.161528
 21
112.626984
 31
0.0
  0
LINE
  5
9C7
100
AcDbEntity
  8
ALPHA
100
AcDbLine
 10
57.137961
 20
114.112758
 30
0.0
 11
57.753396
 21
114.112758
 31
0.0
  0
LINE
  5
9C8
100
AcDbEntity
  8
ALPHA
100
AcDbLine
 10
57.396528
 20
114.237049
 30
0.0
 11
57.753396
 21
114.112758
 31
0.0
  0
LINE
  5
9C9
100
AcDbEntity
  8
ALPHA
100
AcDbLine
 10
56.761528
 20
114.295679
 30
0.0
 11
57.396528
 21
114.237049
 31
0.0
  0
LINE
  5
9CA
100
AcDbEntity
  8
ALPHA
100
AcDbLine
 10
56.126528
 20
114.237049
 30
0.0
 11
56.761528
 21
114.295679
 31
0.0
  0
LINE
  5
9CB
100
AcDbEntity
  8
ALPHA
100
AcDbLine
 10
55.769661
 20
114.112758
 30
0.0
 11
56.126528
 21
114.237049
 31
0.0
  0
LINE
  5
9CC
100
AcDbEntity
  8
ALPHA
100
AcDbLine
 10
55.769661
 20
114.112758
 30
0.0
 11
56.385096
 21
114.112758
 31
0.0
  0
LINE
  5
9CD
100
AcDbEntity
  8
ALPHA
100
AcDbLine
 10
56.761528
 20
114.689602
 30
0.0
 11
56.407754
 21
115.005338
 31
0.0
  0
LINE
  5
9CE
100
AcDbEntity
  8
ALPHA
100
AcDbLine
 10
56.761528
 20
114.689602
 30
0.0
 11
57.115303
 21
115.005338
 31
0.0
  0
LINE
  5
9CF
100
AcDbEntity
  8
ALPHA
100
AcDbLine
 10
56.403839
 20
115.256325
 30
0.0
 11
57.119218
 21
115.256325
 31
0.0
  0
LINE
  5
9D0
100
AcDbEntity
  8
ALPHA
100
AcDbLine
 10
57.161528
 20
112.626984
 30
0.0
 11
56.361528
 21
112.626984
 31
0.0
  0
LINE
  5
9D1
100
AcDbEntity
  8
ALPHA
100
AcDbLine
 10
56.368779
 20
115.681226
 30
0.0
 11
57.154278
 21
115.681226
 31
0.0
  0
LINE
  5
9D2
100
AcDbEntity
  8
ALPHA
100
AcDbLine
 10
56.368779
 20
113.115737
 30
0.0
 11
57.154278
 21
113.115737
 31
0.0
  0
LINE
  5
9D3
100
AcDbEntity
  8
ALPHA
100
AcDbLine
 10
56.403839
 20
114.005619
 30
0.0
 11
57.119218
 21
114.005619
 31
0.0
  0
LINE
  5
9D4
100
AcDbEntity
  8
ALPHA
100
AcDbLine
 10
56.41268
 20
114.689602
 30
0.0
 11
56.761528
 21
114.689602
 31
0.0
  0
LINE
  5
9D5
100
AcDbEntity
  8
ALPHA
100
AcDbLine
 10
56.761528
 20
114.689602
 30
0.0
 11
56.407754
 21
114.308539
 31
0.0
  0
LINE
  5
9D6
100
AcDbEntity
  8
ALPHA
100
AcDbLine
 10
56.761528
 20
114.689602
 30
0.0
 11
57.110377
 21
114.689602
 31
0.0
  0
LINE
  5
9D7
100
AcDbEntity
  8
ALPHA
100
AcDbLine
 10
56.761528
 20
114.689602
 30
0.0
 11
57.115303
 21
114.308539
 31
0.0
  0
LINE
  5
9D8
100
AcDbEntity
  8
ALPHA
100
AcDbLine
 10
57.115946
 20
114.258747
 30
0.0
 11
56.407111
 21
114.258747
 31
0.0
  0
LINE
  5
9D9
100
AcDbEntity
  8
ALPHA
100
AcDbLine
 10
57.115946
 20
114.258747
 30
0.0
 11
57.137961
 21
114.112758
 31
0.0
  0
LINE
  5
9DA
100
AcDbEntity
  8
ALPHA
100
AcDbLine
 10
57.115946
 20
114.258747
 30
0.0
 11
57.119218
 21
114.005619
 31
0.0
  0
LINE
  5
9DB
100
AcDbEntity
  8
ALPHA
100
AcDbLine
 10
57.119218
 20
114.005619
 30
0.0
 11
57.154278
 21
113.115737
 31
0.0
  0
LWPOLYLINE
  5
9DC
100
AcDbEntity
  8
ALPHA
100
AcDbPolyline
 90
        6
 70
     0
 43
0.0
 10
57.154278
 20
113.115737
 10
57.156707
 20
113.040641
 10
57.158745
 20
112.948992
 10
57.160259
 20
112.846901
 10
57.161209
 20
112.737171
 10
57.161528
 20
112.626984
  0
LINE
  5
9E4
100
AcDbEntity
  8
ALPHA
100
AcDbLine
 10
57.161528
 20
113.907234
 30
0.0
 11
57.137961
 21
114.063518
 31
0.0
  0
LINE
  5
9E5
100
AcDbEntity
  8
ALPHA
100
AcDbLine
 10
57.137961
 20
114.112758
 30
0.0
 11
57.137961
 21
114.063518
 31
0.0
  0
LINE
  5
9E6
100
AcDbEntity
  8
ALPHA
100
AcDbLine
 10
56.361528
 20
113.907234
 30
0.0
 11
56.361528
 21
112.626984
 31
0.0
  0
LWPOLYLINE
  5
9E7
100
AcDbEntity
  8
ALPHA
100
AcDbPolyline
 90
        6
 70
     0
 43
0.0
 10
57.161528
 20
116.073811
 10
57.161209
 20
115.967858
 10
57.160259
 20
115.870729
 10
57.158745
 20
115.788724
 10
57.156707
 20
115.724095
 10
57.154278
 20
115.681226
  0
LINE
  5
9EF
100
AcDbEntity
  8
ALPHA
100
AcDbLine
 10
57.154278
 20
115.681226
 30
0.0
 11
57.119218
 21
115.256325
 31
0.0
  0
LINE
  5
9F0
100
AcDbEntity
  8
ALPHA
100
AcDbLine
 10
57.119218
 20
115.256325
 30
0.0
 11
57.115946
 21
115.046593
 31
0.0
  0
LINE
  5
9F1
100
AcDbEntity
  8
ALPHA
100
AcDbLine
 10
54.45489
 20
113.907234
 30
0.0
 11
56.361528
 21
113.907234
 31
0.0
  0
LINE
  5
9F2
100
AcDbEntity
  8
ALPHA
100
AcDbLine
 10
57.137961
 20
114.949845
 30
0.0
 11
57.137961
 21
114.900604
 31
0.0
  0
LINE
  5
9F3
100
AcDbEntity
  8
ALPHA
100
AcDbLine
 10
57.115303
 20
115.005338
 30
0.0
 11
57.110377
 21
114.689602
 31
0.0
  0
LINE
  5
9F4
100
AcDbEntity
  8
ALPHA
100
AcDbLine
 10
57.110377
 20
114.689602
 30
0.0
 11
57.115303
 21
114.308539
 31
0.0
  0
LINE
  5
9F5
100
AcDbEntity
  8
ALPHA
100
AcDbLine
 10
57.115303
 20
115.005338
 30
0.0
 11
57.115303
 21
114.308539
 31
0.0
  0
LINE
  5
9F6
100
AcDbEntity
  8
ALPHA
100
AcDbLine
 10
56.361528
 20
113.907234
 30
0.0
 11
56.385096
 21
114.063518
 31
0.0
  0
LWPOLYLINE
  5
9F7
100
AcDbEntity
  8
ALPHA
100
AcDbPolyline
 90
        6
 70
     0
 43
0.0
 10
56.368779
 20
113.115737
 10
56.36635
 20
113.040641
 10
56.364312
 20
112.948992
 10
56.362798
 20
112.846901
 10
56.361848
 20
112.737171
 10
56.361528
 20
112.626984
  0
LINE
  5
9FF
100
AcDbEntity
  8
ALPHA
100
AcDbLine
 10
56.403839
 20
114.005619
 30
0.0
 11
56.368779
 21
113.115737
 31
0.0
  0
LINE
  5
A00
100
AcDbEntity
  8
ALPHA
100
AcDbLine
 10
56.407111
 20
114.258747
 30
0.0
 11
56.403839
 21
114.005619
 31
0.0
  0
LINE
  5
A01
100
AcDbEntity
  8
ALPHA
100
AcDbLine
 10
56.407111
 20
114.258747
 30
0.0
 11
56.385096
 21
114.112758
 31
0.0
  0
LINE
  5
A02
100
AcDbEntity
  8
ALPHA
100
AcDbLine
 10
56.385096
 20
114.112758
 30
0.0
 11
56.385096
 21
114.063518
 31
0.0
  0
LINE
  5
A03
100
AcDbEntity
  8
ALPHA
100
AcDbLine
 10
56.403839
 20
115.256325
 30
0.0
 11
56.407111
 21
115.046593
 31
0.0
  0
LINE
  5
A04
100
AcDbEntity
  8
ALPHA
100
AcDbLine
 10
56.368779
 20
115.681226
 30
0.0
 11
56.403839
 21
115.256325
 31
0.0
  0
LWPOLYLINE
  5
A05
100
AcDbEntity
  8
ALPHA
100
AcDbPolyline
 90
        6
 70
     0
 43
0.0
 10
56.361528
 20
116.073811
 10
56.361848
 20
115.967858
 10
56.362798
 20
115.870729
 10
56.364312
 20
115.788724
 10
56.36635
 20
115.724095
 10
56.368779
 20
115.681226
  0
LWPOLYLINE
  5
A0D
100
AcDbEntity
  8
ALPHA
100
AcDbPolyline
 90
        3
 70
     0
 43
0.0
 10
54.586446
 20
115.213438
 10
54.550015
 20
115.133483
 10
54.45489
 20
114.793561
  0
LINE
  5
A12
100
AcDbEntity
  8
ALPHA
100
AcDbLine
 10
58.897663
 20
115.298916
 30
0.0
 11
58.872428
 21
115.354299
 31
0.0
  0
LWPOLYLINE
  5
A13
100
AcDbEntity
  8
ALPHA
100
AcDbPolyline
 90
        3
 70
     0
 43
0.0
 10
59.068167
 20
114.793561
 10
58.973042
 20
115.133483
 10
58.897663
 20
115.298916
  0
LINE
  5
A18
100
AcDbEntity
  8
ALPHA
100
AcDbLine
 10
56.385096
 20
114.949845
 30
0.0
 11
56.385096
 21
114.900604
 31
0.0
  0
LINE
  5
A19
100
AcDbEntity
  8
ALPHA
100
AcDbLine
 10
56.41268
 20
114.689602
 30
0.0
 11
56.407754
 21
114.308539
 31
0.0
  0
LINE
  5
A1A
100
AcDbEntity
  8
ALPHA
100
AcDbLine
 10
56.407754
 20
115.005338
 30
0.0
 11
56.41268
 21
114.689602
 31
0.0
  0
LINE
  5
A1B
100
AcDbEntity
  8
ALPHA
100
AcDbLine
 10
56.407754
 20
115.005338
 30
0.0
 11
56.407754
 21
114.308539
 31
0.0
  0
LWPOLYLINE
  5
A1C
100
AcDbEntity
  8
ALPHA
100
AcDbPolyline
 90
        4
 70
     0
 43
0.0
 10
59.061437
 20
113.103567
 10
59.108912
 20
113.189045
 10
59.270762
 20
113.56182
 10
59.372008
 20
113.954788
  0
LINE
  5
A22
100
AcDbEntity
  8
ALPHA
100
AcDbLine
 10
59.372008
 20
114.841115
 30
0.0
 11
59.358195
 21
114.894728
 31
0.0
  0
LWPOLYLINE
  5
A23
100
AcDbEntity
  8
ALPHA
100
AcDbPolyline
 90
        7
 70
     0
 43
0.0
 10
54.45489
 20
113.907234
 10
54.380001
 20
113.908824
 10
54.308949
 20
113.913571
 10
54.248102
 20
113.921015
 10
54.199754
 20
113.930763
 10
54.16644
 20
113.942387
 10
54.151049
 20
113.954788
  0
LWPOLYLINE
  5
A2C
100
AcDbEntity
  8
ALPHA
100
AcDbPolyline
 90
        4
 70
     0
 43
0.0
 10
54.46162
 20
113.103567
 10
54.414145
 20
113.189045
 10
54.252295
 20
113.56182
 10
54.151049
 20
113.954788
  0
LINE
  5
A32
100
AcDbEntity
  8
ALPHA
100
AcDbLine
 10
59.372008
 20
114.841115
 30
0.0
 11
59.384463
 21
114.865478
 31
0.0
  0
LINE
  5
A33
100
AcDbEntity
  8
ALPHA
100
AcDbLine
 10
57.137961
 20
114.900604
 30
0.0
 11
57.145387
 21
114.900604
 31
0.0
  0
LINE
  5
A34
100
AcDbEntity
  8
ALPHA
100
AcDbLine
 10
56.37767
 20
114.900604
 30
0.0
 11
56.385096
 21
114.900604
 31
0.0
  0
LINE
  5
A35
100
AcDbEntity
  8
ALPHA
100
AcDbLine
 10
57.115946
 20
115.046593
 30
0.0
 11
56.407111
 21
115.046593
 31
0.0
  0
LINE
  5
A36
100
AcDbEntity
  8
ALPHA
100
AcDbLine
 10
57.145221
 20
114.901699
 30
0.0
 11
57.137961
 21
114.949845
 31
0.0
  0
LINE
  5
A37
100
AcDbEntity
  8
ALPHA
100
AcDbLine
 10
57.161528
 20
114.793561
 30
0.0
 11
57.145221
 21
114.901699
 31
0.0
  0
LINE
  5
A38
100
AcDbEntity
  8
ALPHA
100
AcDbLine
 10
57.115946
 20
115.046593
 30
0.0
 11
57.137961
 21
114.900604
 31
0.0
  0
LINE
  5
A39
100
AcDbEntity
  8
ALPHA
100
AcDbLine
 10
56.407111
 20
115.046593
 30
0.0
 11
56.385096
 21
114.900604
 31
0.0
  0
LINE
  5
A3A
100
AcDbEntity
  8
ALPHA
100
AcDbLine
 10
56.377836
 20
114.901699
 30
0.0
 11
56.385096
 21
114.949845
 31
0.0
  0
LINE
  5
A3B
100
AcDbEntity
  8
ALPHA
100
AcDbLine
 10
56.361528
 20
114.793561
 30
0.0
 11
56.377836
 21
114.901699
 31
0.0
  0
LINE
  5
A3C
100
AcDbEntity
  8
ALPHA
100
AcDbLine
 10
54.46162
 20
113.103567
 30
0.0
 11
54.330502
 21
113.329516
 31
0.0
  0
LINE
  5
A3D
100
AcDbEntity
  8
ALPHA
100
AcDbLine
 10
53.977006
 20
114.504023
 30
0.0
 11
53.974293
 21
114.537965
 31
0.0
  0
LWPOLYLINE
  5
A3E
100
AcDbEntity
  8
ALPHA
100
AcDbPolyline
 90
        5
 70
     0
 43
0.0
 10
54.330453
 20
113.329658
 10
54.26671
 20
113.445833
 10
54.09857
 20
113.845592
 10
53.996001
 20
114.266332
 10
53.977006
 20
114.504023
  0
LINE
  5
A45
100
AcDbEntity
  8
ALPHA
100
AcDbLine
 10
57.161528
 20
114.793561
 30
0.0
 11
59.068167
 21
114.793561
 31
0.0
  0
LINE
  5
A46
100
AcDbEntity
  8
ALPHA
100
AcDbLine
 10
54.45489
 20
114.793561
 30
0.0
 11
56.361528
 21
114.793561
 31
0.0
  0
LWPOLYLINE
  5
A47
100
AcDbEntity
  8
ALPHA
100
AcDbPolyline
 90
        6
 70
     0
 43
0.0
 10
54.17074
 20
114.827214
 10
54.199754
 20
114.81709
 10
54.248102
 20
114.807342
 10
54.308949
 20
114.799898
 10
54.380001
 20
114.795151
 10
54.45489
 20
114.793561
  0
LWPOLYLINE
  5
A4F
100
AcDbEntity
  8
ALPHA
100
AcDbPolyline
 90
        7
 70
     0
 43
0.0
 10
59.068167
 20
114.793561
 10
59.143056
 20
114.795151
 10
59.214108
 20
114.799898
 10
59.274955
 20
114.807342
 10
59.323303
 20
114.81709
 10
59.356617
 20
114.828714
 10
59.372008
 20
114.841115
  0
LWPOLYLINE
  5
A58
100
AcDbEntity
  8
ALPHA
100
AcDbPolyline
 90
       15
 70
     0
 43
0.0
 10
59.061349
 20
113.103415
 10
58.88748
 20
112.841557
 10
58.615099
 20
112.533948
 10
58.297481
 20
112.271949
 10
57.942164
 20
112.061847
 10
57.558006
 20
111.90894
 10
57.15438
 20
111.816957
 10
56.741126
 20
111.78815
 10
56.328411
 20
111.823224
 10
55.9264
 20
111.921277
 10
55.544817
 20
112.079897
 10
55.193029
 20
112.295153
 10
54.879642
 20
112.5617
 10
54.612132
 20
112.873124
 10
54.461694
 20
113.103439
  0
LINE
  5
A69
100
AcDbEntity
  8
ALPHA
100
AcDbLine
 10
59.061437
 20
113.103567
 30
0.0
 11
59.192555
 21
113.329516
 31
0.0
  0
LWPOLYLINE
  5
A6A
100
AcDbEntity
  8
ALPHA
100
AcDbPolyline
 90
        5
 70
     0
 43
0.0
 10
59.192604
 20
113.329658
 10
59.256347
 20
113.445833
 10
59.424487
 20
113.845592
 10
59.527056
 20
114.266332
 10
59.552076
 20
114.579409
  0
LINE
  5
A71
100
AcDbEntity
  8
ALPHA
100
AcDbLine
 10
59.262733
 20
94.223855
 30
0.0
 11
59.311528
 21
94.331515
 31
0.0
  0
LWPOLYLINE
  5
A72
100
AcDbEntity
  8
ALPHA
100
AcDbPolyline
 90
        4
 70
     0
 43
0.0
 10
58.99477
 20
93.774433
 10
59.01234
 20
93.795577
 10
59.216277
 20
94.121357
 10
59.262733
 20
94.223855
  0
LINE
  5
A78
100
AcDbEntity
  8
ALPHA
100
AcDbLine
 10
53.961528
 20
95.486575
 30
0.0
 11
53.964341
 21
95.438327
 31
0.0
  0
LINE
  5
A79
100
AcDbEntity
  8
ALPHA
100
AcDbLine
 10
79.262733
 20
94.223855
 30
0.0
 11
79.311528
 21
94.331515
 31
0.0
  0
LWPOLYLINE
  5
A7A
100
AcDbEntity
  8
ALPHA
100
AcDbPolyline
 90
        4
 70
     0
 43
0.0
 10
78.99477
 20
93.774433
 10
79.01234
 20
93.795577
 10
79.216277
 20
94.121357
 10
79.262733
 20
94.223855
  0
LINE
  5
A80
100
AcDbEntity
  8
ALPHA
100
AcDbLine
 10
73.961528
 20
95.486575
 30
0.0
 11
73.964341
 21
95.438327
 31
0.0
  0
LINE
  5
A81
100
AcDbEntity
  8
ALPHA
100
AcDbLine
 10
80.511528
 20
106.809956
 30
0.0
 11
73.011528
 21
106.809956
 31
0.0
  0
LINE
  5
A82
100
AcDbEntity
  8
ALPHA
100
AcDbLine
 10
80.511528
 20
102.809956
 30
0.0
 11
73.011528
 21
102.809956
 31
0.0
  0
LINE
  5
A83
100
AcDbEntity
  8
ALPHA
100
AcDbLine
 10
73.011528
 20
102.809956
 30
0.0
 11
73.011528
 21
106.809956
 31
0.0
  0
LINE
  5
A84
100
AcDbEntity
  8
ALPHA
100
AcDbLine
 10
80.511528
 20
102.809956
 30
0.0
 11
80.511528
 21
106.809956
 31
0.0
  0
LINE
  5
A85
100
AcDbEntity
  8
ALPHA
100
AcDbLine
 10
60.511528
 20
106.809956
 30
0.0
 11
53.011528
 21
106.809956
 31
0.0
  0
LINE
  5
A86
100
AcDbEntity
  8
ALPHA
100
AcDbLine
 10
60.511528
 20
102.809956
 30
0.0
 11
53.011528
 21
102.809956
 31
0.0
  0
LINE
  5
A87
100
AcDbEntity
  8
ALPHA
100
AcDbLine
 10
53.011528
 20
102.809956
 30
0.0
 11
53.011528
 21
106.809956
 31
0.0
  0
LINE
  5
A88
100
AcDbEntity
  8
ALPHA
100
AcDbLine
 10
60.511528
 20
102.809956
 30
0.0
 11
60.511528
 21
106.809956
 31
0.0
  0
LINE
  5
A89
100
AcDbEntity
  8
ALPHA
100
AcDbLine
 10
71.661528
 20
104.209956
 30
0.0
 11
71.861528
 21
104.209956
 31
0.0
  0
LINE
  5
A8A
100
AcDbEntity
  8
ALPHA
100
AcDbLine
 10
71.661528
 20
106.809956
 30
0.0
 11
71.661528
 21
104.209956
 31
0.0
  0
LINE
  5
A8B
100
AcDbEntity
  8
ALPHA
100
AcDbLine
 10
73.011528
 20
104.209956
 30
0.0
 11
72.861528
 21
104.209956
 31
0.0
  0
LINE
  5
A8C
100
AcDbEntity
  8
ALPHA
100
AcDbLine
 10
71.661528
 20
106.809956
 30
0.0
 11
71.861528
 21
106.809956
 31
0.0
  0
LINE
  5
A8D
100
AcDbEntity
  8
ALPHA
100
AcDbLine
 10
61.761528
 20
106.809956
 30
0.0
 11
61.661528
 21
106.809956
 31
0.0
  0
LINE
  5
A8E
100
AcDbEntity
  8
ALPHA
100
AcDbLine
 10
61.761528
 20
104.209956
 30
0.0
 11
61.761528
 21
106.809956
 31
0.0
  0
LINE
  5
A8F
100
AcDbEntity
  8
ALPHA
100
AcDbLine
 10
60.511528
 20
104.209956
 30
0.0
 11
60.661528
 21
104.209956
 31
0.0
  0
LINE
  5
A90
100
AcDbEntity
  8
ALPHA
100
AcDbLine
 10
61.761528
 20
104.209956
 30
0.0
 11
61.661528
 21
104.209956
 31
0.0
  0
ENDSEC
  0
SECTION
  2
OBJECTS
  0
DICTIONARY
  5
FEF
100
AcDbDictionary
  3
ACAD_GROUP
350
FF0
  3
ACAD_MLINESTYLE
350
FFD
  3
ACDBVARIABLEDICTIONARY
350
100D
  0
DICTIONARY
  5
FF0
102
{ACAD_REACTORS
330
FEF
102
}
100
AcDbDictionary
  0
DICTIONARY
  5
FFD
102
{ACAD_REACTORS
330
FEF
102
}
100
AcDbDictionary
  3
STANDARD
350
FFE
  0
DICTIONARY
  5
100D
102
{ACAD_REACTORS
330
FEF
102
}
100
AcDbDictionary
  3
DIMADEC
350
100E
  0
MLINESTYLE
  5
FFE
102
{ACAD_REACTORS
330
FFD
102
}
100
AcDbMlineStyle
  2
STANDARD
 70
     0
  3

 62
   256
 51
90.0
 52
90.0
 71
     2
 49
0.5
 62
   256
  6
BYLAYER
 49
-0.5
 62
   256
  6
BYLAYER
  0
DICTIONARYVAR
  5
100E
102
{ACAD_REACTORS
330
100D
102
}
100
DictionaryVariables
280
     0
  1
0
  0
ENDSEC
  0
EOF
