  0
SECTION
  2
HEADER
  9
$ACADVER
  1
AC1014
  9
$ACADMAINTVER
 70
     0
  9
$DWGCODEPAGE
  3
ANSI_1252
  9
$INSBASE
 10
111.429139
 20
154.052434
 30
0.0
  9
$EXTMIN
 10
97.400839
 20
120.292542
 30
0.0
  9
$EXTMAX
 10
157.990648
 20
186.728112
 30
0.0
  9
$LIMMIN
 10
0.0
 20
0.0
  9
$LIMMAX
 10
210.0
 20
297.0
  9
$ORTHOMODE
 70
     0
  9
$REGENMODE
 70
     1
  9
$FILLMODE
 70
     1
  9
$QTEXTMODE
 70
     0
  9
$MIRRTEXT
 70
     1
  9
$DRAGMODE
 70
     2
  9
$LTSCALE
 40
10.0
  9
$OSMODE
 70
     0
  9
$ATTMODE
 70
     1
  9
$TEXTSIZE
 40
2.9
  9
$TRACEWID
 40
0.05
  9
$TEXTSTYLE
  7
ROMANS
  9
$CLAYER
  8
AXE
  9
$CELTYPE
  6
BYLAYER
  9
$CECOLOR
 62
   256
  9
$CELTSCALE
 40
1.0
  9
$DELOBJ
 70
     1
  9
$DISPSILH
 70
     0
  9
$DIMSCALE
 40
1.0
  9
$DIMASZ
 40
3.0
  9
$DIMEXO
 40
0.0625
  9
$DIMDLI
 40
0.38
  9
$DIMRND
 40
0.01
  9
$DIMDLE
 40
0.0
  9
$DIMEXE
 40
0.18
  9
$DIMTP
 40
0.0
  9
$DIMTM
 40
0.0
  9
$DIMTXT
 40
2.5
  9
$DIMCEN
 40
0.09
  9
$DIMTSZ
 40
0.0
  9
$DIMTOL
 70
     0
  9
$DIMLIM
 70
     0
  9
$DIMTIH
 70
     0
  9
$DIMTOH
 70
     0
  9
$DIMSE1
 70
     0
  9
$DIMSE2
 70
     0
  9
$DIMTAD
 70
     1
  9
$DIMZIN
 70
    12
  9
$DIMBLK
  1

  9
$DIMASO
 70
     1
  9
$DIMSHO
 70
     1
  9
$DIMPOST
  1

  9
$DIMAPOST
  1

  9
$DIMALT
 70
     0
  9
$DIMALTD
 70
     2
  9
$DIMALTF
 40
25.4
  9
$DIMLFAC
 40
1.0
  9
$DIMTOFL
 70
     1
  9
$DIMTVP
 40
0.0
  9
$DIMTIX
 70
     0
  9
$DIMSOXD
 70
     0
  9
$DIMSAH
 70
     1
  9
$DIMBLK1
  1
_OPEN
  9
$DIMBLK2
  1
_OPEN
  9
$DIMSTYLE
  2
SC_STAND
  9
$DIMCLRD
 70
     0
  9
$DIMCLRE
 70
     0
  9
$DIMCLRT
 70
     0
  9
$DIMTFAC
 40
1.0
  9
$DIMGAP
 40
1.0
  9
$DIMJUST
 70
     0
  9
$DIMSD1
 70
     0
  9
$DIMSD2
 70
     0
  9
$DIMTOLJ
 70
     1
  9
$DIMTZIN
 70
    12
  9
$DIMALTZ
 70
    12
  9
$DIMALTTZ
 70
    12
  9
$DIMFIT
 70
     5
  9
$DIMUPT
 70
     0
  9
$DIMUNIT
 70
     2
  9
$DIMDEC
 70
     4
  9
$DIMTDEC
 70
     4
  9
$DIMALTU
 70
     2
  9
$DIMALTTD
 70
     2
  9
$DIMTXSTY
  7
ROMANS
  9
$DIMAUNIT
 70
     0
  9
$LUNITS
 70
     2
  9
$LUPREC
 70
     4
  9
$SKETCHINC
 40
0.1
  9
$FILLETRAD
 40
0.0
  9
$AUNITS
 70
     0
  9
$AUPREC
 70
     0
  9
$MENU
  1
.
  9
$ELEVATION
 40
0.0
  9
$PELEVATION
 40
0.0
  9
$THICKNESS
 40
0.0
  9
$LIMCHECK
 70
     0
  9
$BLIPMODE
 70
     1
  9
$CHAMFERA
 40
0.0
  9
$CHAMFERB
 40
0.0
  9
$CHAMFERC
 40
0.0
  9
$CHAMFERD
 40
0.0
  9
$SKPOLY
 70
     0
  9
$TDCREATE
 40
2451264.382125000
  9
$TDUPDATE
 40
2451387.895840289
  9
$TDINDWG
 40
0.0182319444
  9
$TDUSRTIMER
 40
0.0182319444
  9
$USRTIMER
 70
     1
  9
$ANGBASE
 50
0.0
  9
$ANGDIR
 70
     0
  9
$PDMODE
 70
     0
  9
$PDSIZE
 40
0.0
  9
$PLINEWID
 40
0.0
  9
$COORDS
 70
     1
  9
$SPLFRAME
 70
     0
  9
$SPLINETYPE
 70
     6
  9
$SPLINESEGS
 70
     8
  9
$ATTDIA
 70
     1
  9
$ATTREQ
 70
     1
  9
$HANDLING
 70
     1
  9
$HANDSEED
  5
F2
  9
$SURFTAB1
 70
     6
  9
$SURFTAB2
 70
     6
  9
$SURFTYPE
 70
     6
  9
$SURFU
 70
     6
  9
$SURFV
 70
     6
  9
$UCSNAME
  2

  9
$UCSORG
 10
0.0
 20
0.0
 30
0.0
  9
$UCSXDIR
 10
1.0
 20
0.0
 30
0.0
  9
$UCSYDIR
 10
0.0
 20
1.0
 30
0.0
  9
$PUCSNAME
  2

  9
$PUCSORG
 10
0.0
 20
0.0
 30
0.0
  9
$PUCSXDIR
 10
1.0
 20
0.0
 30
0.0
  9
$PUCSYDIR
 10
0.0
 20
1.0
 30
0.0
  9
$USERI1
 70
     0
  9
$USERI2
 70
     0
  9
$USERI3
 70
     0
  9
$USERI4
 70
     0
  9
$USERI5
 70
     0
  9
$USERR1
 40
0.0
  9
$USERR2
 40
0.0
  9
$USERR3
 40
0.0
  9
$USERR4
 40
0.0
  9
$USERR5
 40
0.0
  9
$WORLDVIEW
 70
     1
  9
$SHADEDGE
 70
     3
  9
$SHADEDIF
 70
    70
  9
$TILEMODE
 70
     1
  9
$MAXACTVP
 70
    16
  9
$PINSBASE
 10
0.0
 20
0.0
 30
0.0
  9
$PLIMCHECK
 70
     0
  9
$PEXTMIN
 10
0.0
 20
0.0
 30
0.0
  9
$PEXTMAX
 10
420.0
 20
297.0
 30
0.0
  9
$PLIMMIN
 10
0.0
 20
0.0
  9
$PLIMMAX
 10
420.0
 20
297.0
  9
$UNITMODE
 70
     0
  9
$VISRETAIN
 70
     0
  9
$PLINEGEN
 70
     0
  9
$PSLTSCALE
 70
     1
  9
$TREEDEPTH
 70
  3020
  9
$PICKSTYLE
 70
     1
  9
$CMLSTYLE
  2
STANDARD
  9
$CMLJUST
 70
     0
  9
$CMLSCALE
 40
1.0
  9
$PROXYGRAPHICS
 70
     1
  9
$MEASUREMENT
 70
     0
  0
ENDSEC
  0
SECTION
  2
CLASSES
  0
CLASS
  1
DICTIONARYVAR
  2
AcDbDictionaryVar
  3
"AutoCAD"
 90
        0
280
     0
281
     0
  0
ENDSEC
  0
SECTION
  2
TABLES
  0
TABLE
  2
VPORT
  5
BE
100
AcDbSymbolTable
 70
     1
  0
VPORT
  5
ED
100
AcDbSymbolTableRecord
100
AcDbViewportTableRecord
  2
*ACTIVE
 70
     0
 10
0.0
 20
0.0
 11
1.0
 21
1.0
 12
105.963428
 22
157.206849
 13
0.0
 23
0.0
 14
1.0
 24
1.0
 15
0.0
 25
0.0
 16
0.0
 26
0.0
 36
1.0
 17
0.0
 27
0.0
 37
0.0
 40
73.828615
 41
1.671053
 42
50.0
 43
0.0
 44
0.0
 50
0.0
 51
0.0
 71
     0
 72
   100
 73
     1
 74
     1
 75
     0
 76
     0
 77
     0
 78
     0
  0
ENDTAB
  0
TABLE
  2
LTYPE
  5
BB
100
AcDbSymbolTable
 70
     3
  0
LTYPE
  5
C7
100
AcDbSymbolTableRecord
100
AcDbLinetypeTableRecord
  2
BYBLOCK
 70
     0
  3

 72
    65
 73
     0
 40
0.0
  0
LTYPE
  5
C8
100
AcDbSymbolTableRecord
100
AcDbLinetypeTableRecord
  2
BYLAYER
 70
     0
  3

 72
    65
 73
     0
 40
0.0
  0
LTYPE
  5
C9
100
AcDbSymbolTableRecord
100
AcDbLinetypeTableRecord
  2
CONTINUOUS
 70
     0
  3
Solid line
 72
    65
 73
     0
 40
0.0
  0
LTYPE
  5
DB
100
AcDbSymbolTableRecord
100
AcDbLinetypeTableRecord
  2
AXES2
 70
     0
  3
___ _ ___ _ ___ _ ___ _ ___ _ ___ _ ___ _ ___ _
 72
    65
 73
     4
 40
1.125
 49
0.75
 74
     0
 49
-0.125
 74
     0
 49
0.125
 74
     0
 49
-0.125
 74
     0
  0
LTYPE
  5
DC
100
AcDbSymbolTableRecord
100
AcDbLinetypeTableRecord
  2
CACHE
 70
     0
  3
__ __ __ __ __ __ __ __ __ __ __ __ __ __ __ __
 72
    65
 73
     2
 40
0.375
 49
0.25
 74
     0
 49
-0.125
 74
     0
  0
ENDTAB
  0
TABLE
  2
LAYER
  5
B8
100
AcDbSymbolTable
 70
     6
  0
LAYER
  5
C4
100
AcDbSymbolTableRecord
100
AcDbLayerTableRecord
  2
0
 70
     0
 62
   255
  6
CONTINUOUS
  0
LAYER
  5
DF
100
AcDbSymbolTableRecord
100
AcDbLayerTableRecord
  2
AXE
 70
     0
 62
    80
  6
AXES2
  0
LAYER
  5
E0
100
AcDbSymbolTableRecord
100
AcDbLayerTableRecord
  2
COTATION1
 70
     0
 62
     2
  6
CONTINUOUS
  0
LAYER
  5
E1
100
AcDbSymbolTableRecord
100
AcDbLayerTableRecord
  2
POINTILLE_MOYEN
 70
     0
 62
   140
  6
CACHE
  0
LAYER
  5
E2
100
AcDbSymbolTableRecord
100
AcDbLayerTableRecord
  2
ALPHA
 70
     0
 62
   254
  6
CONTINUOUS
  0
LAYER
  5
E3
100
AcDbSymbolTableRecord
100
AcDbLayerTableRecord
  2
DEFPOINTS
 70
     0
 62
     7
  6
CONTINUOUS
  0
ENDTAB
  0
TABLE
  2
STYLE
  5
B9
100
AcDbSymbolTable
 70
     2
  0
STYLE
  5
C5
100
AcDbSymbolTableRecord
100
AcDbTextStyleTableRecord
  2
STANDARD
 70
     0
 40
0.0
 41
1.0
 50
0.0
 71
     0
 42
0.2
  3
txt
  4

  0
STYLE
  5
DA
100
AcDbSymbolTableRecord
100
AcDbTextStyleTableRecord
  2
ROMANS
 70
     0
 40
0.0
 41
1.0
 50
0.0
 71
     0
 42
2.9
  3
romans.shx
  4

  0
ENDTAB
  0
TABLE
  2
VIEW
  5
BC
100
AcDbSymbolTable
 70
     0
  0
ENDTAB
  0
TABLE
  2
UCS
  5
BD
100
AcDbSymbolTable
 70
     0
  0
ENDTAB
  0
TABLE
  2
APPID
  5
BF
100
AcDbSymbolTable
 70
     1
  0
APPID
  5
C6
100
AcDbSymbolTableRecord
100
AcDbRegAppTableRecord
  2
ACAD
 70
     0
  0
ENDTAB
  0
TABLE
  2
DIMSTYLE
  5
C0
100
AcDbSymbolTable
 70
     1
  0
DIMSTYLE
105
DE
102
{ACAD_REACTORS
330
22
330
35
330
42
330
5B
330
6A
330
80
330
8F
102
}
100
AcDbSymbolTableRecord
100
AcDbDimStyleTableRecord
  2
SC_STAND
 70
     0
  3

  4

  5

  6

  7

 40
1.0
 41
3.0
 42
0.0625
 43
0.38
 44
0.18
 45
0.01
 46
0.0
 47
0.0
 48
0.0
140
2.5
141
0.09
142
0.0
143
25.4
144
1.0
145
0.0
146
1.0
147
1.0
 71
     0
 72
     0
 73
     0
 74
     0
 75
     0
 76
     0
 77
     1
 78
    12
170
     0
171
     2
172
     1
173
     0
174
     0
175
     0
176
     0
177
     0
178
     0
270
     2
271
     4
272
     4
273
     2
274
     2
340
DA
275
     0
280
     0
281
     0
282
     0
283
     1
284
    12
285
    12
286
    12
287
     5
288
     0
  0
ENDTAB
  0
TABLE
  2
BLOCK_RECORD
  5
B7
100
AcDbSymbolTable
 70
     8
  0
BLOCK_RECORD
  5
CD
100
AcDbSymbolTableRecord
100
AcDbBlockTableRecord
  2
*MODEL_SPACE
  0
BLOCK_RECORD
  5
CA
100
AcDbSymbolTableRecord
100
AcDbBlockTableRecord
  2
*PAPER_SPACE
  0
BLOCK_RECORD
  5
D2
100
AcDbSymbolTableRecord
100
AcDbBlockTableRecord
  2
_OPEN
  0
BLOCK_RECORD
  5
D3
100
AcDbSymbolTableRecord
100
AcDbBlockTableRecord
  2
*D1
  0
BLOCK_RECORD
  5
D4
100
AcDbSymbolTableRecord
100
AcDbBlockTableRecord
  2
*D2
  0
BLOCK_RECORD
  5
D5
100
AcDbSymbolTableRecord
100
AcDbBlockTableRecord
  2
*D3
  0
BLOCK_RECORD
  5
D6
100
AcDbSymbolTableRecord
100
AcDbBlockTableRecord
  2
*D4
  0
BLOCK_RECORD
  5
D7
100
AcDbSymbolTableRecord
100
AcDbBlockTableRecord
  2
*D5
  0
BLOCK_RECORD
  5
D8
100
AcDbSymbolTableRecord
100
AcDbBlockTableRecord
  2
*D6
  0
BLOCK_RECORD
  5
D9
100
AcDbSymbolTableRecord
100
AcDbBlockTableRecord
  2
*D7
  0
ENDTAB
  0
ENDSEC
  0
SECTION
  2
BLOCKS
  0
BLOCK
  5
E6
100
AcDbEntity
  8
0
100
AcDbBlockBegin
  2
*MODEL_SPACE
 70
     0
 10
0.0
 20
0.0
 30
0.0
  3
*MODEL_SPACE
  1

  0
ENDBLK
  5
E7
100
AcDbEntity
  8
0
100
AcDbBlockEnd
  0
BLOCK
  5
E4
100
AcDbEntity
 67
     1
  8
0
100
AcDbBlockBegin
  2
*PAPER_SPACE
 70
     0
 10
0.0
 20
0.0
 30
0.0
  3
*PAPER_SPACE
  1

  0
ENDBLK
  5
E5
100
AcDbEntity
 67
     1
  8
0
100
AcDbBlockEnd
  0
BLOCK
  5
2C
100
AcDbEntity
  8
0
100
AcDbBlockBegin
  2
_OPEN
 70
     0
 10
0.0
 20
0.0
 30
0.0
  3
_OPEN
  1
AVE_GLOBAL
  0
LINE
  5
29
100
AcDbEntity
  8
0
  6
BYBLOCK
 62
     0
100
AcDbLine
 10
-1.0
 20
0.166667
 30
0.0
 11
0.0
 21
0.0
 31
0.0
  0
LINE
  5
2A
100
AcDbEntity
  8
0
  6
BYBLOCK
 62
     0
100
AcDbLine
 10
0.0
 20
0.0
 30
0.0
 11
-1.0
 21
-0.166667
 31
0.0
  0
LINE
  5
2B
100
AcDbEntity
  8
0
  6
BYBLOCK
 62
     0
100
AcDbLine
 10
0.0
 20
0.0
 30
0.0
 11
-1.0
 21
0.0
 31
0.0
  0
ENDBLK
  5
2D
100
AcDbEntity
  8
0
100
AcDbBlockEnd
  0
BLOCK
  5
77
100
AcDbEntity
  8
0
100
AcDbBlockBegin
  2
*D1
 70
     1
 10
0.0
 20
0.0
 30
0.0
  3
*D1
  1
AVE_GLOBAL
  0
LINE
  5
6C
100
AcDbEntity
  8
0
  6
BYBLOCK
 62
     0
100
AcDbLine
 10
123.491639
 20
156.552434
 30
0.0
 11
133.532399
 21
156.552434
 31
0.0
  0
LINE
  5
6D
100
AcDbEntity
  8
0
  6
BYBLOCK
 62
     0
100
AcDbLine
 10
124.491639
 20
146.052434
 30
0.0
 11
133.532399
 21
146.052434
 31
0.0
  0
LINE
  5
6E
100
AcDbEntity
  8
0
  6
BYBLOCK
 62
     0
100
AcDbLine
 10
133.352399
 20
159.552434
 30
0.0
 11
133.352399
 21
162.552434
 31
0.0
  0
LINE
  5
6F
100
AcDbEntity
  8
0
  6
BYBLOCK
 62
     0
100
AcDbLine
 10
133.352399
 20
143.052434
 30
0.0
 11
133.352399
 21
140.052434
 31
0.0
  0
LINE
  5
70
100
AcDbEntity
  8
0
  6
BYBLOCK
 62
     0
100
AcDbLine
 10
133.352399
 20
156.552434
 30
0.0
 11
133.352399
 21
146.052434
 31
0.0
  0
INSERT
  5
71
100
AcDbEntity
  8
0
  6
BYBLOCK
 62
     0
100
AcDbBlockReference
  2
_OPEN
 10
133.352399
 20
156.552434
 30
0.0
 41
3.0
 42
3.0
 43
3.0
 50
270.0
  0
INSERT
  5
72
100
AcDbEntity
  8
0
  6
BYBLOCK
 62
     0
100
AcDbBlockReference
  2
_OPEN
 10
133.352399
 20
146.052434
 30
0.0
 41
3.0
 42
3.0
 43
3.0
 50
90.0
  0
TEXT
  5
73
100
AcDbEntity
  8
0
  6
BYBLOCK
 62
     0
100
AcDbText
 10
132.352399
 20
148.177434
 30
0.0
 40
2.5
  1
10.5
 50
90.0
100
AcDbText
  0
POINT
  5
74
100
AcDbEntity
  8
DEFPOINTS
  6
BYBLOCK
 62
     0
100
AcDbPoint
 10
123.429139
 20
156.552434
 30
0.0
  0
POINT
  5
75
100
AcDbEntity
  8
DEFPOINTS
  6
BYBLOCK
 62
     0
100
AcDbPoint
 10
124.429139
 20
146.052434
 30
0.0
  0
POINT
  5
76
100
AcDbEntity
  8
DEFPOINTS
  6
BYBLOCK
 62
     0
100
AcDbPoint
 10
133.352399
 20
146.052434
 30
0.0
  0
ENDBLK
  5
78
100
AcDbEntity
  8
0
100
AcDbBlockEnd
  0
BLOCK
  5
68
100
AcDbEntity
  8
0
100
AcDbBlockBegin
  2
*D2
 70
     1
 10
0.0
 20
0.0
 30
0.0
  3
*D2
  1
AVE_GLOBAL
  0
LINE
  5
5D
100
AcDbEntity
  8
0
  6
BYBLOCK
 62
     0
100
AcDbLine
 10
124.491639
 20
146.052434
 30
0.0
 11
139.881366
 21
146.052434
 31
0.0
  0
LINE
  5
5E
100
AcDbEntity
  8
0
  6
BYBLOCK
 62
     0
100
AcDbLine
 10
124.491639
 20
160.252434
 30
0.0
 11
139.881366
 21
160.252434
 31
0.0
  0
LINE
  5
5F
100
AcDbEntity
  8
0
  6
BYBLOCK
 62
     0
100
AcDbLine
 10
139.701366
 20
143.052434
 30
0.0
 11
139.701366
 21
140.052434
 31
0.0
  0
LINE
  5
60
100
AcDbEntity
  8
0
  6
BYBLOCK
 62
     0
100
AcDbLine
 10
139.701366
 20
163.252434
 30
0.0
 11
139.701366
 21
166.252434
 31
0.0
  0
LINE
  5
61
100
AcDbEntity
  8
0
  6
BYBLOCK
 62
     0
100
AcDbLine
 10
139.701366
 20
146.052434
 30
0.0
 11
139.701366
 21
160.252434
 31
0.0
  0
INSERT
  5
62
100
AcDbEntity
  8
0
  6
BYBLOCK
 62
     0
100
AcDbBlockReference
  2
_OPEN
 10
139.701366
 20
146.052434
 30
0.0
 41
3.0
 42
3.0
 43
3.0
 50
90.0
  0
INSERT
  5
63
100
AcDbEntity
  8
0
  6
BYBLOCK
 62
     0
100
AcDbBlockReference
  2
_OPEN
 10
139.701366
 20
160.252434
 30
0.0
 41
3.0
 42
3.0
 43
3.0
 50
270.0
  0
TEXT
  5
64
100
AcDbEntity
  8
0
  6
BYBLOCK
 62
     0
100
AcDbText
 10
138.701366
 20
149.819101
 30
0.0
 40
2.5
  1
14.2
 50
90.0
100
AcDbText
  0
POINT
  5
65
100
AcDbEntity
  8
DEFPOINTS
  6
BYBLOCK
 62
     0
100
AcDbPoint
 10
124.429139
 20
146.052434
 30
0.0
  0
POINT
  5
66
100
AcDbEntity
  8
DEFPOINTS
  6
BYBLOCK
 62
     0
100
AcDbPoint
 10
124.429139
 20
160.252434
 30
0.0
  0
POINT
  5
67
100
AcDbEntity
  8
DEFPOINTS
  6
BYBLOCK
 62
     0
100
AcDbPoint
 10
139.701366
 20
160.252434
 30
0.0
  0
ENDBLK
  5
69
100
AcDbEntity
  8
0
100
AcDbBlockEnd
  0
BLOCK
  5
9C
100
AcDbEntity
  8
0
100
AcDbBlockBegin
  2
*D3
 70
     1
 10
0.0
 20
0.0
 30
0.0
  3
*D3
  1
AVE_GLOBAL
  0
LINE
  5
91
100
AcDbEntity
  8
0
  6
BYBLOCK
 62
     0
100
AcDbLine
 10
117.429139
 20
145.989934
 30
0.0
 11
117.429139
 21
138.388278
 31
0.0
  0
LINE
  5
92
100
AcDbEntity
  8
0
  6
BYBLOCK
 62
     0
100
AcDbLine
 10
121.429139
 20
145.989934
 30
0.0
 11
121.429139
 21
138.388278
 31
0.0
  0
LINE
  5
93
100
AcDbEntity
  8
0
  6
BYBLOCK
 62
     0
100
AcDbLine
 10
114.429139
 20
138.568278
 30
0.0
 11
111.429139
 21
138.568278
 31
0.0
  0
LINE
  5
94
100
AcDbEntity
  8
0
  6
BYBLOCK
 62
     0
100
AcDbLine
 10
124.429139
 20
138.568278
 30
0.0
 11
133.595805
 21
138.568278
 31
0.0
  0
LINE
  5
95
100
AcDbEntity
  8
0
  6
BYBLOCK
 62
     0
100
AcDbLine
 10
117.429139
 20
138.568278
 30
0.0
 11
121.429139
 21
138.568278
 31
0.0
  0
INSERT
  5
96
100
AcDbEntity
  8
0
  6
BYBLOCK
 62
     0
100
AcDbBlockReference
  2
_OPEN
 10
117.429139
 20
138.568278
 30
0.0
 41
3.0
 42
3.0
 43
3.0
  0
INSERT
  5
97
100
AcDbEntity
  8
0
  6
BYBLOCK
 62
     0
100
AcDbBlockReference
  2
_OPEN
 10
121.429139
 20
138.568278
 30
0.0
 41
3.0
 42
3.0
 43
3.0
 50
180.0
  0
TEXT
  5
98
100
AcDbEntity
  8
0
  6
BYBLOCK
 62
     0
100
AcDbText
 10
128.429139
 20
139.568278
 30
0.0
 40
2.5
  1
%%c4
100
AcDbText
  0
POINT
  5
99
100
AcDbEntity
  8
DEFPOINTS
  6
BYBLOCK
 62
     0
100
AcDbPoint
 10
117.429139
 20
146.052434
 30
0.0
  0
POINT
  5
9A
100
AcDbEntity
  8
DEFPOINTS
  6
BYBLOCK
 62
     0
100
AcDbPoint
 10
121.429139
 20
146.052434
 30
0.0
  0
POINT
  5
9B
100
AcDbEntity
  8
DEFPOINTS
  6
BYBLOCK
 62
     0
100
AcDbPoint
 10
121.429139
 20
138.568278
 30
0.0
  0
ENDBLK
  5
9D
100
AcDbEntity
  8
0
100
AcDbBlockEnd
  0
BLOCK
  5
4F
100
AcDbEntity
  8
0
100
AcDbBlockBegin
  2
*D4
 70
     1
 10
0.0
 20
0.0
 30
0.0
  3
*D4
  1
AVE_GLOBAL
  0
LINE
  5
44
100
AcDbEntity
  8
0
  6
BYBLOCK
 62
     0
100
AcDbLine
 10
119.429139
 20
144.039895
 30
0.0
 11
119.429139
 21
132.190259
 31
0.0
  0
LINE
  5
45
100
AcDbEntity
  8
0
  6
BYBLOCK
 62
     0
100
AcDbLine
 10
103.429139
 20
142.031575
 30
0.0
 11
103.429139
 21
132.190259
 31
0.0
  0
LINE
  5
46
100
AcDbEntity
  8
0
  6
BYBLOCK
 62
     0
100
AcDbLine
 10
122.429139
 20
132.370259
 30
0.0
 11
125.429139
 21
132.370259
 31
0.0
  0
LINE
  5
47
100
AcDbEntity
  8
0
  6
BYBLOCK
 62
     0
100
AcDbLine
 10
100.429139
 20
132.370259
 30
0.0
 11
97.429139
 21
132.370259
 31
0.0
  0
LINE
  5
48
100
AcDbEntity
  8
0
  6
BYBLOCK
 62
     0
100
AcDbLine
 10
119.429139
 20
132.370259
 30
0.0
 11
103.429139
 21
132.370259
 31
0.0
  0
INSERT
  5
49
100
AcDbEntity
  8
0
  6
BYBLOCK
 62
     0
100
AcDbBlockReference
  2
_OPEN
 10
119.429139
 20
132.370259
 30
0.0
 41
3.0
 42
3.0
 43
3.0
 50
180.0
  0
INSERT
  5
4A
100
AcDbEntity
  8
0
  6
BYBLOCK
 62
     0
100
AcDbBlockReference
  2
_OPEN
 10
103.429139
 20
132.370259
 30
0.0
 41
3.0
 42
3.0
 43
3.0
  0
TEXT
  5
4B
100
AcDbEntity
  8
0
  6
BYBLOCK
 62
     0
100
AcDbText
 10
104.762472
 20
133.370259
 30
0.0
 40
2.5
  1
= 16 =
100
AcDbText
  0
POINT
  5
4C
100
AcDbEntity
  8
DEFPOINTS
  6
BYBLOCK
 62
     0
100
AcDbPoint
 10
119.429139
 20
144.102395
 30
0.0
  0
POINT
  5
4D
100
AcDbEntity
  8
DEFPOINTS
  6
BYBLOCK
 62
     0
100
AcDbPoint
 10
103.429139
 20
142.094075
 30
0.0
  0
POINT
  5
4E
100
AcDbEntity
  8
DEFPOINTS
  6
BYBLOCK
 62
     0
100
AcDbPoint
 10
103.429139
 20
132.370259
 30
0.0
  0
ENDBLK
  5
50
100
AcDbEntity
  8
0
100
AcDbBlockEnd
  0
BLOCK
  5
8D
100
AcDbEntity
  8
0
100
AcDbBlockBegin
  2
*D5
 70
     1
 10
0.0
 20
0.0
 30
0.0
  3
*D5
  1
AVE_GLOBAL
  0
LINE
  5
82
100
AcDbEntity
  8
0
  6
BYBLOCK
 62
     0
100
AcDbLine
 10
119.429139
 20
132.307759
 30
0.0
 11
119.429139
 21
126.596836
 31
0.0
  0
LINE
  5
83
100
AcDbEntity
  8
0
  6
BYBLOCK
 62
     0
100
AcDbLine
 10
124.429139
 20
145.989934
 30
0.0
 11
124.429139
 21
126.596836
 31
0.0
  0
LINE
  5
84
100
AcDbEntity
  8
0
  6
BYBLOCK
 62
     0
100
AcDbLine
 10
116.429139
 20
126.776836
 30
0.0
 11
113.429139
 21
126.776836
 31
0.0
  0
LINE
  5
85
100
AcDbEntity
  8
0
  6
BYBLOCK
 62
     0
100
AcDbLine
 10
127.429139
 20
126.776836
 30
0.0
 11
130.429139
 21
126.776836
 31
0.0
  0
LINE
  5
86
100
AcDbEntity
  8
0
  6
BYBLOCK
 62
     0
100
AcDbLine
 10
119.429139
 20
126.776836
 30
0.0
 11
124.429139
 21
126.776836
 31
0.0
  0
INSERT
  5
87
100
AcDbEntity
  8
0
  6
BYBLOCK
 62
     0
100
AcDbBlockReference
  2
_OPEN
 10
119.429139
 20
126.776836
 30
0.0
 41
3.0
 42
3.0
 43
3.0
  0
INSERT
  5
88
100
AcDbEntity
  8
0
  6
BYBLOCK
 62
     0
100
AcDbBlockReference
  2
_OPEN
 10
124.429139
 20
126.776836
 30
0.0
 41
3.0
 42
3.0
 43
3.0
 50
180.0
  0
TEXT
  5
89
100
AcDbEntity
  8
0
  6
BYBLOCK
 62
     0
100
AcDbText
 10
121.095805
 20
127.776836
 30
0.0
 40
2.5
  1
5
100
AcDbText
  0
POINT
  5
8A
100
AcDbEntity
  8
DEFPOINTS
  6
BYBLOCK
 62
     0
100
AcDbPoint
 10
119.429139
 20
132.370259
 30
0.0
  0
POINT
  5
8B
100
AcDbEntity
  8
DEFPOINTS
  6
BYBLOCK
 62
     0
100
AcDbPoint
 10
124.429139
 20
146.052434
 30
0.0
  0
POINT
  5
8C
100
AcDbEntity
  8
DEFPOINTS
  6
BYBLOCK
 62
     0
100
AcDbPoint
 10
124.429139
 20
126.776836
 30
0.0
  0
ENDBLK
  5
8E
100
AcDbEntity
  8
0
100
AcDbBlockEnd
  0
BLOCK
  5
40
100
AcDbEntity
  8
0
100
AcDbBlockBegin
  2
*D6
 70
     1
 10
0.0
 20
0.0
 30
0.0
  3
*D6
  1
AVE_GLOBAL
  0
LINE
  5
37
100
AcDbEntity
  8
0
  6
BYBLOCK
 62
     0
100
AcDbLine
 10
124.429139
 20
126.534336
 30
0.0
 11
124.429139
 21
120.612542
 31
0.0
  0
LINE
  5
38
100
AcDbEntity
  8
0
  6
BYBLOCK
 62
     0
100
AcDbLine
 10
100.929139
 20
145.989934
 30
0.0
 11
100.929139
 21
120.612542
 31
0.0
  0
LINE
  5
39
100
AcDbEntity
  8
0
  6
BYBLOCK
 62
     0
100
AcDbLine
 10
121.429139
 20
120.792542
 30
0.0
 11
103.929139
 21
120.792542
 31
0.0
  0
INSERT
  5
3A
100
AcDbEntity
  8
0
  6
BYBLOCK
 62
     0
100
AcDbBlockReference
  2
_OPEN
 10
124.429139
 20
120.792542
 30
0.0
 41
3.0
 42
3.0
 43
3.0
  0
INSERT
  5
3B
100
AcDbEntity
  8
0
  6
BYBLOCK
 62
     0
100
AcDbBlockReference
  2
_OPEN
 10
100.929139
 20
120.792542
 30
0.0
 41
3.0
 42
3.0
 43
3.0
 50
180.0
  0
TEXT
  5
3C
100
AcDbEntity
  8
0
  6
BYBLOCK
 62
     0
100
AcDbText
 10
108.929139
 20
121.792542
 30
0.0
 40
2.5
  1
23.5
100
AcDbText
  0
POINT
  5
3D
100
AcDbEntity
  8
DEFPOINTS
  6
BYBLOCK
 62
     0
100
AcDbPoint
 10
124.429139
 20
126.596836
 30
0.0
  0
POINT
  5
3E
100
AcDbEntity
  8
DEFPOINTS
  6
BYBLOCK
 62
     0
100
AcDbPoint
 10
100.929139
 20
146.052434
 30
0.0
  0
POINT
  5
3F
100
AcDbEntity
  8
DEFPOINTS
  6
BYBLOCK
 62
     0
100
AcDbPoint
 10
100.929139
 20
120.792542
 30
0.0
  0
ENDBLK
  5
41
100
AcDbEntity
  8
0
100
AcDbBlockEnd
  0
BLOCK
  5
33
100
AcDbEntity
  8
0
100
AcDbBlockBegin
  2
*D7
 70
     1
 10
0.0
 20
0.0
 30
0.0
  3
*D7
  1
AVE_GLOBAL
  0
LINE
  5
25
100
AcDbEntity
  8
0
  6
BYBLOCK
 62
     0
100
AcDbLine
 10
112.308188
 20
153.478177
 30
0.0
 11
110.550089
 21
154.626692
 31
0.0
  0
LINE
  5
26
100
AcDbEntity
  8
0
  6
BYBLOCK
 62
     0
100
AcDbLine
 10
108.038518
 20
156.267427
 30
0.0
 11
98.271299
 21
162.648065
 31
0.0
  0
INSERT
  5
27
100
AcDbEntity
  8
0
  6
BYBLOCK
 62
     0
100
AcDbBlockReference
  2
_OPEN
 10
114.819759
 20
151.837442
 30
0.0
 41
3.0
 42
3.0
 43
3.0
 50
326.844591
  0
INSERT
  5
2E
100
AcDbEntity
  8
0
  6
BYBLOCK
 62
     0
100
AcDbBlockReference
  2
_OPEN
 10
108.038518
 20
156.267427
 30
0.0
 41
3.0
 42
3.0
 43
3.0
 50
146.844591
  0
TEXT
  5
2F
100
AcDbEntity
  8
0
  6
BYBLOCK
 62
     0
100
AcDbText
 10
99.655401
 20
162.938344
 30
0.0
 40
2.5
  1
%%c8.1
 50
326.844591
100
AcDbText
  0
POINT
  5
30
100
AcDbEntity
  8
DEFPOINTS
  6
BYBLOCK
 62
     0
100
AcDbPoint
 10
108.038518
 20
156.267427
 30
0.0
  0
POINT
  5
32
100
AcDbEntity
  8
DEFPOINTS
  6
BYBLOCK
 62
     0
100
AcDbPoint
 10
114.819759
 20
151.837442
 30
0.0
  0
ENDBLK
  5
34
100
AcDbEntity
  8
0
100
AcDbBlockEnd
  0
ENDSEC
  0
SECTION
  2
ENTITIES
  0
TEXT
  5
21
100
AcDbEntity
  8
AXE
100
AcDbText
 10
96.686554
 20
171.728112
 30
0.0
 40
15.0
  1
Y
  7
ROMANS
100
AcDbText
  0
DIMENSION
  5
22
100
AcDbEntity
  8
COTATION1
100
AcDbDimension
  2
*D7
 10
114.819759
 20
151.837442
 30
0.0
 11
103.129675
 21
162.161792
 31
0.0
 70
     3
  3
SC_STAND
100
AcDbDiametricDimension
 15
108.038518
 25
156.267427
 35
0.0
 40
0.0
1001
ACAD
1000
DSTYLE
1002
{
1070
   284
1070
     0
1070
   340
1005
E
1070
   173
1070
     1
1070
   287
1070
     3
1070
     7
1000
_OPEN
1070
     6
1000
_OPEN
1070
   285
1070
     0
1070
   286
1070
     0
1002
}
  0
DIMENSION
  5
35
100
AcDbEntity
  8
COTATION1
100
AcDbDimension
  2
*D6
 10
100.929139
 20
120.792542
 30
0.0
 11
112.679139
 21
123.042542
 31
0.0
  3
SC_STAND
100
AcDbAlignedDimension
 13
124.429139
 23
126.596836
 33
0.0
 14
100.929139
 24
146.052434
 34
0.0
100
AcDbRotatedDimension
1001
ACAD
1000
DSTYLE
1002
{
1070
   284
1070
     0
1070
   340
1005
E
1070
   173
1070
     1
1070
   287
1070
     3
1070
     7
1000
_OPEN
1070
     6
1000
_OPEN
1070
   285
1070
     0
1070
   286
1070
     0
1002
}
  0
DIMENSION
  5
42
100
AcDbEntity
  8
COTATION1
100
AcDbDimension
  2
*D4
 10
103.429139
 20
132.370259
 30
0.0
 11
111.429139
 21
134.620259
 31
0.0
  1
{= <> =}
  3
SC_STAND
100
AcDbAlignedDimension
 13
119.429139
 23
144.102395
 33
0.0
 14
103.429139
 24
142.094075
 34
0.0
100
AcDbRotatedDimension
1001
ACAD
1000
DSTYLE
1002
{
1070
   284
1070
     0
1070
   340
1005
E
1070
   173
1070
     1
1070
   287
1070
     3
1070
     7
1000
_OPEN
1070
     6
1000
_OPEN
1070
   285
1070
     0
1070
   286
1070
     0
1002
}
  0
ARC
  5
51
100
AcDbEntity
  8
ALPHA
100
AcDbCircle
 10
104.298921
 20
155.052434
 30
0.0
 40
1.0
100
AcDbArc
 50
270.0
 51
352.016444
  0
ARC
  5
52
100
AcDbEntity
  8
ALPHA
100
AcDbCircle
 10
111.429139
 20
154.052434
 30
0.0
 40
6.2
100
AcDbArc
 50
129.522741
 51
172.016444
  0
LINE
  5
53
100
AcDbEntity
  8
ALPHA
100
AcDbLine
 10
100.929139
 20
146.052434
 30
0.0
 11
124.429139
 21
146.052434
 31
0.0
  0
LINE
  5
54
100
AcDbEntity
  8
ALPHA
100
AcDbLine
 10
100.929139
 20
153.052434
 30
0.0
 11
100.929139
 21
146.052434
 31
0.0
  0
LINE
  5
55
100
AcDbEntity
  8
AXE
100
AcDbLine
 10
103.429139
 20
147.416121
 30
0.0
 11
103.429139
 21
142.094075
 31
0.0
  0
LINE
  5
56
100
AcDbEntity
  8
ALPHA
100
AcDbLine
 10
102.429139
 20
143.552434
 30
0.0
 11
104.429139
 21
143.552434
 31
0.0
  0
LINE
  5
57
100
AcDbEntity
  8
ALPHA
100
AcDbLine
 10
102.429139
 20
146.052434
 30
0.0
 11
102.429139
 21
143.552434
 31
0.0
  0
LINE
  5
58
100
AcDbEntity
  8
ALPHA
100
AcDbLine
 10
104.429139
 20
146.052434
 30
0.0
 11
104.429139
 21
143.552434
 31
0.0
  0
ARC
  5
59
100
AcDbEntity
  8
ALPHA
100
AcDbCircle
 10
101.929139
 20
153.052434
 30
0.0
 40
1.0
100
AcDbArc
 50
90.0
 51
180.0
  0
LINE
  5
5A
100
AcDbEntity
  8
ALPHA
100
AcDbLine
 10
104.298921
 20
154.052434
 30
0.0
 11
101.929139
 21
154.052434
 31
0.0
  0
DIMENSION
  5
5B
100
AcDbEntity
  8
COTATION1
100
AcDbDimension
  2
*D2
 10
139.701366
 20
160.252434
 30
0.0
 11
137.451366
 21
153.152434
 31
0.0
  3
SC_STAND
100
AcDbAlignedDimension
 13
124.429139
 23
146.052434
 33
0.0
 14
124.429139
 24
160.252434
 34
0.0
 50
90.0
100
AcDbRotatedDimension
1001
ACAD
1000
DSTYLE
1002
{
1070
   284
1070
     0
1070
   340
1005
E
1070
   173
1070
     1
1070
   287
1070
     3
1070
     7
1000
_OPEN
1070
     6
1000
_OPEN
1070
   285
1070
     0
1070
   286
1070
     0
1002
}
  0
DIMENSION
  5
6A
100
AcDbEntity
  8
COTATION1
100
AcDbDimension
  2
*D1
 10
133.352399
 20
146.052434
 30
0.0
 11
131.102399
 21
151.302434
 31
0.0
  3
SC_STAND
100
AcDbAlignedDimension
 13
123.429139
 23
156.552434
 33
0.0
 14
124.429139
 24
146.052434
 34
0.0
 50
90.0
100
AcDbRotatedDimension
1001
ACAD
1000
DSTYLE
1002
{
1070
   284
1070
     0
1070
   340
1005
E
1070
   173
1070
     1
1070
   287
1070
     3
1070
     7
1000
_OPEN
1070
     6
1000
_OPEN
1070
   285
1070
     0
1070
   286
1070
     0
1002
}
  0
LINE
  5
79
100
AcDbEntity
  8
POINTILLE_MOYEN
100
AcDbLine
 10
117.429139
 20
152.802434
 30
0.0
 11
117.429139
 21
146.052434
 31
0.0
  0
LINE
  5
7C
100
AcDbEntity
  8
POINTILLE_MOYEN
100
AcDbLine
 10
121.429139
 20
152.802434
 30
0.0
 11
121.429139
 21
146.052434
 31
0.0
  0
LINE
  5
7D
100
AcDbEntity
  8
ALPHA
100
AcDbLine
 10
124.429139
 20
152.802434
 30
0.0
 11
124.429139
 21
146.052434
 31
0.0
  0
LINE
  5
7E
100
AcDbEntity
  8
AXE
100
AcDbLine
 10
119.429139
 20
163.379311
 30
0.0
 11
119.429139
 21
144.102395
 31
0.0
  0
LINE
  5
7F
100
AcDbEntity
  8
AXE
100
AcDbLine
 10
111.429139
 20
183.691152
 30
0.0
 11
111.429139
 21
136.821901
 31
0.0
  0
DIMENSION
  5
80
100
AcDbEntity
  8
COTATION1
100
AcDbDimension
  2
*D5
 10
124.429139
 20
126.776836
 30
0.0
 11
121.929139
 21
129.026836
 31
0.0
  3
SC_STAND
100
AcDbAlignedDimension
 13
119.429139
 23
132.370259
 33
0.0
 14
124.429139
 24
146.052434
 34
0.0
100
AcDbRotatedDimension
1001
ACAD
1000
DSTYLE
1002
{
1070
   284
1070
     0
1070
   340
1005
E
1070
   173
1070
     1
1070
   287
1070
     3
1070
     7
1000
_OPEN
1070
     6
1000
_OPEN
1070
   285
1070
     0
1070
   286
1070
     0
1002
}
  0
DIMENSION
  5
8F
100
AcDbEntity
  8
COTATION1
100
AcDbDimension
  2
*D3
 10
121.429139
 20
138.568278
 30
0.0
 11
130.512472
 21
140.818278
 31
0.0
  1
{%%C<>}
  3
SC_STAND
100
AcDbAlignedDimension
 13
117.429139
 23
146.052434
 33
0.0
 14
121.429139
 24
146.052434
 34
0.0
100
AcDbRotatedDimension
1001
ACAD
1000
DSTYLE
1002
{
1070
   284
1070
     0
1070
   340
1005
E
1070
   173
1070
     1
1070
   287
1070
     3
1070
     7
1000
_OPEN
1070
     6
1000
_OPEN
1070
   285
1070
     0
1070
   286
1070
     0
1002
}
  0
LINE
  5
9E
100
AcDbEntity
  8
AXE
100
AcDbLine
 10
111.429139
 20
131.265056
 30
0.0
 11
111.429139
 21
128.486634
 31
0.0
  0
LINE
  5
9F
100
AcDbEntity
  8
POINTILLE_MOYEN
100
AcDbLine
 10
117.419965
 20
156.552434
 30
0.0
 11
123.429139
 21
156.552434
 31
0.0
  0
LINE
  5
A0
100
AcDbEntity
  8
ALPHA
100
AcDbLine
 10
115.281411
 20
152.802434
 30
0.0
 11
124.429139
 21
152.802434
 31
0.0
  0
LINE
  5
A1
100
AcDbEntity
  8
ALPHA
100
AcDbLine
 10
115.281411
 20
155.302434
 30
0.0
 11
124.429139
 21
155.302434
 31
0.0
  0
LINE
  5
A2
100
AcDbEntity
  8
ALPHA
100
AcDbLine
 10
108.347171
 20
160.252434
 30
0.0
 11
124.429139
 21
160.252434
 31
0.0
  0
LINE
  5
A3
100
AcDbEntity
  8
AXE
100
AcDbLine
 10
105.535035
 20
154.052434
 30
0.0
 11
129.228507
 21
154.052434
 31
0.0
  0
ARC
  5
A4
100
AcDbEntity
  8
ALPHA
100
AcDbCircle
 10
111.429139
 20
154.052434
 30
0.0
 40
4.05
100
AcDbArc
 50
17.977409
 51
342.022591
  0
ARC
  5
A5
100
AcDbEntity
  8
ALPHA
100
AcDbCircle
 10
108.347171
 20
159.752434
 30
0.0
 40
0.5
100
AcDbArc
 50
90.0
 51
180.0
  0
ARC
  5
A6
100
AcDbEntity
  8
ALPHA
100
AcDbCircle
 10
106.847171
 20
159.606313
 30
0.0
 40
1.0
100
AcDbArc
 50
309.522741
 51
0.0
  0
LINE
  5
A7
100
AcDbEntity
  8
ALPHA
100
AcDbLine
 10
107.847171
 20
159.606313
 30
0.0
 11
107.847171
 21
159.752434
 31
0.0
  0
LINE
  5
A8
100
AcDbEntity
  8
POINTILLE_MOYEN
100
AcDbLine
 10
115.429139
 20
160.252434
 30
0.0
 11
115.429139
 21
159.016304
 31
0.0
  0
ARC
  5
A9
100
AcDbEntity
  8
POINTILLE_MOYEN
100
AcDbCircle
 10
117.419965
 20
157.052434
 30
0.0
 40
0.5
100
AcDbArc
 50
206.600135
 51
270.0
  0
ARC
  5
AA
100
AcDbEntity
  8
POINTILLE_MOYEN
100
AcDbCircle
 10
115.929139
 20
159.016304
 30
0.0
 40
0.5
100
AcDbArc
 50
180.0
 51
227.806094
  0
ARC
  5
AB
100
AcDbEntity
  8
POINTILLE_MOYEN
100
AcDbCircle
 10
111.429139
 20
154.052434
 30
0.0
 40
6.2
100
AcDbArc
 50
26.600135
 51
47.806094
  0
LINE
  5
AC
100
AcDbEntity
  8
POINTILLE_MOYEN
100
AcDbLine
 10
117.429139
 20
156.552434
 30
0.0
 11
117.429139
 21
155.302434
 31
0.0
  0
LINE
  5
AD
100
AcDbEntity
  8
POINTILLE_MOYEN
100
AcDbLine
 10
123.429139
 20
160.252434
 30
0.0
 11
123.429139
 21
156.552434
 31
0.0
  0
LINE
  5
AE
100
AcDbEntity
  8
ALPHA
100
AcDbLine
 10
124.429139
 20
160.252434
 30
0.0
 11
124.429139
 21
155.302434
 31
0.0
  0
LINE
  5
AF
100
AcDbEntity
  8
POINTILLE_MOYEN
100
AcDbLine
 10
121.429139
 20
156.552434
 30
0.0
 11
121.429139
 21
155.302434
 31
0.0
  0
LINE
  5
B0
100
AcDbEntity
  8
AXE
100
AcDbLine
 10
133.905838
 20
154.052434
 30
0.0
 11
135.73292
 21
154.052434
 31
0.0
  0
TEXT
  5
B1
100
AcDbEntity
  8
AXE
100
AcDbText
 10
144.316004
 20
156.528411
 30
0.0
 40
15.0
  1
X
  7
ROMANS
100
AcDbText
  0
LINE
  5
B2
100
AcDbEntity
  8
AXE
100
AcDbLine
 10
140.337168
 20
154.052434
 30
0.0
 11
157.990648
 21
154.052434
 31
0.0
  0
ENDSEC
  0
SECTION
  2
OBJECTS
  0
DICTIONARY
  5
C2
100
AcDbDictionary
  3
ACAD_GROUP
350
C3
  3
ACAD_MLINESTYLE
350
D0
  3
ACDBVARIABLEDICTIONARY
350
E8
  0
DICTIONARY
  5
C3
102
{ACAD_REACTORS
330
C2
102
}
100
AcDbDictionary
  0
DICTIONARY
  5
D0
102
{ACAD_REACTORS
330
C2
102
}
100
AcDbDictionary
  3
STANDARD
350
D1
  0
DICTIONARY
  5
E8
102
{ACAD_REACTORS
330
C2
102
}
100
AcDbDictionary
  3
DIMADEC
350
E9
  0
MLINESTYLE
  5
D1
102
{ACAD_REACTORS
330
D0
102
}
100
AcDbMlineStyle
  2
STANDARD
 70
     0
  3

 62
   256
 51
90.0
 52
90.0
 71
     2
 49
0.5
 62
   256
  6
BYLAYER
 49
-0.5
 62
   256
  6
BYLAYER
  0
DICTIONARYVAR
  5
E9
102
{ACAD_REACTORS
330
E8
102
}
100
DictionaryVariables
280
     0
  1
0
  0
ENDSEC
  0
EOF
