  0
SECTION
  2
HEADER
  9
$ACADVER
  1
AC1009
  9
$INSBASE
 10
-146.27124
 20
-153.796096
 30
0.0
  9
$EXTMIN
 10
612.419665
 20
-131.997221
 30
0.0
  9
$EXTMAX
 10
660.979558
 20
49.343991
 30
0.0
  9
$LIMMIN
 10
-407.970438
 20
-367.832444
  9
$LIMMAX
 10
429.804077
 20
234.370848
  9
$ORTHOMODE
 70
     1
  9
$REGENMODE
 70
     1
  9
$FILLMODE
 70
     1
  9
$QTEXTMODE
 70
     0
  9
$MIRRTEXT
 70
     1
  9
$DRAGMODE
 70
     2
  9
$LTSCALE
 40
10.0
  9
$OSMODE
 70
   165
  9
$ATTMODE
 70
     1
  9
$TEXTSIZE
 40
6.0
  9
$TRACEWID
 40
1.0
  9
$TEXTSTYLE
  7
ROMANS
  9
$CLAYER
  8
ALPHA
  9
$CELTYPE
  6
BYLAYER
  9
$CECOLOR
 62
   256
  9
$DIMSCALE
 40
1.0
  9
$DIMASZ
 40
2.0
  9
$DIMEXO
 40
0.3
  9
$DIMDLI
 40
0.1
  9
$DIMRND
 40
0.0
  9
$DIMDLE
 40
0.0
  9
$DIMEXE
 40
0.5
  9
$DIMTP
 40
0.0
  9
$DIMTM
 40
0.0
  9
$DIMTXT
 40
2.0
  9
$DIMCEN
 40
0.0
  9
$DIMTSZ
 40
0.0
  9
$DIMTOL
 70
     0
  9
$DIMLIM
 70
     0
  9
$DIMTIH
 70
     0
  9
$DIMTOH
 70
     0
  9
$DIMSE1
 70
     0
  9
$DIMSE2
 70
     0
  9
$DIMTAD
 70
     1
  9
$DIMZIN
 70
    12
  9
$DIMBLK
  1
OPEN30
  9
$DIMASO
 70
     1
  9
$DIMSHO
 70
     1
  9
$DIMPOST
  1

  9
$DIMAPOST
  1

  9
$DIMALT
 70
     0
  9
$DIMALTD
 70
     2
  9
$DIMALTF
 40
25.4
  9
$DIMLFAC
 40
1.0
  9
$DIMTOFL
 70
     0
  9
$DIMTVP
 40
0.0
  9
$DIMTIX
 70
     0
  9
$DIMSOXD
 70
     0
  9
$DIMSAH
 70
     0
  9
$DIMBLK1
  1

  9
$DIMBLK2
  1

  9
$DIMSTYLE
  2
SC_DEFAUT
  9
$DIMCLRD
 70
     0
  9
$DIMCLRE
 70
     0
  9
$DIMCLRT
 70
     0
  9
$DIMTFAC
 40
1.0
  9
$DIMGAP
 40
0.6
  9
$LUNITS
 70
     2
  9
$LUPREC
 70
     1
  9
$SKETCHINC
 40
0.1
  9
$FILLETRAD
 40
0.0
  9
$AUNITS
 70
     0
  9
$AUPREC
 70
     0
  9
$MENU
  1
acad
  9
$ELEVATION
 40
0.0
  9
$PELEVATION
 40
0.0
  9
$THICKNESS
 40
0.0
  9
$LIMCHECK
 70
     0
  9
$BLIPMODE
 70
     0
  9
$CHAMFERA
 40
0.0
  9
$CHAMFERB
 40
0.0
  9
$SKPOLY
 70
     0
  9
$TDCREATE
 40
2450365.355314
  9
$TDUPDATE
 40
2452587.511436
  9
$TDINDWG
 40
0.629126
  9
$TDUSRTIMER
 40
0.629126
  9
$USRTIMER
 70
     1
  9
$ANGBASE
 50
0.0
  9
$ANGDIR
 70
     0
  9
$PDMODE
 70
    32
  9
$PDSIZE
 40
0.0
  9
$PLINEWID
 40
0.0
  9
$COORDS
 70
     2
  9
$SPLFRAME
 70
     0
  9
$SPLINETYPE
 70
     6
  9
$SPLINESEGS
 70
     8
  9
$ATTDIA
 70
     0
  9
$ATTREQ
 70
     1
  9
$HANDLING
 70
     1
  9
$HANDSEED
  5
36B2
  9
$SURFTAB1
 70
     6
  9
$SURFTAB2
 70
     6
  9
$SURFTYPE
 70
     6
  9
$SURFU
 70
     6
  9
$SURFV
 70
     6
  9
$UCSNAME
  2

  9
$UCSORG
 10
0.0
 20
0.0
 30
0.0
  9
$UCSXDIR
 10
1.0
 20
0.0
 30
0.0
  9
$UCSYDIR
 10
0.0
 20
1.0
 30
0.0
  9
$PUCSNAME
  2

  9
$PUCSORG
 10
0.0
 20
0.0
 30
0.0
  9
$PUCSXDIR
 10
1.0
 20
0.0
 30
0.0
  9
$PUCSYDIR
 10
0.0
 20
1.0
 30
0.0
  9
$USERI1
 70
     0
  9
$USERI2
 70
     0
  9
$USERI3
 70
     0
  9
$USERI4
 70
     0
  9
$USERI5
 70
     0
  9
$USERR1
 40
0.0
  9
$USERR2
 40
0.0
  9
$USERR3
 40
0.0
  9
$USERR4
 40
0.0
  9
$USERR5
 40
0.0
  9
$WORLDVIEW
 70
     1
  9
$SHADEDGE
 70
     3
  9
$SHADEDIF
 70
    70
  9
$TILEMODE
 70
     1
  9
$MAXACTVP
 70
    16
  9
$PLIMCHECK
 70
     0
  9
$PEXTMIN
 10
1.000000E+020
 20
1.000000E+020
 30
1.000000E+020
  9
$PEXTMAX
 10
-1.000000E+020
 20
-1.000000E+020
 30
-1.000000E+020
  9
$PLIMMIN
 10
0.0
 20
0.0
  9
$PLIMMAX
 10
12.0
 20
9.0
  9
$UNITMODE
 70
     0
  9
$VISRETAIN
 70
     0
  9
$PLINEGEN
 70
     0
  9
$PSLTSCALE
 70
     0
  0
ENDSEC
  0
SECTION
  2
TABLES
  0
TABLE
  2
VPORT
 70
     2
  0
VPORT
  2
*ACTIVE
 70
     0
 10
0.0
 20
0.0
 11
1.0
 21
1.0
 12
636.708968
 22
-41.323507
 13
0.0
 23
0.0
 14
1.0
 24
1.0
 15
10.0
 25
10.0
 16
0.0
 26
0.0
 36
1.0
 17
0.0
 27
0.0
 37
0.0
 40
183.030275
 41
1.63142
 42
50.0
 43
0.0
 44
0.0
 50
0.0
 51
0.0
 71
     0
 72
   100
 73
     1
 74
     0
 75
     0
 76
     0
 77
     0
 78
     0
  0
ENDTAB
  0
TABLE
  2
LTYPE
 70
    24
  0
LTYPE
  2
CONTINUOUS
 70
     0
  3
Solid line
 72
    65
 73
     0
 40
0.0
  0
LTYPE
  2
AXES2
 70
     0
  3
___ _ ___ _ ___ _ ___ _ ___ _ ___ _ ___ _ ___ _
 72
    65
 73
     4
 40
1.125
 49
0.75
 49
-0.125
 49
0.125
 49
-0.125
  0
LTYPE
  2
ACAD_ISO04W100
 70
     0
  3
ISO Lang gestrichelt punktiert ____ . ____ . __
 72
    65
 73
     4
 40
30.5
 49
24.0
 49
-3.0
 49
0.5
 49
-3.0
  0
LTYPE
  2
AXES
 70
     0
  3
____ _ ____ _ ____ _ ____ _ ____ _ ____ _ ____ 
 72
    65
 73
     4
 40
2.0
 49
1.25
 49
-0.25
 49
0.25
 49
-0.25
  0
LTYPE
  2
AXESX2
 70
     0
  3
________  __  ________  __  ________  __  _____
 72
    65
 73
     4
 40
4.0
 49
2.5
 49
-0.5
 49
0.5
 49
-0.5
  0
LTYPE
  2
TIRETPT
 70
     0
  3
__ . __ . __ . __ . __ . __ . __ . __ . __ . __
 72
    65
 73
     4
 40
1.0
 49
0.5
 49
-0.25
 49
0.0
 49
-0.25
  0
LTYPE
  2
TIRETPT2
 70
     0
  3
_._._._._._._._._._._._._._._._._._._._._._._._
 72
    65
 73
     4
 40
0.5
 49
0.25
 49
-0.125
 49
0.0
 49
-0.125
  0
LTYPE
  2
TIRETPTX2
 70
     0
  3
____  .  ____  .  ____  .  ____  .  ____  .  __
 72
    65
 73
     4
 40
2.0
 49
1.0
 49
-0.5
 49
0.0
 49
-0.5
  0
LTYPE
  2
DISCONTINU
 70
     0
  3
__ __ __ __ __ __ __ __ __ __ __ __ __ __ __ __
 72
    65
 73
     2
 40
0.75
 49
0.5
 49
-0.25
  0
LTYPE
  2
DISCONTINU2
 70
     0
  3
_ _ _ _ _ _ _ _ _ _ _ _ _ _ _ _ _ _ _ _ _ _ _ _
 72
    65
 73
     2
 40
0.375
 49
0.25
 49
-0.125
  0
LTYPE
  2
DISCONTINUX2
 70
     0
  3
____  ____  ____  ____  ____  ____  ____  ____ 
 72
    65
 73
     2
 40
1.5
 49
1.0
 49
-0.5
  0
LTYPE
  2
DIVISE
 70
     0
  3
____ . . ____ . . ____ . . ____ . . ____ . . __
 72
    65
 73
     6
 40
1.25
 49
0.5
 49
-0.25
 49
0.0
 49
-0.25
 49
0.0
 49
-0.25
  0
LTYPE
  2
DIVISE2
 70
     0
  3
__..__..__..__..__..__..__..__..__..__..__..__.
 72
    65
 73
     6
 40
0.625
 49
0.25
 49
-0.125
 49
0.0
 49
-0.125
 49
0.0
 49
-0.125
  0
LTYPE
  2
DIVISEX2
 70
     0
  3
________  .  .  ________  .  .  ________  .  . 
 72
    65
 73
     6
 40
2.5
 49
1.0
 49
-0.5
 49
0.0
 49
-0.5
 49
0.0
 49
-0.5
  0
LTYPE
  2
POINTILLE
 70
     0
  3
. . . . . . . . . . . . . . . . . . . . . . . .
 72
    65
 73
     2
 40
0.25
 49
0.0
 49
-0.25
  0
LTYPE
  2
POINTILLE2
 70
     0
  3
...............................................
 72
    65
 73
     2
 40
0.125
 49
0.0
 49
-0.125
  0
LTYPE
  2
POINTILLEX2
 70
     0
  3
.  .  .  .  .  .  .  .  .  .  .  .  .  .  .  . 
 72
    65
 73
     2
 40
0.5
 49
0.0
 49
-0.5
  0
LTYPE
  2
CACHE
 70
     0
  3
__ __ __ __ __ __ __ __ __ __ __ __ __ __ __ __
 72
    65
 73
     2
 40
0.375
 49
0.25
 49
-0.125
  0
LTYPE
  2
CACHE2
 70
     0
  3
_ _ _ _ _ _ _ _ _ _ _ _ _ _ _ _ _ _ _ _ _ _ _ _
 72
    65
 73
     2
 40
0.1875
 49
0.125
 49
-0.0625
  0
LTYPE
  2
CACHEX2
 70
     0
  3
____ ____ ____ ____ ____ ____ ____ ____ ____ __
 72
    65
 73
     2
 40
0.75
 49
0.5
 49
-0.25
  0
LTYPE
  2
FANTOME
 70
     0
  3
______  __  __  ______  __  __  ______  __  __ 
 72
    65
 73
     6
 40
2.5
 49
1.25
 49
-0.25
 49
0.25
 49
-0.25
 49
0.25
 49
-0.25
  0
LTYPE
  2
FANTOME2
 70
     0
  3
___ _ _ ___ _ _ ___ _ _ ___ _ _ ___ _ _ ___ _ _
 72
    65
 73
     6
 40
1.25
 49
0.625
 49
-0.125
 49
0.125
 49
-0.125
 49
0.125
 49
-0.125
  0
LTYPE
  2
FANTOMEX2
 70
     0
  3
____________    ____    ____    ____________   
 72
    65
 73
     6
 40
5.0
 49
2.5
 49
-0.5
 49
0.5
 49
-0.5
 49
0.5
 49
-0.5
  0
LTYPE
  2
0
 70
     0
  3
MEDUSA PEN 0
 72
    65
 73
     0
 40
0.0
  0
ENDTAB
  0
TABLE
  2
LAYER
 70
    17
  0
LAYER
  2
0
 70
     0
 62
     7
  6
CONTINUOUS
  0
LAYER
  2
TEXTE_MOYEN
 70
     0
 62
   131
  6
CONTINUOUS
  0
LAYER
  2
ALPHA
 70
     0
 62
   254
  6
CONTINUOUS
  0
LAYER
  2
COTATION1
 70
     0
 62
    50
  6
CONTINUOUS
  0
LAYER
  2
AXE
 70
     0
 62
    80
  6
AXES2
  0
LAYER
  2
DEFPOINTS
 70
     0
 62
     7
  6
CONTINUOUS
  0
LAYER
  2
HACHURES1
 70
     0
 62
   130
  6
CONTINUOUS
  0
LAYER
  2
FMULT
 70
     0
 62
   210
  6
CONTINUOUS
  0
LAYER
  2
FDP_CARTOUCHE
 70
     0
 62
   136
  6
CONTINUOUS
  0
LAYER
  2
FDP_TEXTES
 70
     0
 62
   171
  6
CONTINUOUS
  0
LAYER
  2
FDP_LOGO_MG
 70
     0
 62
    30
  6
CONTINUOUS
  0
LAYER
  2
FDP_LOGO_SCH
 70
     0
 62
    90
  6
CONTINUOUS
  0
LAYER
  2
FDP_FDP
 70
     0
 62
   170
  6
CONTINUOUS
  0
LAYER
  2
POINTILLE_COURT2
 70
     0
 62
    41
  6
CACHE2
  0
LAYER
  2
POINTILLE_MOYEN2
 70
     0
 62
   141
  6
CACHE
  0
LAYER
  2
POINTILLE_LONG2
 70
     0
 62
   241
  6
CACHEX2
  0
LAYER
  2
ALPHA_FIN
 70
     0
 62
   255
  6
CONTINUOUS
  0
ENDTAB
  0
TABLE
  2
STYLE
 70
     5
  0
STYLE
  2
ROMANS
 70
     0
 40
0.0
 41
1.0
 50
0.0
 71
     0
 42
6.0
  3
romans
  4

  0
STYLE
  2
STANDARD
 70
     0
 40
0.2
 41
1.0
 50
0.0
 71
     0
 42
0.2
  3
txt
  4

  0
STYLE
  2
STD
 70
     0
 40
0.0
 41
1.0
 50
0.0
 71
     0
 42
0.0
  3
txt
  4

  0
STYLE
  2
INFOCAR
 70
     0
 40
0.0
 41
1.34
 50
0.0
 71
     0
 42
2.0
  3
ROMANS.SHX
  4

  0
STYLE
  2
CARTOUCHE
 70
     0
 40
0.0
 41
1.0
 50
0.0
 71
     0
 42
0.2
  3
ROMANS.SHX
  4

  0
ENDTAB
  0
TABLE
  2
VIEW
 70
     0
  0
ENDTAB
  0
TABLE
  2
UCS
 70
     0
  0
ENDTAB
  0
TABLE
  2
APPID
 70
     3
  0
APPID
  2
ACAD
 70
     0
  0
APPID
  2
AVE_RENDER
 70
     0
  0
APPID
  2
AVE_MATERIAL
 70
     0
  0
ENDTAB
  0
TABLE
  2
DIMSTYLE
 70
     2
  0
DIMSTYLE
  2
SC_DEFAUT
 70
     0
  3

  4

  5
OPEN30
  6

  7

 40
1.0
 41
2.0
 42
0.3
 43
0.1
 44
0.5
 45
0.0
 46
0.0
 47
0.0
 48
0.0
140
2.0
141
0.0
142
0.0
143
25.4
144
1.0
145
0.0
146
1.0
147
0.6
 71
     0
 72
     0
 73
     0
 74
     0
 75
     0
 76
     0
 77
     1
 78
    12
170
     0
171
     2
172
     0
173
     0
174
     0
175
     0
176
     0
177
     0
178
     0
  0
DIMSTYLE
  2
ROMANS
 70
     0
  3

  4

  5
OPEN30
  6

  7

 40
1.0
 41
2.0
 42
0.5
 43
0.38
 44
0.18
 45
0.0
 46
0.0
 47
0.0
 48
0.0
140
2.0
141
0.09
142
0.0
143
25.4
144
1.0
145
0.0
146
1.0
147
0.5
 71
     0
 72
     0
 73
     0
 74
     0
 75
     0
 76
     0
 77
     1
 78
    12
170
     0
171
     2
172
     0
173
     0
174
     0
175
     0
176
     0
177
     0
178
     0
  0
ENDTAB
  0
ENDSEC
  0
SECTION
  2
BLOCKS
  0
BLOCK
  8
0
  2
$MODEL_SPACE
 70
     0
 10
0.0
 20
0.0
 30
0.0
  3
$MODEL_SPACE
  1

  0
ENDBLK
  5
3643
  8
0
  0
BLOCK
 67
     1
  8
0
  2
$PAPER_SPACE
 70
     0
 10
0.0
 20
0.0
 30
0.0
  3
$PAPER_SPACE
  1

  0
ENDBLK
  5
3641
 67
     1
  8
0
  0
BLOCK
  8
0
  2
COTE
 70
     0
 10
0.0
 20
0.0
 30
0.0
  3
COTE
  1

  0
ENDBLK
  5
35
  8
0
  0
BLOCK
  8
0
  2
FOND
 70
     0
 10
0.0
 20
0.0
 30
0.0
  3
FOND
  1

  0
ENDBLK
  5
39
  8
0
  0
BLOCK
  8
0
  2
SCH_ISO
 70
     0
 10
0.0
 20
0.0
 30
0.0
  3
SCH_ISO
  1

  0
ENDBLK
  5
24AD
  8
0
  0
BLOCK
  8
0
  2
_OPEN30
 70
     0
 10
0.0
 20
0.0
 30
0.0
  3
_OPEN30
  1

  0
LINE
  5
27E1
  8
COTATION1
 62
     0
 10
-1.0
 20
0.267949
 30
0.0
 11
0.0
 21
0.0
 31
0.0
1001
ACAD
1000
RTLwPs
1070
   158
  0
LINE
  5
27E2
  8
COTATION1
 62
     0
 10
0.0
 20
0.0
 30
0.0
 11
-1.0
 21
-0.267949
 31
0.0
1001
ACAD
1000
RTLwPs
1070
   158
  0
LINE
  5
27E3
  8
COTATION1
 62
     0
 10
0.0
 20
0.0
 30
0.0
 11
-1.0
 21
0.0
 31
0.0
1001
ACAD
1000
RTLwPs
1070
   158
  0
ENDBLK
  5
27E5
  8
0
  0
BLOCK
  8
0
  2
*D4
 70
     1
 10
0.0
 20
0.0
 30
0.0
  3
*D4
  1

  0
LINE
  5
33E7
  8
COTATION1
 62
     0
 10
633.41967
 20
-44.946409
 30
0.0
 11
633.41967
 21
-40.054931
 31
0.0
1001
ACAD
1000
RTLwPs
1070
   158
  0
LINE
  5
33E8
  8
COTATION1
 62
     0
 10
641.419659
 20
-44.946409
 30
0.0
 11
641.419659
 21
-40.054931
 31
0.0
1001
ACAD
1000
RTLwPs
1070
   158
  0
LINE
  5
33E9
  8
COTATION1
 62
     0
 10
639.419659
 20
-40.554931
 30
0.0
 11
635.41967
 21
-40.554931
 31
0.0
1001
ACAD
1000
RTLwPs
1070
   158
  0
LINE
  5
33EA
  8
COTATION1
 62
     0
 10
633.41967
 20
-40.554931
 30
0.0
 11
616.329214
 21
-40.554931
 31
0.0
1001
ACAD
1000
RTLwPs
1070
   158
  0
INSERT
  5
33EB
  8
COTATION1
 62
     0
  2
_OPEN30
 10
641.419659
 20
-40.554931
 30
0.0
 41
2.0
 42
2.0
 43
2.0
1001
ACAD
1000
RTLwPs
1070
   158
  0
INSERT
  5
33EC
  8
COTATION1
 62
     0
  2
_OPEN30
 10
633.41967
 20
-40.554931
 30
0.0
 41
2.0
 42
2.0
 43
2.0
 50
180.0
1001
ACAD
1000
RTLwPs
1070
   158
  0
TEXT
  5
33ED
  8
COTATION1
 62
     0
 10
616.548262
 20
-39.954931
 30
0.0
 40
2.0
  1
M8x1.25
1001
ACAD
1000
MTEXTBEGIN
1070
    73
1070
     1
1070
    44
1040
1.0
1070
    74
1070
     0
1000
MTEXTEND
1000
MTEXTBEGIN
1070
    73
1070
     1
1070
    44
1040
1.0
1070
    74
1070
     0
1000
MTEXTEND
  0
POINT
  5
33EE
  8
DEFPOINTS
 62
     0
 10
633.41967
 20
-45.246409
 30
0.0
  0
POINT
  5
33EF
  8
DEFPOINTS
 62
     0
 10
641.419659
 20
-45.246409
 30
0.0
  0
POINT
  5
33F0
  8
DEFPOINTS
 62
     0
 10
641.419659
 20
-40.554931
 30
0.0
  0
ENDBLK
  5
3110
  8
0
  0
BLOCK
  8
0
  2
*D5
 70
     1
 10
0.0
 20
0.0
 30
0.0
  3
*D5
  1

  0
LINE
  5
350D
  8
COTATION1
 62
     0
 10
641.419659
 20
-44.946409
 30
0.0
 11
656.559975
 21
-44.946409
 31
0.0
1001
ACAD
1000
RTLwPs
1070
   158
  0
LINE
  5
350E
  8
COTATION1
 62
     0
 10
641.420419
 20
-64.946438
 30
0.0
 11
656.559975
 21
-64.946438
 31
0.0
1001
ACAD
1000
RTLwPs
1070
   158
  0
LINE
  5
350F
  8
COTATION1
 62
     0
 10
656.059975
 20
-46.946409
 30
0.0
 11
656.059975
 21
-62.946438
 31
0.0
1001
ACAD
1000
RTLwPs
1070
   158
  0
INSERT
  5
3510
  8
COTATION1
 62
     0
  2
_OPEN30
 10
656.059975
 20
-44.946409
 30
0.0
 41
2.0
 42
2.0
 43
2.0
 50
90.0
1001
ACAD
1000
RTLwPs
1070
   158
  0
INSERT
  5
3511
  8
COTATION1
 62
     0
  2
_OPEN30
 10
656.059975
 20
-64.946438
 30
0.0
 41
2.0
 42
2.0
 43
2.0
 50
270.0
1001
ACAD
1000
RTLwPs
1070
   158
  0
TEXT
  5
3512
  8
COTATION1
 62
     0
 10
655.459975
 20
-56.851186
 30
0.0
 40
2.0
  1
20
 50
90.0
1001
ACAD
1000
MTEXTBEGIN
1070
    73
1070
     1
1070
    44
1040
1.0
1070
    74
1070
     0
1000
MTEXTEND
  0
POINT
  5
3513
  8
DEFPOINTS
 62
     0
 10
641.119659
 20
-44.946409
 30
0.0
  0
POINT
  5
3514
  8
DEFPOINTS
 62
     0
 10
641.120419
 20
-64.946438
 30
0.0
  0
POINT
  5
3515
  8
DEFPOINTS
 62
     0
 10
656.059975
 20
-64.946438
 30
0.0
  0
ENDBLK
  5
3194
  8
0
  0
BLOCK
  8
0
  2
*D6
 70
     1
 10
0.0
 20
0.0
 30
0.0
  3
*D6
  1

  0
LINE
  5
32BE
  8
COTATION1
 62
     0
 10
638.519684
 20
-65.246438
 30
0.0
 11
638.519684
 21
-84.98068
 31
0.0
1001
ACAD
1000
RTLwPs
1070
   158
  0
LINE
  5
32BF
  8
COTATION1
 62
     0
 10
636.319646
 20
-65.246438
 30
0.0
 11
636.319646
 21
-84.98068
 31
0.0
1001
ACAD
1000
RTLwPs
1070
   158
  0
LINE
  5
32C0
  8
COTATION1
 62
     0
 10
640.519684
 20
-84.48068
 30
0.0
 11
642.519684
 21
-84.48068
 31
0.0
1001
ACAD
1000
RTLwPs
1070
   158
  0
LINE
  5
32C1
  8
COTATION1
 62
     0
 10
634.319646
 20
-84.48068
 30
0.0
 11
624.833931
 21
-84.48068
 31
0.0
1001
ACAD
1000
RTLwPs
1070
   158
  0
INSERT
  5
32C2
  8
COTATION1
 62
     0
  2
_OPEN30
 10
638.519684
 20
-84.48068
 30
0.0
 41
2.0
 42
2.0
 43
2.0
 50
180.0
1001
ACAD
1000
RTLwPs
1070
   158
  0
INSERT
  5
32C3
  8
COTATION1
 62
     0
  2
_OPEN30
 10
636.319646
 20
-84.48068
 30
0.0
 41
2.0
 42
2.0
 43
2.0
1001
ACAD
1000
RTLwPs
1070
   158
  0
TEXT
  5
32C4
  8
COTATION1
 62
     0
 10
625.148217
 20
-83.88068
 30
0.0
 40
2.0
  1
Ø2.2
1001
ACAD
1000
MTEXTBEGIN
1070
    73
1070
     1
1070
    44
1040
1.0
1070
    74
1070
     0
1000
MTEXTEND
1000
MTEXTBEGIN
1070
    73
1070
     1
1070
    44
1040
1.0
1070
    74
1070
     0
1000
MTEXTEND
  0
POINT
  5
32C5
  8
DEFPOINTS
 62
     0
 10
638.519684
 20
-64.946438
 30
0.0
  0
POINT
  5
32C6
  8
DEFPOINTS
 62
     0
 10
636.319646
 20
-64.946438
 30
0.0
  0
POINT
  5
32C7
  8
DEFPOINTS
 62
     0
 10
636.319646
 20
-84.48068
 30
0.0
  0
ENDBLK
  5
31D8
  8
0
  0
ENDSEC
  0
SECTION
  2
ENTITIES
  0
INSERT
  5
32
  8
0
  2
COTE
 10
0.0
 20
0.0
 30
0.0
  0
INSERT
  5
36
  8
0
  2
FOND
 10
0.0
 20
0.0
 30
0.0
  0
INSERT
  5
24AE
  8
ALPHA
  2
SCH_ISO
 10
-66.27012
 20
-238.940658
 30
0.0
  0
POLYLINE
  5
2FF3
  8
ALPHA
 66
     1
 10
0.0
 20
0.0
 30
0.0
 70
   128
  0
VERTEX
  5
3649
  8
ALPHA
 10
629.030121
 20
-57.554563
 30
0.0
  0
VERTEX
  5
364A
  8
ALPHA
 10
629.202276
 20
-58.004471
 30
0.0
  0
VERTEX
  5
364B
  8
ALPHA
 10
629.671709
 20
-58.37142
 30
0.0
  0
VERTEX
  5
364C
  8
ALPHA
 10
631.220217
 20
-58.709162
 30
0.0
  0
VERTEX
  5
364D
  8
ALPHA
 10
632.769279
 20
-58.37142
 30
0.0
  0
VERTEX
  5
364E
  8
ALPHA
 10
633.238366
 20
-58.004471
 30
0.0
  0
VERTEX
  5
364F
  8
ALPHA
 10
633.410313
 20
-57.554563
 30
0.0
  0
SEQEND
  5
3650
  8
ALPHA
  0
POLYLINE
  5
2FF4
  8
ALPHA
 66
     1
 10
0.0
 20
0.0
 30
0.0
 70
   128
  0
VERTEX
  5
3651
  8
ALPHA
 10
641.441812
 20
-57.554563
 30
0.0
  0
VERTEX
  5
3652
  8
ALPHA
 10
641.613967
 20
-58.004471
 30
0.0
  0
VERTEX
  5
3653
  8
ALPHA
 10
642.0834
 20
-58.37142
 30
0.0
  0
VERTEX
  5
3654
  8
ALPHA
 10
643.631908
 20
-58.709162
 30
0.0
  0
VERTEX
  5
3655
  8
ALPHA
 10
645.180601
 20
-58.37142
 30
0.0
  0
VERTEX
  5
3656
  8
ALPHA
 10
645.649918
 20
-58.004471
 30
0.0
  0
VERTEX
  5
3657
  8
ALPHA
 10
645.822004
 20
-57.554563
 30
0.0
  0
SEQEND
  5
3658
  8
ALPHA
  0
POLYLINE
  5
2FF5
  8
ALPHA
 66
     1
 10
0.0
 20
0.0
 30
0.0
 70
   128
  0
VERTEX
  5
3659
  8
ALPHA
 10
633.410313
 20
-57.554563
 30
0.0
  0
VERTEX
  5
365A
  8
ALPHA
 10
633.725954
 20
-58.004471
 30
0.0
  0
VERTEX
  5
365B
  8
ALPHA
 10
634.58669
 20
-58.37142
 30
0.0
  0
VERTEX
  5
365C
  8
ALPHA
 10
635.863236
 20
-58.61859
 30
0.0
  0
VERTEX
  5
365D
  8
ALPHA
 10
637.426309
 20
-58.709162
 30
0.0
  0
VERTEX
  5
365E
  8
ALPHA
 10
638.989513
 20
-58.61859
 30
0.0
  0
VERTEX
  5
365F
  8
ALPHA
 10
640.265866
 20
-58.37142
 30
0.0
  0
VERTEX
  5
3660
  8
ALPHA
 10
641.126317
 20
-58.004471
 30
0.0
  0
VERTEX
  5
3661
  8
ALPHA
 10
641.441812
 20
-57.554563
 30
0.0
  0
SEQEND
  5
3662
  8
ALPHA
  0
LINE
  5
2FF6
  8
ALPHA
 10
633.419664
 20
-57.723865
 30
0.0
 11
633.419664
 21
-54.097657
 31
0.0
  0
POLYLINE
  5
2FF8
  8
ALPHA
 66
     1
 10
0.0
 20
0.0
 30
0.0
 70
   128
210
0.0
220
0.0
230
-1.0
  0
VERTEX
  5
3663
  8
ALPHA
 10
-629.030121
 20
-49.076678
 30
0.0
  0
VERTEX
  5
3664
  8
ALPHA
 10
-629.202276
 20
-48.627032
 30
0.0
  0
VERTEX
  5
3665
  8
ALPHA
 10
-629.671709
 20
-48.259698
 30
0.0
  0
VERTEX
  5
3666
  8
ALPHA
 10
-631.220217
 20
-47.921095
 30
0.0
  0
VERTEX
  5
3667
  8
ALPHA
 10
-632.769279
 20
-48.259698
 30
0.0
  0
VERTEX
  5
3668
  8
ALPHA
 10
-633.238366
 20
-48.627032
 30
0.0
  0
VERTEX
  5
3669
  8
ALPHA
 10
-633.410313
 20
-49.076678
 30
0.0
  0
SEQEND
  5
366A
  8
ALPHA
  0
POLYLINE
  5
2FF9
  8
ALPHA
 66
     1
 10
0.0
 20
0.0
 30
0.0
 70
   128
210
0.0
220
0.0
230
-1.0
  0
VERTEX
  5
366B
  8
ALPHA
 10
-641.441812
 20
-49.076678
 30
0.0
  0
VERTEX
  5
366C
  8
ALPHA
 10
-641.613967
 20
-48.627032
 30
0.0
  0
VERTEX
  5
366D
  8
ALPHA
 10
-642.0834
 20
-48.259698
 30
0.0
  0
VERTEX
  5
366E
  8
ALPHA
 10
-643.631908
 20
-47.921095
 30
0.0
  0
VERTEX
  5
366F
  8
ALPHA
 10
-645.180601
 20
-48.259698
 30
0.0
  0
VERTEX
  5
3670
  8
ALPHA
 10
-645.649918
 20
-48.627032
 30
0.0
  0
VERTEX
  5
3671
  8
ALPHA
 10
-645.822004
 20
-49.076678
 30
0.0
  0
SEQEND
  5
3672
  8
ALPHA
  0
POLYLINE
  5
2FFA
  8
ALPHA
 66
     1
 10
0.0
 20
0.0
 30
0.0
 70
   128
210
0.0
220
0.0
230
-1.0
  0
VERTEX
  5
3673
  8
ALPHA
 10
-633.410313
 20
-49.076678
 30
0.0
  0
VERTEX
  5
3674
  8
ALPHA
 10
-633.725954
 20
-48.627032
 30
0.0
  0
VERTEX
  5
3675
  8
ALPHA
 10
-634.58669
 20
-48.259698
 30
0.0
  0
VERTEX
  5
3676
  8
ALPHA
 10
-635.863236
 20
-48.011959
 30
0.0
  0
VERTEX
  5
3677
  8
ALPHA
 10
-637.426309
 20
-47.921095
 30
0.0
  0
VERTEX
  5
3678
  8
ALPHA
 10
-638.989513
 20
-48.011959
 30
0.0
  0
VERTEX
  5
3679
  8
ALPHA
 10
-640.265866
 20
-48.259698
 30
0.0
  0
VERTEX
  5
367A
  8
ALPHA
 10
-641.126317
 20
-48.627032
 30
0.0
  0
VERTEX
  5
367B
  8
ALPHA
 10
-641.441812
 20
-49.076678
 30
0.0
  0
SEQEND
  5
367C
  8
ALPHA
  0
LINE
  5
2FFB
  8
ALPHA
 10
633.419664
 20
-48.906392
 30
0.0
 11
633.419664
 21
-52.533584
 31
0.0
  0
DIMENSION
  5
3103
  8
COTATION1
  2
*D4
 10
641.419659
 20
-40.554931
 30
0.0
 11
622.833976
 21
-40.554931
 31
0.0
 70
   128
  1
M<>x1.25
 13
633.41967
 23
-45.246409
 33
0.0
 14
641.419659
 24
-45.246409
 34
0.0
  0
DIMENSION
  5
3188
  8
COTATION1
  2
*D5
 10
656.059975
 20
-64.946438
 30
0.0
 11
654.459975
 21
-54.946424
 31
0.0
 13
641.119659
 23
-44.946409
 33
0.0
 14
641.120419
 24
-64.946438
 34
0.0
 50
90.0
  0
DIMENSION
  5
31CB
  8
COTATION1
  2
*D6
 10
636.319646
 20
-84.48068
 30
0.0
 11
628.576788
 21
-84.48068
 31
0.0
 70
   128
  1
Ø<>
 13
638.519684
 23
-64.946438
 33
0.0
 14
636.319646
 24
-64.946438
 34
0.0
  0
LINE
  5
32C9
  8
AXE
 10
660.979558
 20
-37.102954
 30
0.0
 11
612.419665
 21
-37.102954
 31
0.0
  0
TEXT
  5
32CA
  8
AXE
 10
654.503367
 20
-36.102954
 30
0.0
 40
8.0
  1
X
 72
     2
 11
660.979558
 21
-36.102954
 31
0.0
  0
TEXT
  5
32CB
  8
AXE
 10
629.958722
 20
-131.838478
 30
0.0
 40
8.0
  1
Y
 72
     2
 11
636.434913
 21
-131.838478
 31
0.0
  0
LINE
  5
32CC
  8
AXE
 10
637.419665
 20
49.343991
 30
0.0
 11
637.419665
 21
-131.997221
 31
0.0
  0
ARC
  5
3399
  8
ALPHA
 10
637.419665
 20
-50.959301
 30
0.0
 40
7.030832
 50
58.783788
 51
121.216212
  0
LINE
  5
33AE
  8
ALPHA
 10
633.42043
 20
-64.646438
 30
0.0
 11
641.420419
 21
-64.646438
 31
0.0
  0
LINE
  5
33B0
  8
ALPHA
 10
633.42043
 20
-64.646438
 30
0.0
 11
633.718911
 21
-64.946438
 31
0.0
  0
LINE
  5
33B3
  8
ALPHA
 10
641.120419
 20
-64.946438
 30
0.0
 11
641.120419
 21
-58.787907
 31
0.0
  0
LINE
  5
33B4
  8
ALPHA
 10
641.420419
 20
-64.646438
 30
0.0
 11
641.120419
 21
-64.946438
 31
0.0
  0
LINE
  5
33B6
  8
ALPHA
 10
641.419659
 20
-45.246409
 30
0.0
 11
633.41967
 21
-45.246409
 31
0.0
  0
LINE
  5
33B8
  8
ALPHA
 10
633.71967
 20
-44.946409
 30
0.0
 11
633.41967
 21
-45.246409
 31
0.0
  0
LINE
  5
33B9
  8
ALPHA
 10
633.71967
 20
-44.946409
 30
0.0
 11
633.71967
 21
-47.844318
 31
0.0
  0
LINE
  5
33BB
  8
ALPHA
 10
641.119659
 20
-44.946409
 30
0.0
 11
641.419659
 21
-45.246409
 31
0.0
  0
POLYLINE
  5
33F1
  8
ALPHA
 66
     1
 10
0.0
 20
0.0
 30
0.0
 70
   128
210
0.0
220
0.0
230
-1.0
  0
VERTEX
  5
367D
  8
ALPHA
 10
-629.030121
 20
-16.651344
 30
0.0
  0
VERTEX
  5
367E
  8
ALPHA
 10
-629.202276
 20
-16.201437
 30
0.0
  0
VERTEX
  5
367F
  8
ALPHA
 10
-629.671709
 20
-15.834488
 30
0.0
  0
VERTEX
  5
3680
  8
ALPHA
 10
-631.220217
 20
-15.496746
 30
0.0
  0
VERTEX
  5
3681
  8
ALPHA
 10
-632.769279
 20
-15.834488
 30
0.0
  0
VERTEX
  5
3682
  8
ALPHA
 10
-633.238366
 20
-16.201437
 30
0.0
  0
VERTEX
  5
3683
  8
ALPHA
 10
-633.410313
 20
-16.651344
 30
0.0
  0
SEQEND
  5
3684
  8
ALPHA
  0
POLYLINE
  5
33F2
  8
ALPHA
 66
     1
 10
0.0
 20
0.0
 30
0.0
 70
   128
  0
VERTEX
  5
3685
  8
ALPHA
 10
629.030121
 20
-25.12923
 30
0.0
  0
VERTEX
  5
3686
  8
ALPHA
 10
629.202276
 20
-25.578876
 30
0.0
  0
VERTEX
  5
3687
  8
ALPHA
 10
629.671709
 20
-25.946209
 30
0.0
  0
VERTEX
  5
3688
  8
ALPHA
 10
631.220217
 20
-26.284813
 30
0.0
  0
VERTEX
  5
3689
  8
ALPHA
 10
632.769279
 20
-25.946209
 30
0.0
  0
VERTEX
  5
368A
  8
ALPHA
 10
633.238366
 20
-25.578876
 30
0.0
  0
VERTEX
  5
368B
  8
ALPHA
 10
633.410313
 20
-25.12923
 30
0.0
  0
SEQEND
  5
368C
  8
ALPHA
  0
LINE
  5
33F6
  8
ALPHA
 10
633.419664
 20
-16.482043
 30
0.0
 11
633.419664
 21
-20.108251
 31
0.0
  0
POLYLINE
  5
33F9
  8
ALPHA
 66
     1
 10
0.0
 20
0.0
 30
0.0
 70
   128
210
0.0
220
0.0
230
-1.0
  0
VERTEX
  5
368D
  8
ALPHA
 10
-641.441812
 20
-16.651344
 30
0.0
  0
VERTEX
  5
368E
  8
ALPHA
 10
-641.613967
 20
-16.201437
 30
0.0
  0
VERTEX
  5
368F
  8
ALPHA
 10
-642.0834
 20
-15.834488
 30
0.0
  0
VERTEX
  5
3690
  8
ALPHA
 10
-643.631908
 20
-15.496746
 30
0.0
  0
VERTEX
  5
3691
  8
ALPHA
 10
-645.180601
 20
-15.834488
 30
0.0
  0
VERTEX
  5
3692
  8
ALPHA
 10
-645.649918
 20
-16.201437
 30
0.0
  0
VERTEX
  5
3693
  8
ALPHA
 10
-645.822004
 20
-16.651344
 30
0.0
  0
SEQEND
  5
3694
  8
ALPHA
  0
LINE
  5
33FD
  8
ALPHA
 10
641.120419
 20
-9.259469
 30
0.0
 11
641.120419
 21
-15.418001
 31
0.0
  0
LINE
  5
33FE
  8
ALPHA
 10
641.420419
 20
-9.559469
 30
0.0
 11
641.120419
 21
-9.259469
 31
0.0
  0
LINE
  5
33FF
  8
ALPHA
 10
633.42043
 20
-9.559469
 30
0.0
 11
633.718911
 21
-9.259469
 31
0.0
  0
LINE
  5
3400
  8
ALPHA
 10
633.42043
 20
-9.559469
 30
0.0
 11
641.420419
 21
-9.559469
 31
0.0
  0
POLYLINE
  5
3402
  8
ALPHA
 66
     1
 10
0.0
 20
0.0
 30
0.0
 70
   128
210
0.0
220
0.0
230
-1.0
  0
VERTEX
  5
3695
  8
ALPHA
 10
-633.410313
 20
-16.651344
 30
0.0
  0
VERTEX
  5
3696
  8
ALPHA
 10
-633.725954
 20
-16.201437
 30
0.0
  0
VERTEX
  5
3697
  8
ALPHA
 10
-634.58669
 20
-15.834488
 30
0.0
  0
VERTEX
  5
3698
  8
ALPHA
 10
-635.863236
 20
-15.587318
 30
0.0
  0
VERTEX
  5
3699
  8
ALPHA
 10
-637.426309
 20
-15.496746
 30
0.0
  0
VERTEX
  5
369A
  8
ALPHA
 10
-638.989513
 20
-15.587318
 30
0.0
  0
VERTEX
  5
369B
  8
ALPHA
 10
-640.265866
 20
-15.834488
 30
0.0
  0
VERTEX
  5
369C
  8
ALPHA
 10
-641.126317
 20
-16.201437
 30
0.0
  0
VERTEX
  5
369D
  8
ALPHA
 10
-641.441812
 20
-16.651344
 30
0.0
  0
SEQEND
  5
369E
  8
ALPHA
  0
POLYLINE
  5
3403
  8
ALPHA
 66
     1
 10
0.0
 20
0.0
 30
0.0
 70
   128
  0
VERTEX
  5
369F
  8
ALPHA
 10
641.441812
 20
-25.12923
 30
0.0
  0
VERTEX
  5
36A0
  8
ALPHA
 10
641.613967
 20
-25.578876
 30
0.0
  0
VERTEX
  5
36A1
  8
ALPHA
 10
642.0834
 20
-25.946209
 30
0.0
  0
VERTEX
  5
36A2
  8
ALPHA
 10
643.631908
 20
-26.284813
 30
0.0
  0
VERTEX
  5
36A3
  8
ALPHA
 10
645.180601
 20
-25.946209
 30
0.0
  0
VERTEX
  5
36A4
  8
ALPHA
 10
645.649918
 20
-25.578876
 30
0.0
  0
VERTEX
  5
36A5
  8
ALPHA
 10
645.822004
 20
-25.12923
 30
0.0
  0
SEQEND
  5
36A6
  8
ALPHA
  0
LINE
  5
3404
  8
ALPHA
 10
633.71967
 20
-29.259498
 30
0.0
 11
633.71967
 21
-26.361589
 31
0.0
  0
LINE
  5
3408
  8
ALPHA
 10
641.419659
 20
-28.959498
 30
0.0
 11
633.41967
 21
-28.959498
 31
0.0
  0
LINE
  5
3409
  8
ALPHA
 10
641.119659
 20
-29.259498
 30
0.0
 11
641.419659
 21
-28.959498
 31
0.0
  0
LINE
  5
340A
  8
ALPHA
 10
633.71967
 20
-29.259498
 30
0.0
 11
633.41967
 21
-28.959498
 31
0.0
  0
POLYLINE
  5
340C
  8
ALPHA
 66
     1
 10
0.0
 20
0.0
 30
0.0
 70
   128
  0
VERTEX
  5
36A7
  8
ALPHA
 10
633.410313
 20
-25.12923
 30
0.0
  0
VERTEX
  5
36A8
  8
ALPHA
 10
633.725954
 20
-25.578876
 30
0.0
  0
VERTEX
  5
36A9
  8
ALPHA
 10
634.58669
 20
-25.946209
 30
0.0
  0
VERTEX
  5
36AA
  8
ALPHA
 10
635.863236
 20
-26.193949
 30
0.0
  0
VERTEX
  5
36AB
  8
ALPHA
 10
637.426309
 20
-26.284813
 30
0.0
  0
VERTEX
  5
36AC
  8
ALPHA
 10
638.989513
 20
-26.193949
 30
0.0
  0
VERTEX
  5
36AD
  8
ALPHA
 10
640.265866
 20
-25.946209
 30
0.0
  0
VERTEX
  5
36AE
  8
ALPHA
 10
641.126317
 20
-25.578876
 30
0.0
  0
VERTEX
  5
36AF
  8
ALPHA
 10
641.441812
 20
-25.12923
 30
0.0
  0
SEQEND
  5
36B0
  8
ALPHA
  0
LINE
  5
340D
  8
ALPHA
 10
633.419664
 20
-25.299516
 30
0.0
 11
633.419664
 21
-21.672324
 31
0.0
  0
ARC
  5
3410
  8
ALPHA
 10
637.419665
 20
-23.246607
 30
0.0
 40
7.030832
 50
238.783788
 51
301.216212
  0
LINE
  5
34D3
  8
ALPHA
 10
638.519684
 20
-116.657619
 30
0.0
 11
638.519684
 21
-64.946438
 31
0.0
  0
LINE
  5
34D4
  8
ALPHA
 10
638.519684
 20
-64.946438
 30
0.0
 11
636.319646
 21
-64.946438
 31
0.0
  0
LINE
  5
34D5
  8
ALPHA
 10
636.319646
 20
-64.946438
 30
0.0
 11
636.286783
 21
-116.657619
 31
0.0
  0
LINE
  5
34D6
  8
ALPHA
 10
638.519684
 20
42.451712
 30
0.0
 11
638.519684
 21
-9.259469
 31
0.0
  0
LINE
  5
34D7
  8
ALPHA
 10
638.519684
 20
-9.259469
 30
0.0
 11
636.319646
 21
-9.259469
 31
0.0
  0
LINE
  5
34D8
  8
ALPHA
 10
636.319646
 20
-9.259469
 30
0.0
 11
636.286783
 21
42.451712
 31
0.0
  0
LINE
  5
34D9
  8
ALPHA
 10
633.419664
 20
-16.571803
 30
0.0
 11
633.419664
 21
-20.119078
 31
0.0
  0
LINE
  5
34DA
  8
ALPHA
 10
641.419665
 20
-20.119078
 30
0.0
 11
641.419665
 21
-16.529143
 31
0.0
  0
LINE
  5
34DB
  8
ALPHA
 10
628.968602
 20
-20.119078
 30
0.0
 11
628.968602
 21
-16.294039
 31
0.0
  0
LINE
  5
34DC
  8
ALPHA
 10
628.968602
 20
-16.294039
 30
0.0
 11
630.390934
 21
-15.418001
 31
0.0
  0
LINE
  5
34DD
  8
ALPHA
 10
630.390934
 20
-15.418001
 30
0.0
 11
644.435107
 21
-15.418001
 31
0.0
  0
LINE
  5
34DE
  8
ALPHA
 10
644.435107
 20
-15.418001
 30
0.0
 11
645.798873
 21
-16.106035
 31
0.0
  0
LINE
  5
34DF
  8
ALPHA
 10
645.798873
 20
-16.106035
 30
0.0
 11
645.798873
 21
-20.119078
 31
0.0
  0
LINE
  5
34E0
  8
ALPHA
 10
628.968602
 20
-54.08683
 30
0.0
 11
628.968602
 21
-57.911869
 31
0.0
  0
LINE
  5
34E1
  8
ALPHA
 10
628.968602
 20
-57.911869
 30
0.0
 11
630.390934
 21
-58.787907
 31
0.0
  0
LINE
  5
34E2
  8
ALPHA
 10
630.390934
 20
-58.787907
 30
0.0
 11
644.435107
 21
-58.787907
 31
0.0
  0
LINE
  5
34E3
  8
ALPHA
 10
644.435107
 20
-58.787907
 30
0.0
 11
645.798873
 21
-58.099872
 31
0.0
  0
LINE
  5
34E4
  8
ALPHA
 10
645.798873
 20
-58.099872
 30
0.0
 11
645.798873
 21
-54.08683
 31
0.0
  0
LINE
  5
34E5
  8
ALPHA
 10
645.798873
 20
-48.531369
 30
0.0
 11
644.435107
 21
-47.844318
 31
0.0
  0
LINE
  5
34E6
  8
ALPHA
 10
644.435107
 20
-47.844318
 30
0.0
 11
630.390934
 21
-47.844318
 31
0.0
  0
LINE
  5
34E7
  8
ALPHA
 10
630.390934
 20
-47.844318
 30
0.0
 11
628.968602
 21
-48.719372
 31
0.0
  0
LINE
  5
34E8
  8
ALPHA
 10
628.968602
 20
-48.719372
 30
0.0
 11
628.968602
 21
-52.54638
 31
0.0
  0
LINE
  5
34E9
  8
ALPHA
 10
628.419355
 20
-54.08683
 30
0.0
 11
646.256578
 21
-54.08683
 31
0.0
  0
LINE
  5
34EA
  8
ALPHA
 10
646.256578
 20
-54.08683
 30
0.0
 11
646.256578
 21
-52.54638
 31
0.0
  0
LINE
  5
34EB
  8
ALPHA
 10
646.256578
 20
-52.54638
 30
0.0
 11
628.419355
 21
-52.54638
 31
0.0
  0
LINE
  5
34EC
  8
ALPHA
 10
628.419355
 20
-52.54638
 30
0.0
 11
628.419355
 21
-54.08683
 31
0.0
  0
LINE
  5
34ED
  8
ALPHA
 10
633.419664
 20
-57.634105
 30
0.0
 11
633.419664
 21
-54.08683
 31
0.0
  0
LINE
  5
34EE
  8
ALPHA
 10
641.419665
 20
-54.08683
 30
0.0
 11
641.419665
 21
-57.676764
 31
0.0
  0
LINE
  5
34EF
  8
ALPHA
 10
641.420419
 20
-64.646438
 30
0.0
 11
641.420419
 21
-58.787907
 31
0.0
  0
LINE
  5
34F0
  8
ALPHA
 10
633.718911
 20
-58.787907
 30
0.0
 11
633.718911
 21
-64.946438
 31
0.0
  0
LINE
  5
34F1
  8
ALPHA
 10
633.42043
 20
-58.787907
 30
0.0
 11
633.42043
 21
-64.646438
 31
0.0
  0
LINE
  5
34F2
  8
ALPHA
 10
633.718911
 20
-64.946438
 30
0.0
 11
641.120419
 21
-64.946438
 31
0.0
  0
LINE
  5
34F3
  8
ALPHA
 10
641.419659
 20
-47.844318
 30
0.0
 11
641.419659
 21
-45.246409
 31
0.0
  0
LINE
  5
34F4
  8
ALPHA
 10
641.119659
 20
-47.844318
 30
0.0
 11
641.119659
 21
-44.946409
 31
0.0
  0
LINE
  5
34F5
  8
ALPHA
 10
633.41967
 20
-45.246409
 30
0.0
 11
633.41967
 21
-47.844318
 31
0.0
  0
LINE
  5
34F6
  8
ALPHA
 10
641.119659
 20
-44.946409
 30
0.0
 11
633.71967
 21
-44.946409
 31
0.0
  0
LINE
  5
34F7
  8
ALPHA
 10
641.419665
 20
-48.954632
 30
0.0
 11
641.419665
 21
-52.54638
 31
0.0
  0
LINE
  5
34F8
  8
ALPHA
 10
633.419664
 20
-52.54638
 30
0.0
 11
633.419664
 21
-48.997245
 31
0.0
  0
LINE
  5
34F9
  8
ALPHA
 10
645.798873
 20
-52.54638
 30
0.0
 11
645.798873
 21
-48.531369
 31
0.0
  0
LINE
  5
34FA
  8
ALPHA
 10
645.798873
 20
-25.674539
 30
0.0
 11
644.435107
 21
-26.361589
 31
0.0
  0
LINE
  5
34FB
  8
ALPHA
 10
644.435107
 20
-26.361589
 30
0.0
 11
630.390934
 21
-26.361589
 31
0.0
  0
LINE
  5
34FC
  8
ALPHA
 10
630.390934
 20
-26.361589
 30
0.0
 11
628.968602
 21
-25.486535
 31
0.0
  0
LINE
  5
34FD
  8
ALPHA
 10
628.968602
 20
-25.486535
 30
0.0
 11
628.968602
 21
-21.659527
 31
0.0
  0
LINE
  5
34FE
  8
ALPHA
 10
628.419355
 20
-20.119078
 30
0.0
 11
646.256578
 21
-20.119078
 31
0.0
  0
LINE
  5
34FF
  8
ALPHA
 10
646.256578
 20
-20.119078
 30
0.0
 11
646.256578
 21
-21.659527
 31
0.0
  0
LINE
  5
3500
  8
ALPHA
 10
646.256578
 20
-21.659527
 30
0.0
 11
628.419355
 21
-21.659527
 31
0.0
  0
LINE
  5
3501
  8
ALPHA
 10
628.419355
 20
-21.659527
 30
0.0
 11
628.419355
 21
-20.119078
 31
0.0
  0
LINE
  5
3502
  8
ALPHA
 10
641.419665
 20
-25.251276
 30
0.0
 11
641.419665
 21
-21.659527
 31
0.0
  0
LINE
  5
3503
  8
ALPHA
 10
633.419664
 20
-21.659527
 30
0.0
 11
633.419664
 21
-25.208663
 31
0.0
  0
LINE
  5
3504
  8
ALPHA
 10
641.119659
 20
-29.259498
 30
0.0
 11
633.71967
 21
-29.259498
 31
0.0
  0
LINE
  5
3505
  8
ALPHA
 10
633.41967
 20
-28.959498
 30
0.0
 11
633.41967
 21
-26.361589
 31
0.0
  0
LINE
  5
3506
  8
ALPHA
 10
641.119659
 20
-26.361589
 30
0.0
 11
641.119659
 21
-29.259498
 31
0.0
  0
LINE
  5
3507
  8
ALPHA
 10
641.419659
 20
-26.361589
 30
0.0
 11
641.419659
 21
-28.959498
 31
0.0
  0
LINE
  5
3508
  8
ALPHA
 10
645.798873
 20
-21.659527
 30
0.0
 11
645.798873
 21
-25.674539
 31
0.0
  0
LINE
  5
3509
  8
ALPHA
 10
633.718911
 20
-9.259469
 30
0.0
 11
641.120419
 21
-9.259469
 31
0.0
  0
LINE
  5
350A
  8
ALPHA
 10
641.420419
 20
-9.559469
 30
0.0
 11
641.420419
 21
-15.418001
 31
0.0
  0
LINE
  5
350B
  8
ALPHA
 10
633.42043
 20
-15.418001
 30
0.0
 11
633.42043
 21
-9.559469
 31
0.0
  0
LINE
  5
350C
  8
ALPHA
 10
633.718911
 20
-15.418001
 30
0.0
 11
633.718911
 21
-9.259469
 31
0.0
  0
ENDSEC
  0
EOF
