  0
SECTION
  2
HEADER
  9
$ACADVER
  1
AC1014
  9
$ACADMAINTVER
 70
     9
  9
$DWGCODEPAGE
  3
ANSI_1252
  9
$INSBASE
 10
0.0
 20
0.0
 30
0.0
  9
$EXTMIN
 10
0.0
 20
0.0
 30
0.0
  9
$EXTMAX
 10
16.40000099999999
 20
10.25
 30
0.0
  9
$LIMMIN
 10
0.0
 20
0.0
  9
$LIMMAX
 10
32.80000199999999
 20
20.5
  9
$ORTHOMODE
 70
     0
  9
$REGENMODE
 70
     1
  9
$FILLMODE
 70
     1
  9
$QTEXTMODE
 70
     0
  9
$MIRRTEXT
 70
     1
  9
$DRAGMODE
 70
     2
  9
$LTSCALE
 40
1.0
  9
$OSMODE
 70
    39
  9
$ATTMODE
 70
     1
  9
$TEXTSIZE
 40
0.2
  9
$TRACEWID
 40
0.05
  9
$TEXTSTYLE
  7
ROMANS
  9
$CLAYER
  8
0
  9
$CELTYPE
  6
BYLAYER
  9
$CECOLOR
 62
   256
  9
$CELTSCALE
 40
1.0
  9
$DELOBJ
 70
     1
  9
$DISPSILH
 70
     0
  9
$DIMSCALE
 40
0.0
  9
$DIMASZ
 40
0.125
  9
$DIMEXO
 40
0.0625
  9
$DIMDLI
 40
0.38
  9
$DIMRND
 40
0.01
  9
$DIMDLE
 40
0.0
  9
$DIMEXE
 40
0.0625
  9
$DIMTP
 40
0.0
  9
$DIMTM
 40
0.0
  9
$DIMTXT
 40
0.08
  9
$DIMCEN
 40
0.09
  9
$DIMTSZ
 40
0.0
  9
$DIMTOL
 70
     0
  9
$DIMLIM
 70
     0
  9
$DIMTIH
 70
     1
  9
$DIMTOH
 70
     1
  9
$DIMSE1
 70
     0
  9
$DIMSE2
 70
     0
  9
$DIMTAD
 70
     0
  9
$DIMZIN
 70
     4
  9
$DIMBLK
  1

  9
$DIMASO
 70
     1
  9
$DIMSHO
 70
     1
  9
$DIMPOST
  1

  9
$DIMAPOST
  1

  9
$DIMALT
 70
     0
  9
$DIMALTD
 70
     1
  9
$DIMALTF
 40
25.4
  9
$DIMLFAC
 40
1.0
  9
$DIMTOFL
 70
     0
  9
$DIMTVP
 40
0.0
  9
$DIMTIX
 70
     0
  9
$DIMSOXD
 70
     0
  9
$DIMSAH
 70
     0
  9
$DIMBLK1
  1

  9
$DIMBLK2
  1

  9
$DIMSTYLE
  2
SCHNEIDERELECTRIC
  9
$DIMCLRD
 70
   256
  9
$DIMCLRE
 70
   256
  9
$DIMCLRT
 70
   256
  9
$DIMTFAC
 40
1.0
  9
$DIMGAP
 40
0.04
  9
$DIMJUST
 70
     0
  9
$DIMSD1
 70
     0
  9
$DIMSD2
 70
     0
  9
$DIMTOLJ
 70
     1
  9
$DIMTZIN
 70
     0
  9
$DIMALTZ
 70
     0
  9
$DIMALTTZ
 70
     0
  9
$DIMFIT
 70
     3
  9
$DIMUPT
 70
     0
  9
$DIMUNIT
 70
     2
  9
$DIMDEC
 70
     2
  9
$DIMTDEC
 70
     2
  9
$DIMALTU
 70
     2
  9
$DIMALTTD
 70
     1
  9
$DIMTXSTY
  7
ROMANS
  9
$DIMAUNIT
 70
     0
  9
$LUNITS
 70
     2
  9
$LUPREC
 70
     4
  9
$SKETCHINC
 40
0.1
  9
$FILLETRAD
 40
0.5
  9
$AUNITS
 70
     0
  9
$AUPREC
 70
     0
  9
$MENU
  1
.
  9
$ELEVATION
 40
0.0
  9
$PELEVATION
 40
0.0
  9
$THICKNESS
 40
0.0
  9
$LIMCHECK
 70
     0
  9
$BLIPMODE
 70
     0
  9
$CHAMFERA
 40
0.5
  9
$CHAMFERB
 40
0.5
  9
$CHAMFERC
 40
1.0
  9
$CHAMFERD
 40
0.0
  9
$SKPOLY
 70
     0
  9
$TDCREATE
 40
2451764.576708576
  9
$TDUPDATE
 40
2452002.612011122
  9
$TDINDWG
 40
0.6489260417
  9
$TDUSRTIMER
 40
0.6489258102
  9
$USRTIMER
 70
     1
  9
$ANGBASE
 50
0.0
  9
$ANGDIR
 70
     0
  9
$PDMODE
 70
     0
  9
$PDSIZE
 40
0.0
  9
$PLINEWID
 40
0.0
  9
$COORDS
 70
     1
  9
$SPLFRAME
 70
     0
  9
$SPLINETYPE
 70
     6
  9
$SPLINESEGS
 70
     8
  9
$ATTDIA
 70
     0
  9
$ATTREQ
 70
     1
  9
$HANDLING
 70
-16383
  9
$HANDSEED
  5
19C09
  9
$SURFTAB1
 70
     6
  9
$SURFTAB2
 70
     6
  9
$SURFTYPE
 70
     6
  9
$SURFU
 70
     6
  9
$SURFV
 70
     6
  9
$UCSNAME
  2

  9
$UCSORG
 10
0.0
 20
0.0
 30
0.0
  9
$UCSXDIR
 10
1.0
 20
0.0
 30
0.0
  9
$UCSYDIR
 10
0.0
 20
1.0
 30
0.0
  9
$PUCSNAME
  2

  9
$PUCSORG
 10
0.0
 20
0.0
 30
0.0
  9
$PUCSXDIR
 10
1.0
 20
0.0
 30
0.0
  9
$PUCSYDIR
 10
0.0
 20
1.0
 30
0.0
  9
$USERI1
 70
     0
  9
$USERI2
 70
     0
  9
$USERI3
 70
     0
  9
$USERI4
 70
     0
  9
$USERI5
 70
     0
  9
$USERR1
 40
0.0
  9
$USERR2
 40
0.0
  9
$USERR3
 40
0.0
  9
$USERR4
 40
0.0
  9
$USERR5
 40
0.0
  9
$WORLDVIEW
 70
     1
  9
$SHADEDGE
 70
     3
  9
$SHADEDIF
 70
    70
  9
$TILEMODE
 70
     0
  9
$MAXACTVP
 70
    48
  9
$PINSBASE
 10
0.0
 20
0.0
 30
0.0
  9
$PLIMCHECK
 70
     0
  9
$PEXTMIN
 10
0.0
 20
-0.1507193079929352
 30
0.0
  9
$PEXTMAX
 10
16.40000099999999
 20
10.25
 30
0.0
  9
$PLIMMIN
 10
-0.3018668009882668
 20
-0.4525217414560764
  9
$PLIMMAX
 10
16.69813271841994
 20
10.54747801824803
  9
$UNITMODE
 70
     0
  9
$VISRETAIN
 70
     1
  9
$PLINEGEN
 70
     0
  9
$PSLTSCALE
 70
     1
  9
$TREEDEPTH
 70
  3020
  9
$PICKSTYLE
 70
     1
  9
$CMLSTYLE
  2
STANDARD
  9
$CMLJUST
 70
     0
  9
$CMLSCALE
 40
1.0
  9
$PROXYGRAPHICS
 70
     1
  9
$MEASUREMENT
 70
     0
  0
ENDSEC
  0
SECTION
  2
CLASSES
  0
CLASS
  1
ACDBDICTIONARYWDFLT
  2
AcDbDictionaryWithDefault
  3
AutoCAD 2000
 90
        0
280
     0
281
     0
  0
CLASS
  1
ACDBPLACEHOLDER
  2
AcDbPlaceHolder
  3
AutoCAD 2000
 90
        0
280
     0
281
     0
  0
CLASS
  1
LAYOUT
  2
AcDbLayout
  3
AutoCAD 2000
 90
        0
280
     0
281
     0
  0
CLASS
  1
LONG_TRANSACTION
  2
AcDbLongTransaction
  3
AutoCAD 2000
 90
        0
280
     0
281
     0
  0
CLASS
  1
LWPOLYLINE
  2
AcDbPolyline
  3
AutoCAD 2000
 90
        0
280
     0
281
     1
  0
CLASS
  1
HATCH
  2
AcDbHatch
  3
AutoCAD 2000
 90
        0
280
     0
281
     1
  0
CLASS
  1
XRECORD
  2
AcDbXrecord
  3
AutoCAD 2000
 90
        0
280
     0
281
     0
  0
CLASS
  1
LONG_TRANSACTION
  2
AcDbLongTransaction
  3
AutoCAD 2000
 90
        0
280
     0
281
     0
  0
CLASS
  1
LWPOLYLINE
  2
AcDbPolyline
  3
AutoCAD 2000
 90
        0
280
     0
281
     1
  0
CLASS
  1
HATCH
  2
AcDbHatch
  3
AutoCAD 2000
 90
        0
280
     0
281
     1
  0
CLASS
  1
XRECORD
  2
AcDbXrecord
  3
AutoCAD 2000
 90
        0
280
     0
281
     0
  0
CLASS
  1
LONG_TRANSACTION
  2
AcDbLongTransaction
  3
AutoCAD 2000
 90
        0
280
     0
281
     0
  0
CLASS
  1
LWPOLYLINE
  2
AcDbPolyline
  3
AutoCAD 2000
 90
        0
280
     0
281
     1
  0
CLASS
  1
HATCH
  2
AcDbHatch
  3
AutoCAD 2000
 90
        0
280
     0
281
     1
  0
CLASS
  1
XRECORD
  2
AcDbXrecord
  3
AutoCAD 2000
 90
        0
280
     0
281
     0
  0
CLASS
  1
PLOTSETTINGS
  2
AcDbPlotSettings
  3
AutoCAD 2000
 90
        0
280
     0
281
     0
  0
CLASS
  1
ACME_DOCUMENT
  2
AcMeDbDoc
  3
AcMeServices
 90
        0
280
     0
281
     0
  0
CLASS
  1
AMGSETTINGSOBJ
  2
AmgSettingsObj
  3
"AcadM|Product Description: AutoCAD Mechanical 2000|Company: Autodesk"
 90
        0
280
     0
281
     0
  0
CLASS
  1
ACMESCOPE
  2
AcMeScope
  3
AcMeServices
 90
        0
280
     0
281
     0
  0
CLASS
  1
ACMECOMMANDHISTORY
  2
AcMeCommandHistory
  3
AcMeServices
 90
        0
280
     0
281
     0
  0
CLASS
  1
DICTIONARYVAR
  2
AcDbDictionaryVar
  3
AutoCAD 2000
 90
        0
280
     0
281
     0
  0
CLASS
  1
ACIMSYSVARMAN
  2
AcImSysVarManager
  3
AcMeServices
 90
        0
280
     0
281
     0
  0
CLASS
  1
ACIMREALSYSVAR
  2
AcImRealSysVar
  3
AcMeServices
 90
        0
280
     0
281
     0
  0
CLASS
  1
ACIMINTSYSVAR
  2
AcImIntSysVar
  3
AcMeServices
 90
        0
280
     0
281
     0
  0
CLASS
  1
ACMEDRAWINGMAN
  2
AcMeDrawingMan
  3
AcMeServices
 90
        0
280
     0
281
     0
  0
CLASS
  1
ACMEVIEW
  2
AcMeView
  3
AcMeServices
 90
        0
280
     0
281
     0
  0
CLASS
  1
ACDBENTITYCACHE
  2
AcMeEntityCache
  3
AcMeServices
 90
        0
280
     0
281
     0
  0
CLASS
  1
GSMANAGER
  2
AcMeGSManager
  3
AcMeServices
 90
        0
280
     0
281
     0
  0
CLASS
  1
AmdtInternalReactor
  2
AmdtInternalReactor
  3
AcMeServices
 90
        0
280
     0
281
     0
  0
CLASS
  1
ACMESTATEMGR
  2
AcMeStateMgr
  3
AcMeServices
 90
        0
280
     0
281
     0
  0
CLASS
  1
ACME_DATABASE
  2
AcMeDbDatabase
  3
AcMeServices
 90
        0
280
     0
281
     0
  0
CLASS
  1
ACRFINSADJUSTERMGR
  2
AcRfInsAdjusterMgr
  3
AcMeServices
 90
        0
280
     0
281
     0
  0
CLASS
  1
ACMDATADICTIONARY
  2
AcmDataDictionary
  3
"AcmSymBB|Product Description: AutoCAD Mechanical 2000|Company: Autodesk"
 90
        0
280
     0
281
     0
  0
CLASS
  1
ACMDATAENTRYBLOCK
  2
AcmDataEntryBlock
  3
"AcmSymBB|Product Description: AutoCAD Mechanical 2000|Company: Autodesk"
 90
        0
280
     0
281
     0
  0
CLASS
  1
AMGOBJPROPCFG
  2
AmgObjPropCfg
  3
"AmgLay|Product Description: AutoCAD Mechanical 2000|Company: Autodesk"
 90
        1
280
     0
281
     0
  0
CLASS
  1
ACAMGFILTERDAT
  2
AcAmgFilterDat
  3
"AcadM|Product Description: AutoCAD Mechanical 2000|Company: Autodesk"
 90
        0
280
     0
281
     0
  0
CLASS
  1
LAYER_INDEX
  2
AcDbLayerIndex
  3
AutoCAD 2000
 90
        0
280
     0
281
     0
  0
CLASS
  1
IDBUFFER
  2
AcDbIdBuffer
  3
AutoCAD 2000
 90
        0
280
     0
281
     0
  0
CLASS
  1
LONG_TRANSACTION
  2
AcDbLongTransaction
  3
AutoCAD 2000
 90
        0
280
     0
281
     0
  0
CLASS
  1
LWPOLYLINE
  2
AcDbPolyline
  3
AutoCAD 2000
 90
        0
280
     0
281
     1
  0
CLASS
  1
HATCH
  2
AcDbHatch
  3
AutoCAD 2000
 90
        0
280
     0
281
     1
  0
CLASS
  1
XRECORD
  2
AcDbXrecord
  3
AutoCAD 2000
 90
        0
280
     0
281
     0
  0
CLASS
  1
LONG_TRANSACTION
  2
AcDbLongTransaction
  3
AutoCAD 2000
 90
        0
280
     0
281
     0
  0
CLASS
  1
LWPOLYLINE
  2
AcDbPolyline
  3
AutoCAD 2000
 90
        0
280
     0
281
     1
  0
CLASS
  1
HATCH
  2
AcDbHatch
  3
AutoCAD 2000
 90
        0
280
     0
281
     1
  0
CLASS
  1
XRECORD
  2
AcDbXrecord
  3
AutoCAD 2000
 90
        0
280
     0
281
     0
  0
CLASS
  1
LONG_TRANSACTION
  2
AcDbLongTransaction
  3
AutoCAD 2000
 90
        0
280
     0
281
     0
  0
CLASS
  1
LWPOLYLINE
  2
AcDbPolyline
  3
AutoCAD 2000
 90
        0
280
     0
281
     1
  0
CLASS
  1
HATCH
  2
AcDbHatch
  3
AutoCAD 2000
 90
        0
280
     0
281
     1
  0
CLASS
  1
XRECORD
  2
AcDbXrecord
  3
AutoCAD 2000
 90
        0
280
     0
281
     0
  0
CLASS
  1
LONG_TRANSACTION
  2
AcDbLongTransaction
  3
AutoCAD 2000
 90
        0
280
     0
281
     0
  0
CLASS
  1
LWPOLYLINE
  2
AcDbPolyline
  3
AutoCAD 2000
 90
        0
280
     0
281
     1
  0
CLASS
  1
HATCH
  2
AcDbHatch
  3
AutoCAD 2000
 90
        0
280
     0
281
     1
  0
CLASS
  1
XRECORD
  2
AcDbXrecord
  3
AutoCAD 2000
 90
        0
280
     0
281
     0
  0
CLASS
  1
LONG_TRANSACTION
  2
AcDbLongTransaction
  3
AutoCAD 2000
 90
        0
280
     0
281
     0
  0
CLASS
  1
LWPOLYLINE
  2
AcDbPolyline
  3
AutoCAD 2000
 90
        0
280
     0
281
     1
  0
CLASS
  1
HATCH
  2
AcDbHatch
  3
AutoCAD 2000
 90
        0
280
     0
281
     1
  0
CLASS
  1
XRECORD
  2
AcDbXrecord
  3
AutoCAD 2000
 90
        0
280
     0
281
     0
  0
CLASS
  1
LONG_TRANSACTION
  2
AcDbLongTransaction
  3
AutoCAD 2000
 90
        0
280
     0
281
     0
  0
CLASS
  1
LWPOLYLINE
  2
AcDbPolyline
  3
AutoCAD 2000
 90
        0
280
     0
281
     1
  0
CLASS
  1
HATCH
  2
AcDbHatch
  3
AutoCAD 2000
 90
        0
280
     0
281
     1
  0
CLASS
  1
XRECORD
  2
AcDbXrecord
  3
AutoCAD 2000
 90
        0
280
     0
281
     0
  0
CLASS
  1
LONG_TRANSACTION
  2
AcDbLongTransaction
  3
AutoCAD 2000
 90
        0
280
     0
281
     0
  0
CLASS
  1
LWPOLYLINE
  2
AcDbPolyline
  3
AutoCAD 2000
 90
        0
280
     0
281
     1
  0
CLASS
  1
HATCH
  2
AcDbHatch
  3
AutoCAD 2000
 90
        0
280
     0
281
     1
  0
CLASS
  1
XRECORD
  2
AcDbXrecord
  3
AutoCAD 2000
 90
        0
280
     0
281
     0
  0
CLASS
  1
LONG_TRANSACTION
  2
AcDbLongTransaction
  3
AutoCAD 2000
 90
        0
280
     0
281
     0
  0
CLASS
  1
LWPOLYLINE
  2
AcDbPolyline
  3
AutoCAD 2000
 90
        0
280
     0
281
     1
  0
CLASS
  1
HATCH
  2
AcDbHatch
  3
AutoCAD 2000
 90
        0
280
     0
281
     1
  0
CLASS
  1
XRECORD
  2
AcDbXrecord
  3
AutoCAD 2000
 90
        0
280
     0
281
     0
  0
CLASS
  1
LONG_TRANSACTION
  2
AcDbLongTransaction
  3
AutoCAD 2000
 90
        0
280
     0
281
     0
  0
CLASS
  1
LWPOLYLINE
  2
AcDbPolyline
  3
AutoCAD 2000
 90
        0
280
     0
281
     1
  0
CLASS
  1
HATCH
  2
AcDbHatch
  3
AutoCAD 2000
 90
        0
280
     0
281
     1
  0
CLASS
  1
XRECORD
  2
AcDbXrecord
  3
AutoCAD 2000
 90
        0
280
     0
281
     0
  0
CLASS
  1
LONG_TRANSACTION
  2
AcDbLongTransaction
  3
AutoCAD 2000
 90
        0
280
     0
281
     0
  0
CLASS
  1
LWPOLYLINE
  2
AcDbPolyline
  3
AutoCAD 2000
 90
        0
280
     0
281
     1
  0
CLASS
  1
HATCH
  2
AcDbHatch
  3
AutoCAD 2000
 90
        0
280
     0
281
     1
  0
CLASS
  1
XRECORD
  2
AcDbXrecord
  3
AutoCAD 2000
 90
        0
280
     0
281
     0
  0
CLASS
  1
LONG_TRANSACTION
  2
AcDbLongTransaction
  3
AutoCAD 2000
 90
        0
280
     0
281
     0
  0
CLASS
  1
LWPOLYLINE
  2
AcDbPolyline
  3
AutoCAD 2000
 90
        0
280
     0
281
     1
  0
CLASS
  1
HATCH
  2
AcDbHatch
  3
AutoCAD 2000
 90
        0
280
     0
281
     1
  0
CLASS
  1
XRECORD
  2
AcDbXrecord
  3
AutoCAD 2000
 90
        0
280
     0
281
     0
  0
CLASS
  1
LONG_TRANSACTION
  2
AcDbLongTransaction
  3
AutoCAD 2000
 90
        0
280
     0
281
     0
  0
CLASS
  1
LWPOLYLINE
  2
AcDbPolyline
  3
AutoCAD 2000
 90
        0
280
     0
281
     1
  0
CLASS
  1
HATCH
  2
AcDbHatch
  3
AutoCAD 2000
 90
        0
280
     0
281
     1
  0
CLASS
  1
XRECORD
  2
AcDbXrecord
  3
AutoCAD 2000
 90
        0
280
     0
281
     0
  0
CLASS
  1
LONG_TRANSACTION
  2
AcDbLongTransaction
  3
AutoCAD 2000
 90
        0
280
     0
281
     0
  0
CLASS
  1
LWPOLYLINE
  2
AcDbPolyline
  3
AutoCAD 2000
 90
        0
280
     0
281
     1
  0
CLASS
  1
HATCH
  2
AcDbHatch
  3
AutoCAD 2000
 90
        0
280
     0
281
     1
  0
CLASS
  1
XRECORD
  2
AcDbXrecord
  3
AutoCAD 2000
 90
        0
280
     0
281
     0
  0
CLASS
  1
LONG_TRANSACTION
  2
AcDbLongTransaction
  3
AutoCAD 2000
 90
        0
280
     0
281
     0
  0
CLASS
  1
LWPOLYLINE
  2
AcDbPolyline
  3
AutoCAD 2000
 90
        0
280
     0
281
     1
  0
CLASS
  1
HATCH
  2
AcDbHatch
  3
AutoCAD 2000
 90
        0
280
     0
281
     1
  0
CLASS
  1
XRECORD
  2
AcDbXrecord
  3
AutoCAD 2000
 90
        0
280
     0
281
     0
  0
CLASS
  1
LONG_TRANSACTION
  2
AcDbLongTransaction
  3
AutoCAD 2000
 90
        0
280
     0
281
     0
  0
CLASS
  1
LWPOLYLINE
  2
AcDbPolyline
  3
AutoCAD 2000
 90
        0
280
     0
281
     1
  0
CLASS
  1
HATCH
  2
AcDbHatch
  3
AutoCAD 2000
 90
        0
280
     0
281
     1
  0
CLASS
  1
XRECORD
  2
AcDbXrecord
  3
AutoCAD 2000
 90
        0
280
     0
281
     0
  0
CLASS
  1
LONG_TRANSACTION
  2
AcDbLongTransaction
  3
AutoCAD 2000
 90
        0
280
     0
281
     0
  0
CLASS
  1
LWPOLYLINE
  2
AcDbPolyline
  3
AutoCAD 2000
 90
        0
280
     0
281
     1
  0
CLASS
  1
HATCH
  2
AcDbHatch
  3
AutoCAD 2000
 90
        0
280
     0
281
     1
  0
CLASS
  1
XRECORD
  2
AcDbXrecord
  3
AutoCAD 2000
 90
        0
280
     0
281
     0
  0
CLASS
  1
LONG_TRANSACTION
  2
AcDbLongTransaction
  3
AutoCAD 2000
 90
        0
280
     0
281
     0
  0
CLASS
  1
LWPOLYLINE
  2
AcDbPolyline
  3
AutoCAD 2000
 90
        0
280
     0
281
     1
  0
CLASS
  1
HATCH
  2
AcDbHatch
  3
AutoCAD 2000
 90
        0
280
     0
281
     1
  0
CLASS
  1
XRECORD
  2
AcDbXrecord
  3
AutoCAD 2000
 90
        0
280
     0
281
     0
  0
CLASS
  1
LONG_TRANSACTION
  2
AcDbLongTransaction
  3
AutoCAD 2000
 90
        0
280
     0
281
     0
  0
CLASS
  1
LWPOLYLINE
  2
AcDbPolyline
  3
AutoCAD 2000
 90
        0
280
     0
281
     1
  0
CLASS
  1
HATCH
  2
AcDbHatch
  3
AutoCAD 2000
 90
        0
280
     0
281
     1
  0
CLASS
  1
XRECORD
  2
AcDbXrecord
  3
AutoCAD 2000
 90
        0
280
     0
281
     0
  0
CLASS
  1
LONG_TRANSACTION
  2
AcDbLongTransaction
  3
AutoCAD 2000
 90
        0
280
     0
281
     0
  0
CLASS
  1
LWPOLYLINE
  2
AcDbPolyline
  3
AutoCAD 2000
 90
        0
280
     0
281
     1
  0
CLASS
  1
HATCH
  2
AcDbHatch
  3
AutoCAD 2000
 90
        0
280
     0
281
     1
  0
CLASS
  1
XRECORD
  2
AcDbXrecord
  3
AutoCAD 2000
 90
        0
280
     0
281
     0
  0
CLASS
  1
LONG_TRANSACTION
  2
AcDbLongTransaction
  3
AutoCAD 2000
 90
        0
280
     0
281
     0
  0
CLASS
  1
LWPOLYLINE
  2
AcDbPolyline
  3
AutoCAD 2000
 90
        0
280
     0
281
     1
  0
CLASS
  1
HATCH
  2
AcDbHatch
  3
AutoCAD 2000
 90
        0
280
     0
281
     1
  0
CLASS
  1
XRECORD
  2
AcDbXrecord
  3
AutoCAD 2000
 90
        0
280
     0
281
     0
  0
CLASS
  1
LONG_TRANSACTION
  2
AcDbLongTransaction
  3
AutoCAD 2000
 90
        0
280
     0
281
     0
  0
CLASS
  1
LWPOLYLINE
  2
AcDbPolyline
  3
AutoCAD 2000
 90
        0
280
     0
281
     1
  0
CLASS
  1
HATCH
  2
AcDbHatch
  3
AutoCAD 2000
 90
        0
280
     0
281
     1
  0
CLASS
  1
XRECORD
  2
AcDbXrecord
  3
AutoCAD 2000
 90
        0
280
     0
281
     0
  0
CLASS
  1
LONG_TRANSACTION
  2
AcDbLongTransaction
  3
AutoCAD 2000
 90
        0
280
     0
281
     0
  0
CLASS
  1
LWPOLYLINE
  2
AcDbPolyline
  3
AutoCAD 2000
 90
        0
280
     0
281
     1
  0
CLASS
  1
HATCH
  2
AcDbHatch
  3
AutoCAD 2000
 90
        0
280
     0
281
     1
  0
CLASS
  1
XRECORD
  2
AcDbXrecord
  3
AutoCAD 2000
 90
        0
280
     0
281
     0
  0
CLASS
  1
LONG_TRANSACTION
  2
AcDbLongTransaction
  3
AutoCAD 2000
 90
        0
280
     0
281
     0
  0
CLASS
  1
LWPOLYLINE
  2
AcDbPolyline
  3
AutoCAD 2000
 90
        0
280
     0
281
     1
  0
CLASS
  1
HATCH
  2
AcDbHatch
  3
AutoCAD 2000
 90
        0
280
     0
281
     1
  0
CLASS
  1
XRECORD
  2
AcDbXrecord
  3
AutoCAD 2000
 90
        0
280
     0
281
     0
  0
CLASS
  1
LONG_TRANSACTION
  2
AcDbLongTransaction
  3
AutoCAD 2000
 90
        0
280
     0
281
     0
  0
CLASS
  1
LWPOLYLINE
  2
AcDbPolyline
  3
AutoCAD 2000
 90
        0
280
     0
281
     1
  0
CLASS
  1
HATCH
  2
AcDbHatch
  3
AutoCAD 2000
 90
        0
280
     0
281
     1
  0
CLASS
  1
XRECORD
  2
AcDbXrecord
  3
AutoCAD 2000
 90
        0
280
     0
281
     0
  0
CLASS
  1
LONG_TRANSACTION
  2
AcDbLongTransaction
  3
AutoCAD 2000
 90
        0
280
     0
281
     0
  0
CLASS
  1
LWPOLYLINE
  2
AcDbPolyline
  3
AutoCAD 2000
 90
        0
280
     0
281
     1
  0
CLASS
  1
HATCH
  2
AcDbHatch
  3
AutoCAD 2000
 90
        0
280
     0
281
     1
  0
CLASS
  1
XRECORD
  2
AcDbXrecord
  3
AutoCAD 2000
 90
        0
280
     0
281
     0
  0
CLASS
  1
LONG_TRANSACTION
  2
AcDbLongTransaction
  3
AutoCAD 2000
 90
        0
280
     0
281
     0
  0
CLASS
  1
LWPOLYLINE
  2
AcDbPolyline
  3
AutoCAD 2000
 90
        0
280
     0
281
     1
  0
CLASS
  1
HATCH
  2
AcDbHatch
  3
AutoCAD 2000
 90
        0
280
     0
281
     1
  0
CLASS
  1
XRECORD
  2
AcDbXrecord
  3
AutoCAD 2000
 90
        0
280
     0
281
     0
  0
CLASS
  1
LONG_TRANSACTION
  2
AcDbLongTransaction
  3
AutoCAD 2000
 90
        0
280
     0
281
     0
  0
CLASS
  1
LWPOLYLINE
  2
AcDbPolyline
  3
AutoCAD 2000
 90
        0
280
     0
281
     1
  0
CLASS
  1
HATCH
  2
AcDbHatch
  3
AutoCAD 2000
 90
        0
280
     0
281
     1
  0
CLASS
  1
XRECORD
  2
AcDbXrecord
  3
AutoCAD 2000
 90
        0
280
     0
281
     0
  0
CLASS
  1
LONG_TRANSACTION
  2
AcDbLongTransaction
  3
AutoCAD 2000
 90
        0
280
     0
281
     0
  0
CLASS
  1
LWPOLYLINE
  2
AcDbPolyline
  3
AutoCAD 2000
 90
        0
280
     0
281
     1
  0
CLASS
  1
HATCH
  2
AcDbHatch
  3
AutoCAD 2000
 90
        0
280
     0
281
     1
  0
CLASS
  1
XRECORD
  2
AcDbXrecord
  3
AutoCAD 2000
 90
        0
280
     0
281
     0
  0
CLASS
  1
LONG_TRANSACTION
  2
AcDbLongTransaction
  3
AutoCAD 2000
 90
        0
280
     0
281
     0
  0
CLASS
  1
LWPOLYLINE
  2
AcDbPolyline
  3
AutoCAD 2000
 90
        0
280
     0
281
     1
  0
CLASS
  1
HATCH
  2
AcDbHatch
  3
AutoCAD 2000
 90
        0
280
     0
281
     1
  0
CLASS
  1
XRECORD
  2
AcDbXrecord
  3
AutoCAD 2000
 90
        0
280
     0
281
     0
  0
CLASS
  1
LONG_TRANSACTION
  2
AcDbLongTransaction
  3
AutoCAD 2000
 90
        0
280
     0
281
     0
  0
CLASS
  1
LWPOLYLINE
  2
AcDbPolyline
  3
AutoCAD 2000
 90
        0
280
     0
281
     1
  0
CLASS
  1
HATCH
  2
AcDbHatch
  3
AutoCAD 2000
 90
        0
280
     0
281
     1
  0
CLASS
  1
XRECORD
  2
AcDbXrecord
  3
AutoCAD 2000
 90
        0
280
     0
281
     0
  0
CLASS
  1
LONG_TRANSACTION
  2
AcDbLongTransaction
  3
AutoCAD 2000
 90
        0
280
     0
281
     0
  0
CLASS
  1
LWPOLYLINE
  2
AcDbPolyline
  3
AutoCAD 2000
 90
        0
280
     0
281
     1
  0
CLASS
  1
HATCH
  2
AcDbHatch
  3
AutoCAD 2000
 90
        0
280
     0
281
     1
  0
CLASS
  1
XRECORD
  2
AcDbXrecord
  3
AutoCAD 2000
 90
        0
280
     0
281
     0
  0
CLASS
  1
LONG_TRANSACTION
  2
AcDbLongTransaction
  3
AutoCAD 2000
 90
        0
280
     0
281
     0
  0
CLASS
  1
LWPOLYLINE
  2
AcDbPolyline
  3
AutoCAD 2000
 90
        0
280
     0
281
     1
  0
CLASS
  1
HATCH
  2
AcDbHatch
  3
AutoCAD 2000
 90
        0
280
     0
281
     1
  0
CLASS
  1
XRECORD
  2
AcDbXrecord
  3
AutoCAD 2000
 90
        0
280
     0
281
     0
  0
CLASS
  1
LONG_TRANSACTION
  2
AcDbLongTransaction
  3
AutoCAD 2000
 90
        0
280
     0
281
     0
  0
CLASS
  1
LWPOLYLINE
  2
AcDbPolyline
  3
AutoCAD 2000
 90
        0
280
     0
281
     1
  0
CLASS
  1
HATCH
  2
AcDbHatch
  3
AutoCAD 2000
 90
        0
280
     0
281
     1
  0
CLASS
  1
XRECORD
  2
AcDbXrecord
  3
AutoCAD 2000
 90
        0
280
     0
281
     0
  0
CLASS
  1
LONG_TRANSACTION
  2
AcDbLongTransaction
  3
AutoCAD 2000
 90
        0
280
     0
281
     0
  0
CLASS
  1
LWPOLYLINE
  2
AcDbPolyline
  3
AutoCAD 2000
 90
        0
280
     0
281
     1
  0
CLASS
  1
HATCH
  2
AcDbHatch
  3
AutoCAD 2000
 90
        0
280
     0
281
     1
  0
CLASS
  1
XRECORD
  2
AcDbXrecord
  3
AutoCAD 2000
 90
        0
280
     0
281
     0
  0
CLASS
  1
LONG_TRANSACTION
  2
AcDbLongTransaction
  3
AutoCAD 2000
 90
        0
280
     0
281
     0
  0
CLASS
  1
LWPOLYLINE
  2
AcDbPolyline
  3
AutoCAD 2000
 90
        0
280
     0
281
     1
  0
CLASS
  1
HATCH
  2
AcDbHatch
  3
AutoCAD 2000
 90
        0
280
     0
281
     1
  0
CLASS
  1
XRECORD
  2
AcDbXrecord
  3
AutoCAD 2000
 90
        0
280
     0
281
     0
  0
CLASS
  1
LONG_TRANSACTION
  2
AcDbLongTransaction
  3
AutoCAD 2000
 90
        0
280
     0
281
     0
  0
CLASS
  1
LWPOLYLINE
  2
AcDbPolyline
  3
AutoCAD 2000
 90
        0
280
     0
281
     1
  0
CLASS
  1
HATCH
  2
AcDbHatch
  3
AutoCAD 2000
 90
        0
280
     0
281
     1
  0
CLASS
  1
XRECORD
  2
AcDbXrecord
  3
AutoCAD 2000
 90
        0
280
     0
281
     0
  0
CLASS
  1
LONG_TRANSACTION
  2
AcDbLongTransaction
  3
AutoCAD 2000
 90
        0
280
     0
281
     0
  0
CLASS
  1
LWPOLYLINE
  2
AcDbPolyline
  3
AutoCAD 2000
 90
        0
280
     0
281
     1
  0
CLASS
  1
HATCH
  2
AcDbHatch
  3
AutoCAD 2000
 90
        0
280
     0
281
     1
  0
CLASS
  1
XRECORD
  2
AcDbXrecord
  3
AutoCAD 2000
 90
        0
280
     0
281
     0
  0
CLASS
  1
LONG_TRANSACTION
  2
AcDbLongTransaction
  3
AutoCAD 2000
 90
        0
280
     0
281
     0
  0
CLASS
  1
LWPOLYLINE
  2
AcDbPolyline
  3
AutoCAD 2000
 90
        0
280
     0
281
     1
  0
CLASS
  1
HATCH
  2
AcDbHatch
  3
AutoCAD 2000
 90
        0
280
     0
281
     1
  0
CLASS
  1
XRECORD
  2
AcDbXrecord
  3
AutoCAD 2000
 90
        0
280
     0
281
     0
  0
CLASS
  1
LONG_TRANSACTION
  2
AcDbLongTransaction
  3
AutoCAD 2000
 90
        0
280
     0
281
     0
  0
CLASS
  1
LWPOLYLINE
  2
AcDbPolyline
  3
AutoCAD 2000
 90
        0
280
     0
281
     1
  0
CLASS
  1
HATCH
  2
AcDbHatch
  3
AutoCAD 2000
 90
        0
280
     0
281
     1
  0
CLASS
  1
XRECORD
  2
AcDbXrecord
  3
AutoCAD 2000
 90
        0
280
     0
281
     0
  0
CLASS
  1
LONG_TRANSACTION
  2
AcDbLongTransaction
  3
AutoCAD 2000
 90
        0
280
     0
281
     0
  0
CLASS
  1
LWPOLYLINE
  2
AcDbPolyline
  3
AutoCAD 2000
 90
        0
280
     0
281
     1
  0
CLASS
  1
HATCH
  2
AcDbHatch
  3
AutoCAD 2000
 90
        0
280
     0
281
     1
  0
CLASS
  1
XRECORD
  2
AcDbXrecord
  3
AutoCAD 2000
 90
        0
280
     0
281
     0
  0
CLASS
  1
LONG_TRANSACTION
  2
AcDbLongTransaction
  3
AutoCAD 2000
 90
        0
280
     0
281
     0
  0
CLASS
  1
LWPOLYLINE
  2
AcDbPolyline
  3
AutoCAD 2000
 90
        0
280
     0
281
     1
  0
CLASS
  1
HATCH
  2
AcDbHatch
  3
AutoCAD 2000
 90
        0
280
     0
281
     1
  0
CLASS
  1
XRECORD
  2
AcDbXrecord
  3
AutoCAD 2000
 90
        0
280
     0
281
     0
  0
CLASS
  1
LONG_TRANSACTION
  2
AcDbLongTransaction
  3
AutoCAD 2000
 90
        0
280
     0
281
     0
  0
CLASS
  1
LWPOLYLINE
  2
AcDbPolyline
  3
AutoCAD 2000
 90
        0
280
     0
281
     1
  0
CLASS
  1
HATCH
  2
AcDbHatch
  3
AutoCAD 2000
 90
        0
280
     0
281
     1
  0
CLASS
  1
XRECORD
  2
AcDbXrecord
  3
AutoCAD 2000
 90
        0
280
     0
281
     0
  0
CLASS
  1
LONG_TRANSACTION
  2
AcDbLongTransaction
  3
AutoCAD 2000
 90
        0
280
     0
281
     0
  0
CLASS
  1
LWPOLYLINE
  2
AcDbPolyline
  3
AutoCAD 2000
 90
        0
280
     0
281
     1
  0
CLASS
  1
HATCH
  2
AcDbHatch
  3
AutoCAD 2000
 90
        0
280
     0
281
     1
  0
CLASS
  1
XRECORD
  2
AcDbXrecord
  3
AutoCAD 2000
 90
        0
280
     0
281
     0
  0
CLASS
  1
LONG_TRANSACTION
  2
AcDbLongTransaction
  3
AutoCAD 2000
 90
        0
280
     0
281
     0
  0
CLASS
  1
LWPOLYLINE
  2
AcDbPolyline
  3
AutoCAD 2000
 90
        0
280
     0
281
     1
  0
CLASS
  1
HATCH
  2
AcDbHatch
  3
AutoCAD 2000
 90
        0
280
     0
281
     1
  0
CLASS
  1
XRECORD
  2
AcDbXrecord
  3
AutoCAD 2000
 90
        0
280
     0
281
     0
  0
CLASS
  1
LONG_TRANSACTION
  2
AcDbLongTransaction
  3
AutoCAD 2000
 90
        0
280
     0
281
     0
  0
CLASS
  1
LWPOLYLINE
  2
AcDbPolyline
  3
AutoCAD 2000
 90
        0
280
     0
281
     1
  0
CLASS
  1
HATCH
  2
AcDbHatch
  3
AutoCAD 2000
 90
        0
280
     0
281
     1
  0
CLASS
  1
XRECORD
  2
AcDbXrecord
  3
AutoCAD 2000
 90
        0
280
     0
281
     0
  0
ENDSEC
  0
SECTION
  2
TABLES
  0
TABLE
  2
VPORT
  5
8
330
0
100
AcDbSymbolTable
 70
     1
  0
VPORT
  5
19AFA
330
8
100
AcDbSymbolTableRecord
100
AcDbViewportTableRecord
  2
*ACTIVE
 70
     0
 10
0.0
 20
0.0
 11
1.0
 21
1.0
 12
8.199500078510057
 22
5.124687236587848
 13
0.0
 23
0.0
 14
0.5
 24
0.5
 15
0.5
 25
0.5
 16
0.0
 26
0.0
 36
1.0
 17
0.0
 27
0.0
 37
0.0
 40
10.33476206023985
 41
1.673972602739725
 42
50.0
 43
0.0
 44
0.0
 50
0.0
 51
0.0
 71
     0
 72
   100
 73
     1
 74
     2
 75
     0
 76
     0
 77
     0
 78
     0
  0
ENDTAB
  0
TABLE
  2
LTYPE
  5
5
330
0
100
AcDbSymbolTable
 70
     6
  0
LTYPE
  5
14
330
5
100
AcDbSymbolTableRecord
100
AcDbLinetypeTableRecord
  2
BYBLOCK
 70
     0
  3

 72
    65
 73
     0
 40
0.0
  0
LTYPE
  5
15
330
5
100
AcDbSymbolTableRecord
100
AcDbLinetypeTableRecord
  2
BYLAYER
 70
     0
  3

 72
    65
 73
     0
 40
0.0
  0
LTYPE
  5
16
330
5
100
AcDbSymbolTableRecord
100
AcDbLinetypeTableRecord
  2
CONTINUOUS
 70
     0
  3
Solid line
 72
    65
 73
     0
 40
0.0
  0
LTYPE
  5
3D
330
5
100
AcDbSymbolTableRecord
100
AcDbLinetypeTableRecord
  2
CENTER2
 70
     0
  3
Center (.5x) ___ _ ___ _ ___ _ ___ _ ___ _ ___
 72
    65
 73
     4
 40
1.125
 49
0.75
 74
     0
 49
-0.125
 74
     0
 49
0.125
 74
     0
 49
-0.125
 74
     0
  0
LTYPE
  5
3E
330
5
100
AcDbSymbolTableRecord
100
AcDbLinetypeTableRecord
  2
DASHDOT2
 70
     0
  3
Dash dot (.5x) _._._._._._._._._._._._._._._.
 72
    65
 73
     4
 40
0.5
 49
0.25
 74
     0
 49
-0.125
 74
     0
 49
0.0
 74
     0
 49
-0.125
 74
     0
  0
LTYPE
  5
3F
330
5
100
AcDbSymbolTableRecord
100
AcDbLinetypeTableRecord
  2
DASHED2
 70
     0
  3
Dashed (.5x) _ _ _ _ _ _ _ _ _ _ _ _ _ _ _ _ _
 72
    65
 73
     2
 40
0.375
 49
0.25
 74
     0
 49
-0.125
 74
     0
  0
LTYPE
  5
40
330
5
100
AcDbSymbolTableRecord
100
AcDbLinetypeTableRecord
  2
HIDDEN2
 70
     0
  3
Hidden (.5x) _ _ _ _ _ _ _ _ _ _ _ _ _ _ _ _ _
 72
    65
 73
     2
 40
0.1875
 49
0.125
 74
     0
 49
-0.0625
 74
     0
  0
LTYPE
  5
41
330
5
100
AcDbSymbolTableRecord
100
AcDbLinetypeTableRecord
  2
PHANTOM2
 70
     0
  3
Phantom (.5x) ___ _ _ ___ _ _ ___ _ _ ___ _ _
 72
    65
 73
     6
 40
1.25
 49
0.625
 74
     0
 49
-0.125
 74
     0
 49
0.125
 74
     0
 49
-0.125
 74
     0
 49
0.125
 74
     0
 49
-0.125
 74
     0
  0
ENDTAB
  0
TABLE
  2
LAYER
  5
2
330
0
100
AcDbSymbolTable
 70
    26
  0
LAYER
  5
10
330
2
100
AcDbSymbolTableRecord
100
AcDbLayerTableRecord
  2
0
 70
     0
 62
     7
  6
CONTINUOUS
  0
LAYER
  5
42
330
2
100
AcDbSymbolTableRecord
100
AcDbLayerTableRecord
  2
BLOCKS
 70
     0
 62
     7
  6
CONTINUOUS
  0
LAYER
  5
43
330
2
100
AcDbSymbolTableRecord
100
AcDbLayerTableRecord
  2
CENTER1
 70
     0
 62
     2
  6
CENTER2
  0
LAYER
  5
44
330
2
100
AcDbSymbolTableRecord
100
AcDbLayerTableRecord
  2
CENTER2
 70
     0
 62
    50
  6
CENTER2
  0
LAYER
  5
45
330
2
100
AcDbSymbolTableRecord
100
AcDbLayerTableRecord
  2
CENTER3
 70
     0
 62
    51
  6
CENTER2
  0
LAYER
  5
46
330
2
100
AcDbSymbolTableRecord
100
AcDbLayerTableRecord
  2
CONSTRUCTION
 70
     0
 62
   241
  6
DASHED2
  0
LAYER
  5
47
330
2
100
AcDbSymbolTableRecord
100
AcDbLayerTableRecord
  2
CONTINUOUS1
 70
     0
 62
     7
  6
CONTINUOUS
  0
LAYER
  5
48
330
2
100
AcDbSymbolTableRecord
100
AcDbLayerTableRecord
  2
CONTINUOUS2
 70
     0
 62
   254
  6
CONTINUOUS
  0
LAYER
  5
49
330
2
100
AcDbSymbolTableRecord
100
AcDbLayerTableRecord
  2
CONTINUOUS3
 70
     0
 62
   253
  6
CONTINUOUS
  0
LAYER
  5
4A
330
2
100
AcDbSymbolTableRecord
100
AcDbLayerTableRecord
  2
DASHDOT1
 70
     0
 62
     1
  6
DASHDOT2
  0
LAYER
  5
4B
330
2
100
AcDbSymbolTableRecord
100
AcDbLayerTableRecord
  2
DASHDOT2
 70
     0
 62
    10
  6
DASHDOT2
  0
LAYER
  5
4C
330
2
100
AcDbSymbolTableRecord
100
AcDbLayerTableRecord
  2
DASHDOT3
 70
     0
 62
    12
  6
DASHDOT2
  0
LAYER
  5
4D
330
2
100
AcDbSymbolTableRecord
100
AcDbLayerTableRecord
  2
DIM
 70
     0
 62
     2
  6
CONTINUOUS
  0
LAYER
  5
4E
330
2
100
AcDbSymbolTableRecord
100
AcDbLayerTableRecord
  2
HIDDEN1
 70
     0
 62
     5
  6
HIDDEN2
  0
LAYER
  5
4F
330
2
100
AcDbSymbolTableRecord
100
AcDbLayerTableRecord
  2
HIDDEN2
 70
     0
 62
   160
  6
HIDDEN2
  0
LAYER
  5
50
330
2
100
AcDbSymbolTableRecord
100
AcDbLayerTableRecord
  2
HIDDEN3
 70
     0
 62
   162
  6
HIDDEN2
  0
LAYER
  5
52
330
2
100
AcDbSymbolTableRecord
100
AcDbLayerTableRecord
  2
PHANTOM1
 70
     0
 62
     6
  6
PHANTOM2
  0
LAYER
  5
53
330
2
100
AcDbSymbolTableRecord
100
AcDbLayerTableRecord
  2
PHANTOM2
 70
     0
 62
   210
  6
PHANTOM2
  0
LAYER
  5
54
330
2
100
AcDbSymbolTableRecord
100
AcDbLayerTableRecord
  2
PHANTOM3
 70
     0
 62
   212
  6
PHANTOM2
  0
LAYER
  5
55
330
2
100
AcDbSymbolTableRecord
100
AcDbLayerTableRecord
  2
TEXT1
 70
     0
 62
     3
  6
CONTINUOUS
  0
LAYER
  5
56
330
2
100
AcDbSymbolTableRecord
100
AcDbLayerTableRecord
  2
TEXT2
 70
     0
 62
    80
  6
CONTINUOUS
  0
LAYER
  5
57
330
2
100
AcDbSymbolTableRecord
100
AcDbLayerTableRecord
  2
TEXT3
 70
     0
 62
    82
  6
CONTINUOUS
  0
LAYER
  5
58
330
2
100
AcDbSymbolTableRecord
100
AcDbLayerTableRecord
  2
TITLEBLOCK
 70
     0
 62
     9
  6
CONTINUOUS
  0
LAYER
  5
59
330
2
100
AcDbSymbolTableRecord
100
AcDbLayerTableRecord
  2
VIEWPORT
 70
     0
 62
     9
  6
CONTINUOUS
  0
LAYER
  5
E48
330
2
100
AcDbSymbolTableRecord
100
AcDbLayerTableRecord
  2
REFERENCE
 70
     0
 62
     2
  6
CONTINUOUS
  0
LAYER
  5
2061
330
2
100
AcDbSymbolTableRecord
100
AcDbLayerTableRecord
  2
DEFPOINTS
 70
     0
 62
     7
  6
CONTINUOUS
  0
ENDTAB
  0
TABLE
  2
STYLE
  5
3
330
0
100
AcDbSymbolTable
 70
     4
  0
STYLE
  5
11
330
3
100
AcDbSymbolTableRecord
100
AcDbTextStyleTableRecord
  2
STANDARD
 70
     0
 40
0.0
 41
1.0
 50
0.0
 71
     0
 42
0.2
  3
txt
  4

  0
STYLE
  5
36
330
3
100
AcDbSymbolTableRecord
100
AcDbTextStyleTableRecord
  2
ROMANS
 70
     0
 40
0.0
 41
1.0
 50
0.0
 71
     0
 42
0.2
  3
romans.shx
  4

  0
STYLE
  5
6CC
330
3
100
AcDbSymbolTableRecord
100
AcDbTextStyleTableRecord
  2
M_STANDARD
 70
     0
 40
0.0
 41
0.8
 50
0.0
 71
     0
 42
0.0
  3
MEDUSA.SHX
  4

  0
STYLE
  5
E4A
330
3
100
AcDbSymbolTableRecord
100
AcDbTextStyleTableRecord
  2
SIMPLEX
 70
     0
 40
0.0
 41
1.0
 50
0.0
 71
     0
 42
0.25
  3
SIMPLEX.shx
  4

  0
ENDTAB
  0
TABLE
  2
VIEW
  5
6
330
0
100
AcDbSymbolTable
 70
     0
  0
ENDTAB
  0
TABLE
  2
UCS
  5
7
330
0
100
AcDbSymbolTable
 70
     0
  0
ENDTAB
  0
TABLE
  2
APPID
  5
9
330
0
100
AcDbSymbolTable
 70
    11
  0
APPID
  5
12
330
9
100
AcDbSymbolTableRecord
100
AcDbRegAppTableRecord
  2
ACAD
 70
     0
  0
APPID
  5
6B
330
9
100
AcDbSymbolTableRecord
100
AcDbRegAppTableRecord
  2
DCO15
 70
     0
  0
APPID
  5
370
330
9
100
AcDbSymbolTableRecord
100
AcDbRegAppTableRecord
  2
MCAD_NO_VIS
 70
     0
  0
APPID
  5
371
330
9
100
AcDbSymbolTableRecord
100
AcDbRegAppTableRecord
  2
ACAD_TEMP_GRAPHIC
 70
     0
  0
APPID
  5
387
330
9
100
AcDbSymbolTableRecord
100
AcDbRegAppTableRecord
  2
GENIUS_GENSCREG_15
 70
     0
  0
APPID
  5
389
330
9
100
AcDbSymbolTableRecord
100
AcDbRegAppTableRecord
  2
GENIUS_GENODEF_13
 70
     0
  0
APPID
  5
38A
330
9
100
AcDbSymbolTableRecord
100
AcDbRegAppTableRecord
  2
GENIUS_GENOBJ-N-SDF_13
 70
     0
  0
APPID
  5
38B
330
9
100
AcDbSymbolTableRecord
100
AcDbRegAppTableRecord
  2
GENIUS_GENOENT_13
 70
     0
  0
APPID
  5
38C
330
9
100
AcDbSymbolTableRecord
100
AcDbRegAppTableRecord
  2
GENIUS_GENOREF_13
 70
     0
  0
APPID
  5
38D
330
9
100
AcDbSymbolTableRecord
100
AcDbRegAppTableRecord
  2
GENIUS_GENOLIS_13
 70
     0
  0
APPID
  5
6CE
330
9
100
AcDbSymbolTableRecord
100
AcDbRegAppTableRecord
  2
MED_PRIMTYPE
 70
     0
  0
ENDTAB
  0
TABLE
  2
DIMSTYLE
  5
A
330
0
100
AcDbSymbolTable
 70
     1
  0
DIMSTYLE
105
35
102
{ACAD_REACTORS
330
198F6
330
198F5
330
198F4
102
}
330
A
100
AcDbSymbolTableRecord
100
AcDbDimStyleTableRecord
  2
SCHNEIDERELECTRIC
 70
     0
  3

  4

  5

  6

  7

 40
0.0
 41
0.125
 42
0.0625
 43
0.38
 44
0.0625
 45
0.01
 46
0.0
 47
0.0
 48
0.0
140
0.08
141
0.09
142
0.0
143
25.4
144
1.0
145
0.0
146
1.0
147
0.04
 71
     0
 72
     0
 73
     1
 74
     1
 75
     0
 76
     0
 77
     0
 78
     4
170
     0
171
     1
172
     0
173
     0
174
     0
175
     0
176
   256
177
   256
178
   256
270
     2
271
     2
272
     2
273
     2
274
     1
340
36
275
     0
280
     0
281
     0
282
     0
283
     1
284
     0
285
     0
286
     0
287
     3
288
     0
  0
ENDTAB
  0
TABLE
  2
BLOCK_RECORD
  5
1
330
0
100
AcDbSymbolTable
 70
     8
  0
BLOCK_RECORD
  5
1F
102
{ACAD_XDICTIONARY
360
73
102
}
330
1
100
AcDbSymbolTableRecord
100
AcDbBlockTableRecord
  2
*MODEL_SPACE
  0
BLOCK_RECORD
  5
1B
102
{ACAD_XDICTIONARY
360
75
102
}
330
1
100
AcDbSymbolTableRecord
100
AcDbBlockTableRecord
  2
*PAPER_SPACE
  0
BLOCK_RECORD
  5
783
330
1
100
AcDbSymbolTableRecord
100
AcDbBlockTableRecord
  2
NEWLAYERS
1001
ACAD
1000
DesignCenter Data
1002
{
1070
     1
1070
     1
1002
}
  0
BLOCK_RECORD
  5
841
330
1
100
AcDbSymbolTableRecord
100
AcDbBlockTableRecord
  2
LOGO-PAD
1001
ACAD
1000
DesignCenter Data
1002
{
1070
     1
1070
     1
1002
}
  0
BLOCK_RECORD
  5
AE5
330
1
100
AcDbSymbolTableRecord
100
AcDbBlockTableRecord
  2
TITLE-PAD
1001
ACAD
1000
DesignCenter Data
1002
{
1070
     1
1070
     1
1002
}
  0
BLOCK_RECORD
  5
1DBB
330
1
100
AcDbSymbolTableRecord
100
AcDbBlockTableRecord
  2
OEM-NOTES
1001
ACAD
1000
DesignCenter Data
1002
{
1070
     1
1070
     1
1002
}
  0
BLOCK_RECORD
  5
1F65
330
1
100
AcDbSymbolTableRecord
100
AcDbBlockTableRecord
  2
REF2
  0
BLOCK_RECORD
  5
1990B
330
1
100
AcDbSymbolTableRecord
100
AcDbBlockTableRecord
  2
*D5
  0
BLOCK_RECORD
  5
19918
330
1
100
AcDbSymbolTableRecord
100
AcDbBlockTableRecord
  2
*D6
  0
BLOCK_RECORD
  5
19925
330
1
100
AcDbSymbolTableRecord
100
AcDbBlockTableRecord
  2
*D7
  0
ENDTAB
  0
ENDSEC
  0
SECTION
  2
BLOCKS
  0
BLOCK
  5
20
330
1F
100
AcDbEntity
  8
0
100
AcDbBlockBegin
  2
*MODEL_SPACE
 70
     0
 10
0.0
 20
0.0
 30
0.0
  3
*MODEL_SPACE
  1

  0
ENDBLK
  5
21
330
1F
100
AcDbEntity
  8
0
100
AcDbBlockEnd
  0
BLOCK
  5
1C
330
1B
100
AcDbEntity
 67
     1
  8
0
100
AcDbBlockBegin
  2
*PAPER_SPACE
 70
     0
 10
0.0
 20
0.0
 30
0.0
  3
*PAPER_SPACE
  1

  0
ENDBLK
  5
1D
330
1B
100
AcDbEntity
 67
     1
  8
0
100
AcDbBlockEnd
  0
BLOCK
  5
79C
330
783
100
AcDbEntity
  8
0
100
AcDbBlockBegin
  2
NEWLAYERS
 70
     0
 10
0.0
 20
0.0
 30
0.0
  3
NEWLAYERS
  1

  0
LINE
  5
784
330
783
100
AcDbEntity
  8
PHANTOM1
100
AcDbLine
 10
0.264152010466205
 20
0.3394492053544127
 30
0.0
 11
0.264152010466205
 21
0.1923545555598593
 31
0.0
  0
LINE
  5
785
330
783
100
AcDbEntity
  8
PHANTOM2
100
AcDbLine
 10
0.3018880119612959
 20
0.3394492053544127
 30
0.0
 11
0.3018880119612959
 21
0.1923545555598593
 31
0.0
  0
LINE
  5
786
330
783
100
AcDbEntity
  8
PHANTOM3
100
AcDbLine
 10
0.3396240134565005
 20
0.3394492053544127
 30
0.0
 11
0.3396240134565005
 21
0.1923545555598593
 31
0.0
  0
LINE
  5
787
330
783
100
AcDbEntity
  8
DASHDOT2
100
AcDbLine
 10
0.0
 20
0.3394492053544127
 30
0.0
 11
0.0
 21
0.1923545555598593
 31
0.0
  0
LINE
  5
788
330
783
100
AcDbEntity
  8
DASHDOT3
100
AcDbLine
 10
0.0377360014952046
 20
0.3394492053544127
 30
0.0
 11
0.0377360014952046
 21
0.1923545555598593
 31
0.0
  0
LINE
  5
789
330
783
100
AcDbEntity
  8
DIM
100
AcDbLine
 10
0.0754720029902956
 20
0.3394492053544127
 30
0.0
 11
0.0754720029902956
 21
0.1923545555598593
 31
0.0
  0
LINE
  5
78A
330
783
100
AcDbEntity
  8
HIDDEN1
100
AcDbLine
 10
0.1132080044855002
 20
0.3394492053544127
 30
0.0
 11
0.1132080044855002
 21
0.1923545555598593
 31
0.0
  0
LINE
  5
78B
330
783
100
AcDbEntity
  8
HIDDEN2
100
AcDbLine
 10
0.1509440059807048
 20
0.3394492053544127
 30
0.0
 11
0.1509440059807048
 21
0.1923545555598593
 31
0.0
  0
LINE
  5
78C
330
783
100
AcDbEntity
  8
HIDDEN3
100
AcDbLine
 10
0.1886800074757957
 20
0.3394492053544127
 30
0.0
 11
0.1886800074757957
 21
0.1923545555598593
 31
0.0
  0
LINE
  5
78D
330
783
100
AcDbEntity
  8
TEXT1
100
AcDbLine
 10
0.0
 20
0.1470946497945533
 30
0.0
 11
0.0
 21
0.0
 31
0.0
  0
LINE
  5
78E
330
783
100
AcDbEntity
  8
TEXT2
100
AcDbLine
 10
0.0377360014952046
 20
0.1470946497945533
 30
0.0
 11
0.0377360014952046
 21
0.0
 31
0.0
  0
LINE
  5
78F
330
783
100
AcDbEntity
  8
TEXT3
100
AcDbLine
 10
0.0754720029902956
 20
0.1470946497945533
 30
0.0
 11
0.0754720029902956
 21
0.0
 31
0.0
  0
LINE
  5
790
330
783
100
AcDbEntity
  8
TITLEBLOCK
100
AcDbLine
 10
0.1132080044855002
 20
0.1470946497945533
 30
0.0
 11
0.1132080044855002
 21
0.0
 31
0.0
  0
LINE
  5
791
330
783
100
AcDbEntity
  8
VIEWPORT
100
AcDbLine
 10
0.1509440059807048
 20
0.1470946497945533
 30
0.0
 11
0.1509440059807048
 21
0.0
 31
0.0
  0
LINE
  5
792
330
783
100
AcDbEntity
  8
BLOCKS
100
AcDbLine
 10
0.0377360014952046
 20
0.5318037609142721
 30
0.0
 11
0.0377360014952046
 21
0.3847091111197187
 31
0.0
  0
LINE
  5
793
330
783
100
AcDbEntity
  8
0
100
AcDbLine
 10
0.0
 20
0.5318037609142721
 30
0.0
 11
0.0
 21
0.3847091111197187
 31
0.0
  0
LINE
  5
794
330
783
100
AcDbEntity
  8
CENTER1
100
AcDbLine
 10
0.0754720029902956
 20
0.5318037609142721
 30
0.0
 11
0.0754720029902956
 21
0.3847091111197187
 31
0.0
  0
LINE
  5
795
330
783
100
AcDbEntity
  8
CENTER2
100
AcDbLine
 10
0.1132080044855002
 20
0.5318037609142721
 30
0.0
 11
0.1132080044855002
 21
0.3847091111197187
 31
0.0
  0
LINE
  5
796
330
783
100
AcDbEntity
  8
CENTER3
100
AcDbLine
 10
0.1509440059807048
 20
0.5318037609142721
 30
0.0
 11
0.1509440059807048
 21
0.3847091111197187
 31
0.0
  0
LINE
  5
797
330
783
100
AcDbEntity
  8
CONSTRUCTION
100
AcDbLine
 10
0.1886800074757957
 20
0.5318037609142721
 30
0.0
 11
0.1886800074757957
 21
0.3847091111197187
 31
0.0
  0
LINE
  5
798
330
783
100
AcDbEntity
  8
CONTINUOUS1
100
AcDbLine
 10
0.2264160089710003
 20
0.5318037609142721
 30
0.0
 11
0.2264160089710003
 21
0.3847091111197187
 31
0.0
  0
LINE
  5
799
330
783
100
AcDbEntity
  8
CONTINUOUS2
100
AcDbLine
 10
0.264152010466205
 20
0.5318037609142721
 30
0.0
 11
0.264152010466205
 21
0.3847091111197187
 31
0.0
  0
LINE
  5
79A
330
783
100
AcDbEntity
  8
CONTINUOUS3
100
AcDbLine
 10
0.3018880119612959
 20
0.5318037609142721
 30
0.0
 11
0.3018880119612959
 21
0.3847091111197187
 31
0.0
  0
LINE
  5
79B
330
783
100
AcDbEntity
  8
DASHDOT1
100
AcDbLine
 10
0.3396240134565005
 20
0.5318037609142721
 30
0.0
 11
0.3396240134565005
 21
0.3847091111197187
 31
0.0
  0
ENDBLK
  5
79D
330
783
100
AcDbEntity
  8
0
100
AcDbBlockEnd
  0
BLOCK
  5
852
330
841
100
AcDbEntity
  8
0
100
AcDbBlockBegin
  2
LOGO-PAD
 70
     0
 10
0.0
 20
0.0
 30
0.0
  3
LOGO-PAD
  1

  0
HATCH
  5
842
330
841
100
AcDbEntity
  8
TITLEBLOCK
 62
     0
100
AcDbHatch
 10
0.0
 20
0.0
 30
0.0
210
0.0
220
0.0
230
1.0
  2
SOLID
 70
     1
 71
     0
 91
        2
 92
        1
 93
       11
 72
     2
 10
1.203771209334867
 20
0.3650136751459491
 40
0.021562648149145
 50
90.00000747299615
 51
179.9997683268519
 73
     1
 72
     1
 10
1.182208561185898
 20
0.3650137623336376
 11
1.182208392435807
 21
0.2795138227272444
 72
     2
 10
1.203771079023129
 20
0.2795136821032751
 40
0.0215626865877801
 50
179.9996263378447
 51
269.9998903896797
 73
     1
 72
     1
 10
1.203771037772394
 20
0.2579509955155343
 11
1.330521045577125
 21
0.2579511736405264
 72
     2
 10
1.330521265257171
 20
0.2795136382789064
 40
0.021562464639499
 50
269.9994162661957
 51
311.7040125634689
 73
     1
 72
     1
 10
1.344866398698837
 20
0.2634152834601535
 11
1.352083334663557
 21
0.2579511736405264
 72
     1
 10
1.352083334663557
 20
0.2579511736405264
 11
1.365099386916806
 21
0.2751416404960081
 72
     1
 10
1.365099386916806
 20
0.2751416404960081
 11
1.352083522163621
 21
0.284997066934386
 72
     1
 10
1.352083522163621
 20
0.284997066934386
 11
1.352083690913712
 21
0.3650136723335662
 72
     2
 10
1.330521042764654
 20
0.3650136751460369
 40
0.0215626481490576
 50
359.9999925267666
 51
449.9999925267678
 73
     1
 72
     1
 10
1.330521045577125
 20
0.3865763232950938
 11
1.203771206522485
 21
0.3865763232950938
 97
        0
 92
       16
 93
       10
 72
     2
 10
1.21455271481628
 20
0.3542325202904111
 40
0.0107811520434708
 50
90.00043844291294
 51
179.9999701074038
 73
     1
 72
     1
 10
1.203771562772811
 20
0.3542325259151993
 11
1.203771562772811
 21
0.2902950591455122
 72
     2
 10
1.214552849813946
 20
0.2902948416431456
 40
0.0107812870433294
 50
179.9988441113203
 51
269.9988441346395
 73
     1
 72
     1
 10
1.214552632315967
 20
0.2795135546020104
 11
1.323606134809704
 21
0.2795135546020104
 72
     1
 10
1.323606134809704
 20
0.2795135546020104
 11
1.280867956889135
 21
0.311873265117333
 72
     1
 10
1.280867956889135
 20
0.311873265117333
 11
1.293884009142384
 21
0.3290635557226322
 72
     1
 10
1.293884009142384
 20
0.3290635557226322
 11
1.330521045577125
 21
0.3013240413506308
 72
     1
 10
1.330521045577125
 20
0.3013240413506308
 11
1.330521045577125
 21
0.3542324377902786
 72
     2
 10
1.319739809158772
 20
0.3542324359152127
 40
0.0107812364183532
 50
0.0000099648460607
 51
90.00000996484372
 73
     1
 72
     1
 10
1.319739807283706
 20
0.3650136723335662
 11
1.214552632315967
 21
0.3650136723335662
 97
        0
 75
     0
 76
     1
 98
        1
 10
-7.279586802153931
 20
-0.4081141432880261
  0
HATCH
  5
843
330
841
100
AcDbEntity
  8
TITLEBLOCK
 62
     0
100
AcDbHatch
 10
0.0
 20
0.0
 30
0.0
210
0.0
220
0.0
230
1.0
  2
SOLID
 70
     1
 71
     0
 91
        1
 92
        1
 93
        4
 72
     1
 10
3.703333445713536
 20
0.1990762889281312
 11
1.018147379006204
 21
0.1990762889281312
 72
     1
 10
1.018147379006204
 20
0.1990762889281312
 11
1.018147379006204
 21
0.220706173683743
 72
     1
 10
1.018147379006204
 20
0.220706173683743
 11
3.703333445713536
 21
0.220706173683743
 72
     1
 10
3.703333445713536
 20
0.220706173683743
 11
3.703333445713536
 21
0.1990762889281312
 97
        0
 75
     0
 76
     1
 98
        1
 10
-7.279586802153931
 20
-0.4081141432880261
  0
HATCH
  5
844
330
841
100
AcDbEntity
  8
TITLEBLOCK
 62
     0
100
AcDbHatch
 10
0.0
 20
0.0
 30
0.0
210
0.0
220
0.0
230
1.0
  2
SOLID
 70
     1
 71
     0
 91
        4
 92
        1
 93
        4
 72
     1
 10
0.8306472632318495
 20
0.4814782717956759
 11
0.4556470182475714
 21
0.4814782717956759
 72
     1
 10
0.4556470182475714
 20
0.4814782717956759
 11
0.4556470182475714
 21
0.1064783844396073
 72
     1
 10
0.4556470182475714
 20
0.1064783844396073
 11
0.8306472632318495
 21
0.1064783844396073
 72
     1
 10
0.8306472632318495
 20
0.1064783844396073
 11
0.8306472632318495
 21
0.4814782717956759
 97
        0
 92
        0
 93
       10
 72
     1
 10
0.7368972019857374
 20
0.4177282462416896
 11
0.5193971779121789
 21
0.4177282462416896
 72
     1
 10
0.5193971779121789
 20
0.4177282462416896
 11
0.5193971779121789
 21
0.37460312508514
 72
     1
 10
0.5193971779121789
 20
0.37460312508514
 11
0.5531473465883146
 21
0.37460312508514
 72
     1
 10
0.5531473465883146
 20
0.37460312508514
 11
0.5531473465883146
 21
0.2133535311501431
 72
     1
 10
0.5531473465883146
 20
0.2133535311501431
 11
0.5193971779121789
 21
0.2133535311501431
 72
     1
 10
0.5193971779121789
 20
0.2133535311501431
 11
0.5193971779121789
 21
0.1702282758831428
 72
     1
 10
0.5193971779121789
 20
0.1702282758831428
 11
0.7368972019857374
 21
0.1702282758831428
 72
     1
 10
0.7368972019857374
 20
0.1702282758831428
 11
0.7668970141602749
 21
0.2002283115750982
 72
     1
 10
0.7668970141602749
 20
0.2002283115750982
 11
0.7668970141602749
 21
0.3877281658462506
 72
     1
 10
0.7668970141602749
 20
0.3877281658462506
 11
0.7368972019857374
 21
0.4177282462416896
 97
        0
 92
       16
 93
        4
 72
     1
 10
0.7987720492890098
 20
0.4496031025563197
 11
0.4875220533764768
 21
0.4496031025563197
 72
     1
 10
0.4875220533764768
 20
0.4496031025563197
 11
0.4875220533764768
 21
0.1383533301613751
 72
     1
 10
0.4875220533764768
 20
0.1383533301613751
 11
0.7987720492890098
 21
0.1383533301613751
 72
     1
 10
0.7987720492890098
 20
0.1383533301613751
 11
0.7987720492890098
 21
0.4496031025563197
 97
        0
 92
        0
 93
        4
 72
     1
 10
0.5962724677448641
 20
0.37460312508514
 11
0.5962724677448641
 21
0.2133535311501431
 72
     1
 10
0.5962724677448641
 20
0.2133535311501431
 11
0.7237719824106926
 21
0.2133535311501431
 72
     1
 10
0.7237719824106926
 20
0.2133535311501431
 11
0.7237719824106926
 21
0.37460312508514
 72
     1
 10
0.7237719824106926
 20
0.37460312508514
 11
0.5962724677448641
 21
0.37460312508514
 97
        0
 75
     0
 76
     1
 98
        1
 10
-7.279586802153931
 20
-0.313212194787444
  0
HATCH
  5
845
330
841
100
AcDbEntity
  8
TITLEBLOCK
 62
     0
100
AcDbHatch
 10
0.0
 20
0.0
 30
0.0
210
0.0
220
0.0
230
1.0
  2
SOLID
 70
     1
 71
     0
 91
        1
 92
        1
 93
       26
 72
     1
 10
1.050490193885575
 20
0.3650136723335662
 11
1.138990457951802
 21
0.3650136723335662
 72
     2
 10
1.138990281703138
 20
0.3542326140418093
 40
0.0107810582931976
 50
270.0009366709926
 51
360.0009366862294
 73
     0
 72
     1
 10
1.149771339994895
 20
0.3542324377902786
 11
1.171333797831589
 21
0.3542324377902786
 72
     1
 10
1.171333797831589
 20
0.3542324377902786
 11
1.171333797831589
 21
0.3650136723335662
 72
     2
 10
1.149771243432702
 20
0.365013768896207
 40
0.0215625543991033
 50
359.9997434148255
 51
449.9997434160159
 73
     1
 72
     1
 10
1.149771339994895
 20
0.3865763232950938
 11
1.039708786842066
 21
0.3865763232950938
 72
     2
 10
1.039709408398413
 20
0.3650142939052909
 40
0.0215620293987615
 50
90.00165163282177
 51
180.0014125206716
 73
     1
 72
     1
 10
1.018147379006204
 20
0.3650137623336376
 11
1.018147379006204
 21
0.3334199129435318
 72
     2
 10
1.039709363397143
 20
0.3334193363730153
 40
0.0215619843986475
 50
179.9984679027414
 51
269.9984679437668
 73
     1
 72
     1
 10
1.039708786842066
 20
0.3118573519820755
 11
1.138990457951802
 21
0.311857620107139
 72
     2
 10
1.138990280765661
 20
0.3010765608779043
 40
0.0107810592306907
 50
270.0009416531222
 51
360.0009416684906
 73
     0
 72
     1
 10
1.149771339994895
 20
0.3010763836888712
 11
1.149771508744986
 21
0.2902949691454408
 72
     2
 10
1.138990231076649
 20
0.2902948322713164
 40
0.0107812776692067
 50
359.9992725992319
 51
449.9997907459082
 73
     0
 72
     1
 10
1.138990270451738
 20
0.279513554602181
 11
1.050490193885575
 21
0.2795135546020104
 72
     2
 10
1.05049014888543
 20
0.2902951041454384
 40
0.0107815495435218
 50
89.99976085826782
 51
179.9997608594354
 73
     0
 72
     1
 10
1.039708599342002
 20
0.2902950591455122
 11
1.018147379006204
 21
0.2902950591455122
 72
     1
 10
1.018147379006204
 20
0.2902950591455122
 11
1.018147379006204
 21
0.2795138227272444
 72
     2
 10
1.039709273392517
 20
0.2795130680345569
 40
0.0215618943995203
 50
179.9979945776083
 51
269.9987071039827
 73
     1
 72
     1
 10
1.039708786842066
 20
0.2579511736405264
 11
1.149771339994895
 21
0.2579511736405264
 72
     2
 10
1.149771378432784
 20
0.2795135930396681
 40
0.0215624193991759
 50
269.9998978626289
 51
359.9996636967671
 73
     1
 72
     1
 10
1.171333797831589
 20
0.2795134664769192
 11
1.171333797831589
 21
0.3114825579869829
 72
     2
 10
1.149771333432362
 20
0.3114825645494808
 40
0.0215624643992288
 50
359.9999825621309
 51
449.9999825620359
 73
     1
 72
     1
 10
1.149771339994895
 20
0.3330450289487088
 11
1.050490193885575
 21
0.3330447608234748
 72
     2
 10
1.050490103885701
 20
0.3438262653667981
 40
0.0107815045436989
 50
89.99952171675776
 51
179.9999900368059
 73
     0
 72
     1
 10
1.039708599342002
 20
0.3438262634919964
 11
1.039708786842066
 21
0.3542325259151993
 72
     2
 10
1.050490107634269
 20
0.3542323515402983
 40
0.0107813207936133
 50
180.0009266903443
 51
270.0004583701697
 73
     0
 97
        0
 75
     0
 76
     1
 98
        1
 10
-7.279586802153931
 20
-0.4081141432880261
  0
HATCH
  5
846
330
841
100
AcDbEntity
  8
TITLEBLOCK
 62
     0
100
AcDbHatch
 10
0.0
 20
0.0
 30
0.0
210
0.0
220
0.0
230
1.0
  2
SOLID
 70
     1
 71
     0
 91
        1
 92
        1
 93
       18
 72
     2
 10
2.471082802883087
 20
0.3650137595211706
 40
0.021562563774099
 50
180.0000074732525
 51
269.9997683261728
 73
     0
 72
     1
 10
2.471082715695484
 20
0.3865763232950938
 11
2.586957622645552
 21
0.3865763232950938
 72
     2
 10
2.586957713583391
 20
0.3650135813961111
 40
0.0215627418991744
 50
269.9997583630888
 51
359.999758364108
 73
     0
 72
     1
 10
2.608520455482373
 20
0.3650136723335662
 11
2.608520455482373
 21
0.3542324377902786
 72
     1
 10
2.608520455482373
 20
0.3542324377902786
 11
2.586957622645552
 21
0.3542324377902786
 72
     2
 10
2.576176208103625
 20
0.3542322577916381
 40
0.0107814145434302
 50
0.0009565685814303
 51
90.00095658455173
 73
     1
 72
     1
 10
2.576176028101979
 20
0.3650136723335662
 11
2.481864141488966
 21
0.3650136723335662
 72
     2
 10
2.481864045863444
 20
0.3542323421656055
 40
0.0107813301683848
 50
89.99949181235312
 51
179.9994918168631
 73
     1
 72
     1
 10
2.471082715695484
 20
0.3542324377902786
 11
2.471082715695484
 21
0.2902950591455122
 72
     2
 10
2.481864090863785
 20
0.2902951097704553
 40
0.0107813751684203
 50
180.0002690376259
 51
270.0002690388874
 73
     1
 72
     1
 10
2.481864141488966
 20
0.2795137346021532
 11
2.576176028101979
 21
0.2795135546020104
 72
     2
 10
2.576176073102679
 20
0.2902951041456356
 40
0.010781549543719
 50
269.9997608553225
 51
359.9992825760937
 73
     1
 72
     1
 10
2.586957622645552
 20
0.2902949691454408
 11
2.608520455482373
 21
0.2902950591455122
 72
     1
 10
2.608520455482373
 20
0.2902950591455122
 11
2.608520099232048
 21
0.2795134664769192
 72
     2
 10
2.586957670458414
 20
0.2795136024145366
 40
0.0215624287740632
 50
0.0003612140281018
 51
90.00012704854281
 73
     0
 72
     1
 10
2.586957622645552
 20
0.2579511736405264
 11
2.471082715695484
 21
0.2579511736405264
 72
     2
 10
2.471082667882924
 20
0.2795136024144634
 40
0.02156242877399
 50
89.99987295225965
 51
179.9998729525419
 73
     0
 72
     1
 10
2.449520239108988
 20
0.2795135546020104
 11
2.449520239108988
 21
0.3650137623336376
 97
        0
 75
     0
 76
     1
 98
        1
 10
-7.279586802153931
 20
-0.4081141432880261
  0
HATCH
  5
847
330
841
100
AcDbEntity
  8
TITLEBLOCK
 62
     0
100
AcDbHatch
 10
0.0
 20
0.0
 30
0.0
210
0.0
220
0.0
230
1.0
  2
SOLID
 70
     1
 71
     0
 91
        1
 92
        1
 93
       12
 72
     1
 10
2.026708344139745
 20
0.3865765014202565
 11
1.890208311215626
 21
0.3865765014202565
 72
     1
 10
1.890208311215626
 20
0.3865765014202565
 11
1.890208311215626
 21
0.2579511736405264
 72
     1
 10
1.890208311215626
 20
0.2579511736405264
 11
2.026708344139745
 21
0.2579511736405264
 72
     1
 10
2.026708344139745
 20
0.2579511736405264
 11
2.026708344139745
 21
0.2795135546020104
 72
     1
 10
2.026708344139745
 20
0.2795135546020104
 11
1.911770600302059
 21
0.2795135546020104
 72
     1
 10
1.911770600302059
 20
0.2795135546020104
 11
1.911770600302059
 21
0.3114825579869829
 72
     1
 10
1.911770600302059
 20
0.3114825579869829
 11
2.026708344139745
 21
0.3114825579869829
 72
     1
 10
2.026708344139745
 20
0.3114825579869829
 11
2.026708344139745
 21
0.333044848948566
 72
     1
 10
2.026708344139745
 20
0.333044848948566
 11
1.911770600302059
 21
0.333044848948566
 72
     1
 10
1.911770600302059
 20
0.333044848948566
 11
1.911770600302059
 21
0.3650136723335662
 72
     1
 10
1.911770600302059
 20
0.3650136723335662
 11
2.026708344139745
 21
0.3650136723335662
 72
     1
 10
2.026708344139745
 20
0.3650136723335662
 11
2.026708344139745
 21
0.3865765014202565
 97
        0
 75
     0
 76
     1
 98
        1
 10
-7.279586802153931
 20
-0.4081141432880261
  0
HATCH
  5
848
330
841
100
AcDbEntity
  8
TITLEBLOCK
 62
     0
100
AcDbHatch
 10
0.0
 20
0.0
 30
0.0
210
0.0
220
0.0
230
1.0
  2
SOLID
 70
     1
 71
     0
 91
        2
 92
        1
 93
        8
 72
     1
 10
1.614830743814064
 20
0.3865765014202565
 11
1.531145595393223
 21
0.2579509955155343
 72
     1
 10
1.531145595393223
 20
0.2579509955155343
 11
1.556870855949323
 21
0.2579511736405264
 72
     1
 10
1.556870855949323
 20
0.2579511736405264
 11
1.570898996363819
 21
0.2795135546020104
 72
     1
 10
1.570898996363819
 20
0.2795135546020104
 11
1.673830432358027
 21
0.2795135546020104
 72
     1
 10
1.673830432358027
 20
0.2795135546020104
 11
1.687858760272586
 21
0.2579514417655899
 72
     1
 10
1.687858760272586
 20
0.2579514417655899
 11
1.713583120827973
 21
0.2579514417655899
 72
     1
 10
1.713583120827973
 20
0.2579514417655899
 11
1.629898141157394
 21
0.3865765014202565
 72
     1
 10
1.629898141157394
 20
0.3865765014202565
 11
1.614830743814064
 21
0.3865765014202565
 97
        0
 92
       16
 93
        3
 72
     1
 10
1.622364536235675
 20
0.3586169575295115
 11
1.659801223192726
 21
0.3010763836888712
 72
     1
 10
1.659801223192726
 20
0.3010763836888712
 11
1.584928205528949
 21
0.3010762055637086
 72
     1
 10
1.584928205528949
 20
0.3010762055637086
 11
1.622364348735612
 21
0.3586165994043766
 97
        0
 75
     0
 76
     1
 98
        1
 10
-7.279586802153931
 20
-0.4081141432880261
  0
HATCH
  5
849
330
841
100
AcDbEntity
  8
TITLEBLOCK
 62
     0
100
AcDbHatch
 10
0.0
 20
0.0
 30
0.0
210
0.0
220
0.0
230
1.0
  2
SOLID
 70
     1
 71
     0
 91
        1
 92
        1
 93
       12
 72
     1
 10
1.392021104504447
 20
0.3865765014202565
 11
1.370458815418015
 21
0.3865765014202565
 72
     1
 10
1.370458815418015
 20
0.3865765014202565
 11
1.370458627917951
 21
0.2795138227272444
 72
     2
 10
1.39202114575308
 20
0.2795135133528436
 40
0.0215625178373483
 50
179.999177932392
 51
269.9998903944058
 73
     1
 72
     1
 10
1.392021104504447
 20
0.2579509955155343
 11
1.509583287556818
 21
0.2579511736405264
 72
     2
 10
1.509583335369764
 20
0.2795136024146219
 40
0.0215624287741484
 50
269.9998729512306
 51
359.9996387857453
 73
     1
 72
     1
 10
1.531145764143484
 20
0.2795134664769192
 11
1.531146120393639
 21
0.3865765014202565
 72
     1
 10
1.531146120393639
 20
0.3865765014202565
 11
1.509583287556818
 21
0.3865765014202565
 72
     1
 10
1.509583287556818
 20
0.3865765014202565
 11
1.509583287556818
 21
0.2902950591455122
 72
     2
 10
1.498801916139266
 20
0.290294926019563
 40
0.0107813714183743
 50
359.9992925246018
 51
449.9992925333428
 73
     0
 72
     1
 10
1.49880204926357
 20
0.2795135546020104
 11
1.402802342797695
 21
0.2795135546020104
 72
     2
 10
1.402802382172719
 20
0.2902950197703451
 40
0.0107814651684066
 50
90.00020925010334
 51
180.0002092508632
 73
     0
 72
     1
 10
1.392020917004384
 20
0.2902950591455122
 11
1.392021104504447
 21
0.3865765014202565
 97
        0
 75
     0
 76
     1
 98
        1
 10
-7.279586802153931
 20
-0.4081141432880261
  0
HATCH
  5
84A
330
841
100
AcDbEntity
  8
TITLEBLOCK
 62
     0
100
AcDbHatch
 10
0.0
 20
0.0
 30
0.0
210
0.0
220
0.0
230
1.0
  2
SOLID
 70
     1
 71
     0
 91
        2
 92
        1
 93
       13
 72
     2
 10
1.851958289039648
 20
0.2899198104641797
 40
0.0215625675244637
 50
0.0002565813902296
 51
90.00070498518821
 73
     1
 72
     2
 10
1.851958289040149
 20
0.3330449455099156
 40
0.0215625675245372
 50
269.9992950134807
 51
359.9995092535441
 73
     1
 72
     1
 10
1.873520856563896
 20
0.3330447608234748
 11
1.873520856563896
 21
0.3650136657708798
 72
     2
 10
1.851957894958188
 20
0.3650135398162329
 40
0.0215629616060761
 50
0.0003346789653151
 51
89.99920945081219
 73
     1
 72
     1
 10
1.851958192477166
 20
0.3865765014202565
 11
1.720333350237904
 21
0.3865765014202565
 72
     1
 10
1.720333350237904
 20
0.3865765014202565
 11
1.720333350237904
 21
0.2579511736405264
 72
     1
 10
1.720333350237904
 20
0.2579511736405264
 11
1.741896183074725
 21
0.2579511736405264
 72
     1
 10
1.741896183074725
 20
0.2579511736405264
 11
1.741896183074725
 21
0.3007013215688856
 72
     1
 10
1.741896183074725
 20
0.3007013215688856
 11
1.841176785433827
 21
0.3007013215688856
 72
     2
 10
1.841176693559081
 20
0.2899201789011263
 40
0.0107811426681508
 50
270.0004882631974
 51
360.0004882673548
 73
     0
 72
     1
 10
1.851957836226841
 20
0.289920087025598
 11
1.851958192477166
 21
0.2579511736405264
 72
     1
 10
1.851958192477166
 20
0.2579511736405264
 11
1.873520856563896
 21
0.2579511736405264
 72
     1
 10
1.873520856563896
 20
0.2579511736405264
 11
1.873520856563896
 21
0.2899199070254552
 97
        0
 92
       16
 93
        6
 72
     2
 10
1.841176693559081
 20
0.3542325296658069
 40
0.0107811426681508
 50
270.0004882631974
 51
360.0004882673548
 73
     0
 72
     1
 10
1.851957836226841
 20
0.3542324377902786
 11
1.851958192477166
 21
0.333044848948566
 72
     2
 10
1.841176871684197
 20
0.333044935198247
 40
0.0107813207933138
 50
0.0004583615308307
 51
90.00045836519477
 73
     0
 72
     1
 10
1.841176785433827
 20
0.3222636144052784
 11
1.741896183074725
 21
0.3222638825303419
 72
     1
 10
1.741896183074725
 20
0.3222638825303419
 11
1.741896183074725
 21
0.3650136723335662
 72
     1
 10
1.741896183074725
 20
0.3650136723335662
 11
1.841176785433827
 21
0.3650136723335662
 97
        0
 75
     0
 76
     1
 98
        1
 10
-7.279586802153931
 20
-0.4081141432880261
  0
HATCH
  5
84B
330
841
100
AcDbEntity
  8
TITLEBLOCK
 62
     0
100
AcDbHatch
 10
0.0
 20
0.0
 30
0.0
210
0.0
220
0.0
230
1.0
  2
SOLID
 70
     1
 71
     0
 91
        2
 92
        1
 93
       10
 72
     1
 10
2.168832611988261
 20
0.3650136723335662
 11
2.168832611988261
 21
0.2795135546021492
 72
     1
 10
2.168832611988261
 20
0.2795135546021492
 11
2.148020079641632
 21
0.2795135546021492
 72
     1
 10
2.148020079641632
 20
0.2795135546021492
 11
2.148020079641632
 21
0.2579511736406499
 72
     1
 10
2.148020079641632
 20
0.2579511736406499
 11
2.314895263659607
 21
0.2579511736406499
 72
     2
 10
2.314895311472477
 20
0.2795136024147182
 40
0.0215624287741214
 50
269.9998729514336
 51
359.9996387859474
 73
     1
 72
     1
 10
2.336457740246171
 20
0.2795134664770916
 11
2.336457740246171
 21
0.3650136723335662
 72
     2
 10
2.314895087410214
 20
0.3650138485844006
 40
0.0215626528366775
 50
359.9995316703829
 51
449.999531674211
 73
     1
 72
     1
 10
2.314895263659607
 20
0.386576501420358
 11
2.148020079641632
 21
0.386576501420358
 72
     1
 10
2.148020079641632
 20
0.386576501420358
 11
2.148020079641632
 21
0.3650136723335662
 72
     1
 10
2.148020079641632
 20
0.3650136723335662
 11
2.168832611988261
 21
0.3650136723335662
 97
        0
 92
       16
 93
        6
 72
     1
 10
2.190395257324933
 20
0.3650136723335662
 11
2.304113856616218
 21
0.3650136723335662
 72
     2
 10
2.304113942866619
 20
0.3542323515405775
 40
0.0107813207933337
 50
269.9995416346447
 51
359.9995416383139
 73
     0
 72
     1
 10
2.314895263659607
 20
0.3542324377902877
 11
2.314895263659607
 21
0.2902949691455452
 72
     2
 10
2.304113807866077
 20
0.2902950103956483
 40
0.0107814557936096
 50
0.0002192149982456
 51
89.99974092762393
 73
     0
 72
     1
 10
2.304113856616218
 20
0.2795135546021492
 11
2.190395257324933
 21
0.2795135546021492
 72
     1
 10
2.190395257324933
 20
0.2795135546021492
 11
2.190395257324933
 21
0.3650136723335662
 97
        0
 75
     0
 76
     1
 98
        1
 10
-7.279586802153931
 20
-0.4081141432880261
  0
HATCH
  5
84C
330
841
100
AcDbEntity
  8
TITLEBLOCK
 62
     0
100
AcDbHatch
 10
0.0
 20
0.0
 30
0.0
210
0.0
220
0.0
230
1.0
  2
SOLID
 70
     1
 71
     0
 91
        2
 92
        1
 93
        8
 72
     1
 10
3.241392303571654
 20
0.3865765014202565
 11
3.157707226761072
 21
0.2579509955155343
 72
     1
 10
3.157707226761072
 20
0.2579509955155343
 11
3.183432299816939
 21
0.2579511736405264
 72
     1
 10
3.183432299816939
 20
0.2579511736405264
 11
3.197460983981823
 21
0.2795133764768478
 72
     1
 10
3.197460983981823
 20
0.2795133764768478
 11
3.30039082622498
 21
0.2795135546020104
 72
     1
 10
3.30039082622498
 20
0.2795135546020104
 11
3.314419679139785
 21
0.2579514417655899
 72
     1
 10
3.314419679139785
 20
0.2579514417655899
 11
3.340144583445731
 21
0.2579511736405264
 72
     1
 10
3.340144583445731
 20
0.2579511736405264
 11
3.256459603774981
 21
0.3865765014202565
 72
     1
 10
3.256459603774981
 20
0.3865765014202565
 11
3.241392303571654
 21
0.3865765014202565
 97
        0
 92
       16
 93
        3
 72
     1
 10
3.248925740352245
 20
0.358616778466603
 11
3.211489480646473
 21
0.3010762055637086
 72
     1
 10
3.211489480646473
 20
0.3010762055637086
 11
3.28636178580994
 21
0.3010763836888712
 72
     1
 10
3.28636178580994
 20
0.3010763836888712
 11
3.248925740352245
 21
0.358616778466603
 97
        0
 75
     0
 76
     1
 98
        1
 10
-7.279586802153931
 20
-0.4081141432880261
  0
HATCH
  5
84D
330
841
100
AcDbEntity
  8
TITLEBLOCK
 62
     0
100
AcDbHatch
 10
0.0
 20
0.0
 30
0.0
210
0.0
220
0.0
230
1.0
  2
SOLID
 70
     1
 71
     0
 91
        1
 92
        1
 93
       13
 72
     1
 10
2.838488736968525
 20
0.3865765014202565
 11
2.806145209588674
 21
0.3865765014202565
 72
     1
 10
2.806145209588674
 20
0.3865765014202565
 11
2.806145209588674
 21
0.2579511736405264
 72
     1
 10
2.806145209588674
 20
0.2579511736405264
 11
2.827707667425368
 21
0.2579511736405264
 72
     1
 10
2.827707667425368
 20
0.2579511736405264
 11
2.827707667425368
 21
0.3640633654626753
 72
     1
 10
2.827707667425368
 20
0.3640633654626753
 11
2.899718420719221
 21
0.2579514417655899
 72
     1
 10
2.899718420719221
 20
0.2579514417655899
 11
2.922570860648686
 21
0.2579511736405264
 72
     1
 10
2.922570860648686
 20
0.2579511736405264
 11
2.994582138942956
 21
0.3640642598382782
 72
     1
 10
2.994582138942956
 20
0.3640642598382782
 11
2.994582138942956
 21
0.2579511736405264
 72
     1
 10
2.994582138942956
 20
0.2579511736405264
 11
3.016144596779479
 21
0.2579511736405264
 72
     1
 10
3.016144596779479
 20
0.2579511736405264
 11
3.016144596779479
 21
0.3865765014202565
 72
     1
 10
3.016144596779479
 20
0.3865765014202565
 11
2.983801425649954
 21
0.3865765014202565
 72
     1
 10
2.983801425649954
 20
0.3865765014202565
 11
2.911144640683954
 21
0.2795135546020104
 72
     1
 10
2.911144640683954
 20
0.2795135546020104
 11
2.838488380718199
 21
0.3865765014202565
 97
        0
 75
     0
 76
     1
 98
        1
 10
-7.279586802153931
 20
-0.4081141432880261
  0
HATCH
  5
84E
330
841
100
AcDbEntity
  8
TITLEBLOCK
 62
     0
100
AcDbHatch
 10
0.0
 20
0.0
 30
0.0
210
0.0
220
0.0
230
1.0
  2
SOLID
 70
     1
 71
     0
 91
        2
 92
        1
 93
        8
 72
     1
 10
2.79358243888161
 20
0.2795134664769192
 11
2.793582795131936
 21
0.3650136723335662
 72
     2
 10
2.772020240733041
 20
0.3650137688961994
 40
0.0215625543991104
 50
359.9997434148459
 51
449.999743415997
 73
     1
 72
     1
 10
2.772020337295241
 20
0.3865763232950938
 11
2.640957676673206
 21
0.3865763232950938
 72
     2
 10
2.640957763860811
 20
0.3650137595211699
 40
0.0215625637741002
 50
90.00023167383188
 51
179.9999925267453
 73
     1
 72
     1
 10
2.61939520008671
 20
0.3650137623336376
 11
2.61939520008671
 21
0.2795135546020104
 72
     2
 10
2.640957628860649
 20
0.2795136024144641
 40
0.0215624287739915
 50
180.0001270474597
 51
270.0001270477355
 73
     1
 72
     1
 10
2.640957676673206
 20
0.2579511736405264
 11
2.772020337295241
 21
0.2579511736405264
 72
     2
 10
2.772020197607671
 20
0.2795134149140743
 40
0.0215622412740004
 50
270.000371181646
 51
360.000137014207
 73
     1
 97
        0
 92
       16
 93
        8
 72
     2
 10
2.651738913091431
 20
0.3542324359149649
 40
0.0107812364186015
 50
89.9999900344766
 51
179.999521702949
 73
     1
 72
     1
 10
2.640957676673206
 20
0.3542325259151993
 11
2.640957676673206
 21
0.2902950591455122
 72
     2
 10
2.651738958091508
 20
0.2902950160204556
 40
0.010781281418388
 50
179.9997708172488
 51
269.9997708181704
 73
     1
 72
     1
 10
2.651738914966625
 20
0.2795137346021532
 11
2.761238742751839
 21
0.2795135546020104
 72
     2
 10
2.761238956501978
 20
0.2902951041442614
 40
0.0107815495443698
 50
269.9988640797126
 51
359.9992825833961
 73
     1
 72
     1
 10
2.772020506045503
 20
0.2902949691454408
 11
2.772020337295241
 21
0.3542324377902786
 72
     2
 10
2.761239007127366
 20
0.3542323421656908
 40
0.0107813301682991
 50
0.0005081826837109
 51
90.00050818719378
 73
     1
 72
     1
 10
2.76123891150193
 20
0.3650136723335662
 11
2.651738914966625
 21
0.3650136723335662
 97
        0
 75
     0
 76
     1
 98
        1
 10
-7.279586802153931
 20
-0.4081141432880261
  0
HATCH
  5
84F
330
841
100
AcDbEntity
  8
TITLEBLOCK
 62
     0
100
AcDbHatch
 10
0.0
 20
0.0
 30
0.0
210
0.0
220
0.0
230
1.0
  2
SOLID
 70
     1
 71
     0
 91
        2
 92
        1
 93
        8
 72
     2
 10
3.162769048174736
 20
0.3650134554401196
 40
0.0215630459811904
 50
270.0005663490367
 51
359.9994236862867
 73
     0
 72
     1
 10
3.184332094154836
 20
0.3650136723335662
 11
3.184332094154836
 21
0.3222638825303419
 72
     2
 10
3.162769397256125
 20
0.3222640184675962
 40
0.0215626968991391
 50
0.0003612085718475
 51
90.00036121084693
 73
     0
 72
     1
 10
3.162769261318015
 20
0.3007013215688856
 11
3.052707420665665
 21
0.3007013215688856
 72
     1
 10
3.052707420665665
 20
0.3007013215688856
 11
3.052707420665665
 21
0.2579511736405264
 72
     1
 10
3.052707420665665
 20
0.2579511736405264
 11
3.031144250328662
 21
0.2579511736405264
 72
     1
 10
3.031144250328662
 20
0.2579511736405264
 11
3.031144250328662
 21
0.3865765014202565
 72
     1
 10
3.031144250328662
 20
0.3865765014202565
 11
3.162769261318015
 21
0.3865765014202565
 97
        0
 92
       16
 93
        6
 72
     2
 10
3.151988118650169
 20
0.3542325296657216
 40
0.0107811426682361
 50
270.0004882627443
 51
360.0004882669015
 73
     0
 72
     1
 10
3.162769261318015
 20
0.3542324377902786
 11
3.162769261318015
 21
0.333044848948566
 72
     2
 10
3.151988118650169
 20
0.333044757073123
 40
0.0107811426682367
 50
359.9995117330984
 51
449.9995117372556
 73
     0
 72
     1
 10
3.15198821052483
 20
0.3222636144052784
 11
3.052707420665665
 21
0.3222638825303419
 72
     1
 10
3.052707420665665
 20
0.3222638825303419
 11
3.052707420665665
 21
0.3650136723335662
 72
     1
 10
3.052707420665665
 20
0.3650136723335662
 11
3.15198821052483
 21
0.3650136723335662
 97
        0
 75
     0
 76
     1
 98
        1
 10
-7.279586802153931
 20
-0.4081141432880261
  0
HATCH
  5
850
330
841
100
AcDbEntity
  8
TITLEBLOCK
 62
     0
100
AcDbHatch
 10
0.0
 20
0.0
 30
0.0
210
0.0
220
0.0
230
1.0
  2
SOLID
 70
     1
 71
     0
 91
        1
 92
        1
 93
        9
 72
     1
 10
3.556847887515953
 20
0.3865763232950938
 11
3.525206566844968
 21
0.3865765014202565
 72
     1
 10
3.525206566844968
 20
0.3865765014202565
 11
3.60348814923547
 21
0.3136817019238036
 72
     1
 10
3.60348814923547
 20
0.3136817019238036
 11
3.603486349234383
 21
0.2579511736405264
 72
     1
 10
3.603486349234383
 20
0.2579511736405264
 11
3.625050607072164
 21
0.2579511736405264
 72
     1
 10
3.625050607072164
 20
0.2579511736405264
 11
3.625050607072164
 21
0.3136813437984982
 72
     1
 10
3.625050607072164
 20
0.3136813437984982
 11
3.703331833212512
 21
0.3865766795454191
 72
     1
 10
3.703331833212512
 20
0.3865766795454191
 11
3.671691225042007
 21
0.3865765014202565
 72
     1
 10
3.671691225042007
 20
0.3865765014202565
 11
3.61426955627898
 21
0.3331056458632473
 72
     1
 10
3.61426955627898
 20
0.3331056458632473
 11
3.556847887515953
 21
0.3865763232950938
 97
        0
 75
     0
 76
     1
 98
        1
 10
-7.279586802153931
 20
-0.4081141432880261
  0
HATCH
  5
851
330
841
100
AcDbEntity
  8
TITLEBLOCK
 62
     0
100
AcDbHatch
 10
0.0
 20
0.0
 30
0.0
210
0.0
220
0.0
230
1.0
  2
SOLID
 70
     1
 71
     0
 91
        1
 92
        1
 93
       10
 72
     1
 10
3.376247484495632
 20
0.3865765014202565
 11
3.345207161752892
 21
0.3865765014202565
 72
     1
 10
3.345207161752892
 20
0.3865765014202565
 11
3.345207161752892
 21
0.2579511736405264
 72
     1
 10
3.345207161752892
 20
0.2579511736405264
 11
3.366769638339558
 21
0.2579511736405264
 72
     1
 10
3.366769638339558
 20
0.2579511736405264
 11
3.366769638339558
 21
0.3659393041881229
 72
     1
 10
3.366769638339558
 20
0.3659393041881229
 11
3.48273627034943
 21
0.2579509955155343
 72
     1
 10
3.48273627034943
 20
0.2579509955155343
 11
3.515082122730785
 21
0.2579511736405264
 72
     1
 10
3.515082122730785
 20
0.2579511736405264
 11
3.515082122730785
 21
0.3865765014202565
 72
     1
 10
3.515082122730785
 20
0.3865765014202565
 11
3.49351767739277
 21
0.3865765014202565
 72
     1
 10
3.49351767739277
 20
0.3865765014202565
 11
3.49351767739277
 21
0.277374671329744
 72
     1
 10
3.49351767739277
 20
0.277374671329744
 11
3.376247484495632
 21
0.3865765014202565
 97
        0
 75
     0
 76
     1
 98
        1
 10
-7.279586802153931
 20
-0.4081141432880261
  0
ENDBLK
  5
853
330
841
100
AcDbEntity
  8
0
100
AcDbBlockEnd
  0
BLOCK
  5
AF5
330
AE5
100
AcDbEntity
  8
0
100
AcDbBlockBegin
  2
TITLE-PAD
 70
     2
 10
0.0
 20
0.0
 30
0.0
  3
TITLE-PAD
  1

  0
LWPOLYLINE
  5
B1D
330
AE5
100
AcDbEntity
  8
CONTINUOUS2
 62
     0
100
AcDbPolyline
 90
        7
 70
     1
 43
0.0
 10
16.40000099999999
 20
0.0
 10
16.40000099999999
 20
0.0
 10
16.40000099999999
 20
0.0
 10
8.002461
 20
0.0
 10
8.002461
 20
0.9120019999999993
 10
16.40000099999999
 20
0.9120019999999993
 10
16.40000099999999
 20
0.0
  0
INSERT
  5
B1E
330
AE5
100
AcDbEntity
  8
TITLEBLOCK
 62
     0
100
AcDbBlockReference
  2
LOGO-PAD
 10
12.245701
 20
0.3040000000000003
 30
0.0
  0
LINE
  5
B1F
330
AE5
100
AcDbEntity
  8
CONTINUOUS2
 62
     0
100
AcDbLine
 10
16.40000099999999
 20
0.3040000000000003
 30
0.0
 11
12.245701
 21
0.3040000000000003
 31
0.0
  0
LINE
  5
B20
330
AE5
100
AcDbEntity
  8
CONTINUOUS2
 62
     0
100
AcDbLine
 10
12.245701
 20
0.9120019999999993
 30
0.0
 11
12.245701
 21
0.0
 31
0.0
  0
TEXT
  5
B21
330
AE5
100
AcDbEntity
  8
TEXT1
  6
CONTINUOUS
 62
     0
100
AcDbText
 10
12.36897712113656
 20
0.0611566731182909
 30
0.0
 40
0.0699999951940822
  1
NO.
  7
ROMANS
 11
12.36897712113656
 21
0.096156670715332
 31
0.0
100
AcDbText
 73
     2
  0
TEXT
  5
B22
330
AE5
100
AcDbEntity
  8
TEXT1
  6
CONTINUOUS
 62
     0
100
AcDbText
 10
12.36897712113656
 20
0.1661566731182908
 30
0.0
 40
0.0699999951940822
  1
DWG#
  7
ROMANS
 11
12.36897712113656
 21
0.2011566707153319
 31
0.0
100
AcDbText
 73
     2
  0
ATTDEF
  5
B23
330
AE5
100
AcDbEntity
  8
TEXT1
 62
     0
100
AcDbText
 10
10.10183834893798
 20
0.7474460884590166
 30
0.0
 40
0.1
  1

  7
ROMANS
 72
     4
 11
10.10183834893798
 21
0.7474460884590166
 31
0.0
100
AcDbAttributeDefinition
  3
DESCRIPTION 1
  2
DESCRIPTION 1
 70
     0
  0
ATTDEF
  5
B24
330
AE5
100
AcDbEntity
  8
TEXT1
 62
     0
100
AcDbText
 10
10.10183834893798
 20
0.6017231711406717
 30
0.0
 40
0.1
  1

  7
ROMANS
 72
     4
 11
10.10183834893798
 21
0.6017231711406717
 31
0.0
100
AcDbAttributeDefinition
  3
DESCRIPTION 2
  2
DESCRIPTION 2
 70
     0
  0
ATTDEF
  5
B25
330
AE5
100
AcDbEntity
  8
TEXT1
 62
     0
100
AcDbText
 10
10.10183834893798
 20
0.4560002538223267
 30
0.0
 40
0.08
  1

  7
ROMANS
 72
     4
 11
10.10183834893798
 21
0.4560002538223267
 31
0.0
100
AcDbAttributeDefinition
  3
DESCRIPTION 3
  2
DESCRIPTION 3
 70
     0
  0
ATTDEF
  5
B26
330
AE5
100
AcDbEntity
  8
TEXT1
 62
     0
100
AcDbText
 10
10.10183834893798
 20
0.3202773365039833
 30
0.0
 40
0.08
  1

  7
ROMANS
 72
     4
 11
10.10183834893798
 21
0.3202773365039833
 31
0.0
100
AcDbAttributeDefinition
  3
DESCRIPTION 4
  2
DESCRIPTION 4
 70
     0
  0
ATTDEF
  5
B27
330
AE5
100
AcDbEntity
  8
TEXT1
 62
     0
100
AcDbText
 10
10.10183834893798
 20
0.1845544191856399
 30
0.0
 40
0.08
  1

  7
ROMANS
 72
     4
 11
10.10183834893798
 21
0.1845544191856399
 31
0.0
100
AcDbAttributeDefinition
  3
DESCRIPTION 5
  2
DESCRIPTION 5
 70
     0
  0
ATTDEF
  5
B28
330
AE5
100
AcDbEntity
  8
TEXT1
 62
     0
100
AcDbText
 10
12.74772367103195
 20
0.096540546036505
 30
0.0
 40
0.12
  1

 41
0.9512024731840066
  7
M_STANDARD
 11
12.74772367103195
 21
0.156540546036505
 31
0.0
100
AcDbAttributeDefinition
  3
DRAWING NUMBER
  2
DWGNO
 70
     0
 74
     2
  0
ATTDEF
  5
B29
330
AE5
100
AcDbEntity
  8
TEXT1
 62
     0
100
AcDbText
 10
16.35506454949325
 20
-0.1507193079929352
 30
0.0
 40
0.08
  1

  7
ROMANS
 72
     2
 11
16.35506454949325
 21
-0.1107193079929352
 31
0.0
100
AcDbAttributeDefinition
  3
REF DWG #
  2
REF
 70
     0
 74
     2
  0
ATTDEF
  5
B2A
330
AE5
100
AcDbEntity
  8
TEXT1
 62
     0
100
AcDbText
 10
0.0266402374038712
 20
-0.1507193079929352
 30
0.0
 40
0.08
  1

  7
ROMANS
 11
0.0266402374038712
 21
-0.1107193079929352
 31
0.0
100
AcDbAttributeDefinition
  3
DATE MODIFIED
  2
DATE
 70
     0
 74
     2
  0
LWPOLYLINE
  5
B2B
330
AE5
100
AcDbEntity
  8
CONTINUOUS3
 62
     0
100
AcDbPolyline
 90
        4
 70
   129
 43
0.0
 10
0.0
 20
0.0
 10
16.40000099999999
 20
0.0
 10
16.40000099999999
 20
10.25
 10
0.0
 20
10.25
  0
ENDBLK
  5
AF6
330
AE5
100
AcDbEntity
  8
0
100
AcDbBlockEnd
  0
BLOCK
  5
1DED
330
1DBB
100
AcDbEntity
  8
0
100
AcDbBlockBegin
  2
OEM-NOTES
 70
     0
 10
0.0
 20
0.0
 30
0.0
  3
OEM-NOTES
  1

  0
LWPOLYLINE
  5
1DBC
330
1DBB
100
AcDbEntity
  8
TITLEBLOCK
100
AcDbPolyline
 90
        2
 70
     0
 43
0.0128
 10
8.625
 20
1.599999999999996
 10
0.0
 20
1.6
  0
TEXT
  5
1DC0
330
1DBB
100
AcDbEntity
  8
TITLEBLOCK
100
AcDbText
 10
0.3131249999999959
 20
0.7406249999999998
 30
0.0
 40
0.13125
  1
BE USED ONLY IN CONFORMANCE WITH INSTRUCTIONS ISSUED BY SQUARE D COMPANY.
 41
0.9
  7
SIMPLEX
 72
     4
 11
4.3125
 21
0.7999999999999999
 31
0.0
100
AcDbText
  0
TEXT
  5
1DC1
330
1DBB
100
AcDbEntity
  8
TITLEBLOCK
100
AcDbText
 10
0.2540625000000007
 20
1.045625000000001
 30
0.0
 40
0.13125
  1
HEREON. THIS INFORMATION REMAINS THE PROPERTY OF SQUARE D COMPANY AND MAY
 41
0.9
  7
SIMPLEX
 72
     4
 11
4.3125
 21
1.105000000000001
 31
0.0
100
AcDbText
  0
TEXT
  5
1DC2
330
1DBB
100
AcDbEntity
  8
TITLEBLOCK
100
AcDbText
 10
0.3046875
 20
1.338124999999997
 30
0.0
 40
0.13125
  1
"THE SQUARE D COMPANY HAS PROPRIETARY RIGHTS TO THE INFORMATION CONTAINED
 41
0.9
  7
SIMPLEX
 72
     4
 11
4.3125
 21
1.409999999999997
 31
0.0
100
AcDbText
  0
TEXT
  5
1DC3
330
1DBB
100
AcDbEntity
  8
TITLEBLOCK
100
AcDbText
 10
0.6309374999999977
 20
0.4387499999999984
 30
0.0
 40
0.13125
  1
USER SHOULD VERIFY DRAWINGS ARE TO THE LATEST/CURRENT REVISION PRIOR
 41
0.9
  7
SIMPLEX
 72
     4
 11
4.3125
 21
0.4949999999999984
 31
0.0
100
AcDbText
  0
TEXT
  5
1DC4
330
1DBB
100
AcDbEntity
  8
TITLEBLOCK
100
AcDbText
 10
2.5490625
 20
0.1368749999999972
 30
0.0
 40
0.13125
  1
TO INCORPORATING IN A DESIGN FILE."
 41
0.9
  7
SIMPLEX
 72
     4
 11
4.3125
 21
0.2149999999999972
 31
0.0
100
AcDbText
  0
TEXT
  5
1DC5
330
1DBB
100
AcDbEntity
  8
TITLEBLOCK
100
AcDbText
 10
9.046378855339687
 20
0.2629426489623099
 30
0.0
 40
0.112
  1
UNLESS OTHERWISE SPECIFIED DIMENSIONS ARE IN INCHES
 41
0.8
  7
SIMPLEX
 72
     4
 11
11.06451218867302
 21
0.3189426489623099
 31
0.0
100
AcDbText
  0
LWPOLYLINE
  5
1DC6
330
1DBB
100
AcDbEntity
  8
TITLEBLOCK
100
AcDbPolyline
 90
        2
 70
     0
 43
0.0128
 10
8.625
 20
0.9599999999999964
 10
16.00492200000007
 20
0.9599999999999964
  0
TEXT
  5
1DCA
330
1DBB
100
AcDbEntity
  8
TITLEBLOCK
100
AcDbText
 10
8.7837120071254
 20
0.5472199999999967
 30
0.0
 40
0.2433162500000002
  1
%%uDO NOT SCALE DRAWING
  7
SIMPLEX
 72
     1
 11
11.06451218867302
 21
0.5472199999999967
 31
0.0
100
AcDbText
  0
LWPOLYLINE
  5
1DCB
330
1DBB
100
AcDbEntity
  8
TITLEBLOCK
100
AcDbPolyline
 90
        2
 70
     0
 43
0.0128
 10
8.625
 20
0.9599999999999964
 10
8.625
 20
0.0000000000000009
  0
LWPOLYLINE
  5
1DCF
330
1DBB
100
AcDbEntity
  8
TITLEBLOCK
100
AcDbPolyline
 90
        2
 70
     0
 43
0.0128
 10
8.625
 20
0.0000000000000009
 10
8.625
 20
1.6
  0
LWPOLYLINE
  5
1DD3
330
1DBB
100
AcDbEntity
  8
TITLEBLOCK
100
AcDbPolyline
 90
        2
 70
     0
 43
0.0128
 10
13.49242200000007
 20
1.599999999999995
 10
13.49242200000007
 20
0.0000000000000009
  0
TEXT
  5
1DD7
330
1DBB
100
AcDbEntity
  8
TITLEBLOCK
100
AcDbText
 10
13.77242200000007
 20
0.2099999999999964
 30
0.0
 40
0.1
  1
2 PLACE DECIMALS
  7
SIMPLEX
100
AcDbText
  0
TEXT
  5
1DD8
330
1DBB
100
AcDbEntity
  8
TITLEBLOCK
100
AcDbText
 10
13.62242200000007
 20
0.4474999999999972
 30
0.0
 40
0.1
  1
UNLESS OTHERWISE SPECIFIED
  7
SIMPLEX
100
AcDbText
  0
TEXT
  5
1DD9
330
1DBB
100
AcDbEntity
  8
TITLEBLOCK
100
AcDbText
 10
15.57242200000007
 20
0.2099999999999964
 30
0.0
 40
0.1
  1
.01
  7
SIMPLEX
100
AcDbText
  0
LINE
  5
1DDA
330
1DBB
100
AcDbEntity
  8
TITLEBLOCK
100
AcDbLine
 10
15.35492200000008
 20
0.2187499999999973
 30
0.0
 11
15.45492200000008
 21
0.2187499999999973
 31
0.0
  0
TEXT
  5
1DDB
330
1DBB
100
AcDbEntity
  8
TITLEBLOCK
100
AcDbText
 10
15.35992200000007
 20
0.2474999999999961
 30
0.0
 40
0.1
  1
+
  7
SIMPLEX
100
AcDbText
  0
LWPOLYLINE
  5
1DDC
330
1DBB
100
AcDbEntity
  8
TITLEBLOCK
100
AcDbPolyline
 90
        2
 70
     0
 43
0.0128
 10
16.00492200000007
 20
1.599999999999995
 10
13.49242200000007
 20
1.599999999999995
  0
TEXT
  5
1DE0
330
1DBB
100
AcDbEntity
  8
TITLEBLOCK
100
AcDbText
 10
13.62242200000007
 20
1.147499999999996
 30
0.0
 40
0.1
  1
PROJECTION
  7
SIMPLEX
100
AcDbText
  0
TEXT
  5
1DE1
330
1DBB
100
AcDbEntity
  8
TITLEBLOCK
100
AcDbText
 10
13.55992200000007
 20
1.347499999999997
 30
0.0
 40
0.1
  1
THIRD ANGLE
  7
SIMPLEX
100
AcDbText
  0
LINE
  5
1DE2
330
1DBB
100
AcDbEntity
  8
TITLEBLOCK
100
AcDbLine
 10
14.69692486880008
 20
1.300351715199997
 30
0.0
 11
15.91292523520008
 21
1.300351715199997
 31
0.0
  0
TEXT
  5
1DE3
330
1DBB
100
AcDbEntity
  8
TITLEBLOCK
100
AcDbText
 10
14.04742200000008
 20
0.6974999999999972
 30
0.0
 40
0.15
  1
%%uTOLERANCES
  7
SIMPLEX
100
AcDbText
  0
LINE
  5
1DE4
330
1DBB
100
AcDbEntity
  8
TITLEBLOCK
100
AcDbLine
 10
14.95292615040008
 20
1.396354294399999
 30
0.0
 11
14.95292615040008
 21
1.524354553599997
 31
0.0
  0
CIRCLE
  5
1DE5
330
1DBB
100
AcDbEntity
  8
TITLEBLOCK
100
AcDbCircle
 10
14.95292615040008
 20
1.300352668799996
 30
0.0
 40
0.1279999615999998
  0
CIRCLE
  5
1DE6
330
1DBB
100
AcDbEntity
  8
TITLEBLOCK
100
AcDbCircle
 10
14.95292615040008
 20
1.300352668799996
 30
0.0
 40
0.064000004799999
  0
LINE
  5
1DE7
330
1DBB
100
AcDbEntity
  8
TITLEBLOCK
100
AcDbLine
 10
14.95292615040008
 20
1.332351302399996
 30
0.0
 11
14.95292615040008
 21
1.268351172799996
 31
0.0
  0
LINE
  5
1DE8
330
1DBB
100
AcDbEntity
  8
TITLEBLOCK
100
AcDbLine
 10
14.95292615040008
 20
1.204351996799997
 30
0.0
 11
14.95292615040008
 21
1.076351737599998
 31
0.0
  0
LINE
  5
1DE9
330
1DBB
100
AcDbEntity
  8
TITLEBLOCK
100
AcDbLine
 10
15.78492230560007
 20
1.172351455999998
 30
0.0
 11
15.33692425760007
 21
1.236351585599996
 31
0.0
  0
LINE
  5
1DEA
330
1DBB
100
AcDbEntity
  8
TITLEBLOCK
100
AcDbLine
 10
15.33692425760007
 20
1.364351844799998
 30
0.0
 11
15.78492230560007
 21
1.428351020799996
 31
0.0
  0
LINE
  5
1DEB
330
1DBB
100
AcDbEntity
  8
TITLEBLOCK
100
AcDbLine
 10
15.33692425760007
 20
1.236351585599996
 30
0.0
 11
15.33692425760007
 21
1.364351844799998
 31
0.0
  0
LINE
  5
1DEC
330
1DBB
100
AcDbEntity
  8
TITLEBLOCK
100
AcDbLine
 10
15.78492230560007
 20
1.428351020799996
 30
0.0
 11
15.78492230560007
 21
1.172351455999998
 31
0.0
  0
ENDBLK
  5
1DEE
330
1DBB
100
AcDbEntity
  8
0
100
AcDbBlockEnd
  0
BLOCK
  5
1F78
330
1F65
100
AcDbEntity
  8
0
100
AcDbBlockBegin
  2
REF2
 70
     2
 10
0.0
 20
0.0
 30
0.0
  3
REF2
  1

  0
ATTDEF
  5
1F66
330
1F65
100
AcDbEntity
  8
REFERENCE
100
AcDbText
 10
2.0
 20
0.2204373050885353
 30
0.0
 40
0.125
  1

100
AcDbAttributeDefinition
  3
Mounting Hardware?
  2
MOUNTING_HWD
 70
     0
  0
ATTDEF
  5
1F67
330
1F65
100
AcDbEntity
  8
REFERENCE
100
AcDbText
 10
2.0
 20
0.4484790897328282
 30
0.0
 40
0.125
  1

100
AcDbAttributeDefinition
  3
Terminal Torque
  2
TERM_TORQUE
 70
     0
  0
ATTDEF
  5
1F68
330
1F65
100
AcDbEntity
  8
REFERENCE
100
AcDbText
 10
2.0
 20
0.6579373050885355
 30
0.0
 40
0.125
  1

100
AcDbAttributeDefinition
  3
Wire Size?
  2
WIRE_SIZE
 70
     0
  0
ATTDEF
  5
1F69
330
1F65
100
AcDbEntity
  8
REFERENCE
100
AcDbText
 10
2.0
 20
0.8564164127663893
 30
0.0
 40
0.125
  1

100
AcDbAttributeDefinition
  3
Weight?
  2
WEIGHT
 70
     0
  0
ATTDEF
  5
1F6A
330
1F65
100
AcDbEntity
  8
REFERENCE
100
AcDbText
 10
2.0
 20
1.0625
 30
0.0
 40
0.125
  1

100
AcDbAttributeDefinition
  3
Meets Standards
  2
STANDARDS
 70
     0
  0
ATTDEF
  5
1F6B
330
1F65
100
AcDbEntity
  8
REFERENCE
100
AcDbText
 10
2.0
 20
1.293916394821363
 30
0.0
 40
0.125
  1

100
AcDbAttributeDefinition
  3
CSA File/Guide
  2
CSA
 70
     0
  0
ATTDEF
  5
1F6C
330
1F65
100
AcDbEntity
  8
REFERENCE
100
AcDbText
 10
2.010983301335642
 20
1.5
 30
0.0
 40
0.125
  1

100
AcDbAttributeDefinition
  3
UL File/Guide?
  2
UL
 70
     0
  0
ATTDEF
  5
1F6D
330
1F65
100
AcDbEntity
  8
REFERENCE
100
AcDbText
 10
2.0
 20
1.720437305088535
 30
0.0
 40
0.125
  1

100
AcDbAttributeDefinition
  3
Ratings?
  2
RATING
 70
     0
  0
ATTDEF
  5
1F6E
330
1F65
100
AcDbEntity
  8
REFERENCE
100
AcDbText
 10
2.0
 20
1.9375
 30
0.0
 40
0.125
  1

100
AcDbAttributeDefinition
  3
Catalog Number?
  2
CATALOG
 70
     0
  0
TEXT
  5
1F6F
330
1F65
100
AcDbEntity
  8
TEXT1
100
AcDbText
 10
0.1875
 20
0.2232142857142858
 30
0.0
 40
0.125
  1
Mounting Hwd.:
  7
ROMANS
100
AcDbText
  0
TEXT
  5
1F70
330
1F65
100
AcDbEntity
  8
TEXT1
100
AcDbText
 10
0.1875
 20
0.4375000000000002
 30
0.0
 40
0.125
  1
Terminal torque:
  7
ROMANS
100
AcDbText
  0
TEXT
  5
1F71
330
1F65
100
AcDbEntity
  8
TEXT1
100
AcDbText
 10
0.1875
 20
0.6517857142857146
 30
0.0
 40
0.125
  1
Wire Size:
  7
ROMANS
100
AcDbText
  0
TEXT
  5
1F72
330
1F65
100
AcDbEntity
  8
TEXT1
100
AcDbText
 10
0.1875
 20
0.8660714285714286
 30
0.0
 40
0.125
  1
Weight:
  7
ROMANS
100
AcDbText
  0
TEXT
  5
1F73
330
1F65
100
AcDbEntity
  8
TEXT1
100
AcDbText
 10
0.1875
 20
1.080357142857143
 30
0.0
 40
0.125
  1
Meets Standards:
  7
ROMANS
100
AcDbText
  0
TEXT
  5
1F74
330
1F65
100
AcDbEntity
  8
TEXT1
100
AcDbText
 10
0.1875
 20
1.294642857142857
 30
0.0
 40
0.125
  1
CSA File/Class:
  7
ROMANS
100
AcDbText
  0
TEXT
  5
1F75
330
1F65
100
AcDbEntity
  8
TEXT1
100
AcDbText
 10
0.1875
 20
1.508928571428571
 30
0.0
 40
0.125
  1
UL File/CCN:
  7
ROMANS
100
AcDbText
  0
TEXT
  5
1F76
330
1F65
100
AcDbEntity
  8
TEXT1
100
AcDbText
 10
0.1875
 20
1.723214285714285
 30
0.0
 40
0.125
  1
Ratings:
  7
ROMANS
100
AcDbText
  0
TEXT
  5
1F77
330
1F65
100
AcDbEntity
  8
TEXT1
100
AcDbText
 10
0.1875
 20
1.9375
 30
0.0
 40
0.125
  1
Catalog Number:
  7
ROMANS
100
AcDbText
  0
ENDBLK
  5
1F79
330
1F65
100
AcDbEntity
  8
0
100
AcDbBlockEnd
  0
BLOCK
  5
19916
330
1990B
100
AcDbEntity
  8
0
100
AcDbBlockBegin
  2
*D5
 70
     1
 10
0.0
 20
0.0
 30
0.0
  3
*D5
  1

  0
LINE
  5
19BBC
330
1990B
100
AcDbEntity
  8
DIM
100
AcDbLine
 10
8.282681867866465
 20
7.209935579158558
 30
0.0
 11
7.720181867866465
 21
7.209935579158558
 31
0.0
  0
LINE
  5
19BBD
330
1990B
100
AcDbEntity
  8
DIM
100
AcDbLine
 10
8.282681867866465
 20
4.329935579158558
 30
0.0
 11
7.720181867866465
 21
4.329935579158558
 31
0.0
  0
LINE
  5
19BBE
330
1990B
100
AcDbEntity
  8
DIM
100
AcDbLine
 10
7.782681867866465
 20
7.084935579158558
 30
0.0
 11
7.782681867866465
 21
5.849935579158557
 31
0.0
  0
LINE
  5
19BBF
330
1990B
100
AcDbEntity
  8
DIM
100
AcDbLine
 10
7.782681867866465
 20
4.454935579158558
 30
0.0
 11
7.782681867866465
 21
5.689935579158557
 31
0.0
  0
SOLID
  5
19BC0
330
1990B
100
AcDbEntity
  8
DIM
100
AcDbTrace
 10
7.761848534533132
 20
7.084935579158558
 30
0.0
 11
7.803515201199799
 21
7.084935579158558
 31
0.0
 12
7.782681867866465
 22
7.209935579158558
 32
0.0
 13
7.782681867866465
 23
7.209935579158558
 33
0.0
  0
SOLID
  5
19BC1
330
1990B
100
AcDbEntity
  8
DIM
100
AcDbTrace
 10
7.761848534533132
 20
4.454935579158558
 30
0.0
 11
7.803515201199798
 21
4.454935579158558
 31
0.0
 12
7.782681867866465
 22
4.329935579158558
 32
0.0
 13
7.782681867866465
 23
4.329935579158558
 33
0.0
  0
MTEXT
  5
19BC2
330
1990B
100
AcDbEntity
  8
DIM
100
AcDbMText
 10
7.782681867866464
 20
5.769935579158558
 30
0.0
 40
0.08
 41
0.0
 71
     5
 72
     1
  1
\A1;2.88
  7
ROMANS
1001
ACAD
1000
MTEXTBEGIN
1070
    73
1070
     1
1070
    44
1040
1.0
1070
    74
1070
     0
1000
MTEXTEND
  0
POINT
  5
19BC3
330
1990B
100
AcDbEntity
  8
DEFPOINTS
 62
     0
100
AcDbPoint
 10
8.345181867866465
 20
7.209935579158558
 30
0.0
  0
POINT
  5
19BC4
330
1990B
100
AcDbEntity
  8
DEFPOINTS
 62
     0
100
AcDbPoint
 10
8.345181867866465
 20
4.329935579158558
 30
0.0
  0
POINT
  5
19BC5
330
1990B
100
AcDbEntity
  8
DEFPOINTS
 62
     0
100
AcDbPoint
 10
7.782681867866465
 20
4.329935579158558
 30
0.0
  0
ENDBLK
  5
19917
330
1990B
100
AcDbEntity
  8
0
100
AcDbBlockEnd
  0
BLOCK
  5
19923
330
19918
100
AcDbEntity
  8
0
100
AcDbBlockBegin
  2
*D6
 70
     1
 10
0.0
 20
0.0
 30
0.0
  3
*D6
  1

  0
LINE
  5
19BC6
330
19918
100
AcDbEntity
  8
DIM
100
AcDbLine
 10
8.345181867866465
 20
4.267435579158558
 30
0.0
 11
8.345181867866465
 21
3.959935579158558
 31
0.0
  0
LINE
  5
19BC7
330
19918
100
AcDbEntity
  8
DIM
100
AcDbLine
 10
14.32518186786646
 20
4.267435579158558
 30
0.0
 11
14.32518186786646
 21
3.959935579158558
 31
0.0
  0
LINE
  5
19BC8
330
19918
100
AcDbEntity
  8
DIM
100
AcDbLine
 10
8.470181867866465
 20
4.022435579158558
 30
0.0
 11
11.1732771059617
 21
4.022435579158558
 31
0.0
  0
LINE
  5
19BC9
330
19918
100
AcDbEntity
  8
DIM
100
AcDbLine
 10
14.20018186786646
 20
4.022435579158558
 30
0.0
 11
11.49708662977122
 21
4.022435579158558
 31
0.0
  0
SOLID
  5
19BCA
330
19918
100
AcDbEntity
  8
DIM
100
AcDbTrace
 10
8.470181867866465
 20
4.043268912491891
 30
0.0
 11
8.470181867866465
 21
4.001602245825225
 31
0.0
 12
8.345181867866465
 22
4.022435579158558
 32
0.0
 13
8.345181867866465
 23
4.022435579158558
 33
0.0
  0
SOLID
  5
19BCB
330
19918
100
AcDbEntity
  8
DIM
100
AcDbTrace
 10
14.20018186786646
 20
4.043268912491891
 30
0.0
 11
14.20018186786646
 21
4.001602245825225
 31
0.0
 12
14.32518186786646
 22
4.022435579158558
 32
0.0
 13
14.32518186786646
 23
4.022435579158558
 33
0.0
  0
MTEXT
  5
19BCC
330
19918
100
AcDbEntity
  8
DIM
100
AcDbMText
 10
11.33518186786646
 20
4.022435579158558
 30
0.0
 40
0.08
 41
0.0
 71
     5
 72
     1
  1
\A1;5.98
  7
ROMANS
1001
ACAD
1000
MTEXTBEGIN
1070
    73
1070
     1
1070
    44
1040
1.0
1070
    74
1070
     0
1000
MTEXTEND
  0
POINT
  5
19BCD
330
19918
100
AcDbEntity
  8
DEFPOINTS
 62
     0
100
AcDbPoint
 10
8.345181867866465
 20
4.329935579158558
 30
0.0
  0
POINT
  5
19BCE
330
19918
100
AcDbEntity
  8
DEFPOINTS
 62
     0
100
AcDbPoint
 10
14.32518186786646
 20
4.329935579158558
 30
0.0
  0
POINT
  5
19BCF
330
19918
100
AcDbEntity
  8
DEFPOINTS
 62
     0
100
AcDbPoint
 10
14.32518186786646
 20
4.022435579158558
 30
0.0
  0
ENDBLK
  5
19924
330
19918
100
AcDbEntity
  8
0
100
AcDbBlockEnd
  0
BLOCK
  5
19930
330
19925
100
AcDbEntity
  8
0
100
AcDbBlockBegin
  2
*D7
 70
     1
 10
0.0
 20
0.0
 30
0.0
  3
*D7
  1

  0
LINE
  5
19BD0
330
19925
100
AcDbEntity
  8
DIM
100
AcDbLine
 10
1.782681867866461
 20
4.233297236664522
 30
0.0
 11
1.782681867866461
 21
3.959935579158558
 31
0.0
  0
LINE
  5
19BD1
330
19925
100
AcDbEntity
  8
DIM
100
AcDbLine
 10
6.432681867866463
 20
4.329935579158556
 30
0.0
 11
6.432681867866463
 21
3.959935579158558
 31
0.0
  0
LINE
  5
19BD2
330
19925
100
AcDbEntity
  8
DIM
100
AcDbLine
 10
1.907681867866461
 20
4.022435579158558
 30
0.0
 11
3.9457771059617
 21
4.022435579158558
 31
0.0
  0
LINE
  5
19BD3
330
19925
100
AcDbEntity
  8
DIM
100
AcDbLine
 10
6.307681867866463
 20
4.022435579158558
 30
0.0
 11
4.269586629771224
 21
4.022435579158558
 31
0.0
  0
SOLID
  5
19BD4
330
19925
100
AcDbEntity
  8
DIM
100
AcDbTrace
 10
1.907681867866461
 20
4.043268912491891
 30
0.0
 11
1.907681867866461
 21
4.001602245825225
 31
0.0
 12
1.782681867866461
 22
4.022435579158558
 32
0.0
 13
1.782681867866461
 23
4.022435579158558
 33
0.0
  0
SOLID
  5
19BD5
330
19925
100
AcDbEntity
  8
DIM
100
AcDbTrace
 10
6.307681867866463
 20
4.043268912491891
 30
0.0
 11
6.307681867866463
 21
4.001602245825225
 31
0.0
 12
6.432681867866463
 22
4.022435579158558
 32
0.0
 13
6.432681867866463
 23
4.022435579158558
 33
0.0
  0
MTEXT
  5
19BD6
330
19925
100
AcDbEntity
  8
DIM
100
AcDbMText
 10
4.107681867866462
 20
4.022435579158558
 30
0.0
 40
0.08
 41
0.0
 71
     5
 72
     1
  1
\A1;4.65
  7
ROMANS
1001
ACAD
1000
MTEXTBEGIN
1070
    73
1070
     1
1070
    44
1040
1.0
1070
    74
1070
     0
1000
MTEXTEND
  0
POINT
  5
19BD7
330
19925
100
AcDbEntity
  8
DEFPOINTS
 62
     0
100
AcDbPoint
 10
1.782681867866461
 20
4.295797236664522
 30
0.0
  0
POINT
  5
19BD8
330
19925
100
AcDbEntity
  8
DEFPOINTS
 62
     0
100
AcDbPoint
 10
6.432681867866463
 20
4.392435579158556
 30
0.0
  0
POINT
  5
19BD9
330
19925
100
AcDbEntity
  8
DEFPOINTS
 62
     0
100
AcDbPoint
 10
6.432681867866463
 20
4.022435579158558
 30
0.0
  0
ENDBLK
  5
19931
330
19925
100
AcDbEntity
  8
0
100
AcDbBlockEnd
  0
ENDSEC
  0
SECTION
  2
ENTITIES
  0
INSERT
  5
79E
330
1F
100
AcDbEntity
  8
0
100
AcDbBlockReference
  2
NEWLAYERS
 10
0.0
 20
0.0
 30
0.0
 41
0.02
 42
0.02
 43
0.02
  0
LWPOLYLINE
  5
BF7
330
1F
100
AcDbEntity
  8
VIEWPORT
100
AcDbPolyline
 90
        6
 70
     1
 43
0.0
 10
16.40000099999999
 20
10.25
 10
16.40000099999999
 20
0.9120019999999993
 10
8.002461
 20
0.9120019999999993
 10
8.002461
 20
0.0
 10
0.0
 20
0.0
 10
0.0
 20
10.25
1001
GENIUS_GENOREF_13
1005
0
1005
0
1005
0
1005
0
1005
0
1005
0
1005
0
1005
0
1005
0
1005
0
1005
0
1005
0
1005
0
1005
0
1005
0
1005
0
1005
0
1005
0
1005
0
1005
0
1005
0
1005
0
1005
0
1005
0
1005
0
1005
0
1005
0
1005
0
1005
0
1005
0
1005
0
1005
0
1005
0
1005
0
1005
0
1005
0
1005
0
1005
0
1005
0
1005
0
1005
0
1005
0
1005
0
1005
0
  0
VIEWPORT
  5
BF8
330
1F
100
AcDbEntity
  8
VIEWPORT
100
AcDbViewport
 10
8.200000499999999
 20
5.125
 30
0.0
 40
16.40000099999999
 41
10.25
 69
     0
1001
ACAD
1000
MVIEW
1002
{
1070
    16
1010
0.0
1020
0.0
1030
0.0
1010
0.0
1020
0.0
1030
1.0
1040
0.0
1040
10.25
1040
8.193386135163111
1040
5.146330469914577
1040
50.0
1040
0.0
1040
0.0
1070
     0
1070
   100
1070
     1
1070
     2
1070
     0
1070
     0
1070
     0
1070
     0
1040
0.0
1040
0.0
1040
0.0
1040
0.5
1040
0.5
1040
0.5
1040
0.5
1070
     0
1002
{
1002
}
1002
}
1001
GENIUS_GENOREF_13
1005
0
1005
0
1005
0
1005
0
1005
0
1005
0
1005
0
1005
0
1005
0
1005
0
1005
0
1005
0
1005
0
1005
0
1005
0
1005
0
1005
0
1005
0
1005
0
1005
0
1005
0
1005
0
1005
0
1005
0
1005
0
1005
0
1005
0
1005
0
1005
0
1005
0
1005
0
1005
0
1005
0
1005
0
1005
0
1005
0
1005
0
1005
0
1005
0
1005
0
1005
0
1005
0
1005
0
1005
0
1001
GENIUS_GENSCREG_15
1000
PF
1040
0.0
1000
DF
1040
0.0
1000
MIN
1011
0.0
1021
0.0
1031
0.0
1000
MAX
1011
16.40000099999999
1021
10.25
1031
0.0
1000
FLAGS
1070
     2
  0
INSERT
  5
2480
330
1F
100
AcDbEntity
  8
TEXT1
100
AcDbBlockReference
 66
     1
  2
REF2
 10
0.0
 20
0.9120020000000002
 30
0.0
 41
0.6399999999900001
 42
0.6399999999900001
 43
0.6399999999900001
  0
ATTRIB
  5
2481
330
2480
100
AcDbEntity
  8
TEXT1
100
AcDbText
 10
1.19999999998125
 20
1.053081875254457
 30
0.0
 40
0.07999999999875
  1
-
  7
ROMANS
100
AcDbAttribute
  2
MOUNTING_HWD
 70
     0
  0
ATTRIB
  5
2482
330
2480
100
AcDbEntity
  8
TEXT1
100
AcDbText
 10
1.19999999998125
 20
1.199028617424525
 30
0.0
 40
0.07999999999875
  1
-
  7
ROMANS
100
AcDbAttribute
  2
TERM_TORQUE
 70
     0
  0
ATTRIB
  5
2483
330
2480
100
AcDbEntity
  8
TEXT1
100
AcDbText
 10
1.19999999998125
 20
1.333081875250082
 30
0.0
 40
0.07999999999875
  1
2-14 AWG
  7
ROMANS
100
AcDbAttribute
  2
WIRE_SIZE
 70
     0
  0
ATTRIB
  5
2484
330
2480
100
AcDbEntity
  8
TEXT1
100
AcDbText
 10
1.19999999998125
 20
1.460108504161925
 30
0.0
 40
0.07999999999875
  1
32 oz
  7
ROMANS
100
AcDbAttribute
  2
WEIGHT
 70
     0
  0
ATTRIB
  5
2485
330
2480
100
AcDbEntity
  8
TEXT1
100
AcDbText
 10
1.19999999998125
 20
1.592001999989375
 30
0.0
 40
0.07999999999875
  1
IEC 60204-1, EN292, EN692, prEN1921, BS2771-1, BS2771-1, EN954-1, DIN VDE 0113-1
  7
ROMANS
100
AcDbAttribute
  2
STANDARDS
 70
     0
  0
ATTRIB
  5
2486
330
2480
100
AcDbEntity
  8
TEXT1
100
AcDbText
 10
1.19999999998125
 20
1.740108492672733
 30
0.0
 40
0.07999999999875
  1
LR44087 3211-03
  7
ROMANS
100
AcDbAttribute
  2
CSA
 70
     0
  0
ATTRIB
  5
2487
330
2480
100
AcDbEntity
  8
TEXT1
100
AcDbText
 10
1.207029312835951
 20
1.872001999985
 30
0.0
 40
0.07999999999875
  1
E164353 NKCR
  7
ROMANS
100
AcDbAttribute
  2
UL
 70
     0
  0
ATTRIB
  5
2488
330
2480
100
AcDbEntity
  8
TEXT1
100
AcDbText
 10
1.19999999998125
 20
2.013081875239457
 30
0.0
 40
0.07999999999875
  1
SEE CHART
  7
ROMANS
100
AcDbAttribute
  2
RATING
 70
     0
  0
ATTRIB
  5
2489
330
2480
100
AcDbEntity
  8
TEXT1
100
AcDbText
 10
1.19999999998125
 20
2.152001999980625
 30
0.0
 40
0.07999999999875
  1
XPS-(1)(2)
  7
ROMANS
100
AcDbAttribute
  2
CATALOG
 70
     0
  0
SEQEND
  5
248A
330
2480
100
AcDbEntity
  8
REFERENCE
  0
MTEXT
  5
2A18
330
1F
100
AcDbEntity
  8
0
100
AcDbMText
 10
21.79182771614037
 20
14.5492340883844
 30
0.0
 40
0.2
 41
0.0
 71
     1
 72
     1
  1

  7
ROMANS
1001
ACAD
1000
MTEXTBEGIN
1070
    73
1070
     1
1070
    44
1040
1.0
1070
    74
1070
     0
1000
MTEXTEND
1000
MTEXTBEGIN
1070
    73
1070
     1
1070
    44
1040
1.0
1070
    74
1070
     0
1000
MTEXTEND
1000
MTEXTBEGIN
1070
    73
1070
     1
1070
    44
1040
1.0
1070
    74
1070
     0
1000
MTEXTEND
1000
MTEXTBEGIN
1070
    73
1070
     1
1070
    44
1040
1.0
1070
    74
1070
     0
1000
MTEXTEND
1000
MTEXTBEGIN
1070
    73
1070
     1
1070
    44
1040
1.0
1070
    74
1070
     0
1000
MTEXTEND
1000
MTEXTBEGIN
1070
    73
1070
     1
1070
    44
1040
1.0
1070
    74
1070
     0
1000
MTEXTEND
1000
MTEXTBEGIN
1070
    73
1070
     1
1070
    44
1040
1.0
1070
    74
1070
     0
1000
MTEXTEND
1000
MTEXTBEGIN
1070
    73
1070
     1
1070
    44
1040
1.0
1070
    74
1070
     0
1000
MTEXTEND
1000
MTEXTBEGIN
1070
    73
1070
     1
1070
    44
1040
1.0
1070
    74
1070
     0
1000
MTEXTEND
1000
MTEXTBEGIN
1070
    73
1070
     1
1070
    44
1040
1.0
1070
    74
1070
     0
1000
MTEXTEND
1000
MTEXTBEGIN
1070
    73
1070
     1
1070
    44
1040
1.0
1070
    74
1070
     0
1000
MTEXTEND
1000
MTEXTBEGIN
1070
    73
1070
     1
1070
    44
1040
1.0
1070
    74
1070
     0
1000
MTEXTEND
1000
MTEXTBEGIN
1070
    73
1070
     1
1070
    44
1040
1.0
1070
    74
1070
     0
1000
MTEXTEND
1000
MTEXTBEGIN
1070
    73
1070
     1
1070
    44
1040
1.0
1070
    74
1070
     0
1000
MTEXTEND
1000
MTEXTBEGIN
1070
    73
1070
     1
1070
    44
1040
1.0
1070
    74
1070
     0
1000
MTEXTEND
1000
MTEXTBEGIN
1070
    73
1070
     1
1070
    44
1040
1.0
1070
    74
1070
     0
1000
MTEXTEND
1000
MTEXTBEGIN
1070
    73
1070
     1
1070
    44
1040
1.0
1070
    74
1070
     0
1000
MTEXTEND
1000
MTEXTBEGIN
1070
    73
1070
     1
1070
    44
1040
1.0
1070
    74
1070
     0
1000
MTEXTEND
1000
MTEXTBEGIN
1070
    73
1070
     1
1070
    44
1040
1.0
1070
    74
1070
     0
1000
MTEXTEND
1000
MTEXTBEGIN
1070
    73
1070
     1
1070
    44
1040
1.0
1070
    74
1070
     0
1000
MTEXTEND
1000
MTEXTBEGIN
1070
    73
1070
     1
1070
    44
1040
1.0
1070
    74
1070
     0
1000
MTEXTEND
1000
MTEXTBEGIN
1070
    73
1070
     1
1070
    44
1040
1.0
1070
    74
1070
     0
1000
MTEXTEND
1000
MTEXTBEGIN
1070
    73
1070
     1
1070
    44
1040
1.0
1070
    74
1070
     0
1000
MTEXTEND
1000
MTEXTBEGIN
1070
    73
1070
     1
1070
    44
1040
1.0
1070
    74
1070
     0
1000
MTEXTEND
1000
MTEXTBEGIN
1070
    73
1070
     1
1070
    44
1040
1.0
1070
    74
1070
     0
1000
MTEXTEND
1000
MTEXTBEGIN
1070
    73
1070
     1
1070
    44
1040
1.0
1070
    74
1070
     0
1000
MTEXTEND
1000
MTEXTBEGIN
1070
    73
1070
     1
1070
    44
1040
1.0
1070
    74
1070
     0
1000
MTEXTEND
1000
MTEXTBEGIN
1070
    73
1070
     1
1070
    44
1040
1.0
1070
    74
1070
     0
1000
MTEXTEND
1000
MTEXTBEGIN
1070
    73
1070
     1
1070
    44
1040
1.0
1070
    74
1070
     0
1000
MTEXTEND
1000
MTEXTBEGIN
1070
    73
1070
     1
1070
    44
1040
1.0
1070
    74
1070
     0
1000
MTEXTEND
1000
MTEXTBEGIN
1070
    73
1070
     1
1070
    44
1040
1.0
1070
    74
1070
     0
1000
MTEXTEND
1000
MTEXTBEGIN
1070
    73
1070
     1
1070
    44
1040
1.0
1070
    74
1070
     0
1000
MTEXTEND
1000
MTEXTBEGIN
1070
    73
1070
     1
1070
    44
1040
1.0
1070
    74
1070
     0
1000
MTEXTEND
  0
MTEXT
  5
38F7
330
1F
100
AcDbEntity
  8
0
100
AcDbMText
 10
21.70401120266899
 20
17.2395247219954
 30
0.0
 40
0.2
 41
0.0
 71
     1
 72
     1
  1

  7
ROMANS
1001
ACAD
1000
MTEXTBEGIN
1070
    73
1070
     1
1070
    44
1040
1.0
1070
    74
1070
     0
1000
MTEXTEND
1000
MTEXTBEGIN
1070
    73
1070
     1
1070
    44
1040
1.0
1070
    74
1070
     0
1000
MTEXTEND
1000
MTEXTBEGIN
1070
    73
1070
     1
1070
    44
1040
1.0
1070
    74
1070
     0
1000
MTEXTEND
1000
MTEXTBEGIN
1070
    73
1070
     1
1070
    44
1040
1.0
1070
    74
1070
     0
1000
MTEXTEND
1000
MTEXTBEGIN
1070
    73
1070
     1
1070
    44
1040
1.0
1070
    74
1070
     0
1000
MTEXTEND
1000
MTEXTBEGIN
1070
    73
1070
     1
1070
    44
1040
1.0
1070
    74
1070
     0
1000
MTEXTEND
1000
MTEXTBEGIN
1070
    73
1070
     1
1070
    44
1040
1.0
1070
    74
1070
     0
1000
MTEXTEND
1000
MTEXTBEGIN
1070
    73
1070
     1
1070
    44
1040
1.0
1070
    74
1070
     0
1000
MTEXTEND
1000
MTEXTBEGIN
1070
    73
1070
     1
1070
    44
1040
1.0
1070
    74
1070
     0
1000
MTEXTEND
1000
MTEXTBEGIN
1070
    73
1070
     1
1070
    44
1040
1.0
1070
    74
1070
     0
1000
MTEXTEND
1000
MTEXTBEGIN
1070
    73
1070
     1
1070
    44
1040
1.0
1070
    74
1070
     0
1000
MTEXTEND
1000
MTEXTBEGIN
1070
    73
1070
     1
1070
    44
1040
1.0
1070
    74
1070
     0
1000
MTEXTEND
1000
MTEXTBEGIN
1070
    73
1070
     1
1070
    44
1040
1.0
1070
    74
1070
     0
1000
MTEXTEND
1000
MTEXTBEGIN
1070
    73
1070
     1
1070
    44
1040
1.0
1070
    74
1070
     0
1000
MTEXTEND
1000
MTEXTBEGIN
1070
    73
1070
     1
1070
    44
1040
1.0
1070
    74
1070
     0
1000
MTEXTEND
1000
MTEXTBEGIN
1070
    73
1070
     1
1070
    44
1040
1.0
1070
    74
1070
     0
1000
MTEXTEND
1000
MTEXTBEGIN
1070
    73
1070
     1
1070
    44
1040
1.0
1070
    74
1070
     0
1000
MTEXTEND
1000
MTEXTBEGIN
1070
    73
1070
     1
1070
    44
1040
1.0
1070
    74
1070
     0
1000
MTEXTEND
1000
MTEXTBEGIN
1070
    73
1070
     1
1070
    44
1040
1.0
1070
    74
1070
     0
1000
MTEXTEND
1000
MTEXTBEGIN
1070
    73
1070
     1
1070
    44
1040
1.0
1070
    74
1070
     0
1000
MTEXTEND
1000
MTEXTBEGIN
1070
    73
1070
     1
1070
    44
1040
1.0
1070
    74
1070
     0
1000
MTEXTEND
1000
MTEXTBEGIN
1070
    73
1070
     1
1070
    44
1040
1.0
1070
    74
1070
     0
1000
MTEXTEND
1000
MTEXTBEGIN
1070
    73
1070
     1
1070
    44
1040
1.0
1070
    74
1070
     0
1000
MTEXTEND
1000
MTEXTBEGIN
1070
    73
1070
     1
1070
    44
1040
1.0
1070
    74
1070
     0
1000
MTEXTEND
1000
MTEXTBEGIN
1070
    73
1070
     1
1070
    44
1040
1.0
1070
    74
1070
     0
1000
MTEXTEND
1000
MTEXTBEGIN
1070
    73
1070
     1
1070
    44
1040
1.0
1070
    74
1070
     0
1000
MTEXTEND
1000
MTEXTBEGIN
1070
    73
1070
     1
1070
    44
1040
1.0
1070
    74
1070
     0
1000
MTEXTEND
1000
MTEXTBEGIN
1070
    73
1070
     1
1070
    44
1040
1.0
1070
    74
1070
     0
1000
MTEXTEND
1000
MTEXTBEGIN
1070
    73
1070
     1
1070
    44
1040
1.0
1070
    74
1070
     0
1000
MTEXTEND
1000
MTEXTBEGIN
1070
    73
1070
     1
1070
    44
1040
1.0
1070
    74
1070
     0
1000
MTEXTEND
1000
MTEXTBEGIN
1070
    73
1070
     1
1070
    44
1040
1.0
1070
    74
1070
     0
1000
MTEXTEND
1000
MTEXTBEGIN
1070
    73
1070
     1
1070
    44
1040
1.0
1070
    74
1070
     0
1000
MTEXTEND
  0
MTEXT
  5
4441
330
1F
100
AcDbEntity
  8
0
100
AcDbMText
 10
72.005002
 20
32.76150399999999
 30
0.0
 40
0.2
 41
0.0
 71
     1
 72
     1
  1

  7
ROMANS
1001
ACAD
1000
MTEXTBEGIN
1070
    73
1070
     1
1070
    44
1040
1.0
1070
    74
1070
     0
1000
MTEXTEND
1000
MTEXTBEGIN
1070
    73
1070
     1
1070
    44
1040
1.0
1070
    74
1070
     0
1000
MTEXTEND
1000
MTEXTBEGIN
1070
    73
1070
     1
1070
    44
1040
1.0
1070
    74
1070
     0
1000
MTEXTEND
1000
MTEXTBEGIN
1070
    73
1070
     1
1070
    44
1040
1.0
1070
    74
1070
     0
1000
MTEXTEND
1000
MTEXTBEGIN
1070
    73
1070
     1
1070
    44
1040
1.0
1070
    74
1070
     0
1000
MTEXTEND
1000
MTEXTBEGIN
1070
    73
1070
     1
1070
    44
1040
1.0
1070
    74
1070
     0
1000
MTEXTEND
1000
MTEXTBEGIN
1070
    73
1070
     1
1070
    44
1040
1.0
1070
    74
1070
     0
1000
MTEXTEND
1000
MTEXTBEGIN
1070
    73
1070
     1
1070
    44
1040
1.0
1070
    74
1070
     0
1000
MTEXTEND
1000
MTEXTBEGIN
1070
    73
1070
     1
1070
    44
1040
1.0
1070
    74
1070
     0
1000
MTEXTEND
1000
MTEXTBEGIN
1070
    73
1070
     1
1070
    44
1040
1.0
1070
    74
1070
     0
1000
MTEXTEND
1000
MTEXTBEGIN
1070
    73
1070
     1
1070
    44
1040
1.0
1070
    74
1070
     0
1000
MTEXTEND
1000
MTEXTBEGIN
1070
    73
1070
     1
1070
    44
1040
1.0
1070
    74
1070
     0
1000
MTEXTEND
1000
MTEXTBEGIN
1070
    73
1070
     1
1070
    44
1040
1.0
1070
    74
1070
     0
1000
MTEXTEND
1000
MTEXTBEGIN
1070
    73
1070
     1
1070
    44
1040
1.0
1070
    74
1070
     0
1000
MTEXTEND
1000
MTEXTBEGIN
1070
    73
1070
     1
1070
    44
1040
1.0
1070
    74
1070
     0
1000
MTEXTEND
1000
MTEXTBEGIN
1070
    73
1070
     1
1070
    44
1040
1.0
1070
    74
1070
     0
1000
MTEXTEND
1000
MTEXTBEGIN
1070
    73
1070
     1
1070
    44
1040
1.0
1070
    74
1070
     0
1000
MTEXTEND
1000
MTEXTBEGIN
1070
    73
1070
     1
1070
    44
1040
1.0
1070
    74
1070
     0
1000
MTEXTEND
1000
MTEXTBEGIN
1070
    73
1070
     1
1070
    44
1040
1.0
1070
    74
1070
     0
1000
MTEXTEND
1000
MTEXTBEGIN
1070
    73
1070
     1
1070
    44
1040
1.0
1070
    74
1070
     0
1000
MTEXTEND
1000
MTEXTBEGIN
1070
    73
1070
     1
1070
    44
1040
1.0
1070
    74
1070
     0
1000
MTEXTEND
1000
MTEXTBEGIN
1070
    73
1070
     1
1070
    44
1040
1.0
1070
    74
1070
     0
1000
MTEXTEND
1000
MTEXTBEGIN
1070
    73
1070
     1
1070
    44
1040
1.0
1070
    74
1070
     0
1000
MTEXTEND
1000
MTEXTBEGIN
1070
    73
1070
     1
1070
    44
1040
1.0
1070
    74
1070
     0
1000
MTEXTEND
1000
MTEXTBEGIN
1070
    73
1070
     1
1070
    44
1040
1.0
1070
    74
1070
     0
1000
MTEXTEND
1000
MTEXTBEGIN
1070
    73
1070
     1
1070
    44
1040
1.0
1070
    74
1070
     0
1000
MTEXTEND
1000
MTEXTBEGIN
1070
    73
1070
     1
1070
    44
1040
1.0
1070
    74
1070
     0
1000
MTEXTEND
1000
MTEXTBEGIN
1070
    73
1070
     1
1070
    44
1040
1.0
1070
    74
1070
     0
1000
MTEXTEND
1000
MTEXTBEGIN
1070
    73
1070
     1
1070
    44
1040
1.0
1070
    74
1070
     0
1000
MTEXTEND
1000
MTEXTBEGIN
1070
    73
1070
     1
1070
    44
1040
1.0
1070
    74
1070
     0
1000
MTEXTEND
1000
MTEXTBEGIN
1070
    73
1070
     1
1070
    44
1040
1.0
1070
    74
1070
     0
1000
MTEXTEND
  0
MTEXT
  5
7C74
330
1F
100
AcDbEntity
  8
0
100
AcDbMText
 10
49.05905601586681
 20
31.55955217021587
 30
0.0
 40
0.2
 41
0.0
 71
     1
 72
     1
  1

  7
ROMANS
1001
ACAD
1000
MTEXTBEGIN
1070
    73
1070
     1
1070
    44
1040
1.0
1070
    74
1070
     0
1000
MTEXTEND
1000
MTEXTBEGIN
1070
    73
1070
     1
1070
    44
1040
1.0
1070
    74
1070
     0
1000
MTEXTEND
1000
MTEXTBEGIN
1070
    73
1070
     1
1070
    44
1040
1.0
1070
    74
1070
     0
1000
MTEXTEND
1000
MTEXTBEGIN
1070
    73
1070
     1
1070
    44
1040
1.0
1070
    74
1070
     0
1000
MTEXTEND
1000
MTEXTBEGIN
1070
    73
1070
     1
1070
    44
1040
1.0
1070
    74
1070
     0
1000
MTEXTEND
1000
MTEXTBEGIN
1070
    73
1070
     1
1070
    44
1040
1.0
1070
    74
1070
     0
1000
MTEXTEND
1000
MTEXTBEGIN
1070
    73
1070
     1
1070
    44
1040
1.0
1070
    74
1070
     0
1000
MTEXTEND
1000
MTEXTBEGIN
1070
    73
1070
     1
1070
    44
1040
1.0
1070
    74
1070
     0
1000
MTEXTEND
1000
MTEXTBEGIN
1070
    73
1070
     1
1070
    44
1040
1.0
1070
    74
1070
     0
1000
MTEXTEND
1000
MTEXTBEGIN
1070
    73
1070
     1
1070
    44
1040
1.0
1070
    74
1070
     0
1000
MTEXTEND
1000
MTEXTBEGIN
1070
    73
1070
     1
1070
    44
1040
1.0
1070
    74
1070
     0
1000
MTEXTEND
1000
MTEXTBEGIN
1070
    73
1070
     1
1070
    44
1040
1.0
1070
    74
1070
     0
1000
MTEXTEND
1000
MTEXTBEGIN
1070
    73
1070
     1
1070
    44
1040
1.0
1070
    74
1070
     0
1000
MTEXTEND
1000
MTEXTBEGIN
1070
    73
1070
     1
1070
    44
1040
1.0
1070
    74
1070
     0
1000
MTEXTEND
1000
MTEXTBEGIN
1070
    73
1070
     1
1070
    44
1040
1.0
1070
    74
1070
     0
1000
MTEXTEND
1000
MTEXTBEGIN
1070
    73
1070
     1
1070
    44
1040
1.0
1070
    74
1070
     0
1000
MTEXTEND
1000
MTEXTBEGIN
1070
    73
1070
     1
1070
    44
1040
1.0
1070
    74
1070
     0
1000
MTEXTEND
1000
MTEXTBEGIN
1070
    73
1070
     1
1070
    44
1040
1.0
1070
    74
1070
     0
1000
MTEXTEND
1000
MTEXTBEGIN
1070
    73
1070
     1
1070
    44
1040
1.0
1070
    74
1070
     0
1000
MTEXTEND
1000
MTEXTBEGIN
1070
    73
1070
     1
1070
    44
1040
1.0
1070
    74
1070
     0
1000
MTEXTEND
1000
MTEXTBEGIN
1070
    73
1070
     1
1070
    44
1040
1.0
1070
    74
1070
     0
1000
MTEXTEND
1000
MTEXTBEGIN
1070
    73
1070
     1
1070
    44
1040
1.0
1070
    74
1070
     0
1000
MTEXTEND
1000
MTEXTBEGIN
1070
    73
1070
     1
1070
    44
1040
1.0
1070
    74
1070
     0
1000
MTEXTEND
1000
MTEXTBEGIN
1070
    73
1070
     1
1070
    44
1040
1.0
1070
    74
1070
     0
1000
MTEXTEND
1000
MTEXTBEGIN
1070
    73
1070
     1
1070
    44
1040
1.0
1070
    74
1070
     0
1000
MTEXTEND
1000
MTEXTBEGIN
1070
    73
1070
     1
1070
    44
1040
1.0
1070
    74
1070
     0
1000
MTEXTEND
1000
MTEXTBEGIN
1070
    73
1070
     1
1070
    44
1040
1.0
1070
    74
1070
     0
1000
MTEXTEND
1000
MTEXTBEGIN
1070
    73
1070
     1
1070
    44
1040
1.0
1070
    74
1070
     0
1000
MTEXTEND
  0
MTEXT
  5
9754
330
1F
100
AcDbEntity
  8
0
100
AcDbMText
 10
47.75155601586681
 20
33.37498101253588
 30
0.0
 40
0.2
 41
0.0
 71
     1
 72
     1
  1

  7
ROMANS
1001
ACAD
1000
MTEXTBEGIN
1070
    73
1070
     1
1070
    44
1040
1.0
1070
    74
1070
     0
1000
MTEXTEND
1000
MTEXTBEGIN
1070
    73
1070
     1
1070
    44
1040
1.0
1070
    74
1070
     0
1000
MTEXTEND
1000
MTEXTBEGIN
1070
    73
1070
     1
1070
    44
1040
1.0
1070
    74
1070
     0
1000
MTEXTEND
1000
MTEXTBEGIN
1070
    73
1070
     1
1070
    44
1040
1.0
1070
    74
1070
     0
1000
MTEXTEND
1000
MTEXTBEGIN
1070
    73
1070
     1
1070
    44
1040
1.0
1070
    74
1070
     0
1000
MTEXTEND
1000
MTEXTBEGIN
1070
    73
1070
     1
1070
    44
1040
1.0
1070
    74
1070
     0
1000
MTEXTEND
1000
MTEXTBEGIN
1070
    73
1070
     1
1070
    44
1040
1.0
1070
    74
1070
     0
1000
MTEXTEND
1000
MTEXTBEGIN
1070
    73
1070
     1
1070
    44
1040
1.0
1070
    74
1070
     0
1000
MTEXTEND
1000
MTEXTBEGIN
1070
    73
1070
     1
1070
    44
1040
1.0
1070
    74
1070
     0
1000
MTEXTEND
1000
MTEXTBEGIN
1070
    73
1070
     1
1070
    44
1040
1.0
1070
    74
1070
     0
1000
MTEXTEND
1000
MTEXTBEGIN
1070
    73
1070
     1
1070
    44
1040
1.0
1070
    74
1070
     0
1000
MTEXTEND
1000
MTEXTBEGIN
1070
    73
1070
     1
1070
    44
1040
1.0
1070
    74
1070
     0
1000
MTEXTEND
1000
MTEXTBEGIN
1070
    73
1070
     1
1070
    44
1040
1.0
1070
    74
1070
     0
1000
MTEXTEND
1000
MTEXTBEGIN
1070
    73
1070
     1
1070
    44
1040
1.0
1070
    74
1070
     0
1000
MTEXTEND
1000
MTEXTBEGIN
1070
    73
1070
     1
1070
    44
1040
1.0
1070
    74
1070
     0
1000
MTEXTEND
1000
MTEXTBEGIN
1070
    73
1070
     1
1070
    44
1040
1.0
1070
    74
1070
     0
1000
MTEXTEND
1000
MTEXTBEGIN
1070
    73
1070
     1
1070
    44
1040
1.0
1070
    74
1070
     0
1000
MTEXTEND
1000
MTEXTBEGIN
1070
    73
1070
     1
1070
    44
1040
1.0
1070
    74
1070
     0
1000
MTEXTEND
1000
MTEXTBEGIN
1070
    73
1070
     1
1070
    44
1040
1.0
1070
    74
1070
     0
1000
MTEXTEND
1000
MTEXTBEGIN
1070
    73
1070
     1
1070
    44
1040
1.0
1070
    74
1070
     0
1000
MTEXTEND
1000
MTEXTBEGIN
1070
    73
1070
     1
1070
    44
1040
1.0
1070
    74
1070
     0
1000
MTEXTEND
1000
MTEXTBEGIN
1070
    73
1070
     1
1070
    44
1040
1.0
1070
    74
1070
     0
1000
MTEXTEND
1000
MTEXTBEGIN
1070
    73
1070
     1
1070
    44
1040
1.0
1070
    74
1070
     0
1000
MTEXTEND
1000
MTEXTBEGIN
1070
    73
1070
     1
1070
    44
1040
1.0
1070
    74
1070
     0
1000
MTEXTEND
1000
MTEXTBEGIN
1070
    73
1070
     1
1070
    44
1040
1.0
1070
    74
1070
     0
1000
MTEXTEND
1000
MTEXTBEGIN
1070
    73
1070
     1
1070
    44
1040
1.0
1070
    74
1070
     0
1000
MTEXTEND
1000
MTEXTBEGIN
1070
    73
1070
     1
1070
    44
1040
1.0
1070
    74
1070
     0
1000
MTEXTEND
  0
MTEXT
  5
DA8C
330
1F
100
AcDbEntity
  8
0
100
AcDbMText
 10
29.165001
 20
9.824501999999998
 30
0.0
 40
0.2
 41
0.0
 71
     1
 72
     1
  1

  7
ROMANS
1001
ACAD
1000
MTEXTBEGIN
1070
    73
1070
     1
1070
    44
1040
1.0
1070
    74
1070
     0
1000
MTEXTEND
1000
MTEXTBEGIN
1070
    73
1070
     1
1070
    44
1040
1.0
1070
    74
1070
     0
1000
MTEXTEND
1000
MTEXTBEGIN
1070
    73
1070
     1
1070
    44
1040
1.0
1070
    74
1070
     0
1000
MTEXTEND
1000
MTEXTBEGIN
1070
    73
1070
     1
1070
    44
1040
1.0
1070
    74
1070
     0
1000
MTEXTEND
1000
MTEXTBEGIN
1070
    73
1070
     1
1070
    44
1040
1.0
1070
    74
1070
     0
1000
MTEXTEND
1000
MTEXTBEGIN
1070
    73
1070
     1
1070
    44
1040
1.0
1070
    74
1070
     0
1000
MTEXTEND
1000
MTEXTBEGIN
1070
    73
1070
     1
1070
    44
1040
1.0
1070
    74
1070
     0
1000
MTEXTEND
1000
MTEXTBEGIN
1070
    73
1070
     1
1070
    44
1040
1.0
1070
    74
1070
     0
1000
MTEXTEND
1000
MTEXTBEGIN
1070
    73
1070
     1
1070
    44
1040
1.0
1070
    74
1070
     0
1000
MTEXTEND
1000
MTEXTBEGIN
1070
    73
1070
     1
1070
    44
1040
1.0
1070
    74
1070
     0
1000
MTEXTEND
1000
MTEXTBEGIN
1070
    73
1070
     1
1070
    44
1040
1.0
1070
    74
1070
     0
1000
MTEXTEND
1000
MTEXTBEGIN
1070
    73
1070
     1
1070
    44
1040
1.0
1070
    74
1070
     0
1000
MTEXTEND
1000
MTEXTBEGIN
1070
    73
1070
     1
1070
    44
1040
1.0
1070
    74
1070
     0
1000
MTEXTEND
1000
MTEXTBEGIN
1070
    73
1070
     1
1070
    44
1040
1.0
1070
    74
1070
     0
1000
MTEXTEND
1000
MTEXTBEGIN
1070
    73
1070
     1
1070
    44
1040
1.0
1070
    74
1070
     0
1000
MTEXTEND
1000
MTEXTBEGIN
1070
    73
1070
     1
1070
    44
1040
1.0
1070
    74
1070
     0
1000
MTEXTEND
1000
MTEXTBEGIN
1070
    73
1070
     1
1070
    44
1040
1.0
1070
    74
1070
     0
1000
MTEXTEND
1000
MTEXTBEGIN
1070
    73
1070
     1
1070
    44
1040
1.0
1070
    74
1070
     0
1000
MTEXTEND
1000
MTEXTBEGIN
1070
    73
1070
     1
1070
    44
1040
1.0
1070
    74
1070
     0
1000
MTEXTEND
1000
MTEXTBEGIN
1070
    73
1070
     1
1070
    44
1040
1.0
1070
    74
1070
     0
1000
MTEXTEND
1000
MTEXTBEGIN
1070
    73
1070
     1
1070
    44
1040
1.0
1070
    74
1070
     0
1000
MTEXTEND
1000
MTEXTBEGIN
1070
    73
1070
     1
1070
    44
1040
1.0
1070
    74
1070
     0
1000
MTEXTEND
  0
MTEXT
  5
E46E
330
1F
100
AcDbEntity
  8
0
100
AcDbMText
 10
11.51176207464169
 20
8.621744573355718
 30
0.0
 40
0.2
 41
0.0
 71
     1
 72
     1
  1

  7
ROMANS
1001
ACAD
1000
MTEXTBEGIN
1070
    73
1070
     1
1070
    44
1040
1.0
1070
    74
1070
     0
1000
MTEXTEND
1000
MTEXTBEGIN
1070
    73
1070
     1
1070
    44
1040
1.0
1070
    74
1070
     0
1000
MTEXTEND
1000
MTEXTBEGIN
1070
    73
1070
     1
1070
    44
1040
1.0
1070
    74
1070
     0
1000
MTEXTEND
1000
MTEXTBEGIN
1070
    73
1070
     1
1070
    44
1040
1.0
1070
    74
1070
     0
1000
MTEXTEND
1000
MTEXTBEGIN
1070
    73
1070
     1
1070
    44
1040
1.0
1070
    74
1070
     0
1000
MTEXTEND
1000
MTEXTBEGIN
1070
    73
1070
     1
1070
    44
1040
1.0
1070
    74
1070
     0
1000
MTEXTEND
1000
MTEXTBEGIN
1070
    73
1070
     1
1070
    44
1040
1.0
1070
    74
1070
     0
1000
MTEXTEND
1000
MTEXTBEGIN
1070
    73
1070
     1
1070
    44
1040
1.0
1070
    74
1070
     0
1000
MTEXTEND
1000
MTEXTBEGIN
1070
    73
1070
     1
1070
    44
1040
1.0
1070
    74
1070
     0
1000
MTEXTEND
1000
MTEXTBEGIN
1070
    73
1070
     1
1070
    44
1040
1.0
1070
    74
1070
     0
1000
MTEXTEND
1000
MTEXTBEGIN
1070
    73
1070
     1
1070
    44
1040
1.0
1070
    74
1070
     0
1000
MTEXTEND
1000
MTEXTBEGIN
1070
    73
1070
     1
1070
    44
1040
1.0
1070
    74
1070
     0
1000
MTEXTEND
1000
MTEXTBEGIN
1070
    73
1070
     1
1070
    44
1040
1.0
1070
    74
1070
     0
1000
MTEXTEND
1000
MTEXTBEGIN
1070
    73
1070
     1
1070
    44
1040
1.0
1070
    74
1070
     0
1000
MTEXTEND
1000
MTEXTBEGIN
1070
    73
1070
     1
1070
    44
1040
1.0
1070
    74
1070
     0
1000
MTEXTEND
1000
MTEXTBEGIN
1070
    73
1070
     1
1070
    44
1040
1.0
1070
    74
1070
     0
1000
MTEXTEND
1000
MTEXTBEGIN
1070
    73
1070
     1
1070
    44
1040
1.0
1070
    74
1070
     0
1000
MTEXTEND
1000
MTEXTBEGIN
1070
    73
1070
     1
1070
    44
1040
1.0
1070
    74
1070
     0
1000
MTEXTEND
1000
MTEXTBEGIN
1070
    73
1070
     1
1070
    44
1040
1.0
1070
    74
1070
     0
1000
MTEXTEND
1000
MTEXTBEGIN
1070
    73
1070
     1
1070
    44
1040
1.0
1070
    74
1070
     0
1000
MTEXTEND
1000
MTEXTBEGIN
1070
    73
1070
     1
1070
    44
1040
1.0
1070
    74
1070
     0
1000
MTEXTEND
1000
MTEXTBEGIN
1070
    73
1070
     1
1070
    44
1040
1.0
1070
    74
1070
     0
1000
MTEXTEND
  0
MTEXT
  5
F16C
330
1F
100
AcDbEntity
  8
0
100
AcDbMText
 10
32.46871177368205
 20
7.951448433308955
 30
0.0
 40
0.2
 41
0.0
 71
     1
 72
     1
  1

  7
ROMANS
1001
ACAD
1000
MTEXTBEGIN
1070
    73
1070
     1
1070
    44
1040
1.0
1070
    74
1070
     0
1000
MTEXTEND
1000
MTEXTBEGIN
1070
    73
1070
     1
1070
    44
1040
1.0
1070
    74
1070
     0
1000
MTEXTEND
1000
MTEXTBEGIN
1070
    73
1070
     1
1070
    44
1040
1.0
1070
    74
1070
     0
1000
MTEXTEND
1000
MTEXTBEGIN
1070
    73
1070
     1
1070
    44
1040
1.0
1070
    74
1070
     0
1000
MTEXTEND
1000
MTEXTBEGIN
1070
    73
1070
     1
1070
    44
1040
1.0
1070
    74
1070
     0
1000
MTEXTEND
1000
MTEXTBEGIN
1070
    73
1070
     1
1070
    44
1040
1.0
1070
    74
1070
     0
1000
MTEXTEND
1000
MTEXTBEGIN
1070
    73
1070
     1
1070
    44
1040
1.0
1070
    74
1070
     0
1000
MTEXTEND
1000
MTEXTBEGIN
1070
    73
1070
     1
1070
    44
1040
1.0
1070
    74
1070
     0
1000
MTEXTEND
1000
MTEXTBEGIN
1070
    73
1070
     1
1070
    44
1040
1.0
1070
    74
1070
     0
1000
MTEXTEND
1000
MTEXTBEGIN
1070
    73
1070
     1
1070
    44
1040
1.0
1070
    74
1070
     0
1000
MTEXTEND
1000
MTEXTBEGIN
1070
    73
1070
     1
1070
    44
1040
1.0
1070
    74
1070
     0
1000
MTEXTEND
1000
MTEXTBEGIN
1070
    73
1070
     1
1070
    44
1040
1.0
1070
    74
1070
     0
1000
MTEXTEND
1000
MTEXTBEGIN
1070
    73
1070
     1
1070
    44
1040
1.0
1070
    74
1070
     0
1000
MTEXTEND
1000
MTEXTBEGIN
1070
    73
1070
     1
1070
    44
1040
1.0
1070
    74
1070
     0
1000
MTEXTEND
1000
MTEXTBEGIN
1070
    73
1070
     1
1070
    44
1040
1.0
1070
    74
1070
     0
1000
MTEXTEND
1000
MTEXTBEGIN
1070
    73
1070
     1
1070
    44
1040
1.0
1070
    74
1070
     0
1000
MTEXTEND
1000
MTEXTBEGIN
1070
    73
1070
     1
1070
    44
1040
1.0
1070
    74
1070
     0
1000
MTEXTEND
1000
MTEXTBEGIN
1070
    73
1070
     1
1070
    44
1040
1.0
1070
    74
1070
     0
1000
MTEXTEND
1000
MTEXTBEGIN
1070
    73
1070
     1
1070
    44
1040
1.0
1070
    74
1070
     0
1000
MTEXTEND
1000
MTEXTBEGIN
1070
    73
1070
     1
1070
    44
1040
1.0
1070
    74
1070
     0
1000
MTEXTEND
1000
MTEXTBEGIN
1070
    73
1070
     1
1070
    44
1040
1.0
1070
    74
1070
     0
1000
MTEXTEND
  0
MTEXT
  5
1019A
330
1F
100
AcDbEntity
  8
0
100
AcDbMText
 10
15.45516781647148
 20
7.587318707314295
 30
0.0
 40
0.2
 41
0.0
 71
     1
 72
     1
  1

  7
ROMANS
1001
ACAD
1000
MTEXTBEGIN
1070
    73
1070
     1
1070
    44
1040
1.0
1070
    74
1070
     0
1000
MTEXTEND
1000
MTEXTBEGIN
1070
    73
1070
     1
1070
    44
1040
1.0
1070
    74
1070
     0
1000
MTEXTEND
1000
MTEXTBEGIN
1070
    73
1070
     1
1070
    44
1040
1.0
1070
    74
1070
     0
1000
MTEXTEND
1000
MTEXTBEGIN
1070
    73
1070
     1
1070
    44
1040
1.0
1070
    74
1070
     0
1000
MTEXTEND
1000
MTEXTBEGIN
1070
    73
1070
     1
1070
    44
1040
1.0
1070
    74
1070
     0
1000
MTEXTEND
1000
MTEXTBEGIN
1070
    73
1070
     1
1070
    44
1040
1.0
1070
    74
1070
     0
1000
MTEXTEND
1000
MTEXTBEGIN
1070
    73
1070
     1
1070
    44
1040
1.0
1070
    74
1070
     0
1000
MTEXTEND
1000
MTEXTBEGIN
1070
    73
1070
     1
1070
    44
1040
1.0
1070
    74
1070
     0
1000
MTEXTEND
1000
MTEXTBEGIN
1070
    73
1070
     1
1070
    44
1040
1.0
1070
    74
1070
     0
1000
MTEXTEND
1000
MTEXTBEGIN
1070
    73
1070
     1
1070
    44
1040
1.0
1070
    74
1070
     0
1000
MTEXTEND
1000
MTEXTBEGIN
1070
    73
1070
     1
1070
    44
1040
1.0
1070
    74
1070
     0
1000
MTEXTEND
1000
MTEXTBEGIN
1070
    73
1070
     1
1070
    44
1040
1.0
1070
    74
1070
     0
1000
MTEXTEND
1000
MTEXTBEGIN
1070
    73
1070
     1
1070
    44
1040
1.0
1070
    74
1070
     0
1000
MTEXTEND
1000
MTEXTBEGIN
1070
    73
1070
     1
1070
    44
1040
1.0
1070
    74
1070
     0
1000
MTEXTEND
1000
MTEXTBEGIN
1070
    73
1070
     1
1070
    44
1040
1.0
1070
    74
1070
     0
1000
MTEXTEND
1000
MTEXTBEGIN
1070
    73
1070
     1
1070
    44
1040
1.0
1070
    74
1070
     0
1000
MTEXTEND
1000
MTEXTBEGIN
1070
    73
1070
     1
1070
    44
1040
1.0
1070
    74
1070
     0
1000
MTEXTEND
1000
MTEXTBEGIN
1070
    73
1070
     1
1070
    44
1040
1.0
1070
    74
1070
     0
1000
MTEXTEND
1000
MTEXTBEGIN
1070
    73
1070
     1
1070
    44
1040
1.0
1070
    74
1070
     0
1000
MTEXTEND
1000
MTEXTBEGIN
1070
    73
1070
     1
1070
    44
1040
1.0
1070
    74
1070
     0
1000
MTEXTEND
  0
MTEXT
  5
1103D
330
1F
100
AcDbEntity
  8
0
100
AcDbMText
 10
15.67225733852255
 20
7.163610738428983
 30
0.0
 40
0.2
 41
0.0
 71
     1
 72
     1
  1

  7
ROMANS
1001
ACAD
1000
MTEXTBEGIN
1070
    73
1070
     1
1070
    44
1040
1.0
1070
    74
1070
     0
1000
MTEXTEND
1000
MTEXTBEGIN
1070
    73
1070
     1
1070
    44
1040
1.0
1070
    74
1070
     0
1000
MTEXTEND
1000
MTEXTBEGIN
1070
    73
1070
     1
1070
    44
1040
1.0
1070
    74
1070
     0
1000
MTEXTEND
1000
MTEXTBEGIN
1070
    73
1070
     1
1070
    44
1040
1.0
1070
    74
1070
     0
1000
MTEXTEND
1000
MTEXTBEGIN
1070
    73
1070
     1
1070
    44
1040
1.0
1070
    74
1070
     0
1000
MTEXTEND
1000
MTEXTBEGIN
1070
    73
1070
     1
1070
    44
1040
1.0
1070
    74
1070
     0
1000
MTEXTEND
1000
MTEXTBEGIN
1070
    73
1070
     1
1070
    44
1040
1.0
1070
    74
1070
     0
1000
MTEXTEND
1000
MTEXTBEGIN
1070
    73
1070
     1
1070
    44
1040
1.0
1070
    74
1070
     0
1000
MTEXTEND
1000
MTEXTBEGIN
1070
    73
1070
     1
1070
    44
1040
1.0
1070
    74
1070
     0
1000
MTEXTEND
1000
MTEXTBEGIN
1070
    73
1070
     1
1070
    44
1040
1.0
1070
    74
1070
     0
1000
MTEXTEND
1000
MTEXTBEGIN
1070
    73
1070
     1
1070
    44
1040
1.0
1070
    74
1070
     0
1000
MTEXTEND
1000
MTEXTBEGIN
1070
    73
1070
     1
1070
    44
1040
1.0
1070
    74
1070
     0
1000
MTEXTEND
1000
MTEXTBEGIN
1070
    73
1070
     1
1070
    44
1040
1.0
1070
    74
1070
     0
1000
MTEXTEND
1000
MTEXTBEGIN
1070
    73
1070
     1
1070
    44
1040
1.0
1070
    74
1070
     0
1000
MTEXTEND
1000
MTEXTBEGIN
1070
    73
1070
     1
1070
    44
1040
1.0
1070
    74
1070
     0
1000
MTEXTEND
1000
MTEXTBEGIN
1070
    73
1070
     1
1070
    44
1040
1.0
1070
    74
1070
     0
1000
MTEXTEND
1000
MTEXTBEGIN
1070
    73
1070
     1
1070
    44
1040
1.0
1070
    74
1070
     0
1000
MTEXTEND
1000
MTEXTBEGIN
1070
    73
1070
     1
1070
    44
1040
1.0
1070
    74
1070
     0
1000
MTEXTEND
1000
MTEXTBEGIN
1070
    73
1070
     1
1070
    44
1040
1.0
1070
    74
1070
     0
1000
MTEXTEND
  0
MTEXT
  5
14491
330
1F
100
AcDbEntity
  8
0
100
AcDbMText
 10
2.447138319423494
 20
5.806301533930924
 30
0.0
 40
0.2
 41
0.0
 71
     9
 72
     1
  1

  7
ROMANS
1001
ACAD
1000
MTEXTBEGIN
1070
    73
1070
     1
1070
    44
1040
1.0
1070
    74
1070
     0
1000
MTEXTEND
1000
MTEXTBEGIN
1070
    73
1070
     1
1070
    44
1040
1.0
1070
    74
1070
     0
1000
MTEXTEND
1000
MTEXTBEGIN
1070
    73
1070
     1
1070
    44
1040
1.0
1070
    74
1070
     0
1000
MTEXTEND
1000
MTEXTBEGIN
1070
    73
1070
     1
1070
    44
1040
1.0
1070
    74
1070
     0
1000
MTEXTEND
1000
MTEXTBEGIN
1070
    73
1070
     1
1070
    44
1040
1.0
1070
    74
1070
     0
1000
MTEXTEND
1000
MTEXTBEGIN
1070
    73
1070
     1
1070
    44
1040
1.0
1070
    74
1070
     0
1000
MTEXTEND
1000
MTEXTBEGIN
1070
    73
1070
     1
1070
    44
1040
1.0
1070
    74
1070
     0
1000
MTEXTEND
1000
MTEXTBEGIN
1070
    73
1070
     1
1070
    44
1040
1.0
1070
    74
1070
     0
1000
MTEXTEND
1000
MTEXTBEGIN
1070
    73
1070
     1
1070
    44
1040
1.0
1070
    74
1070
     0
1000
MTEXTEND
1000
MTEXTBEGIN
1070
    73
1070
     1
1070
    44
1040
1.0
1070
    74
1070
     0
1000
MTEXTEND
1000
MTEXTBEGIN
1070
    73
1070
     1
1070
    44
1040
1.0
1070
    74
1070
     0
1000
MTEXTEND
1000
MTEXTBEGIN
1070
    73
1070
     1
1070
    44
1040
1.0
1070
    74
1070
     0
1000
MTEXTEND
1000
MTEXTBEGIN
1070
    73
1070
     1
1070
    44
1040
1.0
1070
    74
1070
     0
1000
MTEXTEND
1000
MTEXTBEGIN
1070
    73
1070
     1
1070
    44
1040
1.0
1070
    74
1070
     0
1000
MTEXTEND
  0
MTEXT
  5
1514A
330
1F
100
AcDbEntity
  8
0
100
AcDbMText
 10
19.06830267386762
 20
7.543414645275688
 30
0.0
 40
0.2
 41
0.0
 71
     9
 72
     1
  1

  7
ROMANS
1001
ACAD
1000
MTEXTBEGIN
1070
    73
1070
     1
1070
    44
1040
1.0
1070
    74
1070
     0
1000
MTEXTEND
1000
MTEXTBEGIN
1070
    73
1070
     1
1070
    44
1040
1.0
1070
    74
1070
     0
1000
MTEXTEND
1000
MTEXTBEGIN
1070
    73
1070
     1
1070
    44
1040
1.0
1070
    74
1070
     0
1000
MTEXTEND
1000
MTEXTBEGIN
1070
    73
1070
     1
1070
    44
1040
1.0
1070
    74
1070
     0
1000
MTEXTEND
1000
MTEXTBEGIN
1070
    73
1070
     1
1070
    44
1040
1.0
1070
    74
1070
     0
1000
MTEXTEND
1000
MTEXTBEGIN
1070
    73
1070
     1
1070
    44
1040
1.0
1070
    74
1070
     0
1000
MTEXTEND
1000
MTEXTBEGIN
1070
    73
1070
     1
1070
    44
1040
1.0
1070
    74
1070
     0
1000
MTEXTEND
1000
MTEXTBEGIN
1070
    73
1070
     1
1070
    44
1040
1.0
1070
    74
1070
     0
1000
MTEXTEND
1000
MTEXTBEGIN
1070
    73
1070
     1
1070
    44
1040
1.0
1070
    74
1070
     0
1000
MTEXTEND
1000
MTEXTBEGIN
1070
    73
1070
     1
1070
    44
1040
1.0
1070
    74
1070
     0
1000
MTEXTEND
1000
MTEXTBEGIN
1070
    73
1070
     1
1070
    44
1040
1.0
1070
    74
1070
     0
1000
MTEXTEND
1000
MTEXTBEGIN
1070
    73
1070
     1
1070
    44
1040
1.0
1070
    74
1070
     0
1000
MTEXTEND
1000
MTEXTBEGIN
1070
    73
1070
     1
1070
    44
1040
1.0
1070
    74
1070
     0
1000
MTEXTEND
  0
MTEXT
  5
1514C
330
1F
100
AcDbEntity
  8
0
100
AcDbMText
 10
32.0429945826919
 20
10.62772100234858
 30
0.0
 40
0.2
 41
0.0
 71
     1
 72
     1
  1

  7
ROMANS
1001
ACAD
1000
MTEXTBEGIN
1070
    73
1070
     1
1070
    44
1040
1.0
1070
    74
1070
     0
1000
MTEXTEND
1000
MTEXTBEGIN
1070
    73
1070
     1
1070
    44
1040
1.0
1070
    74
1070
     0
1000
MTEXTEND
1000
MTEXTBEGIN
1070
    73
1070
     1
1070
    44
1040
1.0
1070
    74
1070
     0
1000
MTEXTEND
1000
MTEXTBEGIN
1070
    73
1070
     1
1070
    44
1040
1.0
1070
    74
1070
     0
1000
MTEXTEND
1000
MTEXTBEGIN
1070
    73
1070
     1
1070
    44
1040
1.0
1070
    74
1070
     0
1000
MTEXTEND
1000
MTEXTBEGIN
1070
    73
1070
     1
1070
    44
1040
1.0
1070
    74
1070
     0
1000
MTEXTEND
1000
MTEXTBEGIN
1070
    73
1070
     1
1070
    44
1040
1.0
1070
    74
1070
     0
1000
MTEXTEND
1000
MTEXTBEGIN
1070
    73
1070
     1
1070
    44
1040
1.0
1070
    74
1070
     0
1000
MTEXTEND
1000
MTEXTBEGIN
1070
    73
1070
     1
1070
    44
1040
1.0
1070
    74
1070
     0
1000
MTEXTEND
1000
MTEXTBEGIN
1070
    73
1070
     1
1070
    44
1040
1.0
1070
    74
1070
     0
1000
MTEXTEND
1000
MTEXTBEGIN
1070
    73
1070
     1
1070
    44
1040
1.0
1070
    74
1070
     0
1000
MTEXTEND
1000
MTEXTBEGIN
1070
    73
1070
     1
1070
    44
1040
1.0
1070
    74
1070
     0
1000
MTEXTEND
1000
MTEXTBEGIN
1070
    73
1070
     1
1070
    44
1040
1.0
1070
    74
1070
     0
1000
MTEXTEND
  0
MTEXT
  5
16230
330
1F
100
AcDbEntity
  8
0
100
AcDbMText
 10
14.43578083809645
 20
8.805584468508888
 30
0.0
 40
0.2
 41
0.0
 71
     1
 72
     1
  1

  7
ROMANS
1001
ACAD
1000
MTEXTBEGIN
1070
    73
1070
     1
1070
    44
1040
1.0
1070
    74
1070
     0
1000
MTEXTEND
1000
MTEXTBEGIN
1070
    73
1070
     1
1070
    44
1040
1.0
1070
    74
1070
     0
1000
MTEXTEND
1000
MTEXTBEGIN
1070
    73
1070
     1
1070
    44
1040
1.0
1070
    74
1070
     0
1000
MTEXTEND
1000
MTEXTBEGIN
1070
    73
1070
     1
1070
    44
1040
1.0
1070
    74
1070
     0
1000
MTEXTEND
1000
MTEXTBEGIN
1070
    73
1070
     1
1070
    44
1040
1.0
1070
    74
1070
     0
1000
MTEXTEND
1000
MTEXTBEGIN
1070
    73
1070
     1
1070
    44
1040
1.0
1070
    74
1070
     0
1000
MTEXTEND
1000
MTEXTBEGIN
1070
    73
1070
     1
1070
    44
1040
1.0
1070
    74
1070
     0
1000
MTEXTEND
1000
MTEXTBEGIN
1070
    73
1070
     1
1070
    44
1040
1.0
1070
    74
1070
     0
1000
MTEXTEND
1000
MTEXTBEGIN
1070
    73
1070
     1
1070
    44
1040
1.0
1070
    74
1070
     0
1000
MTEXTEND
1000
MTEXTBEGIN
1070
    73
1070
     1
1070
    44
1040
1.0
1070
    74
1070
     0
1000
MTEXTEND
  0
MTEXT
  5
16248
330
1F
100
AcDbEntity
  8
0
100
AcDbMText
 10
1.461088929272179
 20
5.65614864630107
 30
0.0
 40
0.2
 41
0.0
 71
     9
 72
     1
  1

  7
ROMANS
1001
ACAD
1000
MTEXTBEGIN
1070
    73
1070
     1
1070
    44
1040
1.0
1070
    74
1070
     0
1000
MTEXTEND
1000
MTEXTBEGIN
1070
    73
1070
     1
1070
    44
1040
1.0
1070
    74
1070
     0
1000
MTEXTEND
1000
MTEXTBEGIN
1070
    73
1070
     1
1070
    44
1040
1.0
1070
    74
1070
     0
1000
MTEXTEND
1000
MTEXTBEGIN
1070
    73
1070
     1
1070
    44
1040
1.0
1070
    74
1070
     0
1000
MTEXTEND
1000
MTEXTBEGIN
1070
    73
1070
     1
1070
    44
1040
1.0
1070
    74
1070
     0
1000
MTEXTEND
1000
MTEXTBEGIN
1070
    73
1070
     1
1070
    44
1040
1.0
1070
    74
1070
     0
1000
MTEXTEND
1000
MTEXTBEGIN
1070
    73
1070
     1
1070
    44
1040
1.0
1070
    74
1070
     0
1000
MTEXTEND
1000
MTEXTBEGIN
1070
    73
1070
     1
1070
    44
1040
1.0
1070
    74
1070
     0
1000
MTEXTEND
1000
MTEXTBEGIN
1070
    73
1070
     1
1070
    44
1040
1.0
1070
    74
1070
     0
1000
MTEXTEND
1000
MTEXTBEGIN
1070
    73
1070
     1
1070
    44
1040
1.0
1070
    74
1070
     0
1000
MTEXTEND
  0
MTEXT
  5
16CED
330
1F
100
AcDbEntity
  8
0
100
AcDbMText
 10
4.264794527251478
 20
6.506674790064462
 30
0.0
 40
0.2
 41
0.0
 71
     1
 72
     1
  1

  7
ROMANS
1001
ACAD
1000
MTEXTBEGIN
1070
    73
1070
     1
1070
    44
1040
1.0
1070
    74
1070
     0
1000
MTEXTEND
1000
MTEXTBEGIN
1070
    73
1070
     1
1070
    44
1040
1.0
1070
    74
1070
     0
1000
MTEXTEND
1000
MTEXTBEGIN
1070
    73
1070
     1
1070
    44
1040
1.0
1070
    74
1070
     0
1000
MTEXTEND
1000
MTEXTBEGIN
1070
    73
1070
     1
1070
    44
1040
1.0
1070
    74
1070
     0
1000
MTEXTEND
1000
MTEXTBEGIN
1070
    73
1070
     1
1070
    44
1040
1.0
1070
    74
1070
     0
1000
MTEXTEND
1000
MTEXTBEGIN
1070
    73
1070
     1
1070
    44
1040
1.0
1070
    74
1070
     0
1000
MTEXTEND
1000
MTEXTBEGIN
1070
    73
1070
     1
1070
    44
1040
1.0
1070
    74
1070
     0
1000
MTEXTEND
1000
MTEXTBEGIN
1070
    73
1070
     1
1070
    44
1040
1.0
1070
    74
1070
     0
1000
MTEXTEND
1000
MTEXTBEGIN
1070
    73
1070
     1
1070
    44
1040
1.0
1070
    74
1070
     0
1000
MTEXTEND
  0
MTEXT
  5
16D03
330
1F
100
AcDbEntity
  8
0
100
AcDbMText
 10
14.52524285338384
 20
5.930859690168998
 30
0.0
 40
0.2
 41
0.0
 71
     1
 72
     1
  1

  7
ROMANS
1001
ACAD
1000
MTEXTBEGIN
1070
    73
1070
     1
1070
    44
1040
1.0
1070
    74
1070
     0
1000
MTEXTEND
1000
MTEXTBEGIN
1070
    73
1070
     1
1070
    44
1040
1.0
1070
    74
1070
     0
1000
MTEXTEND
1000
MTEXTBEGIN
1070
    73
1070
     1
1070
    44
1040
1.0
1070
    74
1070
     0
1000
MTEXTEND
1000
MTEXTBEGIN
1070
    73
1070
     1
1070
    44
1040
1.0
1070
    74
1070
     0
1000
MTEXTEND
1000
MTEXTBEGIN
1070
    73
1070
     1
1070
    44
1040
1.0
1070
    74
1070
     0
1000
MTEXTEND
1000
MTEXTBEGIN
1070
    73
1070
     1
1070
    44
1040
1.0
1070
    74
1070
     0
1000
MTEXTEND
1000
MTEXTBEGIN
1070
    73
1070
     1
1070
    44
1040
1.0
1070
    74
1070
     0
1000
MTEXTEND
1000
MTEXTBEGIN
1070
    73
1070
     1
1070
    44
1040
1.0
1070
    74
1070
     0
1000
MTEXTEND
1000
MTEXTBEGIN
1070
    73
1070
     1
1070
    44
1040
1.0
1070
    74
1070
     0
1000
MTEXTEND
  0
MTEXT
  5
17A20
330
1F
100
AcDbEntity
  8
0
100
AcDbMText
 10
4.649899885868396
 20
4.831319628297929
 30
0.0
 40
0.2
 41
0.0
 71
     1
 72
     1
  1

  7
ROMANS
1001
ACAD
1000
MTEXTBEGIN
1070
    73
1070
     1
1070
    44
1040
1.0
1070
    74
1070
     0
1000
MTEXTEND
1000
MTEXTBEGIN
1070
    73
1070
     1
1070
    44
1040
1.0
1070
    74
1070
     0
1000
MTEXTEND
1000
MTEXTBEGIN
1070
    73
1070
     1
1070
    44
1040
1.0
1070
    74
1070
     0
1000
MTEXTEND
1000
MTEXTBEGIN
1070
    73
1070
     1
1070
    44
1040
1.0
1070
    74
1070
     0
1000
MTEXTEND
1000
MTEXTBEGIN
1070
    73
1070
     1
1070
    44
1040
1.0
1070
    74
1070
     0
1000
MTEXTEND
1000
MTEXTBEGIN
1070
    73
1070
     1
1070
    44
1040
1.0
1070
    74
1070
     0
1000
MTEXTEND
1000
MTEXTBEGIN
1070
    73
1070
     1
1070
    44
1040
1.0
1070
    74
1070
     0
1000
MTEXTEND
1000
MTEXTBEGIN
1070
    73
1070
     1
1070
    44
1040
1.0
1070
    74
1070
     0
1000
MTEXTEND
  0
MTEXT
  5
17A45
330
1F
100
AcDbEntity
  8
0
100
AcDbMText
 10
14.86085095561792
 20
5.13294788315112
 30
0.0
 40
0.2
 41
0.0
 71
     1
 72
     1
  1

  7
ROMANS
1001
ACAD
1000
MTEXTBEGIN
1070
    73
1070
     1
1070
    44
1040
1.0
1070
    74
1070
     0
1000
MTEXTEND
1000
MTEXTBEGIN
1070
    73
1070
     1
1070
    44
1040
1.0
1070
    74
1070
     0
1000
MTEXTEND
1000
MTEXTBEGIN
1070
    73
1070
     1
1070
    44
1040
1.0
1070
    74
1070
     0
1000
MTEXTEND
1000
MTEXTBEGIN
1070
    73
1070
     1
1070
    44
1040
1.0
1070
    74
1070
     0
1000
MTEXTEND
1000
MTEXTBEGIN
1070
    73
1070
     1
1070
    44
1040
1.0
1070
    74
1070
     0
1000
MTEXTEND
1000
MTEXTBEGIN
1070
    73
1070
     1
1070
    44
1040
1.0
1070
    74
1070
     0
1000
MTEXTEND
1000
MTEXTBEGIN
1070
    73
1070
     1
1070
    44
1040
1.0
1070
    74
1070
     0
1000
MTEXTEND
1000
MTEXTBEGIN
1070
    73
1070
     1
1070
    44
1040
1.0
1070
    74
1070
     0
1000
MTEXTEND
  0
TEXT
  5
196C3
330
1F
100
AcDbEntity
  8
TEXT1
100
AcDbText
 10
0.3809523809523824
 20
9.73
 30
0.0
 40
0.08
  1
DESCRIPTION
  7
ROMANS
 72
     1
 11
0.7600000000000016
 21
9.769999999999999
 31
0.0
100
AcDbText
 73
     2
  0
TEXT
  5
196C4
330
1F
100
AcDbEntity
  8
TEXT1
100
AcDbText
 10
1.420952380952381
 20
9.73
 30
0.0
 40
0.08
  1
DESCRIPTION
  7
ROMANS
 72
     1
 11
1.8
 21
9.769999999999999
 31
0.0
100
AcDbText
 73
     2
  0
TEXT
  5
196C6
330
1F
100
AcDbEntity
  8
TEXT1
100
AcDbText
 10
1.512380952380953
 20
9.598571428571428
 30
0.0
 40
0.08
  1
CODE (1)
  7
ROMANS
 72
     4
 11
1.8
 21
9.632857142857142
 31
0.0
100
AcDbText
  0
TEXT
  5
196C7
330
1F
100
AcDbEntity
  8
TEXT1
100
AcDbText
 10
2.489523809523808
 20
9.73
 30
0.0
 40
0.08
  1
SUPPLY
  7
ROMANS
 72
     4
 11
2.719999999999998
 21
9.769999999999999
 31
0.0
100
AcDbText
  0
TEXT
  5
196C9
330
1F
100
AcDbEntity
  8
TEXT1
100
AcDbText
 10
2.472380952380951
 20
9.592857142857143
 30
0.0
 40
0.08
  1
VOLTAGE
  7
ROMANS
 72
     4
 11
2.719999999999998
 21
9.632857142857142
 31
0.0
100
AcDbText
  0
TEXT
  5
196CA
330
1F
100
AcDbEntity
  8
TEXT1
100
AcDbText
 10
3.249523809523809
 20
9.73
 30
0.0
 40
0.08
  1
SUPPLY
  7
ROMANS
 72
     4
 11
3.48
 21
9.769999999999999
 31
0.0
100
AcDbText
  0
TEXT
  5
196CB
330
1F
100
AcDbEntity
  8
TEXT1
100
AcDbText
 10
3.192380952380952
 20
9.461428571428573
 30
0.0
 40
0.08
  1
CODE (2)
  7
ROMANS
 72
     4
 11
3.48
 21
9.495714285714287
 31
0.0
100
AcDbText
  0
TEXT
  5
196CC
330
1F
100
AcDbEntity
  8
TEXT1
100
AcDbText
 10
3.232380952380952
 20
9.592857142857143
 30
0.0
 40
0.08
  1
VOLTAGE
  7
ROMANS
 72
     4
 11
3.48
 21
9.632857142857142
 31
0.0
100
AcDbText
  0
TEXT
  5
196CD
330
1F
100
AcDbEntity
  8
TEXT1
100
AcDbText
 10
0.4723809523809539
 20
9.05
 30
0.0
 40
0.08
  1
SOLENOID
  7
ROMANS
 72
     4
 11
0.7600000000000016
 21
9.089999999999999
 31
0.0
100
AcDbText
  0
TEXT
  5
196CE
330
1F
100
AcDbEntity
  8
TEXT1
100
AcDbText
 10
0.4914285714285731
 20
8.775714285714288
 30
0.0
 40
0.08
  1
PRESSES
  7
ROMANS
 72
     4
 11
0.7600000000000016
 21
8.815714285714287
 31
0.0
100
AcDbText
  0
TEXT
  5
196CF
330
1F
100
AcDbEntity
  8
TEXT1
100
AcDbText
 10
0.5066666666666683
 20
8.912857142857143
 30
0.0
 40
0.08
  1
VALVES-
  7
ROMANS
 72
     4
 11
0.7600000000000016
 21
8.952857142857142
 31
0.0
100
AcDbText
  0
TEXT
  5
196D0
330
1F
100
AcDbEntity
  8
TEXT1
100
AcDbText
 10
3.32
 20
9.169999999999999
 30
0.0
 40
0.08
  1
1184
  7
ROMANS
 72
     4
 11
3.48
 21
9.209999999999999
 31
0.0
100
AcDbText
  0
TEXT
  5
196D1
330
1F
100
AcDbEntity
  8
TEXT1
100
AcDbText
 10
2.489523809523808
 20
9.169999999999999
 30
0.0
 40
0.08
  1
24 VDC
  7
ROMANS
 72
     4
 11
2.719999999999998
 21
9.209999999999999
 31
0.0
100
AcDbText
  0
LINE
  5
196D2
330
1F
100
AcDbEntity
  8
CONTINUOUS1
100
AcDbLine
 10
0.2399999999999984
 20
9.929999999999999
 30
0.0
 11
3.879999999999999
 21
9.929999999999999
 31
0.0
  0
LINE
  5
196D3
330
1F
100
AcDbEntity
  8
CONTINUOUS1
100
AcDbLine
 10
3.879999999999999
 20
9.33
 30
0.0
 11
0.2399999999999984
 21
9.33
 31
0.0
  0
LINE
  5
196D4
330
1F
100
AcDbEntity
  8
CONTINUOUS1
100
AcDbLine
 10
3.879999999999999
 20
9.929999999999999
 30
0.0
 11
3.879999999999999
 21
8.609999999999999
 31
0.0
  0
LINE
  5
196D5
330
1F
100
AcDbEntity
  8
CONTINUOUS1
100
AcDbLine
 10
3.080000000000001
 20
9.929999999999999
 30
0.0
 11
3.080000000000001
 21
8.609999999999999
 31
0.0
  0
LINE
  5
196D6
330
1F
100
AcDbEntity
  8
CONTINUOUS1
100
AcDbLine
 10
2.32
 20
9.929999999999999
 30
0.0
 11
2.32
 21
8.609999999999999
 31
0.0
  0
LINE
  5
196D7
330
1F
100
AcDbEntity
  8
CONTINUOUS1
100
AcDbLine
 10
1.280000000000001
 20
9.929999999999999
 30
0.0
 11
1.280000000000001
 21
8.609999999999999
 31
0.0
  0
LINE
  5
196D8
330
1F
100
AcDbEntity
  8
CONTINUOUS1
100
AcDbLine
 10
0.2399999999999984
 20
9.929999999999999
 30
0.0
 11
0.2399999999999984
 21
8.609999999999999
 31
0.0
  0
LINE
  5
196D9
330
1F
100
AcDbEntity
  8
CONTINUOUS1
100
AcDbLine
 10
3.879999999999999
 20
9.089999999999999
 30
0.0
 11
2.32
 21
9.089999999999999
 31
0.0
  0
TEXT
  5
196DA
330
1F
100
AcDbEntity
  8
TEXT1
100
AcDbText
 10
1.683809523809524
 20
8.930000000000001
 30
0.0
 40
0.08
  1
PVK
  7
ROMANS
 72
     4
 11
1.8
 21
8.97
 31
0.0
100
AcDbText
  0
TEXT
  5
196DB
330
1F
100
AcDbEntity
  8
TEXT1
100
AcDbText
 10
2.45142857142857
 20
8.930000000000001
 30
0.0
 40
0.08
  1
115 VAC
  7
ROMANS
 72
     4
 11
2.719999999999998
 21
8.97
 31
0.0
100
AcDbText
  0
TEXT
  5
196DC
330
1F
100
AcDbEntity
  8
TEXT1
100
AcDbText
 10
3.325714285714286
 20
8.930000000000001
 30
0.0
 40
0.08
  1
3484
  7
ROMANS
 72
     4
 11
3.48
 21
8.97
 31
0.0
100
AcDbText
  0
LINE
  5
196DD
330
1F
100
AcDbEntity
  8
CONTINUOUS1
100
AcDbLine
 10
3.879999999999999
 20
8.849999999999999
 30
0.0
 11
2.32
 21
8.849999999999999
 31
0.0
  0
TEXT
  5
196DE
330
1F
100
AcDbEntity
  8
TEXT1
100
AcDbText
 10
2.457142857142855
 20
8.690000000000001
 30
0.0
 40
0.08
  1
230 VAC
  7
ROMANS
 72
     4
 11
2.719999999999998
 21
8.73
 31
0.0
100
AcDbText
  0
TEXT
  5
196DF
330
1F
100
AcDbEntity
  8
TEXT1
100
AcDbText
 10
3.325714285714286
 20
8.690000000000001
 30
0.0
 40
0.08
  1
3784
  7
ROMANS
 72
     4
 11
3.48
 21
8.73
 31
0.0
100
AcDbText
  0
LINE
  5
196E0
330
1F
100
AcDbEntity
  8
CONTINUOUS1
100
AcDbLine
 10
3.879999999999999
 20
8.609999999999999
 30
0.0
 11
0.2399999999999984
 21
8.609999999999999
 31
0.0
  0
TEXT
  5
196E1
330
1F
100
AcDbEntity
  8
TEXT1
100
AcDbText
 10
0.2514285714285709
 20
9.975714285714285
 30
0.0
 40
0.08
  1
COMPLETE CATALOG NUMBER WITH CODES (1) AND (2) BELOW
  7
ROMANS
 72
     4
 11
2.199999999999999
 21
10.01
 31
0.0
100
AcDbText
  0
LINE
  5
196E2
330
1F
100
AcDbEntity
  8
CONTINUOUS2
100
AcDbLine
 10
8.345181867866465
 20
7.209935579158558
 30
0.0
 11
8.345181867866465
 21
4.329935579158558
 31
0.0
  0
LINE
  5
196E3
330
1F
100
AcDbEntity
  8
CONTINUOUS2
100
AcDbLine
 10
8.345181867866465
 20
4.329935579158558
 30
0.0
 11
14.32518186786646
 21
4.329935579158558
 31
0.0
  0
LINE
  5
196E4
330
1F
100
AcDbEntity
  8
CONTINUOUS2
100
AcDbLine
 10
14.32518186786646
 20
4.329935579158558
 30
0.0
 11
14.32518186786645
 21
7.209935579158558
 31
0.0
  0
LINE
  5
196E5
330
1F
100
AcDbEntity
  8
CONTINUOUS2
100
AcDbLine
 10
8.345181867866465
 20
7.209935579158558
 30
0.0
 11
14.32518186786645
 21
7.209935579158558
 31
0.0
  0
LINE
  5
196E6
330
1F
100
AcDbEntity
  8
CONTINUOUS1
100
AcDbLine
 10
1.782681867866468
 20
5.00131203851012
 30
0.0
 11
1.782681867866461
 21
4.295797236664522
 31
0.0
  0
LINE
  5
196E7
330
1F
100
AcDbEntity
  8
CONTINUOUS1
100
AcDbLine
 10
8.345181867866465
 20
5.142435579158557
 30
0.0
 11
14.32518186786647
 21
5.142435579158559
 31
0.0
  0
LINE
  5
196E8
330
1F
100
AcDbEntity
  8
CONTINUOUS1
100
AcDbLine
 10
8.345181867866465
 20
6.397435579158558
 30
0.0
 11
14.32518186786646
 21
6.397435579158558
 31
0.0
  0
LINE
  5
196E9
330
1F
100
AcDbEntity
  8
CONTINUOUS1
100
AcDbLine
 10
8.345181867866465
 20
7.147435579158558
 30
0.0
 11
14.32518186786645
 21
7.147435579158558
 31
0.0
  0
LINE
  5
196EA
330
1F
100
AcDbEntity
  8
CONTINUOUS1
100
AcDbLine
 10
8.345181867866465
 20
4.392435579158558
 30
0.0
 11
14.32518186786646
 21
4.392435579158558
 31
0.0
  0
TEXT
  5
196EC
330
1F
100
AcDbEntity
  8
CENTER2
100
AcDbText
 10
11.20591983652969
 20
5.699547493989922
 30
0.0
 40
0.08
  1
L
  7
ROMANS
 72
     1
 11
11.24401507462492
 21
5.699547493989922
 31
0.0
100
AcDbText
  0
TEXT
  5
196ED
330
1F
100
AcDbEntity
  8
CENTER2
100
AcDbText
 10
11.17795213381867
 20
5.739417253283369
 30
0.0
 40
0.08
  1
C
  7
ROMANS
 72
     1
 11
11.21795213381867
 21
5.739417253283369
 31
0.0
100
AcDbText
  0
LINE
  5
196EE
330
1F
100
AcDbEntity
  8
CENTER2
100
AcDbLine
 10
8.182394501327419
 20
5.769935579158558
 30
0.0
 11
14.47655679831634
 21
5.76993557915856
 31
0.0
  0
LINE
  5
196EF
330
1F
100
AcDbEntity
  8
HIDDEN2
100
AcDbLine
 10
8.182394501327419
 20
6.458910579158559
 30
0.0
 11
14.47655679831634
 21
6.458910579158559
 31
0.0
  0
LINE
  5
196F0
330
1F
100
AcDbEntity
  8
HIDDEN2
100
AcDbLine
 10
8.182394501327419
 20
5.080960579158558
 30
0.0
 11
14.47655679831634
 21
5.080960579158559
 31
0.0
  0
LINE
  5
196F1
330
1F
100
AcDbEntity
  8
CONTINUOUS2
100
AcDbLine
 10
8.345181867866465
 20
7.209935579158558
 30
0.0
 11
8.345181867866465
 21
4.329935579158558
 31
0.0
  0
LINE
  5
196F4
330
1F
100
AcDbEntity
  8
CONTINUOUS1
100
AcDbLine
 10
14.05449013171492
 20
7.147435579158558
 30
0.0
 11
14.05449013171492
 21
7.209935579158558
 31
0.0
  0
LINE
  5
196F5
330
1F
100
AcDbEntity
  8
CONTINUOUS1
100
AcDbLine
 10
13.76230260401801
 20
7.147435579158558
 30
0.0
 11
13.76230260401801
 21
7.209935579158559
 31
0.0
  0
LINE
  5
196F6
330
1F
100
AcDbEntity
  8
CONTINUOUS1
100
AcDbLine
 10
13.71277583171491
 20
7.147435579158558
 30
0.0
 11
13.71277583171491
 21
7.209935579158558
 31
0.0
  0
LINE
  5
196F7
330
1F
100
AcDbEntity
  8
CONTINUOUS1
100
AcDbLine
 10
13.42058830401801
 20
7.147435579158558
 30
0.0
 11
13.42058830401801
 21
7.209935579158559
 31
0.0
  0
LINE
  5
196F8
330
1F
100
AcDbEntity
  8
CONTINUOUS1
100
AcDbLine
 10
13.37106153171491
 20
7.147435579158558
 30
0.0
 11
13.37106153171491
 21
7.209935579158558
 31
0.0
  0
LINE
  5
196F9
330
1F
100
AcDbEntity
  8
CONTINUOUS1
100
AcDbLine
 10
13.078874004018
 20
7.147435579158558
 30
0.0
 11
13.078874004018
 21
7.209935579158559
 31
0.0
  0
LINE
  5
196FA
330
1F
100
AcDbEntity
  8
CONTINUOUS1
100
AcDbLine
 10
13.02934723171492
 20
7.147435579158558
 30
0.0
 11
13.02934723171492
 21
7.209935579158558
 31
0.0
  0
LINE
  5
196FB
330
1F
100
AcDbEntity
  8
CONTINUOUS1
100
AcDbLine
 10
12.737159704018
 20
7.147435579158558
 30
0.0
 11
12.737159704018
 21
7.209935579158559
 31
0.0
  0
LINE
  5
196FC
330
1F
100
AcDbEntity
  8
CONTINUOUS1
100
AcDbLine
 10
12.68763293171492
 20
7.147435579158558
 30
0.0
 11
12.68763293171492
 21
7.209935579158558
 31
0.0
  0
LINE
  5
196FD
330
1F
100
AcDbEntity
  8
CONTINUOUS1
100
AcDbLine
 10
12.39544540401801
 20
7.147435579158558
 30
0.0
 11
12.39544540401801
 21
7.209935579158559
 31
0.0
  0
LINE
  5
196FE
330
1F
100
AcDbEntity
  8
CONTINUOUS1
100
AcDbLine
 10
12.34591863171492
 20
7.147435579158558
 30
0.0
 11
12.34591863171492
 21
7.209935579158558
 31
0.0
  0
LINE
  5
196FF
330
1F
100
AcDbEntity
  8
CONTINUOUS1
100
AcDbLine
 10
12.05373110401801
 20
7.147435579158558
 30
0.0
 11
12.05373110401801
 21
7.209935579158559
 31
0.0
  0
LINE
  5
19700
330
1F
100
AcDbEntity
  8
CONTINUOUS1
100
AcDbLine
 10
12.00420433171492
 20
7.147435579158558
 30
0.0
 11
12.00420433171492
 21
7.209935579158558
 31
0.0
  0
LINE
  5
19701
330
1F
100
AcDbEntity
  8
CONTINUOUS1
100
AcDbLine
 10
11.71201680401801
 20
7.147435579158558
 30
0.0
 11
11.71201680401801
 21
7.209935579158559
 31
0.0
  0
LINE
  5
19702
330
1F
100
AcDbEntity
  8
CONTINUOUS1
100
AcDbLine
 10
11.66249003171492
 20
7.147435579158558
 30
0.0
 11
11.66249003171492
 21
7.209935579158558
 31
0.0
  0
LINE
  5
19703
330
1F
100
AcDbEntity
  8
CONTINUOUS1
100
AcDbLine
 10
11.37030250401801
 20
7.147435579158558
 30
0.0
 11
11.37030250401801
 21
7.209935579158559
 31
0.0
  0
LINE
  5
19704
330
1F
100
AcDbEntity
  8
CONTINUOUS1
100
AcDbLine
 10
11.32077573171492
 20
7.147435579158558
 30
0.0
 11
11.32077573171491
 21
7.209935579158558
 31
0.0
  0
LINE
  5
19705
330
1F
100
AcDbEntity
  8
CONTINUOUS1
100
AcDbLine
 10
11.02858820401801
 20
7.147435579158558
 30
0.0
 11
11.02858820401801
 21
7.209935579158559
 31
0.0
  0
LINE
  5
19706
330
1F
100
AcDbEntity
  8
CONTINUOUS1
100
AcDbLine
 10
10.97906143171492
 20
7.147435579158558
 30
0.0
 11
10.97906143171492
 21
7.209935579158558
 31
0.0
  0
LINE
  5
19707
330
1F
100
AcDbEntity
  8
CONTINUOUS1
100
AcDbLine
 10
10.68687390401801
 20
7.147435579158558
 30
0.0
 11
10.68687390401801
 21
7.209935579158559
 31
0.0
  0
LINE
  5
19708
330
1F
100
AcDbEntity
  8
CONTINUOUS1
100
AcDbLine
 10
10.63734713171491
 20
7.147435579158558
 30
0.0
 11
10.63734713171491
 21
7.209935579158558
 31
0.0
  0
LINE
  5
19709
330
1F
100
AcDbEntity
  8
CONTINUOUS1
100
AcDbLine
 10
10.345159604018
 20
7.147435579158558
 30
0.0
 11
10.345159604018
 21
7.209935579158559
 31
0.0
  0
LINE
  5
1970A
330
1F
100
AcDbEntity
  8
CONTINUOUS1
100
AcDbLine
 10
10.29563283171492
 20
7.147435579158558
 30
0.0
 11
10.29563283171492
 21
7.209935579158558
 31
0.0
  0
LINE
  5
1970B
330
1F
100
AcDbEntity
  8
CONTINUOUS1
100
AcDbLine
 10
10.00344530401801
 20
7.147435579158558
 30
0.0
 11
10.00344530401801
 21
7.209935579158559
 31
0.0
  0
LINE
  5
1970C
330
1F
100
AcDbEntity
  8
CONTINUOUS1
100
AcDbLine
 10
9.953918531714919
 20
7.147435579158558
 30
0.0
 11
9.953918531714919
 21
7.209935579158558
 31
0.0
  0
LINE
  5
1970D
330
1F
100
AcDbEntity
  8
CONTINUOUS1
100
AcDbLine
 10
9.661731004018008
 20
7.147435579158558
 30
0.0
 11
9.661731004018008
 21
7.209935579158559
 31
0.0
  0
LINE
  5
1970E
330
1F
100
AcDbEntity
  8
CONTINUOUS1
100
AcDbLine
 10
9.612204231714919
 20
7.147435579158558
 30
0.0
 11
9.612204231714919
 21
7.209935579158558
 31
0.0
  0
LINE
  5
1970F
330
1F
100
AcDbEntity
  8
CONTINUOUS1
100
AcDbLine
 10
9.320016704018009
 20
7.147435579158558
 30
0.0
 11
9.320016704018009
 21
7.209935579158559
 31
0.0
  0
LINE
  5
19710
330
1F
100
AcDbEntity
  8
CONTINUOUS1
100
AcDbLine
 10
9.270489931714919
 20
7.147435579158558
 30
0.0
 11
9.270489931714919
 21
7.209935579158558
 31
0.0
  0
LINE
  5
19711
330
1F
100
AcDbEntity
  8
CONTINUOUS1
100
AcDbLine
 10
8.978302404018009
 20
7.147435579158558
 30
0.0
 11
8.978302404018009
 21
7.209935579158559
 31
0.0
  0
LINE
  5
19712
330
1F
100
AcDbEntity
  8
CONTINUOUS1
100
AcDbLine
 10
8.92877563171492
 20
7.147435579158558
 30
0.0
 11
8.92877563171492
 21
7.209935579158558
 31
0.0
  0
LINE
  5
19713
330
1F
100
AcDbEntity
  8
CONTINUOUS1
100
AcDbLine
 10
8.636588104018009
 20
7.147435579158558
 30
0.0
 11
8.636588104018009
 21
7.209935579158559
 31
0.0
  0
LINE
  5
19714
330
1F
100
AcDbEntity
  8
CONTINUOUS1
100
AcDbLine
 10
8.636588104018009
 20
4.392435579158559
 30
0.0
 11
8.636588104018009
 21
4.329935579158557
 31
0.0
  0
LINE
  5
19715
330
1F
100
AcDbEntity
  8
CONTINUOUS1
100
AcDbLine
 10
8.978302404018009
 20
4.392435579158559
 30
0.0
 11
8.978302404018009
 21
4.329935579158557
 31
0.0
  0
LINE
  5
19716
330
1F
100
AcDbEntity
  8
CONTINUOUS1
100
AcDbLine
 10
8.92877563171492
 20
4.392435579158559
 30
0.0
 11
8.92877563171492
 21
4.329935579158559
 31
0.0
  0
LINE
  5
19717
330
1F
100
AcDbEntity
  8
CONTINUOUS1
100
AcDbLine
 10
9.320016704018009
 20
4.392435579158559
 30
0.0
 11
9.320016704018009
 21
4.329935579158557
 31
0.0
  0
LINE
  5
19718
330
1F
100
AcDbEntity
  8
CONTINUOUS1
100
AcDbLine
 10
9.270489931714919
 20
4.392435579158559
 30
0.0
 11
9.270489931714919
 21
4.329935579158559
 31
0.0
  0
LINE
  5
19719
330
1F
100
AcDbEntity
  8
CONTINUOUS1
100
AcDbLine
 10
9.612204231714919
 20
4.392435579158559
 30
0.0
 11
9.612204231714919
 21
4.329935579158559
 31
0.0
  0
LINE
  5
1971A
330
1F
100
AcDbEntity
  8
CONTINUOUS1
100
AcDbLine
 10
9.661731004018008
 20
4.392435579158559
 30
0.0
 11
9.661731004018008
 21
4.329935579158557
 31
0.0
  0
LINE
  5
1971B
330
1F
100
AcDbEntity
  8
CONTINUOUS1
100
AcDbLine
 10
9.953918531714919
 20
4.392435579158559
 30
0.0
 11
9.953918531714919
 21
4.329935579158559
 31
0.0
  0
LINE
  5
1971C
330
1F
100
AcDbEntity
  8
CONTINUOUS1
100
AcDbLine
 10
10.00344530401801
 20
4.392435579158559
 30
0.0
 11
10.00344530401801
 21
4.329935579158557
 31
0.0
  0
LINE
  5
1971D
330
1F
100
AcDbEntity
  8
CONTINUOUS1
100
AcDbLine
 10
10.345159604018
 20
4.392435579158559
 30
0.0
 11
10.345159604018
 21
4.329935579158557
 31
0.0
  0
LINE
  5
1971E
330
1F
100
AcDbEntity
  8
CONTINUOUS1
100
AcDbLine
 10
10.29563283171492
 20
4.392435579158559
 30
0.0
 11
10.29563283171492
 21
4.329935579158559
 31
0.0
  0
LINE
  5
1971F
330
1F
100
AcDbEntity
  8
CONTINUOUS1
100
AcDbLine
 10
10.63734713171491
 20
4.392435579158559
 30
0.0
 11
10.63734713171491
 21
4.329935579158559
 31
0.0
  0
LINE
  5
19720
330
1F
100
AcDbEntity
  8
CONTINUOUS1
100
AcDbLine
 10
10.68687390401801
 20
4.392435579158559
 30
0.0
 11
10.68687390401801
 21
4.329935579158557
 31
0.0
  0
LINE
  5
19721
330
1F
100
AcDbEntity
  8
CONTINUOUS1
100
AcDbLine
 10
10.97906143171492
 20
4.392435579158559
 30
0.0
 11
10.97906143171492
 21
4.329935579158559
 31
0.0
  0
LINE
  5
19722
330
1F
100
AcDbEntity
  8
CONTINUOUS1
100
AcDbLine
 10
11.02858820401801
 20
4.392435579158559
 30
0.0
 11
11.02858820401801
 21
4.329935579158557
 31
0.0
  0
LINE
  5
19723
330
1F
100
AcDbEntity
  8
CONTINUOUS1
100
AcDbLine
 10
11.32077573171492
 20
4.392435579158559
 30
0.0
 11
11.32077573171491
 21
4.329935579158559
 31
0.0
  0
LINE
  5
19724
330
1F
100
AcDbEntity
  8
CONTINUOUS1
100
AcDbLine
 10
11.37030250401801
 20
4.392435579158559
 30
0.0
 11
11.37030250401801
 21
4.329935579158557
 31
0.0
  0
LINE
  5
19725
330
1F
100
AcDbEntity
  8
CONTINUOUS1
100
AcDbLine
 10
11.66249003171492
 20
4.392435579158559
 30
0.0
 11
11.66249003171492
 21
4.329935579158559
 31
0.0
  0
LINE
  5
19726
330
1F
100
AcDbEntity
  8
CONTINUOUS1
100
AcDbLine
 10
11.71201680401801
 20
4.392435579158559
 30
0.0
 11
11.71201680401801
 21
4.329935579158557
 31
0.0
  0
LINE
  5
19727
330
1F
100
AcDbEntity
  8
CONTINUOUS1
100
AcDbLine
 10
12.00420433171492
 20
4.392435579158559
 30
0.0
 11
12.00420433171492
 21
4.329935579158559
 31
0.0
  0
LINE
  5
19728
330
1F
100
AcDbEntity
  8
CONTINUOUS1
100
AcDbLine
 10
12.05373110401801
 20
4.392435579158559
 30
0.0
 11
12.05373110401801
 21
4.329935579158557
 31
0.0
  0
LINE
  5
19729
330
1F
100
AcDbEntity
  8
CONTINUOUS1
100
AcDbLine
 10
12.34591863171492
 20
4.392435579158559
 30
0.0
 11
12.34591863171492
 21
4.329935579158559
 31
0.0
  0
LINE
  5
1972A
330
1F
100
AcDbEntity
  8
CONTINUOUS1
100
AcDbLine
 10
12.39544540401801
 20
4.392435579158559
 30
0.0
 11
12.39544540401801
 21
4.329935579158557
 31
0.0
  0
LINE
  5
1972B
330
1F
100
AcDbEntity
  8
CONTINUOUS1
100
AcDbLine
 10
12.737159704018
 20
4.392435579158559
 30
0.0
 11
12.737159704018
 21
4.329935579158557
 31
0.0
  0
LINE
  5
1972C
330
1F
100
AcDbEntity
  8
CONTINUOUS1
100
AcDbLine
 10
12.68763293171492
 20
4.392435579158559
 30
0.0
 11
12.68763293171492
 21
4.329935579158559
 31
0.0
  0
LINE
  5
1972D
330
1F
100
AcDbEntity
  8
CONTINUOUS1
100
AcDbLine
 10
13.078874004018
 20
4.392435579158559
 30
0.0
 11
13.078874004018
 21
4.329935579158557
 31
0.0
  0
LINE
  5
1972E
330
1F
100
AcDbEntity
  8
CONTINUOUS1
100
AcDbLine
 10
13.02934723171492
 20
4.392435579158559
 30
0.0
 11
13.02934723171492
 21
4.329935579158559
 31
0.0
  0
LINE
  5
1972F
330
1F
100
AcDbEntity
  8
CONTINUOUS1
100
AcDbLine
 10
13.37106153171491
 20
4.392435579158559
 30
0.0
 11
13.37106153171491
 21
4.329935579158559
 31
0.0
  0
LINE
  5
19730
330
1F
100
AcDbEntity
  8
CONTINUOUS1
100
AcDbLine
 10
13.42058830401801
 20
4.392435579158559
 30
0.0
 11
13.42058830401801
 21
4.329935579158557
 31
0.0
  0
LINE
  5
19731
330
1F
100
AcDbEntity
  8
CONTINUOUS1
100
AcDbLine
 10
13.71277583171491
 20
4.392435579158559
 30
0.0
 11
13.71277583171491
 21
4.329935579158559
 31
0.0
  0
LINE
  5
19732
330
1F
100
AcDbEntity
  8
CONTINUOUS1
100
AcDbLine
 10
13.76230260401801
 20
4.392435579158559
 30
0.0
 11
13.76230260401801
 21
4.329935579158557
 31
0.0
  0
LINE
  5
19733
330
1F
100
AcDbEntity
  8
CONTINUOUS1
100
AcDbLine
 10
14.05449013171492
 20
4.392435579158559
 30
0.0
 11
14.05449013171492
 21
4.329935579158559
 31
0.0
  0
LINE
  5
19734
330
1F
100
AcDbEntity
  8
CONTINUOUS1
100
AcDbLine
 10
8.801643428417019
 20
4.772293758191823
 30
0.0
 11
8.850287574714624
 21
4.722916471053111
 31
0.0
  0
ARC
  5
19735
330
1F
100
AcDbEntity
  8
CONTINUOUS1
100
AcDbCircle
 10
8.782681867866465
 20
4.772435579158558
 30
0.0
 40
0.0838013941769334
100
AcDbArc
 50
305.3645741066226
 51
323.7783665493139
  0
LINE
  5
19736
330
1F
100
AcDbEntity
  8
CONTINUOUS1
100
AcDbLine
 10
8.801643428417019
 20
4.772293758191823
 30
0.0
 11
8.87111398104653
 21
4.840732830512501
 31
0.0
  0
ARC
  5
19737
330
1F
100
AcDbEntity
  8
CONTINUOUS1
100
AcDbCircle
 10
8.782681867866465
 20
4.772435579158558
 30
0.0
 40
0.0838013941769334
100
AcDbArc
 50
125.3645741066219
 51
143.7783665493139
  0
LINE
  5
19738
330
1F
100
AcDbEntity
  8
CONTINUOUS1
100
AcDbLine
 10
8.713069494270218
 20
4.685034946287321
 30
0.0
 11
8.782540046899729
 21
4.753474018608003
 31
0.0
  0
LINE
  5
19739
330
1F
100
AcDbEntity
  8
CONTINUOUS1
100
AcDbLine
 10
8.694249754686399
 20
4.704138327804615
 30
0.0
 11
8.76372030731591
 21
4.772577400125292
 31
0.0
  0
LINE
  5
1973A
330
1F
100
AcDbEntity
  8
CONTINUOUS1
100
AcDbLine
 10
8.715076161018306
 20
4.821954687264005
 30
0.0
 11
8.76372030731591
 21
4.772577400125292
 31
0.0
  0
LINE
  5
1973B
330
1F
100
AcDbEntity
  8
CONTINUOUS1
100
AcDbLine
 10
8.734179542535606
 20
4.840774426847825
 30
0.0
 11
8.7828236888332
 21
4.791397139709113
 31
0.0
  0
CIRCLE
  5
1973C
330
1F
100
AcDbEntity
  8
CONTINUOUS1
100
AcDbCircle
 10
8.782681867866465
 20
4.772435579158558
 30
0.0
 40
0.1117351922359111
  0
LINE
  5
1973D
330
1F
100
AcDbEntity
  8
CONTINUOUS1
100
AcDbLine
 10
8.782540046899729
 20
4.753474018608003
 30
0.0
 11
8.831184193197334
 21
4.704096731469292
 31
0.0
  0
LINE
  5
1973E
330
1F
100
AcDbEntity
  8
CONTINUOUS1
100
AcDbLine
 10
8.7828236888332
 20
4.791397139709113
 30
0.0
 11
8.852294241462711
 21
4.85983621202979
 31
0.0
  0
LINE
  5
1973F
330
1F
100
AcDbEntity
  8
CONTINUOUS1
100
AcDbLine
 10
8.801643428417019
 20
6.767577400125294
 30
0.0
 11
8.850287574714624
 21
6.816954687264005
 31
0.0
  0
ARC
  5
19740
330
1F
100
AcDbEntity
  8
CONTINUOUS1
100
AcDbCircle
 10
8.782681867866465
 20
6.767435579158559
 30
0.0
 40
0.0838013941769334
100
AcDbArc
 50
36.22163345068607
 51
54.63542589337728
  0
LINE
  5
19741
330
1F
100
AcDbEntity
  8
CONTINUOUS1
100
AcDbLine
 10
8.801643428417019
 20
6.767577400125294
 30
0.0
 11
8.87111398104653
 21
6.699138327804615
 31
0.0
  0
ARC
  5
19742
330
1F
100
AcDbEntity
  8
CONTINUOUS1
100
AcDbCircle
 10
8.782681867866465
 20
6.767435579158559
 30
0.0
 40
0.0838013941769334
100
AcDbArc
 50
216.2216334506859
 51
234.635425893378
  0
LINE
  5
19743
330
1F
100
AcDbEntity
  8
CONTINUOUS1
100
AcDbLine
 10
8.713069494270218
 20
6.854836212029796
 30
0.0
 11
8.782540046899729
 21
6.786397139709113
 31
0.0
  0
LINE
  5
19744
330
1F
100
AcDbEntity
  8
CONTINUOUS1
100
AcDbLine
 10
8.694249754686399
 20
6.835732830512502
 30
0.0
 11
8.76372030731591
 21
6.767293758191823
 31
0.0
  0
LINE
  5
19745
330
1F
100
AcDbEntity
  8
CONTINUOUS1
100
AcDbLine
 10
8.715076161018306
 20
6.717916471053112
 30
0.0
 11
8.76372030731591
 21
6.767293758191823
 31
0.0
  0
LINE
  5
19746
330
1F
100
AcDbEntity
  8
CONTINUOUS1
100
AcDbLine
 10
8.734179542535606
 20
6.699096731469292
 30
0.0
 11
8.7828236888332
 21
6.748474018608004
 31
0.0
  0
CIRCLE
  5
19747
330
1F
100
AcDbEntity
  8
CONTINUOUS1
100
AcDbCircle
 10
8.782681867866465
 20
6.767435579158559
 30
0.0
 40
0.1117351922359111
  0
LINE
  5
19748
330
1F
100
AcDbEntity
  8
CONTINUOUS1
100
AcDbLine
 10
8.782540046899729
 20
6.786397139709113
 30
0.0
 11
8.831184193197334
 21
6.835774426847824
 31
0.0
  0
LINE
  5
19749
330
1F
100
AcDbEntity
  8
CONTINUOUS1
100
AcDbLine
 10
8.7828236888332
 20
6.748474018608004
 30
0.0
 11
8.852294241462711
 21
6.680034946287325
 31
0.0
  0
LINE
  5
1974A
330
1F
100
AcDbEntity
  8
CONTINUOUS1
100
AcDbLine
 10
9.143357728417019
 20
4.772293758191823
 30
0.0
 11
9.192001874714623
 21
4.722916471053111
 31
0.0
  0
ARC
  5
1974B
330
1F
100
AcDbEntity
  8
CONTINUOUS1
100
AcDbCircle
 10
9.124396167866464
 20
4.772435579158558
 30
0.0
 40
0.0838013941769334
100
AcDbArc
 50
305.3645741066226
 51
323.7783665493139
  0
LINE
  5
1974C
330
1F
100
AcDbEntity
  8
CONTINUOUS1
100
AcDbLine
 10
9.143357728417019
 20
4.772293758191823
 30
0.0
 11
9.21282828104653
 21
4.840732830512501
 31
0.0
  0
ARC
  5
1974D
330
1F
100
AcDbEntity
  8
CONTINUOUS1
100
AcDbCircle
 10
9.124396167866464
 20
4.772435579158558
 30
0.0
 40
0.0838013941769334
100
AcDbArc
 50
125.3645741066219
 51
143.7783665493139
  0
LINE
  5
1974E
330
1F
100
AcDbEntity
  8
CONTINUOUS1
100
AcDbLine
 10
9.054783794270218
 20
4.685034946287321
 30
0.0
 11
9.124254346899729
 21
4.753474018608003
 31
0.0
  0
LINE
  5
1974F
330
1F
100
AcDbEntity
  8
CONTINUOUS1
100
AcDbLine
 10
9.035964054686399
 20
4.704138327804615
 30
0.0
 11
9.10543460731591
 21
4.772577400125292
 31
0.0
  0
LINE
  5
19750
330
1F
100
AcDbEntity
  8
CONTINUOUS1
100
AcDbLine
 10
9.056790461018305
 20
4.821954687264005
 30
0.0
 11
9.10543460731591
 21
4.772577400125292
 31
0.0
  0
LINE
  5
19751
330
1F
100
AcDbEntity
  8
CONTINUOUS1
100
AcDbLine
 10
9.075893842535606
 20
4.840774426847825
 30
0.0
 11
9.1245379888332
 21
4.791397139709113
 31
0.0
  0
CIRCLE
  5
19752
330
1F
100
AcDbEntity
  8
CONTINUOUS1
100
AcDbCircle
 10
9.124396167866464
 20
4.772435579158558
 30
0.0
 40
0.1117351922359111
  0
LINE
  5
19753
330
1F
100
AcDbEntity
  8
CONTINUOUS1
100
AcDbLine
 10
9.124254346899729
 20
4.753474018608003
 30
0.0
 11
9.172898493197333
 21
4.704096731469292
 31
0.0
  0
LINE
  5
19754
330
1F
100
AcDbEntity
  8
CONTINUOUS1
100
AcDbLine
 10
9.1245379888332
 20
4.791397139709113
 30
0.0
 11
9.194008541462711
 21
4.85983621202979
 31
0.0
  0
LINE
  5
19755
330
1F
100
AcDbEntity
  8
CONTINUOUS1
100
AcDbLine
 10
10.16850062841701
 20
4.772293758191823
 30
0.0
 11
10.21714477471462
 21
4.722916471053111
 31
0.0
  0
ARC
  5
19756
330
1F
100
AcDbEntity
  8
CONTINUOUS1
100
AcDbCircle
 10
10.14953906786646
 20
4.772435579158558
 30
0.0
 40
0.0838013941769334
100
AcDbArc
 50
305.3645741066226
 51
323.7783665493139
  0
LINE
  5
19757
330
1F
100
AcDbEntity
  8
CONTINUOUS1
100
AcDbLine
 10
10.16850062841701
 20
4.772293758191823
 30
0.0
 11
10.23797118104653
 21
4.840732830512501
 31
0.0
  0
ARC
  5
19758
330
1F
100
AcDbEntity
  8
CONTINUOUS1
100
AcDbCircle
 10
10.14953906786646
 20
4.772435579158558
 30
0.0
 40
0.0838013941769334
100
AcDbArc
 50
125.3645741066219
 51
143.7783665493139
  0
LINE
  5
19759
330
1F
100
AcDbEntity
  8
CONTINUOUS1
100
AcDbLine
 10
10.07992669427021
 20
4.685034946287321
 30
0.0
 11
10.14939724689973
 21
4.753474018608003
 31
0.0
  0
LINE
  5
1975A
330
1F
100
AcDbEntity
  8
CONTINUOUS1
100
AcDbLine
 10
10.06110695468639
 20
4.704138327804615
 30
0.0
 11
10.1305775073159
 21
4.772577400125292
 31
0.0
  0
LINE
  5
1975B
330
1F
100
AcDbEntity
  8
CONTINUOUS1
100
AcDbLine
 10
10.0819333610183
 20
4.821954687264005
 30
0.0
 11
10.1305775073159
 21
4.772577400125292
 31
0.0
  0
LINE
  5
1975C
330
1F
100
AcDbEntity
  8
CONTINUOUS1
100
AcDbLine
 10
10.1010367425356
 20
4.840774426847825
 30
0.0
 11
10.14968088883319
 21
4.791397139709113
 31
0.0
  0
CIRCLE
  5
1975D
330
1F
100
AcDbEntity
  8
CONTINUOUS1
100
AcDbCircle
 10
10.14953906786646
 20
4.772435579158558
 30
0.0
 40
0.1117351922359111
  0
LINE
  5
1975E
330
1F
100
AcDbEntity
  8
CONTINUOUS1
100
AcDbLine
 10
10.14939724689973
 20
4.753474018608003
 30
0.0
 11
10.19804139319733
 21
4.704096731469292
 31
0.0
  0
LINE
  5
1975F
330
1F
100
AcDbEntity
  8
CONTINUOUS1
100
AcDbLine
 10
10.14968088883319
 20
4.791397139709113
 30
0.0
 11
10.21915144146271
 21
4.85983621202979
 31
0.0
  0
LINE
  5
19760
330
1F
100
AcDbEntity
  8
CONTINUOUS1
100
AcDbLine
 10
9.826786328417018
 20
4.772293758191823
 30
0.0
 11
9.875430474714622
 21
4.722916471053111
 31
0.0
  0
ARC
  5
19761
330
1F
100
AcDbEntity
  8
CONTINUOUS1
100
AcDbCircle
 10
9.807824767866467
 20
4.772435579158558
 30
0.0
 40
0.0838013941769334
100
AcDbArc
 50
305.3645741066226
 51
323.7783665493139
  0
LINE
  5
19762
330
1F
100
AcDbEntity
  8
CONTINUOUS1
100
AcDbLine
 10
9.826786328417018
 20
4.772293758191823
 30
0.0
 11
9.896256881046532
 21
4.840732830512501
 31
0.0
  0
ARC
  5
19763
330
1F
100
AcDbEntity
  8
CONTINUOUS1
100
AcDbCircle
 10
9.807824767866467
 20
4.772435579158558
 30
0.0
 40
0.0838013941769334
100
AcDbArc
 50
125.3645741066219
 51
143.7783665493139
  0
LINE
  5
19764
330
1F
100
AcDbEntity
  8
CONTINUOUS1
100
AcDbLine
 10
9.738212394270217
 20
4.685034946287321
 30
0.0
 11
9.807682946899731
 21
4.753474018608003
 31
0.0
  0
LINE
  5
19765
330
1F
100
AcDbEntity
  8
CONTINUOUS1
100
AcDbLine
 10
9.719392654686398
 20
4.704138327804615
 30
0.0
 11
9.788863207315909
 21
4.772577400125292
 31
0.0
  0
LINE
  5
19766
330
1F
100
AcDbEntity
  8
CONTINUOUS1
100
AcDbLine
 10
9.740219061018304
 20
4.821954687264005
 30
0.0
 11
9.788863207315909
 21
4.772577400125292
 31
0.0
  0
LINE
  5
19767
330
1F
100
AcDbEntity
  8
CONTINUOUS1
100
AcDbLine
 10
9.759322442535609
 20
4.840774426847825
 30
0.0
 11
9.807966588833199
 21
4.791397139709113
 31
0.0
  0
CIRCLE
  5
19768
330
1F
100
AcDbEntity
  8
CONTINUOUS1
100
AcDbCircle
 10
9.807824767866467
 20
4.772435579158558
 30
0.0
 40
0.1117351922359111
  0
LINE
  5
19769
330
1F
100
AcDbEntity
  8
CONTINUOUS1
100
AcDbLine
 10
9.807682946899731
 20
4.753474018608003
 30
0.0
 11
9.856327093197332
 21
4.704096731469292
 31
0.0
  0
LINE
  5
1976A
330
1F
100
AcDbEntity
  8
CONTINUOUS1
100
AcDbLine
 10
9.807966588833199
 20
4.791397139709113
 30
0.0
 11
9.877437141462714
 21
4.85983621202979
 31
0.0
  0
LINE
  5
1976B
330
1F
100
AcDbEntity
  8
CONTINUOUS1
100
AcDbLine
 10
9.485072028417018
 20
4.772293758191823
 30
0.0
 11
9.533716174714623
 21
4.722916471053111
 31
0.0
  0
ARC
  5
1976C
330
1F
100
AcDbEntity
  8
CONTINUOUS1
100
AcDbCircle
 10
9.466110467866464
 20
4.772435579158558
 30
0.0
 40
0.0838013941769334
100
AcDbArc
 50
305.3645741066226
 51
323.7783665493139
  0
LINE
  5
1976D
330
1F
100
AcDbEntity
  8
CONTINUOUS1
100
AcDbLine
 10
9.485072028417018
 20
4.772293758191823
 30
0.0
 11
9.554542581046533
 21
4.840732830512501
 31
0.0
  0
ARC
  5
1976E
330
1F
100
AcDbEntity
  8
CONTINUOUS1
100
AcDbCircle
 10
9.466110467866464
 20
4.772435579158558
 30
0.0
 40
0.0838013941769334
100
AcDbArc
 50
125.3645741066219
 51
143.7783665493139
  0
LINE
  5
1976F
330
1F
100
AcDbEntity
  8
CONTINUOUS1
100
AcDbLine
 10
9.396498094270217
 20
4.685034946287321
 30
0.0
 11
9.465968646899732
 21
4.753474018608003
 31
0.0
  0
LINE
  5
19770
330
1F
100
AcDbEntity
  8
CONTINUOUS1
100
AcDbLine
 10
9.377678354686398
 20
4.704138327804615
 30
0.0
 11
9.447148907315909
 21
4.772577400125292
 31
0.0
  0
LINE
  5
19771
330
1F
100
AcDbEntity
  8
CONTINUOUS1
100
AcDbLine
 10
9.398504761018305
 20
4.821954687264005
 30
0.0
 11
9.447148907315909
 21
4.772577400125292
 31
0.0
  0
LINE
  5
19772
330
1F
100
AcDbEntity
  8
CONTINUOUS1
100
AcDbLine
 10
9.417608142535605
 20
4.840774426847825
 30
0.0
 11
9.466252288833199
 21
4.791397139709113
 31
0.0
  0
CIRCLE
  5
19773
330
1F
100
AcDbEntity
  8
CONTINUOUS1
100
AcDbCircle
 10
9.466110467866464
 20
4.772435579158558
 30
0.0
 40
0.1117351922359111
  0
LINE
  5
19774
330
1F
100
AcDbEntity
  8
CONTINUOUS1
100
AcDbLine
 10
9.465968646899732
 20
4.753474018608003
 30
0.0
 11
9.514612793197333
 21
4.704096731469292
 31
0.0
  0
LINE
  5
19775
330
1F
100
AcDbEntity
  8
CONTINUOUS1
100
AcDbLine
 10
9.466252288833199
 20
4.791397139709113
 30
0.0
 11
9.535722841462714
 21
4.85983621202979
 31
0.0
  0
LINE
  5
19776
330
1F
100
AcDbEntity
  8
CONTINUOUS1
100
AcDbLine
 10
10.51021492841701
 20
4.772293758191823
 30
0.0
 11
10.55885907471462
 21
4.722916471053111
 31
0.0
  0
ARC
  5
19777
330
1F
100
AcDbEntity
  8
CONTINUOUS1
100
AcDbCircle
 10
10.49125336786646
 20
4.772435579158558
 30
0.0
 40
0.0838013941769334
100
AcDbArc
 50
305.3645741066226
 51
323.7783665493139
  0
LINE
  5
19778
330
1F
100
AcDbEntity
  8
CONTINUOUS1
100
AcDbLine
 10
10.51021492841701
 20
4.772293758191823
 30
0.0
 11
10.57968548104653
 21
4.840732830512501
 31
0.0
  0
ARC
  5
19779
330
1F
100
AcDbEntity
  8
CONTINUOUS1
100
AcDbCircle
 10
10.49125336786646
 20
4.772435579158558
 30
0.0
 40
0.0838013941769334
100
AcDbArc
 50
125.3645741066219
 51
143.7783665493139
  0
LINE
  5
1977A
330
1F
100
AcDbEntity
  8
CONTINUOUS1
100
AcDbLine
 10
10.42164099427021
 20
4.685034946287321
 30
0.0
 11
10.49111154689973
 21
4.753474018608003
 31
0.0
  0
LINE
  5
1977B
330
1F
100
AcDbEntity
  8
CONTINUOUS1
100
AcDbLine
 10
10.40282125468639
 20
4.704138327804615
 30
0.0
 11
10.4722918073159
 21
4.772577400125292
 31
0.0
  0
LINE
  5
1977C
330
1F
100
AcDbEntity
  8
CONTINUOUS1
100
AcDbLine
 10
10.4236476610183
 20
4.821954687264005
 30
0.0
 11
10.4722918073159
 21
4.772577400125292
 31
0.0
  0
LINE
  5
1977D
330
1F
100
AcDbEntity
  8
CONTINUOUS1
100
AcDbLine
 10
10.4427510425356
 20
4.840774426847825
 30
0.0
 11
10.49139518883319
 21
4.791397139709113
 31
0.0
  0
CIRCLE
  5
1977E
330
1F
100
AcDbEntity
  8
CONTINUOUS1
100
AcDbCircle
 10
10.49125336786646
 20
4.772435579158558
 30
0.0
 40
0.1117351922359111
  0
LINE
  5
1977F
330
1F
100
AcDbEntity
  8
CONTINUOUS1
100
AcDbLine
 10
10.49111154689973
 20
4.753474018608003
 30
0.0
 11
10.53975569319733
 21
4.704096731469292
 31
0.0
  0
LINE
  5
19780
330
1F
100
AcDbEntity
  8
CONTINUOUS1
100
AcDbLine
 10
10.49139518883319
 20
4.791397139709113
 30
0.0
 11
10.56086574146271
 21
4.85983621202979
 31
0.0
  0
LINE
  5
19781
330
1F
100
AcDbEntity
  8
CONTINUOUS1
100
AcDbLine
 10
11.53535782841702
 20
4.772293758191823
 30
0.0
 11
11.58400197471462
 21
4.722916471053111
 31
0.0
  0
ARC
  5
19782
330
1F
100
AcDbEntity
  8
CONTINUOUS1
100
AcDbCircle
 10
11.51639626786646
 20
4.772435579158558
 30
0.0
 40
0.0838013941769334
100
AcDbArc
 50
305.3645741066226
 51
323.7783665493139
  0
LINE
  5
19783
330
1F
100
AcDbEntity
  8
CONTINUOUS1
100
AcDbLine
 10
11.53535782841702
 20
4.772293758191823
 30
0.0
 11
11.60482838104653
 21
4.840732830512501
 31
0.0
  0
ARC
  5
19784
330
1F
100
AcDbEntity
  8
CONTINUOUS1
100
AcDbCircle
 10
11.51639626786646
 20
4.772435579158558
 30
0.0
 40
0.0838013941769334
100
AcDbArc
 50
125.3645741066219
 51
143.7783665493139
  0
LINE
  5
19785
330
1F
100
AcDbEntity
  8
CONTINUOUS1
100
AcDbLine
 10
11.44678389427021
 20
4.685034946287321
 30
0.0
 11
11.51625444689973
 21
4.753474018608003
 31
0.0
  0
LINE
  5
19786
330
1F
100
AcDbEntity
  8
CONTINUOUS1
100
AcDbLine
 10
11.42796415468639
 20
4.704138327804615
 30
0.0
 11
11.49743470731591
 21
4.772577400125292
 31
0.0
  0
LINE
  5
19787
330
1F
100
AcDbEntity
  8
CONTINUOUS1
100
AcDbLine
 10
11.4487905610183
 20
4.821954687264005
 30
0.0
 11
11.49743470731591
 21
4.772577400125292
 31
0.0
  0
LINE
  5
19788
330
1F
100
AcDbEntity
  8
CONTINUOUS1
100
AcDbLine
 10
11.4678939425356
 20
4.840774426847825
 30
0.0
 11
11.51653808883319
 21
4.791397139709113
 31
0.0
  0
CIRCLE
  5
19789
330
1F
100
AcDbEntity
  8
CONTINUOUS1
100
AcDbCircle
 10
11.51639626786646
 20
4.772435579158558
 30
0.0
 40
0.1117351922359111
  0
LINE
  5
1978A
330
1F
100
AcDbEntity
  8
CONTINUOUS1
100
AcDbLine
 10
11.51625444689973
 20
4.753474018608003
 30
0.0
 11
11.56489859319733
 21
4.704096731469292
 31
0.0
  0
LINE
  5
1978B
330
1F
100
AcDbEntity
  8
CONTINUOUS1
100
AcDbLine
 10
11.51653808883319
 20
4.791397139709113
 30
0.0
 11
11.58600864146271
 21
4.85983621202979
 31
0.0
  0
LINE
  5
1978C
330
1F
100
AcDbEntity
  8
CONTINUOUS1
100
AcDbLine
 10
11.19364352841702
 20
4.772293758191823
 30
0.0
 11
11.24228767471462
 21
4.722916471053111
 31
0.0
  0
ARC
  5
1978D
330
1F
100
AcDbEntity
  8
CONTINUOUS1
100
AcDbCircle
 10
11.17468196786646
 20
4.772435579158558
 30
0.0
 40
0.0838013941769334
100
AcDbArc
 50
305.3645741066226
 51
323.7783665493139
  0
LINE
  5
1978E
330
1F
100
AcDbEntity
  8
CONTINUOUS1
100
AcDbLine
 10
11.19364352841702
 20
4.772293758191823
 30
0.0
 11
11.26311408104653
 21
4.840732830512501
 31
0.0
  0
ARC
  5
1978F
330
1F
100
AcDbEntity
  8
CONTINUOUS1
100
AcDbCircle
 10
11.17468196786646
 20
4.772435579158558
 30
0.0
 40
0.0838013941769334
100
AcDbArc
 50
125.3645741066219
 51
143.7783665493139
  0
LINE
  5
19790
330
1F
100
AcDbEntity
  8
CONTINUOUS1
100
AcDbLine
 10
11.10506959427021
 20
4.685034946287321
 30
0.0
 11
11.17454014689973
 21
4.753474018608003
 31
0.0
  0
LINE
  5
19791
330
1F
100
AcDbEntity
  8
CONTINUOUS1
100
AcDbLine
 10
11.08624985468639
 20
4.704138327804615
 30
0.0
 11
11.15572040731591
 21
4.772577400125292
 31
0.0
  0
LINE
  5
19792
330
1F
100
AcDbEntity
  8
CONTINUOUS1
100
AcDbLine
 10
11.1070762610183
 20
4.821954687264005
 30
0.0
 11
11.15572040731591
 21
4.772577400125292
 31
0.0
  0
LINE
  5
19793
330
1F
100
AcDbEntity
  8
CONTINUOUS1
100
AcDbLine
 10
11.1261796425356
 20
4.840774426847825
 30
0.0
 11
11.17482378883319
 21
4.791397139709113
 31
0.0
  0
CIRCLE
  5
19794
330
1F
100
AcDbEntity
  8
CONTINUOUS1
100
AcDbCircle
 10
11.17468196786646
 20
4.772435579158558
 30
0.0
 40
0.1117351922359111
  0
LINE
  5
19795
330
1F
100
AcDbEntity
  8
CONTINUOUS1
100
AcDbLine
 10
11.17454014689973
 20
4.753474018608003
 30
0.0
 11
11.22318429319733
 21
4.704096731469292
 31
0.0
  0
LINE
  5
19796
330
1F
100
AcDbEntity
  8
CONTINUOUS1
100
AcDbLine
 10
11.17482378883319
 20
4.791397139709113
 30
0.0
 11
11.24429434146271
 21
4.85983621202979
 31
0.0
  0
LINE
  5
19797
330
1F
100
AcDbEntity
  8
CONTINUOUS1
100
AcDbLine
 10
10.85192922841702
 20
4.772293758191823
 30
0.0
 11
10.90057337471462
 21
4.722916471053111
 31
0.0
  0
ARC
  5
19798
330
1F
100
AcDbEntity
  8
CONTINUOUS1
100
AcDbCircle
 10
10.83296766786646
 20
4.772435579158558
 30
0.0
 40
0.0838013941769334
100
AcDbArc
 50
305.3645741066226
 51
323.7783665493139
  0
LINE
  5
19799
330
1F
100
AcDbEntity
  8
CONTINUOUS1
100
AcDbLine
 10
10.85192922841702
 20
4.772293758191823
 30
0.0
 11
10.92139978104653
 21
4.840732830512501
 31
0.0
  0
ARC
  5
1979A
330
1F
100
AcDbEntity
  8
CONTINUOUS1
100
AcDbCircle
 10
10.83296766786646
 20
4.772435579158558
 30
0.0
 40
0.0838013941769334
100
AcDbArc
 50
125.3645741066219
 51
143.7783665493139
  0
LINE
  5
1979B
330
1F
100
AcDbEntity
  8
CONTINUOUS1
100
AcDbLine
 10
10.76335529427021
 20
4.685034946287321
 30
0.0
 11
10.83282584689973
 21
4.753474018608003
 31
0.0
  0
LINE
  5
1979C
330
1F
100
AcDbEntity
  8
CONTINUOUS1
100
AcDbLine
 10
10.74453555468639
 20
4.704138327804615
 30
0.0
 11
10.81400610731591
 21
4.772577400125292
 31
0.0
  0
LINE
  5
1979D
330
1F
100
AcDbEntity
  8
CONTINUOUS1
100
AcDbLine
 10
10.7653619610183
 20
4.821954687264005
 30
0.0
 11
10.81400610731591
 21
4.772577400125292
 31
0.0
  0
LINE
  5
1979E
330
1F
100
AcDbEntity
  8
CONTINUOUS1
100
AcDbLine
 10
10.7844653425356
 20
4.840774426847825
 30
0.0
 11
10.83310948883319
 21
4.791397139709113
 31
0.0
  0
CIRCLE
  5
1979F
330
1F
100
AcDbEntity
  8
CONTINUOUS1
100
AcDbCircle
 10
10.83296766786646
 20
4.772435579158558
 30
0.0
 40
0.1117351922359111
  0
LINE
  5
197A0
330
1F
100
AcDbEntity
  8
CONTINUOUS1
100
AcDbLine
 10
10.83282584689973
 20
4.753474018608003
 30
0.0
 11
10.88146999319733
 21
4.704096731469292
 31
0.0
  0
LINE
  5
197A1
330
1F
100
AcDbEntity
  8
CONTINUOUS1
100
AcDbLine
 10
10.83310948883319
 20
4.791397139709113
 30
0.0
 11
10.90258004146271
 21
4.85983621202979
 31
0.0
  0
LINE
  5
197A2
330
1F
100
AcDbEntity
  8
CONTINUOUS1
100
AcDbLine
 10
9.485072028417018
 20
6.767577400125294
 30
0.0
 11
9.533716174714623
 21
6.816954687264005
 31
0.0
  0
ARC
  5
197A3
330
1F
100
AcDbEntity
  8
CONTINUOUS1
100
AcDbCircle
 10
9.466110467866464
 20
6.767435579158559
 30
0.0
 40
0.0838013941769334
100
AcDbArc
 50
36.22163345068607
 51
54.63542589337728
  0
LINE
  5
197A4
330
1F
100
AcDbEntity
  8
CONTINUOUS1
100
AcDbLine
 10
9.485072028417018
 20
6.767577400125294
 30
0.0
 11
9.554542581046533
 21
6.699138327804615
 31
0.0
  0
ARC
  5
197A5
330
1F
100
AcDbEntity
  8
CONTINUOUS1
100
AcDbCircle
 10
9.466110467866464
 20
6.767435579158559
 30
0.0
 40
0.0838013941769334
100
AcDbArc
 50
216.2216334506859
 51
234.635425893378
  0
LINE
  5
197A6
330
1F
100
AcDbEntity
  8
CONTINUOUS1
100
AcDbLine
 10
9.396498094270217
 20
6.854836212029796
 30
0.0
 11
9.465968646899732
 21
6.786397139709113
 31
0.0
  0
LINE
  5
197A7
330
1F
100
AcDbEntity
  8
CONTINUOUS1
100
AcDbLine
 10
9.377678354686398
 20
6.835732830512502
 30
0.0
 11
9.447148907315909
 21
6.767293758191823
 31
0.0
  0
LINE
  5
197A8
330
1F
100
AcDbEntity
  8
CONTINUOUS1
100
AcDbLine
 10
9.398504761018305
 20
6.717916471053112
 30
0.0
 11
9.447148907315909
 21
6.767293758191823
 31
0.0
  0
LINE
  5
197A9
330
1F
100
AcDbEntity
  8
CONTINUOUS1
100
AcDbLine
 10
9.417608142535605
 20
6.699096731469292
 30
0.0
 11
9.466252288833199
 21
6.748474018608004
 31
0.0
  0
CIRCLE
  5
197AA
330
1F
100
AcDbEntity
  8
CONTINUOUS1
100
AcDbCircle
 10
9.466110467866464
 20
6.767435579158559
 30
0.0
 40
0.1117351922359111
  0
LINE
  5
197AB
330
1F
100
AcDbEntity
  8
CONTINUOUS1
100
AcDbLine
 10
9.465968646899732
 20
6.786397139709113
 30
0.0
 11
9.514612793197333
 21
6.835774426847824
 31
0.0
  0
LINE
  5
197AC
330
1F
100
AcDbEntity
  8
CONTINUOUS1
100
AcDbLine
 10
9.466252288833199
 20
6.748474018608004
 30
0.0
 11
9.535722841462714
 21
6.680034946287325
 31
0.0
  0
LINE
  5
197AD
330
1F
100
AcDbEntity
  8
CONTINUOUS1
100
AcDbLine
 10
9.826786328417018
 20
6.767577400125294
 30
0.0
 11
9.875430474714622
 21
6.816954687264005
 31
0.0
  0
ARC
  5
197AE
330
1F
100
AcDbEntity
  8
CONTINUOUS1
100
AcDbCircle
 10
9.807824767866467
 20
6.767435579158559
 30
0.0
 40
0.0838013941769334
100
AcDbArc
 50
36.22163345068607
 51
54.63542589337728
  0
LINE
  5
197AF
330
1F
100
AcDbEntity
  8
CONTINUOUS1
100
AcDbLine
 10
9.826786328417018
 20
6.767577400125294
 30
0.0
 11
9.896256881046532
 21
6.699138327804615
 31
0.0
  0
ARC
  5
197B0
330
1F
100
AcDbEntity
  8
CONTINUOUS1
100
AcDbCircle
 10
9.807824767866467
 20
6.767435579158559
 30
0.0
 40
0.0838013941769334
100
AcDbArc
 50
216.2216334506859
 51
234.635425893378
  0
LINE
  5
197B1
330
1F
100
AcDbEntity
  8
CONTINUOUS1
100
AcDbLine
 10
9.738212394270217
 20
6.854836212029796
 30
0.0
 11
9.807682946899731
 21
6.786397139709113
 31
0.0
  0
LINE
  5
197B2
330
1F
100
AcDbEntity
  8
CONTINUOUS1
100
AcDbLine
 10
9.719392654686398
 20
6.835732830512502
 30
0.0
 11
9.788863207315909
 21
6.767293758191823
 31
0.0
  0
LINE
  5
197B3
330
1F
100
AcDbEntity
  8
CONTINUOUS1
100
AcDbLine
 10
9.740219061018304
 20
6.717916471053112
 30
0.0
 11
9.788863207315909
 21
6.767293758191823
 31
0.0
  0
LINE
  5
197B4
330
1F
100
AcDbEntity
  8
CONTINUOUS1
100
AcDbLine
 10
9.759322442535609
 20
6.699096731469292
 30
0.0
 11
9.807966588833199
 21
6.748474018608004
 31
0.0
  0
CIRCLE
  5
197B5
330
1F
100
AcDbEntity
  8
CONTINUOUS1
100
AcDbCircle
 10
9.807824767866467
 20
6.767435579158559
 30
0.0
 40
0.1117351922359111
  0
LINE
  5
197B6
330
1F
100
AcDbEntity
  8
CONTINUOUS1
100
AcDbLine
 10
9.807682946899731
 20
6.786397139709113
 30
0.0
 11
9.856327093197332
 21
6.835774426847824
 31
0.0
  0
LINE
  5
197B7
330
1F
100
AcDbEntity
  8
CONTINUOUS1
100
AcDbLine
 10
9.807966588833199
 20
6.748474018608004
 30
0.0
 11
9.877437141462714
 21
6.680034946287325
 31
0.0
  0
LINE
  5
197B8
330
1F
100
AcDbEntity
  8
CONTINUOUS1
100
AcDbLine
 10
10.16850062841701
 20
6.767577400125294
 30
0.0
 11
10.21714477471462
 21
6.816954687264005
 31
0.0
  0
ARC
  5
197B9
330
1F
100
AcDbEntity
  8
CONTINUOUS1
100
AcDbCircle
 10
10.14953906786646
 20
6.767435579158559
 30
0.0
 40
0.0838013941769334
100
AcDbArc
 50
36.22163345068607
 51
54.63542589337728
  0
LINE
  5
197BA
330
1F
100
AcDbEntity
  8
CONTINUOUS1
100
AcDbLine
 10
10.16850062841701
 20
6.767577400125294
 30
0.0
 11
10.23797118104653
 21
6.699138327804615
 31
0.0
  0
ARC
  5
197BB
330
1F
100
AcDbEntity
  8
CONTINUOUS1
100
AcDbCircle
 10
10.14953906786646
 20
6.767435579158559
 30
0.0
 40
0.0838013941769334
100
AcDbArc
 50
216.2216334506859
 51
234.635425893378
  0
LINE
  5
197BC
330
1F
100
AcDbEntity
  8
CONTINUOUS1
100
AcDbLine
 10
10.07992669427021
 20
6.854836212029796
 30
0.0
 11
10.14939724689973
 21
6.786397139709113
 31
0.0
  0
LINE
  5
197BD
330
1F
100
AcDbEntity
  8
CONTINUOUS1
100
AcDbLine
 10
10.06110695468639
 20
6.835732830512502
 30
0.0
 11
10.1305775073159
 21
6.767293758191823
 31
0.0
  0
LINE
  5
197BE
330
1F
100
AcDbEntity
  8
CONTINUOUS1
100
AcDbLine
 10
10.0819333610183
 20
6.717916471053112
 30
0.0
 11
10.1305775073159
 21
6.767293758191823
 31
0.0
  0
LINE
  5
197BF
330
1F
100
AcDbEntity
  8
CONTINUOUS1
100
AcDbLine
 10
10.1010367425356
 20
6.699096731469292
 30
0.0
 11
10.14968088883319
 21
6.748474018608004
 31
0.0
  0
CIRCLE
  5
197C0
330
1F
100
AcDbEntity
  8
CONTINUOUS1
100
AcDbCircle
 10
10.14953906786646
 20
6.767435579158559
 30
0.0
 40
0.1117351922359111
  0
LINE
  5
197C1
330
1F
100
AcDbEntity
  8
CONTINUOUS1
100
AcDbLine
 10
10.14939724689973
 20
6.786397139709113
 30
0.0
 11
10.19804139319733
 21
6.835774426847824
 31
0.0
  0
LINE
  5
197C2
330
1F
100
AcDbEntity
  8
CONTINUOUS1
100
AcDbLine
 10
10.14968088883319
 20
6.748474018608004
 30
0.0
 11
10.21915144146271
 21
6.680034946287325
 31
0.0
  0
LINE
  5
197C3
330
1F
100
AcDbEntity
  8
CONTINUOUS1
100
AcDbLine
 10
9.143357728417019
 20
6.767577400125294
 30
0.0
 11
9.192001874714623
 21
6.816954687264005
 31
0.0
  0
ARC
  5
197C4
330
1F
100
AcDbEntity
  8
CONTINUOUS1
100
AcDbCircle
 10
9.124396167866464
 20
6.767435579158559
 30
0.0
 40
0.0838013941769334
100
AcDbArc
 50
36.22163345068607
 51
54.63542589337728
  0
LINE
  5
197C5
330
1F
100
AcDbEntity
  8
CONTINUOUS1
100
AcDbLine
 10
9.143357728417019
 20
6.767577400125294
 30
0.0
 11
9.21282828104653
 21
6.699138327804615
 31
0.0
  0
ARC
  5
197C6
330
1F
100
AcDbEntity
  8
CONTINUOUS1
100
AcDbCircle
 10
9.124396167866464
 20
6.767435579158559
 30
0.0
 40
0.0838013941769334
100
AcDbArc
 50
216.2216334506859
 51
234.635425893378
  0
LINE
  5
197C7
330
1F
100
AcDbEntity
  8
CONTINUOUS1
100
AcDbLine
 10
9.054783794270218
 20
6.854836212029796
 30
0.0
 11
9.124254346899729
 21
6.786397139709113
 31
0.0
  0
LINE
  5
197C8
330
1F
100
AcDbEntity
  8
CONTINUOUS1
100
AcDbLine
 10
9.035964054686399
 20
6.835732830512502
 30
0.0
 11
9.10543460731591
 21
6.767293758191823
 31
0.0
  0
LINE
  5
197C9
330
1F
100
AcDbEntity
  8
CONTINUOUS1
100
AcDbLine
 10
9.056790461018305
 20
6.717916471053112
 30
0.0
 11
9.10543460731591
 21
6.767293758191823
 31
0.0
  0
LINE
  5
197CA
330
1F
100
AcDbEntity
  8
CONTINUOUS1
100
AcDbLine
 10
9.075893842535606
 20
6.699096731469292
 30
0.0
 11
9.1245379888332
 21
6.748474018608004
 31
0.0
  0
CIRCLE
  5
197CB
330
1F
100
AcDbEntity
  8
CONTINUOUS1
100
AcDbCircle
 10
9.124396167866464
 20
6.767435579158559
 30
0.0
 40
0.1117351922359111
  0
LINE
  5
197CC
330
1F
100
AcDbEntity
  8
CONTINUOUS1
100
AcDbLine
 10
9.124254346899729
 20
6.786397139709113
 30
0.0
 11
9.172898493197333
 21
6.835774426847824
 31
0.0
  0
LINE
  5
197CD
330
1F
100
AcDbEntity
  8
CONTINUOUS1
100
AcDbLine
 10
9.1245379888332
 20
6.748474018608004
 30
0.0
 11
9.194008541462711
 21
6.680034946287325
 31
0.0
  0
LINE
  5
197CE
330
1F
100
AcDbEntity
  8
CONTINUOUS1
100
AcDbLine
 10
10.85192922841702
 20
6.767577400125294
 30
0.0
 11
10.90057337471462
 21
6.816954687264005
 31
0.0
  0
ARC
  5
197CF
330
1F
100
AcDbEntity
  8
CONTINUOUS1
100
AcDbCircle
 10
10.83296766786646
 20
6.767435579158559
 30
0.0
 40
0.0838013941769334
100
AcDbArc
 50
36.22163345068607
 51
54.63542589337728
  0
LINE
  5
197D0
330
1F
100
AcDbEntity
  8
CONTINUOUS1
100
AcDbLine
 10
10.85192922841702
 20
6.767577400125294
 30
0.0
 11
10.92139978104653
 21
6.699138327804615
 31
0.0
  0
ARC
  5
197D1
330
1F
100
AcDbEntity
  8
CONTINUOUS1
100
AcDbCircle
 10
10.83296766786646
 20
6.767435579158559
 30
0.0
 40
0.0838013941769334
100
AcDbArc
 50
216.2216334506859
 51
234.635425893378
  0
LINE
  5
197D2
330
1F
100
AcDbEntity
  8
CONTINUOUS1
100
AcDbLine
 10
10.76335529427021
 20
6.854836212029796
 30
0.0
 11
10.83282584689973
 21
6.786397139709113
 31
0.0
  0
LINE
  5
197D3
330
1F
100
AcDbEntity
  8
CONTINUOUS1
100
AcDbLine
 10
10.74453555468639
 20
6.835732830512502
 30
0.0
 11
10.81400610731591
 21
6.767293758191823
 31
0.0
  0
LINE
  5
197D4
330
1F
100
AcDbEntity
  8
CONTINUOUS1
100
AcDbLine
 10
10.7653619610183
 20
6.717916471053112
 30
0.0
 11
10.81400610731591
 21
6.767293758191823
 31
0.0
  0
LINE
  5
197D5
330
1F
100
AcDbEntity
  8
CONTINUOUS1
100
AcDbLine
 10
10.7844653425356
 20
6.699096731469292
 30
0.0
 11
10.83310948883319
 21
6.748474018608004
 31
0.0
  0
CIRCLE
  5
197D6
330
1F
100
AcDbEntity
  8
CONTINUOUS1
100
AcDbCircle
 10
10.83296766786646
 20
6.767435579158559
 30
0.0
 40
0.1117351922359111
  0
LINE
  5
197D7
330
1F
100
AcDbEntity
  8
CONTINUOUS1
100
AcDbLine
 10
10.83282584689973
 20
6.786397139709113
 30
0.0
 11
10.88146999319733
 21
6.835774426847824
 31
0.0
  0
LINE
  5
197D8
330
1F
100
AcDbEntity
  8
CONTINUOUS1
100
AcDbLine
 10
10.83310948883319
 20
6.748474018608004
 30
0.0
 11
10.90258004146271
 21
6.680034946287325
 31
0.0
  0
LINE
  5
197D9
330
1F
100
AcDbEntity
  8
CONTINUOUS1
100
AcDbLine
 10
11.19364352841702
 20
6.767577400125294
 30
0.0
 11
11.24228767471462
 21
6.816954687264005
 31
0.0
  0
ARC
  5
197DA
330
1F
100
AcDbEntity
  8
CONTINUOUS1
100
AcDbCircle
 10
11.17468196786646
 20
6.767435579158559
 30
0.0
 40
0.0838013941769334
100
AcDbArc
 50
36.22163345068607
 51
54.63542589337728
  0
LINE
  5
197DB
330
1F
100
AcDbEntity
  8
CONTINUOUS1
100
AcDbLine
 10
11.19364352841702
 20
6.767577400125294
 30
0.0
 11
11.26311408104653
 21
6.699138327804615
 31
0.0
  0
ARC
  5
197DC
330
1F
100
AcDbEntity
  8
CONTINUOUS1
100
AcDbCircle
 10
11.17468196786646
 20
6.767435579158559
 30
0.0
 40
0.0838013941769334
100
AcDbArc
 50
216.2216334506859
 51
234.635425893378
  0
LINE
  5
197DD
330
1F
100
AcDbEntity
  8
CONTINUOUS1
100
AcDbLine
 10
11.10506959427021
 20
6.854836212029796
 30
0.0
 11
11.17454014689973
 21
6.786397139709113
 31
0.0
  0
LINE
  5
197DE
330
1F
100
AcDbEntity
  8
CONTINUOUS1
100
AcDbLine
 10
11.08624985468639
 20
6.835732830512502
 30
0.0
 11
11.15572040731591
 21
6.767293758191823
 31
0.0
  0
LINE
  5
197DF
330
1F
100
AcDbEntity
  8
CONTINUOUS1
100
AcDbLine
 10
11.1070762610183
 20
6.717916471053112
 30
0.0
 11
11.15572040731591
 21
6.767293758191823
 31
0.0
  0
LINE
  5
197E0
330
1F
100
AcDbEntity
  8
CONTINUOUS1
100
AcDbLine
 10
11.1261796425356
 20
6.699096731469292
 30
0.0
 11
11.17482378883319
 21
6.748474018608004
 31
0.0
  0
CIRCLE
  5
197E1
330
1F
100
AcDbEntity
  8
CONTINUOUS1
100
AcDbCircle
 10
11.17468196786646
 20
6.767435579158559
 30
0.0
 40
0.1117351922359111
  0
LINE
  5
197E2
330
1F
100
AcDbEntity
  8
CONTINUOUS1
100
AcDbLine
 10
11.17454014689973
 20
6.786397139709113
 30
0.0
 11
11.22318429319733
 21
6.835774426847824
 31
0.0
  0
LINE
  5
197E3
330
1F
100
AcDbEntity
  8
CONTINUOUS1
100
AcDbLine
 10
11.17482378883319
 20
6.748474018608004
 30
0.0
 11
11.24429434146271
 21
6.680034946287325
 31
0.0
  0
LINE
  5
197E4
330
1F
100
AcDbEntity
  8
CONTINUOUS1
100
AcDbLine
 10
11.53535782841702
 20
6.767577400125294
 30
0.0
 11
11.58400197471462
 21
6.816954687264005
 31
0.0
  0
ARC
  5
197E5
330
1F
100
AcDbEntity
  8
CONTINUOUS1
100
AcDbCircle
 10
11.51639626786646
 20
6.767435579158559
 30
0.0
 40
0.0838013941769334
100
AcDbArc
 50
36.22163345068607
 51
54.63542589337728
  0
LINE
  5
197E6
330
1F
100
AcDbEntity
  8
CONTINUOUS1
100
AcDbLine
 10
11.53535782841702
 20
6.767577400125294
 30
0.0
 11
11.60482838104653
 21
6.699138327804615
 31
0.0
  0
ARC
  5
197E7
330
1F
100
AcDbEntity
  8
CONTINUOUS1
100
AcDbCircle
 10
11.51639626786646
 20
6.767435579158559
 30
0.0
 40
0.0838013941769334
100
AcDbArc
 50
216.2216334506859
 51
234.635425893378
  0
LINE
  5
197E8
330
1F
100
AcDbEntity
  8
CONTINUOUS1
100
AcDbLine
 10
11.44678389427021
 20
6.854836212029796
 30
0.0
 11
11.51625444689973
 21
6.786397139709113
 31
0.0
  0
LINE
  5
197E9
330
1F
100
AcDbEntity
  8
CONTINUOUS1
100
AcDbLine
 10
11.42796415468639
 20
6.835732830512502
 30
0.0
 11
11.49743470731591
 21
6.767293758191823
 31
0.0
  0
LINE
  5
197EA
330
1F
100
AcDbEntity
  8
CONTINUOUS1
100
AcDbLine
 10
11.4487905610183
 20
6.717916471053112
 30
0.0
 11
11.49743470731591
 21
6.767293758191823
 31
0.0
  0
LINE
  5
197EB
330
1F
100
AcDbEntity
  8
CONTINUOUS1
100
AcDbLine
 10
11.4678939425356
 20
6.699096731469292
 30
0.0
 11
11.51653808883319
 21
6.748474018608004
 31
0.0
  0
CIRCLE
  5
197EC
330
1F
100
AcDbEntity
  8
CONTINUOUS1
100
AcDbCircle
 10
11.51639626786646
 20
6.767435579158559
 30
0.0
 40
0.1117351922359111
  0
LINE
  5
197ED
330
1F
100
AcDbEntity
  8
CONTINUOUS1
100
AcDbLine
 10
11.51625444689973
 20
6.786397139709113
 30
0.0
 11
11.56489859319733
 21
6.835774426847824
 31
0.0
  0
LINE
  5
197EE
330
1F
100
AcDbEntity
  8
CONTINUOUS1
100
AcDbLine
 10
11.51653808883319
 20
6.748474018608004
 30
0.0
 11
11.58600864146271
 21
6.680034946287325
 31
0.0
  0
LINE
  5
197EF
330
1F
100
AcDbEntity
  8
CONTINUOUS1
100
AcDbLine
 10
10.51021492841701
 20
6.767577400125294
 30
0.0
 11
10.55885907471462
 21
6.816954687264005
 31
0.0
  0
ARC
  5
197F0
330
1F
100
AcDbEntity
  8
CONTINUOUS1
100
AcDbCircle
 10
10.49125336786646
 20
6.767435579158559
 30
0.0
 40
0.0838013941769334
100
AcDbArc
 50
36.22163345068607
 51
54.63542589337728
  0
LINE
  5
197F1
330
1F
100
AcDbEntity
  8
CONTINUOUS1
100
AcDbLine
 10
10.51021492841701
 20
6.767577400125294
 30
0.0
 11
10.57968548104653
 21
6.699138327804615
 31
0.0
  0
ARC
  5
197F2
330
1F
100
AcDbEntity
  8
CONTINUOUS1
100
AcDbCircle
 10
10.49125336786646
 20
6.767435579158559
 30
0.0
 40
0.0838013941769334
100
AcDbArc
 50
216.2216334506859
 51
234.635425893378
  0
LINE
  5
197F3
330
1F
100
AcDbEntity
  8
CONTINUOUS1
100
AcDbLine
 10
10.42164099427021
 20
6.854836212029796
 30
0.0
 11
10.49111154689973
 21
6.786397139709113
 31
0.0
  0
LINE
  5
197F4
330
1F
100
AcDbEntity
  8
CONTINUOUS1
100
AcDbLine
 10
10.40282125468639
 20
6.835732830512502
 30
0.0
 11
10.4722918073159
 21
6.767293758191823
 31
0.0
  0
LINE
  5
197F5
330
1F
100
AcDbEntity
  8
CONTINUOUS1
100
AcDbLine
 10
10.4236476610183
 20
6.717916471053112
 30
0.0
 11
10.4722918073159
 21
6.767293758191823
 31
0.0
  0
LINE
  5
197F6
330
1F
100
AcDbEntity
  8
CONTINUOUS1
100
AcDbLine
 10
10.4427510425356
 20
6.699096731469292
 30
0.0
 11
10.49139518883319
 21
6.748474018608004
 31
0.0
  0
CIRCLE
  5
197F7
330
1F
100
AcDbEntity
  8
CONTINUOUS1
100
AcDbCircle
 10
10.49125336786646
 20
6.767435579158559
 30
0.0
 40
0.1117351922359111
  0
LINE
  5
197F8
330
1F
100
AcDbEntity
  8
CONTINUOUS1
100
AcDbLine
 10
10.49111154689973
 20
6.786397139709113
 30
0.0
 11
10.53975569319733
 21
6.835774426847824
 31
0.0
  0
LINE
  5
197F9
330
1F
100
AcDbEntity
  8
CONTINUOUS1
100
AcDbLine
 10
10.49139518883319
 20
6.748474018608004
 30
0.0
 11
10.56086574146271
 21
6.680034946287325
 31
0.0
  0
LINE
  5
197FA
330
1F
100
AcDbEntity
  8
CONTINUOUS1
100
AcDbLine
 10
12.21878642841701
 20
4.772293758191823
 30
0.0
 11
12.26743057471462
 21
4.722916471053111
 31
0.0
  0
ARC
  5
197FB
330
1F
100
AcDbEntity
  8
CONTINUOUS1
100
AcDbCircle
 10
12.19982486786646
 20
4.772435579158558
 30
0.0
 40
0.0838013941769334
100
AcDbArc
 50
305.3645741066226
 51
323.7783665493139
  0
LINE
  5
197FC
330
1F
100
AcDbEntity
  8
CONTINUOUS1
100
AcDbLine
 10
12.21878642841701
 20
4.772293758191823
 30
0.0
 11
12.28825698104653
 21
4.840732830512501
 31
0.0
  0
ARC
  5
197FD
330
1F
100
AcDbEntity
  8
CONTINUOUS1
100
AcDbCircle
 10
12.19982486786646
 20
4.772435579158558
 30
0.0
 40
0.0838013941769334
100
AcDbArc
 50
125.3645741066219
 51
143.7783665493139
  0
LINE
  5
197FE
330
1F
100
AcDbEntity
  8
CONTINUOUS1
100
AcDbLine
 10
12.13021249427021
 20
4.685034946287321
 30
0.0
 11
12.19968304689973
 21
4.753474018608003
 31
0.0
  0
LINE
  5
197FF
330
1F
100
AcDbEntity
  8
CONTINUOUS1
100
AcDbLine
 10
12.11139275468639
 20
4.704138327804615
 30
0.0
 11
12.18086330731591
 21
4.772577400125292
 31
0.0
  0
LINE
  5
19800
330
1F
100
AcDbEntity
  8
CONTINUOUS1
100
AcDbLine
 10
12.1322191610183
 20
4.821954687264005
 30
0.0
 11
12.18086330731591
 21
4.772577400125292
 31
0.0
  0
LINE
  5
19801
330
1F
100
AcDbEntity
  8
CONTINUOUS1
100
AcDbLine
 10
12.1513225425356
 20
4.840774426847825
 30
0.0
 11
12.19996668883319
 21
4.791397139709113
 31
0.0
  0
CIRCLE
  5
19802
330
1F
100
AcDbEntity
  8
CONTINUOUS1
100
AcDbCircle
 10
12.19982486786646
 20
4.772435579158558
 30
0.0
 40
0.1117351922359111
  0
LINE
  5
19803
330
1F
100
AcDbEntity
  8
CONTINUOUS1
100
AcDbLine
 10
12.19968304689973
 20
4.753474018608003
 30
0.0
 11
12.24832719319733
 21
4.704096731469292
 31
0.0
  0
LINE
  5
19804
330
1F
100
AcDbEntity
  8
CONTINUOUS1
100
AcDbLine
 10
12.19996668883319
 20
4.791397139709113
 30
0.0
 11
12.26943724146271
 21
4.85983621202979
 31
0.0
  0
LINE
  5
19805
330
1F
100
AcDbEntity
  8
CONTINUOUS1
100
AcDbLine
 10
11.87707212841701
 20
4.772293758191823
 30
0.0
 11
11.92571627471462
 21
4.722916471053111
 31
0.0
  0
ARC
  5
19806
330
1F
100
AcDbEntity
  8
CONTINUOUS1
100
AcDbCircle
 10
11.85811056786646
 20
4.772435579158558
 30
0.0
 40
0.0838013941769334
100
AcDbArc
 50
305.3645741066226
 51
323.7783665493139
  0
LINE
  5
19807
330
1F
100
AcDbEntity
  8
CONTINUOUS1
100
AcDbLine
 10
11.87707212841701
 20
4.772293758191823
 30
0.0
 11
11.94654268104653
 21
4.840732830512501
 31
0.0
  0
ARC
  5
19808
330
1F
100
AcDbEntity
  8
CONTINUOUS1
100
AcDbCircle
 10
11.85811056786646
 20
4.772435579158558
 30
0.0
 40
0.0838013941769334
100
AcDbArc
 50
125.3645741066219
 51
143.7783665493139
  0
LINE
  5
19809
330
1F
100
AcDbEntity
  8
CONTINUOUS1
100
AcDbLine
 10
11.78849819427021
 20
4.685034946287321
 30
0.0
 11
11.85796874689973
 21
4.753474018608003
 31
0.0
  0
LINE
  5
1980A
330
1F
100
AcDbEntity
  8
CONTINUOUS1
100
AcDbLine
 10
11.76967845468639
 20
4.704138327804615
 30
0.0
 11
11.83914900731591
 21
4.772577400125292
 31
0.0
  0
LINE
  5
1980B
330
1F
100
AcDbEntity
  8
CONTINUOUS1
100
AcDbLine
 10
11.7905048610183
 20
4.821954687264005
 30
0.0
 11
11.83914900731591
 21
4.772577400125292
 31
0.0
  0
LINE
  5
1980C
330
1F
100
AcDbEntity
  8
CONTINUOUS1
100
AcDbLine
 10
11.8096082425356
 20
4.840774426847825
 30
0.0
 11
11.85825238883319
 21
4.791397139709113
 31
0.0
  0
CIRCLE
  5
1980D
330
1F
100
AcDbEntity
  8
CONTINUOUS1
100
AcDbCircle
 10
11.85811056786646
 20
4.772435579158558
 30
0.0
 40
0.1117351922359111
  0
LINE
  5
1980E
330
1F
100
AcDbEntity
  8
CONTINUOUS1
100
AcDbLine
 10
11.85796874689973
 20
4.753474018608003
 30
0.0
 11
11.90661289319733
 21
4.704096731469292
 31
0.0
  0
LINE
  5
1980F
330
1F
100
AcDbEntity
  8
CONTINUOUS1
100
AcDbLine
 10
11.85825238883319
 20
4.791397139709113
 30
0.0
 11
11.92772294146271
 21
4.85983621202979
 31
0.0
  0
LINE
  5
19810
330
1F
100
AcDbEntity
  8
CONTINUOUS1
100
AcDbLine
 10
12.90221502841702
 20
4.772293758191823
 30
0.0
 11
12.95085917471462
 21
4.722916471053111
 31
0.0
  0
ARC
  5
19811
330
1F
100
AcDbEntity
  8
CONTINUOUS1
100
AcDbCircle
 10
12.88325346786646
 20
4.772435579158558
 30
0.0
 40
0.0838013941769334
100
AcDbArc
 50
305.3645741066226
 51
323.7783665493139
  0
LINE
  5
19812
330
1F
100
AcDbEntity
  8
CONTINUOUS1
100
AcDbLine
 10
12.90221502841702
 20
4.772293758191823
 30
0.0
 11
12.97168558104653
 21
4.840732830512501
 31
0.0
  0
ARC
  5
19813
330
1F
100
AcDbEntity
  8
CONTINUOUS1
100
AcDbCircle
 10
12.88325346786646
 20
4.772435579158558
 30
0.0
 40
0.0838013941769334
100
AcDbArc
 50
125.3645741066219
 51
143.7783665493139
  0
LINE
  5
19814
330
1F
100
AcDbEntity
  8
CONTINUOUS1
100
AcDbLine
 10
12.81364109427021
 20
4.685034946287321
 30
0.0
 11
12.88311164689973
 21
4.753474018608003
 31
0.0
  0
LINE
  5
19815
330
1F
100
AcDbEntity
  8
CONTINUOUS1
100
AcDbLine
 10
12.79482135468639
 20
4.704138327804615
 30
0.0
 11
12.86429190731591
 21
4.772577400125292
 31
0.0
  0
LINE
  5
19816
330
1F
100
AcDbEntity
  8
CONTINUOUS1
100
AcDbLine
 10
12.8156477610183
 20
4.821954687264005
 30
0.0
 11
12.86429190731591
 21
4.772577400125292
 31
0.0
  0
LINE
  5
19817
330
1F
100
AcDbEntity
  8
CONTINUOUS1
100
AcDbLine
 10
12.8347511425356
 20
4.840774426847825
 30
0.0
 11
12.88339528883319
 21
4.791397139709113
 31
0.0
  0
CIRCLE
  5
19818
330
1F
100
AcDbEntity
  8
CONTINUOUS1
100
AcDbCircle
 10
12.88325346786646
 20
4.772435579158558
 30
0.0
 40
0.1117351922359111
  0
LINE
  5
19819
330
1F
100
AcDbEntity
  8
CONTINUOUS1
100
AcDbLine
 10
12.88311164689973
 20
4.753474018608003
 30
0.0
 11
12.93175579319733
 21
4.704096731469292
 31
0.0
  0
LINE
  5
1981A
330
1F
100
AcDbEntity
  8
CONTINUOUS1
100
AcDbLine
 10
12.88339528883319
 20
4.791397139709113
 30
0.0
 11
12.95286584146271
 21
4.85983621202979
 31
0.0
  0
LINE
  5
1981B
330
1F
100
AcDbEntity
  8
CONTINUOUS1
100
AcDbLine
 10
12.56050072841702
 20
4.772293758191823
 30
0.0
 11
12.60914487471462
 21
4.722916471053111
 31
0.0
  0
ARC
  5
1981C
330
1F
100
AcDbEntity
  8
CONTINUOUS1
100
AcDbCircle
 10
12.54153916786646
 20
4.772435579158558
 30
0.0
 40
0.0838013941769334
100
AcDbArc
 50
305.3645741066226
 51
323.7783665493139
  0
LINE
  5
1981D
330
1F
100
AcDbEntity
  8
CONTINUOUS1
100
AcDbLine
 10
12.56050072841702
 20
4.772293758191823
 30
0.0
 11
12.62997128104653
 21
4.840732830512501
 31
0.0
  0
ARC
  5
1981E
330
1F
100
AcDbEntity
  8
CONTINUOUS1
100
AcDbCircle
 10
12.54153916786646
 20
4.772435579158558
 30
0.0
 40
0.0838013941769334
100
AcDbArc
 50
125.3645741066219
 51
143.7783665493139
  0
LINE
  5
1981F
330
1F
100
AcDbEntity
  8
CONTINUOUS1
100
AcDbLine
 10
12.47192679427021
 20
4.685034946287321
 30
0.0
 11
12.54139734689973
 21
4.753474018608003
 31
0.0
  0
LINE
  5
19820
330
1F
100
AcDbEntity
  8
CONTINUOUS1
100
AcDbLine
 10
12.45310705468639
 20
4.704138327804615
 30
0.0
 11
12.52257760731591
 21
4.772577400125292
 31
0.0
  0
LINE
  5
19821
330
1F
100
AcDbEntity
  8
CONTINUOUS1
100
AcDbLine
 10
12.4739334610183
 20
4.821954687264005
 30
0.0
 11
12.52257760731591
 21
4.772577400125292
 31
0.0
  0
LINE
  5
19822
330
1F
100
AcDbEntity
  8
CONTINUOUS1
100
AcDbLine
 10
12.4930368425356
 20
4.840774426847825
 30
0.0
 11
12.5416809888332
 21
4.791397139709113
 31
0.0
  0
CIRCLE
  5
19823
330
1F
100
AcDbEntity
  8
CONTINUOUS1
100
AcDbCircle
 10
12.54153916786646
 20
4.772435579158558
 30
0.0
 40
0.1117351922359111
  0
LINE
  5
19824
330
1F
100
AcDbEntity
  8
CONTINUOUS1
100
AcDbLine
 10
12.54139734689973
 20
4.753474018608003
 30
0.0
 11
12.59004149319733
 21
4.704096731469292
 31
0.0
  0
LINE
  5
19825
330
1F
100
AcDbEntity
  8
CONTINUOUS1
100
AcDbLine
 10
12.5416809888332
 20
4.791397139709113
 30
0.0
 11
12.61115154146271
 21
4.85983621202979
 31
0.0
  0
LINE
  5
19826
330
1F
100
AcDbEntity
  8
CONTINUOUS1
100
AcDbLine
 10
13.58564362841702
 20
4.772293758191823
 30
0.0
 11
13.63428777471462
 21
4.722916471053111
 31
0.0
  0
ARC
  5
19827
330
1F
100
AcDbEntity
  8
CONTINUOUS1
100
AcDbCircle
 10
13.56668206786646
 20
4.772435579158558
 30
0.0
 40
0.0838013941769334
100
AcDbArc
 50
305.3645741066226
 51
323.7783665493139
  0
LINE
  5
19828
330
1F
100
AcDbEntity
  8
CONTINUOUS1
100
AcDbLine
 10
13.58564362841702
 20
4.772293758191823
 30
0.0
 11
13.65511418104653
 21
4.840732830512501
 31
0.0
  0
ARC
  5
19829
330
1F
100
AcDbEntity
  8
CONTINUOUS1
100
AcDbCircle
 10
13.56668206786646
 20
4.772435579158558
 30
0.0
 40
0.0838013941769334
100
AcDbArc
 50
125.3645741066219
 51
143.7783665493139
  0
LINE
  5
1982A
330
1F
100
AcDbEntity
  8
CONTINUOUS1
100
AcDbLine
 10
13.49706969427022
 20
4.685034946287321
 30
0.0
 11
13.56654024689973
 21
4.753474018608003
 31
0.0
  0
LINE
  5
1982B
330
1F
100
AcDbEntity
  8
CONTINUOUS1
100
AcDbLine
 10
13.4782499546864
 20
4.704138327804615
 30
0.0
 11
13.54772050731591
 21
4.772577400125292
 31
0.0
  0
LINE
  5
1982C
330
1F
100
AcDbEntity
  8
CONTINUOUS1
100
AcDbLine
 10
13.4990763610183
 20
4.821954687264005
 30
0.0
 11
13.54772050731591
 21
4.772577400125292
 31
0.0
  0
LINE
  5
1982D
330
1F
100
AcDbEntity
  8
CONTINUOUS1
100
AcDbLine
 10
13.5181797425356
 20
4.840774426847825
 30
0.0
 11
13.5668238888332
 21
4.791397139709113
 31
0.0
  0
CIRCLE
  5
1982E
330
1F
100
AcDbEntity
  8
CONTINUOUS1
100
AcDbCircle
 10
13.56668206786646
 20
4.772435579158558
 30
0.0
 40
0.1117351922359111
  0
LINE
  5
1982F
330
1F
100
AcDbEntity
  8
CONTINUOUS1
100
AcDbLine
 10
13.56654024689973
 20
4.753474018608003
 30
0.0
 11
13.61518439319733
 21
4.704096731469292
 31
0.0
  0
LINE
  5
19830
330
1F
100
AcDbEntity
  8
CONTINUOUS1
100
AcDbLine
 10
13.5668238888332
 20
4.791397139709113
 30
0.0
 11
13.63629444146271
 21
4.85983621202979
 31
0.0
  0
LINE
  5
19831
330
1F
100
AcDbEntity
  8
CONTINUOUS1
100
AcDbLine
 10
13.24392932841702
 20
4.772293758191823
 30
0.0
 11
13.29257347471462
 21
4.722916471053111
 31
0.0
  0
ARC
  5
19832
330
1F
100
AcDbEntity
  8
CONTINUOUS1
100
AcDbCircle
 10
13.22496776786646
 20
4.772435579158558
 30
0.0
 40
0.0838013941769334
100
AcDbArc
 50
305.3645741066226
 51
323.7783665493139
  0
LINE
  5
19833
330
1F
100
AcDbEntity
  8
CONTINUOUS1
100
AcDbLine
 10
13.24392932841702
 20
4.772293758191823
 30
0.0
 11
13.31339988104653
 21
4.840732830512501
 31
0.0
  0
ARC
  5
19834
330
1F
100
AcDbEntity
  8
CONTINUOUS1
100
AcDbCircle
 10
13.22496776786646
 20
4.772435579158558
 30
0.0
 40
0.0838013941769334
100
AcDbArc
 50
125.3645741066219
 51
143.7783665493139
  0
LINE
  5
19835
330
1F
100
AcDbEntity
  8
CONTINUOUS1
100
AcDbLine
 10
13.15535539427021
 20
4.685034946287321
 30
0.0
 11
13.22482594689973
 21
4.753474018608003
 31
0.0
  0
LINE
  5
19836
330
1F
100
AcDbEntity
  8
CONTINUOUS1
100
AcDbLine
 10
13.13653565468639
 20
4.704138327804615
 30
0.0
 11
13.20600620731591
 21
4.772577400125292
 31
0.0
  0
LINE
  5
19837
330
1F
100
AcDbEntity
  8
CONTINUOUS1
100
AcDbLine
 10
13.1573620610183
 20
4.821954687264005
 30
0.0
 11
13.20600620731591
 21
4.772577400125292
 31
0.0
  0
LINE
  5
19838
330
1F
100
AcDbEntity
  8
CONTINUOUS1
100
AcDbLine
 10
13.1764654425356
 20
4.840774426847825
 30
0.0
 11
13.22510958883319
 21
4.791397139709113
 31
0.0
  0
CIRCLE
  5
19839
330
1F
100
AcDbEntity
  8
CONTINUOUS1
100
AcDbCircle
 10
13.22496776786646
 20
4.772435579158558
 30
0.0
 40
0.1117351922359111
  0
LINE
  5
1983A
330
1F
100
AcDbEntity
  8
CONTINUOUS1
100
AcDbLine
 10
13.22482594689973
 20
4.753474018608003
 30
0.0
 11
13.27347009319733
 21
4.704096731469292
 31
0.0
  0
LINE
  5
1983B
330
1F
100
AcDbEntity
  8
CONTINUOUS1
100
AcDbLine
 10
13.22510958883319
 20
4.791397139709113
 30
0.0
 11
13.29458014146271
 21
4.85983621202979
 31
0.0
  0
LINE
  5
1983C
330
1F
100
AcDbEntity
  8
CONTINUOUS1
100
AcDbLine
 10
13.92735792841702
 20
4.772293758191823
 30
0.0
 11
13.97600207471462
 21
4.722916471053111
 31
0.0
  0
ARC
  5
1983D
330
1F
100
AcDbEntity
  8
CONTINUOUS1
100
AcDbCircle
 10
13.90839636786647
 20
4.772435579158558
 30
0.0
 40
0.0838013941769334
100
AcDbArc
 50
305.3645741066226
 51
323.7783665493139
  0
LINE
  5
1983E
330
1F
100
AcDbEntity
  8
CONTINUOUS1
100
AcDbLine
 10
13.92735792841702
 20
4.772293758191823
 30
0.0
 11
13.99682848104653
 21
4.840732830512501
 31
0.0
  0
ARC
  5
1983F
330
1F
100
AcDbEntity
  8
CONTINUOUS1
100
AcDbCircle
 10
13.90839636786647
 20
4.772435579158558
 30
0.0
 40
0.0838013941769334
100
AcDbArc
 50
125.3645741066219
 51
143.7783665493139
  0
LINE
  5
19840
330
1F
100
AcDbEntity
  8
CONTINUOUS1
100
AcDbLine
 10
13.83878399427021
 20
4.685034946287321
 30
0.0
 11
13.90825454689973
 21
4.753474018608003
 31
0.0
  0
LINE
  5
19841
330
1F
100
AcDbEntity
  8
CONTINUOUS1
100
AcDbLine
 10
13.81996425468639
 20
4.704138327804615
 30
0.0
 11
13.88943480731591
 21
4.772577400125292
 31
0.0
  0
LINE
  5
19842
330
1F
100
AcDbEntity
  8
CONTINUOUS1
100
AcDbLine
 10
13.8407906610183
 20
4.821954687264005
 30
0.0
 11
13.88943480731591
 21
4.772577400125292
 31
0.0
  0
LINE
  5
19843
330
1F
100
AcDbEntity
  8
CONTINUOUS1
100
AcDbLine
 10
13.85989404253561
 20
4.840774426847825
 30
0.0
 11
13.9085381888332
 21
4.791397139709113
 31
0.0
  0
CIRCLE
  5
19844
330
1F
100
AcDbEntity
  8
CONTINUOUS1
100
AcDbCircle
 10
13.90839636786647
 20
4.772435579158558
 30
0.0
 40
0.1117351922359111
  0
LINE
  5
19845
330
1F
100
AcDbEntity
  8
CONTINUOUS1
100
AcDbLine
 10
13.90825454689973
 20
4.753474018608003
 30
0.0
 11
13.95689869319733
 21
4.704096731469292
 31
0.0
  0
LINE
  5
19846
330
1F
100
AcDbEntity
  8
CONTINUOUS1
100
AcDbLine
 10
13.9085381888332
 20
4.791397139709113
 30
0.0
 11
13.97800874146271
 21
4.85983621202979
 31
0.0
  0
LINE
  5
19847
330
1F
100
AcDbEntity
  8
CONTINUOUS1
100
AcDbLine
 10
14.12583089252237
 20
4.897346941054348
 30
0.0
 11
14.09542830108637
 21
4.866486136592654
 31
0.0
  0
ARC
  5
19848
330
1F
100
AcDbEntity
  8
CONTINUOUS1
100
AcDbCircle
 10
14.13768186786646
 20
4.897435579158558
 30
0.0
 40
0.0523758713605834
100
AcDbArc
 50
216.2216334506859
 51
234.6354258933772
  0
LINE
  5
19849
330
1F
100
AcDbEntity
  8
CONTINUOUS1
100
AcDbLine
 10
14.12583089252237
 20
4.897346941054348
 30
0.0
 11
14.08241179712892
 21
4.940121361254772
 31
0.0
  0
ARC
  5
1984A
330
1F
100
AcDbEntity
  8
CONTINUOUS1
100
AcDbCircle
 10
14.13768186786646
 20
4.897435579158558
 30
0.0
 40
0.0523758713605834
100
AcDbArc
 50
36.22163345068607
 51
54.63542589337803
  0
LINE
  5
1984B
330
1F
100
AcDbEntity
  8
CONTINUOUS1
100
AcDbLine
 10
14.18118960136412
 20
4.842810183614035
 30
0.0
 11
14.13777050597067
 21
4.885584603814462
 31
0.0
  0
LINE
  5
1984C
330
1F
100
AcDbEntity
  8
CONTINUOUS1
100
AcDbLine
 10
14.192951938604
 20
4.854749797062344
 30
0.0
 11
14.14953284321056
 21
4.897524217262767
 31
0.0
  0
LINE
  5
1984D
330
1F
100
AcDbEntity
  8
CONTINUOUS1
100
AcDbLine
 10
14.17993543464656
 20
4.928385021724462
 30
0.0
 11
14.14953284321056
 21
4.897524217262767
 31
0.0
  0
LINE
  5
1984E
330
1F
100
AcDbEntity
  8
CONTINUOUS1
100
AcDbLine
 10
14.16799582119825
 20
4.94014735896435
 30
0.0
 11
14.13759322976225
 21
4.909286554502655
 31
0.0
  0
CIRCLE
  5
1984F
330
1F
100
AcDbEntity
  8
CONTINUOUS1
100
AcDbCircle
 10
14.13768186786646
 20
4.897435579158558
 30
0.0
 40
0.0698344951474445
  0
LINE
  5
19850
330
1F
100
AcDbEntity
  8
CONTINUOUS1
100
AcDbLine
 10
14.13777050597067
 20
4.885584603814462
 30
0.0
 11
14.10736791453467
 21
4.854723799352766
 31
0.0
  0
LINE
  5
19851
330
1F
100
AcDbEntity
  8
CONTINUOUS1
100
AcDbLine
 10
14.13759322976225
 20
4.909286554502655
 30
0.0
 11
14.09417413436881
 21
4.952060974703078
 31
0.0
  0
LINE
  5
19852
330
1F
100
AcDbEntity
  8
CONTINUOUS1
100
AcDbLine
 10
12.56050072841702
 20
6.767577400125294
 30
0.0
 11
12.60914487471462
 21
6.816954687264005
 31
0.0
  0
ARC
  5
19853
330
1F
100
AcDbEntity
  8
CONTINUOUS1
100
AcDbCircle
 10
12.54153916786646
 20
6.767435579158559
 30
0.0
 40
0.0838013941769334
100
AcDbArc
 50
36.22163345068607
 51
54.63542589337728
  0
LINE
  5
19854
330
1F
100
AcDbEntity
  8
CONTINUOUS1
100
AcDbLine
 10
12.56050072841702
 20
6.767577400125294
 30
0.0
 11
12.62997128104653
 21
6.699138327804615
 31
0.0
  0
ARC
  5
19855
330
1F
100
AcDbEntity
  8
CONTINUOUS1
100
AcDbCircle
 10
12.54153916786646
 20
6.767435579158559
 30
0.0
 40
0.0838013941769334
100
AcDbArc
 50
216.2216334506859
 51
234.635425893378
  0
LINE
  5
19856
330
1F
100
AcDbEntity
  8
CONTINUOUS1
100
AcDbLine
 10
12.47192679427021
 20
6.854836212029796
 30
0.0
 11
12.54139734689973
 21
6.786397139709113
 31
0.0
  0
LINE
  5
19857
330
1F
100
AcDbEntity
  8
CONTINUOUS1
100
AcDbLine
 10
12.45310705468639
 20
6.835732830512502
 30
0.0
 11
12.52257760731591
 21
6.767293758191823
 31
0.0
  0
LINE
  5
19858
330
1F
100
AcDbEntity
  8
CONTINUOUS1
100
AcDbLine
 10
12.4739334610183
 20
6.717916471053112
 30
0.0
 11
12.52257760731591
 21
6.767293758191823
 31
0.0
  0
LINE
  5
19859
330
1F
100
AcDbEntity
  8
CONTINUOUS1
100
AcDbLine
 10
12.4930368425356
 20
6.699096731469292
 30
0.0
 11
12.5416809888332
 21
6.748474018608004
 31
0.0
  0
CIRCLE
  5
1985A
330
1F
100
AcDbEntity
  8
CONTINUOUS1
100
AcDbCircle
 10
12.54153916786646
 20
6.767435579158559
 30
0.0
 40
0.1117351922359111
  0
LINE
  5
1985B
330
1F
100
AcDbEntity
  8
CONTINUOUS1
100
AcDbLine
 10
12.54139734689973
 20
6.786397139709113
 30
0.0
 11
12.59004149319733
 21
6.835774426847824
 31
0.0
  0
LINE
  5
1985C
330
1F
100
AcDbEntity
  8
CONTINUOUS1
100
AcDbLine
 10
12.5416809888332
 20
6.748474018608004
 30
0.0
 11
12.61115154146271
 21
6.680034946287325
 31
0.0
  0
LINE
  5
1985D
330
1F
100
AcDbEntity
  8
CONTINUOUS1
100
AcDbLine
 10
12.90221502841702
 20
6.767577400125294
 30
0.0
 11
12.95085917471462
 21
6.816954687264005
 31
0.0
  0
ARC
  5
1985E
330
1F
100
AcDbEntity
  8
CONTINUOUS1
100
AcDbCircle
 10
12.88325346786646
 20
6.767435579158559
 30
0.0
 40
0.0838013941769334
100
AcDbArc
 50
36.22163345068607
 51
54.63542589337728
  0
LINE
  5
1985F
330
1F
100
AcDbEntity
  8
CONTINUOUS1
100
AcDbLine
 10
12.90221502841702
 20
6.767577400125294
 30
0.0
 11
12.97168558104653
 21
6.699138327804615
 31
0.0
  0
ARC
  5
19860
330
1F
100
AcDbEntity
  8
CONTINUOUS1
100
AcDbCircle
 10
12.88325346786646
 20
6.767435579158559
 30
0.0
 40
0.0838013941769334
100
AcDbArc
 50
216.2216334506859
 51
234.635425893378
  0
LINE
  5
19861
330
1F
100
AcDbEntity
  8
CONTINUOUS1
100
AcDbLine
 10
12.81364109427021
 20
6.854836212029796
 30
0.0
 11
12.88311164689973
 21
6.786397139709113
 31
0.0
  0
LINE
  5
19862
330
1F
100
AcDbEntity
  8
CONTINUOUS1
100
AcDbLine
 10
12.79482135468639
 20
6.835732830512502
 30
0.0
 11
12.86429190731591
 21
6.767293758191823
 31
0.0
  0
LINE
  5
19863
330
1F
100
AcDbEntity
  8
CONTINUOUS1
100
AcDbLine
 10
12.8156477610183
 20
6.717916471053112
 30
0.0
 11
12.86429190731591
 21
6.767293758191823
 31
0.0
  0
LINE
  5
19864
330
1F
100
AcDbEntity
  8
CONTINUOUS1
100
AcDbLine
 10
12.8347511425356
 20
6.699096731469292
 30
0.0
 11
12.88339528883319
 21
6.748474018608004
 31
0.0
  0
CIRCLE
  5
19865
330
1F
100
AcDbEntity
  8
CONTINUOUS1
100
AcDbCircle
 10
12.88325346786646
 20
6.767435579158559
 30
0.0
 40
0.1117351922359111
  0
LINE
  5
19866
330
1F
100
AcDbEntity
  8
CONTINUOUS1
100
AcDbLine
 10
12.88311164689973
 20
6.786397139709113
 30
0.0
 11
12.93175579319733
 21
6.835774426847824
 31
0.0
  0
LINE
  5
19867
330
1F
100
AcDbEntity
  8
CONTINUOUS1
100
AcDbLine
 10
12.88339528883319
 20
6.748474018608004
 30
0.0
 11
12.95286584146271
 21
6.680034946287325
 31
0.0
  0
LINE
  5
19868
330
1F
100
AcDbEntity
  8
CONTINUOUS1
100
AcDbLine
 10
11.87707212841701
 20
6.767577400125294
 30
0.0
 11
11.92571627471462
 21
6.816954687264005
 31
0.0
  0
ARC
  5
19869
330
1F
100
AcDbEntity
  8
CONTINUOUS1
100
AcDbCircle
 10
11.85811056786646
 20
6.767435579158559
 30
0.0
 40
0.0838013941769334
100
AcDbArc
 50
36.22163345068607
 51
54.63542589337728
  0
LINE
  5
1986A
330
1F
100
AcDbEntity
  8
CONTINUOUS1
100
AcDbLine
 10
11.87707212841701
 20
6.767577400125294
 30
0.0
 11
11.94654268104653
 21
6.699138327804615
 31
0.0
  0
ARC
  5
1986B
330
1F
100
AcDbEntity
  8
CONTINUOUS1
100
AcDbCircle
 10
11.85811056786646
 20
6.767435579158559
 30
0.0
 40
0.0838013941769334
100
AcDbArc
 50
216.2216334506859
 51
234.635425893378
  0
LINE
  5
1986C
330
1F
100
AcDbEntity
  8
CONTINUOUS1
100
AcDbLine
 10
11.78849819427021
 20
6.854836212029796
 30
0.0
 11
11.85796874689973
 21
6.786397139709113
 31
0.0
  0
LINE
  5
1986D
330
1F
100
AcDbEntity
  8
CONTINUOUS1
100
AcDbLine
 10
11.76967845468639
 20
6.835732830512502
 30
0.0
 11
11.83914900731591
 21
6.767293758191823
 31
0.0
  0
LINE
  5
1986E
330
1F
100
AcDbEntity
  8
CONTINUOUS1
100
AcDbLine
 10
11.7905048610183
 20
6.717916471053112
 30
0.0
 11
11.83914900731591
 21
6.767293758191823
 31
0.0
  0
LINE
  5
1986F
330
1F
100
AcDbEntity
  8
CONTINUOUS1
100
AcDbLine
 10
11.8096082425356
 20
6.699096731469292
 30
0.0
 11
11.85825238883319
 21
6.748474018608004
 31
0.0
  0
CIRCLE
  5
19870
330
1F
100
AcDbEntity
  8
CONTINUOUS1
100
AcDbCircle
 10
11.85811056786646
 20
6.767435579158559
 30
0.0
 40
0.1117351922359111
  0
LINE
  5
19871
330
1F
100
AcDbEntity
  8
CONTINUOUS1
100
AcDbLine
 10
11.85796874689973
 20
6.786397139709113
 30
0.0
 11
11.90661289319733
 21
6.835774426847824
 31
0.0
  0
LINE
  5
19872
330
1F
100
AcDbEntity
  8
CONTINUOUS1
100
AcDbLine
 10
11.85825238883319
 20
6.748474018608004
 30
0.0
 11
11.92772294146271
 21
6.680034946287325
 31
0.0
  0
LINE
  5
19873
330
1F
100
AcDbEntity
  8
CONTINUOUS1
100
AcDbLine
 10
12.21878642841701
 20
6.767577400125294
 30
0.0
 11
12.26743057471462
 21
6.816954687264005
 31
0.0
  0
ARC
  5
19874
330
1F
100
AcDbEntity
  8
CONTINUOUS1
100
AcDbCircle
 10
12.19982486786646
 20
6.767435579158559
 30
0.0
 40
0.0838013941769334
100
AcDbArc
 50
36.22163345068607
 51
54.63542589337728
  0
LINE
  5
19875
330
1F
100
AcDbEntity
  8
CONTINUOUS1
100
AcDbLine
 10
12.21878642841701
 20
6.767577400125294
 30
0.0
 11
12.28825698104653
 21
6.699138327804615
 31
0.0
  0
ARC
  5
19876
330
1F
100
AcDbEntity
  8
CONTINUOUS1
100
AcDbCircle
 10
12.19982486786646
 20
6.767435579158559
 30
0.0
 40
0.0838013941769334
100
AcDbArc
 50
216.2216334506859
 51
234.635425893378
  0
LINE
  5
19877
330
1F
100
AcDbEntity
  8
CONTINUOUS1
100
AcDbLine
 10
12.13021249427021
 20
6.854836212029796
 30
0.0
 11
12.19968304689973
 21
6.786397139709113
 31
0.0
  0
LINE
  5
19878
330
1F
100
AcDbEntity
  8
CONTINUOUS1
100
AcDbLine
 10
12.11139275468639
 20
6.835732830512502
 30
0.0
 11
12.18086330731591
 21
6.767293758191823
 31
0.0
  0
LINE
  5
19879
330
1F
100
AcDbEntity
  8
CONTINUOUS1
100
AcDbLine
 10
12.1322191610183
 20
6.717916471053112
 30
0.0
 11
12.18086330731591
 21
6.767293758191823
 31
0.0
  0
LINE
  5
1987A
330
1F
100
AcDbEntity
  8
CONTINUOUS1
100
AcDbLine
 10
12.1513225425356
 20
6.699096731469292
 30
0.0
 11
12.19996668883319
 21
6.748474018608004
 31
0.0
  0
CIRCLE
  5
1987B
330
1F
100
AcDbEntity
  8
CONTINUOUS1
100
AcDbCircle
 10
12.19982486786646
 20
6.767435579158559
 30
0.0
 40
0.1117351922359111
  0
LINE
  5
1987C
330
1F
100
AcDbEntity
  8
CONTINUOUS1
100
AcDbLine
 10
12.19968304689973
 20
6.786397139709113
 30
0.0
 11
12.24832719319733
 21
6.835774426847824
 31
0.0
  0
LINE
  5
1987D
330
1F
100
AcDbEntity
  8
CONTINUOUS1
100
AcDbLine
 10
12.19996668883319
 20
6.748474018608004
 30
0.0
 11
12.26943724146271
 21
6.680034946287325
 31
0.0
  0
LINE
  5
1987E
330
1F
100
AcDbEntity
  8
CONTINUOUS1
100
AcDbLine
 10
13.92735792841702
 20
6.767577400125294
 30
0.0
 11
13.97600207471462
 21
6.816954687264005
 31
0.0
  0
ARC
  5
1987F
330
1F
100
AcDbEntity
  8
CONTINUOUS1
100
AcDbCircle
 10
13.90839636786647
 20
6.767435579158559
 30
0.0
 40
0.0838013941769334
100
AcDbArc
 50
36.22163345068607
 51
54.63542589337728
  0
LINE
  5
19880
330
1F
100
AcDbEntity
  8
CONTINUOUS1
100
AcDbLine
 10
13.92735792841702
 20
6.767577400125294
 30
0.0
 11
13.99682848104653
 21
6.699138327804615
 31
0.0
  0
ARC
  5
19881
330
1F
100
AcDbEntity
  8
CONTINUOUS1
100
AcDbCircle
 10
13.90839636786647
 20
6.767435579158559
 30
0.0
 40
0.0838013941769334
100
AcDbArc
 50
216.2216334506859
 51
234.635425893378
  0
LINE
  5
19882
330
1F
100
AcDbEntity
  8
CONTINUOUS1
100
AcDbLine
 10
13.83878399427021
 20
6.854836212029796
 30
0.0
 11
13.90825454689973
 21
6.786397139709113
 31
0.0
  0
LINE
  5
19883
330
1F
100
AcDbEntity
  8
CONTINUOUS1
100
AcDbLine
 10
13.81996425468639
 20
6.835732830512502
 30
0.0
 11
13.88943480731591
 21
6.767293758191823
 31
0.0
  0
LINE
  5
19884
330
1F
100
AcDbEntity
  8
CONTINUOUS1
100
AcDbLine
 10
13.8407906610183
 20
6.717916471053112
 30
0.0
 11
13.88943480731591
 21
6.767293758191823
 31
0.0
  0
LINE
  5
19885
330
1F
100
AcDbEntity
  8
CONTINUOUS1
100
AcDbLine
 10
13.85989404253561
 20
6.699096731469292
 30
0.0
 11
13.9085381888332
 21
6.748474018608004
 31
0.0
  0
CIRCLE
  5
19886
330
1F
100
AcDbEntity
  8
CONTINUOUS1
100
AcDbCircle
 10
13.90839636786647
 20
6.767435579158559
 30
0.0
 40
0.1117351922359111
  0
LINE
  5
19887
330
1F
100
AcDbEntity
  8
CONTINUOUS1
100
AcDbLine
 10
13.90825454689973
 20
6.786397139709113
 30
0.0
 11
13.95689869319733
 21
6.835774426847824
 31
0.0
  0
LINE
  5
19888
330
1F
100
AcDbEntity
  8
CONTINUOUS1
100
AcDbLine
 10
13.9085381888332
 20
6.748474018608004
 30
0.0
 11
13.97800874146271
 21
6.680034946287325
 31
0.0
  0
LINE
  5
19889
330
1F
100
AcDbEntity
  8
CONTINUOUS1
100
AcDbLine
 10
13.24392932841702
 20
6.767577400125294
 30
0.0
 11
13.29257347471462
 21
6.816954687264005
 31
0.0
  0
ARC
  5
1988A
330
1F
100
AcDbEntity
  8
CONTINUOUS1
100
AcDbCircle
 10
13.22496776786646
 20
6.767435579158559
 30
0.0
 40
0.0838013941769334
100
AcDbArc
 50
36.22163345068607
 51
54.63542589337728
  0
LINE
  5
1988B
330
1F
100
AcDbEntity
  8
CONTINUOUS1
100
AcDbLine
 10
13.24392932841702
 20
6.767577400125294
 30
0.0
 11
13.31339988104653
 21
6.699138327804615
 31
0.0
  0
ARC
  5
1988C
330
1F
100
AcDbEntity
  8
CONTINUOUS1
100
AcDbCircle
 10
13.22496776786646
 20
6.767435579158559
 30
0.0
 40
0.0838013941769334
100
AcDbArc
 50
216.2216334506859
 51
234.635425893378
  0
LINE
  5
1988D
330
1F
100
AcDbEntity
  8
CONTINUOUS1
100
AcDbLine
 10
13.15535539427021
 20
6.854836212029796
 30
0.0
 11
13.22482594689973
 21
6.786397139709113
 31
0.0
  0
LINE
  5
1988E
330
1F
100
AcDbEntity
  8
CONTINUOUS1
100
AcDbLine
 10
13.13653565468639
 20
6.835732830512502
 30
0.0
 11
13.20600620731591
 21
6.767293758191823
 31
0.0
  0
LINE
  5
1988F
330
1F
100
AcDbEntity
  8
CONTINUOUS1
100
AcDbLine
 10
13.1573620610183
 20
6.717916471053112
 30
0.0
 11
13.20600620731591
 21
6.767293758191823
 31
0.0
  0
LINE
  5
19890
330
1F
100
AcDbEntity
  8
CONTINUOUS1
100
AcDbLine
 10
13.1764654425356
 20
6.699096731469292
 30
0.0
 11
13.22510958883319
 21
6.748474018608004
 31
0.0
  0
CIRCLE
  5
19891
330
1F
100
AcDbEntity
  8
CONTINUOUS1
100
AcDbCircle
 10
13.22496776786646
 20
6.767435579158559
 30
0.0
 40
0.1117351922359111
  0
LINE
  5
19892
330
1F
100
AcDbEntity
  8
CONTINUOUS1
100
AcDbLine
 10
13.22482594689973
 20
6.786397139709113
 30
0.0
 11
13.27347009319733
 21
6.835774426847824
 31
0.0
  0
LINE
  5
19893
330
1F
100
AcDbEntity
  8
CONTINUOUS1
100
AcDbLine
 10
13.22510958883319
 20
6.748474018608004
 30
0.0
 11
13.29458014146271
 21
6.680034946287325
 31
0.0
  0
LINE
  5
19894
330
1F
100
AcDbEntity
  8
CONTINUOUS1
100
AcDbLine
 10
13.58564362841702
 20
6.767577400125294
 30
0.0
 11
13.63428777471462
 21
6.816954687264005
 31
0.0
  0
ARC
  5
19895
330
1F
100
AcDbEntity
  8
CONTINUOUS1
100
AcDbCircle
 10
13.56668206786646
 20
6.767435579158559
 30
0.0
 40
0.0838013941769334
100
AcDbArc
 50
36.22163345068607
 51
54.63542589337728
  0
LINE
  5
19896
330
1F
100
AcDbEntity
  8
CONTINUOUS1
100
AcDbLine
 10
13.58564362841702
 20
6.767577400125294
 30
0.0
 11
13.65511418104653
 21
6.699138327804615
 31
0.0
  0
ARC
  5
19897
330
1F
100
AcDbEntity
  8
CONTINUOUS1
100
AcDbCircle
 10
13.56668206786646
 20
6.767435579158559
 30
0.0
 40
0.0838013941769334
100
AcDbArc
 50
216.2216334506859
 51
234.635425893378
  0
LINE
  5
19898
330
1F
100
AcDbEntity
  8
CONTINUOUS1
100
AcDbLine
 10
13.49706969427022
 20
6.854836212029796
 30
0.0
 11
13.56654024689973
 21
6.786397139709113
 31
0.0
  0
LINE
  5
19899
330
1F
100
AcDbEntity
  8
CONTINUOUS1
100
AcDbLine
 10
13.4782499546864
 20
6.835732830512502
 30
0.0
 11
13.54772050731591
 21
6.767293758191823
 31
0.0
  0
LINE
  5
1989A
330
1F
100
AcDbEntity
  8
CONTINUOUS1
100
AcDbLine
 10
13.4990763610183
 20
6.717916471053112
 30
0.0
 11
13.54772050731591
 21
6.767293758191823
 31
0.0
  0
LINE
  5
1989B
330
1F
100
AcDbEntity
  8
CONTINUOUS1
100
AcDbLine
 10
13.5181797425356
 20
6.699096731469292
 30
0.0
 11
13.5668238888332
 21
6.748474018608004
 31
0.0
  0
CIRCLE
  5
1989C
330
1F
100
AcDbEntity
  8
CONTINUOUS1
100
AcDbCircle
 10
13.56668206786646
 20
6.767435579158559
 30
0.0
 40
0.1117351922359111
  0
LINE
  5
1989D
330
1F
100
AcDbEntity
  8
CONTINUOUS1
100
AcDbLine
 10
13.56654024689973
 20
6.786397139709113
 30
0.0
 11
13.61518439319733
 21
6.835774426847824
 31
0.0
  0
LINE
  5
1989E
330
1F
100
AcDbEntity
  8
CONTINUOUS1
100
AcDbLine
 10
13.5668238888332
 20
6.748474018608004
 30
0.0
 11
13.63629444146271
 21
6.680034946287325
 31
0.0
  0
LINE
  5
1989F
330
1F
100
AcDbEntity
  8
CONTINUOUS1
100
AcDbLine
 10
14.12583089252237
 20
6.642524217262768
 30
0.0
 11
14.09542830108637
 21
6.673385021724462
 31
0.0
  0
ARC
  5
198A0
330
1F
100
AcDbEntity
  8
CONTINUOUS1
100
AcDbCircle
 10
14.13768186786646
 20
6.642435579158559
 30
0.0
 40
0.0523758713605834
100
AcDbArc
 50
125.3645741066227
 51
143.7783665493139
  0
LINE
  5
198A1
330
1F
100
AcDbEntity
  8
CONTINUOUS1
100
AcDbLine
 10
14.12583089252237
 20
6.642524217262768
 30
0.0
 11
14.08241179712892
 21
6.599749797062345
 31
0.0
  0
ARC
  5
198A2
330
1F
100
AcDbEntity
  8
CONTINUOUS1
100
AcDbCircle
 10
14.13768186786646
 20
6.642435579158559
 30
0.0
 40
0.0523758713605834
100
AcDbArc
 50
305.3645741066219
 51
323.7783665493139
  0
LINE
  5
198A3
330
1F
100
AcDbEntity
  8
CONTINUOUS1
100
AcDbLine
 10
14.18118960136412
 20
6.697060974703082
 30
0.0
 11
14.13777050597067
 21
6.654286554502655
 31
0.0
  0
LINE
  5
198A4
330
1F
100
AcDbEntity
  8
CONTINUOUS1
100
AcDbLine
 10
14.192951938604
 20
6.685121361254773
 30
0.0
 11
14.14953284321056
 21
6.642346941054349
 31
0.0
  0
LINE
  5
198A5
330
1F
100
AcDbEntity
  8
CONTINUOUS1
100
AcDbLine
 10
14.17993543464656
 20
6.611486136592655
 30
0.0
 11
14.14953284321056
 21
6.642346941054349
 31
0.0
  0
LINE
  5
198A6
330
1F
100
AcDbEntity
  8
CONTINUOUS1
100
AcDbLine
 10
14.16799582119825
 20
6.599723799352767
 30
0.0
 11
14.13759322976225
 21
6.630584603814463
 31
0.0
  0
CIRCLE
  5
198A7
330
1F
100
AcDbEntity
  8
CONTINUOUS1
100
AcDbCircle
 10
14.13768186786646
 20
6.642435579158559
 30
0.0
 40
0.0698344951474445
  0
LINE
  5
198A8
330
1F
100
AcDbEntity
  8
CONTINUOUS1
100
AcDbLine
 10
14.13777050597067
 20
6.654286554502655
 30
0.0
 11
14.10736791453467
 21
6.685147358964349
 31
0.0
  0
LINE
  5
198A9
330
1F
100
AcDbEntity
  8
CONTINUOUS1
100
AcDbLine
 10
14.13759322976225
 20
6.630584603814463
 30
0.0
 11
14.09417413436881
 21
6.587810183614037
 31
0.0
  0
LINE
  5
198AA
330
1F
100
AcDbEntity
  8
CONTINUOUS1
100
AcDbLine
 10
6.432681867866463
 20
7.147435579158558
 30
0.0
 11
6.432681867866463
 21
4.392435579158556
 31
0.0
  0
LINE
  5
198AB
330
1F
100
AcDbEntity
  8
CONTINUOUS1
100
AcDbLine
 10
5.595181867866461
 20
7.209935579158558
 30
0.0
 11
5.595181867866465
 21
4.329935579158558
 31
0.0
  0
LINE
  5
198AC
330
1F
100
AcDbEntity
  8
CONTINUOUS1
100
AcDbLine
 10
5.595181867866461
 20
7.209935579158558
 30
0.0
 11
6.432681867866463
 21
7.147435579158558
 31
0.0
  0
LINE
  5
198AD
330
1F
100
AcDbEntity
  8
CONTINUOUS1
100
AcDbLine
 10
6.432681867866463
 20
4.392435579158558
 30
0.0
 11
5.595181867866465
 21
4.329935579158558
 31
0.0
  0
LINE
  5
198AE
330
1F
100
AcDbEntity
  8
CONTINUOUS1
100
AcDbLine
 10
5.595181867866461
 20
7.147435579158558
 30
0.0
 11
1.782681867866465
 21
7.147435579158558
 31
0.0
  0
LINE
  5
198AF
330
1F
100
AcDbEntity
  8
CONTINUOUS1
100
AcDbLine
 10
5.595181867866465
 20
4.392435579158559
 30
0.0
 11
1.782681867866465
 21
4.392435579158558
 31
0.0
  0
LINE
  5
198B0
330
1F
100
AcDbEntity
  8
CONTINUOUS1
100
AcDbLine
 10
1.921981867866463
 20
6.447435579158558
 30
0.0
 11
1.800135660553209
 21
6.311197805538205
 31
0.0
  0
LINE
  5
198B1
330
1F
100
AcDbEntity
  8
CONTINUOUS1
100
AcDbLine
 10
1.943231867866465
 20
5.082435579158558
 30
0.0
 11
1.782681867866465
 21
5.019496373718385
 31
0.0
  0
LINE
  5
198B2
330
1F
100
AcDbEntity
  8
CONTINUOUS1
100
AcDbLine
 10
1.921981867866463
 20
5.207435579158558
 30
0.0
 11
1.793509989869409
 21
5.03410533743441
 31
0.0
  0
ARC
  5
198B3
330
1F
100
AcDbEntity
  8
CONTINUOUS1
100
AcDbCircle
 10
1.83775368364969
 20
5.00131203851012
 30
0.0
 40
0.0550718157832222
100
AcDbArc
 50
143.4542636234858
 51
180.0
  0
LINE
  5
198B4
330
1F
100
AcDbEntity
  8
CONTINUOUS1
100
AcDbLine
 10
1.782681867866465
 20
7.147435579158558
 30
0.0
 11
1.782681867866465
 21
6.317864211960187
 31
0.0
  0
ARC
  5
198B5
330
1F
100
AcDbEntity
  8
CONTINUOUS1
100
AcDbCircle
 10
1.792681867866466
 20
6.317864211960187
 30
0.0
 40
0.01
100
AcDbArc
 50
180.0
 51
318.1916855831148
  0
LINE
  5
198B6
330
1F
100
AcDbEntity
  8
CONTINUOUS1
100
AcDbLine
 10
1.953231867866463
 20
6.447435579158558
 30
0.0
 11
1.953231867866467
 21
5.092435579158558
 31
0.0
  0
LINE
  5
198B7
330
1F
100
AcDbEntity
  8
CONTINUOUS1
100
AcDbLine
 10
1.657681867866465
 20
6.223685579158558
 30
0.0
 11
1.657681867866465
 21
5.316185579158559
 31
0.0
  0
LINE
  5
198B8
330
1F
100
AcDbEntity
  8
CONTINUOUS1
100
AcDbLine
 10
1.688931867866465
 20
6.223685579158558
 30
0.0
 11
1.688931867866465
 21
5.316185579158559
 31
0.0
  0
ARC
  5
198B9
330
1F
100
AcDbEntity
  8
CONTINUOUS1
100
AcDbCircle
 10
1.720181867866465
 20
5.316185579158559
 30
0.0
 40
0.0625
100
AcDbArc
 50
180.0
 51
270.0
  0
LINE
  5
198BA
330
1F
100
AcDbEntity
  8
CONTINUOUS1
100
AcDbLine
 10
1.921981867866463
 20
5.207435579158558
 30
0.0
 11
1.921981867866463
 21
5.092435579158558
 31
0.0
  0
LINE
  5
198BB
330
1F
100
AcDbEntity
  8
CONTINUOUS1
100
AcDbLine
 10
1.953231867866467
 20
5.207435579158558
 30
0.0
 11
1.953231867866467
 21
5.092435579158558
 31
0.0
  0
ARC
  5
198BC
330
1F
100
AcDbEntity
  8
CONTINUOUS1
100
AcDbCircle
 10
1.931981867866465
 20
5.092435579158558
 30
0.0
 40
0.01
100
AcDbArc
 50
180.0
 51
270.0
  0
LINE
  5
198BD
330
1F
100
AcDbEntity
  8
CONTINUOUS1
100
AcDbLine
 10
1.943231867866465
 20
5.082435579158558
 30
0.0
 11
1.931981867866465
 21
5.082435579158558
 31
0.0
  0
ARC
  5
198BE
330
1F
100
AcDbEntity
  8
CONTINUOUS1
100
AcDbCircle
 10
1.943231867866465
 20
5.092435579158558
 30
0.0
 40
0.01
100
AcDbArc
 50
270.0
 51
0.0
  0
LINE
  5
198BF
330
1F
100
AcDbEntity
  8
CONTINUOUS1
100
AcDbLine
 10
1.890731867866463
 20
5.269935579158558
 30
0.0
 11
1.720181867866465
 21
5.284935579158559
 31
0.0
  0
LINE
  5
198C0
330
1F
100
AcDbEntity
  8
CONTINUOUS1
100
AcDbLine
 10
1.890731867866463
 20
5.238685579158558
 30
0.0
 11
1.720181867866465
 21
5.253685579158559
 31
0.0
  0
ARC
  5
198C1
330
1F
100
AcDbEntity
  8
CONTINUOUS1
100
AcDbCircle
 10
1.890731867866463
 20
5.207435579158558
 30
0.0
 40
0.0625
100
AcDbArc
 50
0.0
 51
90.0
  0
ARC
  5
198C2
330
1F
100
AcDbEntity
  8
CONTINUOUS1
100
AcDbCircle
 10
1.890731867866463
 20
5.207435579158558
 30
0.0
 40
0.03125
100
AcDbArc
 50
0.0
 51
90.0
  0
ARC
  5
198C3
330
1F
100
AcDbEntity
  8
CONTINUOUS1
100
AcDbCircle
 10
1.720181867866465
 20
5.316185579158559
 30
0.0
 40
0.03125
100
AcDbArc
 50
180.0
 51
270.0
  0
ARC
  5
198C4
330
1F
100
AcDbEntity
  8
CONTINUOUS1
100
AcDbCircle
 10
1.720181867866465
 20
6.223685579158558
 30
0.0
 40
0.03125
100
AcDbArc
 50
90.0
 51
180.0
  0
ARC
  5
198C5
330
1F
100
AcDbEntity
  8
CONTINUOUS1
100
AcDbCircle
 10
1.720181867866465
 20
6.223685579158558
 30
0.0
 40
0.0625
100
AcDbArc
 50
90.0
 51
180.0
  0
ARC
  5
198C6
330
1F
100
AcDbEntity
  8
CONTINUOUS1
100
AcDbCircle
 10
1.931981867866465
 20
6.447435579158558
 30
0.0
 40
0.01
100
AcDbArc
 50
90.0
 51
180.0
  0
ARC
  5
198C7
330
1F
100
AcDbEntity
  8
CONTINUOUS1
100
AcDbCircle
 10
1.943231867866465
 20
6.447435579158558
 30
0.0
 40
0.01
100
AcDbArc
 50
0.0
 51
90.0
  0
LINE
  5
198C8
330
1F
100
AcDbEntity
  8
CONTINUOUS1
100
AcDbLine
 10
1.890731867866463
 20
6.301185579158558
 30
0.0
 11
1.720181867866465
 21
6.286185579158558
 31
0.0
  0
LINE
  5
198C9
330
1F
100
AcDbEntity
  8
CONTINUOUS1
100
AcDbLine
 10
1.890731867866463
 20
6.269935579158558
 30
0.0
 11
1.720181867866465
 21
6.254935579158558
 31
0.0
  0
LINE
  5
198CA
330
1F
100
AcDbEntity
  8
CONTINUOUS1
100
AcDbLine
 10
1.921981867866463
 20
6.447435579158558
 30
0.0
 11
1.921981867866463
 21
6.332435579158558
 31
0.0
  0
LINE
  5
198CB
330
1F
100
AcDbEntity
  8
CONTINUOUS1
100
AcDbLine
 10
1.953231867866463
 20
6.447435579158558
 30
0.0
 11
1.953231867866463
 21
6.332435579158558
 31
0.0
  0
ARC
  5
198CC
330
1F
100
AcDbEntity
  8
CONTINUOUS1
100
AcDbCircle
 10
1.890731867866463
 20
6.332435579158558
 30
0.0
 40
0.0625
100
AcDbArc
 50
270.0
 51
0.0
  0
ARC
  5
198CD
330
1F
100
AcDbEntity
  8
CONTINUOUS1
100
AcDbCircle
 10
1.890731867866463
 20
6.332435579158558
 30
0.0
 40
0.03125
100
AcDbArc
 50
270.0
 51
0.0
  0
LINE
  5
198CE
330
1F
100
AcDbEntity
  8
CONTINUOUS1
100
AcDbLine
 10
1.943231867866465
 20
6.457435579158558
 30
0.0
 11
1.931981867866465
 21
6.457435579158558
 31
0.0
  0
LINE
  5
198CF
330
1F
100
AcDbEntity
  8
CONTINUOUS1
100
AcDbLine
 10
5.445165812078599
 20
7.07662895466657
 30
0.0
 11
2.052372070648704
 21
7.07662895466657
 31
0.0
  0
LINE
  5
198D0
330
1F
100
AcDbEntity
  8
CONTINUOUS1
100
AcDbLine
 10
5.319215218310439
 20
6.9100157056826
 30
0.0
 11
2.052372070648704
 21
6.910015705682599
 31
0.0
  0
LINE
  5
198D1
330
1F
100
AcDbEntity
  8
CONTINUOUS1
100
AcDbLine
 10
5.319215218310439
 20
6.839209081190612
 30
0.0
 11
2.052372070648704
 21
6.839209081190612
 31
0.0
  0
LINE
  5
198D2
330
1F
100
AcDbEntity
  8
CONTINUOUS1
100
AcDbLine
 10
5.445165812078599
 20
6.104804082181614
 30
0.0
 11
5.445165812078599
 21
5.435067076135498
 31
0.0
  0
LINE
  5
198D3
330
1F
100
AcDbEntity
  8
CONTINUOUS1
100
AcDbLine
 10
3.972320669721515
 20
6.104804082181613
 30
0.0
 11
5.445165812078599
 21
6.104804082181613
 31
0.0
  0
LINE
  5
198D4
330
1F
100
AcDbEntity
  8
CONTINUOUS1
100
AcDbLine
 10
3.972320669721515
 20
6.104804082181613
 30
0.0
 11
3.972320669721515
 21
5.4350670761355
 31
0.0
  0
LINE
  5
198D5
330
1F
100
AcDbEntity
  8
CONTINUOUS1
100
AcDbLine
 10
5.445165812078599
 20
7.07662895466657
 30
0.0
 11
5.445165812078599
 21
7.147435579158556
 31
0.0
  0
LINE
  5
198D6
330
1F
100
AcDbEntity
  8
CONTINUOUS1
100
AcDbLine
 10
2.052372070648704
 20
7.147435579158558
 30
0.0
 11
2.052372070648704
 21
7.07662895466657
 31
0.0
  0
LINE
  5
198D7
330
1F
100
AcDbEntity
  8
CONTINUOUS1
100
AcDbLine
 10
2.052372070648704
 20
6.9100157056826
 30
0.0
 11
2.052372070648704
 21
6.839209081190612
 31
0.0
  0
LINE
  5
198D8
330
1F
100
AcDbEntity
  8
CONTINUOUS1
100
AcDbLine
 10
5.319215218310439
 20
6.104804082181613
 30
0.0
 11
5.319215218310439
 21
6.9100157056826
 31
0.0
  0
LINE
  5
198D9
330
1F
100
AcDbEntity
  8
CONTINUOUS1
100
AcDbLine
 10
5.595181867866461
 20
6.143546078322057
 30
0.0
 11
6.100522875489602
 21
5.991392380029494
 31
0.0
  0
LINE
  5
198DA
330
1F
100
AcDbEntity
  8
CONTINUOUS1
100
AcDbLine
 10
6.100522875489598
 20
5.913011323006391
 30
0.0
 11
6.318947996629425
 21
5.913011323006393
 31
0.0
  0
LINE
  5
198DB
330
1F
100
AcDbEntity
  8
CONTINUOUS1
100
AcDbLine
 10
6.318947996629425
 20
5.913011323006393
 30
0.0
 11
6.318947996629425
 21
5.62685983531072
 31
0.0
  0
LINE
  5
198DC
330
1F
100
AcDbEntity
  8
CONTINUOUS1
100
AcDbLine
 10
5.854352335327476
 20
5.879495440587885
 30
0.0
 11
5.617940258655426
 21
5.879495440587885
 31
0.0
  0
LINE
  5
198DD
330
1F
100
AcDbEntity
  8
CONTINUOUS1
100
AcDbLine
 10
3.972320669721515
 20
5.4350670761355
 30
0.0
 11
5.445165812078599
 21
5.4350670761355
 31
0.0
  0
LINE
  5
198DE
330
1F
100
AcDbEntity
  8
CONTINUOUS1
100
AcDbLine
 10
5.617940258655426
 20
5.660375717729228
 30
0.0
 11
5.617940258655426
 21
5.879495440587885
 31
0.0
  0
LINE
  5
198DF
330
1F
100
AcDbEntity
  8
CONTINUOUS1
100
AcDbLine
 10
5.854352335327476
 20
5.660375717729228
 30
0.0
 11
5.854352335327476
 21
5.879495440587885
 31
0.0
  0
LINE
  5
198E0
330
1F
100
AcDbEntity
  8
CONTINUOUS1
100
AcDbLine
 10
6.100522875489602
 20
5.548478778287619
 30
0.0
 11
6.100522875489602
 21
5.991392380029494
 31
0.0
  0
LINE
  5
198E1
330
1F
100
AcDbEntity
  8
CONTINUOUS1
100
AcDbLine
 10
5.595181867866461
 20
5.396325079995055
 30
0.0
 11
6.100522875489602
 21
5.548478778287619
 31
0.0
  0
LINE
  5
198E2
330
1F
100
AcDbEntity
  8
CONTINUOUS1
100
AcDbLine
 10
5.854352335327476
 20
5.660375717729228
 30
0.0
 11
5.617940258655426
 21
5.660375717729228
 31
0.0
  0
LINE
  5
198E3
330
1F
100
AcDbEntity
  8
CONTINUOUS1
100
AcDbLine
 10
6.100522875489598
 20
5.626859835310722
 30
0.0
 11
6.318947996629425
 21
5.62685983531072
 31
0.0
  0
LINE
  5
198E4
330
1F
100
AcDbEntity
  8
CONTINUOUS1
100
AcDbLine
 10
5.445165812078599
 20
4.463242203650543
 30
0.0
 11
2.052372070648704
 21
4.463242203650543
 31
0.0
  0
LINE
  5
198E5
330
1F
100
AcDbEntity
  8
CONTINUOUS1
100
AcDbLine
 10
5.319215218310439
 20
4.629855452634513
 30
0.0
 11
2.052372070648704
 21
4.629855452634514
 31
0.0
  0
LINE
  5
198E6
330
1F
100
AcDbEntity
  8
CONTINUOUS1
100
AcDbLine
 10
5.319215218310439
 20
4.700662077126501
 30
0.0
 11
2.052372070648704
 21
4.700662077126501
 31
0.0
  0
LINE
  5
198E7
330
1F
100
AcDbEntity
  8
CONTINUOUS1
100
AcDbLine
 10
2.052372070648704
 20
4.629855452634513
 30
0.0
 11
2.052372070648704
 21
4.700662077126501
 31
0.0
  0
LINE
  5
198E8
330
1F
100
AcDbEntity
  8
CONTINUOUS1
100
AcDbLine
 10
2.052372070648704
 20
4.392435579158555
 30
0.0
 11
2.052372070648704
 21
4.463242203650543
 31
0.0
  0
LINE
  5
198E9
330
1F
100
AcDbEntity
  8
CONTINUOUS1
100
AcDbLine
 10
5.445165812078599
 20
4.463242203650543
 30
0.0
 11
5.445165812078599
 21
4.392435579158557
 31
0.0
  0
LINE
  5
198EA
330
1F
100
AcDbEntity
  8
CONTINUOUS1
100
AcDbLine
 10
5.319215218310439
 20
5.4350670761355
 30
0.0
 11
5.319215218310439
 21
4.629855452634513
 31
0.0
  0
LINE
  5
198EB
330
1F
100
AcDbEntity
  8
CONTINUOUS1
100
AcDbLine
 10
6.365683333603481
 20
5.17426918383284
 30
0.0
 11
6.365683333603485
 21
4.387435688541917
 31
0.0
  0
LINE
  5
198EC
330
1F
100
AcDbEntity
  8
CONTINUOUS1
100
AcDbLine
 10
6.366618205616092
 20
5.178490967173115
 30
0.0
 11
6.432681867866463
 21
5.320344659166758
 31
0.0
  0
ARC
  5
198ED
330
1F
100
AcDbEntity
  8
CONTINUOUS1
100
AcDbCircle
 10
6.375683333603483
 20
5.17426918383284
 30
0.0
 40
0.01
100
AcDbArc
 50
155.0278085994337
 51
180.0000000000002
  0
LINE
  5
198EE
330
1F
100
AcDbEntity
  8
CONTINUOUS1
100
AcDbLine
 10
6.365683333603481
 20
6.365601974484273
 30
0.0
 11
6.365683333603485
 21
7.152435469775196
 31
0.0
  0
ARC
  5
198EF
330
1F
100
AcDbEntity
  8
CONTINUOUS1
100
AcDbCircle
 10
6.375683333603483
 20
6.365601974484273
 30
0.0
 40
0.01
100
AcDbArc
 50
179.9999999999997
 51
204.972191400563
  0
LINE
  5
198F0
330
1F
100
AcDbEntity
  8
CONTINUOUS1
100
AcDbLine
 10
6.366618205616092
 20
6.361380191143997
 30
0.0
 11
6.432681867866463
 21
6.219526499150355
 31
0.0
  0
LINE
  5
198F1
330
1F
100
AcDbEntity
  8
CONTINUOUS1
100
AcDbLine
 10
1.960125217403351
 20
4.295797236664522
 30
0.0
 11
1.960125217403355
 21
4.392435579158558
 31
0.0
  0
LINE
  5
198F2
330
1F
100
AcDbEntity
  8
CONTINUOUS1
100
AcDbLine
 10
1.782681867866461
 20
4.295797236664522
 30
0.0
 11
1.960125217403351
 21
4.295797236664522
 31
0.0
  0
LINE
  5
198F3
330
1F
100
AcDbEntity
  8
CONTINUOUS1
100
AcDbLine
 10
1.919244232649511
 20
4.295797236664522
 30
0.0
 11
1.919244232649514
 21
4.392435579158558
 31
0.0
  0
DIMENSION
  5
198F4
330
1F
100
AcDbEntity
  8
DIM
100
AcDbDimension
  2
*D5
 10
7.782681867866465
 20
4.329935579158558
 30
0.0
 11
7.782681867866464
 21
5.769935579158558
 31
0.0
 70
    32
  3
SCHNEIDERELECTRIC
100
AcDbAlignedDimension
 13
8.345181867866465
 23
7.209935579158558
 33
0.0
 14
8.345181867866465
 24
4.329935579158558
 34
0.0
 50
90.0
100
AcDbRotatedDimension
1001
ACAD
1000
DSTYLE
1002
{
1070
    40
1040
1.0
1002
}
  0
DIMENSION
  5
198F5
330
1F
100
AcDbEntity
  8
DIM
100
AcDbDimension
  2
*D6
 10
14.32518186786646
 20
4.022435579158558
 30
0.0
 11
11.33518186786646
 21
4.022435579158558
 31
0.0
 70
    32
  3
SCHNEIDERELECTRIC
100
AcDbAlignedDimension
 13
8.345181867866465
 23
4.329935579158558
 33
0.0
 14
14.32518186786646
 24
4.329935579158558
 34
0.0
100
AcDbRotatedDimension
1001
ACAD
1000
DSTYLE
1002
{
1070
    40
1040
1.0
1002
}
  0
DIMENSION
  5
198F6
330
1F
100
AcDbEntity
  8
DIM
100
AcDbDimension
  2
*D7
 10
6.432681867866463
 20
4.022435579158558
 30
0.0
 11
4.107681867866462
 21
4.022435579158558
 31
0.0
 70
    32
  3
SCHNEIDERELECTRIC
100
AcDbAlignedDimension
 13
1.782681867866461
 23
4.295797236664522
 33
0.0
 14
6.432681867866463
 24
4.392435579158556
 34
0.0
100
AcDbRotatedDimension
1001
ACAD
1000
DSTYLE
1002
{
1070
    40
1040
1.0
1002
}
  0
TEXT
  5
198F7
330
1F
100
AcDbEntity
  8
TEXT1
100
AcDbText
 10
8.725539010723608
 20
6.982435579158558
 30
0.0
 40
0.08
  1
A1
  7
ROMANS
 72
     1
 11
8.782681867866465
 21
7.022435579158558
 31
0.0
100
AcDbText
 73
     2
  0
TEXT
  5
198F8
330
1F
100
AcDbEntity
  8
TEXT1
100
AcDbText
 10
9.775443815485514
 20
6.982435579158558
 30
0.0
 40
0.08
  1
1
  7
ROMANS
 72
     4
 11
9.807824767866467
 21
7.022435579158558
 31
0.0
100
AcDbText
  0
TEXT
  5
198F9
330
1F
100
AcDbEntity
  8
TEXT1
100
AcDbText
 10
10.11144382977122
 20
6.982435579158558
 30
0.0
 40
0.08
  1
2
  7
ROMANS
 72
     4
 11
10.14953906786646
 21
7.022435579158558
 31
0.0
100
AcDbText
  0
TEXT
  5
198FA
330
1F
100
AcDbEntity
  8
TEXT1
100
AcDbText
 10
10.45315812977122
 20
6.982435579158558
 30
0.0
 40
0.08
  1
3
  7
ROMANS
 72
     4
 11
10.49125336786646
 21
7.022435579158558
 31
0.0
100
AcDbText
  0
TEXT
  5
198FB
330
1F
100
AcDbEntity
  8
TEXT1
100
AcDbText
 10
11.47830102977122
 20
6.982435579158558
 30
0.0
 40
0.08
  1
7
  7
ROMANS
 72
     4
 11
11.51639626786646
 21
7.022435579158558
 31
0.0
100
AcDbText
  0
TEXT
  5
198FC
330
1F
100
AcDbEntity
  8
TEXT1
100
AcDbText
 10
12.16172962977122
 20
6.982435579158558
 30
0.0
 40
0.08
  1
8
  7
ROMANS
 72
     4
 11
12.19982486786646
 21
7.022435579158558
 31
0.0
100
AcDbText
  0
TEXT
  5
198FD
330
1F
100
AcDbEntity
  8
TEXT1
100
AcDbText
 10
13.1430630059617
 20
6.982435579158558
 30
0.0
 40
0.08
  1
13
  7
ROMANS
 72
     4
 11
13.22496776786646
 21
7.022435579158558
 31
0.0
100
AcDbText
  0
TEXT
  5
198FE
330
1F
100
AcDbEntity
  8
TEXT1
100
AcDbText
 10
13.84363446310456
 20
6.982435579158558
 30
0.0
 40
0.08
  1
21
  7
ROMANS
 72
     4
 11
13.90839636786647
 21
7.022435579158558
 31
0.0
100
AcDbText
  0
TEXT
  5
198FF
330
1F
100
AcDbEntity
  8
TEXT1
100
AcDbText
 10
8.714110439295035
 20
4.482435579158558
 30
0.0
 40
0.08
  1
A2
  7
ROMANS
 72
     4
 11
8.782681867866465
 21
4.522435579158558
 31
0.0
100
AcDbText
  0
TEXT
  5
19900
330
1F
100
AcDbEntity
  8
TEXT1
100
AcDbText
 10
9.386110467866464
 20
4.482435579158558
 30
0.0
 40
0.08
  1
PE
  7
ROMANS
 72
     4
 11
9.466110467866464
 21
4.522435579158558
 31
0.0
100
AcDbText
  0
TEXT
  5
19901
330
1F
100
AcDbEntity
  8
TEXT1
100
AcDbText
 10
9.767824767866468
 20
4.482435579158558
 30
0.0
 40
0.08
  1
4
  7
ROMANS
 72
     4
 11
9.807824767866467
 21
4.522435579158558
 31
0.0
100
AcDbText
  0
TEXT
  5
19902
330
1F
100
AcDbEntity
  8
TEXT1
100
AcDbText
 10
10.11144382977122
 20
4.482435579158558
 30
0.0
 40
0.08
  1
5
  7
ROMANS
 72
     4
 11
10.14953906786646
 21
4.522435579158558
 31
0.0
100
AcDbText
  0
TEXT
  5
19903
330
1F
100
AcDbEntity
  8
TEXT1
100
AcDbText
 10
10.45125336786646
 20
4.482435579158558
 30
0.0
 40
0.08
  1
6
  7
ROMANS
 72
     4
 11
10.49125336786646
 21
4.522435579158558
 31
0.0
100
AcDbText
  0
TEXT
  5
19904
330
1F
100
AcDbEntity
  8
TEXT1
100
AcDbText
 10
11.09658672977122
 20
4.482435579158558
 30
0.0
 40
0.08
  1
Y+
  7
ROMANS
 72
     4
 11
11.17468196786646
 21
4.522435579158558
 31
0.0
100
AcDbText
  0
TEXT
  5
19905
330
1F
100
AcDbEntity
  8
TEXT1
100
AcDbText
 10
11.40782483929503
 20
4.482435579158558
 30
0.0
 40
0.08
  1
Y34
  7
ROMANS
 72
     4
 11
11.51639626786646
 21
4.522435579158558
 31
0.0
100
AcDbText
  0
TEXT
  5
19906
330
1F
100
AcDbEntity
  8
TEXT1
100
AcDbText
 10
11.74953913929503
 20
4.482435579158558
 30
0.0
 40
0.08
  1
Y44
  7
ROMANS
 72
     4
 11
11.85811056786646
 21
4.522435579158558
 31
0.0
100
AcDbText
  0
TEXT
  5
19907
330
1F
100
AcDbEntity
  8
TEXT1
100
AcDbText
 10
12.09125343929503
 20
4.482435579158558
 30
0.0
 40
0.08
  1
Y54
  7
ROMANS
 72
     4
 11
12.19982486786646
 21
4.522435579158558
 31
0.0
100
AcDbText
  0
TEXT
  5
19908
330
1F
100
AcDbEntity
  8
TEXT1
100
AcDbText
 10
12.43296773929503
 20
4.482435579158558
 30
0.0
 40
0.08
  1
Y64
  7
ROMANS
 72
     4
 11
12.54153916786646
 21
4.522435579158558
 31
0.0
100
AcDbText
  0
TEXT
  5
19909
330
1F
100
AcDbEntity
  8
TEXT1
100
AcDbText
 10
13.14115824405694
 20
4.482435579158558
 30
0.0
 40
0.08
  1
14
  7
ROMANS
 72
     4
 11
13.22496776786646
 21
4.522435579158558
 31
0.0
100
AcDbText
  0
TEXT
  5
1990A
330
1F
100
AcDbEntity
  8
TEXT1
100
AcDbText
 10
13.83220589167599
 20
4.482435579158558
 30
0.0
 40
0.08
  1
22
  7
ROMANS
 72
     4
 11
13.90839636786647
 21
4.522435579158558
 31
0.0
100
AcDbText
  0
LINE
  5
19AE4
330
1F
100
AcDbEntity
  8
CONTINUOUS1
100
AcDbLine
 10
8.544532843210561
 20
6.642524217262768
 30
0.0
 11
8.574935434646564
 21
6.673385021724462
 31
0.0
  0
ARC
  5
19AE5
330
1F
100
AcDbEntity
  8
CONTINUOUS1
100
AcDbCircle
 10
8.532681867866465
 20
6.642435579158559
 30
0.0
 40
0.0523758713605834
100
AcDbArc
 50
36.22163345068604
 51
54.63542589337728
  0
LINE
  5
19AE6
330
1F
100
AcDbEntity
  8
CONTINUOUS1
100
AcDbLine
 10
8.544532843210561
 20
6.642524217262768
 30
0.0
 11
8.587951938604007
 21
6.599749797062344
 31
0.0
  0
ARC
  5
19AE7
330
1F
100
AcDbEntity
  8
CONTINUOUS1
100
AcDbCircle
 10
8.532681867866465
 20
6.642435579158559
 30
0.0
 40
0.0523758713605834
100
AcDbArc
 50
216.221633450686
 51
234.635425893378
  0
LINE
  5
19AE8
330
1F
100
AcDbEntity
  8
CONTINUOUS1
100
AcDbLine
 10
8.489174134368809
 20
6.697060974703082
 30
0.0
 11
8.532593229762255
 21
6.654286554502656
 31
0.0
  0
LINE
  5
19AE9
330
1F
100
AcDbEntity
  8
CONTINUOUS1
100
AcDbLine
 10
8.477411797128922
 20
6.685121361254773
 30
0.0
 11
8.520830892522369
 21
6.642346941054349
 31
0.0
  0
LINE
  5
19AEA
330
1F
100
AcDbEntity
  8
CONTINUOUS1
100
AcDbLine
 10
8.490428301086366
 20
6.611486136592654
 30
0.0
 11
8.520830892522369
 21
6.642346941054349
 31
0.0
  0
LINE
  5
19AEB
330
1F
100
AcDbEntity
  8
CONTINUOUS1
100
AcDbLine
 10
8.502367914534678
 20
6.599723799352767
 30
0.0
 11
8.532770505970674
 21
6.630584603814462
 31
0.0
  0
CIRCLE
  5
19AEC
330
1F
100
AcDbEntity
  8
CONTINUOUS1
100
AcDbCircle
 10
8.532681867866465
 20
6.642435579158559
 30
0.0
 40
0.0698344951474445
  0
LINE
  5
19AED
330
1F
100
AcDbEntity
  8
CONTINUOUS1
100
AcDbLine
 10
8.532593229762255
 20
6.654286554502656
 30
0.0
 11
8.562995821198258
 21
6.68514735896435
 31
0.0
  0
LINE
  5
19AEE
330
1F
100
AcDbEntity
  8
CONTINUOUS1
100
AcDbLine
 10
8.532770505970674
 20
6.630584603814462
 30
0.0
 11
8.57618960136412
 21
6.587810183614038
 31
0.0
  0
LINE
  5
19AEF
330
1F
100
AcDbEntity
  8
CONTINUOUS1
100
AcDbLine
 10
8.544532843210561
 20
4.897346941054348
 30
0.0
 11
8.574935434646564
 21
4.866486136592653
 31
0.0
  0
ARC
  5
19AF0
330
1F
100
AcDbEntity
  8
CONTINUOUS1
100
AcDbCircle
 10
8.532681867866465
 20
4.897435579158558
 30
0.0
 40
0.0523758713605834
100
AcDbArc
 50
305.3645741066227
 51
323.7783665493139
  0
LINE
  5
19AF1
330
1F
100
AcDbEntity
  8
CONTINUOUS1
100
AcDbLine
 10
8.544532843210561
 20
4.897346941054348
 30
0.0
 11
8.587951938604007
 21
4.940121361254773
 31
0.0
  0
ARC
  5
19AF2
330
1F
100
AcDbEntity
  8
CONTINUOUS1
100
AcDbCircle
 10
8.532681867866465
 20
4.897435579158558
 30
0.0
 40
0.0523758713605834
100
AcDbArc
 50
125.3645741066219
 51
143.7783665493139
  0
LINE
  5
19AF3
330
1F
100
AcDbEntity
  8
CONTINUOUS1
100
AcDbLine
 10
8.489174134368809
 20
4.842810183614035
 30
0.0
 11
8.532593229762255
 21
4.885584603814461
 31
0.0
  0
LINE
  5
19AF4
330
1F
100
AcDbEntity
  8
CONTINUOUS1
100
AcDbLine
 10
8.477411797128922
 20
4.854749797062344
 30
0.0
 11
8.520830892522369
 21
4.897524217262767
 31
0.0
  0
LINE
  5
19AF5
330
1F
100
AcDbEntity
  8
CONTINUOUS1
100
AcDbLine
 10
8.490428301086366
 20
4.928385021724462
 30
0.0
 11
8.520830892522369
 21
4.897524217262767
 31
0.0
  0
LINE
  5
19AF6
330
1F
100
AcDbEntity
  8
CONTINUOUS1
100
AcDbLine
 10
8.502367914534678
 20
4.94014735896435
 30
0.0
 11
8.532770505970674
 21
4.909286554502655
 31
0.0
  0
CIRCLE
  5
19AF7
330
1F
100
AcDbEntity
  8
CONTINUOUS1
100
AcDbCircle
 10
8.532681867866465
 20
4.897435579158558
 30
0.0
 40
0.0698344951474445
  0
LINE
  5
19AF8
330
1F
100
AcDbEntity
  8
CONTINUOUS1
100
AcDbLine
 10
8.532593229762255
 20
4.885584603814461
 30
0.0
 11
8.562995821198258
 21
4.854723799352766
 31
0.0
  0
LINE
  5
19AF9
330
1F
100
AcDbEntity
  8
CONTINUOUS1
100
AcDbLine
 10
8.532770505970674
 20
4.909286554502655
 30
0.0
 11
8.57618960136412
 21
4.952060974703078
 31
0.0
  0
VIEWPORT
  5
32
330
1B
100
AcDbEntity
 67
     1
  8
0
100
AcDbViewport
 10
8.899951113229068
 20
5.047478138395978
 30
0.0
 40
20.28879777637413
 41
11.63799974576694
 68
     1
 69
     1
1001
ACAD
1000
MVIEW
1002
{
1070
    16
1010
0.0
1020
0.0
1030
0.0
1010
0.0
1020
0.0
1030
1.0
1040
0.0
1040
11.63799974576694
1040
8.899951113229068
1040
5.047478138395978
1040
50.0
1040
0.0
1040
0.0
1070
     0
1070
   100
1070
     1
1070
     0
1070
     0
1070
     0
1070
     0
1070
     0
1040
0.0
1040
0.0
1040
0.0
1040
0.5
1040
0.5
1040
0.5
1040
0.5
1070
     0
1002
{
1002
}
1002
}
1001
GENIUS_GENOREF_13
1005
0
1005
0
1005
0
1005
0
1005
0
1005
0
1005
0
1005
0
1005
0
1005
0
1005
0
1005
0
1005
0
1005
0
1005
0
1005
0
1005
0
1005
0
1005
0
1005
0
1005
0
1005
0
1001
GENIUS_GENSCREG_15
1000
PF
1040
1.0
1000
DF
1040
1.0
1000
MIN
1011
-1.092313485762716
1021
-0.4872937060788445
1031
0.0
1000
MAX
1011
17.48771534209376
1021
10.6120688506603
1031
0.0
1000
FLAGS
1070
     2
  0
LWPOLYLINE
  5
175
330
1B
100
AcDbEntity
 67
     1
  8
VIEWPORT
100
AcDbPolyline
 90
        6
 70
     1
 43
0.0
 10
16.40000099999999
 20
10.25
 10
16.40000099999999
 20
0.9120019999999993
 10
8.002461
 20
0.9120019999999993
 10
8.002461
 20
0.0
 10
0.0
 20
0.0
 10
0.0
 20
10.25
1001
GENIUS_GENOREF_13
1005
0
1005
0
1005
0
1005
0
1005
0
1005
0
1005
0
1005
0
1005
0
1005
0
1005
0
1005
0
1005
0
1005
0
1005
0
1005
0
1005
0
1005
0
1005
0
1005
0
1005
0
1005
0
1005
0
1005
0
1005
0
1005
0
1005
0
1005
0
1005
0
1005
0
1005
0
1005
0
1005
0
1005
0
1005
0
1005
0
1005
0
1005
0
1005
0
1005
0
1005
0
1005
0
1005
0
1005
0
  0
VIEWPORT
  5
177
330
1B
100
AcDbEntity
 67
     1
  8
VIEWPORT
100
AcDbViewport
 10
8.200000499999999
 20
5.125
 30
0.0
 40
16.40000099999999
 41
10.25
 68
     2
 69
     2
1001
ACAD
1000
MVIEW
1002
{
1070
    16
1010
0.0
1020
0.0
1030
0.0
1010
0.0
1020
0.0
1030
1.0
1040
0.0
1040
10.25
1040
8.200000647009566
1040
5.125000091880973
1040
50.0
1040
0.0
1040
0.0
1070
     0
1070
   100
1070
     1
1070
     2
1070
     0
1070
     0
1070
     0
1070
     0
1040
0.0
1040
0.0
1040
0.0
1040
0.5
1040
0.5
1040
0.5
1040
0.5
1070
     0
1002
{
1002
}
1002
}
1001
GENIUS_GENOREF_13
1005
0
1005
0
1005
0
1005
0
1005
0
1005
0
1005
0
1005
0
1005
0
1005
0
1005
0
1005
0
1005
0
1005
0
1005
0
1005
0
1005
0
1005
0
1005
0
1005
0
1005
0
1005
0
1005
0
1005
0
1005
0
1005
0
1005
0
1005
0
1005
0
1005
0
1005
0
1005
0
1005
0
1005
0
1005
0
1005
0
1005
0
1005
0
1005
0
1005
0
1005
0
1005
0
1005
0
1005
0
1001
GENIUS_GENSCREG_15
1000
PF
1040
0.0
1000
DF
1040
0.0
1000
MIN
1011
0.0
1021
0.0
1031
0.0
1000
MAX
1011
16.40000099999999
1021
10.25
1031
0.0
1000
FLAGS
1070
     2
  0
INSERT
  5
B2C
330
1B
100
AcDbEntity
 67
     1
  8
TITLEBLOCK
100
AcDbBlockReference
 66
     1
  2
TITLE-PAD
 10
0.0
 20
0.0
 30
0.0
  0
ATTRIB
  5
B2D
330
B2C
100
AcDbEntity
 67
     1
  8
TEXT1
 62
     0
100
AcDbText
 10
10.10183834893798
 20
0.7474460884590166
 30
0.0
 40
0.1
  1

  7
ROMANS
 72
     4
 11
10.10183834893798
 21
0.7474460884590166
 31
0.0
100
AcDbAttribute
  2
DESCRIPTION 1
 70
     0
  0
ATTRIB
  5
B2E
330
B2C
100
AcDbEntity
 67
     1
  8
TEXT1
 62
     0
100
AcDbText
 10
8.908981206080845
 20
0.5517231711406715
 30
0.0
 40
0.1
  1
PREVENTA XPS SAFETY RELAYS
  7
ROMANS
 72
     4
 11
10.10183834893798
 21
0.6017231711406717
 31
0.0
100
AcDbAttribute
  2
DESCRIPTION 2
 70
     0
  0
ATTRIB
  5
B2F
330
B2C
100
AcDbEntity
 67
     1
  8
TEXT1
 62
     0
100
AcDbText
 10
9.755171682271321
 20
0.4217145395366125
 30
0.0
 40
0.08
  1
XPS-(1)(2)
  7
ROMANS
 72
     4
 11
10.10183834893798
 21
0.4560002538223267
 31
0.0
100
AcDbAttribute
  2
DESCRIPTION 3
 70
     0
  0
ATTRIB
  5
B30
330
B2C
100
AcDbEntity
 67
     1
  8
TEXT1
 62
     0
100
AcDbText
 10
10.10183834893798
 20
0.3202773365039833
 30
0.0
 40
0.08
  1

  7
ROMANS
 72
     4
 11
10.10183834893798
 21
0.3202773365039833
 31
0.0
100
AcDbAttribute
  2
DESCRIPTION 4
 70
     0
  0
ATTRIB
  5
B31
330
B2C
100
AcDbEntity
 67
     1
  8
TEXT1
 62
     0
100
AcDbText
 10
10.10183834893798
 20
0.1845544191856399
 30
0.0
 40
0.08
  1

  7
ROMANS
 72
     4
 11
10.10183834893798
 21
0.1845544191856399
 31
0.0
100
AcDbAttribute
  2
DESCRIPTION 5
 70
     0
  0
ATTRIB
  5
B32
330
B2C
100
AcDbEntity
 67
     1
  8
TEXT1
 62
     0
100
AcDbText
 10
12.74772367103195
 20
0.096540546036505
 30
0.0
 40
0.12
  1
XPS_PVK_OUTLINE_001
 41
0.9512024731840066
  7
M_STANDARD
 11
12.74772367103195
 21
0.156540546036505
 31
0.0
100
AcDbAttribute
  2
DWGNO
 70
     0
 74
     2
  0
ATTRIB
  5
B33
330
B2C
100
AcDbEntity
 67
     1
  8
TEXT1
 62
     0
100
AcDbText
 10
15.78363597806468
 20
-0.1507193079929352
 30
0.0
 40
0.08
  1
E0704601
  7
ROMANS
 72
     2
 11
16.35506454949325
 21
-0.1107193079929352
 31
0.0
100
AcDbAttribute
  2
REF
 70
     0
 74
     2
  0
ATTRIB
  5
B34
330
B2C
100
AcDbEntity
 67
     1
  8
TEXT1
 62
     0
100
AcDbText
 10
0.0266402374038712
 20
-0.1507193079929352
 30
0.0
 40
0.08
  1
FEBRUARY 2001
  7
ROMANS
 11
0.0266402374038712
 21
-0.1107193079929352
 31
0.0
100
AcDbAttribute
  2
DATE
 70
     0
 74
     2
  0
SEQEND
  5
B35
330
B2C
100
AcDbEntity
 67
     1
  8
0
  0
INSERT
  5
1DEF
330
1B
100
AcDbEntity
 67
     1
  8
0
100
AcDbBlockReference
  2
OEM-NOTES
 10
0.0
 20
0.0
 30
0.0
 41
0.5
 42
0.5
 43
0.5
  0
ENDSEC
  0
SECTION
  2
OBJECTS
  0
DICTIONARY
  5
C
330
0
100
AcDbDictionary
  3
ACAD_GROUP
350
D
  3
ACAD_LAYOUT
350
1A
  3
ACAD_MLINESTYLE
350
17
  3
ACAD_PLOTSETTINGS
350
19
  3
ACAD_PLOTSTYLENAME
350
E
  3
ACADDIM
350
16246
  3
ACDBHEADERROUNDTRIPXREC
350
19BE6
  3
ACDBVARIABLEDICTIONARY
350
374
  3
ACMDICTIONARY
350
383
  3
AMG
350
36B
  3
AMGSNAPSETTINGS
350
399
  3
ASE_INDEX_DICTIONARY
350
6A
  3
DWGPROPS
350
19A9E
  0
DICTIONARY
  5
73
330
1F
100
AcDbDictionary
280
     1
  3
ACAD_INDEX
360
19AFD
  3
ACAD_LAYOUTSELFREF
360
19C08
  0
DICTIONARY
  5
75
330
1B
100
AcDbDictionary
280
     1
  3
ACAD_LAYOUTSELFREF
360
19C07
  0
DICTIONARY
  5
D
102
{ACAD_REACTORS
330
C
102
}
330
C
100
AcDbDictionary
  0
DICTIONARY
  5
1A
102
{ACAD_REACTORS
330
C
102
}
330
C
100
AcDbDictionary
  0
DICTIONARY
  5
17
102
{ACAD_REACTORS
330
C
102
}
330
C
100
AcDbDictionary
  3
STANDARD
350
18
  0
DICTIONARY
  5
19
102
{ACAD_REACTORS
330
C
102
}
330
C
100
AcDbDictionary
  3
A_SIZE_PAPER
350
2FF
  3
B_SIZE_PAPER
350
2FD
  3
D_SIZE_PAPER
350
2FE
  0
ACDBDICTIONARYWDFLT
  5
E
102
{ACAD_REACTORS
330
C
102
}
330
C
100
AcDbDictionary
281
     1
  3
Normal
350
F
100
AcDbDictionaryWithDefault
340
F
  0
XRECORD
  5
16246
102
{ACAD_REACTORS
330
C
102
}
330
C
100
AcDbXrecord
 90
   990106
  3

 60
     0
 61
     0
 62
     1
 63
     3
 64
     0
 65
     0
 66
     0
 67
     3
 68
     1
 69
     0
 70
     0
 71
     0
 72
     0
 40
0.0
170
     0
340
17A45
  0
DICTIONARY
  5
19BE6
102
{ACAD_REACTORS
330
C
102
}
330
C
100
AcDbDictionary
  3
CEPSNTYPE
350
19BF0
  3
DIMSTYLEDATA
350
19BF4
  3
FINGERPRINTGUID
350
19BF1
  3
HYPERLINKBASE
350
19BE9
  3
INSUNITS
350
19BEF
  3
LAYOUTDICT
350
19BEB
  3
LWETCUNION
350
19BEE
  3
PLOTSETDICT
350
19BEC
  3
PLOTSTYLNAMDICT
350
19BED
  3
PSVPSCALE
350
19BF3
  3
PUCSBASE
350
19BF7
  3
PUCSORGBACK
350
19BFD
  3
PUCSORGBOTTOM
350
19BF9
  3
PUCSORGFRONT
350
19BFC
  3
PUCSORGLEFT
350
19BFA
  3
PUCSORGRIGHT
350
19BFB
  3
PUCSORGTOP
350
19BF8
  3
PUCSORTHOREF
350
19BF5
  3
PUCSORTHOVIEW
350
19BF6
  3
STYLESHEET
350
19BEA
  3
TSTACKALIGN
350
19BE7
  3
TSTACKSIZE
350
19BE8
  3
UCSBASE
350
19C00
  3
UCSORGBACK
350
19C06
  3
UCSORGBOTTOM
350
19C02
  3
UCSORGFRONT
350
19C05
  3
UCSORGLEFT
350
19C03
  3
UCSORGRIGHT
350
19C04
  3
UCSORGTOP
350
19C01
  3
UCSORTHOREF
350
19BFE
  3
UCSORTHOVIEW
350
19BFF
  3
VERSIONGUID
350
19BF2
  0
DICTIONARY
  5
374
102
{ACAD_REACTORS
330
C
102
}
330
C
100
AcDbDictionary
  3
INDEXCTL
350
375
  0
DICTIONARY
  5
383
102
{ACAD_REACTORS
330
C
102
}
330
C
100
AcDbDictionary
  0
DICTIONARY
  5
36B
102
{ACAD_REACTORS
330
C
102
}
330
C
100
AcDbDictionary
  3
ACMGSETTINGS
350
36C
  0
DICTIONARY
  5
399
102
{ACAD_REACTORS
330
C
102
}
330
C
100
AcDbDictionary
  0
DICTIONARY
  5
6A
102
{ACAD_REACTORS
330
C
102
}
330
C
100
AcDbDictionary
  3
ASEBLOCKHIERARCHYINDEXRECORD
350
6C
1001
DCO15
1040
1379130883.246999
  0
XRECORD
  5
19A9E
102
{ACAD_REACTORS
330
C
102
}
330
C
100
AcDbXrecord
  1
DWGPROPS COOKIE
  2

  3

  4

  6

  7

  8
mgp706
  9

300
AmdtFileType=84
301
=
302
=
303
=
304
=
305
=
306
=
307
=
308
=
309
=
 40
0.6282984606481481
 41
2451764.535041909
 42
2451885.568458044
  1

 90
        1
  0
DICTIONARY
  5
19AFD
102
{ACAD_REACTORS
330
73
102
}
330
73
100
AcDbDictionary
  3
*A1
350
19AFE
  0
XRECORD
  5
19C08
102
{ACAD_REACTORS
330
73
102
}
330
73
100
AcDbXrecord
340
1F
  0
XRECORD
  5
19C07
102
{ACAD_REACTORS
330
75
102
}
330
75
100
AcDbXrecord
340
1B
  0
MLINESTYLE
  5
18
102
{ACAD_REACTORS
330
17
102
}
330
17
100
AcDbMlineStyle
  2
STANDARD
 70
     0
  3

 62
   256
 51
90.0
 52
90.0
 71
     2
 49
0.5
 62
   256
  6
BYLAYER
 49
-0.5
 62
   256
  6
BYLAYER
  0
PLOTSETTINGS
  5
2FF
102
{ACAD_REACTORS
330
19
102
}
330
19
100
AcDbPlotSettings
  1
A Size Paper
  2
none_device
  4
ANSI_A_(8.50_x_11.00_Inches)
  6

 40
6.349999904632568
 41
19.04999923706054
 42
6.350006103515625
 43
19.04998779296875
 44
215.8999938964843
 45
279.3999938964843
 46
19.04999999999999
 47
-9.651999999999999
 48
0.0
 49
0.0
140
0.0
141
0.0
142
1.0
143
1.6
 70
   740
 72
     0
 73
     1
 74
     1
  7
monochrome.ctb
 75
     0
147
0.625
148
0.0034886547032954
149
0.0199946439100934
  0
PLOTSETTINGS
  5
2FD
102
{ACAD_REACTORS
330
19
102
}
330
19
100
AcDbPlotSettings
  1
B Size Paper
  2
none_device
  4
ANSI_B_(11.00_x_17.00_Inches)
  6

 40
6.349999904632568
 41
19.04999923706054
 42
6.350006103515625
 43
19.04998779296875
 44
279.3999938964843
 45
431.7999877929687
 46
1.27
 47
-11.43
 48
0.0
 49
0.0
140
0.0
141
0.0
142
1.0
143
1.0
 70
   756
 72
     0
 73
     1
 74
     1
  7
monochrome.ctb
 75
    16
147
1.0
148
0.0034886547032954
149
0.0199946439100934
  0
PLOTSETTINGS
  5
2FE
102
{ACAD_REACTORS
330
19
102
}
330
19
100
AcDbPlotSettings
  1
D Size Paper
  2
none_device
  4
ANSI_D_(22.00_x_34.00_Inches)
  6

 40
6.349999904632568
 41
19.04999923706054
 42
6.3499755859375
 43
19.04998779296875
 44
558.7999877929687
 45
863.5999755859375
 46
8.889999999999998
 47
-3.809999999999999
 48
0.0
 49
0.0
140
0.0
141
0.0
142
1.0
143
0.5
 70
   740
 72
     0
 73
     1
 74
     1
  7
monochrome.ctb
 75
     0
147
2.0
148
0.0034886547032954
149
0.0199946439100934
  0
ACDBPLACEHOLDER
  5
F
102
{ACAD_REACTORS
330
E
102
}
330
E
100
AcDbPlaceHolder
280
     0
  0
XRECORD
  5
19BF0
102
{ACAD_REACTORS
330
19BE6
102
}
330
19BE6
100
AcDbXrecord
 90
        0
  0
XRECORD
  5
19BF4
102
{ACAD_REACTORS
330
19BE6
102
}
330
19BE6
100
AcDbXrecord
1000
DSTYLE
1002
{
1070
    79
 70
     1
1070
   148
 40
0.1
1070
   371
 70
    -1
1070
   372
 70
    -1
1002
}
  0
XRECORD
  5
19BF1
102
{ACAD_REACTORS
330
19BE6
102
}
330
19BE6
100
AcDbXrecord
  1
{4E694E3A-6C64-11D4-81E3-0004AC4461C9}
  0
XRECORD
  5
19BE9
102
{ACAD_REACTORS
330
19BE6
102
}
330
19BE6
100
AcDbXrecord
  1

  0
XRECORD
  5
19BEF
102
{ACAD_REACTORS
330
19BE6
102
}
330
19BE6
100
AcDbXrecord
 90
        1
  0
XRECORD
  5
19BEB
102
{ACAD_REACTORS
330
19BE6
102
}
330
19BE6
100
AcDbXrecord
340
1A
  0
XRECORD
  5
19BEE
102
{ACAD_REACTORS
330
19BE6
102
}
330
19BE6
100
AcDbXrecord
 90
    10269
  0
XRECORD
  5
19BEC
102
{ACAD_REACTORS
330
19BE6
102
}
330
19BE6
100
AcDbXrecord
340
19
  0
XRECORD
  5
19BED
102
{ACAD_REACTORS
330
19BE6
102
}
330
19BE6
100
AcDbXrecord
340
E
  0
XRECORD
  5
19BF3
102
{ACAD_REACTORS
330
19BE6
102
}
330
19BE6
100
AcDbXrecord
 40
1.0
  0
XRECORD
  5
19BF7
102
{ACAD_REACTORS
330
19BE6
102
}
330
19BE6
100
AcDbXrecord
340
0
  0
XRECORD
  5
19BFD
102
{ACAD_REACTORS
330
19BE6
102
}
330
19BE6
100
AcDbXrecord
 10
0.0
 20
0.0
 30
0.0
  0
XRECORD
  5
19BF9
102
{ACAD_REACTORS
330
19BE6
102
}
330
19BE6
100
AcDbXrecord
 10
0.0
 20
0.0
 30
0.0
  0
XRECORD
  5
19BFC
102
{ACAD_REACTORS
330
19BE6
102
}
330
19BE6
100
AcDbXrecord
 10
0.0
 20
0.0
 30
0.0
  0
XRECORD
  5
19BFA
102
{ACAD_REACTORS
330
19BE6
102
}
330
19BE6
100
AcDbXrecord
 10
0.0
 20
0.0
 30
0.0
  0
XRECORD
  5
19BFB
102
{ACAD_REACTORS
330
19BE6
102
}
330
19BE6
100
AcDbXrecord
 10
0.0
 20
0.0
 30
0.0
  0
XRECORD
  5
19BF8
102
{ACAD_REACTORS
330
19BE6
102
}
330
19BE6
100
AcDbXrecord
 10
0.0
 20
0.0
 30
0.0
  0
XRECORD
  5
19BF5
102
{ACAD_REACTORS
330
19BE6
102
}
330
19BE6
100
AcDbXrecord
340
0
  0
XRECORD
  5
19BF6
102
{ACAD_REACTORS
330
19BE6
102
}
330
19BE6
100
AcDbXrecord
 70
     0
  0
XRECORD
  5
19BEA
102
{ACAD_REACTORS
330
19BE6
102
}
330
19BE6
100
AcDbXrecord
  1

  0
XRECORD
  5
19BE7
102
{ACAD_REACTORS
330
19BE6
102
}
330
19BE6
100
AcDbXrecord
 90
        1
  0
XRECORD
  5
19BE8
102
{ACAD_REACTORS
330
19BE6
102
}
330
19BE6
100
AcDbXrecord
 90
       70
  0
XRECORD
  5
19C00
102
{ACAD_REACTORS
330
19BE6
102
}
330
19BE6
100
AcDbXrecord
340
0
  0
XRECORD
  5
19C06
102
{ACAD_REACTORS
330
19BE6
102
}
330
19BE6
100
AcDbXrecord
 10
0.0
 20
0.0
 30
0.0
  0
XRECORD
  5
19C02
102
{ACAD_REACTORS
330
19BE6
102
}
330
19BE6
100
AcDbXrecord
 10
0.0
 20
0.0
 30
0.0
  0
XRECORD
  5
19C05
102
{ACAD_REACTORS
330
19BE6
102
}
330
19BE6
100
AcDbXrecord
 10
0.0
 20
0.0
 30
0.0
  0
XRECORD
  5
19C03
102
{ACAD_REACTORS
330
19BE6
102
}
330
19BE6
100
AcDbXrecord
 10
0.0
 20
0.0
 30
0.0
  0
XRECORD
  5
19C04
102
{ACAD_REACTORS
330
19BE6
102
}
330
19BE6
100
AcDbXrecord
 10
0.0
 20
0.0
 30
0.0
  0
XRECORD
  5
19C01
102
{ACAD_REACTORS
330
19BE6
102
}
330
19BE6
100
AcDbXrecord
 10
0.0
 20
0.0
 30
0.0
  0
XRECORD
  5
19BFE
102
{ACAD_REACTORS
330
19BE6
102
}
330
19BE6
100
AcDbXrecord
340
0
  0
XRECORD
  5
19BFF
102
{ACAD_REACTORS
330
19BE6
102
}
330
19BE6
100
AcDbXrecord
 70
     0
  0
XRECORD
  5
19BF2
102
{ACAD_REACTORS
330
19BE6
102
}
330
19BE6
100
AcDbXrecord
  1
{CBBBDBE6-FDCB-11D4-B19E-00062962DB88}
  0
DICTIONARYVAR
  5
375
102
{ACAD_REACTORS
330
374
102
}
330
374
100
DictionaryVariables
280
     0
  1
1
  0
DICTIONARY
  5
36C
102
{ACAD_REACTORS
330
36B
102
}
330
36B
100
AcDbDictionary
  3
DWGSETTINGS
350
19A8A
  0
XRECORD
  5
6C
102
{ACAD_REACTORS
330
6A
102
}
330
6A
100
AcDbXrecord
  0
LAYER_INDEX
  5
19AFE
102
{ACAD_REACTORS
330
19AFD
102
}
330
19AFD
100
AcDbIndex
 40
2452002.612011122
100
AcDbLayerIndex
  8
0
360
19AFF
 90
       20
  8
BLOCKS
360
19B00
 90
        0
  8
CENTER1
360
19B01
 90
        0
  8
CENTER2
360
19B02
 90
        3
  8
CENTER3
360
19B03
 90
        0
  8
CONSTRUCTION
360
19B04
 90
        0
  8
CONTINUOUS1
360
19B05
 90
      549
  8
CONTINUOUS2
360
19B06
 90
        5
  8
CONTINUOUS3
360
19B07
 90
        0
  8
DASHDOT1
360
19B08
 90
        0
  8
DASHDOT2
360
19B09
 90
        0
  8
DASHDOT3
360
19B0A
 90
        0
  8
DIM
360
19B0B
 90
        3
  8
HIDDEN1
360
19B0C
 90
        0
  8
HIDDEN2
360
19B0D
 90
        2
  8
HIDDEN3
360
19B0E
 90
        0
  8
PHANTOM1
360
19B0F
 90
        0
  8
PHANTOM2
360
19B10
 90
        0
  8
PHANTOM3
360
19B11
 90
        0
  8
TEXT1
360
19B12
 90
       40
  8
TEXT2
360
19B13
 90
        0
  8
TEXT3
360
19B14
 90
        0
  8
TITLEBLOCK
360
19B15
 90
        0
  8
VIEWPORT
360
19B16
 90
        2
  8
REFERENCE
360
19B17
 90
        0
  8
Defpoints
360
19B18
 90
        0
  0
XRECORD
  5
19A8A
102
{ACAD_REACTORS
330
36C
102
}
330
36C
100
AcDbXrecord
  1
VERSION
140
15.0
  1
PRODUCT
  2
AutoCAD Mechanical 2000
  0
IDBUFFER
  5
19AFF
330
0
100
AcDbIdBuffer
330
79E
330
2A18
330
38F7
330
4441
330
7C74
330
9754
330
DA8C
330
E46E
330
F16C
330
1019A
330
1103D
330
14491
330
1514A
330
1514C
330
16230
330
16248
330
16CED
330
16D03
330
17A20
330
17A45
  0
IDBUFFER
  5
19B00
330
0
100
AcDbIdBuffer
  0
IDBUFFER
  5
19B01
330
0
100
AcDbIdBuffer
  0
IDBUFFER
  5
19B02
330
0
100
AcDbIdBuffer
330
196EC
330
196ED
330
196EE
  0
IDBUFFER
  5
19B03
330
0
100
AcDbIdBuffer
  0
IDBUFFER
  5
19B04
330
0
100
AcDbIdBuffer
  0
IDBUFFER
  5
19B05
330
0
100
AcDbIdBuffer
330
196D2
330
196D3
330
196D4
330
196D5
330
196D6
330
196D7
330
196D8
330
196D9
330
196DD
330
196E0
330
196E6
330
196E7
330
196E8
330
196E9
330
196EA
330
196F4
330
196F5
330
196F6
330
196F7
330
196F8
330
196F9
330
196FA
330
196FB
330
196FC
330
196FD
330
196FE
330
196FF
330
19700
330
19701
330
19702
330
19703
330
19704
330
19705
330
19706
330
19707
330
19708
330
19709
330
1970A
330
1970B
330
1970C
330
1970D
330
1970E
330
1970F
330
19710
330
19711
330
19712
330
19713
330
19714
330
19715
330
19716
330
19717
330
19718
330
19719
330
1971A
330
1971B
330
1971C
330
1971D
330
1971E
330
1971F
330
19720
330
19721
330
19722
330
19723
330
19724
330
19725
330
19726
330
19727
330
19728
330
19729
330
1972A
330
1972B
330
1972C
330
1972D
330
1972E
330
1972F
330
19730
330
19731
330
19732
330
19733
330
19734
330
19735
330
19736
330
19737
330
19738
330
19739
330
1973A
330
1973B
330
1973C
330
1973D
330
1973E
330
1973F
330
19740
330
19741
330
19742
330
19743
330
19744
330
19745
330
19746
330
19747
330
19748
330
19749
330
1974A
330
1974B
330
1974C
330
1974D
330
1974E
330
1974F
330
19750
330
19751
330
19752
330
19753
330
19754
330
19755
330
19756
330
19757
330
19758
330
19759
330
1975A
330
1975B
330
1975C
330
1975D
330
1975E
330
1975F
330
19760
330
19761
330
19762
330
19763
330
19764
330
19765
330
19766
330
19767
330
19768
330
19769
330
1976A
330
1976B
330
1976C
330
1976D
330
1976E
330
1976F
330
19770
330
19771
330
19772
330
19773
330
19774
330
19775
330
19776
330
19777
330
19778
330
19779
330
1977A
330
1977B
330
1977C
330
1977D
330
1977E
330
1977F
330
19780
330
19781
330
19782
330
19783
330
19784
330
19785
330
19786
330
19787
330
19788
330
19789
330
1978A
330
1978B
330
1978C
330
1978D
330
1978E
330
1978F
330
19790
330
19791
330
19792
330
19793
330
19794
330
19795
330
19796
330
19797
330
19798
330
19799
330
1979A
330
1979B
330
1979C
330
1979D
330
1979E
330
1979F
330
197A0
330
197A1
330
197A2
330
197A3
330
197A4
330
197A5
330
197A6
330
197A7
330
197A8
330
197A9
330
197AA
330
197AB
330
197AC
330
197AD
330
197AE
330
197AF
330
197B0
330
197B1
330
197B2
330
197B3
330
197B4
330
197B5
330
197B6
330
197B7
330
197B8
330
197B9
330
197BA
330
197BB
330
197BC
330
197BD
330
197BE
330
197BF
330
197C0
330
197C1
330
197C2
330
197C3
330
197C4
330
197C5
330
197C6
330
197C7
330
197C8
330
197C9
330
197CA
330
197CB
330
197CC
330
197CD
330
197CE
330
197CF
330
197D0
330
197D1
330
197D2
330
197D3
330
197D4
330
197D5
330
197D6
330
197D7
330
197D8
330
197D9
330
197DA
330
197DB
330
197DC
330
197DD
330
197DE
330
197DF
330
197E0
330
197E1
330
197E2
330
197E3
330
197E4
330
197E5
330
197E6
330
197E7
330
197E8
330
197E9
330
197EA
330
197EB
330
197EC
330
197ED
330
197EE
330
197EF
330
197F0
330
197F1
330
197F2
330
197F3
330
197F4
330
197F5
330
197F6
330
197F7
330
197F8
330
197F9
330
197FA
330
197FB
330
197FC
330
197FD
330
197FE
330
197FF
330
19800
330
19801
330
19802
330
19803
330
19804
330
19805
330
19806
330
19807
330
19808
330
19809
330
1980A
330
1980B
330
1980C
330
1980D
330
1980E
330
1980F
330
19810
330
19811
330
19812
330
19813
330
19814
330
19815
330
19816
330
19817
330
19818
330
19819
330
1981A
330
1981B
330
1981C
330
1981D
330
1981E
330
1981F
330
19820
330
19821
330
19822
330
19823
330
19824
330
19825
330
19826
330
19827
330
19828
330
19829
330
1982A
330
1982B
330
1982C
330
1982D
330
1982E
330
1982F
330
19830
330
19831
330
19832
330
19833
330
19834
330
19835
330
19836
330
19837
330
19838
330
19839
330
1983A
330
1983B
330
1983C
330
1983D
330
1983E
330
1983F
330
19840
330
19841
330
19842
330
19843
330
19844
330
19845
330
19846
330
19847
330
19848
330
19849
330
1984A
330
1984B
330
1984C
330
1984D
330
1984E
330
1984F
330
19850
330
19851
330
19852
330
19853
330
19854
330
19855
330
19856
330
19857
330
19858
330
19859
330
1985A
330
1985B
330
1985C
330
1985D
330
1985E
330
1985F
330
19860
330
19861
330
19862
330
19863
330
19864
330
19865
330
19866
330
19867
330
19868
330
19869
330
1986A
330
1986B
330
1986C
330
1986D
330
1986E
330
1986F
330
19870
330
19871
330
19872
330
19873
330
19874
330
19875
330
19876
330
19877
330
19878
330
19879
330
1987A
330
1987B
330
1987C
330
1987D
330
1987E
330
1987F
330
19880
330
19881
330
19882
330
19883
330
19884
330
19885
330
19886
330
19887
330
19888
330
19889
330
1988A
330
1988B
330
1988C
330
1988D
330
1988E
330
1988F
330
19890
330
19891
330
19892
330
19893
330
19894
330
19895
330
19896
330
19897
330
19898
330
19899
330
1989A
330
1989B
330
1989C
330
1989D
330
1989E
330
1989F
330
198A0
330
198A1
330
198A2
330
198A3
330
198A4
330
198A5
330
198A6
330
198A7
330
198A8
330
198A9
330
198AA
330
198AB
330
198AC
330
198AD
330
198AE
330
198AF
330
198B0
330
198B1
330
198B2
330
198B3
330
198B4
330
198B5
330
198B6
330
198B7
330
198B8
330
198B9
330
198BA
330
198BB
330
198BC
330
198BD
330
198BE
330
198BF
330
198C0
330
198C1
330
198C2
330
198C3
330
198C4
330
198C5
330
198C6
330
198C7
330
198C8
330
198C9
330
198CA
330
198CB
330
198CC
330
198CD
330
198CE
330
198CF
330
198D0
330
198D1
330
198D2
330
198D3
330
198D4
330
198D5
330
198D6
330
198D7
330
198D8
330
198D9
330
198DA
330
198DB
330
198DC
330
198DD
330
198DE
330
198DF
330
198E0
330
198E1
330
198E2
330
198E3
330
198E4
330
198E5
330
198E6
330
198E7
330
198E8
330
198E9
330
198EA
330
198EB
330
198EC
330
198ED
330
198EE
330
198EF
330
198F0
330
198F1
330
198F2
330
198F3
330
19AE4
330
19AE5
330
19AE6
330
19AE7
330
19AE8
330
19AE9
330
19AEA
330
19AEB
330
19AEC
330
19AED
330
19AEE
330
19AEF
330
19AF0
330
19AF1
330
19AF2
330
19AF3
330
19AF4
330
19AF5
330
19AF6
330
19AF7
330
19AF8
330
19AF9
  0
IDBUFFER
  5
19B06
330
0
100
AcDbIdBuffer
330
196E2
330
196E3
330
196E4
330
196E5
330
196F1
  0
IDBUFFER
  5
19B07
330
0
100
AcDbIdBuffer
  0
IDBUFFER
  5
19B08
330
0
100
AcDbIdBuffer
  0
IDBUFFER
  5
19B09
330
0
100
AcDbIdBuffer
  0
IDBUFFER
  5
19B0A
330
0
100
AcDbIdBuffer
  0
IDBUFFER
  5
19B0B
330
0
100
AcDbIdBuffer
330
198F4
330
198F5
330
198F6
  0
IDBUFFER
  5
19B0C
330
0
100
AcDbIdBuffer
  0
IDBUFFER
  5
19B0D
330
0
100
AcDbIdBuffer
330
196EF
330
196F0
  0
IDBUFFER
  5
19B0E
330
0
100
AcDbIdBuffer
  0
IDBUFFER
  5
19B0F
330
0
100
AcDbIdBuffer
  0
IDBUFFER
  5
19B10
330
0
100
AcDbIdBuffer
  0
IDBUFFER
  5
19B11
330
0
100
AcDbIdBuffer
  0
IDBUFFER
  5
19B12
330
0
100
AcDbIdBuffer
330
2480
330
196C3
330
196C4
330
196C6
330
196C7
330
196C9
330
196CA
330
196CB
330
196CC
330
196CD
330
196CE
330
196CF
330
196D0
330
196D1
330
196DA
330
196DB
330
196DC
330
196DE
330
196DF
330
196E1
330
198F7
330
198F8
330
198F9
330
198FA
330
198FB
330
198FC
330
198FD
330
198FE
330
198FF
330
19900
330
19901
330
19902
330
19903
330
19904
330
19905
330
19906
330
19907
330
19908
330
19909
330
1990A
  0
IDBUFFER
  5
19B13
330
0
100
AcDbIdBuffer
  0
IDBUFFER
  5
19B14
330
0
100
AcDbIdBuffer
  0
IDBUFFER
  5
19B15
330
0
100
AcDbIdBuffer
  0
IDBUFFER
  5
19B16
330
0
100
AcDbIdBuffer
330
BF7
330
BF8
  0
IDBUFFER
  5
19B17
330
0
100
AcDbIdBuffer
  0
IDBUFFER
  5
19B18
330
0
100
AcDbIdBuffer
  0
ENDSEC
  0
EOF
