  0
SECTION
  2
HEADER
  9
$ACADVER
  1
AC1014
  9
$ACADMAINTVER
 70
     9
  9
$DWGCODEPAGE
  3
ANSI_1252
  9
$INSBASE
 10
0.0
 20
0.0
 30
0.0
  9
$EXTMIN
 10
0.0
 20
0.0
 30
0.0
  9
$EXTMAX
 10
32.80000199999999
 20
20.5
 30
0.0
  9
$LIMMIN
 10
0.0
 20
0.0
  9
$LIMMAX
 10
32.80000199999999
 20
20.5
  9
$ORTHOMODE
 70
     0
  9
$REGENMODE
 70
     1
  9
$FILLMODE
 70
     1
  9
$QTEXTMODE
 70
     0
  9
$MIRRTEXT
 70
     1
  9
$DRAGMODE
 70
     2
  9
$LTSCALE
 40
1.0
  9
$OSMODE
 70
    39
  9
$ATTMODE
 70
     1
  9
$TEXTSIZE
 40
0.2
  9
$TRACEWID
 40
0.05
  9
$TEXTSTYLE
  7
STANDARD
  9
$CLAYER
  8
0
  9
$CELTYPE
  6
BYLAYER
  9
$CECOLOR
 62
   256
  9
$CELTSCALE
 40
1.0
  9
$DELOBJ
 70
     1
  9
$DISPSILH
 70
     0
  9
$DIMSCALE
 40
0.0
  9
$DIMASZ
 40
0.07
  9
$DIMEXO
 40
0.0625
  9
$DIMDLI
 40
0.38
  9
$DIMRND
 40
0.001
  9
$DIMDLE
 40
0.0
  9
$DIMEXE
 40
0.0625
  9
$DIMTP
 40
0.0
  9
$DIMTM
 40
0.0
  9
$DIMTXT
 40
0.1
  9
$DIMCEN
 40
0.09
  9
$DIMTSZ
 40
0.0
  9
$DIMTOL
 70
     0
  9
$DIMLIM
 70
     0
  9
$DIMTIH
 70
     1
  9
$DIMTOH
 70
     1
  9
$DIMSE1
 70
     0
  9
$DIMSE2
 70
     0
  9
$DIMTAD
 70
     0
  9
$DIMZIN
 70
     4
  9
$DIMBLK
  1
SEARROW
  9
$DIMASO
 70
     1
  9
$DIMSHO
 70
     1
  9
$DIMPOST
  1
\X
  9
$DIMAPOST
  1

  9
$DIMALT
 70
     1
  9
$DIMALTD
 70
     0
  9
$DIMALTF
 40
25.4
  9
$DIMLFAC
 40
1.0
  9
$DIMTOFL
 70
     0
  9
$DIMTVP
 40
0.0
  9
$DIMTIX
 70
     0
  9
$DIMSOXD
 70
     0
  9
$DIMSAH
 70
     0
  9
$DIMBLK1
  1

  9
$DIMBLK2
  1

  9
$DIMSTYLE
  2
SCHNEIDERELECTRIC
  9
$DIMCLRD
 70
   256
  9
$DIMCLRE
 70
   256
  9
$DIMCLRT
 70
   256
  9
$DIMTFAC
 40
1.0
  9
$DIMGAP
 40
0.04
  9
$DIMJUST
 70
     0
  9
$DIMSD1
 70
     0
  9
$DIMSD2
 70
     0
  9
$DIMTOLJ
 70
     1
  9
$DIMTZIN
 70
     0
  9
$DIMALTZ
 70
     0
  9
$DIMALTTZ
 70
     0
  9
$DIMFIT
 70
     3
  9
$DIMUPT
 70
     0
  9
$DIMUNIT
 70
     2
  9
$DIMDEC
 70
     2
  9
$DIMTDEC
 70
     2
  9
$DIMALTU
 70
     2
  9
$DIMALTTD
 70
     0
  9
$DIMTXSTY
  7
ROMANS
  9
$DIMAUNIT
 70
     0
  9
$LUNITS
 70
     2
  9
$LUPREC
 70
     4
  9
$SKETCHINC
 40
0.1
  9
$FILLETRAD
 40
0.5
  9
$AUNITS
 70
     0
  9
$AUPREC
 70
     0
  9
$MENU
  1
.
  9
$ELEVATION
 40
0.0
  9
$PELEVATION
 40
0.0
  9
$THICKNESS
 40
0.0
  9
$LIMCHECK
 70
     0
  9
$BLIPMODE
 70
     0
  9
$CHAMFERA
 40
0.5
  9
$CHAMFERB
 40
0.5
  9
$CHAMFERC
 40
1.0
  9
$CHAMFERD
 40
0.0
  9
$SKPOLY
 70
     0
  9
$TDCREATE
 40
2451764.535041909
  9
$TDUPDATE
 40
2451967.647936296
  9
$TDINDWG
 40
0.5746583912
  9
$TDUSRTIMER
 40
0.5746581597
  9
$USRTIMER
 70
     1
  9
$ANGBASE
 50
0.0
  9
$ANGDIR
 70
     0
  9
$PDMODE
 70
     0
  9
$PDSIZE
 40
0.0
  9
$PLINEWID
 40
0.0
  9
$COORDS
 70
     1
  9
$SPLFRAME
 70
     0
  9
$SPLINETYPE
 70
     6
  9
$SPLINESEGS
 70
     8
  9
$ATTDIA
 70
     0
  9
$ATTREQ
 70
     1
  9
$HANDLING
 70
-16383
  9
$HANDSEED
  5
AB43
  9
$SURFTAB1
 70
     6
  9
$SURFTAB2
 70
     6
  9
$SURFTYPE
 70
     6
  9
$SURFU
 70
     6
  9
$SURFV
 70
     6
  9
$UCSNAME
  2

  9
$UCSORG
 10
0.0
 20
0.0
 30
0.0
  9
$UCSXDIR
 10
1.0
 20
0.0
 30
0.0
  9
$UCSYDIR
 10
0.0
 20
1.0
 30
0.0
  9
$PUCSNAME
  2

  9
$PUCSORG
 10
0.0
 20
0.0
 30
0.0
  9
$PUCSXDIR
 10
1.0
 20
0.0
 30
0.0
  9
$PUCSYDIR
 10
0.0
 20
1.0
 30
0.0
  9
$USERI1
 70
     0
  9
$USERI2
 70
     0
  9
$USERI3
 70
     0
  9
$USERI4
 70
     0
  9
$USERI5
 70
     0
  9
$USERR1
 40
0.0
  9
$USERR2
 40
0.0
  9
$USERR3
 40
0.0
  9
$USERR4
 40
0.0
  9
$USERR5
 40
0.0
  9
$WORLDVIEW
 70
     1
  9
$SHADEDGE
 70
     3
  9
$SHADEDIF
 70
    70
  9
$TILEMODE
 70
     1
  9
$MAXACTVP
 70
    48
  9
$PINSBASE
 10
0.0
 20
0.0
 30
0.0
  9
$PLIMCHECK
 70
     0
  9
$PEXTMIN
 10
-0.0000000008946799
 20
-0.1507193079929352
 30
0.0
  9
$PEXTMAX
 10
16.40000099999999
 20
10.25
 30
0.0
  9
$PLIMMIN
 10
-0.3022988315385811
 20
-0.4421500682141223
  9
$PLIMMAX
 10
16.69770068786963
 20
10.55784969148998
  9
$UNITMODE
 70
     0
  9
$VISRETAIN
 70
     1
  9
$PLINEGEN
 70
     0
  9
$PSLTSCALE
 70
     1
  9
$TREEDEPTH
 70
  3020
  9
$PICKSTYLE
 70
     1
  9
$CMLSTYLE
  2
STANDARD
  9
$CMLJUST
 70
     0
  9
$CMLSCALE
 40
1.0
  9
$PROXYGRAPHICS
 70
     1
  9
$MEASUREMENT
 70
     0
  0
ENDSEC
  0
SECTION
  2
CLASSES
  0
CLASS
  1
ACDBDICTIONARYWDFLT
  2
AcDbDictionaryWithDefault
  3
AutoCAD 2000
 90
        0
280
     0
281
     0
  0
CLASS
  1
ACDBPLACEHOLDER
  2
AcDbPlaceHolder
  3
AutoCAD 2000
 90
        0
280
     0
281
     0
  0
CLASS
  1
LAYOUT
  2
AcDbLayout
  3
AutoCAD 2000
 90
        0
280
     0
281
     0
  0
CLASS
  1
LONG_TRANSACTION
  2
AcDbLongTransaction
  3
AutoCAD 2000
 90
        0
280
     0
281
     0
  0
CLASS
  1
LWPOLYLINE
  2
AcDbPolyline
  3
AutoCAD 2000
 90
        0
280
     0
281
     1
  0
CLASS
  1
HATCH
  2
AcDbHatch
  3
AutoCAD 2000
 90
        0
280
     0
281
     1
  0
CLASS
  1
XRECORD
  2
AcDbXrecord
  3
AutoCAD 2000
 90
        0
280
     0
281
     0
  0
CLASS
  1
LONG_TRANSACTION
  2
AcDbLongTransaction
  3
AutoCAD 2000
 90
        0
280
     0
281
     0
  0
CLASS
  1
LWPOLYLINE
  2
AcDbPolyline
  3
AutoCAD 2000
 90
        0
280
     0
281
     1
  0
CLASS
  1
HATCH
  2
AcDbHatch
  3
AutoCAD 2000
 90
        0
280
     0
281
     1
  0
CLASS
  1
XRECORD
  2
AcDbXrecord
  3
AutoCAD 2000
 90
        0
280
     0
281
     0
  0
CLASS
  1
LONG_TRANSACTION
  2
AcDbLongTransaction
  3
AutoCAD 2000
 90
        0
280
     0
281
     0
  0
CLASS
  1
LWPOLYLINE
  2
AcDbPolyline
  3
AutoCAD 2000
 90
        0
280
     0
281
     1
  0
CLASS
  1
HATCH
  2
AcDbHatch
  3
AutoCAD 2000
 90
        0
280
     0
281
     1
  0
CLASS
  1
XRECORD
  2
AcDbXrecord
  3
AutoCAD 2000
 90
        0
280
     0
281
     0
  0
CLASS
  1
PLOTSETTINGS
  2
AcDbPlotSettings
  3
AutoCAD 2000
 90
        0
280
     0
281
     0
  0
CLASS
  1
ACME_DOCUMENT
  2
AcMeDbDoc
  3
AcMeServices
 90
        0
280
     0
281
     0
  0
CLASS
  1
AMGSETTINGSOBJ
  2
AmgSettingsObj
  3
"AcadM|Product Description: AutoCAD Mechanical 2000|Company: Autodesk"
 90
        0
280
     0
281
     0
  0
CLASS
  1
ACMESCOPE
  2
AcMeScope
  3
AcMeServices
 90
        0
280
     0
281
     0
  0
CLASS
  1
ACMECOMMANDHISTORY
  2
AcMeCommandHistory
  3
AcMeServices
 90
        0
280
     0
281
     0
  0
CLASS
  1
DICTIONARYVAR
  2
AcDbDictionaryVar
  3
AutoCAD 2000
 90
        0
280
     0
281
     0
  0
CLASS
  1
ACIMSYSVARMAN
  2
AcImSysVarManager
  3
AcMeServices
 90
        0
280
     0
281
     0
  0
CLASS
  1
ACIMREALSYSVAR
  2
AcImRealSysVar
  3
AcMeServices
 90
        0
280
     0
281
     0
  0
CLASS
  1
ACIMINTSYSVAR
  2
AcImIntSysVar
  3
AcMeServices
 90
        0
280
     0
281
     0
  0
CLASS
  1
ACMEDRAWINGMAN
  2
AcMeDrawingMan
  3
AcMeServices
 90
        0
280
     0
281
     0
  0
CLASS
  1
ACMEVIEW
  2
AcMeView
  3
AcMeServices
 90
        0
280
     0
281
     0
  0
CLASS
  1
ACDBENTITYCACHE
  2
AcMeEntityCache
  3
AcMeServices
 90
        0
280
     0
281
     0
  0
CLASS
  1
GSMANAGER
  2
AcMeGSManager
  3
AcMeServices
 90
        0
280
     0
281
     0
  0
CLASS
  1
AmdtInternalReactor
  2
AmdtInternalReactor
  3
AcMeServices
 90
        0
280
     0
281
     0
  0
CLASS
  1
ACMESTATEMGR
  2
AcMeStateMgr
  3
AcMeServices
 90
        0
280
     0
281
     0
  0
CLASS
  1
ACME_DATABASE
  2
AcMeDbDatabase
  3
AcMeServices
 90
        0
280
     0
281
     0
  0
CLASS
  1
ACRFINSADJUSTERMGR
  2
AcRfInsAdjusterMgr
  3
AcMeServices
 90
        0
280
     0
281
     0
  0
CLASS
  1
ACMDATADICTIONARY
  2
AcmDataDictionary
  3
"AcmSymBB|Product Description: AutoCAD Mechanical 2000|Company: Autodesk"
 90
        0
280
     0
281
     0
  0
CLASS
  1
ACMDATAENTRYBLOCK
  2
AcmDataEntryBlock
  3
"AcmSymBB|Product Description: AutoCAD Mechanical 2000|Company: Autodesk"
 90
        0
280
     0
281
     0
  0
CLASS
  1
AMGOBJPROPCFG
  2
AmgObjPropCfg
  3
"AmgLay|Product Description: AutoCAD Mechanical 2000|Company: Autodesk"
 90
        1
280
     0
281
     0
  0
CLASS
  1
ACAMGFILTERDAT
  2
AcAmgFilterDat
  3
"AcadM|Product Description: AutoCAD Mechanical 2000|Company: Autodesk"
 90
        0
280
     0
281
     0
  0
CLASS
  1
LAYER_INDEX
  2
AcDbLayerIndex
  3
AutoCAD 2000
 90
        0
280
     0
281
     0
  0
CLASS
  1
IDBUFFER
  2
AcDbIdBuffer
  3
AutoCAD 2000
 90
        0
280
     0
281
     0
  0
CLASS
  1
LONG_TRANSACTION
  2
AcDbLongTransaction
  3
AutoCAD 2000
 90
        0
280
     0
281
     0
  0
CLASS
  1
LWPOLYLINE
  2
AcDbPolyline
  3
AutoCAD 2000
 90
        0
280
     0
281
     1
  0
CLASS
  1
HATCH
  2
AcDbHatch
  3
AutoCAD 2000
 90
        0
280
     0
281
     1
  0
CLASS
  1
XRECORD
  2
AcDbXrecord
  3
AutoCAD 2000
 90
        0
280
     0
281
     0
  0
CLASS
  1
LONG_TRANSACTION
  2
AcDbLongTransaction
  3
AutoCAD 2000
 90
        0
280
     0
281
     0
  0
CLASS
  1
LWPOLYLINE
  2
AcDbPolyline
  3
AutoCAD 2000
 90
        0
280
     0
281
     1
  0
CLASS
  1
HATCH
  2
AcDbHatch
  3
AutoCAD 2000
 90
        0
280
     0
281
     1
  0
CLASS
  1
XRECORD
  2
AcDbXrecord
  3
AutoCAD 2000
 90
        0
280
     0
281
     0
  0
CLASS
  1
LONG_TRANSACTION
  2
AcDbLongTransaction
  3
AutoCAD 2000
 90
        0
280
     0
281
     0
  0
CLASS
  1
LWPOLYLINE
  2
AcDbPolyline
  3
AutoCAD 2000
 90
        0
280
     0
281
     1
  0
CLASS
  1
HATCH
  2
AcDbHatch
  3
AutoCAD 2000
 90
        0
280
     0
281
     1
  0
CLASS
  1
XRECORD
  2
AcDbXrecord
  3
AutoCAD 2000
 90
        0
280
     0
281
     0
  0
CLASS
  1
LONG_TRANSACTION
  2
AcDbLongTransaction
  3
AutoCAD 2000
 90
        0
280
     0
281
     0
  0
CLASS
  1
LWPOLYLINE
  2
AcDbPolyline
  3
AutoCAD 2000
 90
        0
280
     0
281
     1
  0
CLASS
  1
HATCH
  2
AcDbHatch
  3
AutoCAD 2000
 90
        0
280
     0
281
     1
  0
CLASS
  1
XRECORD
  2
AcDbXrecord
  3
AutoCAD 2000
 90
        0
280
     0
281
     0
  0
CLASS
  1
LONG_TRANSACTION
  2
AcDbLongTransaction
  3
AutoCAD 2000
 90
        0
280
     0
281
     0
  0
CLASS
  1
LWPOLYLINE
  2
AcDbPolyline
  3
AutoCAD 2000
 90
        0
280
     0
281
     1
  0
CLASS
  1
HATCH
  2
AcDbHatch
  3
AutoCAD 2000
 90
        0
280
     0
281
     1
  0
CLASS
  1
XRECORD
  2
AcDbXrecord
  3
AutoCAD 2000
 90
        0
280
     0
281
     0
  0
CLASS
  1
LONG_TRANSACTION
  2
AcDbLongTransaction
  3
AutoCAD 2000
 90
        0
280
     0
281
     0
  0
CLASS
  1
LWPOLYLINE
  2
AcDbPolyline
  3
AutoCAD 2000
 90
        0
280
     0
281
     1
  0
CLASS
  1
HATCH
  2
AcDbHatch
  3
AutoCAD 2000
 90
        0
280
     0
281
     1
  0
CLASS
  1
XRECORD
  2
AcDbXrecord
  3
AutoCAD 2000
 90
        0
280
     0
281
     0
  0
CLASS
  1
LONG_TRANSACTION
  2
AcDbLongTransaction
  3
AutoCAD 2000
 90
        0
280
     0
281
     0
  0
CLASS
  1
LWPOLYLINE
  2
AcDbPolyline
  3
AutoCAD 2000
 90
        0
280
     0
281
     1
  0
CLASS
  1
HATCH
  2
AcDbHatch
  3
AutoCAD 2000
 90
        0
280
     0
281
     1
  0
CLASS
  1
XRECORD
  2
AcDbXrecord
  3
AutoCAD 2000
 90
        0
280
     0
281
     0
  0
CLASS
  1
LONG_TRANSACTION
  2
AcDbLongTransaction
  3
AutoCAD 2000
 90
        0
280
     0
281
     0
  0
CLASS
  1
LWPOLYLINE
  2
AcDbPolyline
  3
AutoCAD 2000
 90
        0
280
     0
281
     1
  0
CLASS
  1
HATCH
  2
AcDbHatch
  3
AutoCAD 2000
 90
        0
280
     0
281
     1
  0
CLASS
  1
XRECORD
  2
AcDbXrecord
  3
AutoCAD 2000
 90
        0
280
     0
281
     0
  0
CLASS
  1
LONG_TRANSACTION
  2
AcDbLongTransaction
  3
AutoCAD 2000
 90
        0
280
     0
281
     0
  0
CLASS
  1
LWPOLYLINE
  2
AcDbPolyline
  3
AutoCAD 2000
 90
        0
280
     0
281
     1
  0
CLASS
  1
HATCH
  2
AcDbHatch
  3
AutoCAD 2000
 90
        0
280
     0
281
     1
  0
CLASS
  1
XRECORD
  2
AcDbXrecord
  3
AutoCAD 2000
 90
        0
280
     0
281
     0
  0
CLASS
  1
LONG_TRANSACTION
  2
AcDbLongTransaction
  3
AutoCAD 2000
 90
        0
280
     0
281
     0
  0
CLASS
  1
LWPOLYLINE
  2
AcDbPolyline
  3
AutoCAD 2000
 90
        0
280
     0
281
     1
  0
CLASS
  1
HATCH
  2
AcDbHatch
  3
AutoCAD 2000
 90
        0
280
     0
281
     1
  0
CLASS
  1
XRECORD
  2
AcDbXrecord
  3
AutoCAD 2000
 90
        0
280
     0
281
     0
  0
CLASS
  1
LONG_TRANSACTION
  2
AcDbLongTransaction
  3
AutoCAD 2000
 90
        0
280
     0
281
     0
  0
CLASS
  1
LWPOLYLINE
  2
AcDbPolyline
  3
AutoCAD 2000
 90
        0
280
     0
281
     1
  0
CLASS
  1
HATCH
  2
AcDbHatch
  3
AutoCAD 2000
 90
        0
280
     0
281
     1
  0
CLASS
  1
XRECORD
  2
AcDbXrecord
  3
AutoCAD 2000
 90
        0
280
     0
281
     0
  0
CLASS
  1
LONG_TRANSACTION
  2
AcDbLongTransaction
  3
AutoCAD 2000
 90
        0
280
     0
281
     0
  0
CLASS
  1
LWPOLYLINE
  2
AcDbPolyline
  3
AutoCAD 2000
 90
        0
280
     0
281
     1
  0
CLASS
  1
HATCH
  2
AcDbHatch
  3
AutoCAD 2000
 90
        0
280
     0
281
     1
  0
CLASS
  1
XRECORD
  2
AcDbXrecord
  3
AutoCAD 2000
 90
        0
280
     0
281
     0
  0
CLASS
  1
LONG_TRANSACTION
  2
AcDbLongTransaction
  3
AutoCAD 2000
 90
        0
280
     0
281
     0
  0
CLASS
  1
LWPOLYLINE
  2
AcDbPolyline
  3
AutoCAD 2000
 90
        0
280
     0
281
     1
  0
CLASS
  1
HATCH
  2
AcDbHatch
  3
AutoCAD 2000
 90
        0
280
     0
281
     1
  0
CLASS
  1
XRECORD
  2
AcDbXrecord
  3
AutoCAD 2000
 90
        0
280
     0
281
     0
  0
CLASS
  1
LONG_TRANSACTION
  2
AcDbLongTransaction
  3
AutoCAD 2000
 90
        0
280
     0
281
     0
  0
CLASS
  1
LWPOLYLINE
  2
AcDbPolyline
  3
AutoCAD 2000
 90
        0
280
     0
281
     1
  0
CLASS
  1
HATCH
  2
AcDbHatch
  3
AutoCAD 2000
 90
        0
280
     0
281
     1
  0
CLASS
  1
XRECORD
  2
AcDbXrecord
  3
AutoCAD 2000
 90
        0
280
     0
281
     0
  0
CLASS
  1
LONG_TRANSACTION
  2
AcDbLongTransaction
  3
AutoCAD 2000
 90
        0
280
     0
281
     0
  0
CLASS
  1
LWPOLYLINE
  2
AcDbPolyline
  3
AutoCAD 2000
 90
        0
280
     0
281
     1
  0
CLASS
  1
HATCH
  2
AcDbHatch
  3
AutoCAD 2000
 90
        0
280
     0
281
     1
  0
CLASS
  1
XRECORD
  2
AcDbXrecord
  3
AutoCAD 2000
 90
        0
280
     0
281
     0
  0
CLASS
  1
LONG_TRANSACTION
  2
AcDbLongTransaction
  3
AutoCAD 2000
 90
        0
280
     0
281
     0
  0
CLASS
  1
LWPOLYLINE
  2
AcDbPolyline
  3
AutoCAD 2000
 90
        0
280
     0
281
     1
  0
CLASS
  1
HATCH
  2
AcDbHatch
  3
AutoCAD 2000
 90
        0
280
     0
281
     1
  0
CLASS
  1
XRECORD
  2
AcDbXrecord
  3
AutoCAD 2000
 90
        0
280
     0
281
     0
  0
CLASS
  1
LONG_TRANSACTION
  2
AcDbLongTransaction
  3
AutoCAD 2000
 90
        0
280
     0
281
     0
  0
CLASS
  1
LWPOLYLINE
  2
AcDbPolyline
  3
AutoCAD 2000
 90
        0
280
     0
281
     1
  0
CLASS
  1
HATCH
  2
AcDbHatch
  3
AutoCAD 2000
 90
        0
280
     0
281
     1
  0
CLASS
  1
XRECORD
  2
AcDbXrecord
  3
AutoCAD 2000
 90
        0
280
     0
281
     0
  0
CLASS
  1
LONG_TRANSACTION
  2
AcDbLongTransaction
  3
AutoCAD 2000
 90
        0
280
     0
281
     0
  0
CLASS
  1
LWPOLYLINE
  2
AcDbPolyline
  3
AutoCAD 2000
 90
        0
280
     0
281
     1
  0
CLASS
  1
HATCH
  2
AcDbHatch
  3
AutoCAD 2000
 90
        0
280
     0
281
     1
  0
CLASS
  1
XRECORD
  2
AcDbXrecord
  3
AutoCAD 2000
 90
        0
280
     0
281
     0
  0
CLASS
  1
LONG_TRANSACTION
  2
AcDbLongTransaction
  3
AutoCAD 2000
 90
        0
280
     0
281
     0
  0
CLASS
  1
LWPOLYLINE
  2
AcDbPolyline
  3
AutoCAD 2000
 90
        0
280
     0
281
     1
  0
CLASS
  1
HATCH
  2
AcDbHatch
  3
AutoCAD 2000
 90
        0
280
     0
281
     1
  0
CLASS
  1
XRECORD
  2
AcDbXrecord
  3
AutoCAD 2000
 90
        0
280
     0
281
     0
  0
CLASS
  1
LONG_TRANSACTION
  2
AcDbLongTransaction
  3
AutoCAD 2000
 90
        0
280
     0
281
     0
  0
CLASS
  1
LWPOLYLINE
  2
AcDbPolyline
  3
AutoCAD 2000
 90
        0
280
     0
281
     1
  0
CLASS
  1
HATCH
  2
AcDbHatch
  3
AutoCAD 2000
 90
        0
280
     0
281
     1
  0
CLASS
  1
XRECORD
  2
AcDbXrecord
  3
AutoCAD 2000
 90
        0
280
     0
281
     0
  0
CLASS
  1
LONG_TRANSACTION
  2
AcDbLongTransaction
  3
AutoCAD 2000
 90
        0
280
     0
281
     0
  0
CLASS
  1
LWPOLYLINE
  2
AcDbPolyline
  3
AutoCAD 2000
 90
        0
280
     0
281
     1
  0
CLASS
  1
HATCH
  2
AcDbHatch
  3
AutoCAD 2000
 90
        0
280
     0
281
     1
  0
CLASS
  1
XRECORD
  2
AcDbXrecord
  3
AutoCAD 2000
 90
        0
280
     0
281
     0
  0
CLASS
  1
LONG_TRANSACTION
  2
AcDbLongTransaction
  3
AutoCAD 2000
 90
        0
280
     0
281
     0
  0
CLASS
  1
LWPOLYLINE
  2
AcDbPolyline
  3
AutoCAD 2000
 90
        0
280
     0
281
     1
  0
CLASS
  1
HATCH
  2
AcDbHatch
  3
AutoCAD 2000
 90
        0
280
     0
281
     1
  0
CLASS
  1
XRECORD
  2
AcDbXrecord
  3
AutoCAD 2000
 90
        0
280
     0
281
     0
  0
CLASS
  1
LONG_TRANSACTION
  2
AcDbLongTransaction
  3
AutoCAD 2000
 90
        0
280
     0
281
     0
  0
CLASS
  1
LWPOLYLINE
  2
AcDbPolyline
  3
AutoCAD 2000
 90
        0
280
     0
281
     1
  0
CLASS
  1
HATCH
  2
AcDbHatch
  3
AutoCAD 2000
 90
        0
280
     0
281
     1
  0
CLASS
  1
XRECORD
  2
AcDbXrecord
  3
AutoCAD 2000
 90
        0
280
     0
281
     0
  0
CLASS
  1
LONG_TRANSACTION
  2
AcDbLongTransaction
  3
AutoCAD 2000
 90
        0
280
     0
281
     0
  0
CLASS
  1
LWPOLYLINE
  2
AcDbPolyline
  3
AutoCAD 2000
 90
        0
280
     0
281
     1
  0
CLASS
  1
HATCH
  2
AcDbHatch
  3
AutoCAD 2000
 90
        0
280
     0
281
     1
  0
CLASS
  1
XRECORD
  2
AcDbXrecord
  3
AutoCAD 2000
 90
        0
280
     0
281
     0
  0
CLASS
  1
LONG_TRANSACTION
  2
AcDbLongTransaction
  3
AutoCAD 2000
 90
        0
280
     0
281
     0
  0
CLASS
  1
LWPOLYLINE
  2
AcDbPolyline
  3
AutoCAD 2000
 90
        0
280
     0
281
     1
  0
CLASS
  1
HATCH
  2
AcDbHatch
  3
AutoCAD 2000
 90
        0
280
     0
281
     1
  0
CLASS
  1
XRECORD
  2
AcDbXrecord
  3
AutoCAD 2000
 90
        0
280
     0
281
     0
  0
ENDSEC
  0
SECTION
  2
TABLES
  0
TABLE
  2
VPORT
  5
8
330
0
100
AcDbSymbolTable
 70
     2
  0
VPORT
  5
AB1F
330
8
100
AcDbSymbolTableRecord
100
AcDbViewportTableRecord
  2
*ACTIVE
 70
     0
 10
0.0
 20
0.0
 11
1.0
 21
1.0
 12
15.79807257155001
 22
9.49480979353965
 13
0.0
 23
0.0
 14
0.5
 24
0.5
 15
0.5
 25
0.5
 16
0.0
 26
0.0
 36
1.0
 17
0.0
 27
0.0
 37
0.0
 40
23.87093562714576
 41
1.55078125
 42
50.0
 43
0.0
 44
0.0
 50
0.0
 51
0.0
 71
     0
 72
   100
 73
     1
 74
     2
 75
     0
 76
     0
 77
     0
 78
     0
  0
ENDTAB
  0
TABLE
  2
LTYPE
  5
5
330
0
100
AcDbSymbolTable
 70
     7
  0
LTYPE
  5
14
330
5
100
AcDbSymbolTableRecord
100
AcDbLinetypeTableRecord
  2
BYBLOCK
 70
     0
  3

 72
    65
 73
     0
 40
0.0
  0
LTYPE
  5
15
330
5
100
AcDbSymbolTableRecord
100
AcDbLinetypeTableRecord
  2
BYLAYER
 70
     0
  3

 72
    65
 73
     0
 40
0.0
  0
LTYPE
  5
16
330
5
100
AcDbSymbolTableRecord
100
AcDbLinetypeTableRecord
  2
CONTINUOUS
 70
     0
  3
Solid line
 72
    65
 73
     0
 40
0.0
  0
LTYPE
  5
3D
330
5
100
AcDbSymbolTableRecord
100
AcDbLinetypeTableRecord
  2
CENTER2
 70
     0
  3
Center (.5x) ___ _ ___ _ ___ _ ___ _ ___ _ ___
 72
    65
 73
     4
 40
1.125
 49
0.75
 74
     0
 49
-0.125
 74
     0
 49
0.125
 74
     0
 49
-0.125
 74
     0
  0
LTYPE
  5
40
330
5
100
AcDbSymbolTableRecord
100
AcDbLinetypeTableRecord
  2
HIDDEN2
 70
     0
  3
Hidden (.5x) _ _ _ _ _ _ _ _ _ _ _ _ _ _ _ _ _
 72
    65
 73
     2
 40
0.1875
 49
0.125
 74
     0
 49
-0.0625
 74
     0
  0
LTYPE
  5
41
330
5
100
AcDbSymbolTableRecord
100
AcDbLinetypeTableRecord
  2
PHANTOM2
 70
     0
  3
Phantom (.5x) ___ _ _ ___ _ _ ___ _ _ ___ _ _
 72
    65
 73
     6
 40
1.25
 49
0.625
 74
     0
 49
-0.125
 74
     0
 49
0.125
 74
     0
 49
-0.125
 74
     0
 49
0.125
 74
     0
 49
-0.125
 74
     0
  0
LTYPE
  5
396
330
5
100
AcDbSymbolTableRecord
100
AcDbLinetypeTableRecord
  2
HIDDEN
 70
     0
  3
Hidden __ __ __ __ __ __ __ __ __ __ __ __ __ _
 72
    65
 73
     2
 40
0.375
 49
0.25
 74
     0
 49
-0.125
 74
     0
  0
LTYPE
  5
3F44
330
5
100
AcDbSymbolTableRecord
100
AcDbLinetypeTableRecord
  2
DASHDOT2
 70
     0
  3
Dash dot (.5x) _._._._._._._._._._._._._._._.
 72
    65
 73
     4
 40
0.5
 49
0.25
 74
     0
 49
-0.125
 74
     0
 49
0.0
 74
     0
 49
-0.125
 74
     0
  0
LTYPE
  5
3F45
330
5
100
AcDbSymbolTableRecord
100
AcDbLinetypeTableRecord
  2
DASHED2
 70
     0
  3
Dashed (.5x) _ _ _ _ _ _ _ _ _ _ _ _ _ _ _ _ _
 72
    65
 73
     2
 40
0.375
 49
0.25
 74
     0
 49
-0.125
 74
     0
  0
ENDTAB
  0
TABLE
  2
LAYER
  5
2
330
0
100
AcDbSymbolTable
 70
    26
  0
LAYER
  5
10
330
2
100
AcDbSymbolTableRecord
100
AcDbLayerTableRecord
  2
0
 70
     0
 62
     7
  6
CONTINUOUS
  0
LAYER
  5
43
330
2
100
AcDbSymbolTableRecord
100
AcDbLayerTableRecord
  2
CENTER1
 70
     0
 62
     2
  6
CENTER2
  0
LAYER
  5
47
330
2
100
AcDbSymbolTableRecord
100
AcDbLayerTableRecord
  2
CONTINUOUS1
 70
     0
 62
     7
  6
CONTINUOUS
  0
LAYER
  5
48
330
2
100
AcDbSymbolTableRecord
100
AcDbLayerTableRecord
  2
CONTINUOUS2
 70
     0
 62
   254
  6
CONTINUOUS
  0
LAYER
  5
49
330
2
100
AcDbSymbolTableRecord
100
AcDbLayerTableRecord
  2
CONTINUOUS3
 70
     0
 62
   253
  6
CONTINUOUS
  0
LAYER
  5
4D
330
2
100
AcDbSymbolTableRecord
100
AcDbLayerTableRecord
  2
DIM
 70
     0
 62
     2
  6
CONTINUOUS
  0
LAYER
  5
4E
330
2
100
AcDbSymbolTableRecord
100
AcDbLayerTableRecord
  2
HIDDEN1
 70
     0
 62
     5
  6
HIDDEN2
  0
LAYER
  5
55
330
2
100
AcDbSymbolTableRecord
100
AcDbLayerTableRecord
  2
TEXT1
 70
     0
 62
     3
  6
CONTINUOUS
  0
LAYER
  5
56
330
2
100
AcDbSymbolTableRecord
100
AcDbLayerTableRecord
  2
TEXT2
 70
     0
 62
    80
  6
CONTINUOUS
  0
LAYER
  5
58
330
2
100
AcDbSymbolTableRecord
100
AcDbLayerTableRecord
  2
TITLEBLOCK
 70
     0
 62
     9
  6
CONTINUOUS
  0
LAYER
  5
59
330
2
100
AcDbSymbolTableRecord
100
AcDbLayerTableRecord
  2
VIEWPORT
 70
     0
 62
     9
  6
CONTINUOUS
  0
LAYER
  5
E48
330
2
100
AcDbSymbolTableRecord
100
AcDbLayerTableRecord
  2
REFERENCE
 70
     0
 62
     2
  6
CONTINUOUS
  0
LAYER
  5
E49
330
2
100
AcDbSymbolTableRecord
100
AcDbLayerTableRecord
  2
DEFPOINTS
 70
     0
 62
     7
  6
CONTINUOUS
  0
LAYER
  5
3F46
330
2
100
AcDbSymbolTableRecord
100
AcDbLayerTableRecord
  2
PHANTOM1
 70
     0
 62
     6
  6
PHANTOM2
  0
LAYER
  5
3F47
330
2
100
AcDbSymbolTableRecord
100
AcDbLayerTableRecord
  2
PHANTOM2
 70
     0
 62
   210
  6
PHANTOM2
  0
LAYER
  5
3F48
330
2
100
AcDbSymbolTableRecord
100
AcDbLayerTableRecord
  2
PHANTOM3
 70
     0
 62
   212
  6
PHANTOM2
  0
LAYER
  5
3F49
330
2
100
AcDbSymbolTableRecord
100
AcDbLayerTableRecord
  2
DASHDOT2
 70
     0
 62
    10
  6
DASHDOT2
  0
LAYER
  5
3F4A
330
2
100
AcDbSymbolTableRecord
100
AcDbLayerTableRecord
  2
DASHDOT3
 70
     0
 62
    12
  6
DASHDOT2
  0
LAYER
  5
3F4B
330
2
100
AcDbSymbolTableRecord
100
AcDbLayerTableRecord
  2
HIDDEN2
 70
     0
 62
   160
  6
HIDDEN2
  0
LAYER
  5
3F4C
330
2
100
AcDbSymbolTableRecord
100
AcDbLayerTableRecord
  2
HIDDEN3
 70
     0
 62
   162
  6
HIDDEN2
  0
LAYER
  5
3F4D
330
2
100
AcDbSymbolTableRecord
100
AcDbLayerTableRecord
  2
TEXT3
 70
     0
 62
    82
  6
CONTINUOUS
  0
LAYER
  5
3F4E
330
2
100
AcDbSymbolTableRecord
100
AcDbLayerTableRecord
  2
BLOCKS
 70
     0
 62
     7
  6
CONTINUOUS
  0
LAYER
  5
3F4F
330
2
100
AcDbSymbolTableRecord
100
AcDbLayerTableRecord
  2
CENTER2
 70
     0
 62
    50
  6
CENTER2
  0
LAYER
  5
3F50
330
2
100
AcDbSymbolTableRecord
100
AcDbLayerTableRecord
  2
CENTER3
 70
     0
 62
    51
  6
CENTER2
  0
LAYER
  5
3F51
330
2
100
AcDbSymbolTableRecord
100
AcDbLayerTableRecord
  2
CONSTRUCTION
 70
     0
 62
   241
  6
DASHED2
  0
LAYER
  5
3F52
330
2
100
AcDbSymbolTableRecord
100
AcDbLayerTableRecord
  2
DASHDOT1
 70
     0
 62
     1
  6
DASHDOT2
  0
ENDTAB
  0
TABLE
  2
STYLE
  5
3
330
0
100
AcDbSymbolTable
 70
     4
  0
STYLE
  5
11
330
3
100
AcDbSymbolTableRecord
100
AcDbTextStyleTableRecord
  2
STANDARD
 70
     0
 40
0.0
 41
1.0
 50
0.0
 71
     0
 42
0.2
  3
txt
  4

  0
STYLE
  5
36
330
3
100
AcDbSymbolTableRecord
100
AcDbTextStyleTableRecord
  2
ROMANS
 70
     0
 40
0.0
 41
1.0
 50
0.0
 71
     0
 42
0.2
  3
romans.shx
  4

  0
STYLE
  5
6CC
330
3
100
AcDbSymbolTableRecord
100
AcDbTextStyleTableRecord
  2
M_STANDARD
 70
     0
 40
0.0
 41
0.8
 50
0.0
 71
     0
 42
0.0
  3
MEDUSA.SHX
  4

  0
STYLE
  5
E4A
330
3
100
AcDbSymbolTableRecord
100
AcDbTextStyleTableRecord
  2
SIMPLEX
 70
     0
 40
0.0
 41
1.0
 50
0.0
 71
     0
 42
0.25
  3
SIMPLEX.shx
  4

  0
ENDTAB
  0
TABLE
  2
VIEW
  5
6
330
0
100
AcDbSymbolTable
 70
     0
  0
ENDTAB
  0
TABLE
  2
UCS
  5
7
330
0
100
AcDbSymbolTable
 70
     0
  0
ENDTAB
  0
TABLE
  2
APPID
  5
9
330
0
100
AcDbSymbolTable
 70
    12
  0
APPID
  5
12
330
9
100
AcDbSymbolTableRecord
100
AcDbRegAppTableRecord
  2
ACAD
 70
     0
  0
APPID
  5
6B
330
9
100
AcDbSymbolTableRecord
100
AcDbRegAppTableRecord
  2
DCO15
 70
     0
  0
APPID
  5
370
330
9
100
AcDbSymbolTableRecord
100
AcDbRegAppTableRecord
  2
MCAD_NO_VIS
 70
     0
  0
APPID
  5
371
330
9
100
AcDbSymbolTableRecord
100
AcDbRegAppTableRecord
  2
ACAD_TEMP_GRAPHIC
 70
     0
  0
APPID
  5
387
330
9
100
AcDbSymbolTableRecord
100
AcDbRegAppTableRecord
  2
GENIUS_GENSCREG_15
 70
     0
  0
APPID
  5
389
330
9
100
AcDbSymbolTableRecord
100
AcDbRegAppTableRecord
  2
GENIUS_GENODEF_13
 70
     0
  0
APPID
  5
38A
330
9
100
AcDbSymbolTableRecord
100
AcDbRegAppTableRecord
  2
GENIUS_GENOBJ-N-SDF_13
 70
     0
  0
APPID
  5
38B
330
9
100
AcDbSymbolTableRecord
100
AcDbRegAppTableRecord
  2
GENIUS_GENOENT_13
 70
     0
  0
APPID
  5
38C
330
9
100
AcDbSymbolTableRecord
100
AcDbRegAppTableRecord
  2
GENIUS_GENOREF_13
 70
     0
  0
APPID
  5
38D
330
9
100
AcDbSymbolTableRecord
100
AcDbRegAppTableRecord
  2
GENIUS_GENOLIS_13
 70
     0
  0
APPID
  5
6CE
330
9
100
AcDbSymbolTableRecord
100
AcDbRegAppTableRecord
  2
MED_PRIMTYPE
 70
     0
  0
APPID
  5
31DF
330
9
100
AcDbSymbolTableRecord
100
AcDbRegAppTableRecord
  2
CONTENTBLOCKICON
 70
     0
  0
ENDTAB
  0
TABLE
  2
DIMSTYLE
  5
A
330
0
100
AcDbSymbolTable
 70
     1
  0
DIMSTYLE
105
A799
102
{ACAD_REACTORS
330
A2A2
330
A0EF
330
A0E1
330
A0D3
330
9F60
330
9E65
330
9E62
330
9E61
330
9E60
330
9E5F
330
9E5E
102
}
330
A
100
AcDbSymbolTableRecord
100
AcDbDimStyleTableRecord
  2
SCHNEIDERELECTRIC
 70
     0
  3
\X
  4

  5
SEARROW
  6

  7

 40
0.0
 41
0.07
 42
0.0625
 43
0.38
 44
0.0625
 45
0.001
 46
0.0
 47
0.0
 48
0.0
140
0.1
141
0.09
142
0.0
143
25.4
144
1.0
145
0.0
146
1.0
147
0.04
 71
     0
 72
     0
 73
     1
 74
     1
 75
     0
 76
     0
 77
     0
 78
     4
170
     1
171
     0
172
     0
173
     0
174
     0
175
     0
176
   256
177
   256
178
   256
270
     2
271
     2
272
     2
273
     2
274
     0
340
36
275
     0
280
     0
281
     0
282
     0
283
     1
284
     0
285
     0
286
     0
287
     3
288
     0
  0
ENDTAB
  0
TABLE
  2
BLOCK_RECORD
  5
1
330
0
100
AcDbSymbolTable
 70
    19
  0
BLOCK_RECORD
  5
1F
102
{ACAD_XDICTIONARY
360
73
102
}
330
1
100
AcDbSymbolTableRecord
100
AcDbBlockTableRecord
  2
*MODEL_SPACE
  0
BLOCK_RECORD
  5
1B
102
{ACAD_XDICTIONARY
360
75
102
}
330
1
100
AcDbSymbolTableRecord
100
AcDbBlockTableRecord
  2
*PAPER_SPACE
  0
BLOCK_RECORD
  5
841
330
1
100
AcDbSymbolTableRecord
100
AcDbBlockTableRecord
  2
LOGO-PAD
1001
ACAD
1000
DesignCenter Data
1002
{
1070
     1
1070
     1
1002
}
  0
BLOCK_RECORD
  5
AE5
330
1
100
AcDbSymbolTableRecord
100
AcDbBlockTableRecord
  2
TITLE-PAD
1001
ACAD
1000
DesignCenter Data
1002
{
1070
     1
1070
     1
1002
}
  0
BLOCK_RECORD
  5
CB7
330
1
100
AcDbSymbolTableRecord
100
AcDbBlockTableRecord
  2
REF2
  0
BLOCK_RECORD
  5
3F29
330
1
100
AcDbSymbolTableRecord
100
AcDbBlockTableRecord
  2
NEWLAYERS
1001
ACAD
1000
DesignCenter Data
1002
{
1070
     1
1070
     1
1002
}
  0
BLOCK_RECORD
  5
9969
330
1
100
AcDbSymbolTableRecord
100
AcDbBlockTableRecord
  2
KAL_SIDE
  0
BLOCK_RECORD
  5
9980
330
1
100
AcDbSymbolTableRecord
100
AcDbBlockTableRecord
  2
KAL_FRNT
  0
BLOCK_RECORD
  5
9FC5
330
1
100
AcDbSymbolTableRecord
100
AcDbBlockTableRecord
  2
*D6
  0
BLOCK_RECORD
  5
9FD2
330
1
100
AcDbSymbolTableRecord
100
AcDbBlockTableRecord
  2
*D7
  0
BLOCK_RECORD
  5
9FDF
330
1
100
AcDbSymbolTableRecord
100
AcDbBlockTableRecord
  2
*D8
  0
BLOCK_RECORD
  5
9FEC
330
1
100
AcDbSymbolTableRecord
100
AcDbBlockTableRecord
  2
*D9
  0
BLOCK_RECORD
  5
9FF9
330
1
100
AcDbSymbolTableRecord
100
AcDbBlockTableRecord
  2
*D10
  0
BLOCK_RECORD
  5
A007
330
1
100
AcDbSymbolTableRecord
100
AcDbBlockTableRecord
  2
*D11
  0
BLOCK_RECORD
  5
A014
330
1
100
AcDbSymbolTableRecord
100
AcDbBlockTableRecord
  2
*D12
  0
BLOCK_RECORD
  5
A0D4
330
1
100
AcDbSymbolTableRecord
100
AcDbBlockTableRecord
  2
*D13
  0
BLOCK_RECORD
  5
A0E2
330
1
100
AcDbSymbolTableRecord
100
AcDbBlockTableRecord
  2
*D14
  0
BLOCK_RECORD
  5
A0F0
330
1
100
AcDbSymbolTableRecord
100
AcDbBlockTableRecord
  2
*D15
  0
BLOCK_RECORD
  5
A2A3
330
1
100
AcDbSymbolTableRecord
100
AcDbBlockTableRecord
  2
*D16
  0
BLOCK_RECORD
  5
A794
330
1
100
AcDbSymbolTableRecord
100
AcDbBlockTableRecord
  2
SEARROW
1001
ACAD
1000
DesignCenter Data
1002
{
1070
     1
1070
     1
1002
}
  0
BLOCK_RECORD
  5
A97E
330
1
100
AcDbSymbolTableRecord
100
AcDbBlockTableRecord
  2
A$C0AEE0489
  0
ENDTAB
  0
ENDSEC
  0
SECTION
  2
BLOCKS
  0
BLOCK
  5
20
330
1F
100
AcDbEntity
  8
0
100
AcDbBlockBegin
  2
*MODEL_SPACE
 70
     0
 10
0.0
 20
0.0
 30
0.0
  3
*MODEL_SPACE
  1

  0
ENDBLK
  5
21
330
1F
100
AcDbEntity
  8
0
100
AcDbBlockEnd
  0
BLOCK
  5
1C
330
1B
100
AcDbEntity
 67
     1
  8
0
100
AcDbBlockBegin
  2
*PAPER_SPACE
 70
     0
 10
0.0
 20
0.0
 30
0.0
  3
*PAPER_SPACE
  1

  0
ENDBLK
  5
1D
330
1B
100
AcDbEntity
 67
     1
  8
0
100
AcDbBlockEnd
  0
BLOCK
  5
852
330
841
100
AcDbEntity
  8
0
100
AcDbBlockBegin
  2
LOGO-PAD
 70
     0
 10
0.0
 20
0.0
 30
0.0
  3
LOGO-PAD
  1

  0
HATCH
  5
842
330
841
100
AcDbEntity
  8
TITLEBLOCK
 62
     0
100
AcDbHatch
 10
0.0
 20
0.0
 30
0.0
210
0.0
220
0.0
230
1.0
  2
SOLID
 70
     1
 71
     0
 91
        2
 92
        1
 93
       11
 72
     2
 10
1.203771209334867
 20
0.3650136751459491
 40
0.021562648149145
 50
90.00000747299615
 51
179.9997683268519
 73
     1
 72
     1
 10
1.182208561185898
 20
0.3650137623336376
 11
1.182208392435807
 21
0.2795138227272444
 72
     2
 10
1.203771079023129
 20
0.2795136821032751
 40
0.0215626865877801
 50
179.9996263378447
 51
269.9998903896797
 73
     1
 72
     1
 10
1.203771037772394
 20
0.2579509955155343
 11
1.330521045577125
 21
0.2579511736405264
 72
     2
 10
1.330521265257171
 20
0.2795136382789064
 40
0.021562464639499
 50
269.9994162661957
 51
311.7040125634689
 73
     1
 72
     1
 10
1.344866398698837
 20
0.2634152834601535
 11
1.352083334663557
 21
0.2579511736405264
 72
     1
 10
1.352083334663557
 20
0.2579511736405264
 11
1.365099386916806
 21
0.2751416404960081
 72
     1
 10
1.365099386916806
 20
0.2751416404960081
 11
1.352083522163621
 21
0.284997066934386
 72
     1
 10
1.352083522163621
 20
0.284997066934386
 11
1.352083690913712
 21
0.3650136723335662
 72
     2
 10
1.330521042764654
 20
0.3650136751460369
 40
0.0215626481490576
 50
359.9999925267666
 51
449.9999925267678
 73
     1
 72
     1
 10
1.330521045577125
 20
0.3865763232950938
 11
1.203771206522485
 21
0.3865763232950938
 97
        0
 92
       16
 93
       10
 72
     2
 10
1.21455271481628
 20
0.3542325202904111
 40
0.0107811520434708
 50
90.00043844291294
 51
179.9999701074038
 73
     1
 72
     1
 10
1.203771562772811
 20
0.3542325259151993
 11
1.203771562772811
 21
0.2902950591455122
 72
     2
 10
1.214552849813946
 20
0.2902948416431456
 40
0.0107812870433294
 50
179.9988441113203
 51
269.9988441346395
 73
     1
 72
     1
 10
1.214552632315967
 20
0.2795135546020104
 11
1.323606134809704
 21
0.2795135546020104
 72
     1
 10
1.323606134809704
 20
0.2795135546020104
 11
1.280867956889135
 21
0.311873265117333
 72
     1
 10
1.280867956889135
 20
0.311873265117333
 11
1.293884009142384
 21
0.3290635557226322
 72
     1
 10
1.293884009142384
 20
0.3290635557226322
 11
1.330521045577125
 21
0.3013240413506308
 72
     1
 10
1.330521045577125
 20
0.3013240413506308
 11
1.330521045577125
 21
0.3542324377902786
 72
     2
 10
1.319739809158772
 20
0.3542324359152127
 40
0.0107812364183532
 50
0.0000099648460607
 51
90.00000996484372
 73
     1
 72
     1
 10
1.319739807283706
 20
0.3650136723335662
 11
1.214552632315967
 21
0.3650136723335662
 97
        0
 75
     0
 76
     1
 98
        1
 10
-7.279586802153931
 20
-0.4081141432880261
  0
HATCH
  5
843
330
841
100
AcDbEntity
  8
TITLEBLOCK
 62
     0
100
AcDbHatch
 10
0.0
 20
0.0
 30
0.0
210
0.0
220
0.0
230
1.0
  2
SOLID
 70
     1
 71
     0
 91
        1
 92
        1
 93
        4
 72
     1
 10
3.703333445713536
 20
0.1990762889281312
 11
1.018147379006204
 21
0.1990762889281312
 72
     1
 10
1.018147379006204
 20
0.1990762889281312
 11
1.018147379006204
 21
0.220706173683743
 72
     1
 10
1.018147379006204
 20
0.220706173683743
 11
3.703333445713536
 21
0.220706173683743
 72
     1
 10
3.703333445713536
 20
0.220706173683743
 11
3.703333445713536
 21
0.1990762889281312
 97
        0
 75
     0
 76
     1
 98
        1
 10
-7.279586802153931
 20
-0.4081141432880261
  0
HATCH
  5
844
330
841
100
AcDbEntity
  8
TITLEBLOCK
 62
     0
100
AcDbHatch
 10
0.0
 20
0.0
 30
0.0
210
0.0
220
0.0
230
1.0
  2
SOLID
 70
     1
 71
     0
 91
        4
 92
        1
 93
        4
 72
     1
 10
0.8306472632318495
 20
0.4814782717956759
 11
0.4556470182475714
 21
0.4814782717956759
 72
     1
 10
0.4556470182475714
 20
0.4814782717956759
 11
0.4556470182475714
 21
0.1064783844396073
 72
     1
 10
0.4556470182475714
 20
0.1064783844396073
 11
0.8306472632318495
 21
0.1064783844396073
 72
     1
 10
0.8306472632318495
 20
0.1064783844396073
 11
0.8306472632318495
 21
0.4814782717956759
 97
        0
 92
        0
 93
       10
 72
     1
 10
0.7368972019857374
 20
0.4177282462416896
 11
0.5193971779121789
 21
0.4177282462416896
 72
     1
 10
0.5193971779121789
 20
0.4177282462416896
 11
0.5193971779121789
 21
0.37460312508514
 72
     1
 10
0.5193971779121789
 20
0.37460312508514
 11
0.5531473465883146
 21
0.37460312508514
 72
     1
 10
0.5531473465883146
 20
0.37460312508514
 11
0.5531473465883146
 21
0.2133535311501431
 72
     1
 10
0.5531473465883146
 20
0.2133535311501431
 11
0.5193971779121789
 21
0.2133535311501431
 72
     1
 10
0.5193971779121789
 20
0.2133535311501431
 11
0.5193971779121789
 21
0.1702282758831428
 72
     1
 10
0.5193971779121789
 20
0.1702282758831428
 11
0.7368972019857374
 21
0.1702282758831428
 72
     1
 10
0.7368972019857374
 20
0.1702282758831428
 11
0.7668970141602749
 21
0.2002283115750982
 72
     1
 10
0.7668970141602749
 20
0.2002283115750982
 11
0.7668970141602749
 21
0.3877281658462506
 72
     1
 10
0.7668970141602749
 20
0.3877281658462506
 11
0.7368972019857374
 21
0.4177282462416896
 97
        0
 92
       16
 93
        4
 72
     1
 10
0.7987720492890098
 20
0.4496031025563197
 11
0.4875220533764768
 21
0.4496031025563197
 72
     1
 10
0.4875220533764768
 20
0.4496031025563197
 11
0.4875220533764768
 21
0.1383533301613751
 72
     1
 10
0.4875220533764768
 20
0.1383533301613751
 11
0.7987720492890098
 21
0.1383533301613751
 72
     1
 10
0.7987720492890098
 20
0.1383533301613751
 11
0.7987720492890098
 21
0.4496031025563197
 97
        0
 92
        0
 93
        4
 72
     1
 10
0.5962724677448641
 20
0.37460312508514
 11
0.5962724677448641
 21
0.2133535311501431
 72
     1
 10
0.5962724677448641
 20
0.2133535311501431
 11
0.7237719824106926
 21
0.2133535311501431
 72
     1
 10
0.7237719824106926
 20
0.2133535311501431
 11
0.7237719824106926
 21
0.37460312508514
 72
     1
 10
0.7237719824106926
 20
0.37460312508514
 11
0.5962724677448641
 21
0.37460312508514
 97
        0
 75
     0
 76
     1
 98
        1
 10
-7.279586802153931
 20
-0.313212194787444
  0
HATCH
  5
845
330
841
100
AcDbEntity
  8
TITLEBLOCK
 62
     0
100
AcDbHatch
 10
0.0
 20
0.0
 30
0.0
210
0.0
220
0.0
230
1.0
  2
SOLID
 70
     1
 71
     0
 91
        1
 92
        1
 93
       26
 72
     1
 10
1.050490193885575
 20
0.3650136723335662
 11
1.138990457951802
 21
0.3650136723335662
 72
     2
 10
1.138990281703138
 20
0.3542326140418093
 40
0.0107810582931976
 50
270.0009366709926
 51
360.0009366862294
 73
     0
 72
     1
 10
1.149771339994895
 20
0.3542324377902786
 11
1.171333797831589
 21
0.3542324377902786
 72
     1
 10
1.171333797831589
 20
0.3542324377902786
 11
1.171333797831589
 21
0.3650136723335662
 72
     2
 10
1.149771243432702
 20
0.365013768896207
 40
0.0215625543991033
 50
359.9997434148255
 51
449.9997434160159
 73
     1
 72
     1
 10
1.149771339994895
 20
0.3865763232950938
 11
1.039708786842066
 21
0.3865763232950938
 72
     2
 10
1.039709408398413
 20
0.3650142939052909
 40
0.0215620293987615
 50
90.00165163282177
 51
180.0014125206716
 73
     1
 72
     1
 10
1.018147379006204
 20
0.3650137623336376
 11
1.018147379006204
 21
0.3334199129435318
 72
     2
 10
1.039709363397143
 20
0.3334193363730153
 40
0.0215619843986475
 50
179.9984679027414
 51
269.9984679437668
 73
     1
 72
     1
 10
1.039708786842066
 20
0.3118573519820755
 11
1.138990457951802
 21
0.311857620107139
 72
     2
 10
1.138990280765661
 20
0.3010765608779043
 40
0.0107810592306907
 50
270.0009416531222
 51
360.0009416684906
 73
     0
 72
     1
 10
1.149771339994895
 20
0.3010763836888712
 11
1.149771508744986
 21
0.2902949691454408
 72
     2
 10
1.138990231076649
 20
0.2902948322713164
 40
0.0107812776692067
 50
359.9992725992319
 51
449.9997907459082
 73
     0
 72
     1
 10
1.138990270451738
 20
0.279513554602181
 11
1.050490193885575
 21
0.2795135546020104
 72
     2
 10
1.05049014888543
 20
0.2902951041454384
 40
0.0107815495435218
 50
89.99976085826782
 51
179.9997608594354
 73
     0
 72
     1
 10
1.039708599342002
 20
0.2902950591455122
 11
1.018147379006204
 21
0.2902950591455122
 72
     1
 10
1.018147379006204
 20
0.2902950591455122
 11
1.018147379006204
 21
0.2795138227272444
 72
     2
 10
1.039709273392517
 20
0.2795130680345569
 40
0.0215618943995203
 50
179.9979945776083
 51
269.9987071039827
 73
     1
 72
     1
 10
1.039708786842066
 20
0.2579511736405264
 11
1.149771339994895
 21
0.2579511736405264
 72
     2
 10
1.149771378432784
 20
0.2795135930396681
 40
0.0215624193991759
 50
269.9998978626289
 51
359.9996636967671
 73
     1
 72
     1
 10
1.171333797831589
 20
0.2795134664769192
 11
1.171333797831589
 21
0.3114825579869829
 72
     2
 10
1.149771333432362
 20
0.3114825645494808
 40
0.0215624643992288
 50
359.9999825621309
 51
449.9999825620359
 73
     1
 72
     1
 10
1.149771339994895
 20
0.3330450289487088
 11
1.050490193885575
 21
0.3330447608234748
 72
     2
 10
1.050490103885701
 20
0.3438262653667981
 40
0.0107815045436989
 50
89.99952171675776
 51
179.9999900368059
 73
     0
 72
     1
 10
1.039708599342002
 20
0.3438262634919964
 11
1.039708786842066
 21
0.3542325259151993
 72
     2
 10
1.050490107634269
 20
0.3542323515402983
 40
0.0107813207936133
 50
180.0009266903443
 51
270.0004583701697
 73
     0
 97
        0
 75
     0
 76
     1
 98
        1
 10
-7.279586802153931
 20
-0.4081141432880261
  0
HATCH
  5
846
330
841
100
AcDbEntity
  8
TITLEBLOCK
 62
     0
100
AcDbHatch
 10
0.0
 20
0.0
 30
0.0
210
0.0
220
0.0
230
1.0
  2
SOLID
 70
     1
 71
     0
 91
        1
 92
        1
 93
       18
 72
     2
 10
2.471082802883087
 20
0.3650137595211706
 40
0.021562563774099
 50
180.0000074732525
 51
269.9997683261728
 73
     0
 72
     1
 10
2.471082715695484
 20
0.3865763232950938
 11
2.586957622645552
 21
0.3865763232950938
 72
     2
 10
2.586957713583391
 20
0.3650135813961111
 40
0.0215627418991744
 50
269.9997583630888
 51
359.999758364108
 73
     0
 72
     1
 10
2.608520455482373
 20
0.3650136723335662
 11
2.608520455482373
 21
0.3542324377902786
 72
     1
 10
2.608520455482373
 20
0.3542324377902786
 11
2.586957622645552
 21
0.3542324377902786
 72
     2
 10
2.576176208103625
 20
0.3542322577916381
 40
0.0107814145434302
 50
0.0009565685814303
 51
90.00095658455173
 73
     1
 72
     1
 10
2.576176028101979
 20
0.3650136723335662
 11
2.481864141488966
 21
0.3650136723335662
 72
     2
 10
2.481864045863444
 20
0.3542323421656055
 40
0.0107813301683848
 50
89.99949181235312
 51
179.9994918168631
 73
     1
 72
     1
 10
2.471082715695484
 20
0.3542324377902786
 11
2.471082715695484
 21
0.2902950591455122
 72
     2
 10
2.481864090863785
 20
0.2902951097704553
 40
0.0107813751684203
 50
180.0002690376259
 51
270.0002690388874
 73
     1
 72
     1
 10
2.481864141488966
 20
0.2795137346021532
 11
2.576176028101979
 21
0.2795135546020104
 72
     2
 10
2.576176073102679
 20
0.2902951041456356
 40
0.010781549543719
 50
269.9997608553225
 51
359.9992825760937
 73
     1
 72
     1
 10
2.586957622645552
 20
0.2902949691454408
 11
2.608520455482373
 21
0.2902950591455122
 72
     1
 10
2.608520455482373
 20
0.2902950591455122
 11
2.608520099232048
 21
0.2795134664769192
 72
     2
 10
2.586957670458414
 20
0.2795136024145366
 40
0.0215624287740632
 50
0.0003612140281018
 51
90.00012704854281
 73
     0
 72
     1
 10
2.586957622645552
 20
0.2579511736405264
 11
2.471082715695484
 21
0.2579511736405264
 72
     2
 10
2.471082667882924
 20
0.2795136024144634
 40
0.02156242877399
 50
89.99987295225965
 51
179.9998729525419
 73
     0
 72
     1
 10
2.449520239108988
 20
0.2795135546020104
 11
2.449520239108988
 21
0.3650137623336376
 97
        0
 75
     0
 76
     1
 98
        1
 10
-7.279586802153931
 20
-0.4081141432880261
  0
HATCH
  5
847
330
841
100
AcDbEntity
  8
TITLEBLOCK
 62
     0
100
AcDbHatch
 10
0.0
 20
0.0
 30
0.0
210
0.0
220
0.0
230
1.0
  2
SOLID
 70
     1
 71
     0
 91
        1
 92
        1
 93
       12
 72
     1
 10
2.026708344139745
 20
0.3865765014202565
 11
1.890208311215626
 21
0.3865765014202565
 72
     1
 10
1.890208311215626
 20
0.3865765014202565
 11
1.890208311215626
 21
0.2579511736405264
 72
     1
 10
1.890208311215626
 20
0.2579511736405264
 11
2.026708344139745
 21
0.2579511736405264
 72
     1
 10
2.026708344139745
 20
0.2579511736405264
 11
2.026708344139745
 21
0.2795135546020104
 72
     1
 10
2.026708344139745
 20
0.2795135546020104
 11
1.911770600302059
 21
0.2795135546020104
 72
     1
 10
1.911770600302059
 20
0.2795135546020104
 11
1.911770600302059
 21
0.3114825579869829
 72
     1
 10
1.911770600302059
 20
0.3114825579869829
 11
2.026708344139745
 21
0.3114825579869829
 72
     1
 10
2.026708344139745
 20
0.3114825579869829
 11
2.026708344139745
 21
0.333044848948566
 72
     1
 10
2.026708344139745
 20
0.333044848948566
 11
1.911770600302059
 21
0.333044848948566
 72
     1
 10
1.911770600302059
 20
0.333044848948566
 11
1.911770600302059
 21
0.3650136723335662
 72
     1
 10
1.911770600302059
 20
0.3650136723335662
 11
2.026708344139745
 21
0.3650136723335662
 72
     1
 10
2.026708344139745
 20
0.3650136723335662
 11
2.026708344139745
 21
0.3865765014202565
 97
        0
 75
     0
 76
     1
 98
        1
 10
-7.279586802153931
 20
-0.4081141432880261
  0
HATCH
  5
848
330
841
100
AcDbEntity
  8
TITLEBLOCK
 62
     0
100
AcDbHatch
 10
0.0
 20
0.0
 30
0.0
210
0.0
220
0.0
230
1.0
  2
SOLID
 70
     1
 71
     0
 91
        2
 92
        1
 93
        8
 72
     1
 10
1.614830743814064
 20
0.3865765014202565
 11
1.531145595393223
 21
0.2579509955155343
 72
     1
 10
1.531145595393223
 20
0.2579509955155343
 11
1.556870855949323
 21
0.2579511736405264
 72
     1
 10
1.556870855949323
 20
0.2579511736405264
 11
1.570898996363819
 21
0.2795135546020104
 72
     1
 10
1.570898996363819
 20
0.2795135546020104
 11
1.673830432358027
 21
0.2795135546020104
 72
     1
 10
1.673830432358027
 20
0.2795135546020104
 11
1.687858760272586
 21
0.2579514417655899
 72
     1
 10
1.687858760272586
 20
0.2579514417655899
 11
1.713583120827973
 21
0.2579514417655899
 72
     1
 10
1.713583120827973
 20
0.2579514417655899
 11
1.629898141157394
 21
0.3865765014202565
 72
     1
 10
1.629898141157394
 20
0.3865765014202565
 11
1.614830743814064
 21
0.3865765014202565
 97
        0
 92
       16
 93
        3
 72
     1
 10
1.622364536235675
 20
0.3586169575295115
 11
1.659801223192726
 21
0.3010763836888712
 72
     1
 10
1.659801223192726
 20
0.3010763836888712
 11
1.584928205528949
 21
0.3010762055637086
 72
     1
 10
1.584928205528949
 20
0.3010762055637086
 11
1.622364348735612
 21
0.3586165994043766
 97
        0
 75
     0
 76
     1
 98
        1
 10
-7.279586802153931
 20
-0.4081141432880261
  0
HATCH
  5
849
330
841
100
AcDbEntity
  8
TITLEBLOCK
 62
     0
100
AcDbHatch
 10
0.0
 20
0.0
 30
0.0
210
0.0
220
0.0
230
1.0
  2
SOLID
 70
     1
 71
     0
 91
        1
 92
        1
 93
       12
 72
     1
 10
1.392021104504447
 20
0.3865765014202565
 11
1.370458815418015
 21
0.3865765014202565
 72
     1
 10
1.370458815418015
 20
0.3865765014202565
 11
1.370458627917951
 21
0.2795138227272444
 72
     2
 10
1.39202114575308
 20
0.2795135133528436
 40
0.0215625178373483
 50
179.999177932392
 51
269.9998903944058
 73
     1
 72
     1
 10
1.392021104504447
 20
0.2579509955155343
 11
1.509583287556818
 21
0.2579511736405264
 72
     2
 10
1.509583335369764
 20
0.2795136024146219
 40
0.0215624287741484
 50
269.9998729512306
 51
359.9996387857453
 73
     1
 72
     1
 10
1.531145764143484
 20
0.2795134664769192
 11
1.531146120393639
 21
0.3865765014202565
 72
     1
 10
1.531146120393639
 20
0.3865765014202565
 11
1.509583287556818
 21
0.3865765014202565
 72
     1
 10
1.509583287556818
 20
0.3865765014202565
 11
1.509583287556818
 21
0.2902950591455122
 72
     2
 10
1.498801916139266
 20
0.290294926019563
 40
0.0107813714183743
 50
359.9992925246018
 51
449.9992925333428
 73
     0
 72
     1
 10
1.49880204926357
 20
0.2795135546020104
 11
1.402802342797695
 21
0.2795135546020104
 72
     2
 10
1.402802382172719
 20
0.2902950197703451
 40
0.0107814651684066
 50
90.00020925010334
 51
180.0002092508632
 73
     0
 72
     1
 10
1.392020917004384
 20
0.2902950591455122
 11
1.392021104504447
 21
0.3865765014202565
 97
        0
 75
     0
 76
     1
 98
        1
 10
-7.279586802153931
 20
-0.4081141432880261
  0
HATCH
  5
84A
330
841
100
AcDbEntity
  8
TITLEBLOCK
 62
     0
100
AcDbHatch
 10
0.0
 20
0.0
 30
0.0
210
0.0
220
0.0
230
1.0
  2
SOLID
 70
     1
 71
     0
 91
        2
 92
        1
 93
       13
 72
     2
 10
1.851958289039648
 20
0.2899198104641797
 40
0.0215625675244637
 50
0.0002565813902296
 51
90.00070498518821
 73
     1
 72
     2
 10
1.851958289040149
 20
0.3330449455099156
 40
0.0215625675245372
 50
269.9992950134807
 51
359.9995092535441
 73
     1
 72
     1
 10
1.873520856563896
 20
0.3330447608234748
 11
1.873520856563896
 21
0.3650136657708798
 72
     2
 10
1.851957894958188
 20
0.3650135398162329
 40
0.0215629616060761
 50
0.0003346789653151
 51
89.99920945081219
 73
     1
 72
     1
 10
1.851958192477166
 20
0.3865765014202565
 11
1.720333350237904
 21
0.3865765014202565
 72
     1
 10
1.720333350237904
 20
0.3865765014202565
 11
1.720333350237904
 21
0.2579511736405264
 72
     1
 10
1.720333350237904
 20
0.2579511736405264
 11
1.741896183074725
 21
0.2579511736405264
 72
     1
 10
1.741896183074725
 20
0.2579511736405264
 11
1.741896183074725
 21
0.3007013215688856
 72
     1
 10
1.741896183074725
 20
0.3007013215688856
 11
1.841176785433827
 21
0.3007013215688856
 72
     2
 10
1.841176693559081
 20
0.2899201789011263
 40
0.0107811426681508
 50
270.0004882631974
 51
360.0004882673548
 73
     0
 72
     1
 10
1.851957836226841
 20
0.289920087025598
 11
1.851958192477166
 21
0.2579511736405264
 72
     1
 10
1.851958192477166
 20
0.2579511736405264
 11
1.873520856563896
 21
0.2579511736405264
 72
     1
 10
1.873520856563896
 20
0.2579511736405264
 11
1.873520856563896
 21
0.2899199070254552
 97
        0
 92
       16
 93
        6
 72
     2
 10
1.841176693559081
 20
0.3542325296658069
 40
0.0107811426681508
 50
270.0004882631974
 51
360.0004882673548
 73
     0
 72
     1
 10
1.851957836226841
 20
0.3542324377902786
 11
1.851958192477166
 21
0.333044848948566
 72
     2
 10
1.841176871684197
 20
0.333044935198247
 40
0.0107813207933138
 50
0.0004583615308307
 51
90.00045836519477
 73
     0
 72
     1
 10
1.841176785433827
 20
0.3222636144052784
 11
1.741896183074725
 21
0.3222638825303419
 72
     1
 10
1.741896183074725
 20
0.3222638825303419
 11
1.741896183074725
 21
0.3650136723335662
 72
     1
 10
1.741896183074725
 20
0.3650136723335662
 11
1.841176785433827
 21
0.3650136723335662
 97
        0
 75
     0
 76
     1
 98
        1
 10
-7.279586802153931
 20
-0.4081141432880261
  0
HATCH
  5
84B
330
841
100
AcDbEntity
  8
TITLEBLOCK
 62
     0
100
AcDbHatch
 10
0.0
 20
0.0
 30
0.0
210
0.0
220
0.0
230
1.0
  2
SOLID
 70
     1
 71
     0
 91
        2
 92
        1
 93
       10
 72
     1
 10
2.168832611988261
 20
0.3650136723335662
 11
2.168832611988261
 21
0.2795135546021492
 72
     1
 10
2.168832611988261
 20
0.2795135546021492
 11
2.148020079641632
 21
0.2795135546021492
 72
     1
 10
2.148020079641632
 20
0.2795135546021492
 11
2.148020079641632
 21
0.2579511736406499
 72
     1
 10
2.148020079641632
 20
0.2579511736406499
 11
2.314895263659607
 21
0.2579511736406499
 72
     2
 10
2.314895311472477
 20
0.2795136024147182
 40
0.0215624287741214
 50
269.9998729514336
 51
359.9996387859474
 73
     1
 72
     1
 10
2.336457740246171
 20
0.2795134664770916
 11
2.336457740246171
 21
0.3650136723335662
 72
     2
 10
2.314895087410214
 20
0.3650138485844006
 40
0.0215626528366775
 50
359.9995316703829
 51
449.999531674211
 73
     1
 72
     1
 10
2.314895263659607
 20
0.386576501420358
 11
2.148020079641632
 21
0.386576501420358
 72
     1
 10
2.148020079641632
 20
0.386576501420358
 11
2.148020079641632
 21
0.3650136723335662
 72
     1
 10
2.148020079641632
 20
0.3650136723335662
 11
2.168832611988261
 21
0.3650136723335662
 97
        0
 92
       16
 93
        6
 72
     1
 10
2.190395257324933
 20
0.3650136723335662
 11
2.304113856616218
 21
0.3650136723335662
 72
     2
 10
2.304113942866619
 20
0.3542323515405775
 40
0.0107813207933337
 50
269.9995416346447
 51
359.9995416383139
 73
     0
 72
     1
 10
2.314895263659607
 20
0.3542324377902877
 11
2.314895263659607
 21
0.2902949691455452
 72
     2
 10
2.304113807866077
 20
0.2902950103956483
 40
0.0107814557936096
 50
0.0002192149982456
 51
89.99974092762393
 73
     0
 72
     1
 10
2.304113856616218
 20
0.2795135546021492
 11
2.190395257324933
 21
0.2795135546021492
 72
     1
 10
2.190395257324933
 20
0.2795135546021492
 11
2.190395257324933
 21
0.3650136723335662
 97
        0
 75
     0
 76
     1
 98
        1
 10
-7.279586802153931
 20
-0.4081141432880261
  0
HATCH
  5
84C
330
841
100
AcDbEntity
  8
TITLEBLOCK
 62
     0
100
AcDbHatch
 10
0.0
 20
0.0
 30
0.0
210
0.0
220
0.0
230
1.0
  2
SOLID
 70
     1
 71
     0
 91
        2
 92
        1
 93
        8
 72
     1
 10
3.241392303571654
 20
0.3865765014202565
 11
3.157707226761072
 21
0.2579509955155343
 72
     1
 10
3.157707226761072
 20
0.2579509955155343
 11
3.183432299816939
 21
0.2579511736405264
 72
     1
 10
3.183432299816939
 20
0.2579511736405264
 11
3.197460983981823
 21
0.2795133764768478
 72
     1
 10
3.197460983981823
 20
0.2795133764768478
 11
3.30039082622498
 21
0.2795135546020104
 72
     1
 10
3.30039082622498
 20
0.2795135546020104
 11
3.314419679139785
 21
0.2579514417655899
 72
     1
 10
3.314419679139785
 20
0.2579514417655899
 11
3.340144583445731
 21
0.2579511736405264
 72
     1
 10
3.340144583445731
 20
0.2579511736405264
 11
3.256459603774981
 21
0.3865765014202565
 72
     1
 10
3.256459603774981
 20
0.3865765014202565
 11
3.241392303571654
 21
0.3865765014202565
 97
        0
 92
       16
 93
        3
 72
     1
 10
3.248925740352245
 20
0.358616778466603
 11
3.211489480646473
 21
0.3010762055637086
 72
     1
 10
3.211489480646473
 20
0.3010762055637086
 11
3.28636178580994
 21
0.3010763836888712
 72
     1
 10
3.28636178580994
 20
0.3010763836888712
 11
3.248925740352245
 21
0.358616778466603
 97
        0
 75
     0
 76
     1
 98
        1
 10
-7.279586802153931
 20
-0.4081141432880261
  0
HATCH
  5
84D
330
841
100
AcDbEntity
  8
TITLEBLOCK
 62
     0
100
AcDbHatch
 10
0.0
 20
0.0
 30
0.0
210
0.0
220
0.0
230
1.0
  2
SOLID
 70
     1
 71
     0
 91
        1
 92
        1
 93
       13
 72
     1
 10
2.838488736968525
 20
0.3865765014202565
 11
2.806145209588674
 21
0.3865765014202565
 72
     1
 10
2.806145209588674
 20
0.3865765014202565
 11
2.806145209588674
 21
0.2579511736405264
 72
     1
 10
2.806145209588674
 20
0.2579511736405264
 11
2.827707667425368
 21
0.2579511736405264
 72
     1
 10
2.827707667425368
 20
0.2579511736405264
 11
2.827707667425368
 21
0.3640633654626753
 72
     1
 10
2.827707667425368
 20
0.3640633654626753
 11
2.899718420719221
 21
0.2579514417655899
 72
     1
 10
2.899718420719221
 20
0.2579514417655899
 11
2.922570860648686
 21
0.2579511736405264
 72
     1
 10
2.922570860648686
 20
0.2579511736405264
 11
2.994582138942956
 21
0.3640642598382782
 72
     1
 10
2.994582138942956
 20
0.3640642598382782
 11
2.994582138942956
 21
0.2579511736405264
 72
     1
 10
2.994582138942956
 20
0.2579511736405264
 11
3.016144596779479
 21
0.2579511736405264
 72
     1
 10
3.016144596779479
 20
0.2579511736405264
 11
3.016144596779479
 21
0.3865765014202565
 72
     1
 10
3.016144596779479
 20
0.3865765014202565
 11
2.983801425649954
 21
0.3865765014202565
 72
     1
 10
2.983801425649954
 20
0.3865765014202565
 11
2.911144640683954
 21
0.2795135546020104
 72
     1
 10
2.911144640683954
 20
0.2795135546020104
 11
2.838488380718199
 21
0.3865765014202565
 97
        0
 75
     0
 76
     1
 98
        1
 10
-7.279586802153931
 20
-0.4081141432880261
  0
HATCH
  5
84E
330
841
100
AcDbEntity
  8
TITLEBLOCK
 62
     0
100
AcDbHatch
 10
0.0
 20
0.0
 30
0.0
210
0.0
220
0.0
230
1.0
  2
SOLID
 70
     1
 71
     0
 91
        2
 92
        1
 93
        8
 72
     1
 10
2.79358243888161
 20
0.2795134664769192
 11
2.793582795131936
 21
0.3650136723335662
 72
     2
 10
2.772020240733041
 20
0.3650137688961994
 40
0.0215625543991104
 50
359.9997434148459
 51
449.999743415997
 73
     1
 72
     1
 10
2.772020337295241
 20
0.3865763232950938
 11
2.640957676673206
 21
0.3865763232950938
 72
     2
 10
2.640957763860811
 20
0.3650137595211699
 40
0.0215625637741002
 50
90.00023167383188
 51
179.9999925267453
 73
     1
 72
     1
 10
2.61939520008671
 20
0.3650137623336376
 11
2.61939520008671
 21
0.2795135546020104
 72
     2
 10
2.640957628860649
 20
0.2795136024144641
 40
0.0215624287739915
 50
180.0001270474597
 51
270.0001270477355
 73
     1
 72
     1
 10
2.640957676673206
 20
0.2579511736405264
 11
2.772020337295241
 21
0.2579511736405264
 72
     2
 10
2.772020197607671
 20
0.2795134149140743
 40
0.0215622412740004
 50
270.000371181646
 51
360.000137014207
 73
     1
 97
        0
 92
       16
 93
        8
 72
     2
 10
2.651738913091431
 20
0.3542324359149649
 40
0.0107812364186015
 50
89.9999900344766
 51
179.999521702949
 73
     1
 72
     1
 10
2.640957676673206
 20
0.3542325259151993
 11
2.640957676673206
 21
0.2902950591455122
 72
     2
 10
2.651738958091508
 20
0.2902950160204556
 40
0.010781281418388
 50
179.9997708172488
 51
269.9997708181704
 73
     1
 72
     1
 10
2.651738914966625
 20
0.2795137346021532
 11
2.761238742751839
 21
0.2795135546020104
 72
     2
 10
2.761238956501978
 20
0.2902951041442614
 40
0.0107815495443698
 50
269.9988640797126
 51
359.9992825833961
 73
     1
 72
     1
 10
2.772020506045503
 20
0.2902949691454408
 11
2.772020337295241
 21
0.3542324377902786
 72
     2
 10
2.761239007127366
 20
0.3542323421656908
 40
0.0107813301682991
 50
0.0005081826837109
 51
90.00050818719378
 73
     1
 72
     1
 10
2.76123891150193
 20
0.3650136723335662
 11
2.651738914966625
 21
0.3650136723335662
 97
        0
 75
     0
 76
     1
 98
        1
 10
-7.279586802153931
 20
-0.4081141432880261
  0
HATCH
  5
84F
330
841
100
AcDbEntity
  8
TITLEBLOCK
 62
     0
100
AcDbHatch
 10
0.0
 20
0.0
 30
0.0
210
0.0
220
0.0
230
1.0
  2
SOLID
 70
     1
 71
     0
 91
        2
 92
        1
 93
        8
 72
     2
 10
3.162769048174736
 20
0.3650134554401196
 40
0.0215630459811904
 50
270.0005663490367
 51
359.9994236862867
 73
     0
 72
     1
 10
3.184332094154836
 20
0.3650136723335662
 11
3.184332094154836
 21
0.3222638825303419
 72
     2
 10
3.162769397256125
 20
0.3222640184675962
 40
0.0215626968991391
 50
0.0003612085718475
 51
90.00036121084693
 73
     0
 72
     1
 10
3.162769261318015
 20
0.3007013215688856
 11
3.052707420665665
 21
0.3007013215688856
 72
     1
 10
3.052707420665665
 20
0.3007013215688856
 11
3.052707420665665
 21
0.2579511736405264
 72
     1
 10
3.052707420665665
 20
0.2579511736405264
 11
3.031144250328662
 21
0.2579511736405264
 72
     1
 10
3.031144250328662
 20
0.2579511736405264
 11
3.031144250328662
 21
0.3865765014202565
 72
     1
 10
3.031144250328662
 20
0.3865765014202565
 11
3.162769261318015
 21
0.3865765014202565
 97
        0
 92
       16
 93
        6
 72
     2
 10
3.151988118650169
 20
0.3542325296657216
 40
0.0107811426682361
 50
270.0004882627443
 51
360.0004882669015
 73
     0
 72
     1
 10
3.162769261318015
 20
0.3542324377902786
 11
3.162769261318015
 21
0.333044848948566
 72
     2
 10
3.151988118650169
 20
0.333044757073123
 40
0.0107811426682367
 50
359.9995117330984
 51
449.9995117372556
 73
     0
 72
     1
 10
3.15198821052483
 20
0.3222636144052784
 11
3.052707420665665
 21
0.3222638825303419
 72
     1
 10
3.052707420665665
 20
0.3222638825303419
 11
3.052707420665665
 21
0.3650136723335662
 72
     1
 10
3.052707420665665
 20
0.3650136723335662
 11
3.15198821052483
 21
0.3650136723335662
 97
        0
 75
     0
 76
     1
 98
        1
 10
-7.279586802153931
 20
-0.4081141432880261
  0
HATCH
  5
850
330
841
100
AcDbEntity
  8
TITLEBLOCK
 62
     0
100
AcDbHatch
 10
0.0
 20
0.0
 30
0.0
210
0.0
220
0.0
230
1.0
  2
SOLID
 70
     1
 71
     0
 91
        1
 92
        1
 93
        9
 72
     1
 10
3.556847887515953
 20
0.3865763232950938
 11
3.525206566844968
 21
0.3865765014202565
 72
     1
 10
3.525206566844968
 20
0.3865765014202565
 11
3.60348814923547
 21
0.3136817019238036
 72
     1
 10
3.60348814923547
 20
0.3136817019238036
 11
3.603486349234383
 21
0.2579511736405264
 72
     1
 10
3.603486349234383
 20
0.2579511736405264
 11
3.625050607072164
 21
0.2579511736405264
 72
     1
 10
3.625050607072164
 20
0.2579511736405264
 11
3.625050607072164
 21
0.3136813437984982
 72
     1
 10
3.625050607072164
 20
0.3136813437984982
 11
3.703331833212512
 21
0.3865766795454191
 72
     1
 10
3.703331833212512
 20
0.3865766795454191
 11
3.671691225042007
 21
0.3865765014202565
 72
     1
 10
3.671691225042007
 20
0.3865765014202565
 11
3.61426955627898
 21
0.3331056458632473
 72
     1
 10
3.61426955627898
 20
0.3331056458632473
 11
3.556847887515953
 21
0.3865763232950938
 97
        0
 75
     0
 76
     1
 98
        1
 10
-7.279586802153931
 20
-0.4081141432880261
  0
HATCH
  5
851
330
841
100
AcDbEntity
  8
TITLEBLOCK
 62
     0
100
AcDbHatch
 10
0.0
 20
0.0
 30
0.0
210
0.0
220
0.0
230
1.0
  2
SOLID
 70
     1
 71
     0
 91
        1
 92
        1
 93
       10
 72
     1
 10
3.376247484495632
 20
0.3865765014202565
 11
3.345207161752892
 21
0.3865765014202565
 72
     1
 10
3.345207161752892
 20
0.3865765014202565
 11
3.345207161752892
 21
0.2579511736405264
 72
     1
 10
3.345207161752892
 20
0.2579511736405264
 11
3.366769638339558
 21
0.2579511736405264
 72
     1
 10
3.366769638339558
 20
0.2579511736405264
 11
3.366769638339558
 21
0.3659393041881229
 72
     1
 10
3.366769638339558
 20
0.3659393041881229
 11
3.48273627034943
 21
0.2579509955155343
 72
     1
 10
3.48273627034943
 20
0.2579509955155343
 11
3.515082122730785
 21
0.2579511736405264
 72
     1
 10
3.515082122730785
 20
0.2579511736405264
 11
3.515082122730785
 21
0.3865765014202565
 72
     1
 10
3.515082122730785
 20
0.3865765014202565
 11
3.49351767739277
 21
0.3865765014202565
 72
     1
 10
3.49351767739277
 20
0.3865765014202565
 11
3.49351767739277
 21
0.277374671329744
 72
     1
 10
3.49351767739277
 20
0.277374671329744
 11
3.376247484495632
 21
0.3865765014202565
 97
        0
 75
     0
 76
     1
 98
        1
 10
-7.279586802153931
 20
-0.4081141432880261
  0
ENDBLK
  5
853
330
841
100
AcDbEntity
  8
0
100
AcDbBlockEnd
  0
BLOCK
  5
AF5
330
AE5
100
AcDbEntity
  8
0
100
AcDbBlockBegin
  2
TITLE-PAD
 70
     2
 10
0.0
 20
0.0
 30
0.0
  3
TITLE-PAD
  1

  0
LWPOLYLINE
  5
B1D
330
AE5
100
AcDbEntity
  8
CONTINUOUS2
 62
     0
100
AcDbPolyline
 90
        7
 70
     1
 43
0.0
 10
16.40000099999999
 20
0.0
 10
16.40000099999999
 20
0.0
 10
16.40000099999999
 20
0.0
 10
8.002461
 20
0.0
 10
8.002461
 20
0.9120019999999993
 10
16.40000099999999
 20
0.9120019999999993
 10
16.40000099999999
 20
0.0
  0
INSERT
  5
B1E
330
AE5
100
AcDbEntity
  8
TITLEBLOCK
 62
     0
100
AcDbBlockReference
  2
LOGO-PAD
 10
12.245701
 20
0.3040000000000003
 30
0.0
  0
LINE
  5
B1F
330
AE5
100
AcDbEntity
  8
CONTINUOUS2
 62
     0
100
AcDbLine
 10
16.40000099999999
 20
0.3040000000000003
 30
0.0
 11
12.245701
 21
0.3040000000000003
 31
0.0
  0
LINE
  5
B20
330
AE5
100
AcDbEntity
  8
CONTINUOUS2
 62
     0
100
AcDbLine
 10
12.245701
 20
0.9120019999999993
 30
0.0
 11
12.245701
 21
0.0
 31
0.0
  0
TEXT
  5
B21
330
AE5
100
AcDbEntity
  8
TEXT1
  6
CONTINUOUS
 62
     0
100
AcDbText
 10
12.36897712113656
 20
0.0611566731182909
 30
0.0
 40
0.0699999951940822
  1
NO.
  7
ROMANS
 11
12.36897712113656
 21
0.096156670715332
 31
0.0
100
AcDbText
 73
     2
  0
TEXT
  5
B22
330
AE5
100
AcDbEntity
  8
TEXT1
  6
CONTINUOUS
 62
     0
100
AcDbText
 10
12.36897712113656
 20
0.1661566731182908
 30
0.0
 40
0.0699999951940822
  1
DWG#
  7
ROMANS
 11
12.36897712113656
 21
0.2011566707153319
 31
0.0
100
AcDbText
 73
     2
  0
ATTDEF
  5
B23
330
AE5
100
AcDbEntity
  8
TEXT1
 62
     0
100
AcDbText
 10
10.10183834893798
 20
0.7474460884590166
 30
0.0
 40
0.1
  1

  7
ROMANS
 72
     4
 11
10.10183834893798
 21
0.7474460884590166
 31
0.0
100
AcDbAttributeDefinition
  3
DESCRIPTION 1
  2
DESCRIPTION 1
 70
     0
  0
ATTDEF
  5
B24
330
AE5
100
AcDbEntity
  8
TEXT1
 62
     0
100
AcDbText
 10
10.10183834893798
 20
0.6017231711406717
 30
0.0
 40
0.1
  1

  7
ROMANS
 72
     4
 11
10.10183834893798
 21
0.6017231711406717
 31
0.0
100
AcDbAttributeDefinition
  3
DESCRIPTION 2
  2
DESCRIPTION 2
 70
     0
  0
ATTDEF
  5
B25
330
AE5
100
AcDbEntity
  8
TEXT1
 62
     0
100
AcDbText
 10
10.10183834893798
 20
0.4560002538223267
 30
0.0
 40
0.08
  1

  7
ROMANS
 72
     4
 11
10.10183834893798
 21
0.4560002538223267
 31
0.0
100
AcDbAttributeDefinition
  3
DESCRIPTION 3
  2
DESCRIPTION 3
 70
     0
  0
ATTDEF
  5
B26
330
AE5
100
AcDbEntity
  8
TEXT1
 62
     0
100
AcDbText
 10
10.10183834893798
 20
0.3202773365039833
 30
0.0
 40
0.08
  1

  7
ROMANS
 72
     4
 11
10.10183834893798
 21
0.3202773365039833
 31
0.0
100
AcDbAttributeDefinition
  3
DESCRIPTION 4
  2
DESCRIPTION 4
 70
     0
  0
ATTDEF
  5
B27
330
AE5
100
AcDbEntity
  8
TEXT1
 62
     0
100
AcDbText
 10
10.10183834893798
 20
0.1845544191856399
 30
0.0
 40
0.08
  1

  7
ROMANS
 72
     4
 11
10.10183834893798
 21
0.1845544191856399
 31
0.0
100
AcDbAttributeDefinition
  3
DESCRIPTION 5
  2
DESCRIPTION 5
 70
     0
  0
ATTDEF
  5
B28
330
AE5
100
AcDbEntity
  8
TEXT1
 62
     0
100
AcDbText
 10
12.74772367103195
 20
0.096540546036505
 30
0.0
 40
0.12
  1

 41
0.9512024731840066
  7
M_STANDARD
 11
12.74772367103195
 21
0.156540546036505
 31
0.0
100
AcDbAttributeDefinition
  3
DRAWING NUMBER
  2
DWGNO
 70
     0
 74
     2
  0
ATTDEF
  5
B29
330
AE5
100
AcDbEntity
  8
TEXT1
 62
     0
100
AcDbText
 10
16.35506454949325
 20
-0.1507193079929352
 30
0.0
 40
0.08
  1

  7
ROMANS
 72
     2
 11
16.35506454949325
 21
-0.1107193079929352
 31
0.0
100
AcDbAttributeDefinition
  3
REF DWG #
  2
REF
 70
     0
 74
     2
  0
ATTDEF
  5
B2A
330
AE5
100
AcDbEntity
  8
TEXT1
 62
     0
100
AcDbText
 10
0.0266402374038712
 20
-0.1507193079929352
 30
0.0
 40
0.08
  1

  7
ROMANS
 11
0.0266402374038712
 21
-0.1107193079929352
 31
0.0
100
AcDbAttributeDefinition
  3
DATE MODIFIED
  2
DATE
 70
     0
 74
     2
  0
LWPOLYLINE
  5
B2B
330
AE5
100
AcDbEntity
  8
CONTINUOUS3
 62
     0
100
AcDbPolyline
 90
        4
 70
   129
 43
0.0
 10
0.0
 20
0.0
 10
16.40000099999999
 20
0.0
 10
16.40000099999999
 20
10.25
 10
0.0
 20
10.25
  0
ENDBLK
  5
AF6
330
AE5
100
AcDbEntity
  8
0
100
AcDbBlockEnd
  0
BLOCK
  5
CCA
330
CB7
100
AcDbEntity
  8
0
100
AcDbBlockBegin
  2
REF2
 70
     2
 10
0.0
 20
0.0
 30
0.0
  3
REF2
  1

  0
ATTDEF
  5
CB8
330
CB7
100
AcDbEntity
  8
REFERENCE
100
AcDbText
 10
2.181075792116067
 20
0.2204373050885355
 30
0.0
 40
0.125
  1

  7
SIMPLEX
100
AcDbAttributeDefinition
  3
Mounting Hardware?
  2
MOUNTING_HWD
 70
     0
  0
ATTDEF
  5
CB9
330
CB7
100
AcDbEntity
  8
REFERENCE
100
AcDbText
 10
2.200348442097449
 20
0.4484790897328282
 30
0.0
 40
0.125
  1

  7
SIMPLEX
100
AcDbAttributeDefinition
  3
Terminal Torque
  2
TERM_TORQUE
 70
     0
  0
ATTDEF
  5
CBA
330
CB7
100
AcDbEntity
  8
REFERENCE
100
AcDbText
 10
2.193924207883932
 20
0.6579373050885355
 30
0.0
 40
0.125
  1

  7
SIMPLEX
100
AcDbAttributeDefinition
  3
Wire Size?
  2
WIRE_SIZE
 70
     0
  0
ATTDEF
  5
CBB
330
CB7
100
AcDbEntity
  8
REFERENCE
100
AcDbText
 10
2.193924207883932
 20
0.8564164127663893
 30
0.0
 40
0.125
  1

  7
SIMPLEX
100
AcDbAttributeDefinition
  3
Weight?
  2
WEIGHT
 70
     0
  0
ATTDEF
  5
CBC
330
CB7
100
AcDbEntity
  8
REFERENCE
100
AcDbText
 10
2.1875
 20
1.0625
 30
0.0
 40
0.125
  1

  7
SIMPLEX
100
AcDbAttributeDefinition
  3
Meets Standards
  2
STANDARDS
 70
     0
  0
ATTDEF
  5
CBD
330
CB7
100
AcDbEntity
  8
REFERENCE
100
AcDbText
 10
2.206772649981382
 20
1.293916394821363
 30
0.0
 40
0.125
  1

  7
SIMPLEX
100
AcDbAttributeDefinition
  3
CSA File/Guide
  2
CSA
 70
     0
  0
ATTDEF
  5
CBE
330
CB7
100
AcDbEntity
  8
REFERENCE
100
AcDbText
 10
2.185634859238193
 20
1.5
 30
0.0
 40
0.125
  1

  7
SIMPLEX
100
AcDbAttributeDefinition
  3
UL File/Guide?
  2
UL
 70
     0
  0
ATTDEF
  5
CBF
330
CB7
100
AcDbEntity
  8
REFERENCE
100
AcDbText
 10
2.181075792116067
 20
1.720437305088535
 30
0.0
 40
0.125
  1

  7
SIMPLEX
100
AcDbAttributeDefinition
  3
Ratings?
  2
RATING
 70
     0
  0
ATTDEF
  5
CC0
330
CB7
100
AcDbEntity
  8
REFERENCE
100
AcDbText
 10
2.1875
 20
1.9375
 30
0.0
 40
0.125
  1

  7
SIMPLEX
100
AcDbAttributeDefinition
  3
Catalog Number?
  2
CATALOG
 70
     0
  0
TEXT
  5
CC1
330
CB7
100
AcDbEntity
  8
TEXT1
100
AcDbText
 10
0.1875
 20
0.2232142857142858
 30
0.0
 40
0.125
  1
Mounting Hwd.:
  7
SIMPLEX
100
AcDbText
  0
TEXT
  5
CC2
330
CB7
100
AcDbEntity
  8
TEXT1
100
AcDbText
 10
0.1875
 20
0.4375
 30
0.0
 40
0.125
  1
Terminal torque:
  7
SIMPLEX
100
AcDbText
  0
TEXT
  5
CC3
330
CB7
100
AcDbEntity
  8
TEXT1
100
AcDbText
 10
0.1875
 20
0.6517857142857145
 30
0.0
 40
0.125
  1
Wire Size:
  7
SIMPLEX
100
AcDbText
  0
TEXT
  5
CC4
330
CB7
100
AcDbEntity
  8
TEXT1
100
AcDbText
 10
0.1875
 20
0.8660714285714286
 30
0.0
 40
0.125
  1
Weight:
  7
SIMPLEX
100
AcDbText
  0
TEXT
  5
CC5
330
CB7
100
AcDbEntity
  8
TEXT1
100
AcDbText
 10
0.1875
 20
1.080357142857142
 30
0.0
 40
0.125
  1
Meets Standards:
  7
SIMPLEX
100
AcDbText
  0
TEXT
  5
CC6
330
CB7
100
AcDbEntity
  8
TEXT1
100
AcDbText
 10
0.1875
 20
1.294642857142857
 30
0.0
 40
0.125
  1
CSA File/Guide:
  7
SIMPLEX
100
AcDbText
  0
TEXT
  5
CC7
330
CB7
100
AcDbEntity
  8
TEXT1
100
AcDbText
 10
0.1875
 20
1.508928571428571
 30
0.0
 40
0.125
  1
UL File/Guide:
  7
SIMPLEX
100
AcDbText
  0
TEXT
  5
CC8
330
CB7
100
AcDbEntity
  8
TEXT1
100
AcDbText
 10
0.1875
 20
1.723214285714285
 30
0.0
 40
0.125
  1
Ratings:
  7
SIMPLEX
100
AcDbText
  0
TEXT
  5
CC9
330
CB7
100
AcDbEntity
  8
TEXT1
100
AcDbText
 10
0.1875
 20
1.9375
 30
0.0
 40
0.125
  1
Catalog Number:
  7
SIMPLEX
100
AcDbText
  0
ENDBLK
  5
CCB
330
CB7
100
AcDbEntity
  8
0
100
AcDbBlockEnd
  0
BLOCK
  5
3F42
330
3F29
100
AcDbEntity
  8
0
100
AcDbBlockBegin
  2
NEWLAYERS
 70
     0
 10
0.0
 20
0.0
 30
0.0
  3
NEWLAYERS
  1

  0
LINE
  5
3F2A
330
3F29
100
AcDbEntity
  8
PHANTOM1
100
AcDbLine
 10
0.264152010466205
 20
0.3394492053544127
 30
0.0
 11
0.264152010466205
 21
0.1923545555598593
 31
0.0
  0
LINE
  5
3F2B
330
3F29
100
AcDbEntity
  8
PHANTOM2
100
AcDbLine
 10
0.3018880119612959
 20
0.3394492053544127
 30
0.0
 11
0.3018880119612959
 21
0.1923545555598593
 31
0.0
  0
LINE
  5
3F2C
330
3F29
100
AcDbEntity
  8
PHANTOM3
100
AcDbLine
 10
0.3396240134565005
 20
0.3394492053544127
 30
0.0
 11
0.3396240134565005
 21
0.1923545555598593
 31
0.0
  0
LINE
  5
3F2D
330
3F29
100
AcDbEntity
  8
DASHDOT2
100
AcDbLine
 10
0.0
 20
0.3394492053544127
 30
0.0
 11
0.0
 21
0.1923545555598593
 31
0.0
  0
LINE
  5
3F2E
330
3F29
100
AcDbEntity
  8
DASHDOT3
100
AcDbLine
 10
0.0377360014952046
 20
0.3394492053544127
 30
0.0
 11
0.0377360014952046
 21
0.1923545555598593
 31
0.0
  0
LINE
  5
3F2F
330
3F29
100
AcDbEntity
  8
DIM
100
AcDbLine
 10
0.0754720029902956
 20
0.3394492053544127
 30
0.0
 11
0.0754720029902956
 21
0.1923545555598593
 31
0.0
  0
LINE
  5
3F30
330
3F29
100
AcDbEntity
  8
HIDDEN1
100
AcDbLine
 10
0.1132080044855002
 20
0.3394492053544127
 30
0.0
 11
0.1132080044855002
 21
0.1923545555598593
 31
0.0
  0
LINE
  5
3F31
330
3F29
100
AcDbEntity
  8
HIDDEN2
100
AcDbLine
 10
0.1509440059807048
 20
0.3394492053544127
 30
0.0
 11
0.1509440059807048
 21
0.1923545555598593
 31
0.0
  0
LINE
  5
3F32
330
3F29
100
AcDbEntity
  8
HIDDEN3
100
AcDbLine
 10
0.1886800074757957
 20
0.3394492053544127
 30
0.0
 11
0.1886800074757957
 21
0.1923545555598593
 31
0.0
  0
LINE
  5
3F33
330
3F29
100
AcDbEntity
  8
TEXT1
100
AcDbLine
 10
0.0
 20
0.1470946497945533
 30
0.0
 11
0.0
 21
0.0
 31
0.0
  0
LINE
  5
3F34
330
3F29
100
AcDbEntity
  8
TEXT2
100
AcDbLine
 10
0.0377360014952046
 20
0.1470946497945533
 30
0.0
 11
0.0377360014952046
 21
0.0
 31
0.0
  0
LINE
  5
3F35
330
3F29
100
AcDbEntity
  8
TEXT3
100
AcDbLine
 10
0.0754720029902956
 20
0.1470946497945533
 30
0.0
 11
0.0754720029902956
 21
0.0
 31
0.0
  0
LINE
  5
3F36
330
3F29
100
AcDbEntity
  8
TITLEBLOCK
100
AcDbLine
 10
0.1132080044855002
 20
0.1470946497945533
 30
0.0
 11
0.1132080044855002
 21
0.0
 31
0.0
  0
LINE
  5
3F37
330
3F29
100
AcDbEntity
  8
VIEWPORT
100
AcDbLine
 10
0.1509440059807048
 20
0.1470946497945533
 30
0.0
 11
0.1509440059807048
 21
0.0
 31
0.0
  0
LINE
  5
3F38
330
3F29
100
AcDbEntity
  8
BLOCKS
100
AcDbLine
 10
0.0377360014952046
 20
0.5318037609142721
 30
0.0
 11
0.0377360014952046
 21
0.3847091111197187
 31
0.0
  0
LINE
  5
3F39
330
3F29
100
AcDbEntity
  8
0
100
AcDbLine
 10
0.0
 20
0.5318037609142721
 30
0.0
 11
0.0
 21
0.3847091111197187
 31
0.0
  0
LINE
  5
3F3A
330
3F29
100
AcDbEntity
  8
CENTER1
100
AcDbLine
 10
0.0754720029902956
 20
0.5318037609142721
 30
0.0
 11
0.0754720029902956
 21
0.3847091111197187
 31
0.0
  0
LINE
  5
3F3B
330
3F29
100
AcDbEntity
  8
CENTER2
100
AcDbLine
 10
0.1132080044855002
 20
0.5318037609142721
 30
0.0
 11
0.1132080044855002
 21
0.3847091111197187
 31
0.0
  0
LINE
  5
3F3C
330
3F29
100
AcDbEntity
  8
CENTER3
100
AcDbLine
 10
0.1509440059807048
 20
0.5318037609142721
 30
0.0
 11
0.1509440059807048
 21
0.3847091111197187
 31
0.0
  0
LINE
  5
3F3D
330
3F29
100
AcDbEntity
  8
CONSTRUCTION
100
AcDbLine
 10
0.1886800074757957
 20
0.5318037609142721
 30
0.0
 11
0.1886800074757957
 21
0.3847091111197187
 31
0.0
  0
LINE
  5
3F3E
330
3F29
100
AcDbEntity
  8
CONTINUOUS1
100
AcDbLine
 10
0.2264160089710003
 20
0.5318037609142721
 30
0.0
 11
0.2264160089710003
 21
0.3847091111197187
 31
0.0
  0
LINE
  5
3F3F
330
3F29
100
AcDbEntity
  8
CONTINUOUS2
100
AcDbLine
 10
0.264152010466205
 20
0.5318037609142721
 30
0.0
 11
0.264152010466205
 21
0.3847091111197187
 31
0.0
  0
LINE
  5
3F40
330
3F29
100
AcDbEntity
  8
CONTINUOUS3
100
AcDbLine
 10
0.3018880119612959
 20
0.5318037609142721
 30
0.0
 11
0.3018880119612959
 21
0.3847091111197187
 31
0.0
  0
LINE
  5
3F41
330
3F29
100
AcDbEntity
  8
DASHDOT1
100
AcDbLine
 10
0.3396240134565005
 20
0.5318037609142721
 30
0.0
 11
0.3396240134565005
 21
0.3847091111197187
 31
0.0
  0
ENDBLK
  5
3F43
330
3F29
100
AcDbEntity
  8
0
100
AcDbBlockEnd
  0
BLOCK
  5
997E
330
9969
100
AcDbEntity
  8
0
100
AcDbBlockBegin
  2
KAL_SIDE
 70
     0
 10
0.0
 20
0.0
 30
0.0
  3
KAL_SIDE
  1

  0
LINE
  5
996A
330
9969
100
AcDbEntity
  8
HIDDEN1
  6
HIDDEN
100
AcDbLine
 10
0.0
 20
3.859375
 30
0.0
 11
0.0
 21
-3.859375
 31
0.0
  0
LINE
  5
996B
330
9969
100
AcDbEntity
  8
HIDDEN1
  6
HIDDEN
100
AcDbLine
 10
-3.660249999999997
 20
-4.0
 30
0.0
 11
-3.660249999999997
 21
4.0
 31
0.0
  0
LINE
  5
996C
330
9969
100
AcDbEntity
  8
HIDDEN1
  6
HIDDEN
100
AcDbLine
 10
-3.785249999999997
 20
-1.5
 30
0.0
 11
-3.785249999999997
 21
-2.75
 31
0.0
  0
LINE
  5
996D
330
9969
100
AcDbEntity
  8
HIDDEN1
  6
HIDDEN
100
AcDbLine
 10
-3.785249999999997
 20
-2.75
 30
0.0
 11
-3.660249999999997
 21
-2.75
 31
0.0
  0
LINE
  5
996E
330
9969
100
AcDbEntity
  8
HIDDEN1
  6
HIDDEN
100
AcDbLine
 10
-0.21875
 20
-4.0
 30
0.0
 11
-3.660249999999997
 21
-4.0
 31
0.0
  0
LINE
  5
996F
330
9969
100
AcDbEntity
  8
HIDDEN1
  6
HIDDEN
100
AcDbLine
 10
-0.21875
 20
-4.0
 30
0.0
 11
0.0
 21
-3.859375
 31
0.0
  0
LINE
  5
9970
330
9969
100
AcDbEntity
  8
HIDDEN1
  6
HIDDEN
100
AcDbLine
 10
-3.752839516984778
 20
2.75
 30
0.0
 11
-3.627839516984778
 21
2.75
 31
0.0
  0
LINE
  5
9971
330
9969
100
AcDbEntity
  8
HIDDEN1
  6
HIDDEN
100
AcDbLine
 10
-3.660249999999997
 20
-1.25
 30
0.0
 11
-3.785249999999997
 21
-1.25
 31
0.0
  0
LINE
  5
9972
330
9969
100
AcDbEntity
  8
HIDDEN1
  6
HIDDEN
100
AcDbLine
 10
-3.660249999999997
 20
-1.5
 30
0.0
 11
-3.785249999999997
 21
-1.5
 31
0.0
  0
LINE
  5
9973
330
9969
100
AcDbEntity
  8
HIDDEN1
  6
HIDDEN
100
AcDbLine
 10
-3.785249999999997
 20
-1.25
 30
0.0
 11
-3.785249999999997
 21
2.75
 31
0.0
  0
LINE
  5
9974
330
9969
100
AcDbEntity
  8
HIDDEN1
  6
HIDDEN
100
AcDbLine
 10
-3.910249999999997
 20
1.15625
 30
0.0
 11
-3.910249999999997
 21
0.78125
 31
0.0
  0
ARC
  5
9975
330
9969
100
AcDbEntity
  8
HIDDEN1
  6
HIDDEN
100
AcDbCircle
 10
-2.511812499999997
 20
0.0
 30
0.0
 40
1.601867349035571
100
AcDbArc
 50
150.8096884817609
 51
209.190311518239
  0
LINE
  5
9976
330
9969
100
AcDbEntity
  8
HIDDEN1
  6
HIDDEN
100
AcDbLine
 10
-3.910249999999997
 20
-1.15625
 30
0.0
 11
-3.910249999999997
 21
-0.78125
 31
0.0
  0
LINE
  5
9977
330
9969
100
AcDbEntity
  8
HIDDEN1
  6
HIDDEN
100
AcDbLine
 10
-3.785249999999997
 20
-1.15625
 30
0.0
 11
-3.910249999999997
 21
-1.15625
 31
0.0
  0
LINE
  5
9978
330
9969
100
AcDbEntity
  8
HIDDEN1
  6
HIDDEN
100
AcDbLine
 10
-4.687089516984784
 20
0.5237629706876615
 30
0.0
 11
-4.087471220755233
 21
0.3069211177724522
 31
0.0
  0
LINE
  5
9979
330
9969
100
AcDbEntity
  8
HIDDEN1
  6
HIDDEN
100
AcDbLine
 10
-4.645663359913982
 20
0.6650129677874102
 30
0.0
 11
-4.007955840294449
 21
0.5202522457777139
 31
0.0
  0
LINE
  5
997A
330
9969
100
AcDbEntity
  8
HIDDEN1
  6
HIDDEN
100
AcDbLine
 10
-4.687089516984784
 20
0.5237629706876615
 30
0.0
 11
-4.645663359913982
 21
0.6650129677874102
 31
0.0
  0
LINE
  5
997B
330
9969
100
AcDbEntity
  8
HIDDEN1
  6
HIDDEN
100
AcDbLine
 10
-3.785249999999997
 20
1.15625
 30
0.0
 11
-3.910249999999997
 21
1.15625
 31
0.0
  0
LINE
  5
997C
330
9969
100
AcDbEntity
  8
HIDDEN1
  6
HIDDEN
100
AcDbLine
 10
-3.660249999999997
 20
4.0
 30
0.0
 11
-0.21875
 21
4.0
 31
0.0
  0
LINE
  5
997D
330
9969
100
AcDbEntity
  8
HIDDEN1
  6
HIDDEN
100
AcDbLine
 10
-0.21875
 20
4.0
 30
0.0
 11
0.0
 21
3.859375
 31
0.0
  0
ENDBLK
  5
997F
330
9969
100
AcDbEntity
  8
0
100
AcDbBlockEnd
  0
BLOCK
  5
9A03
330
9980
100
AcDbEntity
  8
0
100
AcDbBlockBegin
  2
KAL_FRNT
 70
     0
 10
0.0
 20
0.0
 30
0.0
  3
KAL_FRNT
  1

  0
LINE
  5
9981
330
9980
100
AcDbEntity
  8
CENTER1
  6
HIDDEN
100
AcDbLine
 10
1.5
 20
0.09375
 30
0.0
 11
1.5
 21
-0.0949999999999989
 31
0.0
  0
LINE
  5
9982
330
9980
100
AcDbEntity
  8
CENTER1
  6
HIDDEN
100
AcDbLine
 10
0.0
 20
0.09375
 30
0.0
 11
0.0
 21
-0.0949999999999989
 31
0.0
  0
CIRCLE
  5
9983
330
9980
100
AcDbEntity
  8
HIDDEN1
  6
HIDDEN
100
AcDbCircle
 10
0.0
 20
0.0
 30
0.0
 40
0.095
  0
CIRCLE
  5
9984
330
9980
100
AcDbEntity
  8
HIDDEN1
  6
HIDDEN
100
AcDbCircle
 10
1.5
 20
0.0
 30
0.0
 40
0.095
  0
LINE
  5
9985
330
9980
100
AcDbEntity
  8
HIDDEN1
  6
HIDDEN
100
AcDbLine
 10
3.0
 20
-7.5625
 30
0.0
 11
3.0
 21
0.4375
 31
0.0
  0
LINE
  5
9986
330
9980
100
AcDbEntity
  8
HIDDEN1
  6
HIDDEN
100
AcDbLine
 10
-1.5
 20
-7.5625
 30
0.0
 11
-1.5
 21
0.4375
 31
0.0
  0
LINE
  5
9987
330
9980
100
AcDbEntity
  8
HIDDEN1
  6
HIDDEN
100
AcDbLine
 10
2.094533212952086
 20
-0.296875
 30
0.0
 11
2.405466787047913
 21
-0.296875
 31
0.0
  0
LINE
  5
9988
330
9980
100
AcDbEntity
  8
HIDDEN1
  6
HIDDEN
100
AcDbLine
 10
2.094533212952086
 20
-0.265625
 30
0.0
 11
2.405466787047913
 21
-0.265625
 31
0.0
  0
CIRCLE
  5
9989
330
9980
100
AcDbEntity
  8
HIDDEN1
  6
HIDDEN
100
AcDbCircle
 10
2.25
 20
-0.28125
 30
0.0
 40
0.15625
  0
CIRCLE
  5
998A
330
9980
100
AcDbEntity
  8
HIDDEN1
  6
HIDDEN
100
AcDbCircle
 10
2.25
 20
-0.28125
 30
0.0
 40
0.21875
  0
LINE
  5
998B
330
9980
100
AcDbEntity
  8
HIDDEN1
  6
HIDDEN
100
AcDbLine
 10
3.0
 20
-0.8125
 30
0.0
 11
-1.5
 21
-0.8125
 31
0.0
  0
LINE
  5
998C
330
9980
100
AcDbEntity
  8
HIDDEN1
  6
HIDDEN
100
AcDbLine
 10
3.0
 20
-4.8125
 30
0.0
 11
-1.5
 21
-4.8125
 31
0.0
  0
LINE
  5
998D
330
9980
100
AcDbEntity
  8
HIDDEN1
  6
HIDDEN
100
AcDbLine
 10
2.094533212952086
 20
-6.859375
 30
0.0
 11
2.405466787047913
 21
-6.859375
 31
0.0
  0
LINE
  5
998E
330
9980
100
AcDbEntity
  8
HIDDEN1
  6
HIDDEN
100
AcDbLine
 10
2.094533212952086
 20
-6.828125
 30
0.0
 11
2.405466787047913
 21
-6.828125
 31
0.0
  0
CIRCLE
  5
998F
330
9980
100
AcDbEntity
  8
HIDDEN1
  6
HIDDEN
100
AcDbCircle
 10
2.25
 20
-6.84375
 30
0.0
 40
0.15625
  0
CIRCLE
  5
9990
330
9980
100
AcDbEntity
  8
HIDDEN1
  6
HIDDEN
100
AcDbCircle
 10
2.25
 20
-6.84375
 30
0.0
 40
0.21875
  0
LINE
  5
9991
330
9980
100
AcDbEntity
  8
HIDDEN1
  6
HIDDEN
100
AcDbLine
 10
1.6875
 20
-7.5625
 30
0.0
 11
3.0
 21
-7.5625
 31
0.0
  0
LWPOLYLINE
  5
9992
330
9980
100
AcDbEntity
  8
HIDDEN1
  6
HIDDEN
100
AcDbPolyline
 90
        4
 70
     1
 43
0.0
 10
-1.40625
 20
-6.3125
 10
-1.40625
 20
-5.0625
 10
2.90625
 20
-5.0625
 10
2.90625
 20
-6.3125
  0
LINE
  5
9998
330
9980
100
AcDbEntity
  8
HIDDEN1
  6
HIDDEN
100
AcDbLine
 10
0.0625
 20
-7.4375
 30
0.0
 11
0.1875
 21
-7.4375
 31
0.0
  0
LINE
  5
9999
330
9980
100
AcDbEntity
  8
HIDDEN1
  6
HIDDEN
100
AcDbLine
 10
-0.9054667870479136
 20
-6.859375
 30
0.0
 11
-0.5945332129520864
 21
-6.859375
 31
0.0
  0
LINE
  5
999A
330
9980
100
AcDbEntity
  8
HIDDEN1
  6
HIDDEN
100
AcDbLine
 10
-0.9054667870479136
 20
-6.828125
 30
0.0
 11
-0.5945332129520864
 21
-6.828125
 31
0.0
  0
CIRCLE
  5
999B
330
9980
100
AcDbEntity
  8
HIDDEN1
  6
HIDDEN
100
AcDbCircle
 10
-0.75
 20
-6.84375
 30
0.0
 40
0.21875
  0
CIRCLE
  5
999C
330
9980
100
AcDbEntity
  8
HIDDEN1
  6
HIDDEN
100
AcDbCircle
 10
-0.75
 20
-6.84375
 30
0.0
 40
0.15625
  0
LINE
  5
999D
330
9980
100
AcDbEntity
  8
HIDDEN1
  6
HIDDEN
100
AcDbLine
 10
-1.5
 20
-7.5625
 30
0.0
 11
-0.1875
 21
-7.5625
 31
0.0
  0
LINE
  5
999E
330
9980
100
AcDbEntity
  8
CENTER1
  6
HIDDEN
100
AcDbLine
 10
0.0
 20
-7.222624999999666
 30
0.0
 11
0.0
 21
-7.033874999999664
 31
0.0
  0
LINE
  5
999F
330
9980
100
AcDbEntity
  8
HIDDEN1
  6
HIDDEN
100
AcDbLine
 10
-0.0625
 20
-7.4375
 30
0.0
 11
-0.1875
 21
-7.4375
 31
0.0
  0
LINE
  5
99A0
330
9980
100
AcDbEntity
  8
CENTER1
  6
HIDDEN
100
AcDbLine
 10
0.09375
 20
-7.128874999999666
 30
0.0
 11
-0.09375
 21
-7.128874999999666
 31
0.0
  0
CIRCLE
  5
99A1
330
9980
100
AcDbEntity
  8
HIDDEN1
  6
HIDDEN
100
AcDbCircle
 10
0.0
 20
-7.128874999999666
 30
0.0
 40
0.095
  0
LINE
  5
99A2
330
9980
100
AcDbEntity
  8
HIDDEN1
  6
HIDDEN
100
AcDbLine
 10
-0.0625
 20
-7.5625
 30
0.0
 11
0.0625
 21
-7.5625
 31
0.0
  0
LINE
  5
99A3
330
9980
100
AcDbEntity
  8
HIDDEN1
  6
HIDDEN
100
AcDbLine
 10
-0.0625
 20
-7.5625
 30
0.0
 11
-0.0625
 21
-7.4375
 31
0.0
  0
LINE
  5
99A4
330
9980
100
AcDbEntity
  8
HIDDEN1
  6
HIDDEN
100
AcDbLine
 10
0.0625
 20
-7.5625
 30
0.0
 11
0.0625
 21
-7.4375
 31
0.0
  0
LINE
  5
99A5
330
9980
100
AcDbEntity
  8
HIDDEN1
  6
HIDDEN
100
AcDbLine
 10
-0.1875
 20
-7.4375
 30
0.0
 11
-0.1875
 21
-7.5625
 31
0.0
  0
TEXT
  5
99A6
330
9980
100
AcDbEntity
  8
TEXT1
  6
HIDDEN
100
AcDbText
 10
-1.388589285714285
 20
-5.238824147898461
 30
0.0
 40
0.16
  1
Magnetic
 41
0.65
  7
ROMANS
 72
     4
 11
-1.046875
 21
-5.185490814565127
 31
0.0
100
AcDbText
  0
LINE
  5
99A7
330
9980
100
AcDbEntity
  8
HIDDEN1
  6
HIDDEN
100
AcDbLine
 10
-0.9032439350714867
 20
-6.096756064928516
 30
0.0
 11
-0.8259041308792021
 21
-6.174095869120797
 31
0.0
  0
LINE
  5
99A8
330
9980
100
AcDbEntity
  8
HIDDEN1
  6
HIDDEN
100
AcDbLine
 10
-0.84375
 20
-5.953125
 30
0.0
 11
-0.75
 21
-5.953125
 31
0.0
  0
LINE
  5
99A9
330
9980
100
AcDbEntity
  8
HIDDEN1
  6
HIDDEN
100
AcDbLine
 10
-0.9032439350714867
 20
-5.809493935071483
 30
0.0
 11
-0.8259041308792021
 21
-5.732154130879202
 31
0.0
  0
TEXT
  5
99AA
330
9980
100
AcDbEntity
  8
TEXT1
  6
HIDDEN
100
AcDbText
 10
-0.9509464959568763
 20
-5.723419548199489
 30
0.0
 40
0.16
  1
HI
 41
0.8
  7
ROMANS
 72
     4
 11
-0.8595179245283048
 21
-5.643419548199489
 31
0.0
100
AcDbText
  0
LINE
  5
99AB
330
9980
100
AcDbEntity
  8
HIDDEN1
  6
HIDDEN
100
AcDbLine
 10
-1.046875
 20
-5.75
 30
0.0
 11
-1.046875
 21
-5.65625
 31
0.0
  0
LINE
  5
99AC
330
9980
100
AcDbEntity
  8
HIDDEN1
  6
HIDDEN
100
AcDbLine
 10
-1.25
 20
-5.953125
 30
0.0
 11
-1.34375
 21
-5.953125
 31
0.0
  0
LINE
  5
99AD
330
9980
100
AcDbEntity
  8
HIDDEN1
  6
HIDDEN
100
AcDbLine
 10
-1.198692517857622
 20
-6.088073904762325
 30
0.0
 11
-1.280440412088644
 21
-6.16073869963435
 31
0.0
  0
LINE
  5
99AE
330
9980
100
AcDbEntity
  8
HIDDEN1
  6
HIDDEN
100
AcDbLine
 10
-1.190506064928513
 20
-5.809493935071483
 30
0.0
 11
-1.256797325664756
 21
-5.743202674335243
 31
0.0
  0
CIRCLE
  5
99AF
330
9980
100
AcDbEntity
  8
HIDDEN1
  6
HIDDEN
100
AcDbCircle
 10
-1.046875
 20
-5.953125
 30
0.0
 40
0.203125
  0
TEXT
  5
99B0
330
9980
100
AcDbEntity
  8
TEXT1
  6
HIDDEN
100
AcDbText
 10
-1.33335119047619
 20
-5.474423018689988
 30
0.0
 40
0.16
  1
Adjust
 41
0.8
  7
ROMANS
 72
     4
 11
-1.046875
 21
-5.421089685356655
 31
0.0
100
AcDbText
  0
TEXT
  5
99B1
330
9980
100
AcDbEntity
  8
TEXT1
  6
HIDDEN
100
AcDbText
 10
-1.340797686433066
 20
-5.723419548199489
 30
0.0
 40
0.16
  1
LO
 41
0.8
  7
ROMANS
 72
     4
 11
-1.218892924528304
 21
-5.643419548199489
 31
0.0
100
AcDbText
  0
LINE
  5
99B2
330
9980
100
AcDbEntity
  8
HIDDEN1
  6
HIDDEN
100
AcDbLine
 10
0.1875
 20
-7.5625
 30
0.0
 11
1.3125
 21
-7.5625
 31
0.0
  0
CIRCLE
  5
99B3
330
9980
100
AcDbEntity
  8
HIDDEN1
  6
HIDDEN
100
AcDbCircle
 10
0.75
 20
-6.84375
 30
0.0
 40
0.21875
  0
LINE
  5
99B4
330
9980
100
AcDbEntity
  8
HIDDEN1
  6
HIDDEN
100
AcDbLine
 10
0.1875
 20
-7.4375
 30
0.0
 11
0.1875
 21
-7.5625
 31
0.0
  0
LINE
  5
99B5
330
9980
100
AcDbEntity
  8
HIDDEN1
  6
HIDDEN
100
AcDbLine
 10
0.5945332129520864
 20
-6.859375
 30
0.0
 11
0.9054667870479136
 21
-6.859375
 31
0.0
  0
LINE
  5
99B6
330
9980
100
AcDbEntity
  8
HIDDEN1
  6
HIDDEN
100
AcDbLine
 10
0.5945332129520864
 20
-6.828125
 30
0.0
 11
0.9054667870479136
 21
-6.828125
 31
0.0
  0
CIRCLE
  5
99B7
330
9980
100
AcDbEntity
  8
HIDDEN1
  6
HIDDEN
100
AcDbCircle
 10
0.75
 20
-6.84375
 30
0.0
 40
0.15625
  0
LINE
  5
99B8
330
9980
100
AcDbEntity
  8
HIDDEN1
  6
HIDDEN
100
AcDbLine
 10
1.6875
 20
-7.4375
 30
0.0
 11
1.5625
 21
-7.4375
 31
0.0
  0
LINE
  5
99B9
330
9980
100
AcDbEntity
  8
CENTER1
  6
HIDDEN
100
AcDbLine
 10
1.5
 20
-7.222624999999666
 30
0.0
 11
1.5
 21
-7.033874999999664
 31
0.0
  0
LINE
  5
99BA
330
9980
100
AcDbEntity
  8
HIDDEN1
  6
HIDDEN
100
AcDbLine
 10
1.5625
 20
-7.4375
 30
0.0
 11
1.5625
 21
-7.5625
 31
0.0
  0
LINE
  5
99BB
330
9980
100
AcDbEntity
  8
HIDDEN1
  6
HIDDEN
100
AcDbLine
 10
1.4375
 20
-7.4375
 30
0.0
 11
1.3125
 21
-7.4375
 31
0.0
  0
LINE
  5
99BC
330
9980
100
AcDbEntity
  8
HIDDEN1
  6
HIDDEN
100
AcDbLine
 10
1.4375
 20
-7.5625
 30
0.0
 11
1.4375
 21
-7.4375
 31
0.0
  0
LINE
  5
99BD
330
9980
100
AcDbEntity
  8
HIDDEN1
  6
HIDDEN
100
AcDbLine
 10
1.3125
 20
-7.4375
 30
0.0
 11
1.3125
 21
-7.5625
 31
0.0
  0
LINE
  5
99BE
330
9980
100
AcDbEntity
  8
CENTER1
  6
HIDDEN
100
AcDbLine
 10
1.59375
 20
-7.128874999999666
 30
0.0
 11
1.40625
 21
-7.128874999999666
 31
0.0
  0
LINE
  5
99BF
330
9980
100
AcDbEntity
  8
HIDDEN1
  6
HIDDEN
100
AcDbLine
 10
1.5625
 20
-7.5625
 30
0.0
 11
1.4375
 21
-7.5625
 31
0.0
  0
CIRCLE
  5
99C0
330
9980
100
AcDbEntity
  8
HIDDEN1
  6
HIDDEN
100
AcDbCircle
 10
1.5
 20
-7.128874999999666
 30
0.0
 40
0.095
  0
LINE
  5
99C1
330
9980
100
AcDbEntity
  8
HIDDEN1
  6
HIDDEN
100
AcDbLine
 10
1.6875
 20
-7.5625
 30
0.0
 11
1.6875
 21
-7.4375
 31
0.0
  0
CIRCLE
  5
99C2
330
9980
100
AcDbEntity
  8
HIDDEN1
  6
HIDDEN
100
AcDbCircle
 10
1.922141981815592
 20
-6.0625
 30
0.0
 40
0.09375
  0
CIRCLE
  5
99C3
330
9980
100
AcDbEntity
  8
HIDDEN1
  6
HIDDEN
100
AcDbCircle
 10
1.12471415094339
 20
-2.5
 30
0.0
 40
0.03125
  0
TEXT
  5
99C4
330
9980
100
AcDbEntity
  8
TEXT1
  6
HIDDEN
100
AcDbText
 10
0.5860475516621713
 20
-2.61125
 30
0.0
 40
0.16
  1
ON
  7
ROMANS
 72
     4
 11
0.7498570754716952
 21
-2.53125
 31
0.0
100
AcDbText
  0
CIRCLE
  5
99C5
330
9980
100
AcDbEntity
  8
HIDDEN1
  6
HIDDEN
100
AcDbCircle
 10
0.375
 20
-2.5
 30
0.0
 40
0.03125
  0
LINE
  5
99C6
330
9980
100
AcDbEntity
  8
HIDDEN1
  6
HIDDEN
100
AcDbLine
 10
1.374857075471695
 20
-2.46875
 30
0.0
 11
1.374857075471695
 21
-4.65625
 31
0.0
  0
LINE
  5
99C7
330
9980
100
AcDbEntity
  8
HIDDEN1
  6
HIDDEN
100
AcDbLine
 10
0.1248570754716951
 20
-4.65625
 30
0.0
 11
0.1248570754716951
 21
-2.46875
 31
0.0
  0
LINE
  5
99C8
330
9980
100
AcDbEntity
  8
HIDDEN1
  6
HIDDEN
100
AcDbLine
 10
0.1248570754716951
 20
-2.78125
 30
0.0
 11
1.374857075471695
 21
-2.78125
 31
0.0
  0
ARC
  5
99C9
330
9980
100
AcDbEntity
  8
HIDDEN1
  6
HIDDEN
100
AcDbCircle
 10
0.1873570754716951
 20
-4.65625
 30
0.0
 40
0.0625
100
AcDbArc
 50
180.0
 51
270.0
  0
LINE
  5
99CA
330
9980
100
AcDbEntity
  8
HIDDEN1
  6
HIDDEN
100
AcDbLine
 10
1.374857075471695
 20
-4.34375
 30
0.0
 11
0.1248570754716951
 21
-4.34375
 31
0.0
  0
CIRCLE
  5
99CB
330
9980
100
AcDbEntity
  8
HIDDEN1
  6
HIDDEN
100
AcDbCircle
 10
0.28125
 20
-3.847778673625715
 30
0.0
 40
0.0625
  0
LINE
  5
99CC
330
9980
100
AcDbEntity
  8
HIDDEN1
  6
HIDDEN
100
AcDbLine
 10
1.0625
 20
-4.34375
 30
0.0
 11
1.0625
 21
-2.78125
 31
0.0
  0
LINE
  5
99CD
330
9980
100
AcDbEntity
  8
HIDDEN1
  6
HIDDEN
100
AcDbLine
 10
0.4372141509433903
 20
-4.34375
 30
0.0
 11
0.4372141509433903
 21
-2.78125
 31
0.0
  0
LINE
  5
99CE
330
9980
100
AcDbEntity
  8
HIDDEN1
  6
HIDDEN
100
AcDbLine
 10
1.312357075471695
 20
-4.71875
 30
0.0
 11
0.1873570754716951
 21
-4.71875
 31
0.0
  0
TEXT
  5
99CF
330
9980
100
AcDbEntity
  8
TEXT1
  6
HIDDEN
100
AcDbText
 10
0.5212856469002665
 20
-4.67375
 30
0.0
 40
0.16
  1
OFF
  7
ROMANS
 72
     4
 11
0.7498570754716952
 21
-4.59375
 31
0.0
100
AcDbText
  0
CIRCLE
  5
99D0
330
9980
100
AcDbEntity
  8
HIDDEN1
  6
HIDDEN
100
AcDbCircle
 10
0.375
 20
-4.625
 30
0.0
 40
0.03125
  0
CIRCLE
  5
99D1
330
9980
100
AcDbEntity
  8
HIDDEN1
  6
HIDDEN
100
AcDbCircle
 10
1.12471415094339
 20
-4.625
 30
0.0
 40
0.03125
  0
LINE
  5
99D2
330
9980
100
AcDbEntity
  8
HIDDEN1
  6
HIDDEN
100
AcDbLine
 10
0.4375
 20
-4.21875
 30
0.0
 11
1.0625
 21
-4.21875
 31
0.0
  0
ARC
  5
99D3
330
9980
100
AcDbEntity
  8
HIDDEN1
  6
HIDDEN
100
AcDbCircle
 10
1.312357075471695
 20
-4.65625
 30
0.0
 40
0.0625
100
AcDbArc
 50
270.0
 51
0.0
  0
LINE
  5
99D4
330
9980
100
AcDbEntity
  8
HIDDEN1
  6
HIDDEN
100
AcDbLine
 10
0.5
 20
-3.042527213993057
 30
0.0
 11
0.4375
 21
-3.198777213993057
 31
0.0
  0
LINE
  5
99D5
330
9980
100
AcDbEntity
  8
HIDDEN1
  6
HIDDEN
100
AcDbLine
 10
1.0
 20
-3.042527213993057
 30
0.0
 11
1.0625
 21
-3.198777213993057
 31
0.0
  0
LINE
  5
99D6
330
9980
100
AcDbEntity
  8
HIDDEN1
  6
HIDDEN
100
AcDbLine
 10
0.4375
 20
-3.198777213993057
 30
0.0
 11
1.0625
 21
-3.198777213993057
 31
0.0
  0
LINE
  5
99D7
330
9980
100
AcDbEntity
  8
HIDDEN1
  6
HIDDEN
100
AcDbLine
 10
0.4375
 20
-2.807165434072723
 30
0.0
 11
0.7274105007317076
 21
-2.807165434072723
 31
0.0
  0
LWPOLYLINE
  5
99D8
330
9980
100
AcDbEntity
  8
HIDDEN1
  6
HIDDEN
100
AcDbPolyline
 90
        4
 70
     1
 43
0.0
 10
0.4998570754716952
 20
-2.792527213993057
 10
0.4998570754716952
 20
-3.042527213993057
 10
0.9998570754716951
 20
-3.042527213993057
 10
0.9998570754716951
 20
-2.792527213993057
  0
LINE
  5
99DE
330
9980
100
AcDbEntity
  8
HIDDEN1
  6
HIDDEN
100
AcDbLine
 10
0.5
 20
-2.792527213993057
 30
0.0
 11
0.4375
 21
-2.948777213993057
 31
0.0
  0
LINE
  5
99DF
330
9980
100
AcDbEntity
  8
HIDDEN1
  6
HIDDEN
100
AcDbLine
 10
0.28125
 20
-2.96875
 30
0.0
 11
0.28125
 21
-2.84375
 31
0.0
  0
ARC
  5
99E0
330
9980
100
AcDbEntity
  8
HIDDEN1
  6
HIDDEN
100
AcDbCircle
 10
0.75
 20
-2.807165434072723
 30
0.0
 40
0.0225894992682898
100
AcDbArc
 50
0.0
 51
180.0
  0
LINE
  5
99E1
330
9980
100
AcDbEntity
  8
HIDDEN1
  6
HIDDEN
100
AcDbLine
 10
0.7725894992682925
 20
-2.807165434072723
 30
0.0
 11
1.0625
 21
-2.807165434072723
 31
0.0
  0
LINE
  5
99E2
330
9980
100
AcDbEntity
  8
HIDDEN1
  6
HIDDEN
100
AcDbLine
 10
1.0
 20
-2.792527213993057
 30
0.0
 11
1.0625
 21
-2.948777213993057
 31
0.0
  0
ARC
  5
99E3
330
9980
100
AcDbEntity
  8
HIDDEN1
  6
HIDDEN
100
AcDbCircle
 10
0.1873570754716951
 20
-2.46875
 30
0.0
 40
0.0625
100
AcDbArc
 50
90.0
 51
180.0
  0
LINE
  5
99E4
330
9980
100
AcDbEntity
  8
HIDDEN1
  6
HIDDEN
100
AcDbLine
 10
-0.9054667870479136
 20
-0.296875
 30
0.0
 11
-0.5945332129520864
 21
-0.296875
 31
0.0
  0
LINE
  5
99E5
330
9980
100
AcDbEntity
  8
HIDDEN1
  6
HIDDEN
100
AcDbLine
 10
-0.9054667870479136
 20
-0.265625
 30
0.0
 11
-0.5945332129520864
 21
-0.265625
 31
0.0
  0
CIRCLE
  5
99E6
330
9980
100
AcDbEntity
  8
HIDDEN1
  6
HIDDEN
100
AcDbCircle
 10
-0.75
 20
-0.28125
 30
0.0
 40
0.15625
  0
CIRCLE
  5
99E7
330
9980
100
AcDbEntity
  8
HIDDEN1
  6
HIDDEN
100
AcDbCircle
 10
-0.75
 20
-0.28125
 30
0.0
 40
0.21875
  0
LINE
  5
99E8
330
9980
100
AcDbEntity
  8
CENTER1
  6
HIDDEN
100
AcDbLine
 10
0.09375
 20
0.0
 30
0.0
 11
-0.09375
 21
0.0
 31
0.0
  0
LINE
  5
99E9
330
9980
100
AcDbEntity
  8
HIDDEN1
  6
HIDDEN
100
AcDbLine
 10
0.1873570754716951
 20
-2.40625
 30
0.0
 11
1.312357075471695
 21
-2.40625
 31
0.0
  0
ARC
  5
99EA
330
9980
100
AcDbEntity
  8
HIDDEN1
  6
HIDDEN
100
AcDbCircle
 10
1.312357075471695
 20
-2.46875
 30
0.0
 40
0.0625
100
AcDbArc
 50
0.0
 51
90.0
  0
LINE
  5
99EB
330
9980
100
AcDbEntity
  8
HIDDEN1
  6
HIDDEN
100
AcDbLine
 10
0.5945332129520864
 20
-0.296875
 30
0.0
 11
0.9054667870479136
 21
-0.296875
 31
0.0
  0
LINE
  5
99EC
330
9980
100
AcDbEntity
  8
HIDDEN1
  6
HIDDEN
100
AcDbLine
 10
0.5945332129520864
 20
-0.265625
 30
0.0
 11
0.9054667870479136
 21
-0.265625
 31
0.0
  0
CIRCLE
  5
99ED
330
9980
100
AcDbEntity
  8
HIDDEN1
  6
HIDDEN
100
AcDbCircle
 10
0.75
 20
-0.28125
 30
0.0
 40
0.21875
  0
CIRCLE
  5
99EE
330
9980
100
AcDbEntity
  8
HIDDEN1
  6
HIDDEN
100
AcDbCircle
 10
0.75
 20
-0.28125
 30
0.0
 40
0.15625
  0
LINE
  5
99EF
330
9980
100
AcDbEntity
  8
CENTER1
  6
HIDDEN
100
AcDbLine
 10
1.59375
 20
0.0
 30
0.0
 11
1.40625
 21
0.0
 31
0.0
  0
LINE
  5
99F0
330
9980
100
AcDbEntity
  8
HIDDEN1
  6
HIDDEN
100
AcDbLine
 10
1.6875
 20
0.4375
 30
0.0
 11
3.0
 21
0.4375
 31
0.0
  0
LINE
  5
99F1
330
9980
100
AcDbEntity
  8
HIDDEN1
  6
HIDDEN
100
AcDbLine
 10
0.0625
 20
0.3086250000003332
 30
0.0
 11
0.1875
 21
0.3086250000003332
 31
0.0
  0
LINE
  5
99F2
330
9980
100
AcDbEntity
  8
HIDDEN1
  6
HIDDEN
100
AcDbLine
 10
-1.5
 20
0.4375
 30
0.0
 11
-0.1875
 21
0.4375
 31
0.0
  0
POINT
  5
99F3
330
9980
100
AcDbEntity
  8
HIDDEN1
  6
HIDDEN
 62
     0
100
AcDbPoint
 10
-1.5
 20
0.4375
 30
0.0
  0
LINE
  5
99F4
330
9980
100
AcDbEntity
  8
HIDDEN1
  6
HIDDEN
100
AcDbLine
 10
0.0625
 20
0.4375
 30
0.0
 11
0.0625
 21
0.3086250000003332
 31
0.0
  0
LINE
  5
99F5
330
9980
100
AcDbEntity
  8
HIDDEN1
  6
HIDDEN
100
AcDbLine
 10
-0.0625
 20
0.4375
 30
0.0
 11
-0.0625
 21
0.3086250000003332
 31
0.0
  0
LINE
  5
99F6
330
9980
100
AcDbEntity
  8
HIDDEN1
  6
HIDDEN
100
AcDbLine
 10
-0.1875
 20
0.3086250000003332
 30
0.0
 11
-0.1875
 21
0.4375
 31
0.0
  0
LINE
  5
99F7
330
9980
100
AcDbEntity
  8
HIDDEN1
  6
HIDDEN
100
AcDbLine
 10
-0.0625
 20
0.3086250000003332
 30
0.0
 11
-0.1875
 21
0.3086250000003332
 31
0.0
  0
LINE
  5
99F8
330
9980
100
AcDbEntity
  8
HIDDEN1
  6
HIDDEN
100
AcDbLine
 10
-0.0625
 20
0.4375
 30
0.0
 11
0.0625
 21
0.4375
 31
0.0
  0
LINE
  5
99F9
330
9980
100
AcDbEntity
  8
HIDDEN1
  6
HIDDEN
100
AcDbLine
 10
0.1875
 20
0.4375
 30
0.0
 11
1.3125
 21
0.4375
 31
0.0
  0
LINE
  5
99FA
330
9980
100
AcDbEntity
  8
HIDDEN1
  6
HIDDEN
100
AcDbLine
 10
0.1875
 20
0.3086250000003332
 30
0.0
 11
0.1875
 21
0.4336250000003333
 31
0.0
  0
LINE
  5
99FB
330
9980
100
AcDbEntity
  8
HIDDEN1
  6
HIDDEN
100
AcDbLine
 10
1.5625
 20
0.3086250000003332
 30
0.0
 11
1.6875
 21
0.3086250000003332
 31
0.0
  0
LINE
  5
99FC
330
9980
100
AcDbEntity
  8
HIDDEN1
  6
HIDDEN
100
AcDbLine
 10
1.5625
 20
0.4375
 30
0.0
 11
1.5625
 21
0.3086250000003332
 31
0.0
  0
LINE
  5
99FD
330
9980
100
AcDbEntity
  8
HIDDEN1
  6
HIDDEN
100
AcDbLine
 10
1.4375
 20
0.4375
 30
0.0
 11
1.4375
 21
0.3086250000003332
 31
0.0
  0
LINE
  5
99FE
330
9980
100
AcDbEntity
  8
HIDDEN1
  6
HIDDEN
100
AcDbLine
 10
1.3125
 20
0.3086250000003332
 30
0.0
 11
1.3125
 21
0.4375
 31
0.0
  0
LINE
  5
99FF
330
9980
100
AcDbEntity
  8
HIDDEN1
  6
HIDDEN
100
AcDbLine
 10
1.4375
 20
0.3086250000003332
 30
0.0
 11
1.3125
 21
0.3086250000003332
 31
0.0
  0
LINE
  5
9A00
330
9980
100
AcDbEntity
  8
HIDDEN1
  6
HIDDEN
100
AcDbLine
 10
1.4375
 20
0.4375
 30
0.0
 11
1.5625
 21
0.4375
 31
0.0
  0
LINE
  5
9A01
330
9980
100
AcDbEntity
  8
HIDDEN1
  6
HIDDEN
100
AcDbLine
 10
1.6875
 20
0.3086250000003332
 30
0.0
 11
1.6875
 21
0.4336250000003333
 31
0.0
  0
POINT
  5
9A02
330
9980
100
AcDbEntity
  8
HIDDEN1
  6
HIDDEN
 62
     0
100
AcDbPoint
 10
3.0
 20
0.4375
 30
0.0
  0
ENDBLK
  5
9A04
330
9980
100
AcDbEntity
  8
0
100
AcDbBlockEnd
  0
BLOCK
  5
9FD0
330
9FC5
100
AcDbEntity
  8
0
100
AcDbBlockBegin
  2
*D6
 70
     1
 10
0.0
 20
0.0
 30
0.0
  3
*D6
  1

  0
LINE
  5
A9A2
330
9FC5
100
AcDbEntity
  8
DIM
100
AcDbLine
 10
8.843858400931708
 20
13.30117732682616
 30
0.0
 11
8.843858400931708
 21
16.91289992716474
 31
0.0
  0
LINE
  5
A9A3
330
9FC5
100
AcDbEntity
  8
DIM
100
AcDbLine
 10
6.213711227594338
 20
11.70772996932297
 30
0.0
 11
6.213711227594338
 21
16.91289992716474
 31
0.0
  0
LINE
  5
A9A4
330
9FC5
100
AcDbEntity
  8
DIM
100
AcDbLine
 10
8.703858400931707
 20
16.78789992716474
 30
0.0
 11
7.989737195215403
 21
16.78789992716474
 31
0.0
  0
LINE
  5
A9A5
330
9FC5
100
AcDbEntity
  8
DIM
100
AcDbLine
 10
6.353711227594337
 20
16.78789992716474
 30
0.0
 11
7.067832433310642
 21
16.78789992716474
 31
0.0
  0
INSERT
  5
A9A6
330
9FC5
100
AcDbEntity
  8
DIM
100
AcDbBlockReference
  2
SEARROW
 10
8.843858400931708
 20
16.78789992716474
 30
0.0
 41
0.14
 42
0.14
 43
0.14
  0
INSERT
  5
A9A7
330
9FC5
100
AcDbEntity
  8
DIM
100
AcDbBlockReference
  2
SEARROW
 10
6.213711227594338
 20
16.78789992716474
 30
0.0
 41
0.14
 42
0.14
 43
0.14
 50
180.0
  0
MTEXT
  5
A9A8
330
9FC5
100
AcDbEntity
  8
DIM
100
AcDbMText
 10
7.528784814263023
 20
16.78789992716474
 30
0.0
 40
0.2
 41
0.0
 71
     5
 72
     1
  1
\A1;\P2.63\P [67]
  7
ROMANS
1001
ACAD
1000
MTEXTBEGIN
1070
    73
1070
     1
1070
    44
1040
1.0
1070
    74
1070
     0
1000
MTEXTEND
1000
MTEXTBEGIN
1070
    73
1070
     1
1070
    44
1040
1.0
1070
    74
1070
     0
1000
MTEXTEND
  0
POINT
  5
A9A9
330
9FC5
100
AcDbEntity
  8
DEFPOINTS
 62
     0
100
AcDbPoint
 10
8.843858400931708
 20
13.17617732682616
 30
0.0
  0
POINT
  5
A9AA
330
9FC5
100
AcDbEntity
  8
DEFPOINTS
 62
     0
100
AcDbPoint
 10
6.213711227594338
 20
11.58272996932298
 30
0.0
  0
POINT
  5
A9AB
330
9FC5
100
AcDbEntity
  8
DEFPOINTS
 62
     0
100
AcDbPoint
 10
6.213711227594338
 20
16.78789992716474
 30
0.0
  0
ENDBLK
  5
9FD1
330
9FC5
100
AcDbEntity
  8
0
100
AcDbBlockEnd
  0
BLOCK
  5
9FDD
330
9FD2
100
AcDbEntity
  8
0
100
AcDbBlockBegin
  2
*D7
 70
     1
 10
0.0
 20
0.0
 30
0.0
  3
*D7
  1

  0
LINE
  5
A9AC
330
9FD2
100
AcDbEntity
  8
DIM
100
AcDbLine
 10
8.843858400931708
 20
13.30117732682616
 30
0.0
 11
8.843858400931708
 21
16.91289992716474
 31
0.0
  0
LINE
  5
A9AD
330
9FD2
100
AcDbEntity
  8
DIM
100
AcDbLine
 10
10.3438584009317
 20
13.30117732682616
 30
0.0
 11
10.3438584009317
 21
16.91289992716474
 31
0.0
  0
LINE
  5
A9AE
330
9FD2
100
AcDbEntity
  8
DIM
100
AcDbLine
 10
8.983858400931708
 20
16.78789992716474
 30
0.0
 11
9.132906019979326
 21
16.78789992716474
 31
0.0
  0
LINE
  5
A9AF
330
9FD2
100
AcDbEntity
  8
DIM
100
AcDbLine
 10
10.2038584009317
 20
16.78789992716474
 30
0.0
 11
10.05481078188408
 21
16.78789992716474
 31
0.0
  0
INSERT
  5
A9B0
330
9FD2
100
AcDbEntity
  8
DIM
100
AcDbBlockReference
  2
SEARROW
 10
8.843858400931708
 20
16.78789992716474
 30
0.0
 41
0.14
 42
0.14
 43
0.14
 50
180.0
  0
INSERT
  5
A9B1
330
9FD2
100
AcDbEntity
  8
DIM
100
AcDbBlockReference
  2
SEARROW
 10
10.3438584009317
 20
16.78789992716474
 30
0.0
 41
0.14
 42
0.14
 43
0.14
  0
MTEXT
  5
A9B2
330
9FD2
100
AcDbEntity
  8
DIM
100
AcDbMText
 10
9.593858400931708
 20
16.78789992716474
 30
0.0
 40
0.2
 41
0.0
 71
     5
 72
     1
  1
\A1;\P1.50\P [38]
  7
ROMANS
1001
ACAD
1000
MTEXTBEGIN
1070
    73
1070
     1
1070
    44
1040
1.0
1070
    74
1070
     0
1000
MTEXTEND
1000
MTEXTBEGIN
1070
    73
1070
     1
1070
    44
1040
1.0
1070
    74
1070
     0
1000
MTEXTEND
  0
POINT
  5
A9B3
330
9FD2
100
AcDbEntity
  8
DEFPOINTS
 62
     0
100
AcDbPoint
 10
8.843858400931708
 20
13.17617732682616
 30
0.0
  0
POINT
  5
A9B4
330
9FD2
100
AcDbEntity
  8
DEFPOINTS
 62
     0
100
AcDbPoint
 10
10.3438584009317
 20
13.17617732682616
 30
0.0
  0
POINT
  5
A9B5
330
9FD2
100
AcDbEntity
  8
DEFPOINTS
 62
     0
100
AcDbPoint
 10
10.3438584009317
 20
16.78789992716474
 30
0.0
  0
ENDBLK
  5
9FDE
330
9FD2
100
AcDbEntity
  8
0
100
AcDbBlockEnd
  0
BLOCK
  5
9FEA
330
9FDF
100
AcDbEntity
  8
0
100
AcDbBlockBegin
  2
*D8
 70
     1
 10
0.0
 20
0.0
 30
0.0
  3
*D8
  1

  0
LINE
  5
A9B6
330
9FDF
100
AcDbEntity
  8
DIM
100
AcDbLine
 10
27.60970520159142
 20
15.37294316994851
 30
0.0
 11
29.01654715313319
 21
15.37294316994851
 31
0.0
  0
LINE
  5
A9B7
330
9FDF
100
AcDbEntity
  8
DIM
100
AcDbLine
 10
27.85970520159142
 20
5.247943169948516
 30
0.0
 11
29.01654715313318
 21
5.247943169948516
 31
0.0
  0
LINE
  5
A9B8
330
9FDF
100
AcDbEntity
  8
DIM
100
AcDbLine
 10
28.89154715313319
 20
15.23294316994851
 30
0.0
 11
28.89154715313319
 21
10.70949078899613
 31
0.0
  0
LINE
  5
A9B9
330
9FDF
100
AcDbEntity
  8
DIM
100
AcDbLine
 10
28.89154715313319
 20
5.387943169948516
 30
0.0
 11
28.89154715313319
 21
9.911395550900898
 31
0.0
  0
INSERT
  5
A9BA
330
9FDF
100
AcDbEntity
  8
DIM
100
AcDbBlockReference
  2
SEARROW
 10
28.89154715313319
 20
15.37294316994851
 30
0.0
 41
0.14
 42
0.14
 43
0.14
 50
90.0
  0
INSERT
  5
A9BB
330
9FDF
100
AcDbEntity
  8
DIM
100
AcDbBlockReference
  2
SEARROW
 10
28.89154715313319
 20
5.247943169948516
 30
0.0
 41
0.14
 42
0.14
 43
0.14
 50
270.0
  0
MTEXT
  5
A9BC
330
9FDF
100
AcDbEntity
  8
DIM
100
AcDbMText
 10
28.89154715313319
 20
10.31044316994852
 30
0.0
 40
0.2
 41
0.0
 71
     5
 72
     1
  1
\A1;10.13\P [257]
  7
ROMANS
1001
ACAD
1000
MTEXTBEGIN
1070
    73
1070
     1
1070
    44
1040
1.0
1070
    74
1070
     0
1000
MTEXTEND
1000
MTEXTBEGIN
1070
    73
1070
     1
1070
    44
1040
1.0
1070
    74
1070
     0
1000
MTEXTEND
  0
POINT
  5
A9BD
330
9FDF
100
AcDbEntity
  8
DEFPOINTS
 62
     0
100
AcDbPoint
 10
27.48470520159142
 20
15.37294316994851
 30
0.0
  0
POINT
  5
A9BE
330
9FDF
100
AcDbEntity
  8
DEFPOINTS
 62
     0
100
AcDbPoint
 10
27.73470520159142
 20
5.247943169948516
 30
0.0
  0
POINT
  5
A9BF
330
9FDF
100
AcDbEntity
  8
DEFPOINTS
 62
     0
100
AcDbPoint
 10
28.89154715313319
 20
5.247943169948516
 30
0.0
  0
ENDBLK
  5
9FEB
330
9FDF
100
AcDbEntity
  8
0
100
AcDbBlockEnd
  0
BLOCK
  5
9FF7
330
9FEC
100
AcDbEntity
  8
0
100
AcDbBlockBegin
  2
*D9
 70
     1
 10
0.0
 20
0.0
 30
0.0
  3
*D9
  1

  0
LINE
  5
A9C0
330
9FEC
100
AcDbEntity
  8
DIM
100
AcDbLine
 10
10.4688584009317
 20
13.17617732682616
 30
0.0
 11
14.03135840093171
 21
13.17617732682615
 31
0.0
  0
LINE
  5
A9C1
330
9FEC
100
AcDbEntity
  8
DIM
100
AcDbLine
 10
10.4688584009317
 20
6.043677326826156
 30
0.0
 11
14.03135840093171
 21
6.043677326826155
 31
0.0
  0
LINE
  5
A9C2
330
9FEC
100
AcDbEntity
  8
DIM
100
AcDbLine
 10
13.90635840093171
 20
13.03617732682615
 30
0.0
 11
13.90635840093171
 21
10.00897494587377
 31
0.0
  0
LINE
  5
A9C3
330
9FEC
100
AcDbEntity
  8
DIM
100
AcDbLine
 10
13.90635840093171
 20
6.183677326826155
 30
0.0
 11
13.90635840093171
 21
9.210879707778536
 31
0.0
  0
INSERT
  5
A9C4
330
9FEC
100
AcDbEntity
  8
DIM
100
AcDbBlockReference
  2
SEARROW
 10
13.90635840093171
 20
13.17617732682615
 30
0.0
 41
0.14
 42
0.14
 43
0.14
 50
90.0
  0
INSERT
  5
A9C5
330
9FEC
100
AcDbEntity
  8
DIM
100
AcDbBlockReference
  2
SEARROW
 10
13.90635840093171
 20
6.043677326826156
 30
0.0
 41
0.14
 42
0.14
 43
0.14
 50
270.0
  0
MTEXT
  5
A9C6
330
9FEC
100
AcDbEntity
  8
DIM
100
AcDbMText
 10
13.9063584009317
 20
9.609927326826159
 30
0.0
 40
0.2
 41
0.0
 71
     5
 72
     1
  1
\A1;7.13\P [181]
  7
ROMANS
1001
ACAD
1000
MTEXTBEGIN
1070
    73
1070
     1
1070
    44
1040
1.0
1070
    74
1070
     0
1000
MTEXTEND
1000
MTEXTBEGIN
1070
    73
1070
     1
1070
    44
1040
1.0
1070
    74
1070
     0
1000
MTEXTEND
  0
POINT
  5
A9C7
330
9FEC
100
AcDbEntity
  8
DEFPOINTS
 62
     0
100
AcDbPoint
 10
10.3438584009317
 20
13.17617732682616
 30
0.0
  0
POINT
  5
A9C8
330
9FEC
100
AcDbEntity
  8
DEFPOINTS
 62
     0
100
AcDbPoint
 10
10.3438584009317
 20
6.043677326826156
 30
0.0
  0
POINT
  5
A9C9
330
9FEC
100
AcDbEntity
  8
DEFPOINTS
 62
     0
100
AcDbPoint
 10
13.90635840093171
 20
6.043677326826156
 30
0.0
  0
ENDBLK
  5
9FF8
330
9FEC
100
AcDbEntity
  8
0
100
AcDbBlockEnd
  0
BLOCK
  5
A005
330
9FF9
100
AcDbEntity
  8
0
100
AcDbBlockBegin
  2
*D10
 70
     1
 10
0.0
 20
0.0
 30
0.0
  3
*D10
  1

  0
LINE
  5
A9CA
330
9FF9
100
AcDbEntity
  8
DIM
100
AcDbLine
 10
10.4688584009317
 20
6.043677326826156
 30
0.0
 11
14.03135840093171
 21
6.043677326826155
 31
0.0
  0
LINE
  5
A9CB
330
9FF9
100
AcDbEntity
  8
DIM
100
AcDbLine
 10
12.59385840093171
 20
5.606177326826159
 30
0.0
 11
14.03135840093171
 21
5.606177326826158
 31
0.0
  0
LINE
  5
A9CC
330
9FF9
100
AcDbEntity
  8
DIM
100
AcDbLine
 10
13.90635840093171
 20
6.183677326826155
 30
0.0
 11
13.90635840093171
 21
6.323677326826156
 31
0.0
  0
LINE
  5
A9CD
330
9FF9
100
AcDbEntity
  8
DIM
100
AcDbLine
 10
13.90635840093171
 20
5.466177326826159
 30
0.0
 11
13.90635840093171
 21
5.099946152216987
 31
0.0
  0
LINE
  5
A9CE
330
9FF9
100
AcDbEntity
  8
DIM
100
AcDbLine
 10
13.90635840093171
 20
5.099946152216987
 30
0.0
 11
13.76635840093171
 21
5.099946152216987
 31
0.0
  0
INSERT
  5
A9CF
330
9FF9
100
AcDbEntity
  8
DIM
100
AcDbBlockReference
  2
SEARROW
 10
13.90635840093171
 20
6.043677326826156
 30
0.0
 41
0.14
 42
0.14
 43
0.14
 50
270.0
  0
INSERT
  5
A9D0
330
9FF9
100
AcDbEntity
  8
DIM
100
AcDbBlockReference
  2
SEARROW
 10
13.90635840093171
 20
5.606177326826159
 30
0.0
 41
0.14
 42
0.14
 43
0.14
 50
90.0
  0
MTEXT
  5
A9D1
330
9FF9
100
AcDbEntity
  8
DIM
100
AcDbMText
 10
13.30540601997932
 20
5.099946152216989
 30
0.0
 40
0.2
 41
0.0
 71
     5
 72
     1
  1
\A1;.44\P [11]
  7
ROMANS
1001
ACAD
1000
MTEXTBEGIN
1070
    73
1070
     1
1070
    44
1040
1.0
1070
    74
1070
     0
1000
MTEXTEND
1000
MTEXTBEGIN
1070
    73
1070
     1
1070
    44
1040
1.0
1070
    74
1070
     0
1000
MTEXTEND
  0
POINT
  5
A9D2
330
9FF9
100
AcDbEntity
  8
DEFPOINTS
 62
     0
100
AcDbPoint
 10
10.3438584009317
 20
6.043677326826156
 30
0.0
  0
POINT
  5
A9D3
330
9FF9
100
AcDbEntity
  8
DEFPOINTS
 62
     0
100
AcDbPoint
 10
12.4688584009317
 20
5.606177326826159
 30
0.0
  0
POINT
  5
A9D4
330
9FF9
100
AcDbEntity
  8
DEFPOINTS
 62
     0
100
AcDbPoint
 10
13.90635840093171
 20
5.606177326826159
 30
0.0
  0
ENDBLK
  5
A006
330
9FF9
100
AcDbEntity
  8
0
100
AcDbBlockEnd
  0
BLOCK
  5
A012
330
A007
100
AcDbEntity
  8
0
100
AcDbBlockBegin
  2
*D11
 70
     1
 10
0.0
 20
0.0
 30
0.0
  3
*D11
  1

  0
LINE
  5
A9D5
330
A007
100
AcDbEntity
  8
DIM
100
AcDbLine
 10
21.22470520159142
 20
17.44544470790196
 30
0.0
 11
21.22470520159142
 21
17.22544821842306
 31
0.0
  0
LINE
  5
A9D6
330
A007
100
AcDbEntity
  8
DIM
100
AcDbLine
 10
27.73470520159142
 20
17.75568148189934
 30
0.0
 11
27.73470520159142
 21
17.22544821842306
 31
0.0
  0
LINE
  5
A9D7
330
A007
100
AcDbEntity
  8
DIM
100
AcDbLine
 10
21.36470520159142
 20
17.35044821842306
 30
0.0
 11
22.46637186825809
 21
17.35044821842306
 31
0.0
  0
LINE
  5
A9D8
330
A007
100
AcDbEntity
  8
DIM
100
AcDbLine
 10
27.59470520159142
 20
17.35044821842306
 30
0.0
 11
26.49303853492475
 21
17.35044821842306
 31
0.0
  0
INSERT
  5
A9D9
330
A007
100
AcDbEntity
  8
DIM
100
AcDbBlockReference
  2
SEARROW
 10
21.22470520159142
 20
17.35044821842306
 30
0.0
 41
0.14
 42
0.14
 43
0.14
 50
180.0
  0
INSERT
  5
A9DA
330
A007
100
AcDbEntity
  8
DIM
100
AcDbBlockReference
  2
SEARROW
 10
27.73470520159142
 20
17.35044821842306
 30
0.0
 41
0.14
 42
0.14
 43
0.14
  0
MTEXT
  5
A9DB
330
A007
100
AcDbEntity
  8
DIM
100
AcDbMText
 10
24.47970520159142
 20
17.35044821842306
 30
0.0
 40
0.2
 41
0.0
 71
     5
 72
     1
  1
\A1;\P\P\PDistance from outside of\Pflange to circuit breaker\Pmounting surface.\P6.51 MIN, 17.88 MAX
  7
ROMANS
1001
ACAD
1000
MTEXTBEGIN
1070
    73
1070
     1
1070
    44
1040
1.0
1070
    74
1070
     0
1000
MTEXTEND
1000
MTEXTBEGIN
1070
    73
1070
     1
1070
    44
1040
1.0
1070
    74
1070
     0
1000
MTEXTEND
  0
POINT
  5
A9DC
330
A007
100
AcDbEntity
  8
DEFPOINTS
 62
     0
100
AcDbPoint
 10
21.22470520159142
 20
17.57044470790196
 30
0.0
  0
POINT
  5
A9DD
330
A007
100
AcDbEntity
  8
DEFPOINTS
 62
     0
100
AcDbPoint
 10
27.73470520159142
 20
17.88068148189934
 30
0.0
  0
POINT
  5
A9DE
330
A007
100
AcDbEntity
  8
DEFPOINTS
 62
     0
100
AcDbPoint
 10
27.73470520159142
 20
17.35044821842306
 30
0.0
  0
ENDBLK
  5
A013
330
A007
100
AcDbEntity
  8
0
100
AcDbBlockEnd
  0
BLOCK
  5
A01F
330
A014
100
AcDbEntity
  8
0
100
AcDbBlockBegin
  2
*D12
 70
     1
 10
0.0
 20
0.0
 30
0.0
  3
*D12
  1

  0
LINE
  5
A9DF
330
A014
100
AcDbEntity
  8
DIM
100
AcDbLine
 10
8.843858400931708
 20
13.30117732682616
 30
0.0
 11
8.843858400931708
 21
15.88113718542533
 31
0.0
  0
LINE
  5
A9E0
330
A014
100
AcDbEntity
  8
DIM
100
AcDbLine
 10
6.500108400931708
 20
12.27884482437818
 30
0.0
 11
6.500108400931708
 21
15.88113718542533
 31
0.0
  0
LINE
  5
A9E1
330
A014
100
AcDbEntity
  8
DIM
100
AcDbLine
 10
8.703858400931707
 20
15.75613718542533
 30
0.0
 11
8.132935781884089
 21
15.75613718542533
 31
0.0
  0
LINE
  5
A9E2
330
A014
100
AcDbEntity
  8
DIM
100
AcDbLine
 10
6.640108400931707
 20
15.75613718542533
 30
0.0
 11
7.211031019979327
 21
15.75613718542533
 31
0.0
  0
INSERT
  5
A9E3
330
A014
100
AcDbEntity
  8
DIM
100
AcDbBlockReference
  2
SEARROW
 10
8.843858400931708
 20
15.75613718542533
 30
0.0
 41
0.14
 42
0.14
 43
0.14
  0
INSERT
  5
A9E4
330
A014
100
AcDbEntity
  8
DIM
100
AcDbBlockReference
  2
SEARROW
 10
6.500108400931708
 20
15.75613718542533
 30
0.0
 41
0.14
 42
0.14
 43
0.14
 50
180.0
  0
MTEXT
  5
A9E5
330
A014
100
AcDbEntity
  8
DIM
100
AcDbMText
 10
7.671983400931708
 20
15.75613718542533
 30
0.0
 40
0.2
 41
0.0
 71
     5
 72
     1
  1
\A1;\P2.34\P [60]
  7
ROMANS
1001
ACAD
1000
MTEXTBEGIN
1070
    73
1070
     1
1070
    44
1040
1.0
1070
    74
1070
     0
1000
MTEXTEND
1000
MTEXTBEGIN
1070
    73
1070
     1
1070
    44
1040
1.0
1070
    74
1070
     0
1000
MTEXTEND
  0
POINT
  5
A9E6
330
A014
100
AcDbEntity
  8
DEFPOINTS
 62
     0
100
AcDbPoint
 10
8.843858400931708
 20
13.17617732682616
 30
0.0
  0
POINT
  5
A9E7
330
A014
100
AcDbEntity
  8
DEFPOINTS
 62
     0
100
AcDbPoint
 10
6.500108400931708
 20
12.15384482437818
 30
0.0
  0
POINT
  5
A9E8
330
A014
100
AcDbEntity
  8
DEFPOINTS
 62
     0
100
AcDbPoint
 10
6.500108400931708
 20
15.75613718542533
 30
0.0
  0
ENDBLK
  5
A020
330
A014
100
AcDbEntity
  8
0
100
AcDbBlockEnd
  0
BLOCK
  5
A0DF
330
A0D4
100
AcDbEntity
  8
0
100
AcDbBlockBegin
  2
*D13
 70
     1
 10
0.0
 20
0.0
 30
0.0
  3
*D13
  1

  0
LINE
  5
A9E9
330
A0D4
100
AcDbEntity
  8
DIM
100
AcDbLine
 10
10.3438584009317
 20
13.39492732682616
 30
0.0
 11
10.3438584009317
 21
16.21205134069273
 31
0.0
  0
LINE
  5
A9EA
330
A0D4
100
AcDbEntity
  8
DIM
100
AcDbLine
 10
12.9688584009317
 20
15.85617732682615
 30
0.0
 11
12.9688584009317
 21
16.21205134069273
 31
0.0
  0
LINE
  5
A9EB
330
A0D4
100
AcDbEntity
  8
DIM
100
AcDbLine
 10
10.4838584009317
 20
16.08705134069273
 30
0.0
 11
11.19540601997932
 21
16.08705134069273
 31
0.0
  0
LINE
  5
A9EC
330
A0D4
100
AcDbEntity
  8
DIM
100
AcDbLine
 10
12.8288584009317
 20
16.08705134069273
 30
0.0
 11
12.11731078188408
 21
16.08705134069273
 31
0.0
  0
INSERT
  5
A9ED
330
A0D4
100
AcDbEntity
  8
DIM
100
AcDbBlockReference
  2
SEARROW
 10
10.3438584009317
 20
16.08705134069273
 30
0.0
 41
0.14
 42
0.14
 43
0.14
 50
180.0
  0
INSERT
  5
A9EE
330
A0D4
100
AcDbEntity
  8
DIM
100
AcDbBlockReference
  2
SEARROW
 10
12.9688584009317
 20
16.08705134069273
 30
0.0
 41
0.14
 42
0.14
 43
0.14
  0
MTEXT
  5
A9EF
330
A0D4
100
AcDbEntity
  8
DIM
100
AcDbMText
 10
11.6563584009317
 20
16.08705134069273
 30
0.0
 40
0.2
 41
0.0
 71
     5
 72
     1
  1
\A1;\P2.63\P [67]
  7
ROMANS
1001
ACAD
1000
MTEXTBEGIN
1070
    73
1070
     1
1070
    44
1040
1.0
1070
    74
1070
     0
1000
MTEXTEND
1000
MTEXTBEGIN
1070
    73
1070
     1
1070
    44
1040
1.0
1070
    74
1070
     0
1000
MTEXTEND
  0
POINT
  5
A9F0
330
A0D4
100
AcDbEntity
  8
DEFPOINTS
 62
     0
100
AcDbPoint
 10
10.3438584009317
 20
13.26992732682616
 30
0.0
  0
POINT
  5
A9F1
330
A0D4
100
AcDbEntity
  8
DEFPOINTS
 62
     0
100
AcDbPoint
 10
12.9688584009317
 20
15.73117732682615
 30
0.0
  0
POINT
  5
A9F2
330
A0D4
100
AcDbEntity
  8
DEFPOINTS
 62
     0
100
AcDbPoint
 10
12.9688584009317
 20
16.08705134069273
 30
0.0
  0
ENDBLK
  5
A0E0
330
A0D4
100
AcDbEntity
  8
0
100
AcDbBlockEnd
  0
BLOCK
  5
A0ED
330
A0E2
100
AcDbEntity
  8
0
100
AcDbBlockBegin
  2
*D14
 70
     1
 10
0.0
 20
0.0
 30
0.0
  3
*D14
  1

  0
LINE
  5
A9F3
330
A0E2
100
AcDbEntity
  8
DIM
100
AcDbLine
 10
10.3438584009317
 20
13.39492732682616
 30
0.0
 11
10.3438584009317
 21
16.91289992716474
 31
0.0
  0
LINE
  5
A9F4
330
A0E2
100
AcDbEntity
  8
DIM
100
AcDbLine
 10
13.6338584009317
 20
15.85617732682615
 30
0.0
 11
13.6338584009317
 21
16.91289992716474
 31
0.0
  0
LINE
  5
A9F5
330
A0E2
100
AcDbEntity
  8
DIM
100
AcDbLine
 10
10.4838584009317
 20
16.78789992716474
 30
0.0
 11
11.9088584009317
 21
16.78789992716474
 31
0.0
  0
LINE
  5
A9F6
330
A0E2
100
AcDbEntity
  8
DIM
100
AcDbLine
 10
13.4938584009317
 20
16.78789992716474
 30
0.0
 11
12.83076316283647
 21
16.78789992716474
 31
0.0
  0
INSERT
  5
A9F7
330
A0E2
100
AcDbEntity
  8
DIM
100
AcDbBlockReference
  2
SEARROW
 10
10.3438584009317
 20
16.78789992716474
 30
0.0
 41
0.14
 42
0.14
 43
0.14
 50
180.0
  0
INSERT
  5
A9F8
330
A0E2
100
AcDbEntity
  8
DIM
100
AcDbBlockReference
  2
SEARROW
 10
13.6338584009317
 20
16.78789992716474
 30
0.0
 41
0.14
 42
0.14
 43
0.14
  0
MTEXT
  5
A9F9
330
A0E2
100
AcDbEntity
  8
DIM
100
AcDbMText
 10
12.36981078188408
 20
16.78789992716474
 30
0.0
 40
0.2
 41
0.0
 71
     5
 72
     1
  1
\A1;\P3.29\P [84]
  7
ROMANS
1001
ACAD
1000
MTEXTBEGIN
1070
    73
1070
     1
1070
    44
1040
1.0
1070
    74
1070
     0
1000
MTEXTEND
1000
MTEXTBEGIN
1070
    73
1070
     1
1070
    44
1040
1.0
1070
    74
1070
     0
1000
MTEXTEND
  0
POINT
  5
A9FA
330
A0E2
100
AcDbEntity
  8
DEFPOINTS
 62
     0
100
AcDbPoint
 10
10.3438584009317
 20
13.26992732682616
 30
0.0
  0
POINT
  5
A9FB
330
A0E2
100
AcDbEntity
  8
DEFPOINTS
 62
     0
100
AcDbPoint
 10
13.6338584009317
 20
15.73117732682615
 30
0.0
  0
POINT
  5
A9FC
330
A0E2
100
AcDbEntity
  8
DEFPOINTS
 62
     0
100
AcDbPoint
 10
13.6338584009317
 20
16.78789992716474
 30
0.0
  0
ENDBLK
  5
A0EE
330
A0E2
100
AcDbEntity
  8
0
100
AcDbBlockEnd
  0
BLOCK
  5
A0FB
330
A0F0
100
AcDbEntity
  8
0
100
AcDbBlockBegin
  2
*D15
 70
     1
 10
0.0
 20
0.0
 30
0.0
  3
*D15
  1

  0
LINE
  5
A9FD
330
A0F0
100
AcDbEntity
  8
DIM
100
AcDbLine
 10
6.500108400931708
 20
12.34134482437818
 30
0.0
 11
6.500108400931708
 21
17.53384477178771
 31
0.0
  0
LINE
  5
A9FE
330
A0F0
100
AcDbEntity
  8
DIM
100
AcDbLine
 10
13.6338584009317
 20
15.91867732682616
 30
0.0
 11
13.6338584009317
 21
17.53384477178771
 31
0.0
  0
LINE
  5
A9FF
330
A0F0
100
AcDbEntity
  8
DIM
100
AcDbLine
 10
6.640108400931707
 20
17.40884477178771
 30
0.0
 11
10.0669834009317
 21
17.40884477178771
 31
0.0
  0
LINE
  5
AA00
330
A0F0
100
AcDbEntity
  8
DIM
100
AcDbLine
 10
13.4938584009317
 20
17.40884477178771
 30
0.0
 11
11.17936435331266
 21
17.40884477178771
 31
0.0
  0
INSERT
  5
AA01
330
A0F0
100
AcDbEntity
  8
DIM
100
AcDbBlockReference
  2
SEARROW
 10
6.500108400931708
 20
17.40884477178771
 30
0.0
 41
0.14
 42
0.14
 43
0.14
 50
180.0
  0
INSERT
  5
AA02
330
A0F0
100
AcDbEntity
  8
DIM
100
AcDbBlockReference
  2
SEARROW
 10
13.6338584009317
 20
17.40884477178771
 30
0.0
 41
0.14
 42
0.14
 43
0.14
  0
MTEXT
  5
AA03
330
A0F0
100
AcDbEntity
  8
DIM
100
AcDbMText
 10
10.62317387712218
 20
17.40884477178771
 30
0.0
 40
0.2
 41
0.0
 71
     5
 72
     1
  1
\A1;\P7.13\P [181]
  7
ROMANS
1001
ACAD
1000
MTEXTBEGIN
1070
    73
1070
     1
1070
    44
1040
1.0
1070
    74
1070
     0
1000
MTEXTEND
1000
MTEXTBEGIN
1070
    73
1070
     1
1070
    44
1040
1.0
1070
    74
1070
     0
1000
MTEXTEND
  0
POINT
  5
AA04
330
A0F0
100
AcDbEntity
  8
DEFPOINTS
 62
     0
100
AcDbPoint
 10
6.500108400931708
 20
12.21634482437818
 30
0.0
  0
POINT
  5
AA05
330
A0F0
100
AcDbEntity
  8
DEFPOINTS
 62
     0
100
AcDbPoint
 10
13.6338584009317
 20
15.79367732682616
 30
0.0
  0
POINT
  5
AA06
330
A0F0
100
AcDbEntity
  8
DEFPOINTS
 62
     0
100
AcDbPoint
 10
13.6338584009317
 20
17.40884477178771
 30
0.0
  0
ENDBLK
  5
A0FC
330
A0F0
100
AcDbEntity
  8
0
100
AcDbBlockEnd
  0
BLOCK
  5
A2AE
330
A2A3
100
AcDbEntity
  8
0
100
AcDbBlockBegin
  2
*D16
 70
     1
 10
0.0
 20
0.0
 30
0.0
  3
*D16
  1

  0
LINE
  5
AA07
330
A2A3
100
AcDbEntity
  8
DIM
100
AcDbLine
 10
27.82470520159142
 20
2.443033515318536
 30
0.0
 11
27.82470520159142
 21
2.885593299142918
 31
0.0
  0
LINE
  5
AA08
330
A2A3
100
AcDbEntity
  8
DIM
100
AcDbLine
 10
22.88461568460665
 20
9.646706140636178
 30
0.0
 11
22.88461568460665
 21
2.635593299142918
 31
0.0
  0
LINE
  5
AA09
330
A2A3
100
AcDbEntity
  8
DIM
100
AcDbLine
 10
27.68470520159143
 20
2.760593299142918
 30
0.0
 11
25.91085091928951
 21
2.760593299142918
 31
0.0
  0
LINE
  5
AA0A
330
A2A3
100
AcDbEntity
  8
DIM
100
AcDbLine
 10
23.02461568460665
 20
2.760593299142918
 30
0.0
 11
24.79846996690856
 21
2.760593299142918
 31
0.0
  0
INSERT
  5
AA0B
330
A2A3
100
AcDbEntity
  8
DIM
100
AcDbBlockReference
  2
SEARROW
 10
27.82470520159142
 20
2.760593299142918
 30
0.0
 41
0.14
 42
0.14
 43
0.14
  0
INSERT
  5
AA0C
330
A2A3
100
AcDbEntity
  8
DIM
100
AcDbBlockReference
  2
SEARROW
 10
22.88461568460665
 20
2.760593299142918
 30
0.0
 41
0.14
 42
0.14
 43
0.14
 50
180.0
  0
MTEXT
  5
AA0D
330
A2A3
100
AcDbEntity
  8
DIM
100
AcDbMText
 10
25.35466044309904
 20
2.760593299142918
 30
0.0
 40
0.2
 41
0.0
 71
     5
 72
     1
  1
\A1;4.94\P [126]
  7
ROMANS
1001
ACAD
1000
MTEXTBEGIN
1070
    73
1070
     1
1070
    44
1040
1.0
1070
    74
1070
     0
1000
MTEXTEND
1000
MTEXTBEGIN
1070
    73
1070
     1
1070
    44
1040
1.0
1070
    74
1070
     0
1000
MTEXTEND
  0
POINT
  5
AA0E
330
A2A3
100
AcDbEntity
  8
DEFPOINTS
 62
     0
100
AcDbPoint
 10
27.82470520159142
 20
2.318033515318536
 30
0.0
  0
POINT
  5
AA0F
330
A2A3
100
AcDbEntity
  8
DEFPOINTS
 62
     0
100
AcDbPoint
 10
22.88461568460665
 20
9.771706140636178
 30
0.0
  0
POINT
  5
AA10
330
A2A3
100
AcDbEntity
  8
DEFPOINTS
 62
     0
100
AcDbPoint
 10
22.88461568460665
 20
2.760593299142918
 30
0.0
  0
ENDBLK
  5
A2AF
330
A2A3
100
AcDbEntity
  8
0
100
AcDbBlockEnd
  0
BLOCK
  5
A796
330
A794
100
AcDbEntity
  8
0
100
AcDbBlockBegin
  2
SEARROW
 70
     0
 10
0.0
 20
0.0
 30
0.0
  3
SEARROW
  1

  0
LWPOLYLINE
  5
A795
330
A794
100
AcDbEntity
  8
0
  6
BYBLOCK
100
AcDbPolyline
 90
        2
 70
     0
 10
0.0
 20
0.0
 40
0.0
 41
0.5000000001500001
 10
-1.000000000300019
 20
0.0
 40
0.5000000001500001
 41
0.5000000001500001
  0
ENDBLK
  5
A797
330
A794
100
AcDbEntity
  8
0
100
AcDbBlockEnd
  0
BLOCK
  5
A99E
330
A97E
100
AcDbEntity
  8
0
100
AcDbBlockBegin
  2
A$C0AEE0489
 70
     0
 10
0.0
 20
0.0
 30
0.0
  3
A$C0AEE0489
  1

  0
LWPOLYLINE
  5
A97F
330
A97E
100
AcDbEntity
  8
TITLEBLOCK
100
AcDbPolyline
 90
        2
 70
     0
 43
0.0128
 10
8.62499999821064
 20
1.599999978346789
 10
-0.0000000017893598
 20
1.599999978346793
  0
LWPOLYLINE
  5
A980
330
A97E
100
AcDbEntity
  8
TITLEBLOCK
100
AcDbPolyline
 90
        2
 70
     0
 43
0.0128
 10
8.62499999821064
 20
-0.0000000216532063
 10
8.62499999821064
 20
1.599999978346793
  0
LWPOLYLINE
  5
A981
330
A97E
100
AcDbEntity
  8
TITLEBLOCK
100
AcDbPolyline
 90
        2
 70
     0
 43
0.0128
 10
8.62499999821064
 20
0.9599999783467891
 10
16.00492199821071
 20
0.9599999783467891
  0
TEXT
  5
A982
330
A97E
100
AcDbEntity
  8
TITLEBLOCK
100
AcDbText
 10
9.046378853550328
 20
0.2629426273091027
 30
0.0
 40
0.112
  1
UNLESS OTHERWISE SPECIFIED DIMENSIONS ARE IN INCHES
 41
0.8
  7
SIMPLEX
 72
     4
 11
11.06451218688366
 21
0.3189426273091027
 31
0.0
100
AcDbText
  0
TEXT
  5
A983
330
A97E
100
AcDbEntity
  8
TITLEBLOCK
100
AcDbText
 10
8.78371200533604
 20
0.5472199783467895
 30
0.0
 40
0.2433162500000002
  1
%%uDO NOT SCALE DRAWING
  7
SIMPLEX
 72
     1
 11
11.06451218688366
 21
0.5472199783467895
 31
0.0
100
AcDbText
  0
LWPOLYLINE
  5
A984
330
A97E
100
AcDbEntity
  8
TITLEBLOCK
100
AcDbPolyline
 90
        2
 70
     0
 43
0.0128
 10
8.62499999821064
 20
0.9599999783467891
 10
8.62499999821064
 20
-0.0000000216532063
  0
LWPOLYLINE
  5
A985
330
A97E
100
AcDbEntity
  8
TITLEBLOCK
100
AcDbPolyline
 90
        2
 70
     0
 43
0.0128
 10
13.49242199821071
 20
1.599999978346787
 10
13.49242199821071
 20
-0.0000000216532063
  0
TEXT
  5
A986
330
A97E
100
AcDbEntity
  8
TITLEBLOCK
100
AcDbText
 10
13.77242199821071
 20
0.2099999783467892
 30
0.0
 40
0.1
  1
2 PLACE DECIMALS
  7
SIMPLEX
100
AcDbText
  0
TEXT
  5
A987
330
A97E
100
AcDbEntity
  8
TITLEBLOCK
100
AcDbText
 10
13.62242199821071
 20
0.4474999783467899
 30
0.0
 40
0.1
  1
UNLESS OTHERWISE SPECIFIED
  7
SIMPLEX
100
AcDbText
  0
TEXT
  5
A988
330
A97E
100
AcDbEntity
  8
TITLEBLOCK
100
AcDbText
 10
15.57242199821071
 20
0.2099999783467892
 30
0.0
 40
0.1
  1
.01
  7
SIMPLEX
100
AcDbText
  0
LINE
  5
A989
330
A97E
100
AcDbEntity
  8
TITLEBLOCK
100
AcDbLine
 10
15.35492199821072
 20
0.2187499783467901
 30
0.0
 11
15.45492199821072
 21
0.2187499783467901
 31
0.0
  0
TEXT
  5
A98A
330
A97E
100
AcDbEntity
  8
TITLEBLOCK
100
AcDbText
 10
15.35992199821071
 20
0.2474999783467888
 30
0.0
 40
0.1
  1
+
  7
SIMPLEX
100
AcDbText
  0
LWPOLYLINE
  5
A98B
330
A97E
100
AcDbEntity
  8
TITLEBLOCK
100
AcDbPolyline
 90
        2
 70
     0
 43
0.0128
 10
16.00492199821071
 20
1.599999978346787
 10
13.49242199821071
 20
1.599999978346787
  0
TEXT
  5
A98C
330
A97E
100
AcDbEntity
  8
TITLEBLOCK
100
AcDbText
 10
13.62242199821071
 20
1.147499978346789
 30
0.0
 40
0.1
  1
PROJECTION
  7
SIMPLEX
100
AcDbText
  0
TEXT
  5
A98D
330
A97E
100
AcDbEntity
  8
TITLEBLOCK
100
AcDbText
 10
13.55992199821071
 20
1.34749997834679
 30
0.0
 40
0.1
  1
THIRD ANGLE
  7
SIMPLEX
100
AcDbText
  0
LINE
  5
A98E
330
A97E
100
AcDbEntity
  8
TITLEBLOCK
100
AcDbLine
 10
14.69692486701072
 20
1.300351693546789
 30
0.0
 11
15.91292523341072
 21
1.300351693546789
 31
0.0
  0
TEXT
  5
A98F
330
A97E
100
AcDbEntity
  8
TITLEBLOCK
100
AcDbText
 10
14.04742199821072
 20
0.6974999783467899
 30
0.0
 40
0.15
  1
%%uTOLERANCES
  7
SIMPLEX
100
AcDbText
  0
LINE
  5
A990
330
A97E
100
AcDbEntity
  8
TITLEBLOCK
100
AcDbLine
 10
14.95292614861072
 20
1.396354272746791
 30
0.0
 11
14.95292614861072
 21
1.52435453194679
 31
0.0
  0
CIRCLE
  5
A991
330
A97E
100
AcDbEntity
  8
TITLEBLOCK
100
AcDbCircle
 10
14.95292614861072
 20
1.300352647146788
 30
0.0
 40
0.1279999615999998
  0
CIRCLE
  5
A992
330
A97E
100
AcDbEntity
  8
TITLEBLOCK
100
AcDbCircle
 10
14.95292614861072
 20
1.300352647146788
 30
0.0
 40
0.064000004799999
  0
LINE
  5
A993
330
A97E
100
AcDbEntity
  8
TITLEBLOCK
100
AcDbLine
 10
14.95292614861072
 20
1.332351280746789
 30
0.0
 11
14.95292614861072
 21
1.268351151146789
 31
0.0
  0
LINE
  5
A994
330
A97E
100
AcDbEntity
  8
TITLEBLOCK
100
AcDbLine
 10
14.95292614861072
 20
1.204351975146789
 30
0.0
 11
14.95292614861072
 21
1.076351715946791
 31
0.0
  0
LINE
  5
A995
330
A97E
100
AcDbEntity
  8
TITLEBLOCK
100
AcDbLine
 10
15.78492230381071
 20
1.172351434346791
 30
0.0
 11
15.33692425581071
 21
1.236351563946789
 31
0.0
  0
LINE
  5
A996
330
A97E
100
AcDbEntity
  8
TITLEBLOCK
100
AcDbLine
 10
15.33692425581071
 20
1.364351823146791
 30
0.0
 11
15.78492230381071
 21
1.428350999146789
 31
0.0
  0
LINE
  5
A997
330
A97E
100
AcDbEntity
  8
TITLEBLOCK
100
AcDbLine
 10
15.33692425581071
 20
1.236351563946789
 30
0.0
 11
15.33692425581071
 21
1.364351823146791
 31
0.0
  0
LINE
  5
A998
330
A97E
100
AcDbEntity
  8
TITLEBLOCK
100
AcDbLine
 10
15.78492230381071
 20
1.428350999146789
 30
0.0
 11
15.78492230381071
 21
1.172351434346791
 31
0.0
  0
TEXT
  5
A999
330
A97E
100
AcDbEntity
  8
TITLEBLOCK
100
AcDbText
 10
0.3046874982106402
 20
1.33812497834679
 30
0.0
 40
0.13125
  1
"THE SQUARE D COMPANY HAS PROPRIETARY RIGHTS TO THE INFORMATION CONTAINED
 41
0.9
  7
SIMPLEX
 72
     4
 11
4.31249999821064
 21
1.40999997834679
 31
0.0
100
AcDbText
  0
TEXT
  5
A99A
330
A97E
100
AcDbEntity
  8
TITLEBLOCK
100
AcDbText
 10
0.254062498210641
 20
1.045624978346793
 30
0.0
 40
0.13125
  1
HEREON. THIS INFORMATION REMAINS THE PROPERTY OF SQUARE D COMPANY AND MAY
 41
0.9
  7
SIMPLEX
 72
     4
 11
4.31249999821064
 21
1.104999978346794
 31
0.0
100
AcDbText
  0
TEXT
  5
A99B
330
A97E
100
AcDbEntity
  8
TITLEBLOCK
100
AcDbText
 10
0.3131249982106361
 20
0.7406249783467925
 30
0.0
 40
0.13125
  1
BE USED ONLY IN CONFORMANCE WITH INSTRUCTIONS ISSUED BY SQUARE D COMPANY.
 41
0.9
  7
SIMPLEX
 72
     4
 11
4.31249999821064
 21
0.7999999783467926
 31
0.0
100
AcDbText
  0
TEXT
  5
A99C
330
A97E
100
AcDbEntity
  8
TITLEBLOCK
100
AcDbText
 10
0.630937498210638
 20
0.4387499783467911
 30
0.0
 40
0.13125
  1
USER SHOULD VERIFY DRAWINGS ARE TO THE LATEST/CURRENT REVISION PRIOR
 41
0.9
  7
SIMPLEX
 72
     4
 11
4.31249999821064
 21
0.4949999783467911
 31
0.0
100
AcDbText
  0
TEXT
  5
A99D
330
A97E
100
AcDbEntity
  8
TITLEBLOCK
100
AcDbText
 10
2.54906249821064
 20
0.13687497834679
 30
0.0
 40
0.13125
  1
TO INCORPORATING IN A DESIGN FILE."
 41
0.9
  7
SIMPLEX
 72
     4
 11
4.31249999821064
 21
0.21499997834679
 31
0.0
100
AcDbText
  0
ENDBLK
  5
A99F
330
A97E
100
AcDbEntity
  8
0
100
AcDbBlockEnd
  0
ENDSEC
  0
SECTION
  2
ENTITIES
  0
LWPOLYLINE
  5
BF7
330
1F
100
AcDbEntity
  8
VIEWPORT
100
AcDbPolyline
 90
        6
 70
     1
 43
0.0
 10
32.80000199999999
 20
20.5
 10
32.80000199999999
 20
1.824003999999998
 10
16.004922
 20
1.824003999999998
 10
16.004922
 20
0.0
 10
0.0
 20
0.0
 10
0.0
 20
20.5
1001
GENIUS_GENOREF_13
1005
0
1005
0
1005
0
1005
0
1005
0
1005
0
1005
0
1005
0
1005
0
1005
0
1005
0
1005
0
1005
0
1005
0
1005
0
1005
0
1005
0
1005
0
1005
0
1005
0
1005
0
1005
0
1005
0
  0
VIEWPORT
  5
BF8
330
1F
100
AcDbEntity
  8
VIEWPORT
100
AcDbViewport
 10
16.40000099999999
 20
10.25
 30
0.0
 40
32.80000199999999
 41
20.5
 69
     0
1001
ACAD
1000
MVIEW
1002
{
1070
    16
1010
0.0
1020
0.0
1030
0.0
1010
0.0
1020
0.0
1030
1.0
1040
0.0
1040
10.25
1040
8.193386135163111
1040
5.146330469914577
1040
50.0
1040
0.0
1040
0.0
1070
     0
1070
   100
1070
     1
1070
     2
1070
     0
1070
     0
1070
     0
1070
     0
1040
0.0
1040
0.0
1040
0.0
1040
0.5
1040
0.5
1040
0.5
1040
0.5
1070
     0
1002
{
1002
}
1002
}
1001
GENIUS_GENOREF_13
1005
0
1005
0
1005
0
1005
0
1005
0
1005
0
1005
0
1005
0
1005
0
1005
0
1005
0
1005
0
1005
0
1005
0
1005
0
1005
0
1005
0
1005
0
1005
0
1005
0
1005
0
1005
0
1005
0
1001
GENIUS_GENSCREG_15
1000
PF
1040
0.0
1000
DF
1040
0.0
1000
MIN
1011
0.0
1021
0.0
1031
0.0
1000
MAX
1011
32.80000199999999
1021
20.5
1031
0.0
1000
FLAGS
1070
     2
  0
INSERT
  5
23A5
330
1F
100
AcDbEntity
  8
REFERENCE
100
AcDbBlockReference
 66
     1
  2
REF2
 10
0.0
 20
1.6
 30
0.0
 41
1.5999999975
 42
1.5999999975
 43
1.5999999975
  0
ATTRIB
  5
23A6
330
23A5
100
AcDbEntity
  8
TEXT1
100
AcDbText
 10
2.999999995312503
 20
1.952699687590564
 30
0.0
 40
0.1999999996875
  1
(4)-#10-24 screws
  7
ROMANS
100
AcDbAttribute
  2
MOUNTING_HWD
 70
     0
  0
ATTRIB
  5
23A7
330
23A5
100
AcDbEntity
  8
TEXT1
100
AcDbText
 10
2.999999995312503
 20
2.317566542451328
 30
0.0
 40
0.1999999996875
  1
 -
  7
ROMANS
100
AcDbAttribute
  2
TERM_TORQUE
 70
     0
  0
ATTRIB
  5
23A8
330
23A5
100
AcDbEntity
  8
TEXT1
100
AcDbText
 10
2.999999995312503
 20
2.652699686496814
 30
0.0
 40
0.1999999996875
  1
 -
  7
ROMANS
100
AcDbAttribute
  2
WIRE_SIZE
 70
     0
  0
ATTRIB
  5
23A9
330
23A5
100
AcDbEntity
  8
TEXT1
100
AcDbText
 10
2.999999995312503
 20
2.970266258285182
 30
0.0
 40
0.1999999996875
  1
4.46 lbs
  7
ROMANS
100
AcDbAttribute
  2
WEIGHT
 70
     0
  0
ATTRIB
  5
23AA
330
23A5
100
AcDbEntity
  8
TEXT1
100
AcDbText
 10
2.999999995312503
 20
3.299999997343751
 30
0.0
 40
0.1999999996875
  1
 -
  7
ROMANS
100
AcDbAttribute
  2
STANDARDS
 70
     0
  0
ATTRIB
  5
23AB
330
23A5
100
AcDbEntity
  8
TEXT1
100
AcDbText
 10
2.999999995312503
 20
3.670266228479392
 30
0.0
 40
0.1999999996875
  1
 -
  7
ROMANS
100
AcDbAttribute
  2
CSA
 70
     0
  0
ATTRIB
  5
23AC
330
23A5
100
AcDbEntity
  8
TEXT1
100
AcDbText
 10
3.017573277422069
 20
3.99999999625
 30
0.0
 40
0.1999999996875
  1
E62922
  7
ROMANS
100
AcDbAttribute
  2
UL
 70
     0
  0
ATTRIB
  5
23AD
330
23A5
100
AcDbEntity
  8
TEXT1
100
AcDbText
 10
2.999999995312503
 20
4.352699683840564
 30
0.0
 40
0.1999999996875
  1
for use with Type KAL, & KHL CIRCUIT BREAKERS
  7
ROMANS
100
AcDbAttribute
  2
RATING
 70
     0
  0
ATTRIB
  5
23AE
330
23A5
100
AcDbEntity
  8
TEXT1
100
AcDbText
 10
2.999999995312503
 20
4.69999999515625
 30
0.0
 40
0.1999999996875
  1
9422-RP1
  7
ROMANS
100
AcDbAttribute
  2
CATALOG
 70
     0
  0
SEQEND
  5
23AF
330
23A5
100
AcDbEntity
  8
REFERENCE
  0
INSERT
  5
3F59
330
1F
100
AcDbEntity
  8
0
100
AcDbBlockReference
  2
NEWLAYERS
 10
0.0
 20
0.0
 30
0.0
 41
0.05
 42
0.05
 43
0.05
  0
MTEXT
  5
5C7C
330
1F
100
AcDbEntity
  8
0
100
AcDbMText
 10
36.54775093648206
 20
24.73396322605317
 30
0.0
 40
0.2
 41
0.0
 71
     1
 72
     1
  1

  7
ROMANS
1001
ACAD
1000
MTEXTBEGIN
1070
    73
1070
     1
1070
    44
1040
1.0
1070
    74
1070
     0
1000
MTEXTEND
1000
MTEXTBEGIN
1070
    73
1070
     1
1070
    44
1040
1.0
1070
    74
1070
     0
1000
MTEXTEND
1000
MTEXTBEGIN
1070
    73
1070
     1
1070
    44
1040
1.0
1070
    74
1070
     0
1000
MTEXTEND
1000
MTEXTBEGIN
1070
    73
1070
     1
1070
    44
1040
1.0
1070
    74
1070
     0
1000
MTEXTEND
1000
MTEXTBEGIN
1070
    73
1070
     1
1070
    44
1040
1.0
1070
    74
1070
     0
1000
MTEXTEND
1000
MTEXTBEGIN
1070
    73
1070
     1
1070
    44
1040
1.0
1070
    74
1070
     0
1000
MTEXTEND
1000
MTEXTBEGIN
1070
    73
1070
     1
1070
    44
1040
1.0
1070
    74
1070
     0
1000
MTEXTEND
1000
MTEXTBEGIN
1070
    73
1070
     1
1070
    44
1040
1.0
1070
    74
1070
     0
1000
MTEXTEND
1000
MTEXTBEGIN
1070
    73
1070
     1
1070
    44
1040
1.0
1070
    74
1070
     0
1000
MTEXTEND
1000
MTEXTBEGIN
1070
    73
1070
     1
1070
    44
1040
1.0
1070
    74
1070
     0
1000
MTEXTEND
  0
MTEXT
  5
5C7E
330
1F
100
AcDbEntity
  8
0
100
AcDbMText
 10
37.25912696591481
 20
23.45605118135341
 30
0.0
 40
0.2
 41
0.0
 71
     1
 72
     1
  1

  7
ROMANS
1001
ACAD
1000
MTEXTBEGIN
1070
    73
1070
     1
1070
    44
1040
1.0
1070
    74
1070
     0
1000
MTEXTEND
1000
MTEXTBEGIN
1070
    73
1070
     1
1070
    44
1040
1.0
1070
    74
1070
     0
1000
MTEXTEND
1000
MTEXTBEGIN
1070
    73
1070
     1
1070
    44
1040
1.0
1070
    74
1070
     0
1000
MTEXTEND
1000
MTEXTBEGIN
1070
    73
1070
     1
1070
    44
1040
1.0
1070
    74
1070
     0
1000
MTEXTEND
1000
MTEXTBEGIN
1070
    73
1070
     1
1070
    44
1040
1.0
1070
    74
1070
     0
1000
MTEXTEND
1000
MTEXTBEGIN
1070
    73
1070
     1
1070
    44
1040
1.0
1070
    74
1070
     0
1000
MTEXTEND
1000
MTEXTBEGIN
1070
    73
1070
     1
1070
    44
1040
1.0
1070
    74
1070
     0
1000
MTEXTEND
1000
MTEXTBEGIN
1070
    73
1070
     1
1070
    44
1040
1.0
1070
    74
1070
     0
1000
MTEXTEND
1000
MTEXTBEGIN
1070
    73
1070
     1
1070
    44
1040
1.0
1070
    74
1070
     0
1000
MTEXTEND
1000
MTEXTBEGIN
1070
    73
1070
     1
1070
    44
1040
1.0
1070
    74
1070
     0
1000
MTEXTEND
  0
MTEXT
  5
6DF7
330
1F
100
AcDbEntity
  8
0
100
AcDbMText
 10
40.91797023159837
 20
20.45050061238245
 30
0.0
 40
0.2
 41
0.0
 71
     9
 72
     1
  1

  7
ROMANS
1001
ACAD
1000
MTEXTBEGIN
1070
    73
1070
     1
1070
    44
1040
1.0
1070
    74
1070
     0
1000
MTEXTEND
1000
MTEXTBEGIN
1070
    73
1070
     1
1070
    44
1040
1.0
1070
    74
1070
     0
1000
MTEXTEND
1000
MTEXTBEGIN
1070
    73
1070
     1
1070
    44
1040
1.0
1070
    74
1070
     0
1000
MTEXTEND
1000
MTEXTBEGIN
1070
    73
1070
     1
1070
    44
1040
1.0
1070
    74
1070
     0
1000
MTEXTEND
1000
MTEXTBEGIN
1070
    73
1070
     1
1070
    44
1040
1.0
1070
    74
1070
     0
1000
MTEXTEND
1000
MTEXTBEGIN
1070
    73
1070
     1
1070
    44
1040
1.0
1070
    74
1070
     0
1000
MTEXTEND
1000
MTEXTBEGIN
1070
    73
1070
     1
1070
    44
1040
1.0
1070
    74
1070
     0
1000
MTEXTEND
1000
MTEXTBEGIN
1070
    73
1070
     1
1070
    44
1040
1.0
1070
    74
1070
     0
1000
MTEXTEND
1000
MTEXTBEGIN
1070
    73
1070
     1
1070
    44
1040
1.0
1070
    74
1070
     0
1000
MTEXTEND
  0
MTEXT
  5
78A5
330
1F
100
AcDbEntity
  8
0
100
AcDbMText
 10
40.39784820367971
 20
20.66894149999999
 30
0.0
 40
0.2
 41
0.0
 71
     9
 72
     1
  1

  7
ROMANS
1001
ACAD
1000
MTEXTBEGIN
1070
    73
1070
     1
1070
    44
1040
1.0
1070
    74
1070
     0
1000
MTEXTEND
1000
MTEXTBEGIN
1070
    73
1070
     1
1070
    44
1040
1.0
1070
    74
1070
     0
1000
MTEXTEND
1000
MTEXTBEGIN
1070
    73
1070
     1
1070
    44
1040
1.0
1070
    74
1070
     0
1000
MTEXTEND
1000
MTEXTBEGIN
1070
    73
1070
     1
1070
    44
1040
1.0
1070
    74
1070
     0
1000
MTEXTEND
1000
MTEXTBEGIN
1070
    73
1070
     1
1070
    44
1040
1.0
1070
    74
1070
     0
1000
MTEXTEND
1000
MTEXTBEGIN
1070
    73
1070
     1
1070
    44
1040
1.0
1070
    74
1070
     0
1000
MTEXTEND
1000
MTEXTBEGIN
1070
    73
1070
     1
1070
    44
1040
1.0
1070
    74
1070
     0
1000
MTEXTEND
1000
MTEXTBEGIN
1070
    73
1070
     1
1070
    44
1040
1.0
1070
    74
1070
     0
1000
MTEXTEND
  0
MTEXT
  5
78A7
330
1F
100
AcDbEntity
  8
0
100
AcDbMText
 10
38.35630739079919
 20
17.58106222989279
 30
0.0
 40
0.2
 41
0.0
 71
     9
 72
     1
  1

  7
ROMANS
1001
ACAD
1000
MTEXTBEGIN
1070
    73
1070
     1
1070
    44
1040
1.0
1070
    74
1070
     0
1000
MTEXTEND
1000
MTEXTBEGIN
1070
    73
1070
     1
1070
    44
1040
1.0
1070
    74
1070
     0
1000
MTEXTEND
1000
MTEXTBEGIN
1070
    73
1070
     1
1070
    44
1040
1.0
1070
    74
1070
     0
1000
MTEXTEND
1000
MTEXTBEGIN
1070
    73
1070
     1
1070
    44
1040
1.0
1070
    74
1070
     0
1000
MTEXTEND
1000
MTEXTBEGIN
1070
    73
1070
     1
1070
    44
1040
1.0
1070
    74
1070
     0
1000
MTEXTEND
1000
MTEXTBEGIN
1070
    73
1070
     1
1070
    44
1040
1.0
1070
    74
1070
     0
1000
MTEXTEND
1000
MTEXTBEGIN
1070
    73
1070
     1
1070
    44
1040
1.0
1070
    74
1070
     0
1000
MTEXTEND
1000
MTEXTBEGIN
1070
    73
1070
     1
1070
    44
1040
1.0
1070
    74
1070
     0
1000
MTEXTEND
  0
MTEXT
  5
860A
330
1F
100
AcDbEntity
  8
0
100
AcDbMText
 10
4.380060078217027
 20
6.649628784983411
 30
0.0
 40
0.2
 41
0.0
 71
     9
 72
     1
  1

  7
ROMANS
1001
ACAD
1000
MTEXTBEGIN
1070
    73
1070
     1
1070
    44
1040
1.0
1070
    74
1070
     0
1000
MTEXTEND
1000
MTEXTBEGIN
1070
    73
1070
     1
1070
    44
1040
1.0
1070
    74
1070
     0
1000
MTEXTEND
1000
MTEXTBEGIN
1070
    73
1070
     1
1070
    44
1040
1.0
1070
    74
1070
     0
1000
MTEXTEND
1000
MTEXTBEGIN
1070
    73
1070
     1
1070
    44
1040
1.0
1070
    74
1070
     0
1000
MTEXTEND
1000
MTEXTBEGIN
1070
    73
1070
     1
1070
    44
1040
1.0
1070
    74
1070
     0
1000
MTEXTEND
1000
MTEXTBEGIN
1070
    73
1070
     1
1070
    44
1040
1.0
1070
    74
1070
     0
1000
MTEXTEND
1000
MTEXTBEGIN
1070
    73
1070
     1
1070
    44
1040
1.0
1070
    74
1070
     0
1000
MTEXTEND
  0
MTEXT
  5
860C
330
1F
100
AcDbEntity
  8
0
100
AcDbMText
 10
4.817560078217027
 20
17.35986979669278
 30
0.0
 40
0.2
 41
0.0
 71
     9
 72
     1
  1

  7
ROMANS
1001
ACAD
1000
MTEXTBEGIN
1070
    73
1070
     1
1070
    44
1040
1.0
1070
    74
1070
     0
1000
MTEXTEND
1000
MTEXTBEGIN
1070
    73
1070
     1
1070
    44
1040
1.0
1070
    74
1070
     0
1000
MTEXTEND
1000
MTEXTBEGIN
1070
    73
1070
     1
1070
    44
1040
1.0
1070
    74
1070
     0
1000
MTEXTEND
1000
MTEXTBEGIN
1070
    73
1070
     1
1070
    44
1040
1.0
1070
    74
1070
     0
1000
MTEXTEND
1000
MTEXTBEGIN
1070
    73
1070
     1
1070
    44
1040
1.0
1070
    74
1070
     0
1000
MTEXTEND
1000
MTEXTBEGIN
1070
    73
1070
     1
1070
    44
1040
1.0
1070
    74
1070
     0
1000
MTEXTEND
1000
MTEXTBEGIN
1070
    73
1070
     1
1070
    44
1040
1.0
1070
    74
1070
     0
1000
MTEXTEND
  0
MTEXT
  5
860E
330
1F
100
AcDbEntity
  8
0
100
AcDbMText
 10
10.13006007821702
 20
11.96259532846268
 30
0.0
 40
0.2
 41
0.0
 71
     1
 72
     1
  1

  7
ROMANS
1001
ACAD
1000
MTEXTBEGIN
1070
    73
1070
     1
1070
    44
1040
1.0
1070
    74
1070
     0
1000
MTEXTEND
1000
MTEXTBEGIN
1070
    73
1070
     1
1070
    44
1040
1.0
1070
    74
1070
     0
1000
MTEXTEND
1000
MTEXTBEGIN
1070
    73
1070
     1
1070
    44
1040
1.0
1070
    74
1070
     0
1000
MTEXTEND
1000
MTEXTBEGIN
1070
    73
1070
     1
1070
    44
1040
1.0
1070
    74
1070
     0
1000
MTEXTEND
1000
MTEXTBEGIN
1070
    73
1070
     1
1070
    44
1040
1.0
1070
    74
1070
     0
1000
MTEXTEND
1000
MTEXTBEGIN
1070
    73
1070
     1
1070
    44
1040
1.0
1070
    74
1070
     0
1000
MTEXTEND
1000
MTEXTBEGIN
1070
    73
1070
     1
1070
    44
1040
1.0
1070
    74
1070
     0
1000
MTEXTEND
  0
MTEXT
  5
8612
330
1F
100
AcDbEntity
  8
0
100
AcDbMText
 10
4.055007775350723
 20
10.35546682005633
 30
0.0
 40
0.2
 41
0.0
 71
     9
 72
     1
  1

  7
ROMANS
1001
ACAD
1000
MTEXTBEGIN
1070
    73
1070
     1
1070
    44
1040
1.0
1070
    74
1070
     0
1000
MTEXTEND
1000
MTEXTBEGIN
1070
    73
1070
     1
1070
    44
1040
1.0
1070
    74
1070
     0
1000
MTEXTEND
1000
MTEXTBEGIN
1070
    73
1070
     1
1070
    44
1040
1.0
1070
    74
1070
     0
1000
MTEXTEND
1000
MTEXTBEGIN
1070
    73
1070
     1
1070
    44
1040
1.0
1070
    74
1070
     0
1000
MTEXTEND
1000
MTEXTBEGIN
1070
    73
1070
     1
1070
    44
1040
1.0
1070
    74
1070
     0
1000
MTEXTEND
1000
MTEXTBEGIN
1070
    73
1070
     1
1070
    44
1040
1.0
1070
    74
1070
     0
1000
MTEXTEND
1000
MTEXTBEGIN
1070
    73
1070
     1
1070
    44
1040
1.0
1070
    74
1070
     0
1000
MTEXTEND
  0
MTEXT
  5
881A
330
1F
100
AcDbEntity
  8
0
100
AcDbMText
 10
22.87729294697429
 20
6.337128784983411
 30
0.0
 40
0.2
 41
0.0
 71
     9
 72
     1
  1

  7
ROMANS
1001
ACAD
1000
MTEXTBEGIN
1070
    73
1070
     1
1070
    44
1040
1.0
1070
    74
1070
     0
1000
MTEXTEND
1000
MTEXTBEGIN
1070
    73
1070
     1
1070
    44
1040
1.0
1070
    74
1070
     0
1000
MTEXTEND
1000
MTEXTBEGIN
1070
    73
1070
     1
1070
    44
1040
1.0
1070
    74
1070
     0
1000
MTEXTEND
1000
MTEXTBEGIN
1070
    73
1070
     1
1070
    44
1040
1.0
1070
    74
1070
     0
1000
MTEXTEND
1000
MTEXTBEGIN
1070
    73
1070
     1
1070
    44
1040
1.0
1070
    74
1070
     0
1000
MTEXTEND
1000
MTEXTBEGIN
1070
    73
1070
     1
1070
    44
1040
1.0
1070
    74
1070
     0
1000
MTEXTEND
1000
MTEXTBEGIN
1070
    73
1070
     1
1070
    44
1040
1.0
1070
    74
1070
     0
1000
MTEXTEND
  0
MTEXT
  5
881C
330
1F
100
AcDbEntity
  8
0
100
AcDbMText
 10
23.0785124591694
 20
11.7121287849834
 30
0.0
 40
0.2
 41
0.0
 71
     9
 72
     1
  1

  7
ROMANS
1001
ACAD
1000
MTEXTBEGIN
1070
    73
1070
     1
1070
    44
1040
1.0
1070
    74
1070
     0
1000
MTEXTEND
1000
MTEXTBEGIN
1070
    73
1070
     1
1070
    44
1040
1.0
1070
    74
1070
     0
1000
MTEXTEND
1000
MTEXTBEGIN
1070
    73
1070
     1
1070
    44
1040
1.0
1070
    74
1070
     0
1000
MTEXTEND
1000
MTEXTBEGIN
1070
    73
1070
     1
1070
    44
1040
1.0
1070
    74
1070
     0
1000
MTEXTEND
1000
MTEXTBEGIN
1070
    73
1070
     1
1070
    44
1040
1.0
1070
    74
1070
     0
1000
MTEXTEND
1000
MTEXTBEGIN
1070
    73
1070
     1
1070
    44
1040
1.0
1070
    74
1070
     0
1000
MTEXTEND
1000
MTEXTBEGIN
1070
    73
1070
     1
1070
    44
1040
1.0
1070
    74
1070
     0
1000
MTEXTEND
  0
MTEXT
  5
8828
330
1F
100
AcDbEntity
  8
0
100
AcDbMText
 10
28.3910124591694
 20
14.5996287849834
 30
0.0
 40
0.2
 41
0.0
 71
     1
 72
     1
  1

  7
ROMANS
1001
ACAD
1000
MTEXTBEGIN
1070
    73
1070
     1
1070
    44
1040
1.0
1070
    74
1070
     0
1000
MTEXTEND
1000
MTEXTBEGIN
1070
    73
1070
     1
1070
    44
1040
1.0
1070
    74
1070
     0
1000
MTEXTEND
1000
MTEXTBEGIN
1070
    73
1070
     1
1070
    44
1040
1.0
1070
    74
1070
     0
1000
MTEXTEND
1000
MTEXTBEGIN
1070
    73
1070
     1
1070
    44
1040
1.0
1070
    74
1070
     0
1000
MTEXTEND
1000
MTEXTBEGIN
1070
    73
1070
     1
1070
    44
1040
1.0
1070
    74
1070
     0
1000
MTEXTEND
1000
MTEXTBEGIN
1070
    73
1070
     1
1070
    44
1040
1.0
1070
    74
1070
     0
1000
MTEXTEND
1000
MTEXTBEGIN
1070
    73
1070
     1
1070
    44
1040
1.0
1070
    74
1070
     0
1000
MTEXTEND
  0
MTEXT
  5
8884
330
1F
100
AcDbEntity
  8
0
100
AcDbMText
 10
24.7035124591694
 20
4.662128784983407
 30
0.0
 40
0.2
 41
0.0
 71
     1
 72
     1
  1

  7
ROMANS
1001
ACAD
1000
MTEXTBEGIN
1070
    73
1070
     1
1070
    44
1040
1.0
1070
    74
1070
     0
1000
MTEXTEND
1000
MTEXTBEGIN
1070
    73
1070
     1
1070
    44
1040
1.0
1070
    74
1070
     0
1000
MTEXTEND
1000
MTEXTBEGIN
1070
    73
1070
     1
1070
    44
1040
1.0
1070
    74
1070
     0
1000
MTEXTEND
1000
MTEXTBEGIN
1070
    73
1070
     1
1070
    44
1040
1.0
1070
    74
1070
     0
1000
MTEXTEND
1000
MTEXTBEGIN
1070
    73
1070
     1
1070
    44
1040
1.0
1070
    74
1070
     0
1000
MTEXTEND
1000
MTEXTBEGIN
1070
    73
1070
     1
1070
    44
1040
1.0
1070
    74
1070
     0
1000
MTEXTEND
1000
MTEXTBEGIN
1070
    73
1070
     1
1070
    44
1040
1.0
1070
    74
1070
     0
1000
MTEXTEND
  0
MTEXT
  5
8886
330
1F
100
AcDbEntity
  8
0
100
AcDbMText
 10
25.56083213119404
 20
6.235350681626986
 30
0.0
 40
0.2
 41
0.0
 71
     1
 72
     1
  1

  7
ROMANS
1001
ACAD
1000
MTEXTBEGIN
1070
    73
1070
     1
1070
    44
1040
1.0
1070
    74
1070
     0
1000
MTEXTEND
1000
MTEXTBEGIN
1070
    73
1070
     1
1070
    44
1040
1.0
1070
    74
1070
     0
1000
MTEXTEND
1000
MTEXTBEGIN
1070
    73
1070
     1
1070
    44
1040
1.0
1070
    74
1070
     0
1000
MTEXTEND
1000
MTEXTBEGIN
1070
    73
1070
     1
1070
    44
1040
1.0
1070
    74
1070
     0
1000
MTEXTEND
1000
MTEXTBEGIN
1070
    73
1070
     1
1070
    44
1040
1.0
1070
    74
1070
     0
1000
MTEXTEND
1000
MTEXTBEGIN
1070
    73
1070
     1
1070
    44
1040
1.0
1070
    74
1070
     0
1000
MTEXTEND
1000
MTEXTBEGIN
1070
    73
1070
     1
1070
    44
1040
1.0
1070
    74
1070
     0
1000
MTEXTEND
  0
LINE
  5
9D7D
330
1F
100
AcDbEntity
  8
CONTINUOUS1
100
AcDbLine
 10
25.85349576812876
 20
8.332398140910907
 30
0.0
 11
23.13325626643107
 21
9.262947469750297
 31
0.0
  0
LINE
  5
9D7E
330
1F
100
AcDbEntity
  8
CONTINUOUS1
100
AcDbLine
 10
12.56335840093171
 20
9.62118162662794
 30
0.0
 11
6.593108400931711
 21
9.62118162662794
 31
0.0
  0
LINE
  5
9D7F
330
1F
100
AcDbEntity
  8
CONTINUOUS1
100
AcDbLine
 10
12.3758584009317
 20
9.621181626627947
 30
0.0
 11
12.3758584009317
 21
5.606177326826159
 31
0.0
  0
LINE
  5
9D80
330
1F
100
AcDbEntity
  8
CENTER1
100
AcDbLine
 10
8.843858400931708
 20
5.956177326826161
 30
0.0
 11
8.843858400931708
 21
6.136177326826157
 31
0.0
  0
LINE
  5
9D81
330
1F
100
AcDbEntity
  8
CENTER1
100
AcDbLine
 10
10.3438584009317
 20
5.953677326826156
 30
0.0
 11
10.3438584009317
 21
6.133677326826159
 31
0.0
  0
LINE
  5
9D82
330
1F
100
AcDbEntity
  8
CENTER1
100
AcDbLine
 10
8.753858400931704
 20
13.17617732682616
 30
0.0
 11
8.933858400931711
 21
13.17617732682616
 31
0.0
  0
LINE
  5
9D83
330
1F
100
AcDbEntity
  8
CENTER1
100
AcDbLine
 10
8.843858400931708
 20
13.08617732682615
 30
0.0
 11
8.843858400931708
 21
13.26617732682615
 31
0.0
  0
LINE
  5
9D84
330
1F
100
AcDbEntity
  8
CENTER1
100
AcDbLine
 10
10.3438584009317
 20
13.08617732682615
 30
0.0
 11
10.3438584009317
 21
13.26617732682615
 31
0.0
  0
LINE
  5
9D85
330
1F
100
AcDbEntity
  8
CENTER1
100
AcDbLine
 10
10.2538584009317
 20
13.17617732682616
 30
0.0
 11
10.43385840093171
 21
13.17617732682616
 31
0.0
  0
LINE
  5
9D86
330
1F
100
AcDbEntity
  8
CONTINUOUS2
100
AcDbLine
 10
13.1563584009317
 20
13.66973068819521
 30
0.0
 11
13.1563584009317
 21
13.51012383445749
 31
0.0
  0
LINE
  5
9D87
330
1F
100
AcDbEntity
  8
CONTINUOUS2
100
AcDbLine
 10
13.1563584009317
 20
13.81829970173075
 30
0.0
 11
13.1563584009317
 21
13.91973068819521
 31
0.0
  0
LINE
  5
9D88
330
1F
100
AcDbEntity
  8
CONTINUOUS2
100
AcDbLine
 10
13.1563584009317
 20
14.06829970173075
 30
0.0
 11
13.1563584009317
 21
14.16973068819521
 31
0.0
  0
LINE
  5
9D89
330
1F
100
AcDbEntity
  8
CONTINUOUS2
100
AcDbLine
 10
13.1563584009317
 20
14.81829970173076
 30
0.0
 11
13.1563584009317
 21
14.85617732682616
 31
0.0
  0
LINE
  5
9D8A
330
1F
100
AcDbEntity
  8
CONTINUOUS2
100
AcDbLine
 10
13.1563584009317
 20
14.31829970173075
 30
0.0
 11
13.1563584009317
 21
14.41973068819521
 31
0.0
  0
LINE
  5
9D8B
330
1F
100
AcDbEntity
  8
CONTINUOUS2
100
AcDbLine
 10
13.1563584009317
 20
14.56829970173076
 30
0.0
 11
13.1563584009317
 21
14.66973068819521
 31
0.0
  0
LINE
  5
9D8C
330
1F
100
AcDbEntity
  8
CONTINUOUS2
100
AcDbLine
 10
12.4688584009317
 20
15.73117732682615
 30
0.0
 11
12.3758584009317
 21
15.73117732682615
 31
0.0
  0
LINE
  5
9D8D
330
1F
100
AcDbEntity
  8
CONTINUOUS1
100
AcDbLine
 10
27.73470520159142
 20
13.49794316994851
 30
0.0
 11
27.73470520159142
 21
5.247943169948516
 31
0.0
  0
LINE
  5
9D8E
330
1F
100
AcDbEntity
  8
CONTINUOUS1
100
AcDbLine
 10
27.02977724862213
 20
12.94278798507764
 30
0.0
 11
27.11973797134203
 21
12.10646266338902
 31
0.0
  0
LINE
  5
9D8F
330
1F
100
AcDbEntity
  8
CONTINUOUS1
100
AcDbLine
 10
26.20492590826694
 20
12.65082006506886
 30
0.0
 11
27.02977724862213
 21
12.94278798507764
 31
0.0
  0
LINE
  5
9D90
330
1F
100
AcDbEntity
  8
CONTINUOUS1
100
AcDbLine
 10
26.83581513995048
 20
12.74153267359581
 30
0.0
 11
27.04351739757166
 21
12.81505185598894
 31
0.0
  0
LINE
  5
9D91
330
1F
100
AcDbEntity
  8
CONTINUOUS1
100
AcDbLine
 10
26.2766467991674
 20
12.77486083985056
 30
0.0
 11
26.89599231986838
 21
12.9940870380743
 31
0.0
  0
LINE
  5
9D92
330
1F
100
AcDbEntity
  8
CONTINUOUS1
100
AcDbLine
 10
26.29443387014541
 20
12.78569761099892
 30
0.0
 11
26.81155253574646
 21
13.29372936856951
 31
0.0
  0
LINE
  5
9D93
330
1F
100
AcDbEntity
  8
CONTINUOUS1
100
AcDbLine
 10
26.2292584031299
 20
12.85203883874843
 30
0.0
 11
26.74637706873096
 21
13.36007059631902
 31
0.0
  0
ARC
  5
9D94
330
1F
100
AcDbEntity
  8
CONTINUOUS1
100
AcDbCircle
 10
26.26184613663765
 20
12.81886822487367
 30
0.0
 40
0.0464999999999997
100
AcDbArc
 50
134.4921449260186
 51
314.4921449260199
  0
LINE
  5
9D95
330
1F
100
AcDbEntity
  8
CONTINUOUS1
100
AcDbLine
 10
27.73470520159142
 20
5.247943169948516
 30
0.0
 11
26.60970520159142
 21
5.247943169948516
 31
0.0
  0
ARC
  5
9D96
330
1F
100
AcDbEntity
  8
CONTINUOUS1
100
AcDbCircle
 10
26.87117186337337
 20
12.07972523701123
 30
0.0
 40
0.375
100
AcDbArc
 50
347.4681678489911
 51
54.32919420210005
  0
LINE
  5
9D97
330
1F
100
AcDbEntity
  8
CONTINUOUS1
100
AcDbLine
 10
27.23723771631006
 20
11.99835699189227
 30
0.0
 11
26.50341823792946
 21
8.696992278149
 31
0.0
  0
CIRCLE
  5
9D98
330
1F
100
AcDbEntity
  8
CONTINUOUS1
100
AcDbCircle
 10
26.87117186337337
 20
12.07972523701123
 30
0.0
 40
0.1875
  0
ARC
  5
9D99
330
1F
100
AcDbEntity
  8
CONTINUOUS1
100
AcDbCircle
 10
26.87752484280888
 20
12.62369676783078
 30
0.0
 40
0.125
100
AcDbArc
 50
109.4921449260169
 51
199.492144926019
  0
LINE
  5
9D9A
330
1F
100
AcDbEntity
  8
CONTINUOUS1
100
AcDbLine
 10
26.82172482947686
 20
12.40672675205183
 30
0.0
 11
26.75968893704384
 21
12.58198706497239
 31
0.0
  0
ARC
  5
9D9B
330
1F
100
AcDbEntity
  8
CONTINUOUS1
100
AcDbCircle
 10
26.87117186337337
 20
12.07972523701123
 30
0.0
 40
0.25
100
AcDbArc
 50
139.492144926018
 51
79.49214492602028
  0
ARC
  5
9D9C
330
1F
100
AcDbEntity
  8
CONTINUOUS1
100
AcDbCircle
 10
25.10300207985952
 20
10.96713724878877
 30
0.0
 40
0.75
100
AcDbArc
 50
251.1150236628103
 51
334.7618794766297
  0
CIRCLE
  5
9D9D
330
1F
100
AcDbEntity
  8
CONTINUOUS1
100
AcDbCircle
 10
26.24065244680834
 20
10.28103647423583
 30
0.0
 40
0.1405
  0
CIRCLE
  5
9D9E
330
1F
100
AcDbEntity
  8
CONTINUOUS1
100
AcDbCircle
 10
25.85970520159142
 20
9.122943169948516
 30
0.0
 40
0.125
  0
ARC
  5
9D9F
330
1F
100
AcDbEntity
  8
CONTINUOUS1
100
AcDbCircle
 10
26.01533043401389
 20
8.805483271640941
 30
0.0
 40
0.5
100
AcDbArc
 50
251.1150236628103
 51
347.4681678489911
  0
LINE
  5
9DA0
330
1F
100
AcDbEntity
  8
CONTINUOUS1
100
AcDbLine
 10
24.86025008103186
 20
10.25750955269373
 30
0.0
 11
23.6187602640864
 21
10.6822028619404
 31
0.0
  0
LINE
  5
9DA1
330
1F
100
AcDbEntity
  8
CONTINUOUS1
100
AcDbLine
 10
26.50597737097157
 20
12.18448048877968
 30
0.0
 11
25.78140975665545
 21
10.64735134530905
 31
0.0
  0
LINE
  5
9DA2
330
1F
100
AcDbEntity
  8
CONTINUOUS1
100
AcDbLine
 10
26.20492590826694
 20
12.65082006506886
 30
0.0
 11
26.66113612261
 21
11.94413398507371
 31
0.0
  0
LINE
  5
9DA3
330
1F
100
AcDbEntity
  8
CONTINUOUS1
100
AcDbLine
 10
26.27460516503421
 20
12.54288438262751
 30
0.0
 11
26.48230742265539
 21
12.61640356502063
 31
0.0
  0
ARC
  5
9DA4
330
1F
100
AcDbEntity
  8
CONTINUOUS1
100
AcDbCircle
 10
26.29216280863073
 20
12.73102588290597
 30
0.0
 40
0.0465000000000015
100
AcDbArc
 50
109.4921449260194
 51
289.4921449260186
  0
LINE
  5
9DA5
330
1F
100
AcDbEntity
  8
CONTINUOUS1
100
AcDbLine
 10
26.35064774798784
 20
12.80105453324564
 30
0.0
 11
26.34017672883059
 21
12.83063666742832
 31
0.0
  0
LINE
  5
9DA6
330
1F
100
AcDbEntity
  8
CONTINUOUS1
100
AcDbLine
 10
26.70388892371184
 20
12.36501704919343
 30
0.0
 11
26.64185303127883
 21
12.540277362114
 31
0.0
  0
ARC
  5
9DA7
330
1F
100
AcDbEntity
  8
CONTINUOUS1
100
AcDbCircle
 10
26.58605301794681
 20
12.32330734633503
 30
0.0
 40
0.125
100
AcDbArc
 50
319.4921449260181
 51
19.49214492601679
  0
ARC
  5
9DA8
330
1F
100
AcDbEntity
  8
CONTINUOUS1
100
AcDbCircle
 10
26.52401712551379
 20
12.4985676592556
 30
0.0
 40
0.125
100
AcDbArc
 50
19.49214492601922
 51
109.4921449260173
  0
LINE
  5
9DA9
330
1F
100
AcDbEntity
  8
CONTINUOUS1
100
AcDbLine
 10
27.64170520159143
 20
10.87294316994854
 30
0.0
 11
27.64170520159143
 21
8.997943169948545
 31
0.0
  0
ARC
  5
9DAA
330
1F
100
AcDbEntity
  8
CONTINUOUS1
100
AcDbCircle
 10
26.93956073524189
 20
12.44843645491022
 30
0.0
 40
0.125
100
AcDbArc
 50
199.4921449260167
 51
259.4921449260207
  0
LINE
  5
9DAB
330
1F
100
AcDbEntity
  8
CONTINUOUS1
100
AcDbLine
 10
26.17220520159142
 20
14.49794316994851
 30
0.0
 11
27.35970520159142
 21
14.49794316994851
 31
0.0
  0
LINE
  5
9DAC
330
1F
100
AcDbEntity
  8
CONTINUOUS1
100
AcDbLine
 10
24.48470520159142
 20
15.37294316994851
 30
0.0
 11
27.48470520159142
 21
15.37294316994851
 31
0.0
  0
ARC
  5
9DAD
330
1F
100
AcDbEntity
  8
CONTINUOUS1
100
AcDbCircle
 10
26.7789648022387
 20
13.32689998244426
 30
0.0
 40
0.0465000000000015
100
AcDbArc
 50
314.4921449260186
 51
134.4921449260185
  0
LINE
  5
9DAE
330
1F
100
AcDbEntity
  8
CONTINUOUS1
100
AcDbLine
 10
26.82199137104795
 20
12.96789334467922
 30
0.0
 11
26.73372213644175
 21
13.21726661991735
 31
0.0
  0
LINE
  5
9DAF
330
1F
100
AcDbEntity
  8
CONTINUOUS1
100
AcDbLine
 10
26.85970520159142
 20
15.37294316994851
 30
0.0
 11
26.85970520159142
 21
14.49794316994851
 31
0.0
  0
LINE
  5
9DB0
330
1F
100
AcDbEntity
  8
CONTINUOUS1
100
AcDbLine
 10
24.92220520159142
 20
14.49794316994851
 30
0.0
 11
24.92220520159142
 21
15.37294316994851
 31
0.0
  0
CIRCLE
  5
9DB1
330
1F
100
AcDbEntity
  8
CONTINUOUS1
100
AcDbCircle
 10
25.85970520159142
 20
14.93544316994851
 30
0.0
 40
0.1875
  0
LINE
  5
9DB2
330
1F
100
AcDbEntity
  8
CONTINUOUS1
100
AcDbLine
 10
24.48470520159142
 20
14.49794316994851
 30
0.0
 11
25.54720520159142
 21
14.49794316994851
 31
0.0
  0
LINE
  5
9DB3
330
1F
100
AcDbEntity
  8
CONTINUOUS1
100
AcDbLine
 10
25.67220520159142
 20
13.62294316994851
 30
0.0
 11
25.67220520159142
 21
14.4085050017535
 31
0.0
  0
LINE
  5
9DB4
330
1F
100
AcDbEntity
  8
CONTINUOUS1
100
AcDbLine
 10
26.04002692665315
 20
13.50443379382664
 30
0.0
 11
26.5571455922542
 21
14.01246555139723
 31
0.0
  0
LINE
  5
9DB5
330
1F
100
AcDbEntity
  8
CONTINUOUS1
100
AcDbLine
 10
25.97485145963766
 20
13.57077502157615
 30
0.0
 11
26.4919701252387
 21
14.07880677914674
 31
0.0
  0
LINE
  5
9DB6
330
1F
100
AcDbEntity
  8
CONTINUOUS1
100
AcDbLine
 10
25.9288142170819
 20
13.81862568364664
 30
0.0
 11
26.44593288268295
 21
14.32665744121724
 31
0.0
  0
LINE
  5
9DB7
330
1F
100
AcDbEntity
  8
CONTINUOUS1
100
AcDbLine
 10
25.86363875006641
 20
13.88496691139615
 30
0.0
 11
26.38075741566746
 21
14.39299866896675
 31
0.0
  0
LINE
  5
9DB8
330
1F
100
AcDbEntity
  8
CONTINUOUS1
100
AcDbLine
 10
25.94031703130261
 20
13.96029778721871
 30
0.0
 11
25.87113230195726
 21
14.15575459196258
 31
0.0
  0
LINE
  5
9DB9
330
1F
100
AcDbEntity
  8
CONTINUOUS1
100
AcDbLine
 10
26.29749562063082
 20
13.88774961770435
 30
0.0
 11
26.22052295552406
 21
14.1052084603817
 31
0.0
  0
ARC
  5
9DBA
330
1F
100
AcDbEntity
  8
CONTINUOUS1
100
AcDbCircle
 10
26.0074391931454
 20
13.53760440770139
 30
0.0
 40
0.0464999999999997
100
AcDbArc
 50
134.4921449260186
 51
314.4921449260199
  0
LINE
  5
9DBB
330
1F
100
AcDbEntity
  8
CONTINUOUS1
100
AcDbLine
 10
26.05152974087386
 20
13.6461058973987
 30
0.0
 11
25.97455707576709
 21
13.86356474007605
 31
0.0
  0
ARC
  5
9DBC
330
1F
100
AcDbEntity
  8
CONTINUOUS1
100
AcDbCircle
 10
25.85970520159142
 20
13.62294316994851
 30
0.0
 40
0.1875
100
AcDbArc
 50
180.0
 51
316.0741173606435
  0
ARC
  5
9DBD
330
1F
100
AcDbEntity
  8
CONTINUOUS1
100
AcDbCircle
 10
25.89622648357415
 20
13.8517962975214
 30
0.0
 40
0.0464999999999997
100
AcDbArc
 50
134.4921449260186
 51
314.4921449260199
  0
LINE
  5
9DBE
330
1F
100
AcDbEntity
  8
CONTINUOUS1
100
AcDbLine
 10
26.21052364676065
 20
13.02275605298919
 30
0.0
 11
26.72764231236169
 21
13.53078781055979
 31
0.0
  0
LINE
  5
9DBF
330
1F
100
AcDbEntity
  8
CONTINUOUS1
100
AcDbLine
 10
26.14534817974515
 20
13.08909728073871
 30
0.0
 11
26.6624668453462
 21
13.5971290383093
 31
0.0
  0
LINE
  5
9DC0
330
1F
100
AcDbEntity
  8
CONTINUOUS1
100
AcDbLine
 10
26.12327487572903
 20
13.26924637195162
 30
0.0
 11
26.64039354133009
 21
13.77727812952222
 31
0.0
  0
LINE
  5
9DC1
330
1F
100
AcDbEntity
  8
CONTINUOUS1
100
AcDbLine
 10
26.05809940871356
 20
13.33558759970113
 30
0.0
 11
26.5752180743146
 21
13.84361935727173
 31
0.0
  0
LINE
  5
9DC2
330
1F
100
AcDbEntity
  8
CONTINUOUS1
100
AcDbLine
 10
26.13477768994975
 20
13.41091847552369
 30
0.0
 11
26.08576978533834
 21
13.54937285025603
 31
0.0
  0
LINE
  5
9DC3
330
1F
100
AcDbEntity
  8
CONTINUOUS1
100
AcDbLine
 10
26.69948209197727
 20
13.31399966706002
 30
0.0
 11
26.64981191305699
 21
13.45432506190763
 31
0.0
  0
LINE
  5
9DC4
330
1F
100
AcDbEntity
  8
CONTINUOUS1
100
AcDbLine
 10
26.36960598883553
 20
13.30941438874465
 30
0.0
 11
26.31659726226841
 21
13.45917166056441
 31
0.0
  0
LINE
  5
9DC5
330
1F
100
AcDbEntity
  8
CONTINUOUS1
100
AcDbLine
 10
26.46799234073831
 20
13.40607187686691
 30
0.0
 11
26.4149836141712
 21
13.55582914868667
 31
0.0
  0
LINE
  5
9DC6
330
1F
100
AcDbEntity
  8
CONTINUOUS1
100
AcDbLine
 10
26.45351621222029
 20
13.07235594675437
 30
0.0
 11
26.40384603330002
 21
13.21268134160199
 31
0.0
  0
ARC
  5
9DC7
330
1F
100
AcDbEntity
  8
CONTINUOUS1
100
AcDbCircle
 10
26.17793591325289
 20
13.05592666686395
 30
0.0
 40
0.0464999999999997
100
AcDbArc
 50
134.4921449260186
 51
314.4921449260199
  0
LINE
  5
9DC8
330
1F
100
AcDbEntity
  8
CONTINUOUS1
100
AcDbLine
 10
26.30593668436612
 20
12.92736971457099
 30
0.0
 11
26.25626650544583
 21
13.0676951094186
 31
0.0
  0
LINE
  5
9DC9
330
1F
100
AcDbEntity
  8
CONTINUOUS1
100
AcDbLine
 10
26.22202646098135
 20
13.16442815656126
 30
0.0
 11
26.16901773441424
 21
13.31418542838103
 31
0.0
  0
ARC
  5
9DCA
330
1F
100
AcDbEntity
  8
CONTINUOUS1
100
AcDbCircle
 10
26.0906871422213
 20
13.30241698582637
 30
0.0
 40
0.0464999999999997
100
AcDbArc
 50
134.4921449260186
 51
314.4921449260199
  0
LINE
  5
9DCB
330
1F
100
AcDbEntity
  8
CONTINUOUS1
100
AcDbLine
 10
26.64523751240041
 20
12.90532879039163
 30
0.0
 11
26.58614260858758
 21
13.07228038773396
 31
0.0
  0
LINE
  5
9DCC
330
1F
100
AcDbEntity
  8
CONTINUOUS1
100
AcDbLine
 10
26.52740160663538
 20
12.86361908753323
 30
0.0
 11
26.48775625668477
 21
12.97562289961171
 31
0.0
  0
LINE
  5
9DCD
330
1F
100
AcDbEntity
  8
CONTINUOUS1
100
AcDbLine
 10
26.55190256412308
 20
13.16901343487663
 30
0.0
 11
26.5022323852028
 21
13.30933882972424
 31
0.0
  0
LINE
  5
9DCE
330
1F
100
AcDbEntity
  8
CONTINUOUS1
100
AcDbLine
 10
26.5283230975609
 20
13.79754842801273
 30
0.0
 11
26.47931519294949
 21
13.93600280274507
 31
0.0
  0
LINE
  5
9DCF
330
1F
100
AcDbEntity
  8
CONTINUOUS1
100
AcDbLine
 10
26.38074356970672
 20
13.65256219582934
 30
0.0
 11
26.33173566509532
 21
13.79101657056168
 31
0.0
  0
LINE
  5
9DD0
330
1F
100
AcDbEntity
  8
CONTINUOUS1
100
AcDbLine
 10
26.28235721780393
 20
13.55590470770708
 30
0.0
 11
26.23334931319252
 21
13.69435908243943
 31
0.0
  0
LINE
  5
9DD1
330
1F
100
AcDbEntity
  8
CONTINUOUS1
100
AcDbLine
 10
26.19910926872803
 20
13.79109212958209
 30
0.0
 11
26.12213660362127
 21
14.00855097225943
 31
0.0
  0
LINE
  5
9DD2
330
1F
100
AcDbEntity
  8
CONTINUOUS1
100
AcDbLine
 10
26.6155718685925
 20
13.5510581090503
 30
0.0
 11
26.56256314202539
 21
13.70081538087006
 31
0.0
  0
ARC
  5
9DD3
330
1F
100
AcDbEntity
  8
CONTINUOUS1
100
AcDbCircle
 10
26.69505457885395
 20
13.56395842443454
 30
0.0
 40
0.0465000000000015
100
AcDbArc
 50
314.4921449260186
 51
134.4921449260185
  0
ARC
  5
9DD4
330
1F
100
AcDbEntity
  8
CONTINUOUS1
100
AcDbCircle
 10
26.60780580782234
 20
13.81044874339697
 30
0.0
 40
0.0465000000000015
100
AcDbArc
 50
314.4921449260186
 51
134.4921449260185
  0
LINE
  5
9DD5
330
1F
100
AcDbEntity
  8
CONTINUOUS1
100
AcDbLine
 10
25.82538944327206
 20
14.11081553553318
 30
0.0
 11
26.21944143459532
 21
14.49794316994851
 31
0.0
  0
LINE
  5
9DD6
330
1F
100
AcDbEntity
  8
CONTINUOUS1
100
AcDbLine
 10
25.76021397625656
 20
14.17715676328269
 30
0.0
 11
26.12985045367237
 21
14.54029791786756
 31
0.0
  0
LINE
  5
9DD7
330
1F
100
AcDbEntity
  8
CONTINUOUS1
100
AcDbLine
 10
26.08789655915678
 20
14.1052840194021
 30
0.0
 11
26.01871182981144
 21
14.30074082414597
 31
0.0
  0
LINE
  5
9DD8
330
1F
100
AcDbEntity
  8
CONTINUOUS1
100
AcDbLine
 10
25.6505891340871
 20
14.48686269945881
 30
0.0
 11
25.93044255811435
 21
14.76179848562979
 31
0.0
  0
LINE
  5
9DD9
330
1F
100
AcDbEntity
  8
CONTINUOUS1
100
AcDbLine
 10
25.71576460110259
 20
14.4205214717093
 30
0.0
 11
26.04720520159142
 21
14.74613793461706
 31
0.0
  0
LINE
  5
9DDA
330
1F
100
AcDbEntity
  8
CONTINUOUS1
100
AcDbLine
 10
25.7272674153233
 20
14.56219357528137
 30
0.0
 11
25.67220520159142
 21
14.71775224350182
 31
0.0
  0
LINE
  5
9DDB
330
1F
100
AcDbEntity
  8
CONTINUOUS1
100
AcDbLine
 10
26.08285813724973
 20
14.49413135941089
 30
0.0
 11
26.00747333954476
 21
14.70710424844436
 31
0.0
  0
ARC
  5
9DDC
330
1F
100
AcDbEntity
  8
CONTINUOUS1
100
AcDbCircle
 10
25.68317686759485
 20
14.45369208558406
 30
0.0
 40
0.0464999999999997
100
AcDbArc
 50
134.4921449260186
 51
314.4921449260199
  0
LINE
  5
9DDD
330
1F
100
AcDbEntity
  8
CONTINUOUS1
100
AcDbLine
 10
25.83689225749276
 20
14.25248763910525
 30
0.0
 11
25.76150745978779
 21
14.46546052813871
 31
0.0
  0
ARC
  5
9DDE
330
1F
100
AcDbEntity
  8
CONTINUOUS1
100
AcDbCircle
 10
25.79280170976431
 20
14.14398614940793
 30
0.0
 40
0.0464999999999997
100
AcDbArc
 50
134.4921449260186
 51
314.4921449260199
  0
LINE
  5
9DDF
330
1F
100
AcDbEntity
  8
CONTINUOUS1
100
AcDbLine
 10
25.98447178534695
 20
14.39747387128863
 30
0.0
 11
25.90908698764197
 21
14.61044676032209
 31
0.0
  0
LINE
  5
9DE0
330
1F
100
AcDbEntity
  8
CONTINUOUS1
100
AcDbLine
 10
25.54720520159142
 20
14.49794316994851
 30
0.0
 11
25.67220520159142
 21
14.62294316994851
 31
0.0
  0
LINE
  5
9DE1
330
1F
100
AcDbEntity
  8
CONTINUOUS1
100
AcDbLine
 10
26.17220520159142
 20
14.49794316994851
 30
0.0
 11
26.04720520159142
 21
14.62294316994851
 31
0.0
  0
LINE
  5
9DE2
330
1F
100
AcDbEntity
  8
CONTINUOUS1
100
AcDbLine
 10
25.87484694317748
 20
14.70717980746476
 30
0.0
 11
25.86041768930587
 21
14.74794452365671
 31
0.0
  0
LINE
  5
9DE3
330
1F
100
AcDbEntity
  8
CONTINUOUS1
100
AcDbLine
 10
25.92404011912887
 20
14.75550855152588
 30
0.0
 11
25.92284215753865
 21
14.75889296520857
 31
0.0
  0
ARC
  5
9DE4
330
1F
100
AcDbEntity
  8
CONTINUOUS1
100
AcDbCircle
 10
26.52455785874645
 20
14.04563616527198
 30
0.0
 40
0.0465000000000015
100
AcDbArc
 50
314.4921449260186
 51
134.4921449260185
  0
LINE
  5
9DE5
330
1F
100
AcDbEntity
  8
CONTINUOUS1
100
AcDbLine
 10
26.18628291105958
 20
14.20194150752436
 30
0.0
 11
26.11709818171422
 21
14.39739831226822
 31
0.0
  0
LINE
  5
9DE6
330
1F
100
AcDbEntity
  8
CONTINUOUS1
100
AcDbLine
 10
26.44507514848501
 20
14.03273584988774
 30
0.0
 11
26.36810248337825
 21
14.25019469256509
 31
0.0
  0
LINE
  5
9DE7
330
1F
100
AcDbEntity
  8
CONTINUOUS1
100
AcDbLine
 10
26.33386243891377
 20
14.34692773970775
 30
0.0
 11
26.28040836919296
 21
14.49794316994851
 31
0.0
  0
ARC
  5
9DE8
330
1F
100
AcDbEntity
  8
CONTINUOUS1
100
AcDbCircle
 10
26.41334514917521
 20
14.35982805509199
 30
0.0
 40
0.0465000000000015
100
AcDbArc
 50
314.4921449260186
 51
134.4921449260185
  0
LINE
  5
9DE9
330
1F
100
AcDbEntity
  8
CONTINUOUS1
100
AcDbLine
 10
27.48470520159142
 20
15.37294316994851
 30
0.0
 11
27.48470520159142
 21
13.49794316994851
 31
0.0
  0
LINE
  5
9DEA
330
1F
100
AcDbEntity
  8
CONTINUOUS1
100
AcDbLine
 10
27.35970520159142
 20
15.37294316994851
 30
0.0
 11
27.35970520159142
 21
14.49794316994851
 31
0.0
  0
LINE
  5
9DEB
330
1F
100
AcDbEntity
  8
CONTINUOUS1
100
AcDbLine
 10
27.48470520159142
 20
13.49794316994851
 30
0.0
 11
27.73470520159142
 21
13.49794316994851
 31
0.0
  0
ARC
  5
9DEC
330
1F
100
AcDbEntity
  8
CONTINUOUS1
100
AcDbCircle
 10
26.91150832933171
 20
12.9502520811297
 30
0.0
 40
0.0464999999999975
100
AcDbArc
 50
289.492144926019
 51
109.492144926019
  0
LINE
  5
9DF8
330
1F
100
AcDbEntity
  8
CONTINUOUS1
100
AcDbLine
 10
10.8438584009317
 20
11.48539334000666
 30
0.0
 11
8.343858400931708
 21
11.48539334000667
 31
0.0
  0
LINE
  5
9DF9
330
1F
100
AcDbEntity
  8
CONTINUOUS1
100
AcDbLine
 10
8.343858400931708
 20
11.48539334000667
 30
0.0
 11
7.898902079743088
 21
11.04043701881805
 31
0.0
  0
LINE
  5
9DFA
330
1F
100
AcDbEntity
  8
CONTINUOUS1
100
AcDbLine
 10
10.8438584009317
 20
11.48539334000666
 30
0.0
 11
11.28881472212032
 21
11.04043701881805
 31
0.0
  0
LINE
  5
9DFB
330
1F
100
AcDbEntity
  8
CONTINUOUS1
100
AcDbLine
 10
10.0938584009317
 20
10.62118162662794
 30
0.0
 11
9.093858400931708
 21
10.62118162662794
 31
0.0
  0
LINE
  5
9DFC
330
1F
100
AcDbEntity
  8
CONTINUOUS1
100
AcDbLine
 10
10.0938584009317
 20
9.62118162662794
 30
0.0
 11
10.0938584009317
 21
10.62118162662794
 31
0.0
  0
LINE
  5
9DFD
330
1F
100
AcDbEntity
  8
CONTINUOUS1
100
AcDbLine
 10
9.093858400931708
 20
9.62118162662794
 30
0.0
 11
9.093858400931708
 21
10.62118162662794
 31
0.0
  0
CIRCLE
  5
9DFE
330
1F
100
AcDbEntity
  8
CONTINUOUS1
100
AcDbCircle
 10
10.5938584009317
 20
9.875328022714843
 30
0.0
 40
0.1171875
  0
LINE
  5
9DFF
330
1F
100
AcDbEntity
  8
CONTINUOUS1
100
AcDbLine
 10
10.47725831064578
 20
9.887046772714843
 30
0.0
 11
10.71045849121763
 21
9.887046772714843
 31
0.0
  0
LINE
  5
9E00
330
1F
100
AcDbEntity
  8
CONTINUOUS1
100
AcDbLine
 10
10.47725831064578
 20
9.863609272714843
 30
0.0
 11
10.71045849121763
 21
9.863609272714843
 31
0.0
  0
LINE
  5
9E01
330
1F
100
AcDbEntity
  8
CONTINUOUS1
100
AcDbLine
 10
8.47725831064578
 20
9.863609272714843
 30
0.0
 11
8.710458491217636
 21
9.863609272714843
 31
0.0
  0
LINE
  5
9E02
330
1F
100
AcDbEntity
  8
CONTINUOUS1
100
AcDbLine
 10
8.47725831064578
 20
9.887046772714843
 30
0.0
 11
8.710458491217636
 21
9.887046772714843
 31
0.0
  0
CIRCLE
  5
9E03
330
1F
100
AcDbEntity
  8
CONTINUOUS1
100
AcDbCircle
 10
8.593858400931708
 20
9.875328022714843
 30
0.0
 40
0.1171875
  0
CIRCLE
  5
9E04
330
1F
100
AcDbEntity
  8
CONTINUOUS2
100
AcDbCircle
 10
10.3438584009317
 20
13.17617732682616
 30
0.0
 40
0.095
  0
CIRCLE
  5
9E05
330
1F
100
AcDbEntity
  8
CONTINUOUS2
100
AcDbCircle
 10
8.843858400931708
 20
13.17617732682616
 30
0.0
 40
0.095
  0
CIRCLE
  5
9E06
330
1F
100
AcDbEntity
  8
CONTINUOUS2
100
AcDbCircle
 10
10.3438584009317
 20
6.043677326826156
 30
0.0
 40
0.095
  0
CIRCLE
  5
9E07
330
1F
100
AcDbEntity
  8
CONTINUOUS2
100
AcDbCircle
 10
8.843858400931708
 20
6.046177326826153
 30
0.0
 40
0.095
  0
LINE
  5
9E08
330
1F
100
AcDbEntity
  8
CENTER1
100
AcDbLine
 10
8.753858400931704
 20
6.046177326826153
 30
0.0
 11
8.933858400931711
 21
6.046177326826153
 31
0.0
  0
LINE
  5
9E09
330
1F
100
AcDbEntity
  8
CENTER1
100
AcDbLine
 10
10.2538584009317
 20
6.043677326826156
 30
0.0
 11
10.43385840093171
 21
6.043677326826156
 31
0.0
  0
LINE
  5
9E0A
330
1F
100
AcDbEntity
  8
CONTINUOUS1
100
AcDbLine
 10
24.35970520159142
 20
7.497943169948516
 30
0.0
 11
26.60970520159142
 21
5.247943169948516
 31
0.0
  0
LINE
  5
9E0B
330
1F
100
AcDbEntity
  8
CONTINUOUS1
100
AcDbLine
 10
27.73470520159142
 20
8.997943169948545
 30
0.0
 11
26.85970520159142
 21
8.997943169948545
 31
0.0
  0
LINE
  5
9E0C
330
1F
100
AcDbEntity
  8
CONTINUOUS1
100
AcDbLine
 10
27.73470520159142
 20
10.87294316994854
 30
0.0
 11
26.98708341486522
 21
10.87294316994854
 31
0.0
  0
LINE
  5
9E0D
330
1F
100
AcDbEntity
  8
CONTINUOUS1
100
AcDbLine
 10
7.468108400931711
 20
9.356177326826159
 30
0.0
 11
7.468108400931711
 21
9.621181626627947
 31
0.0
  0
LINE
  5
9E0E
330
1F
100
AcDbEntity
  8
CONTINUOUS1
100
AcDbLine
 10
11.75085840093171
 20
11.23117732682616
 30
0.0
 11
11.7508584009317
 21
11.04043701881805
 31
0.0
  0
LINE
  5
9E0F
330
1F
100
AcDbEntity
  8
CONTINUOUS1
100
AcDbLine
 10
7.468108400931711
 20
9.356177326826159
 30
0.0
 11
6.843108400931711
 21
9.356177326826159
 31
0.0
  0
LINE
  5
9E10
330
1F
100
AcDbEntity
  8
CONTINUOUS1
100
AcDbLine
 10
7.468108400931711
 20
11.23117732682616
 30
0.0
 11
6.843108400931711
 21
11.23117732682616
 31
0.0
  0
LINE
  5
9E11
330
1F
100
AcDbEntity
  8
CONTINUOUS1
100
AcDbLine
 10
7.468108400931711
 20
11.04043701881805
 30
0.0
 11
7.468108400931711
 21
11.23117732682616
 31
0.0
  0
LINE
  5
9E12
330
1F
100
AcDbEntity
  8
CONTINUOUS1
100
AcDbLine
 10
11.75085840093171
 20
9.621181626627947
 30
0.0
 11
11.75085840093171
 21
9.356177326826159
 31
0.0
  0
LINE
  5
9E13
330
1F
100
AcDbEntity
  8
CONTINUOUS1
100
AcDbLine
 10
24.48470520159142
 20
15.37294316994851
 30
0.0
 11
24.48470520159142
 21
12.49794316994851
 31
0.0
  0
LINE
  5
9E14
330
1F
100
AcDbEntity
  8
CONTINUOUS1
100
AcDbLine
 10
24.35970520159142
 20
8.843399399531858
 30
0.0
 11
24.35970520159142
 21
7.497943169948516
 31
0.0
  0
LINE
  5
9E15
330
1F
100
AcDbEntity
  8
CONTINUOUS1
100
AcDbLine
 10
24.48470520159142
 20
12.49794316994851
 30
0.0
 11
23.42220520159142
 21
11.62294316994851
 31
0.0
  0
LINE
  5
9E16
330
1F
100
AcDbEntity
  8
CONTINUOUS1
100
AcDbLine
 10
24.23786073670339
 20
10.47041874185894
 30
0.0
 11
23.42220520159142
 21
11.12294316994851
 31
0.0
  0
LINE
  5
9E17
330
1F
100
AcDbEntity
  8
CONTINUOUS1
100
AcDbLine
 10
23.42220520159142
 20
11.62294316994851
 30
0.0
 11
23.42220520159142
 21
11.12294316994851
 31
0.0
  0
LINE
  5
9E18
330
1F
100
AcDbEntity
  8
CONTINUOUS1
100
AcDbLine
 10
12.3758584009317
 20
11.23117732682616
 30
0.0
 11
11.7508584009317
 21
11.23117732682616
 31
0.0
  0
LINE
  5
9E19
330
1F
100
AcDbEntity
  8
CONTINUOUS1
100
AcDbLine
 10
12.3758584009317
 20
9.356177326826159
 30
0.0
 11
11.75085840093171
 21
9.356177326826159
 31
0.0
  0
LINE
  5
9E1A
330
1F
100
AcDbEntity
  8
CONTINUOUS1
100
AcDbLine
 10
26.85970520159142
 20
10.29988405801297
 30
0.0
 11
26.85970520159142
 21
8.997943169948545
 31
0.0
  0
LINE
  5
9E1B
330
1F
100
AcDbEntity
  8
CONTINUOUS1
100
AcDbLine
 10
23.13325626643107
 20
9.262947469750297
 30
0.0
 11
23.6187602640864
 21
10.6822028619404
 31
0.0
  0
LINE
  5
9E1C
330
1F
100
AcDbEntity
  8
CONTINUOUS1
100
AcDbLine
 10
26.04720520159142
 20
14.62294316994851
 30
0.0
 11
26.04720520159142
 21
14.93544316994851
 31
0.0
  0
LINE
  5
9E1D
330
1F
100
AcDbEntity
  8
CONTINUOUS1
100
AcDbLine
 10
25.67220520159142
 20
14.5080989252934
 30
0.0
 11
25.67220520159142
 21
14.93544316994851
 31
0.0
  0
LINE
  5
9E1E
330
1F
100
AcDbEntity
  8
CONTINUOUS1
100
AcDbLine
 10
12.56335840093171
 20
9.621181626627947
 30
0.0
 11
6.593108400931711
 21
9.621181626627947
 31
0.0
  0
LINE
  5
9E1F
330
1F
100
AcDbEntity
  8
CONTINUOUS1
100
AcDbLine
 10
23.6187602640864
 20
10.6822028619404
 30
0.0
 11
23.51229571098247
 21
11.05087076243567
 31
0.0
  0
LINE
  5
9E20
330
1F
100
AcDbEntity
  8
CONTINUOUS1
100
AcDbLine
 10
23.72617135544109
 20
10.64545928884412
 30
0.0
 11
23.63817791380496
 21
10.95016500017768
 31
0.0
  0
LINE
  5
9E21
330
1F
100
AcDbEntity
  8
CONTINUOUS2
100
AcDbLine
 10
13.2813584009317
 20
13.30102214195528
 30
0.0
 11
13.1563584009317
 21
13.30102214195528
 31
0.0
  0
LINE
  5
9E25
330
1F
100
AcDbEntity
  8
CONTINUOUS2
100
AcDbLine
 10
13.1563584009317
 20
13.348452502778
 30
0.0
 11
13.1563584009317
 21
13.30102214195528
 31
0.0
  0
LINE
  5
9E26
330
1F
100
AcDbEntity
  8
CONTINUOUS2
100
AcDbLine
 10
13.27739004120941
 20
13.50750462998207
 30
0.0
 11
13.1563584009317
 21
13.51012383445749
 31
0.0
  0
LINE
  5
9E27
330
1F
100
AcDbEntity
  8
CONTINUOUS2
100
AcDbLine
 10
13.1563584009317
 20
13.81829970173076
 30
0.0
 11
13.27739004120941
 21
13.82878281539927
 31
0.0
  0
LINE
  5
9E28
330
1F
100
AcDbEntity
  8
CONTINUOUS2
100
AcDbLine
 10
13.1563584009317
 20
14.06829970173076
 30
0.0
 11
13.27739004120941
 21
14.07878281539927
 31
0.0
  0
LINE
  5
9E29
330
1F
100
AcDbEntity
  8
CONTINUOUS2
100
AcDbLine
 10
13.1563584009317
 20
14.31829970173075
 30
0.0
 11
13.27739004120941
 21
14.32878281539927
 31
0.0
  0
LINE
  5
9E2A
330
1F
100
AcDbEntity
  8
CONTINUOUS2
100
AcDbLine
 10
13.1563584009317
 20
14.56829970173076
 30
0.0
 11
13.27739004120941
 21
14.57878281539927
 31
0.0
  0
LINE
  5
9E2B
330
1F
100
AcDbEntity
  8
CONTINUOUS2
100
AcDbLine
 10
13.27739004120941
 20
14.82878281539927
 30
0.0
 11
13.1563584009317
 21
14.81829970173076
 31
0.0
  0
LINE
  5
9E2C
330
1F
100
AcDbEntity
  8
CONTINUOUS1
100
AcDbLine
 10
26.21052364676065
 20
13.02275605298919
 30
0.0
 11
26.2636889671473
 21
13.04672558823628
 31
0.0
  0
LINE
  5
9E2D
330
1F
100
AcDbEntity
  8
CONTINUOUS1
100
AcDbLine
 10
26.6918726819196
 20
13.33549734421982
 30
0.0
 11
26.74637706873096
 21
13.36007059631902
 31
0.0
  0
LINE
  5
9E2E
330
1F
100
AcDbEntity
  8
CONTINUOUS1
100
AcDbLine
 10
26.12327487572903
 20
13.26924637195162
 30
0.0
 11
26.17673551462455
 21
13.29238158996328
 31
0.0
  0
LINE
  5
9E2F
330
1F
100
AcDbEntity
  8
CONTINUOUS1
100
AcDbLine
 10
26.60765970188593
 20
13.57341111726036
 30
0.0
 11
26.6624668453462
 21
13.5971290383093
 31
0.0
  0
LINE
  5
9E30
330
1F
100
AcDbEntity
  8
CONTINUOUS1
100
AcDbLine
 10
26.0931336641223
 20
13.52856883423612
 30
0.0
 11
26.04002692665315
 21
13.50443379382664
 31
0.0
  0
LINE
  5
9E31
330
1F
100
AcDbEntity
  8
CONTINUOUS1
100
AcDbLine
 10
26.52077374593932
 20
13.81887643145807
 30
0.0
 11
26.5752180743146
 21
13.84361935727173
 31
0.0
  0
LINE
  5
9E32
330
1F
100
AcDbEntity
  8
CONTINUOUS1
100
AcDbLine
 10
25.98439463839308
 20
13.83577221164475
 30
0.0
 11
25.9288142170819
 21
13.81862568364664
 31
0.0
  0
LINE
  5
9E33
330
1F
100
AcDbEntity
  8
CONTINUOUS1
100
AcDbLine
 10
26.43498980874196
 20
14.06122838428927
 30
0.0
 11
26.4919701252387
 21
14.07880677914674
 31
0.0
  0
LINE
  5
9E34
330
1F
100
AcDbEntity
  8
CONTINUOUS1
100
AcDbLine
 10
25.88028096575075
 20
14.12990830175266
 30
0.0
 11
25.82538944327206
 21
14.11081553553318
 31
0.0
  0
LINE
  5
9E35
330
1F
100
AcDbEntity
  8
CONTINUOUS1
100
AcDbLine
 10
26.32448334918794
 20
14.37342501629698
 30
0.0
 11
26.38075741566746
 21
14.39299866896675
 31
0.0
  0
LINE
  5
9E36
330
1F
100
AcDbEntity
  8
CONTINUOUS1
100
AcDbLine
 10
25.67220520159142
 20
14.4085050017535
 30
0.0
 11
25.7695507188381
 21
14.44273716521486
 31
0.0
  0
LINE
  5
9E37
330
1F
100
AcDbEntity
  8
CONTINUOUS1
100
AcDbLine
 10
26.89599231986838
 20
12.9940870380743
 30
0.0
 11
26.81855915782193
 21
12.97758984037568
 31
0.0
  0
LINE
  5
9E38
330
1F
100
AcDbEntity
  8
CONTINUOUS2
100
AcDbLine
 10
6.500108400931708
 20
8.649868767862759
 30
0.0
 11
6.500108400931708
 21
12.15384482437818
 31
0.0
  0
LINE
  5
9E39
330
1F
100
AcDbEntity
  8
CONTINUOUS2
100
AcDbLine
 10
6.593108400931711
 20
12.15384482437818
 30
0.0
 11
6.500108400931708
 21
12.15384482437818
 31
0.0
  0
LINE
  5
9E3A
330
1F
100
AcDbEntity
  8
CONTINUOUS2
100
AcDbLine
 10
6.593108400931711
 20
11.04043701881805
 30
0.0
 11
6.593108400931711
 21
12.15384482437818
 31
0.0
  0
LINE
  5
9E3B
330
1F
100
AcDbEntity
  8
CONTINUOUS1
100
AcDbLine
 10
12.56335840093171
 20
11.04043701881805
 30
0.0
 11
6.593108400931711
 21
11.04043701881805
 31
0.0
  0
LINE
  5
9E3C
330
1F
100
AcDbEntity
  8
CONTINUOUS2
100
AcDbLine
 10
6.750108400931708
 20
11.04043701881805
 30
0.0
 11
6.750108400931708
 21
13.60617732682616
 31
0.0
  0
LINE
  5
9E3D
330
1F
100
AcDbEntity
  8
CONTINUOUS2
100
AcDbLine
 10
6.750108400931708
 20
13.60617732682616
 30
0.0
 11
12.3758584009317
 21
13.60617732682616
 31
0.0
  0
LINE
  5
9E3E
330
1F
100
AcDbEntity
  8
CONTINUOUS2
100
AcDbLine
 10
12.3758584009317
 20
15.73117732682615
 30
0.0
 11
12.3758584009317
 21
13.60617732682616
 31
0.0
  0
LINE
  5
9E3F
330
1F
100
AcDbEntity
  8
CONTINUOUS2
100
AcDbLine
 10
13.6338584009317
 20
15.73117732682615
 30
0.0
 11
12.3758584009317
 21
15.73117732682615
 31
0.0
  0
LINE
  5
9E40
330
1F
100
AcDbEntity
  8
CONTINUOUS2
100
AcDbLine
 10
13.6338584009317
 20
15.73117732682615
 30
0.0
 11
13.6338584009317
 21
14.85617732682616
 31
0.0
  0
LINE
  5
9E41
330
1F
100
AcDbEntity
  8
CONTINUOUS2
100
AcDbLine
 10
13.6338584009317
 20
14.85617732682616
 30
0.0
 11
13.1563584009317
 21
14.85617732682616
 31
0.0
  0
LINE
  5
9E42
330
1F
100
AcDbEntity
  8
CONTINUOUS2
100
AcDbLine
 10
13.2813584009317
 20
11.88003335378796
 30
0.0
 11
12.7188584009317
 21
11.88003335378796
 31
0.0
  0
LINE
  5
9E43
330
1F
100
AcDbEntity
  8
CONTINUOUS2
100
AcDbLine
 10
13.2813584009317
 20
11.28703335378795
 30
0.0
 11
12.7188584009317
 21
11.28703335378795
 31
0.0
  0
LINE
  5
9E44
330
1F
100
AcDbEntity
  8
CONTINUOUS2
100
AcDbLine
 10
12.7188584009317
 20
12.04217624808828
 30
0.0
 11
12.7188584009317
 21
11.88003335378796
 31
0.0
  0
LINE
  5
9E45
330
1F
100
AcDbEntity
  8
CONTINUOUS2
100
AcDbLine
 10
12.7188584009317
 20
11.12489045948763
 30
0.0
 11
12.6563584009317
 21
11.12489045948763
 31
0.0
  0
LINE
  5
9E46
330
1F
100
AcDbEntity
  8
CONTINUOUS2
100
AcDbLine
 10
12.7188584009317
 20
12.04217624808828
 30
0.0
 11
12.6563584009317
 21
12.04217624808828
 31
0.0
  0
LINE
  5
9E47
330
1F
100
AcDbEntity
  8
CONTINUOUS2
100
AcDbLine
 10
13.2813584009317
 20
11.88003335378796
 30
0.0
 11
13.2813584009317
 21
11.28703335378795
 31
0.0
  0
LINE
  5
9E48
330
1F
100
AcDbEntity
  8
CONTINUOUS2
100
AcDbLine
 10
13.2813584009317
 20
13.07083654338255
 30
0.0
 11
13.2813584009317
 21
12.79489820884316
 31
0.0
  0
LINE
  5
9E49
330
1F
100
AcDbEntity
  8
CONTINUOUS2
100
AcDbLine
 10
13.3133584009317
 20
12.79489820884316
 30
0.0
 11
13.3133584009317
 21
12.68514820884316
 31
0.0
  0
LINE
  5
9E4A
330
1F
100
AcDbEntity
  8
CONTINUOUS2
100
AcDbLine
 10
13.4063584009317
 20
12.68514820884316
 30
0.0
 11
13.3133584009317
 21
12.68514820884316
 31
0.0
  0
LINE
  5
9E4B
330
1F
100
AcDbEntity
  8
CONTINUOUS2
100
AcDbLine
 10
13.4063584009317
 20
12.68514820884316
 30
0.0
 11
13.4063584009317
 21
12.15464820884316
 31
0.0
  0
LINE
  5
9E4C
330
1F
100
AcDbEntity
  8
CONTINUOUS2
100
AcDbLine
 10
13.2813584009317
 20
12.79489820884316
 30
0.0
 11
13.3133584009317
 21
12.79489820884316
 31
0.0
  0
LINE
  5
9E4D
330
1F
100
AcDbEntity
  8
CONTINUOUS2
100
AcDbLine
 10
13.2813584009317
 20
13.30102214195528
 30
0.0
 11
13.2813584009317
 21
13.23107155054774
 31
0.0
  0
ARC
  5
9E4E
330
1F
100
AcDbEntity
  8
CONTINUOUS2
100
AcDbCircle
 10
13.29704179038035
 20
14.03663950330207
 30
0.0
 40
0.0464999999999996
100
AcDbArc
 50
294.9999999999965
 51
114.9999999999966
  0
ARC
  5
9E4F
330
1F
100
AcDbEntity
  8
CONTINUOUS2
100
AcDbCircle
 10
13.29704179038035
 20
13.78663950330207
 30
0.0
 40
0.0464999999999996
100
AcDbArc
 50
294.9999999999965
 51
114.9999999999966
  0
ARC
  5
9E50
330
1F
100
AcDbEntity
  8
CONTINUOUS2
100
AcDbCircle
 10
13.29704179038035
 20
13.46536131788486
 30
0.0
 40
0.0464999999999996
100
AcDbArc
 50
294.9999999999965
 51
114.9999999999966
  0
ARC
  5
9E51
330
1F
100
AcDbEntity
  8
CONTINUOUS2
100
AcDbCircle
 10
13.29704179038035
 20
14.28663950330207
 30
0.0
 40
0.0464999999999996
100
AcDbArc
 50
294.9999999999965
 51
114.9999999999966
  0
ARC
  5
9E52
330
1F
100
AcDbEntity
  8
CONTINUOUS2
100
AcDbCircle
 10
13.29704179038035
 20
14.53663950330207
 30
0.0
 40
0.0464999999999996
100
AcDbArc
 50
294.9999999999965
 51
114.9999999999966
  0
ARC
  5
9E53
330
1F
100
AcDbEntity
  8
CONTINUOUS2
100
AcDbCircle
 10
13.29704179038035
 20
14.78663950330207
 30
0.0
 40
0.0464999999999996
100
AcDbArc
 50
294.9999999999965
 51
114.9999999999966
  0
LINE
  5
9E54
330
1F
100
AcDbEntity
  8
CONTINUOUS2
100
AcDbLine
 10
13.4063584009317
 20
12.15464820884316
 30
0.0
 11
12.6563584009317
 21
12.15464820884316
 31
0.0
  0
LINE
  5
9E55
330
1F
100
AcDbEntity
  8
CONTINUOUS2
100
AcDbLine
 10
12.6563584009317
 20
8.649868767862759
 30
0.0
 11
12.5633584009317
 21
8.649868767862759
 31
0.0
  0
LINE
  5
9E56
330
1F
100
AcDbEntity
  8
CONTINUOUS2
100
AcDbLine
 10
12.56335840093171
 20
9.356177326826159
 30
0.0
 11
12.5633584009317
 21
8.649868767862759
 31
0.0
  0
LINE
  5
9E57
330
1F
100
AcDbEntity
  8
CONTINUOUS2
100
AcDbLine
 10
12.56335840093171
 20
9.356177326826159
 30
0.0
 11
12.4688584009317
 21
9.356177326826159
 31
0.0
  0
LINE
  5
9E58
330
1F
100
AcDbEntity
  8
CONTINUOUS2
100
AcDbLine
 10
12.4688584009317
 20
9.356177326826159
 30
0.0
 11
12.4688584009317
 21
5.606177326826159
 31
0.0
  0
LINE
  5
9E59
330
1F
100
AcDbEntity
  8
CONTINUOUS2
100
AcDbLine
 10
12.4688584009317
 20
5.606177326826159
 30
0.0
 11
6.750108400931708
 21
5.606177326826159
 31
0.0
  0
LINE
  5
9E5A
330
1F
100
AcDbEntity
  8
CONTINUOUS2
100
AcDbLine
 10
6.750108400931708
 20
5.606177326826159
 30
0.0
 11
6.750108400931708
 21
9.356177326826156
 31
0.0
  0
LINE
  5
9E5B
330
1F
100
AcDbEntity
  8
CONTINUOUS2
100
AcDbLine
 10
6.750108400931708
 20
9.356177326826159
 30
0.0
 11
6.593108400931711
 21
9.356177326826159
 31
0.0
  0
LINE
  5
9E5C
330
1F
100
AcDbEntity
  8
CONTINUOUS2
100
AcDbLine
 10
6.593108400931711
 20
8.649868767862759
 30
0.0
 11
6.593108400931704
 21
9.356177326826156
 31
0.0
  0
LINE
  5
9E5D
330
1F
100
AcDbEntity
  8
CONTINUOUS2
100
AcDbLine
 10
6.593108400931711
 20
8.649868767862759
 30
0.0
 11
6.500108400931708
 21
8.649868767862759
 31
0.0
  0
DIMENSION
  5
9E5E
330
1F
100
AcDbEntity
  8
DIM
100
AcDbDimension
  2
*D6
 10
6.213711227594338
 20
16.78789992716474
 30
0.0
 11
7.528784814263023
 21
16.78789992716474
 31
0.0
 70
   160
  1
\P<>
  3
SCHNEIDERELECTRIC
100
AcDbAlignedDimension
 13
8.843858400931708
 23
13.17617732682616
 33
0.0
 14
6.213711227594338
 24
11.58272996932298
 34
0.0
100
AcDbRotatedDimension
1001
ACAD
1000
DSTYLE
1002
{
1070
    40
1040
2.0
1002
}
  0
DIMENSION
  5
9E5F
330
1F
100
AcDbEntity
  8
DIM
100
AcDbDimension
  2
*D7
 10
10.3438584009317
 20
16.78789992716474
 30
0.0
 11
9.593858400931708
 21
16.78789992716474
 31
0.0
 70
   160
  1
\P<>
  3
SCHNEIDERELECTRIC
100
AcDbAlignedDimension
 13
8.843858400931708
 23
13.17617732682616
 33
0.0
 14
10.3438584009317
 24
13.17617732682616
 34
0.0
100
AcDbRotatedDimension
1001
ACAD
1000
DSTYLE
1002
{
1070
    40
1040
2.0
1002
}
  0
DIMENSION
  5
9E60
330
1F
100
AcDbEntity
  8
DIM
100
AcDbDimension
  2
*D8
 10
28.89154715313319
 20
5.247943169948516
 30
0.0
 11
28.89154715313319
 21
10.31044316994852
 31
0.0
 70
   160
  3
SCHNEIDERELECTRIC
100
AcDbAlignedDimension
 13
27.48470520159142
 23
15.37294316994851
 33
0.0
 14
27.73470520159142
 24
5.247943169948516
 34
0.0
 50
90.0
100
AcDbRotatedDimension
1001
ACAD
1000
DSTYLE
1002
{
1070
    40
1040
2.0
1002
}
  0
DIMENSION
  5
9E61
330
1F
100
AcDbEntity
  8
DIM
100
AcDbDimension
  2
*D9
 10
13.90635840093171
 20
6.043677326826156
 30
0.0
 11
13.9063584009317
 21
9.609927326826159
 31
0.0
 70
   160
  3
SCHNEIDERELECTRIC
100
AcDbAlignedDimension
 13
10.3438584009317
 23
13.17617732682616
 33
0.0
 14
10.3438584009317
 24
6.043677326826156
 34
0.0
 50
90.0
100
AcDbRotatedDimension
1001
ACAD
1000
DSTYLE
1002
{
1070
    40
1040
2.0
1002
}
  0
DIMENSION
  5
9E62
330
1F
100
AcDbEntity
  8
DIM
100
AcDbDimension
  2
*D10
 10
13.90635840093171
 20
5.606177326826159
 30
0.0
 11
13.30540601997932
 21
5.099946152216989
 31
0.0
 70
   160
  3
SCHNEIDERELECTRIC
100
AcDbAlignedDimension
 13
10.3438584009317
 23
6.043677326826156
 33
0.0
 14
12.4688584009317
 24
5.606177326826159
 34
0.0
 50
90.0
100
AcDbRotatedDimension
1001
ACAD
1000
DSTYLE
1002
{
1070
    40
1040
2.0
1002
}
  0
LINE
  5
9E63
330
1F
100
AcDbEntity
  8
HIDDEN1
100
AcDbLine
 10
21.22470520159142
 20
2.817943169948517
 30
0.0
 11
21.22470520159142
 21
18.16572926139063
 31
0.0
  0
DIMENSION
  5
9E65
330
1F
100
AcDbEntity
  8
DIM
100
AcDbDimension
  2
*D11
 10
27.73470520159142
 20
17.35044821842306
 30
0.0
 11
24.47970520159142
 21
17.35044821842306
 31
0.0
 70
    32
  1
\P\P\PDistance from outside of\Pflange to circuit breaker\Pmounting surface.\P6.51 MIN, 17.88 MAX
  3
SCHNEIDERELECTRIC
100
AcDbAlignedDimension
 13
21.22470520159142
 23
17.57044470790196
 33
0.0
 14
27.73470520159142
 24
17.88068148189934
 34
0.0
100
AcDbRotatedDimension
1001
ACAD
1000
DSTYLE
1002
{
1070
    40
1040
2.0
1002
}
  0
SOLID
  5
9E6A
330
1F
100
AcDbEntity
  8
DIM
100
AcDbTrace
 10
9.555458400932305
 20
13.40657732682255
 30
0.0
 11
9.63225840093111
 21
13.40657732682255
 31
0.0
 12
9.593858400931708
 22
13.17617732682616
 32
0.0
 13
9.593858400931708
 23
13.17617732682616
 33
0.0
  0
LINE
  5
9E6B
330
1F
100
AcDbEntity
  8
DIM
100
AcDbLine
 10
9.593858400931708
 20
13.38951066015616
 30
0.0
 11
9.593858400931708
 21
16.11028879045227
 31
0.0
  0
TEXT
  5
9E6C
330
1F
100
AcDbEntity
  8
DIM
100
AcDbText
 10
9.23671554378885
 20
18.26608673247994
 30
0.0
 40
0.2
  1
11.69
  7
SIMPLEX
 72
     4
 11
9.593858400931708
 21
18.36608673247994
 31
0.0
100
AcDbText
  0
LINE
  5
9E6D
330
1F
100
AcDbEntity
  8
DIM
100
AcDbLine
 10
9.334735185354354
 20
18.77526755439451
 30
0.0
 11
9.513858400932956
 21
18.66568673247526
 31
0.0
  0
LINE
  5
9E6E
330
1F
100
AcDbEntity
  8
DIM
100
AcDbLine
 10
9.334735185354354
 20
18.89526755439264
 30
0.0
 11
9.513858400932956
 21
18.78568673247339
 31
0.0
  0
LINE
  5
9E6F
330
1F
100
AcDbEntity
  8
DIM
100
AcDbLine
 10
9.593858400931708
 20
19.49516909110089
 30
0.0
 11
9.593858400931708
 21
18.83069747603862
 31
0.0
  0
LINE
  5
9E70
330
1F
100
AcDbEntity
  8
DIM
100
AcDbLine
 10
9.513858400932956
 20
18.78568673247339
 30
0.0
 11
9.68233443113149
 21
18.88047712487678
 31
0.0
  0
LINE
  5
9E71
330
1F
100
AcDbEntity
  8
DIM
100
AcDbLine
 10
9.68233443113149
 20
18.88047712487678
 30
0.0
 11
9.852981616509062
 21
18.79198910653866
 31
0.0
  0
LINE
  5
9E72
330
1F
100
AcDbEntity
  8
DIM
100
AcDbLine
 10
9.513858400932956
 20
18.66568673247526
 30
0.0
 11
9.68233443113149
 21
18.76047712487866
 31
0.0
  0
LINE
  5
9E73
330
1F
100
AcDbEntity
  8
DIM
100
AcDbLine
 10
9.593858400931708
 20
18.71069747604048
 30
0.0
 11
9.593858400931708
 21
18.56128673247689
 31
0.0
  0
LINE
  5
9E74
330
1F
100
AcDbEntity
  8
DIM
100
AcDbLine
 10
9.68233443113149
 20
18.76047712487866
 30
0.0
 11
9.852981616509062
 21
18.67198910654053
 31
0.0
  0
SOLID
  5
9E75
330
1F
100
AcDbEntity
  8
DIM
100
AcDbTrace
 10
9.555458400932305
 20
19.49516909110089
 30
0.0
 11
9.63225840093111
 21
19.49516909110089
 31
0.0
 12
9.593858400931708
 22
19.72556909109729
 32
0.0
 13
9.593858400931708
 23
19.72556909109729
 33
0.0
  0
TEXT
  5
9E76
330
1F
100
AcDbEntity
  8
TEXT1
100
AcDbText
 10
6.45750125812357
 20
19.78985480538201
 30
0.0
 40
0.199999999996875
  1
Electrical Clearance/Wire Bending Space
  7
ROMANS
 72
     4
 11
9.600358400931604
 21
19.87556909109495
 31
0.0
100
AcDbText
  0
LINE
  5
9E77
330
1F
100
AcDbEntity
  8
HIDDEN1
100
AcDbLine
 10
6.418858400981318
 20
19.72556909109729
 30
0.0
 11
12.76885840088209
 21
19.72556909109729
 31
0.0
  0
LINE
  5
9E78
330
1F
100
AcDbEntity
  8
CENTER1
100
AcDbLine
 10
5.943711227594334
 20
11.58272996932298
 30
0.0
 11
6.483711227594341
 21
11.58272996932298
 31
0.0
  0
LINE
  5
9E79
330
1F
100
AcDbEntity
  8
CENTER1
100
AcDbLine
 10
6.213711227594338
 20
11.31272996932297
 30
0.0
 11
6.213711227594338
 21
11.85272996932297
 31
0.0
  0
LINE
  5
9E85
330
1F
100
AcDbEntity
  8
CENTER1
100
AcDbLine
 10
12.9688584009317
 20
11.76353335378796
 30
0.0
 11
12.9688584009317
 21
15.73117732682615
 31
0.0
  0
POINT
  5
9E8B
330
1F
100
AcDbEntity
  8
CENTER1
100
AcDbPoint
 10
10.3438584009317
 20
13.17617732682616
 30
0.0
  0
POINT
  5
9E8C
330
1F
100
AcDbEntity
  8
CENTER1
100
AcDbPoint
 10
12.9688584009317
 20
11.58353335378796
 30
0.0
  0
LINE
  5
9E90
330
1F
100
AcDbEntity
  8
DIM
100
AcDbLine
 10
9.593858400931708
 20
17.04350577845095
 30
0.0
 11
9.593858400931708
 21
17.30198162508855
 31
0.0
  0
LINE
  5
9E91
330
1F
100
AcDbEntity
  8
CENTER1
100
AcDbLine
 10
12.69885840093171
 20
11.58353335378796
 30
0.0
 11
13.2388584009317
 21
11.58353335378796
 31
0.0
  0
LINE
  5
9E92
330
1F
100
AcDbEntity
  8
CENTER1
100
AcDbLine
 10
12.9688584009317
 20
11.31353335378795
 30
0.0
 11
12.9688584009317
 21
11.85353335378795
 31
0.0
  0
INSERT
  5
9E93
330
1F
100
AcDbEntity
  8
HIDDEN1
100
AcDbBlockReference
  2
KAL_SIDE
 10
27.64170520159143
 20
9.247943169948516
 30
0.0
  0
INSERT
  5
9E94
330
1F
100
AcDbEntity
  8
HIDDEN1
100
AcDbBlockReference
  2
KAL_FRNT
 10
8.843858400931708
 20
13.17617732682616
 30
0.0
  0
LINE
  5
9E95
330
1F
100
AcDbEntity
  8
CONTINUOUS1
100
AcDbLine
 10
6.750108400931708
 20
11.04043701881805
 30
0.0
 11
6.750108400931708
 21
13.60617732682616
 31
0.0
  0
LINE
  5
9E96
330
1F
100
AcDbEntity
  8
CONTINUOUS1
100
AcDbLine
 10
6.843108400931711
 20
11.04043701881805
 30
0.0
 11
6.843108400931711
 21
13.60617732682616
 31
0.0
  0
LINE
  5
9E97
330
1F
100
AcDbEntity
  8
CONTINUOUS1
100
AcDbLine
 10
6.750108400931708
 20
5.606177326826159
 30
0.0
 11
6.750108400931708
 21
9.621181626627947
 31
0.0
  0
LINE
  5
9E98
330
1F
100
AcDbEntity
  8
CONTINUOUS1
100
AcDbLine
 10
6.843108400931711
 20
5.606177326826159
 30
0.0
 11
6.843108400931711
 21
9.621181626627947
 31
0.0
  0
LINE
  5
9E99
330
1F
100
AcDbEntity
  8
CONTINUOUS1
100
AcDbLine
 10
6.500108400931708
 20
8.649868767862759
 30
0.0
 11
6.500108400931708
 21
12.15384482437818
 31
0.0
  0
LINE
  5
9E9A
330
1F
100
AcDbEntity
  8
CONTINUOUS1
100
AcDbLine
 10
6.593108400931711
 20
8.649868767862759
 30
0.0
 11
6.593108400931711
 21
9.621181626627947
 31
0.0
  0
LINE
  5
9E9B
330
1F
100
AcDbEntity
  8
CONTINUOUS1
100
AcDbLine
 10
6.593108400931711
 20
8.649868767862759
 30
0.0
 11
6.500108400931708
 21
8.649868767862759
 31
0.0
  0
LINE
  5
9E9C
330
1F
100
AcDbEntity
  8
CONTINUOUS1
100
AcDbLine
 10
6.750108400931708
 20
9.356177326826159
 30
0.0
 11
6.593108400931711
 21
9.356177326826159
 31
0.0
  0
LINE
  5
9E9D
330
1F
100
AcDbEntity
  8
CONTINUOUS1
100
AcDbLine
 10
6.750108400931708
 20
9.606177326826159
 30
0.0
 11
6.593108400931711
 21
9.606177326826159
 31
0.0
  0
LINE
  5
9E9E
330
1F
100
AcDbEntity
  8
CONTINUOUS1
100
AcDbLine
 10
6.593108400931711
 20
11.04043701881805
 30
0.0
 11
6.593108400931711
 21
12.15384482437818
 31
0.0
  0
LINE
  5
9E9F
330
1F
100
AcDbEntity
  8
HIDDEN1
100
AcDbLine
 10
6.437608400931715
 20
12.0413728636233
 30
0.0
 11
6.437608400931715
 21
11.12408707502265
 31
0.0
  0
LINE
  5
9EA0
330
1F
100
AcDbEntity
  8
HIDDEN1
100
AcDbLine
 10
5.875108400931715
 20
11.87922996932297
 30
0.0
 11
6.437608400931722
 21
11.87922996932297
 31
0.0
  0
LINE
  5
9EA1
330
1F
100
AcDbEntity
  8
HIDDEN1
100
AcDbLine
 10
5.875108400931715
 20
11.28622996932297
 30
0.0
 11
6.437608400931722
 21
11.28622996932297
 31
0.0
  0
LINE
  5
9EA2
330
1F
100
AcDbEntity
  8
HIDDEN1
100
AcDbLine
 10
6.000108400931715
 20
11.87922996932297
 30
0.0
 11
6.000108400931715
 21
11.28622996932297
 31
0.0
  0
LINE
  5
9EA3
330
1F
100
AcDbEntity
  8
HIDDEN1
100
AcDbLine
 10
5.875108400931715
 20
11.87922996932297
 30
0.0
 11
5.875108400931715
 21
11.28622996932297
 31
0.0
  0
LINE
  5
9EA4
330
1F
100
AcDbEntity
  8
HIDDEN1
100
AcDbLine
 10
6.437608400931715
 20
11.12408707502265
 30
0.0
 11
6.500108400931715
 21
11.12408707502265
 31
0.0
  0
CIRCLE
  5
9EA5
330
1F
100
AcDbEntity
  8
HIDDEN1
100
AcDbCircle
 10
6.213711227594338
 20
11.58272996932298
 30
0.0
 40
0.1875
  0
LINE
  5
9EA6
330
1F
100
AcDbEntity
  8
CONTINUOUS1
100
AcDbLine
 10
6.593108400931711
 20
12.15384482437818
 30
0.0
 11
6.500108400931708
 21
12.15384482437818
 31
0.0
  0
LINE
  5
9EA7
330
1F
100
AcDbEntity
  8
HIDDEN1
100
AcDbLine
 10
6.437608400931715
 20
12.0413728636233
 30
0.0
 11
6.500108400931715
 21
12.0413728636233
 31
0.0
  0
LINE
  5
9EA8
330
1F
100
AcDbEntity
  8
CONTINUOUS1
100
AcDbLine
 10
6.750108400931708
 20
13.60617732682616
 30
0.0
 11
12.3758584009317
 21
13.60617732682616
 31
0.0
  0
LINE
  5
9EA9
330
1F
100
AcDbEntity
  8
CONTINUOUS1
100
AcDbLine
 10
12.4688584009317
 20
5.606177326826159
 30
0.0
 11
6.750108400931708
 21
5.606177326826159
 31
0.0
  0
LINE
  5
9EAA
330
1F
100
AcDbEntity
  8
CONTINUOUS1
100
AcDbLine
 10
12.4688584009317
 20
9.621181626627947
 30
0.0
 11
12.4688584009317
 21
5.606177326826159
 31
0.0
  0
LINE
  5
9EAB
330
1F
100
AcDbEntity
  8
CONTINUOUS1
100
AcDbLine
 10
13.2813584009317
 20
13.30102214195528
 30
0.0
 11
13.2813584009317
 21
13.23107155054774
 31
0.0
  0
LINE
  5
9EAC
330
1F
100
AcDbEntity
  8
CONTINUOUS1
100
AcDbLine
 10
12.3758584009317
 20
15.73117732682615
 30
0.0
 11
12.3758584009317
 21
11.04043701881805
 31
0.0
  0
LINE
  5
9EAD
330
1F
100
AcDbEntity
  8
CONTINUOUS1
100
AcDbLine
 10
13.0313584009317
 20
13.29016404550863
 30
0.0
 11
13.0313584009317
 21
13.0814399836889
 31
0.0
  0
LINE
  5
9EAE
330
1F
100
AcDbEntity
  8
CONTINUOUS1
100
AcDbLine
 10
13.1563584009317
 20
13.348452502778
 30
0.0
 11
13.1563584009317
 21
13.10044903140335
 31
0.0
  0
LWPOLYLINE
  5
9EAF
330
1F
100
AcDbEntity
  8
CONTINUOUS1
100
AcDbPolyline
 90
        4
 70
     0
 43
0.0
 10
13.34362297071077
 20
13.15095404696515
 42
0.2057154909372219
 10
13.32328344684349
 20
13.19829802249711
 42
0.0964748276262625
 10
13.23353212555677
 20
13.25543421740519
 42
0.0369037915977099
 10
13.1563584009317
 20
13.27937222450422
 42
0.0403749814539162
  0
LINE
  5
9EB5
330
1F
100
AcDbEntity
  8
CONTINUOUS1
100
AcDbLine
 10
12.65826687014121
 20
13.11618860750825
 30
0.0
 11
13.31669353955129
 21
13.42321800578766
 31
0.0
  0
LINE
  5
9EB6
330
1F
100
AcDbEntity
  8
CONTINUOUS1
100
AcDbLine
 10
12.61896337179933
 20
13.20047523170265
 30
0.0
 11
13.27739004120941
 21
13.50750462998207
 31
0.0
  0
LINE
  5
9EB7
330
1F
100
AcDbEntity
  8
CONTINUOUS1
100
AcDbLine
 10
12.6563584009317
 20
13.30102214195528
 30
0.0
 11
12.6563584009317
 21
13.21791282016402
 31
0.0
  0
LINE
  5
9EB8
330
1F
100
AcDbEntity
  8
CONTINUOUS1
100
AcDbLine
 10
12.4688584009317
 20
15.73117732682615
 30
0.0
 11
12.4688584009317
 21
11.04043701881805
 31
0.0
  0
LINE
  5
9EB9
330
1F
100
AcDbEntity
  8
CONTINUOUS1
100
AcDbLine
 10
12.6563584009317
 20
13.0694365195142
 30
0.0
 11
12.6563584009317
 21
8.649868767862759
 31
0.0
  0
LINE
  5
9EBA
330
1F
100
AcDbEntity
  8
CONTINUOUS1
100
AcDbLine
 10
12.56335840093171
 20
9.621181626627947
 30
0.0
 11
12.5633584009317
 21
8.649868767862759
 31
0.0
  0
LINE
  5
9EBB
330
1F
100
AcDbEntity
  8
CONTINUOUS1
100
AcDbLine
 10
12.6563584009317
 20
8.649868767862759
 30
0.0
 11
12.5633584009317
 21
8.649868767862759
 31
0.0
  0
LINE
  5
9EBC
330
1F
100
AcDbEntity
  8
CONTINUOUS1
100
AcDbLine
 10
12.56335840093171
 20
9.356177326826159
 30
0.0
 11
12.4688584009317
 21
9.356177326826159
 31
0.0
  0
LINE
  5
9EBD
330
1F
100
AcDbEntity
  8
CONTINUOUS1
100
AcDbLine
 10
12.56335840093171
 20
9.606177326826159
 30
0.0
 11
12.4688584009317
 21
9.606177326826159
 31
0.0
  0
LINE
  5
9EBE
330
1F
100
AcDbEntity
  8
CONTINUOUS1
100
AcDbLine
 10
13.4063584009317
 20
12.15464820884316
 30
0.0
 11
12.6563584009317
 21
12.15464820884316
 31
0.0
  0
LINE
  5
9EBF
330
1F
100
AcDbEntity
  8
CONTINUOUS1
100
AcDbLine
 10
13.2813584009317
 20
11.28703335378795
 30
0.0
 11
12.7188584009317
 21
11.28703335378795
 31
0.0
  0
LINE
  5
9EC0
330
1F
100
AcDbEntity
  8
CONTINUOUS1
100
AcDbLine
 10
13.2813584009317
 20
11.88003335378796
 30
0.0
 11
12.7188584009317
 21
11.88003335378796
 31
0.0
  0
CIRCLE
  5
9EC1
330
1F
100
AcDbEntity
  8
CONTINUOUS1
100
AcDbCircle
 10
12.9688584009317
 20
11.58353335378796
 30
0.0
 40
0.1875
  0
LWPOLYLINE
  5
9EC2
330
1F
100
AcDbEntity
  8
CONTINUOUS1
100
AcDbPolyline
 90
       11
 70
     0
 43
0.0
 10
12.70512444698302
 20
13.13803865443217
 42
0.1132279340873287
 10
12.71288770615373
 20
13.13002739396742
 42
0.078418625755473
 10
12.77949740645218
 20
13.10035272019953
 42
0.0379449296001938
 10
12.85827620003453
 20
13.08546850050198
 42
0.0277276533357846
 10
12.96774931409284
 20
13.07939296437914
 42
0.0277276533358053
 10
13.07722242815121
 20
13.08546850050199
 42
0.0379449296001839
 10
13.15600122173352
 20
13.10035272019953
 42
0.078418625755473
 10
13.22261092203196
 20
13.13002739396742
 42
0.254056967191924
 10
13.23397771502089
 20
13.15095404696515
 42
0.254056967191924
 10
13.22261092203196
 20
13.17188069996287
 42
0.078020810455845
 10
13.1563584009317
 20
13.20145906252694
 42
0.0379449296001705
  0
LWPOLYLINE
  5
9ECF
330
1F
100
AcDbEntity
  8
CONTINUOUS1
100
AcDbPolyline
 90
       10
 70
     0
 43
0.0
 10
12.59213972692043
 20
13.15681938930403
 42
0.0224996044397406
 10
12.59187565747493
 20
13.15095404696515
 42
0.2057154909372219
 10
12.6122151813422
 20
13.10361007143317
 42
0.0964748276262625
 10
12.70196650262893
 20
13.04647387652511
 42
0.0533341883429939
 10
12.81440755835666
 20
13.01559933191439
 42
0.040374981453907
 10
12.96774931409284
 20
13.00319677292979
 42
0.0403749814539084
 10
13.12109106982903
 20
13.01559933191439
 42
0.053334188343
 10
13.23353212555677
 20
13.04647387652511
 42
0.0964748276262721
 10
13.32328344684349
 20
13.10361007143318
 42
0.2057154909372196
 10
13.34362297071077
 20
13.15095404696515
 42
0.2057154909372219
  0
LINE
  5
9EDB
330
1F
100
AcDbEntity
  8
CONTINUOUS1
100
AcDbLine
 10
12.6563584009317
 20
13.00557827459952
 30
0.0
 11
13.2813584009317
 21
13.00557827459952
 31
0.0
  0
LINE
  5
9EDC
330
1F
100
AcDbEntity
  8
CONTINUOUS1
100
AcDbLine
 10
12.7188584009317
 20
12.04217624808828
 30
0.0
 11
12.7188584009317
 21
11.12489045948763
 31
0.0
  0
LINE
  5
9EDD
330
1F
100
AcDbEntity
  8
CONTINUOUS1
100
AcDbLine
 10
12.56335840093171
 20
12.77964820884316
 30
0.0
 11
12.56335840093171
 21
11.04043701881805
 31
0.0
  0
LINE
  5
9EDE
330
1F
100
AcDbEntity
  8
CONTINUOUS1
100
AcDbLine
 10
12.7188584009317
 20
11.12489045948763
 30
0.0
 11
12.6563584009317
 21
11.12489045948763
 31
0.0
  0
LINE
  5
9EDF
330
1F
100
AcDbEntity
  8
CONTINUOUS1
100
AcDbLine
 10
12.90635840093171
 20
12.54489820884316
 30
0.0
 11
12.90635840093171
 21
12.75557827459952
 31
0.0
  0
LINE
  5
9EE0
330
1F
100
AcDbEntity
  8
CONTINUOUS1
100
AcDbLine
 10
12.7188584009317
 20
12.04217624808828
 30
0.0
 11
12.6563584009317
 21
12.04217624808828
 31
0.0
  0
LINE
  5
9EE1
330
1F
100
AcDbEntity
  8
CONTINUOUS1
100
AcDbLine
 10
12.6563584009317
 20
12.41989820884316
 30
0.0
 11
12.7813584009317
 21
12.41989820884316
 31
0.0
  0
ARC
  5
9EE2
330
1F
100
AcDbEntity
  8
CONTINUOUS1
100
AcDbCircle
 10
12.7813584009317
 20
12.54489820884316
 30
0.0
 40
0.125
100
AcDbArc
 50
270.0
 51
0.0
  0
LINE
  5
9EE3
330
1F
100
AcDbEntity
  8
CONTINUOUS1
100
AcDbLine
 10
12.7813584009317
 20
13.17358713096988
 30
0.0
 11
12.7813584009317
 21
13.09985612380738
 31
0.0
  0
LINE
  5
9EE4
330
1F
100
AcDbEntity
  8
CONTINUOUS1
100
AcDbLine
 10
12.90635840093171
 20
13.23187558823925
 30
0.0
 11
12.90635840093171
 21
13.0812995703722
 31
0.0
  0
ARC
  5
9EE5
330
1F
100
AcDbEntity
  8
CONTINUOUS1
100
AcDbCircle
 10
12.63861512097027
 20
13.15833191960545
 30
0.0
 40
0.0464999999999995
100
AcDbArc
 50
114.9999999999966
 51
294.9999999999965
  0
ARC
  5
9EE6
330
1F
100
AcDbEntity
  8
CONTINUOUS1
100
AcDbCircle
 10
12.7813584009317
 20
12.75557827459952
 30
0.0
 40
0.125
100
AcDbArc
 50
0.0
 51
90.0
  0
LINE
  5
9EE7
330
1F
100
AcDbEntity
  8
CONTINUOUS1
100
AcDbLine
 10
12.6563584009317
 20
12.77964820884316
 30
0.0
 11
12.56335840093171
 21
12.77964820884316
 31
0.0
  0
LINE
  5
9EE8
330
1F
100
AcDbEntity
  8
CONTINUOUS1
100
AcDbLine
 10
12.6563584009317
 20
12.88057827459952
 30
0.0
 11
12.7813584009317
 21
12.88057827459952
 31
0.0
  0
LINE
  5
9EE9
330
1F
100
AcDbEntity
  8
CONTINUOUS1
100
AcDbLine
 10
13.21885840093171
 20
11.88003335378795
 30
0.0
 11
13.21885840093171
 21
11.28703335378795
 31
0.0
  0
LINE
  5
9EEA
330
1F
100
AcDbEntity
  8
CONTINUOUS1
100
AcDbLine
 10
13.2813584009317
 20
11.88003335378796
 30
0.0
 11
13.2813584009317
 21
11.28703335378795
 31
0.0
  0
LINE
  5
9EEB
330
1F
100
AcDbEntity
  8
CONTINUOUS1
100
AcDbLine
 10
13.4063584009317
 20
12.68514820884316
 30
0.0
 11
13.4063584009317
 21
12.15464820884316
 31
0.0
  0
LINE
  5
9EEC
330
1F
100
AcDbEntity
  8
CONTINUOUS1
100
AcDbLine
 10
13.3133584009317
 20
12.79489820884316
 30
0.0
 11
13.3133584009317
 21
12.15464820884316
 31
0.0
  0
LINE
  5
9EED
330
1F
100
AcDbEntity
  8
CONTINUOUS1
100
AcDbLine
 10
13.2813584009317
 20
13.07083654338255
 30
0.0
 11
13.2813584009317
 21
12.15464820884316
 31
0.0
  0
LINE
  5
9EEE
330
1F
100
AcDbEntity
  8
CONTINUOUS1
100
AcDbLine
 10
13.0313584009317
 20
12.54489820884316
 30
0.0
 11
13.0313584009317
 21
12.75557827459952
 31
0.0
  0
LINE
  5
9EEF
330
1F
100
AcDbEntity
  8
CONTINUOUS1
100
AcDbLine
 10
13.1563584009317
 20
12.41989820884316
 30
0.0
 11
13.2813584009317
 21
12.41989820884316
 31
0.0
  0
ARC
  5
9EF0
330
1F
100
AcDbEntity
  8
CONTINUOUS1
100
AcDbCircle
 10
13.1563584009317
 20
12.54489820884316
 30
0.0
 40
0.125
100
AcDbArc
 50
180.0
 51
270.0
  0
LINE
  5
9EF1
330
1F
100
AcDbEntity
  8
CONTINUOUS1
100
AcDbLine
 10
13.2813584009317
 20
12.79489820884316
 30
0.0
 11
13.3133584009317
 21
12.79489820884316
 31
0.0
  0
LINE
  5
9EF2
330
1F
100
AcDbEntity
  8
CONTINUOUS1
100
AcDbLine
 10
13.4063584009317
 20
12.68514820884316
 30
0.0
 11
13.2813584009317
 21
12.68514820884316
 31
0.0
  0
LINE
  5
9EF3
330
1F
100
AcDbEntity
  8
CONTINUOUS1
100
AcDbLine
 10
13.1563584009317
 20
12.88057827459952
 30
0.0
 11
13.2813584009317
 21
12.88057827459952
 31
0.0
  0
ARC
  5
9EF4
330
1F
100
AcDbEntity
  8
CONTINUOUS1
100
AcDbCircle
 10
13.1563584009317
 20
12.75557827459952
 30
0.0
 40
0.125
100
AcDbArc
 50
90.0
 51
180.0
  0
LINE
  5
9EF5
330
1F
100
AcDbEntity
  8
CONTINUOUS1
100
AcDbLine
 10
13.6338584009317
 20
15.73117732682615
 30
0.0
 11
13.6338584009317
 21
14.85617732682616
 31
0.0
  0
LINE
  5
9EF6
330
1F
100
AcDbEntity
  8
CONTINUOUS1
100
AcDbLine
 10
12.56185840093171
 20
15.73117732682615
 30
0.0
 11
12.56185840093171
 21
14.85617732682616
 31
0.0
  0
LINE
  5
9EF7
330
1F
100
AcDbEntity
  8
CONTINUOUS1
100
AcDbLine
 10
13.6338584009317
 20
14.85617732682616
 30
0.0
 11
12.3758584009317
 21
14.85617732682616
 31
0.0
  0
LINE
  5
9EF8
330
1F
100
AcDbEntity
  8
CONTINUOUS1
100
AcDbLine
 10
12.65826687014121
 20
14.68746679292546
 30
0.0
 11
13.02006777765413
 21
14.85617732682616
 31
0.0
  0
LINE
  5
9EF9
330
1F
100
AcDbEntity
  8
CONTINUOUS1
100
AcDbLine
 10
12.61896337179933
 20
14.27175341711986
 30
0.0
 11
13.27739004120941
 21
14.57878281539927
 31
0.0
  0
LINE
  5
9EFA
330
1F
100
AcDbEntity
  8
CONTINUOUS1
100
AcDbLine
 10
12.65826687014121
 20
14.43746679292545
 30
0.0
 11
13.31669353955129
 21
14.74449619120487
 31
0.0
  0
LINE
  5
9EFB
330
1F
100
AcDbEntity
  8
CONTINUOUS1
100
AcDbLine
 10
12.61896337179933
 20
14.52175341711986
 30
0.0
 11
13.27739004120941
 21
14.82878281539927
 31
0.0
  0
LINE
  5
9EFC
330
1F
100
AcDbEntity
  8
CONTINUOUS1
100
AcDbLine
 10
12.65826687014121
 20
13.43746679292546
 30
0.0
 11
13.31669353955129
 21
13.74449619120487
 31
0.0
  0
LINE
  5
9EFD
330
1F
100
AcDbEntity
  8
CONTINUOUS1
100
AcDbLine
 10
12.61896337179933
 20
13.52175341711986
 30
0.0
 11
13.27739004120941
 21
13.82878281539927
 31
0.0
  0
LINE
  5
9EFE
330
1F
100
AcDbEntity
  8
CONTINUOUS1
100
AcDbLine
 10
12.65826687014121
 20
13.68746679292546
 30
0.0
 11
13.31669353955129
 21
13.99449619120487
 31
0.0
  0
LINE
  5
9EFF
330
1F
100
AcDbEntity
  8
CONTINUOUS1
100
AcDbLine
 10
12.61896337179933
 20
13.77175341711986
 30
0.0
 11
13.27739004120941
 21
14.07878281539927
 31
0.0
  0
LINE
  5
9F00
330
1F
100
AcDbEntity
  8
CONTINUOUS1
100
AcDbLine
 10
12.65826687014121
 20
13.93746679292545
 30
0.0
 11
13.31669353955129
 21
14.24449619120487
 31
0.0
  0
LINE
  5
9F01
330
1F
100
AcDbEntity
  8
CONTINUOUS1
100
AcDbLine
 10
12.61896337179933
 20
14.02175341711986
 30
0.0
 11
13.27739004120941
 21
14.32878281539927
 31
0.0
  0
LINE
  5
9F02
330
1F
100
AcDbEntity
  8
CONTINUOUS1
100
AcDbLine
 10
12.65826687014121
 20
14.18746679292546
 30
0.0
 11
13.31669353955129
 21
14.49449619120487
 31
0.0
  0
LINE
  5
9F03
330
1F
100
AcDbEntity
  8
CONTINUOUS1
100
AcDbLine
 10
12.90635840093171
 20
14.40576792011997
 30
0.0
 11
12.90635840093171
 21
14.55315377365645
 31
0.0
  0
LINE
  5
9F04
330
1F
100
AcDbEntity
  8
CONTINUOUS1
100
AcDbLine
 10
12.7813584009317
 20
13.84747946285059
 30
0.0
 11
12.7813584009317
 21
13.99486531638708
 31
0.0
  0
LINE
  5
9F05
330
1F
100
AcDbEntity
  8
CONTINUOUS1
100
AcDbLine
 10
12.65826687014121
 20
13.68746679292545
 30
0.0
 11
12.7813584009317
 21
13.6981283232984
 31
0.0
  0
LINE
  5
9F06
330
1F
100
AcDbEntity
  8
CONTINUOUS1
100
AcDbLine
 10
12.65826687014121
 20
13.43746679292545
 30
0.0
 11
12.7813584009317
 21
13.43480301106152
 31
0.0
  0
LINE
  5
9F07
330
1F
100
AcDbEntity
  8
CONTINUOUS1
100
AcDbLine
 10
12.83458691667193
 20
13.30102214195528
 30
0.0
 11
12.6563584009317
 21
13.30102214195528
 31
0.0
  0
LINE
  5
9F08
330
1F
100
AcDbEntity
  8
CONTINUOUS1
100
AcDbLine
 10
12.90635840093171
 20
13.65576792011997
 30
0.0
 11
12.90635840093171
 21
13.80315377365645
 31
0.0
  0
ARC
  5
9F09
330
1F
100
AcDbEntity
  8
CONTINUOUS1
100
AcDbCircle
 10
12.63861512097027
 20
13.72961010502266
 30
0.0
 40
0.0464999999999995
100
AcDbArc
 50
114.9999999999966
 51
294.9999999999965
  0
LINE
  5
9F0A
330
1F
100
AcDbEntity
  8
CONTINUOUS1
100
AcDbLine
 10
12.7813584009317
 20
13.49486531638708
 30
0.0
 11
12.7813584009317
 21
13.27620127743339
 31
0.0
  0
LINE
  5
9F0B
330
1F
100
AcDbEntity
  8
CONTINUOUS1
100
AcDbLine
 10
12.90635840093171
 20
13.55315377365645
 30
0.0
 11
12.90635840093171
 21
13.33448973470276
 31
0.0
  0
ARC
  5
9F0C
330
1F
100
AcDbEntity
  8
CONTINUOUS1
100
AcDbCircle
 10
12.63861512097027
 20
13.47961010502266
 30
0.0
 40
0.0464999999999995
100
AcDbArc
 50
114.9999999999966
 51
294.9999999999965
  0
LINE
  5
9F0D
330
1F
100
AcDbEntity
  8
CONTINUOUS1
100
AcDbLine
 10
12.7813584009317
 20
13.59747946285059
 30
0.0
 11
12.7813584009317
 21
13.74486531638708
 31
0.0
  0
LINE
  5
9F0E
330
1F
100
AcDbEntity
  8
CONTINUOUS1
100
AcDbLine
 10
12.65826687014121
 20
14.43746679292545
 30
0.0
 11
12.7813584009317
 21
14.4481283232984
 31
0.0
  0
LINE
  5
9F0F
330
1F
100
AcDbEntity
  8
CONTINUOUS1
100
AcDbLine
 10
12.65826687014121
 20
14.18746679292546
 30
0.0
 11
12.7813584009317
 21
14.1981283232984
 31
0.0
  0
LINE
  5
9F10
330
1F
100
AcDbEntity
  8
CONTINUOUS1
100
AcDbLine
 10
12.65826687014121
 20
13.93746679292545
 30
0.0
 11
12.7813584009317
 21
13.9481283232984
 31
0.0
  0
LINE
  5
9F11
330
1F
100
AcDbEntity
  8
CONTINUOUS1
100
AcDbLine
 10
12.7813584009317
 20
14.34747946285059
 30
0.0
 11
12.7813584009317
 21
14.49486531638708
 31
0.0
  0
ARC
  5
9F12
330
1F
100
AcDbEntity
  8
CONTINUOUS1
100
AcDbCircle
 10
12.63861512097027
 20
14.47961010502266
 30
0.0
 40
0.0464999999999995
100
AcDbArc
 50
114.9999999999966
 51
294.9999999999965
  0
LINE
  5
9F13
330
1F
100
AcDbEntity
  8
CONTINUOUS1
100
AcDbLine
 10
12.90635840093171
 20
13.90576792011997
 30
0.0
 11
12.90635840093171
 21
14.05315377365645
 31
0.0
  0
ARC
  5
9F14
330
1F
100
AcDbEntity
  8
CONTINUOUS1
100
AcDbCircle
 10
12.63861512097027
 20
13.97961010502266
 30
0.0
 40
0.0464999999999995
100
AcDbArc
 50
114.9999999999966
 51
294.9999999999965
  0
ARC
  5
9F15
330
1F
100
AcDbEntity
  8
CONTINUOUS1
100
AcDbCircle
 10
12.63861512097027
 20
14.22961010502266
 30
0.0
 40
0.0464999999999995
100
AcDbArc
 50
114.9999999999966
 51
294.9999999999965
  0
LINE
  5
9F16
330
1F
100
AcDbEntity
  8
CONTINUOUS1
100
AcDbLine
 10
12.90635840093171
 20
14.15576792011997
 30
0.0
 11
12.90635840093171
 21
14.30315377365645
 31
0.0
  0
LINE
  5
9F17
330
1F
100
AcDbEntity
  8
CONTINUOUS1
100
AcDbLine
 10
12.7813584009317
 20
14.09747946285059
 30
0.0
 11
12.7813584009317
 21
14.24486531638708
 31
0.0
  0
LINE
  5
9F18
330
1F
100
AcDbEntity
  8
CONTINUOUS1
100
AcDbLine
 10
12.7813584009317
 20
14.6981283232984
 30
0.0
 11
12.65826687014121
 21
14.68746679292545
 31
0.0
  0
LINE
  5
9F19
330
1F
100
AcDbEntity
  8
CONTINUOUS1
100
AcDbLine
 10
12.7813584009317
 20
14.84747946285059
 30
0.0
 11
12.7813584009317
 21
14.85617732682616
 31
0.0
  0
LINE
  5
9F1A
330
1F
100
AcDbEntity
  8
CONTINUOUS1
100
AcDbLine
 10
12.7813584009317
 20
14.59747946285059
 30
0.0
 11
12.7813584009317
 21
14.74486531638708
 31
0.0
  0
ARC
  5
9F1B
330
1F
100
AcDbEntity
  8
CONTINUOUS1
100
AcDbCircle
 10
12.63861512097027
 20
14.72961010502266
 30
0.0
 40
0.0464999999999995
100
AcDbArc
 50
114.9999999999966
 51
294.9999999999965
  0
LINE
  5
9F1C
330
1F
100
AcDbEntity
  8
CONTINUOUS1
100
AcDbLine
 10
12.61896337179933
 20
14.77175341711986
 30
0.0
 11
12.80001103042095
 21
14.85617732682616
 31
0.0
  0
LINE
  5
9F1D
330
1F
100
AcDbEntity
  8
CONTINUOUS1
100
AcDbLine
 10
12.90635840093171
 20
14.65576792011997
 30
0.0
 11
12.90635840093171
 21
14.80315377365646
 31
0.0
  0
ARC
  5
9F1E
330
1F
100
AcDbEntity
  8
CONTINUOUS1
100
AcDbCircle
 10
13.29704179038035
 20
14.53663950330207
 30
0.0
 40
0.0464999999999996
100
AcDbArc
 50
294.9999999999965
 51
114.9999999999966
  0
LINE
  5
9F1F
330
1F
100
AcDbEntity
  8
CONTINUOUS1
100
AcDbLine
 10
13.1563584009317
 20
14.52234483465872
 30
0.0
 11
13.1563584009317
 21
14.66973068819521
 31
0.0
  0
LINE
  5
9F20
330
1F
100
AcDbEntity
  8
CONTINUOUS1
100
AcDbLine
 10
13.0313584009317
 20
14.46405637738934
 30
0.0
 11
13.0313584009317
 21
14.61144223092583
 31
0.0
  0
LINE
  5
9F21
330
1F
100
AcDbEntity
  8
CONTINUOUS1
100
AcDbLine
 10
13.1563584009317
 20
13.77234483465872
 30
0.0
 11
13.1563584009317
 21
13.91973068819521
 31
0.0
  0
ARC
  5
9F22
330
1F
100
AcDbEntity
  8
CONTINUOUS1
100
AcDbCircle
 10
13.29704179038035
 20
13.46536131788486
 30
0.0
 40
0.0464999999999996
100
AcDbArc
 50
294.9999999999965
 51
114.9999999999966
  0
ARC
  5
9F23
330
1F
100
AcDbEntity
  8
CONTINUOUS1
100
AcDbCircle
 10
13.29704179038035
 20
13.78663950330207
 30
0.0
 40
0.0464999999999996
100
AcDbArc
 50
294.9999999999965
 51
114.9999999999966
  0
LINE
  5
9F24
330
1F
100
AcDbEntity
  8
CONTINUOUS1
100
AcDbLine
 10
13.1563584009317
 20
13.81829970173076
 30
0.0
 11
13.27739004120941
 21
13.82878281539927
 31
0.0
  0
LINE
  5
9F25
330
1F
100
AcDbEntity
  8
CONTINUOUS1
100
AcDbLine
 10
13.27739004120941
 20
13.50750462998207
 30
0.0
 11
13.1563584009317
 21
13.51012383445749
 31
0.0
  0
LINE
  5
9F26
330
1F
100
AcDbEntity
  8
CONTINUOUS1
100
AcDbLine
 10
13.2813584009317
 20
13.30102214195528
 30
0.0
 11
13.05464366390509
 21
13.30102214195528
 31
0.0
  0
LINE
  5
9F27
330
1F
100
AcDbEntity
  8
CONTINUOUS1
100
AcDbLine
 10
13.1563584009317
 20
13.66973068819521
 30
0.0
 11
13.1563584009317
 21
13.45106664924151
 31
0.0
  0
LINE
  5
9F28
330
1F
100
AcDbEntity
  8
CONTINUOUS1
100
AcDbLine
 10
13.0313584009317
 20
13.71405637738934
 30
0.0
 11
13.0313584009317
 21
13.86144223092583
 31
0.0
  0
LINE
  5
9F29
330
1F
100
AcDbEntity
  8
CONTINUOUS1
100
AcDbLine
 10
13.0313584009317
 20
13.61144223092583
 30
0.0
 11
13.0313584009317
 21
13.39277819197214
 31
0.0
  0
ARC
  5
9F2A
330
1F
100
AcDbEntity
  8
CONTINUOUS1
100
AcDbCircle
 10
13.29704179038035
 20
14.28663950330207
 30
0.0
 40
0.0464999999999996
100
AcDbArc
 50
294.9999999999965
 51
114.9999999999966
  0
ARC
  5
9F2B
330
1F
100
AcDbEntity
  8
CONTINUOUS1
100
AcDbCircle
 10
13.29704179038035
 20
14.03663950330207
 30
0.0
 40
0.0464999999999996
100
AcDbArc
 50
294.9999999999965
 51
114.9999999999966
  0
LINE
  5
9F2C
330
1F
100
AcDbEntity
  8
CONTINUOUS1
100
AcDbLine
 10
13.1563584009317
 20
14.31829970173075
 30
0.0
 11
13.27739004120941
 21
14.32878281539927
 31
0.0
  0
LINE
  5
9F2D
330
1F
100
AcDbEntity
  8
CONTINUOUS1
100
AcDbLine
 10
13.1563584009317
 20
14.06829970173076
 30
0.0
 11
13.27739004120941
 21
14.07878281539927
 31
0.0
  0
LINE
  5
9F2E
330
1F
100
AcDbEntity
  8
CONTINUOUS1
100
AcDbLine
 10
13.1563584009317
 20
14.27234483465872
 30
0.0
 11
13.1563584009317
 21
14.41973068819521
 31
0.0
  0
LINE
  5
9F2F
330
1F
100
AcDbEntity
  8
CONTINUOUS1
100
AcDbLine
 10
13.1563584009317
 20
14.02234483465872
 30
0.0
 11
13.1563584009317
 21
14.16973068819521
 31
0.0
  0
LINE
  5
9F30
330
1F
100
AcDbEntity
  8
CONTINUOUS1
100
AcDbLine
 10
13.0313584009317
 20
13.96405637738934
 30
0.0
 11
13.0313584009317
 21
14.11144223092583
 31
0.0
  0
LINE
  5
9F31
330
1F
100
AcDbEntity
  8
CONTINUOUS1
100
AcDbLine
 10
13.0313584009317
 20
14.21405637738934
 30
0.0
 11
13.0313584009317
 21
14.36144223092583
 31
0.0
  0
ARC
  5
9F32
330
1F
100
AcDbEntity
  8
CONTINUOUS1
100
AcDbCircle
 10
13.29704179038035
 20
14.78663950330207
 30
0.0
 40
0.0464999999999996
100
AcDbArc
 50
294.9999999999965
 51
114.9999999999966
  0
LINE
  5
9F33
330
1F
100
AcDbEntity
  8
CONTINUOUS1
100
AcDbLine
 10
13.27739004120941
 20
14.82878281539927
 30
0.0
 11
13.1563584009317
 21
14.81829970173076
 31
0.0
  0
LINE
  5
9F34
330
1F
100
AcDbEntity
  8
CONTINUOUS1
100
AcDbLine
 10
13.1563584009317
 20
14.56829970173076
 30
0.0
 11
13.27739004120941
 21
14.57878281539927
 31
0.0
  0
LINE
  5
9F35
330
1F
100
AcDbEntity
  8
CONTINUOUS1
100
AcDbLine
 10
13.1563584009317
 20
14.77234483465872
 30
0.0
 11
13.1563584009317
 21
14.85617732682616
 31
0.0
  0
LINE
  5
9F36
330
1F
100
AcDbEntity
  8
CONTINUOUS1
100
AcDbLine
 10
13.0313584009317
 20
14.71405637738934
 30
0.0
 11
13.0313584009317
 21
14.85617732682616
 31
0.0
  0
LINE
  5
9F37
330
1F
100
AcDbEntity
  8
CONTINUOUS1
100
AcDbLine
 10
13.6338584009317
 20
15.73117732682615
 30
0.0
 11
12.3758584009317
 21
15.73117732682615
 31
0.0
  0
LINE
  5
9F38
330
1F
100
AcDbEntity
  8
CONTINUOUS1
100
AcDbLine
 10
12.4688584009317
 20
15.73117732682615
 30
0.0
 11
12.3758584009317
 21
15.73117732682615
 31
0.0
  0
LINE
  5
9F39
330
1F
100
AcDbEntity
  8
CONTINUOUS2
100
AcDbLine
 10
6.593108400931711
 20
11.04043701881805
 30
0.0
 11
6.750108400931708
 21
11.04043701881805
 31
0.0
  0
LINE
  5
9F3A
330
1F
100
AcDbEntity
  8
CONTINUOUS2
100
AcDbLine
 10
13.1563584009317
 20
14.66973068819521
 30
0.0
 11
13.31669353955129
 21
14.74449619120487
 31
0.0
  0
LINE
  5
9F3B
330
1F
100
AcDbEntity
  8
CONTINUOUS2
100
AcDbLine
 10
13.1563584009317
 20
14.41973068819521
 30
0.0
 11
13.31669353955129
 21
14.49449619120487
 31
0.0
  0
LINE
  5
9F3C
330
1F
100
AcDbEntity
  8
CONTINUOUS2
100
AcDbLine
 10
13.1563584009317
 20
13.66973068819521
 30
0.0
 11
13.31669353955129
 21
13.74449619120487
 31
0.0
  0
LINE
  5
9F3D
330
1F
100
AcDbEntity
  8
CONTINUOUS2
100
AcDbLine
 10
13.1563584009317
 20
13.348452502778
 30
0.0
 11
13.31669353955129
 21
13.42321800578766
 31
0.0
  0
LWPOLYLINE
  5
9F3E
330
1F
100
AcDbEntity
  8
CONTINUOUS2
100
AcDbPolyline
 90
        3
 70
     0
 43
0.0
 10
13.34362297071077
 20
13.15095404696515
 42
0.2057154909372219
 10
13.32328344684349
 20
13.19829802249711
 42
0.0479180036465587
 10
13.2813584009317
 20
13.23107155054774
 42
0.0369037915977099
  0
LWPOLYLINE
  5
9F43
330
1F
100
AcDbEntity
  8
CONTINUOUS2
100
AcDbPolyline
 90
        3
 70
     0
 43
0.0
 10
13.2813584009317
 20
13.07083654338255
 42
0.0479180036465647
 10
13.32328344684349
 20
13.10361007143318
 42
0.2057154909372196
 10
13.34362297071077
 20
13.15095404696515
 42
0.2057154909372219
  0
LINE
  5
9F48
330
1F
100
AcDbEntity
  8
CONTINUOUS2
100
AcDbLine
 10
13.1563584009317
 20
13.91973068819521
 30
0.0
 11
13.31669353955129
 21
13.99449619120487
 31
0.0
  0
LINE
  5
9F49
330
1F
100
AcDbEntity
  8
CONTINUOUS2
100
AcDbLine
 10
13.1563584009317
 20
14.16973068819521
 30
0.0
 11
13.31669353955129
 21
14.24449619120487
 31
0.0
  0
LINE
  5
9F4A
330
1F
100
AcDbEntity
  8
CONTINUOUS2
100
AcDbLine
 10
12.6563584009317
 20
11.12489045948763
 30
0.0
 11
12.6563584009317
 21
8.649868767862759
 31
0.0
  0
LINE
  5
9F4B
330
1F
100
AcDbEntity
  8
CONTINUOUS2
100
AcDbLine
 10
12.7188584009317
 20
11.28703335378795
 30
0.0
 11
12.7188584009317
 21
11.12489045948763
 31
0.0
  0
LINE
  5
9F4C
330
1F
100
AcDbEntity
  8
CONTINUOUS2
100
AcDbLine
 10
12.6563584009317
 20
12.15464820884316
 30
0.0
 11
12.6563584009317
 21
12.04217624808828
 31
0.0
  0
LINE
  5
9F4D
330
1F
100
AcDbEntity
  8
CONTINUOUS1
100
AcDbLine
 10
9.093858400931708
 20
9.949312665509488
 30
0.0
 11
10.0938584009317
 21
9.949312665509488
 31
0.0
  0
LINE
  5
9F4E
330
1F
100
AcDbEntity
  8
CENTER1
100
AcDbLine
 10
8.843858400931708
 20
13.17617732682616
 30
0.0
 11
10.3438584009317
 21
13.17617732682616
 31
0.0
  0
ARC
  5
9F4F
330
1F
100
AcDbEntity
  8
CONTINUOUS1
100
AcDbCircle
 10
26.57146011552032
 20
11.22473467086511
 30
0.0
 40
0.4586428943003256
100
AcDbArc
 50
36.67871650197831
 51
181.3064467561284
  0
CIRCLE
  5
9F50
330
1F
100
AcDbEntity
  8
CONTINUOUS1
100
AcDbCircle
 10
26.57146011552032
 20
11.22473467086511
 30
0.0
 40
0.2965
  0
ARC
  5
9F51
330
1F
100
AcDbEntity
  8
CONTINUOUS1
100
AcDbCircle
 10
26.92726064624389
 20
11.48973467086511
 30
0.0
 40
0.015
100
AcDbArc
 50
270.0
 51
36.67871650197695
  0
LINE
  5
9F52
330
1F
100
AcDbEntity
  8
CONTINUOUS1
100
AcDbLine
 10
26.73087231706086
 20
11.47473467086511
 30
0.0
 11
26.92726064624389
 21
11.47473467086511
 31
0.0
  0
ARC
  5
9F53
330
1F
100
AcDbEntity
  8
CONTINUOUS1
100
AcDbCircle
 10
26.57146011552032
 20
11.22473467086511
 30
0.0
 40
0.3656428943003255
100
AcDbArc
 50
89.64211524097654
 51
168.6320105315797
  0
LINE
  5
9F54
330
1F
100
AcDbEntity
  8
CONTINUOUS1
100
AcDbLine
 10
26.60600070336636
 20
11.51921590590607
 30
0.0
 11
26.58802791011066
 21
11.57964677807209
 31
0.0
  0
ARC
  5
9F55
330
1F
100
AcDbEntity
  8
CONTINUOUS1
100
AcDbCircle
 10
26.57365031055357
 20
11.57537072487129
 30
0.0
 40
0.015
100
AcDbArc
 50
16.56304562252962
 51
89.64211524097448
  0
ARC
  5
9F56
330
1F
100
AcDbEntity
  8
CONTINUOUS1
100
AcDbCircle
 10
26.57146011552032
 20
11.22473467086511
 30
0.0
 40
0.3656428943003255
100
AcDbArc
 50
191.3679894684202
 51
270.3578847590234
  0
ARC
  5
9F57
330
1F
100
AcDbEntity
  8
CONTINUOUS1
100
AcDbCircle
 10
26.22769632614817
 20
11.15561957526494
 30
0.0
 40
0.015
100
AcDbArc
 50
118.288919849973
 51
191.3679894684178
  0
LINE
  5
9F58
330
1F
100
AcDbEntity
  8
CONTINUOUS1
100
AcDbLine
 10
26.27610470413443
 20
11.19870716685344
 30
0.0
 11
26.22058755721343
 21
11.16882811054454
 31
0.0
  0
LINE
  5
9F59
330
1F
100
AcDbEntity
  8
CONTINUOUS1
100
AcDbLine
 10
26.27610470413443
 20
11.25076217487678
 30
0.0
 11
26.22058755721343
 21
11.28064123118567
 31
0.0
  0
ARC
  5
9F5A
330
1F
100
AcDbEntity
  8
CONTINUOUS1
100
AcDbCircle
 10
26.22769632614817
 20
11.29384976646528
 30
0.0
 40
0.015
100
AcDbArc
 50
168.6320105315821
 51
241.7110801500269
  0
ARC
  5
9F5B
330
1F
100
AcDbEntity
  8
CONTINUOUS1
100
AcDbCircle
 10
26.57146011552032
 20
11.22473467086511
 30
0.0
 40
0.4586428943003256
100
AcDbArc
 50
181.3064467561284
 51
323.3212834980216
  0
LINE
  5
9F5C
330
1F
100
AcDbEntity
  8
CONTINUOUS1
100
AcDbLine
 10
26.60600070336636
 20
10.93025343582415
 30
0.0
 11
26.58802791011066
 21
10.86982256365812
 31
0.0
  0
ARC
  5
9F5D
330
1F
100
AcDbEntity
  8
CONTINUOUS1
100
AcDbCircle
 10
26.57365031055357
 20
10.87409861685892
 30
0.0
 40
0.015
100
AcDbArc
 50
270.3578847590254
 51
343.4369543774703
  0
ARC
  5
9F5E
330
1F
100
AcDbEntity
  8
CONTINUOUS1
100
AcDbCircle
 10
26.92726064624389
 20
10.95973467086511
 30
0.0
 40
0.015
100
AcDbArc
 50
323.321283498023
 51
90.0
  0
LINE
  5
9F5F
330
1F
100
AcDbEntity
  8
CONTINUOUS1
100
AcDbLine
 10
26.73087231706086
 20
10.97473467086511
 30
0.0
 11
26.92726064624389
 21
10.97473467086511
 31
0.0
  0
DIMENSION
  5
9F60
330
1F
100
AcDbEntity
  8
DIM
100
AcDbDimension
  2
*D12
 10
6.500108400931708
 20
15.75613718542533
 30
0.0
 11
7.671983400931708
 21
15.75613718542533
 31
0.0
 70
   160
  1
\P<>
  3
SCHNEIDERELECTRIC
100
AcDbAlignedDimension
 13
8.843858400931708
 23
13.17617732682616
 33
0.0
 14
6.500108400931708
 24
12.15384482437818
 34
0.0
100
AcDbRotatedDimension
1001
ACAD
1000
DSTYLE
1002
{
1070
    40
1040
2.0
1002
}
  0
POINT
  5
9F67
330
1F
100
AcDbEntity
  8
CENTER1
100
AcDbPoint
 10
10.3438584009317
 20
13.17617732682616
 30
0.0
  0
LINE
  5
9F6D
330
1F
100
AcDbEntity
  8
CONTINUOUS1
100
AcDbLine
 10
27.82470520159142
 20
2.311485686601315
 30
0.0
 11
27.82470520159142
 21
17.88068148189934
 31
0.0
  0
LINE
  5
9F6E
330
1F
100
AcDbEntity
  8
CONTINUOUS1
100
AcDbLine
 10
27.73470520159142
 20
2.311485686601315
 30
0.0
 11
27.73470520159142
 21
17.88068148189934
 31
0.0
  0
POLYLINE
  5
9F6F
330
1F
100
AcDbEntity
  8
CONTINUOUS1
100
AcDb2dPolyline
 66
     1
 10
0.0
 20
0.0
 30
0.0
 70
     4
 75
     6
  0
VERTEX
  5
9F70
330
9F6F
100
AcDbEntity
  8
CONTINUOUS1
100
AcDbVertex
100
AcDb2dVertex
 10
27.73470520159142
 20
2.311485686601315
 30
0.0
 70
    16
  0
VERTEX
  5
9F71
330
9F6F
100
AcDbEntity
  8
CONTINUOUS1
100
AcDbVertex
100
AcDb2dVertex
 10
27.73470520159142
 20
2.311485686601315
 30
0.0
 70
     8
  0
VERTEX
  5
9F72
330
9F6F
100
AcDbEntity
  8
CONTINUOUS1
100
AcDbVertex
100
AcDb2dVertex
 10
27.73888603659608
 20
2.31301597615015
 30
0.0
 70
     8
  0
VERTEX
  5
9F73
330
9F6F
100
AcDbEntity
  8
CONTINUOUS1
100
AcDbVertex
100
AcDb2dVertex
 10
27.74213809273073
 20
2.317198767583629
 30
0.0
 70
     8
  0
VERTEX
  5
9F74
330
9F6F
100
AcDbEntity
  8
CONTINUOUS1
100
AcDbVertex
100
AcDb2dVertex
 10
27.74471503607514
 20
2.323421945082223
 30
0.0
 70
     8
  0
VERTEX
  5
9F75
330
9F6F
100
AcDbEntity
  8
CONTINUOUS1
100
AcDbVertex
100
AcDb2dVertex
 10
27.74687053270923
 20
2.331073392826395
 30
0.0
 70
     8
  0
VERTEX
  5
9F76
330
9F6F
100
AcDbEntity
  8
CONTINUOUS1
100
AcDbVertex
100
AcDb2dVertex
 10
27.74885824871286
 20
2.33954099499661
 30
0.0
 70
     8
  0
VERTEX
  5
9F77
330
9F6F
100
AcDbEntity
  8
CONTINUOUS1
100
AcDbVertex
100
AcDb2dVertex
 10
27.75093185016586
 20
2.348212635773339
 30
0.0
 70
     8
  0
VERTEX
  5
9F78
330
9F6F
100
AcDbEntity
  8
CONTINUOUS1
100
AcDbVertex
100
AcDb2dVertex
 10
27.75334500314812
 20
2.356476199337045
 30
0.0
 70
     8
  0
VERTEX
  5
9F79
330
9F6F
100
AcDbEntity
  8
CONTINUOUS1
100
AcDbVertex
100
AcDb2dVertex
 10
27.7563513737395
 20
2.363719569868194
 30
0.0
 70
     8
  0
VERTEX
  5
9F7A
330
9F6F
100
AcDbEntity
  8
CONTINUOUS1
100
AcDbVertex
100
AcDb2dVertex
 10
27.76012706351949
 20
2.369419626025148
 30
0.0
 70
     8
  0
VERTEX
  5
9F7B
330
9F6F
100
AcDbEntity
  8
CONTINUOUS1
100
AcDbVertex
100
AcDb2dVertex
 10
27.76453791606622
 20
2.373409224377857
 30
0.0
 70
     8
  0
VERTEX
  5
9F7C
330
9F6F
100
AcDbEntity
  8
CONTINUOUS1
100
AcDbVertex
100
AcDb2dVertex
 10
27.76937221045741
 20
2.375610215974159
 30
0.0
 70
     8
  0
VERTEX
  5
9F7D
330
9F6F
100
AcDbEntity
  8
CONTINUOUS1
100
AcDbVertex
100
AcDb2dVertex
 10
27.77441822577088
 20
2.375944451861901
 30
0.0
 70
     8
  0
VERTEX
  5
9F7E
330
9F6F
100
AcDbEntity
  8
CONTINUOUS1
100
AcDbVertex
100
AcDb2dVertex
 10
27.77946424108432
 20
2.374333783088921
 30
0.0
 70
     8
  0
VERTEX
  5
9F7F
330
9F6F
100
AcDbEntity
  8
CONTINUOUS1
100
AcDbVertex
100
AcDb2dVertex
 10
27.78429853547553
 20
2.370700060703066
 30
0.0
 70
     8
  0
VERTEX
  5
9F80
330
9F6F
100
AcDbEntity
  8
CONTINUOUS1
100
AcDbVertex
100
AcDb2dVertex
 10
27.78870938802225
 20
2.364965135752175
 30
0.0
 70
     8
  0
VERTEX
  5
9F81
330
9F6F
100
AcDbEntity
  8
CONTINUOUS1
100
AcDbVertex
100
AcDb2dVertex
 10
27.79248507780224
 20
2.357050859284093
 30
0.0
 70
     8
  0
VERTEX
  5
9F82
330
9F6F
100
AcDbEntity
  8
CONTINUOUS1
100
AcDbVertex
100
AcDb2dVertex
 10
27.79551210064292
 20
2.347085300252796
 30
0.0
 70
     8
  0
VERTEX
  5
9F83
330
9F6F
100
AcDbEntity
  8
CONTINUOUS1
100
AcDbVertex
100
AcDb2dVertex
 10
27.79806981937027
 20
2.336021399236782
 30
0.0
 70
     8
  0
VERTEX
  5
9F84
330
9F6F
100
AcDbEntity
  8
CONTINUOUS1
100
AcDbVertex
100
AcDb2dVertex
 10
27.80053581355997
 20
2.325018314720692
 30
0.0
 70
     8
  0
VERTEX
  5
9F85
330
9F6F
100
AcDbEntity
  8
CONTINUOUS1
100
AcDbVertex
100
AcDb2dVertex
 10
27.80328766278765
 20
2.315235205189159
 30
0.0
 70
     8
  0
VERTEX
  5
9F86
330
9F6F
100
AcDbEntity
  8
CONTINUOUS1
100
AcDbVertex
100
AcDb2dVertex
 10
27.80670294662899
 20
2.307831229126819
 30
0.0
 70
     8
  0
VERTEX
  5
9F87
330
9F6F
100
AcDbEntity
  8
CONTINUOUS1
100
AcDbVertex
100
AcDb2dVertex
 10
27.81115924465962
 20
2.303965545018307
 30
0.0
 70
     8
  0
VERTEX
  5
9F88
330
9F6F
100
AcDbEntity
  8
CONTINUOUS1
100
AcDbVertex
100
AcDb2dVertex
 10
27.81703413645522
 20
2.304797311348261
 30
0.0
 70
     8
  0
VERTEX
  5
9F89
330
9F6F
100
AcDbEntity
  8
CONTINUOUS1
100
AcDbVertex
100
AcDb2dVertex
 10
27.82470520159142
 20
2.311485686601315
 30
0.0
 70
     8
  0
VERTEX
  5
9F8A
330
9F6F
100
AcDbEntity
  8
CONTINUOUS1
100
AcDbVertex
100
AcDb2dVertex
 10
27.74731794772381
 20
2.311485686601315
 30
0.0
 70
    16
  0
VERTEX
  5
9F8B
330
9F6F
100
AcDbEntity
  8
CONTINUOUS1
100
AcDbVertex
100
AcDb2dVertex
 10
27.74731794772381
 20
2.381130864290486
 30
0.0
 70
    16
  0
VERTEX
  5
9F8C
330
9F6F
100
AcDbEntity
  8
CONTINUOUS1
100
AcDbVertex
100
AcDb2dVertex
 10
27.80151850381793
 20
2.381130864290486
 30
0.0
 70
    16
  0
VERTEX
  5
9F8D
330
9F6F
100
AcDbEntity
  8
CONTINUOUS1
100
AcDbVertex
100
AcDb2dVertex
 10
27.80151850381793
 20
2.284810844264917
 30
0.0
 70
    16
  0
VERTEX
  5
9F8E
330
9F6F
100
AcDbEntity
  8
CONTINUOUS1
100
AcDbVertex
100
AcDb2dVertex
 10
27.82470520159142
 20
2.311485686601315
 30
0.0
 70
    16
  0
SEQEND
  5
9F8F
330
9F6F
100
AcDbEntity
  8
CONTINUOUS1
  0
POLYLINE
  5
9F90
330
1F
100
AcDbEntity
  8
CONTINUOUS1
100
AcDb2dPolyline
 66
     1
 10
0.0
 20
0.0
 30
0.0
 70
     4
 75
     6
  0
VERTEX
  5
9F91
330
9F90
100
AcDbEntity
  8
CONTINUOUS1
100
AcDbVertex
100
AcDb2dVertex
 10
27.73470520159142
 20
17.88068148189934
 30
0.0
 70
    16
  0
VERTEX
  5
9F92
330
9F90
100
AcDbEntity
  8
CONTINUOUS1
100
AcDbVertex
100
AcDb2dVertex
 10
27.73470520159142
 20
17.88068148189934
 30
0.0
 70
     8
  0
VERTEX
  5
9F93
330
9F90
100
AcDbEntity
  8
CONTINUOUS1
100
AcDbVertex
100
AcDb2dVertex
 10
27.73888603659608
 20
17.88221177144817
 30
0.0
 70
     8
  0
VERTEX
  5
9F94
330
9F90
100
AcDbEntity
  8
CONTINUOUS1
100
AcDbVertex
100
AcDb2dVertex
 10
27.74213809273073
 20
17.88639456288165
 30
0.0
 70
     8
  0
VERTEX
  5
9F95
330
9F90
100
AcDbEntity
  8
CONTINUOUS1
100
AcDbVertex
100
AcDb2dVertex
 10
27.74471503607514
 20
17.89261774038024
 30
0.0
 70
     8
  0
VERTEX
  5
9F96
330
9F90
100
AcDbEntity
  8
CONTINUOUS1
100
AcDbVertex
100
AcDb2dVertex
 10
27.74687053270923
 20
17.90026918812442
 30
0.0
 70
     8
  0
VERTEX
  5
9F97
330
9F90
100
AcDbEntity
  8
CONTINUOUS1
100
AcDbVertex
100
AcDb2dVertex
 10
27.74885824871286
 20
17.90873679029464
 30
0.0
 70
     8
  0
VERTEX
  5
9F98
330
9F90
100
AcDbEntity
  8
CONTINUOUS1
100
AcDbVertex
100
AcDb2dVertex
 10
27.75093185016586
 20
17.91740843107136
 30
0.0
 70
     8
  0
VERTEX
  5
9F99
330
9F90
100
AcDbEntity
  8
CONTINUOUS1
100
AcDbVertex
100
AcDb2dVertex
 10
27.75334500314812
 20
17.92567199463507
 30
0.0
 70
     8
  0
VERTEX
  5
9F9A
330
9F90
100
AcDbEntity
  8
CONTINUOUS1
100
AcDbVertex
100
AcDb2dVertex
 10
27.7563513737395
 20
17.93291536516622
 30
0.0
 70
     8
  0
VERTEX
  5
9F9B
330
9F90
100
AcDbEntity
  8
CONTINUOUS1
100
AcDbVertex
100
AcDb2dVertex
 10
27.76012706351949
 20
17.93861542132317
 30
0.0
 70
     8
  0
VERTEX
  5
9F9C
330
9F90
100
AcDbEntity
  8
CONTINUOUS1
100
AcDbVertex
100
AcDb2dVertex
 10
27.76453791606622
 20
17.94260501967588
 30
0.0
 70
     8
  0
VERTEX
  5
9F9D
330
9F90
100
AcDbEntity
  8
CONTINUOUS1
100
AcDbVertex
100
AcDb2dVertex
 10
27.76937221045741
 20
17.94480601127219
 30
0.0
 70
     8
  0
VERTEX
  5
9F9E
330
9F90
100
AcDbEntity
  8
CONTINUOUS1
100
AcDbVertex
100
AcDb2dVertex
 10
27.77441822577088
 20
17.94514024715993
 30
0.0
 70
     8
  0
VERTEX
  5
9F9F
330
9F90
100
AcDbEntity
  8
CONTINUOUS1
100
AcDbVertex
100
AcDb2dVertex
 10
27.77946424108432
 20
17.94352957838695
 30
0.0
 70
     8
  0
VERTEX
  5
9FA0
330
9F90
100
AcDbEntity
  8
CONTINUOUS1
100
AcDbVertex
100
AcDb2dVertex
 10
27.78429853547553
 20
17.93989585600109
 30
0.0
 70
     8
  0
VERTEX
  5
9FA1
330
9F90
100
AcDbEntity
  8
CONTINUOUS1
100
AcDbVertex
100
AcDb2dVertex
 10
27.78870938802225
 20
17.9341609310502
 30
0.0
 70
     8
  0
VERTEX
  5
9FA2
330
9F90
100
AcDbEntity
  8
CONTINUOUS1
100
AcDbVertex
100
AcDb2dVertex
 10
27.79248507780224
 20
17.92624665458212
 30
0.0
 70
     8
  0
VERTEX
  5
9FA3
330
9F90
100
AcDbEntity
  8
CONTINUOUS1
100
AcDbVertex
100
AcDb2dVertex
 10
27.79551210064292
 20
17.91628109555082
 30
0.0
 70
     8
  0
VERTEX
  5
9FA4
330
9F90
100
AcDbEntity
  8
CONTINUOUS1
100
AcDbVertex
100
AcDb2dVertex
 10
27.79806981937027
 20
17.9052171945348
 30
0.0
 70
     8
  0
VERTEX
  5
9FA5
330
9F90
100
AcDbEntity
  8
CONTINUOUS1
100
AcDbVertex
100
AcDb2dVertex
 10
27.80053581355997
 20
17.89421411001872
 30
0.0
 70
     8
  0
VERTEX
  5
9FA6
330
9F90
100
AcDbEntity
  8
CONTINUOUS1
100
AcDbVertex
100
AcDb2dVertex
 10
27.80328766278765
 20
17.88443100048718
 30
0.0
 70
     8
  0
VERTEX
  5
9FA7
330
9F90
100
AcDbEntity
  8
CONTINUOUS1
100
AcDbVertex
100
AcDb2dVertex
 10
27.80670294662899
 20
17.87702702442484
 30
0.0
 70
     8
  0
VERTEX
  5
9FA8
330
9F90
100
AcDbEntity
  8
CONTINUOUS1
100
AcDbVertex
100
AcDb2dVertex
 10
27.81115924465962
 20
17.87316134031633
 30
0.0
 70
     8
  0
VERTEX
  5
9FA9
330
9F90
100
AcDbEntity
  8
CONTINUOUS1
100
AcDbVertex
100
AcDb2dVertex
 10
27.81703413645522
 20
17.87399310664628
 30
0.0
 70
     8
  0
VERTEX
  5
9FAA
330
9F90
100
AcDbEntity
  8
CONTINUOUS1
100
AcDbVertex
100
AcDb2dVertex
 10
27.82470520159142
 20
17.88068148189934
 30
0.0
 70
     8
  0
VERTEX
  5
9FAB
330
9F90
100
AcDbEntity
  8
CONTINUOUS1
100
AcDbVertex
100
AcDb2dVertex
 10
27.74731794772381
 20
17.88068148189934
 30
0.0
 70
    16
  0
VERTEX
  5
9FAC
330
9F90
100
AcDbEntity
  8
CONTINUOUS1
100
AcDbVertex
100
AcDb2dVertex
 10
27.74731794772381
 20
17.95032665958851
 30
0.0
 70
    16
  0
VERTEX
  5
9FAD
330
9F90
100
AcDbEntity
  8
CONTINUOUS1
100
AcDbVertex
100
AcDb2dVertex
 10
27.80151850381793
 20
17.95032665958851
 30
0.0
 70
    16
  0
VERTEX
  5
9FAE
330
9F90
100
AcDbEntity
  8
CONTINUOUS1
100
AcDbVertex
100
AcDb2dVertex
 10
27.80151850381793
 20
17.85400663956294
 30
0.0
 70
    16
  0
VERTEX
  5
9FAF
330
9F90
100
AcDbEntity
  8
CONTINUOUS1
100
AcDbVertex
100
AcDb2dVertex
 10
27.82470520159142
 20
17.88068148189934
 30
0.0
 70
    16
  0
SEQEND
  5
9FB0
330
9F90
100
AcDbEntity
  8
CONTINUOUS1
  0
POINT
  5
9FB8
330
1F
100
AcDbEntity
  8
CONTINUOUS1
100
AcDbPoint
 10
27.82470520159142
 20
5.247943169948516
 30
0.0
  0
POINT
  5
9FB9
330
1F
100
AcDbEntity
  8
CONTINUOUS1
100
AcDbPoint
 10
27.82470520159142
 20
2.657768397612596
 30
0.0
  0
TEXT
  5
A0BB
330
1F
100
AcDbEntity
  8
TEXT1
100
AcDbText
 10
11.81683042661714
 20
18.03302097991082
 30
0.0
 40
0.199999996875
  1
with standard lugs. REF NEC 430-10
  7
ROMANS
100
AcDbText
  0
TEXT
  5
A0BC
330
1F
100
AcDbEntity
  8
TEXT1
100
AcDbText
 10
11.81683042661714
 20
18.63302097053582
 30
0.0
 40
0.199999996875
  1
wire bending space to lug surface when
  7
ROMANS
100
AcDbText
  0
TEXT
  5
A0BD
330
1F
100
AcDbEntity
  8
TEXT1
100
AcDbText
 10
11.81683042661714
 20
18.33302097522332
 30
0.0
 40
0.199999996875
  1
the maximum wire size is used 
  7
ROMANS
100
AcDbText
  0
TEXT
  5
A0BE
330
1F
100
AcDbEntity
  8
TEXT1
100
AcDbText
 10
11.81683042661714
 20
18.93302096584832
 30
0.0
 40
0.199999996875
  1
Minimum to wall or barrier to insure adequate
  7
ROMANS
100
AcDbText
  0
DIMENSION
  5
A0D3
330
1F
100
AcDbEntity
  8
DIM
100
AcDbDimension
  2
*D13
 10
12.9688584009317
 20
16.08705134069273
 30
0.0
 11
11.6563584009317
 21
16.08705134069273
 31
0.0
 70
   160
  1
\P<>
  3
SCHNEIDERELECTRIC
100
AcDbAlignedDimension
 13
10.3438584009317
 23
13.26992732682616
 33
0.0
 14
12.9688584009317
 24
15.73117732682615
 34
0.0
100
AcDbRotatedDimension
1001
ACAD
1000
DSTYLE
1002
{
1070
    40
1040
2.0
1002
}
  0
DIMENSION
  5
A0E1
330
1F
100
AcDbEntity
  8
DIM
100
AcDbDimension
  2
*D14
 10
13.6338584009317
 20
16.78789992716474
 30
0.0
 11
12.36981078188408
 21
16.78789992716474
 31
0.0
 70
   160
  1
\P<>
  3
SCHNEIDERELECTRIC
100
AcDbAlignedDimension
 13
10.3438584009317
 23
13.26992732682616
 33
0.0
 14
13.6338584009317
 24
15.73117732682615
 34
0.0
100
AcDbRotatedDimension
1001
ACAD
1000
DSTYLE
1002
{
1070
    40
1040
2.0
1002
}
  0
DIMENSION
  5
A0EF
330
1F
100
AcDbEntity
  8
DIM
100
AcDbDimension
  2
*D15
 10
13.6338584009317
 20
17.40884477178771
 30
0.0
 11
10.62317387712218
 21
17.40884477178771
 31
0.0
 70
   160
  1
\P<>
  3
SCHNEIDERELECTRIC
100
AcDbAlignedDimension
 13
6.500108400931708
 23
12.21634482437818
 33
0.0
 14
13.6338584009317
 24
15.79367732682616
 34
0.0
100
AcDbRotatedDimension
1001
ACAD
1000
DSTYLE
1002
{
1070
    40
1040
2.0
1002
}
  0
DIMENSION
  5
A2A2
330
1F
100
AcDbEntity
  8
DIM
100
AcDbDimension
  2
*D16
 10
22.88461568460665
 20
2.760593299142918
 30
0.0
 11
25.35466044309904
 21
2.760593299142918
 31
0.0
 70
   160
  3
SCHNEIDERELECTRIC
100
AcDbAlignedDimension
 13
27.82470520159142
 23
2.318033515318536
 33
0.0
 14
22.88461568460665
 24
9.771706140636178
 34
0.0
100
AcDbRotatedDimension
1001
ACAD
1000
DSTYLE
1002
{
1070
    40
1040
2.0
1002
}
  0
LINE
  5
A38B
330
1F
100
AcDbEntity
  8
CONTINUOUS1
100
AcDbLine
 10
27.73470520159142
 20
10.20518946721321
 30
0.0
 11
27.82470520159142
 21
10.29518946721321
 31
0.0
  0
LINE
  5
A38C
330
1F
100
AcDbEntity
  8
CONTINUOUS1
100
AcDbLine
 10
27.73470520159142
 20
10.38196616250984
 30
0.0
 11
27.82470520159142
 21
10.47196616250984
 31
0.0
  0
LINE
  5
A38D
330
1F
100
AcDbEntity
  8
CONTINUOUS1
100
AcDbLine
 10
27.73470520159142
 20
10.55874285780648
 30
0.0
 11
27.82470520159142
 21
10.64874285780648
 31
0.0
  0
LINE
  5
A38E
330
1F
100
AcDbEntity
  8
CONTINUOUS1
100
AcDbLine
 10
27.73470520159142
 20
10.73551955310312
 30
0.0
 11
27.82470520159142
 21
10.82551955310312
 31
0.0
  0
LINE
  5
A38F
330
1F
100
AcDbEntity
  8
CONTINUOUS1
100
AcDbLine
 10
27.73470520159142
 20
10.91229624839975
 30
0.0
 11
27.82470520159142
 21
11.00229624839975
 31
0.0
  0
LINE
  5
A390
330
1F
100
AcDbEntity
  8
CONTINUOUS1
100
AcDbLine
 10
27.73470520159142
 20
11.08907294369639
 30
0.0
 11
27.82470520159142
 21
11.17907294369639
 31
0.0
  0
LINE
  5
A391
330
1F
100
AcDbEntity
  8
CONTINUOUS1
100
AcDbLine
 10
27.73470520159142
 20
11.26584963899303
 30
0.0
 11
27.82470520159142
 21
11.35584963899303
 31
0.0
  0
LINE
  5
A392
330
1F
100
AcDbEntity
  8
CONTINUOUS1
100
AcDbLine
 10
27.73470520159142
 20
11.44262633428966
 30
0.0
 11
27.82470520159142
 21
11.53262633428966
 31
0.0
  0
LINE
  5
A393
330
1F
100
AcDbEntity
  8
CONTINUOUS1
100
AcDbLine
 10
27.73470520159142
 20
11.6194030295863
 30
0.0
 11
27.82470520159142
 21
11.7094030295863
 31
0.0
  0
LINE
  5
A394
330
1F
100
AcDbEntity
  8
CONTINUOUS1
100
AcDbLine
 10
27.73470520159142
 20
11.79617972488294
 30
0.0
 11
27.82470520159142
 21
11.88617972488294
 31
0.0
  0
LINE
  5
A395
330
1F
100
AcDbEntity
  8
CONTINUOUS1
100
AcDbLine
 10
27.73470520159142
 20
11.97295642017957
 30
0.0
 11
27.82470520159142
 21
12.06295642017958
 31
0.0
  0
LINE
  5
A396
330
1F
100
AcDbEntity
  8
CONTINUOUS1
100
AcDbLine
 10
27.73470520159142
 20
12.14973311547621
 30
0.0
 11
27.82470520159142
 21
12.23973311547621
 31
0.0
  0
LINE
  5
A397
330
1F
100
AcDbEntity
  8
CONTINUOUS1
100
AcDbLine
 10
27.73470520159142
 20
12.32650981077285
 30
0.0
 11
27.82470520159142
 21
12.41650981077285
 31
0.0
  0
LINE
  5
A398
330
1F
100
AcDbEntity
  8
CONTINUOUS1
100
AcDbLine
 10
27.73470520159142
 20
12.50328650606949
 30
0.0
 11
27.82470520159142
 21
12.59328650606948
 31
0.0
  0
LINE
  5
A399
330
1F
100
AcDbEntity
  8
CONTINUOUS1
100
AcDbLine
 10
27.73470520159142
 20
12.68006320136612
 30
0.0
 11
27.82470520159142
 21
12.77006320136612
 31
0.0
  0
LINE
  5
A39A
330
1F
100
AcDbEntity
  8
CONTINUOUS1
100
AcDbLine
 10
27.73470520159142
 20
12.85683989666276
 30
0.0
 11
27.82470520159142
 21
12.94683989666276
 31
0.0
  0
LINE
  5
A39B
330
1F
100
AcDbEntity
  8
CONTINUOUS1
100
AcDbLine
 10
27.73470520159142
 20
13.0336165919594
 30
0.0
 11
27.82470520159142
 21
13.1236165919594
 31
0.0
  0
LINE
  5
A39C
330
1F
100
AcDbEntity
  8
CONTINUOUS1
100
AcDbLine
 10
27.73470520159142
 20
13.21039328725603
 30
0.0
 11
27.82470520159142
 21
13.30039328725604
 31
0.0
  0
LINE
  5
A39D
330
1F
100
AcDbEntity
  8
CONTINUOUS1
100
AcDbLine
 10
27.73470520159142
 20
13.38716998255267
 30
0.0
 11
27.82470520159142
 21
13.47716998255267
 31
0.0
  0
LINE
  5
A39E
330
1F
100
AcDbEntity
  8
CONTINUOUS1
100
AcDbLine
 10
27.73470520159142
 20
13.56394667784931
 30
0.0
 11
27.82470520159142
 21
13.65394667784931
 31
0.0
  0
LINE
  5
A39F
330
1F
100
AcDbEntity
  8
CONTINUOUS1
100
AcDbLine
 10
27.73470520159142
 20
13.74072337314595
 30
0.0
 11
27.82470520159142
 21
13.83072337314595
 31
0.0
  0
LINE
  5
A3A0
330
1F
100
AcDbEntity
  8
CONTINUOUS1
100
AcDbLine
 10
27.73470520159142
 20
13.91750006844258
 30
0.0
 11
27.82470520159142
 21
14.00750006844258
 31
0.0
  0
LINE
  5
A3A1
330
1F
100
AcDbEntity
  8
CONTINUOUS1
100
AcDbLine
 10
27.73470520159142
 20
14.09427676373922
 30
0.0
 11
27.82470520159142
 21
14.18427676373922
 31
0.0
  0
LINE
  5
A3A2
330
1F
100
AcDbEntity
  8
CONTINUOUS1
100
AcDbLine
 10
27.73470520159142
 20
14.27105345903585
 30
0.0
 11
27.82470520159142
 21
14.36105345903586
 31
0.0
  0
LINE
  5
A3A3
330
1F
100
AcDbEntity
  8
CONTINUOUS1
100
AcDbLine
 10
27.73470520159142
 20
14.44783015433249
 30
0.0
 11
27.82470520159142
 21
14.53783015433249
 31
0.0
  0
LINE
  5
A3A4
330
1F
100
AcDbEntity
  8
CONTINUOUS1
100
AcDbLine
 10
27.73470520159142
 20
14.62460684962913
 30
0.0
 11
27.82470520159142
 21
14.71460684962913
 31
0.0
  0
LINE
  5
A3A5
330
1F
100
AcDbEntity
  8
CONTINUOUS1
100
AcDbLine
 10
27.73470520159142
 20
14.80138354492576
 30
0.0
 11
27.82470520159142
 21
14.89138354492577
 31
0.0
  0
LINE
  5
A3A6
330
1F
100
AcDbEntity
  8
CONTINUOUS1
100
AcDbLine
 10
27.73470520159142
 20
14.9781602402224
 30
0.0
 11
27.82470520159142
 21
15.0681602402224
 31
0.0
  0
LINE
  5
A3A7
330
1F
100
AcDbEntity
  8
CONTINUOUS1
100
AcDbLine
 10
27.73470520159142
 20
15.15493693551904
 30
0.0
 11
27.82470520159142
 21
15.24493693551904
 31
0.0
  0
LINE
  5
A3A8
330
1F
100
AcDbEntity
  8
CONTINUOUS1
100
AcDbLine
 10
27.73470520159142
 20
15.33171363081568
 30
0.0
 11
27.82470520159142
 21
15.42171363081568
 31
0.0
  0
LINE
  5
A3A9
330
1F
100
AcDbEntity
  8
CONTINUOUS1
100
AcDbLine
 10
27.73470520159142
 20
15.50849032611232
 30
0.0
 11
27.82470520159142
 21
15.59849032611231
 31
0.0
  0
LINE
  5
A3AA
330
1F
100
AcDbEntity
  8
CONTINUOUS1
100
AcDbLine
 10
27.73470520159142
 20
15.68526702140895
 30
0.0
 11
27.82470520159142
 21
15.77526702140895
 31
0.0
  0
LINE
  5
A3AB
330
1F
100
AcDbEntity
  8
CONTINUOUS1
100
AcDbLine
 10
27.73470520159142
 20
15.86204371670559
 30
0.0
 11
27.82470520159142
 21
15.95204371670559
 31
0.0
  0
LINE
  5
A3AC
330
1F
100
AcDbEntity
  8
CONTINUOUS1
100
AcDbLine
 10
27.73470520159142
 20
16.03882041200222
 30
0.0
 11
27.82470520159142
 21
16.12882041200222
 31
0.0
  0
LINE
  5
A3AD
330
1F
100
AcDbEntity
  8
CONTINUOUS1
100
AcDbLine
 10
27.73470520159142
 20
16.21559710729886
 30
0.0
 11
27.82470520159142
 21
16.30559710729886
 31
0.0
  0
LINE
  5
A3AE
330
1F
100
AcDbEntity
  8
CONTINUOUS1
100
AcDbLine
 10
27.73470520159142
 20
16.3923738025955
 30
0.0
 11
27.82470520159142
 21
16.4823738025955
 31
0.0
  0
LINE
  5
A3AF
330
1F
100
AcDbEntity
  8
CONTINUOUS1
100
AcDbLine
 10
27.73470520159142
 20
16.56915049789214
 30
0.0
 11
27.82470520159142
 21
16.65915049789213
 31
0.0
  0
LINE
  5
A3B0
330
1F
100
AcDbEntity
  8
CONTINUOUS1
100
AcDbLine
 10
27.73470520159142
 20
16.74592719318877
 30
0.0
 11
27.82470520159142
 21
16.83592719318877
 31
0.0
  0
LINE
  5
A3B1
330
1F
100
AcDbEntity
  8
CONTINUOUS1
100
AcDbLine
 10
27.73470520159142
 20
16.92270388848541
 30
0.0
 11
27.82470520159142
 21
17.01270388848541
 31
0.0
  0
LINE
  5
A3B2
330
1F
100
AcDbEntity
  8
CONTINUOUS1
100
AcDbLine
 10
27.73470520159142
 20
17.09948058378205
 30
0.0
 11
27.82470520159142
 21
17.18948058378205
 31
0.0
  0
LINE
  5
A3B3
330
1F
100
AcDbEntity
  8
CONTINUOUS1
100
AcDbLine
 10
27.73470520159142
 20
17.27625727907868
 30
0.0
 11
27.82470520159142
 21
17.36625727907868
 31
0.0
  0
LINE
  5
A3B4
330
1F
100
AcDbEntity
  8
CONTINUOUS1
100
AcDbLine
 10
27.73470520159142
 20
17.45303397437532
 30
0.0
 11
27.82470520159142
 21
17.54303397437532
 31
0.0
  0
LINE
  5
A3B5
330
1F
100
AcDbEntity
  8
CONTINUOUS1
100
AcDbLine
 10
27.73470520159142
 20
17.62981066967195
 30
0.0
 11
27.82470520159142
 21
17.71981066967195
 31
0.0
  0
LINE
  5
A3B6
330
1F
100
AcDbEntity
  8
CONTINUOUS1
100
AcDbLine
 10
27.73470520159142
 20
10.02841277191657
 30
0.0
 11
27.82470520159142
 21
10.11841277191657
 31
0.0
  0
LINE
  5
A3B7
330
1F
100
AcDbEntity
  8
CONTINUOUS1
100
AcDbLine
 10
27.73470520159142
 20
9.851636076619938
 30
0.0
 11
27.82470520159142
 21
9.941636076619937
 31
0.0
  0
LINE
  5
A3B8
330
1F
100
AcDbEntity
  8
CONTINUOUS1
100
AcDbLine
 10
27.73470520159142
 20
9.674859381323299
 30
0.0
 11
27.82470520159142
 21
9.764859381323299
 31
0.0
  0
LINE
  5
A3B9
330
1F
100
AcDbEntity
  8
CONTINUOUS1
100
AcDbLine
 10
27.73470520159142
 20
9.498082686026663
 30
0.0
 11
27.82470520159142
 21
9.588082686026663
 31
0.0
  0
LINE
  5
A3BA
330
1F
100
AcDbEntity
  8
CONTINUOUS1
100
AcDbLine
 10
27.73470520159142
 20
9.321305990730026
 30
0.0
 11
27.82470520159142
 21
9.411305990730026
 31
0.0
  0
LINE
  5
A3BB
330
1F
100
AcDbEntity
  8
CONTINUOUS1
100
AcDbLine
 10
27.73470520159142
 20
9.14452929543339
 30
0.0
 11
27.82470520159142
 21
9.234529295433389
 31
0.0
  0
LINE
  5
A3BC
330
1F
100
AcDbEntity
  8
CONTINUOUS1
100
AcDbLine
 10
27.73470520159142
 20
8.967752600136751
 30
0.0
 11
27.82470520159142
 21
9.057752600136753
 31
0.0
  0
LINE
  5
A3BD
330
1F
100
AcDbEntity
  8
CONTINUOUS1
100
AcDbLine
 10
27.73470520159142
 20
8.790975904840115
 30
0.0
 11
27.82470520159142
 21
8.880975904840115
 31
0.0
  0
LINE
  5
A3BE
330
1F
100
AcDbEntity
  8
CONTINUOUS1
100
AcDbLine
 10
27.73470520159142
 20
8.614199209543478
 30
0.0
 11
27.82470520159142
 21
8.704199209543478
 31
0.0
  0
LINE
  5
A3BF
330
1F
100
AcDbEntity
  8
CONTINUOUS1
100
AcDbLine
 10
27.73470520159142
 20
8.437422514246842
 30
0.0
 11
27.82470520159142
 21
8.527422514246842
 31
0.0
  0
LINE
  5
A3C0
330
1F
100
AcDbEntity
  8
CONTINUOUS1
100
AcDbLine
 10
27.73470520159142
 20
8.260645818950205
 30
0.0
 11
27.82470520159142
 21
8.350645818950205
 31
0.0
  0
LINE
  5
A3C1
330
1F
100
AcDbEntity
  8
CONTINUOUS1
100
AcDbLine
 10
27.73470520159142
 20
8.083869123653567
 30
0.0
 11
27.82470520159142
 21
8.173869123653568
 31
0.0
  0
LINE
  5
A3C2
330
1F
100
AcDbEntity
  8
CONTINUOUS1
100
AcDbLine
 10
27.73470520159142
 20
7.90709242835693
 30
0.0
 11
27.82470520159142
 21
7.99709242835693
 31
0.0
  0
LINE
  5
A3C3
330
1F
100
AcDbEntity
  8
CONTINUOUS1
100
AcDbLine
 10
27.73470520159142
 20
7.730315733060294
 30
0.0
 11
27.82470520159142
 21
7.820315733060294
 31
0.0
  0
LINE
  5
A3C4
330
1F
100
AcDbEntity
  8
CONTINUOUS1
100
AcDbLine
 10
27.73470520159142
 20
7.553539037763657
 30
0.0
 11
27.82470520159142
 21
7.643539037763657
 31
0.0
  0
LINE
  5
A3C5
330
1F
100
AcDbEntity
  8
CONTINUOUS1
100
AcDbLine
 10
27.73470520159142
 20
7.376762342467021
 30
0.0
 11
27.82470520159142
 21
7.466762342467021
 31
0.0
  0
LINE
  5
A3C6
330
1F
100
AcDbEntity
  8
CONTINUOUS1
100
AcDbLine
 10
27.73470520159142
 20
7.199985647170382
 30
0.0
 11
27.82470520159142
 21
7.289985647170384
 31
0.0
  0
LINE
  5
A3C7
330
1F
100
AcDbEntity
  8
CONTINUOUS1
100
AcDbLine
 10
27.73470520159142
 20
7.023208951873746
 30
0.0
 11
27.82470520159142
 21
7.113208951873746
 31
0.0
  0
LINE
  5
A3C8
330
1F
100
AcDbEntity
  8
CONTINUOUS1
100
AcDbLine
 10
27.73470520159142
 20
6.846432256577109
 30
0.0
 11
27.82470520159142
 21
6.936432256577109
 31
0.0
  0
LINE
  5
A3C9
330
1F
100
AcDbEntity
  8
CONTINUOUS1
100
AcDbLine
 10
27.73470520159142
 20
6.669655561280473
 30
0.0
 11
27.82470520159142
 21
6.759655561280473
 31
0.0
  0
LINE
  5
A3CA
330
1F
100
AcDbEntity
  8
CONTINUOUS1
100
AcDbLine
 10
27.73470520159142
 20
6.492878865983836
 30
0.0
 11
27.82470520159142
 21
6.582878865983836
 31
0.0
  0
LINE
  5
A3CB
330
1F
100
AcDbEntity
  8
CONTINUOUS1
100
AcDbLine
 10
27.73470520159142
 20
6.316102170687198
 30
0.0
 11
27.82470520159142
 21
6.406102170687198
 31
0.0
  0
LINE
  5
A3CC
330
1F
100
AcDbEntity
  8
CONTINUOUS1
100
AcDbLine
 10
27.73470520159142
 20
6.139325475390561
 30
0.0
 11
27.82470520159142
 21
6.229325475390561
 31
0.0
  0
LINE
  5
A3CD
330
1F
100
AcDbEntity
  8
CONTINUOUS1
100
AcDbLine
 10
27.73470520159142
 20
5.962548780093925
 30
0.0
 11
27.82470520159142
 21
6.052548780093925
 31
0.0
  0
LINE
  5
A3CE
330
1F
100
AcDbEntity
  8
CONTINUOUS1
100
AcDbLine
 10
27.73470520159142
 20
5.785772084797288
 30
0.0
 11
27.82470520159142
 21
5.875772084797288
 31
0.0
  0
LINE
  5
A3CF
330
1F
100
AcDbEntity
  8
CONTINUOUS1
100
AcDbLine
 10
27.73470520159142
 20
5.608995389500654
 30
0.0
 11
27.82470520159142
 21
5.698995389500653
 31
0.0
  0
LINE
  5
A3D0
330
1F
100
AcDbEntity
  8
CONTINUOUS1
100
AcDbLine
 10
27.73470520159142
 20
5.432218694204017
 30
0.0
 11
27.82470520159142
 21
5.522218694204017
 31
0.0
  0
LINE
  5
A3D1
330
1F
100
AcDbEntity
  8
CONTINUOUS1
100
AcDbLine
 10
27.73470520159142
 20
5.255441998907381
 30
0.0
 11
27.82470520159142
 21
5.34544199890738
 31
0.0
  0
LINE
  5
A3D2
330
1F
100
AcDbEntity
  8
CONTINUOUS1
100
AcDbLine
 10
27.73470520159142
 20
5.078665303610742
 30
0.0
 11
27.82470520159142
 21
5.168665303610742
 31
0.0
  0
LINE
  5
A3D3
330
1F
100
AcDbEntity
  8
CONTINUOUS1
100
AcDbLine
 10
27.73470520159142
 20
4.901888608314106
 30
0.0
 11
27.82470520159142
 21
4.991888608314106
 31
0.0
  0
LINE
  5
A3D4
330
1F
100
AcDbEntity
  8
CONTINUOUS1
100
AcDbLine
 10
27.73470520159142
 20
4.725111913017469
 30
0.0
 11
27.82470520159142
 21
4.815111913017469
 31
0.0
  0
LINE
  5
A3D5
330
1F
100
AcDbEntity
  8
CONTINUOUS1
100
AcDbLine
 10
27.73470520159142
 20
4.548335217720833
 30
0.0
 11
27.82470520159142
 21
4.638335217720833
 31
0.0
  0
LINE
  5
A3D6
330
1F
100
AcDbEntity
  8
CONTINUOUS1
100
AcDbLine
 10
27.73470520159142
 20
4.371558522424196
 30
0.0
 11
27.82470520159142
 21
4.461558522424196
 31
0.0
  0
LINE
  5
A3D7
330
1F
100
AcDbEntity
  8
CONTINUOUS1
100
AcDbLine
 10
27.73470520159142
 20
4.194781827127558
 30
0.0
 11
27.82470520159142
 21
4.284781827127558
 31
0.0
  0
LINE
  5
A3D8
330
1F
100
AcDbEntity
  8
CONTINUOUS1
100
AcDbLine
 10
27.73470520159142
 20
4.018005131830921
 30
0.0
 11
27.82470520159142
 21
4.108005131830921
 31
0.0
  0
LINE
  5
A3D9
330
1F
100
AcDbEntity
  8
CONTINUOUS1
100
AcDbLine
 10
27.73470520159142
 20
3.841228436534285
 30
0.0
 11
27.82470520159142
 21
3.931228436534285
 31
0.0
  0
LINE
  5
A3DA
330
1F
100
AcDbEntity
  8
CONTINUOUS1
100
AcDbLine
 10
27.73470520159142
 20
3.664451741237648
 30
0.0
 11
27.82470520159142
 21
3.754451741237648
 31
0.0
  0
LINE
  5
A3DB
330
1F
100
AcDbEntity
  8
CONTINUOUS1
100
AcDbLine
 10
27.73470520159142
 20
3.487675045941011
 30
0.0
 11
27.82470520159142
 21
3.577675045941011
 31
0.0
  0
LINE
  5
A3DC
330
1F
100
AcDbEntity
  8
CONTINUOUS1
100
AcDbLine
 10
27.73470520159142
 20
3.310898350644374
 30
0.0
 11
27.82470520159142
 21
3.400898350644374
 31
0.0
  0
LINE
  5
A3DD
330
1F
100
AcDbEntity
  8
CONTINUOUS1
100
AcDbLine
 10
27.73470520159142
 20
3.134121655347737
 30
0.0
 11
27.82470520159142
 21
3.224121655347737
 31
0.0
  0
LINE
  5
A3DE
330
1F
100
AcDbEntity
  8
CONTINUOUS1
100
AcDbLine
 10
27.73470520159142
 20
2.9573449600511
 30
0.0
 11
27.82470520159142
 21
3.0473449600511
 31
0.0
  0
LINE
  5
A3DF
330
1F
100
AcDbEntity
  8
CONTINUOUS1
100
AcDbLine
 10
27.73470520159142
 20
2.780568264754463
 30
0.0
 11
27.82470520159142
 21
2.870568264754464
 31
0.0
  0
LINE
  5
A3E0
330
1F
100
AcDbEntity
  8
CONTINUOUS1
100
AcDbLine
 10
27.73470520159142
 20
2.603791569457826
 30
0.0
 11
27.82470520159142
 21
2.693791569457826
 31
0.0
  0
LINE
  5
A3E1
330
1F
100
AcDbEntity
  8
CONTINUOUS1
100
AcDbLine
 10
27.73470520159142
 20
2.42701487416119
 30
0.0
 11
27.82470520159142
 21
2.51701487416119
 31
0.0
  0
LINE
  5
A3E2
330
1F
100
AcDbEntity
  8
CONTINUOUS1
100
AcDbLine
 10
27.8025005380454
 20
2.318033515318536
 30
0.0
 11
27.82470520159142
 21
2.340238178864552
 31
0.0
  0
LINE
  5
A8D4
330
1F
100
AcDbEntity
  8
DIM
100
AcDbLine
 10
9.593858400931708
 20
17.58656730972311
 30
0.0
 11
9.593858400931708
 21
17.86072511931242
 31
0.0
  0
TEXT
  5
A8D5
330
1F
100
AcDbEntity
  8
DIM
100
AcDbText
 10
9.203382210455517
 20
17.98037244676566
 30
0.0
 40
0.2
  1
[297]
  7
SIMPLEX
 72
     4
 11
9.593858400931708
 21
18.06608673247994
 31
0.0
100
AcDbText
  0
TEXT
  5
A970
330
1F
100
AcDbEntity
  8
DIM
100
AcDbText
 10
22.76485410588784
 20
15.88955403770622
 30
0.0
 40
0.2
  1
[165]
  7
SIMPLEX
 72
     4
 11
23.13628267731641
 21
15.97526832342051
 31
0.0
100
AcDbText
  0
TEXT
  5
A971
330
1F
100
AcDbEntity
  8
DIM
100
AcDbText
 10
24.54058563906142
 20
15.88955403770622
 30
0.0
 40
0.2
  1
[454]
  7
SIMPLEX
 72
     4
 11
24.93106182953761
 21
15.97526832342051
 31
0.0
100
AcDbText
  0
VIEWPORT
  5
32
330
1B
100
AcDbEntity
 67
     1
  8
0
100
AcDbViewport
 10
8.200294961817055
 20
5.853944777968271
 30
0.0
 40
18.78165491370674
 41
12.11109233730208
 68
     1
 69
     1
1001
ACAD
1000
MVIEW
1002
{
1070
    16
1010
0.0
1020
0.0
1030
0.0
1010
0.0
1020
0.0
1030
1.0
1040
0.0
1040
12.11109233730208
1040
8.200294961817055
1040
5.853944777968271
1040
50.0
1040
0.0
1040
0.0
1070
     0
1070
   100
1070
     1
1070
     0
1070
     0
1070
     0
1070
     0
1070
     0
1040
0.0
1040
0.0
1040
0.0
1040
0.5
1040
0.5
1040
0.5
1040
0.5
1070
     0
1002
{
1002
}
1002
}
1001
GENIUS_GENOREF_13
1005
0
1005
0
1005
0
1005
0
1005
0
1005
0
1005
0
1005
0
1005
0
1005
0
1001
GENIUS_GENSCREG_15
1000
PF
1040
1.0
1000
DF
1040
1.0
1000
MIN
1011
-0.9894751770494707
1021
-0.4889791793645202
1031
0.0
1000
MAX
1011
17.44976951779224
1021
10.62281423036429
1031
0.0
1000
FLAGS
1070
     2
  0
LWPOLYLINE
  5
175
330
1B
100
AcDbEntity
 67
     1
  8
VIEWPORT
100
AcDbPolyline
 90
        6
 70
     1
 43
0.0
 10
16.40000099999999
 20
10.25
 10
16.40000099999999
 20
0.9120019999999993
 10
8.002461
 20
0.9120019999999993
 10
8.002461
 20
0.0
 10
0.0
 20
0.0
 10
0.0
 20
10.25
1001
GENIUS_GENOREF_13
1005
0
1005
0
1005
0
1005
0
1005
0
1005
0
1005
0
1005
0
1005
0
1005
0
1005
0
1005
0
1005
0
1005
0
1005
0
1005
0
1005
0
1005
0
1005
0
1005
0
1005
0
1005
0
1005
0
  0
VIEWPORT
  5
177
330
1B
100
AcDbEntity
 67
     1
  8
VIEWPORT
100
AcDbViewport
 10
8.200000499999999
 20
5.125
 30
0.0
 40
16.40000099999999
 41
10.25
 68
     2
 69
     2
1001
ACAD
1000
MVIEW
1002
{
1070
    16
1010
0.0
1020
0.0
1030
0.0
1010
0.0
1020
0.0
1030
1.0
1040
0.0
1040
20.5
1040
16.40000115274158
1040
10.25000009546347
1040
50.0
1040
0.0
1040
0.0
1070
     0
1070
   100
1070
     1
1070
     2
1070
     0
1070
     0
1070
     0
1070
     0
1040
0.0
1040
0.0
1040
0.0
1040
0.5
1040
0.5
1040
0.5
1040
0.5
1070
     0
1002
{
1002
}
1002
}
1001
GENIUS_GENOREF_13
1005
0
1005
0
1005
0
1005
0
1005
0
1005
0
1005
0
1005
0
1005
0
1005
0
1005
0
1005
0
1005
0
1005
0
1005
0
1005
0
1005
0
1005
0
1005
0
1005
0
1005
0
1005
0
1005
0
1001
GENIUS_GENSCREG_15
1000
PF
1040
0.0
1000
DF
1040
0.0
1000
MIN
1011
0.0
1021
0.0
1031
0.0
1000
MAX
1011
16.40000099999999
1021
10.25
1031
0.0
1000
FLAGS
1070
     2
  0
INSERT
  5
626C
330
1B
100
AcDbEntity
 67
     1
  8
TITLEBLOCK
100
AcDbBlockReference
 66
     1
  2
TITLE-PAD
 10
0.0
 20
0.0
 30
0.0
  0
ATTRIB
  5
626D
330
626C
100
AcDbEntity
 67
     1
  8
TEXT1
 62
     0
100
AcDbText
 10
10.10183834893798
 20
0.7474460884590166
 30
0.0
 40
0.1
  1

  7
ROMANS
 72
     4
 11
10.10183834893798
 21
0.7474460884590166
 31
0.0
100
AcDbAttribute
  2
DESCRIPTION 1
 70
     0
  0
ATTRIB
  5
626E
330
626C
100
AcDbEntity
 67
     1
  8
TEXT1
 62
     0
100
AcDbText
 10
8.62326692036656
 20
0.5517231711406715
 30
0.0
 40
0.1
  1
OPERATING MECHANISM FOR USE WITH
  7
ROMANS
 72
     4
 11
10.10183834893798
 21
0.6017231711406717
 31
0.0
100
AcDbAttribute
  2
DESCRIPTION 2
 70
     0
  0
ATTRIB
  5
626F
330
626C
100
AcDbEntity
 67
     1
  8
TEXT1
 62
     0
100
AcDbText
 10
8.966600253699892
 20
0.4160002538223267
 30
0.0
 40
0.08
  1
TYPE KAL & KHL CIRCUIT BREAKERS
  7
ROMANS
 72
     4
 11
10.10183834893798
 21
0.4560002538223267
 31
0.0
100
AcDbAttribute
  2
DESCRIPTION 3
 70
     0
  0
ATTRIB
  5
6270
330
626C
100
AcDbEntity
 67
     1
  8
TEXT1
 62
     0
100
AcDbText
 10
9.398981206080845
 20
0.2802773365039832
 30
0.0
 40
0.08
  1
CLASS 9422 TYPE RP1
  7
ROMANS
 72
     4
 11
10.10183834893798
 21
0.3202773365039833
 31
0.0
100
AcDbAttribute
  2
DESCRIPTION 4
 70
     0
  0
ATTRIB
  5
6271
330
626C
100
AcDbEntity
 67
     1
  8
TEXT1
 62
     0
100
AcDbText
 10
10.10183834893798
 20
0.1845544191856399
 30
0.0
 40
0.08
  1

  7
ROMANS
 72
     4
 11
10.10183834893798
 21
0.1845544191856399
 31
0.0
100
AcDbAttribute
  2
DESCRIPTION 5
 70
     0
  0
ATTRIB
  5
6272
330
626C
100
AcDbEntity
 67
     1
  8
TEXT1
 62
     0
100
AcDbText
 10
12.74772367103195
 20
0.096540546036505
 30
0.0
 40
0.12
  1
9422 RR_OUTLINE_001
 41
0.9512024731840066
  7
M_STANDARD
 11
12.74772367103195
 21
0.156540546036505
 31
0.0
100
AcDbAttribute
  2
DWGNO
 70
     0
 74
     2
  0
ATTRIB
  5
6273
330
626C
100
AcDbEntity
 67
     1
  8
TEXT1
 62
     0
100
AcDbText
 10
15.78363597806468
 20
-0.1507193079929352
 30
0.0
 40
0.08
  1
E0100901
  7
ROMANS
 72
     2
 11
16.35506454949325
 21
-0.1107193079929352
 31
0.0
100
AcDbAttribute
  2
REF
 70
     0
 74
     2
  0
ATTRIB
  5
6274
330
626C
100
AcDbEntity
 67
     1
  8
TEXT1
 62
     0
100
AcDbText
 10
0.0266402374038712
 20
-0.1507193079929352
 30
0.0
 40
0.08
  1
FEBRUARY 2001
  7
ROMANS
 11
0.0266402374038712
 21
-0.1107193079929352
 31
0.0
100
AcDbAttribute
  2
DATE
 70
     0
 74
     2
  0
SEQEND
  5
6275
330
626C
100
AcDbEntity
 67
     1
  8
0
  0
INSERT
  5
A9A1
330
1B
100
AcDbEntity
 67
     1
  8
0
100
AcDbBlockReference
  2
A$C0AEE0489
 10
0.0
 20
0.0
 30
0.0
 41
0.5
 42
0.5
 43
0.5
  0
ENDSEC
  0
SECTION
  2
OBJECTS
  0
DICTIONARY
  5
C
330
0
100
AcDbDictionary
  3
ACAD_GROUP
350
D
  3
ACAD_LAYOUT
350
1A
  3
ACAD_MLINESTYLE
350
17
  3
ACAD_PLOTSETTINGS
350
19
  3
ACAD_PLOTSTYLENAME
350
E
  3
ACADDIM
350
8610
  3
ACDBHEADERROUNDTRIPXREC
350
AB20
  3
ACDBVARIABLEDICTIONARY
350
374
  3
ACMDICTIONARY
350
383
  3
AMG
350
36B
  3
AMGSNAPSETTINGS
350
399
  3
ASE_INDEX_DICTIONARY
350
6A
  3
DWGPROPS
350
A686
  0
DICTIONARY
  5
73
330
1F
100
AcDbDictionary
280
     1
  3
ACAD_INDEX
360
AA11
  3
ACAD_LAYOUTSELFREF
360
AB42
  0
DICTIONARY
  5
75
330
1B
100
AcDbDictionary
280
     1
  3
ACAD_LAYOUTSELFREF
360
AB41
  0
DICTIONARY
  5
D
102
{ACAD_REACTORS
330
C
102
}
330
C
100
AcDbDictionary
  0
DICTIONARY
  5
1A
102
{ACAD_REACTORS
330
C
102
}
330
C
100
AcDbDictionary
  0
DICTIONARY
  5
17
102
{ACAD_REACTORS
330
C
102
}
330
C
100
AcDbDictionary
  3
STANDARD
350
18
  0
DICTIONARY
  5
19
102
{ACAD_REACTORS
330
C
102
}
330
C
100
AcDbDictionary
  3
A_SIZE_PAPER
350
2FF
  3
B_SIZE_PAPER
350
2FD
  3
D_SIZE_PAPER
350
2FE
  0
ACDBDICTIONARYWDFLT
  5
E
102
{ACAD_REACTORS
330
C
102
}
330
C
100
AcDbDictionary
281
     1
  3
Normal
350
F
100
AcDbDictionaryWithDefault
340
F
  0
XRECORD
  5
8610
102
{ACAD_REACTORS
330
C
102
}
330
C
100
AcDbXrecord
 90
   990106
  3

 60
     0
 61
     0
 62
     1
 63
     3
 64
     0
 65
     0
 66
     0
 67
     3
 68
     1
 69
     0
 70
     0
 71
     0
 72
     0
 40
0.0
170
     0
340
8886
  0
DICTIONARY
  5
AB20
102
{ACAD_REACTORS
330
C
102
}
330
C
100
AcDbDictionary
  3
CEPSNTYPE
350
AB2A
  3
DIMSTYLEDATA
350
AB2E
  3
FINGERPRINTGUID
350
AB2B
  3
HYPERLINKBASE
350
AB23
  3
INSUNITS
350
AB29
  3
LAYOUTDICT
350
AB25
  3
LWETCUNION
350
AB28
  3
PLOTSETDICT
350
AB26
  3
PLOTSTYLNAMDICT
350
AB27
  3
PSVPSCALE
350
AB2D
  3
PUCSBASE
350
AB31
  3
PUCSORGBACK
350
AB37
  3
PUCSORGBOTTOM
350
AB33
  3
PUCSORGFRONT
350
AB36
  3
PUCSORGLEFT
350
AB34
  3
PUCSORGRIGHT
350
AB35
  3
PUCSORGTOP
350
AB32
  3
PUCSORTHOREF
350
AB2F
  3
PUCSORTHOVIEW
350
AB30
  3
STYLESHEET
350
AB24
  3
TSTACKALIGN
350
AB21
  3
TSTACKSIZE
350
AB22
  3
UCSBASE
350
AB3A
  3
UCSORGBACK
350
AB40
  3
UCSORGBOTTOM
350
AB3C
  3
UCSORGFRONT
350
AB3F
  3
UCSORGLEFT
350
AB3D
  3
UCSORGRIGHT
350
AB3E
  3
UCSORGTOP
350
AB3B
  3
UCSORTHOREF
350
AB38
  3
UCSORTHOVIEW
350
AB39
  3
VERSIONGUID
350
AB2C
  0
DICTIONARY
  5
374
102
{ACAD_REACTORS
330
C
102
}
330
C
100
AcDbDictionary
  3
INDEXCTL
350
375
  0
DICTIONARY
  5
383
102
{ACAD_REACTORS
330
C
102
}
330
C
100
AcDbDictionary
  0
DICTIONARY
  5
36B
102
{ACAD_REACTORS
330
C
102
}
330
C
100
AcDbDictionary
  3
ACMGSETTINGS
350
36C
  0
DICTIONARY
  5
399
102
{ACAD_REACTORS
330
C
102
}
330
C
100
AcDbDictionary
  0
DICTIONARY
  5
6A
102
{ACAD_REACTORS
330
C
102
}
330
C
100
AcDbDictionary
  3
ASEBLOCKHIERARCHYINDEXRECORD
350
6C
1001
DCO15
1040
1379130883.246999
  0
XRECORD
  5
A686
102
{ACAD_REACTORS
330
C
102
}
330
C
100
AcDbXrecord
  1
DWGPROPS COOKIE
  2

  3

  4

  6

  7

  8
mgp706
  9

300
AmdtFileType=84
301
=
302
=
303
=
304
=
305
=
306
=
307
=
308
=
309
=
 40
0.5665677199074075
 41
2451764.535041909
 42
2451878.433317673
  1

 90
        1
  0
DICTIONARY
  5
AA11
102
{ACAD_REACTORS
330
73
102
}
330
73
100
AcDbDictionary
  3
*A1
350
AA12
  0
XRECORD
  5
AB42
102
{ACAD_REACTORS
330
73
102
}
330
73
100
AcDbXrecord
340
1F
  0
XRECORD
  5
AB41
102
{ACAD_REACTORS
330
75
102
}
330
75
100
AcDbXrecord
340
1B
  0
MLINESTYLE
  5
18
102
{ACAD_REACTORS
330
17
102
}
330
17
100
AcDbMlineStyle
  2
STANDARD
 70
     0
  3

 62
   256
 51
90.0
 52
90.0
 71
     2
 49
0.5
 62
   256
  6
BYLAYER
 49
-0.5
 62
   256
  6
BYLAYER
  0
PLOTSETTINGS
  5
2FF
102
{ACAD_REACTORS
330
19
102
}
330
19
100
AcDbPlotSettings
  1
A Size Paper
  2
none_device
  4
ANSI_A_(8.50_x_11.00_Inches)
  6

 40
6.349999904632568
 41
19.04999923706054
 42
6.350006103515625
 43
19.04998779296875
 44
215.8999938964843
 45
279.3999938964843
 46
19.04999999999999
 47
-9.651999999999999
 48
0.0
 49
0.0
140
0.0
141
0.0
142
1.0
143
1.6
 70
   740
 72
     0
 73
     1
 74
     1
  7
monochrome.ctb
 75
     0
147
0.625
148
0.0034886547032954
149
0.0199946439100934
  0
PLOTSETTINGS
  5
2FD
102
{ACAD_REACTORS
330
19
102
}
330
19
100
AcDbPlotSettings
  1
B Size Paper
  2
none_device
  4
ANSI_B_(11.00_x_17.00_Inches)
  6

 40
6.349999904632568
 41
19.04999923706054
 42
6.350006103515625
 43
19.04998779296875
 44
279.3999938964843
 45
431.7999877929687
 46
1.27
 47
-11.43
 48
0.0
 49
0.0
140
0.0
141
0.0
142
1.0
143
1.0
 70
   756
 72
     0
 73
     1
 74
     1
  7
monochrome.ctb
 75
    16
147
1.0
148
0.0034886547032954
149
0.0199946439100934
  0
PLOTSETTINGS
  5
2FE
102
{ACAD_REACTORS
330
19
102
}
330
19
100
AcDbPlotSettings
  1
D Size Paper
  2
none_device
  4
ANSI_D_(22.00_x_34.00_Inches)
  6

 40
6.349999904632568
 41
19.04999923706054
 42
6.3499755859375
 43
19.04998779296875
 44
558.7999877929687
 45
863.5999755859375
 46
8.889999999999998
 47
-3.809999999999999
 48
0.0
 49
0.0
140
0.0
141
0.0
142
1.0
143
0.5
 70
   740
 72
     0
 73
     1
 74
     1
  7
monochrome.ctb
 75
     0
147
2.0
148
0.0034886547032954
149
0.0199946439100934
  0
ACDBPLACEHOLDER
  5
F
102
{ACAD_REACTORS
330
E
102
}
330
E
100
AcDbPlaceHolder
280
     0
  0
XRECORD
  5
AB2A
102
{ACAD_REACTORS
330
AB20
102
}
330
AB20
100
AcDbXrecord
 90
        0
  0
XRECORD
  5
AB2E
102
{ACAD_REACTORS
330
AB20
102
}
330
AB20
100
AcDbXrecord
1000
DSTYLE
1002
{
1070
    79
 70
     1
1070
   148
 40
0.1
1070
   341
340
A794
1070
   342
340
A794
1070
   371
 70
    -1
1070
   372
 70
    -1
1002
}
  0
XRECORD
  5
AB2B
102
{ACAD_REACTORS
330
AB20
102
}
330
AB20
100
AcDbXrecord
  1
{4E694E3A-6C64-11D4-81E3-0004AC4461C9}
  0
XRECORD
  5
AB23
102
{ACAD_REACTORS
330
AB20
102
}
330
AB20
100
AcDbXrecord
  1

  0
XRECORD
  5
AB29
102
{ACAD_REACTORS
330
AB20
102
}
330
AB20
100
AcDbXrecord
 90
        1
  0
XRECORD
  5
AB25
102
{ACAD_REACTORS
330
AB20
102
}
330
AB20
100
AcDbXrecord
340
1A
  0
XRECORD
  5
AB28
102
{ACAD_REACTORS
330
AB20
102
}
330
AB20
100
AcDbXrecord
 90
    10269
  0
XRECORD
  5
AB26
102
{ACAD_REACTORS
330
AB20
102
}
330
AB20
100
AcDbXrecord
340
19
  0
XRECORD
  5
AB27
102
{ACAD_REACTORS
330
AB20
102
}
330
AB20
100
AcDbXrecord
340
E
  0
XRECORD
  5
AB2D
102
{ACAD_REACTORS
330
AB20
102
}
330
AB20
100
AcDbXrecord
 40
1.0
  0
XRECORD
  5
AB31
102
{ACAD_REACTORS
330
AB20
102
}
330
AB20
100
AcDbXrecord
340
0
  0
XRECORD
  5
AB37
102
{ACAD_REACTORS
330
AB20
102
}
330
AB20
100
AcDbXrecord
 10
0.0
 20
0.0
 30
0.0
  0
XRECORD
  5
AB33
102
{ACAD_REACTORS
330
AB20
102
}
330
AB20
100
AcDbXrecord
 10
0.0
 20
0.0
 30
0.0
  0
XRECORD
  5
AB36
102
{ACAD_REACTORS
330
AB20
102
}
330
AB20
100
AcDbXrecord
 10
0.0
 20
0.0
 30
0.0
  0
XRECORD
  5
AB34
102
{ACAD_REACTORS
330
AB20
102
}
330
AB20
100
AcDbXrecord
 10
0.0
 20
0.0
 30
0.0
  0
XRECORD
  5
AB35
102
{ACAD_REACTORS
330
AB20
102
}
330
AB20
100
AcDbXrecord
 10
0.0
 20
0.0
 30
0.0
  0
XRECORD
  5
AB32
102
{ACAD_REACTORS
330
AB20
102
}
330
AB20
100
AcDbXrecord
 10
0.0
 20
0.0
 30
0.0
  0
XRECORD
  5
AB2F
102
{ACAD_REACTORS
330
AB20
102
}
330
AB20
100
AcDbXrecord
340
0
  0
XRECORD
  5
AB30
102
{ACAD_REACTORS
330
AB20
102
}
330
AB20
100
AcDbXrecord
 70
     0
  0
XRECORD
  5
AB24
102
{ACAD_REACTORS
330
AB20
102
}
330
AB20
100
AcDbXrecord
  1

  0
XRECORD
  5
AB21
102
{ACAD_REACTORS
330
AB20
102
}
330
AB20
100
AcDbXrecord
 90
        1
  0
XRECORD
  5
AB22
102
{ACAD_REACTORS
330
AB20
102
}
330
AB20
100
AcDbXrecord
 90
       70
  0
XRECORD
  5
AB3A
102
{ACAD_REACTORS
330
AB20
102
}
330
AB20
100
AcDbXrecord
340
0
  0
XRECORD
  5
AB40
102
{ACAD_REACTORS
330
AB20
102
}
330
AB20
100
AcDbXrecord
 10
0.0
 20
0.0
 30
0.0
  0
XRECORD
  5
AB3C
102
{ACAD_REACTORS
330
AB20
102
}
330
AB20
100
AcDbXrecord
 10
0.0
 20
0.0
 30
0.0
  0
XRECORD
  5
AB3F
102
{ACAD_REACTORS
330
AB20
102
}
330
AB20
100
AcDbXrecord
 10
0.0
 20
0.0
 30
0.0
  0
XRECORD
  5
AB3D
102
{ACAD_REACTORS
330
AB20
102
}
330
AB20
100
AcDbXrecord
 10
0.0
 20
0.0
 30
0.0
  0
XRECORD
  5
AB3E
102
{ACAD_REACTORS
330
AB20
102
}
330
AB20
100
AcDbXrecord
 10
0.0
 20
0.0
 30
0.0
  0
XRECORD
  5
AB3B
102
{ACAD_REACTORS
330
AB20
102
}
330
AB20
100
AcDbXrecord
 10
0.0
 20
0.0
 30
0.0
  0
XRECORD
  5
AB38
102
{ACAD_REACTORS
330
AB20
102
}
330
AB20
100
AcDbXrecord
340
0
  0
XRECORD
  5
AB39
102
{ACAD_REACTORS
330
AB20
102
}
330
AB20
100
AcDbXrecord
 70
     0
  0
XRECORD
  5
AB2C
102
{ACAD_REACTORS
330
AB20
102
}
330
AB20
100
AcDbXrecord
  1
{B6EAA4FB-0C2A-11D5-B1B2-000629309E34}
  0
DICTIONARYVAR
  5
375
102
{ACAD_REACTORS
330
374
102
}
330
374
100
DictionaryVariables
280
     0
  1
1
  0
DICTIONARY
  5
36C
102
{ACAD_REACTORS
330
36B
102
}
330
36B
100
AcDbDictionary
  3
DWGSETTINGS
350
A672
  0
XRECORD
  5
6C
102
{ACAD_REACTORS
330
6A
102
}
330
6A
100
AcDbXrecord
  0
LAYER_INDEX
  5
AA12
102
{ACAD_REACTORS
330
AA11
102
}
330
AA11
100
AcDbIndex
 40
2451967.647936296
100
AcDbLayerIndex
  8
0
360
AA13
 90
       15
  8
CENTER1
360
AA14
 90
       17
  8
CONTINUOUS1
360
AA15
 90
      387
  8
CONTINUOUS2
360
AA16
 90
       68
  8
CONTINUOUS3
360
AA17
 90
        0
  8
DIM
360
AA18
 90
       28
  8
HIDDEN1
360
AA19
 90
       12
  8
TEXT1
360
AA1A
 90
        5
  8
TEXT2
360
AA1B
 90
        0
  8
TITLEBLOCK
360
AA1C
 90
        0
  8
VIEWPORT
360
AA1D
 90
        2
  8
REFERENCE
360
AA1E
 90
        1
  8
Defpoints
360
AA1F
 90
        0
  8
PHANTOM1
360
AA20
 90
        0
  8
PHANTOM2
360
AA21
 90
        0
  8
PHANTOM3
360
AA22
 90
        0
  8
DASHDOT2
360
AA23
 90
        0
  8
DASHDOT3
360
AA24
 90
        0
  8
HIDDEN2
360
AA25
 90
        0
  8
HIDDEN3
360
AA26
 90
        0
  8
TEXT3
360
AA27
 90
        0
  8
BLOCKS
360
AA28
 90
        0
  8
CENTER2
360
AA29
 90
        0
  8
CENTER3
360
AA2A
 90
        0
  8
CONSTRUCTION
360
AA2B
 90
        0
  8
DASHDOT1
360
AA2C
 90
        0
  0
XRECORD
  5
A672
102
{ACAD_REACTORS
330
36C
102
}
330
36C
100
AcDbXrecord
  1
VERSION
140
15.0
  1
PRODUCT
  2
AutoCAD Mechanical 2000
  0
IDBUFFER
  5
AA13
330
0
100
AcDbIdBuffer
330
3F59
330
5C7C
330
5C7E
330
6DF7
330
78A5
330
78A7
330
860A
330
860C
330
860E
330
8612
330
881A
330
881C
330
8828
330
8884
330
8886
  0
IDBUFFER
  5
AA14
330
0
100
AcDbIdBuffer
330
9F67
330
9D80
330
9D81
330
9D82
330
9D83
330
9D84
330
9D85
330
9E08
330
9E09
330
9E78
330
9E79
330
9E85
330
9E8B
330
9E8C
330
9E91
330
9E92
330
9F4E
  0
IDBUFFER
  5
AA15
330
0
100
AcDbIdBuffer
330
9F16
330
9F17
330
9F18
330
9F19
330
9F1A
330
9F1B
330
9F1C
330
9F1D
330
9F1E
330
9F1F
330
9F20
330
9F21
330
9F22
330
9F23
330
9F24
330
9F25
330
9F26
330
9F27
330
9F28
330
9F29
330
9F2A
330
9F2B
330
9F2C
330
9F2D
330
9F2E
330
9F2F
330
9F30
330
9F31
330
9F32
330
9F33
330
9F34
330
9F35
330
9F36
330
9F37
330
9F38
330
9F4D
330
9F4F
330
9F50
330
9F51
330
9F52
330
9F53
330
9F54
330
9F55
330
9F56
330
9F57
330
9F58
330
9F59
330
9F5A
330
9F5B
330
9F5C
330
9F5D
330
9F5E
330
9F5F
330
9F6D
330
9F6E
330
9F6F
330
9F90
330
9FB8
330
9FB9
330
A38B
330
A38C
330
A38D
330
A38E
330
A38F
330
A390
330
A391
330
A392
330
A393
330
A394
330
A395
330
A396
330
A397
330
A398
330
A399
330
A39A
330
A39B
330
A39C
330
A39D
330
A39E
330
A39F
330
A3A0
330
A3A1
330
A3A2
330
A3A3
330
A3A4
330
A3A5
330
A3A6
330
A3A7
330
A3A8
330
A3A9
330
A3AA
330
A3AB
330
A3AC
330
A3AD
330
A3AE
330
A3AF
330
A3B0
330
A3B1
330
A3B2
330
A3B3
330
A3B4
330
A3B5
330
A3B6
330
A3B7
330
A3B8
330
A3B9
330
A3BA
330
A3BB
330
A3BC
330
A3BD
330
A3BE
330
A3BF
330
A3C0
330
A3C1
330
A3C2
330
A3C3
330
A3C4
330
A3C5
330
A3C6
330
A3C7
330
A3C8
330
A3C9
330
A3CA
330
A3CB
330
A3CC
330
A3CD
330
A3CE
330
A3CF
330
A3D0
330
A3D1
330
A3D2
330
A3D3
330
A3D4
330
A3D5
330
A3D6
330
A3D7
330
A3D8
330
A3D9
330
A3DA
330
A3DB
330
A3DC
330
A3DD
330
A3DE
330
A3DF
330
A3E0
330
A3E1
330
A3E2
330
9D7D
330
9D7E
330
9D7F
330
9D8D
330
9D8E
330
9D8F
330
9D90
330
9D91
330
9D92
330
9D93
330
9D94
330
9D95
330
9D96
330
9D97
330
9D98
330
9D99
330
9D9A
330
9D9B
330
9D9C
330
9D9D
330
9D9E
330
9D9F
330
9DA0
330
9DA1
330
9DA2
330
9DA3
330
9DA4
330
9DA5
330
9DA6
330
9DA7
330
9DA8
330
9DA9
330
9DAA
330
9DAB
330
9DAC
330
9DAD
330
9DAE
330
9DAF
330
9DB0
330
9DB1
330
9DB2
330
9DB3
330
9DB4
330
9DB5
330
9DB6
330
9DB7
330
9DB8
330
9DB9
330
9DBA
330
9DBB
330
9DBC
330
9DBD
330
9DBE
330
9DBF
330
9DC0
330
9DC1
330
9DC2
330
9DC3
330
9DC4
330
9DC5
330
9DC6
330
9DC7
330
9DC8
330
9DC9
330
9DCA
330
9DCB
330
9DCC
330
9DCD
330
9DCE
330
9DCF
330
9DD0
330
9DD1
330
9DD2
330
9DD3
330
9DD4
330
9DD5
330
9DD6
330
9DD7
330
9DD8
330
9DD9
330
9DDA
330
9DDB
330
9DDC
330
9DDD
330
9DDE
330
9DDF
330
9DE0
330
9DE1
330
9DE2
330
9DE3
330
9DE4
330
9DE5
330
9DE6
330
9DE7
330
9DE8
330
9DE9
330
9DEA
330
9DEB
330
9DEC
330
9DF8
330
9DF9
330
9DFA
330
9DFB
330
9DFC
330
9DFD
330
9DFE
330
9DFF
330
9E00
330
9E01
330
9E02
330
9E03
330
9E0A
330
9E0B
330
9E0C
330
9E0D
330
9E0E
330
9E0F
330
9E10
330
9E11
330
9E12
330
9E13
330
9E14
330
9E15
330
9E16
330
9E17
330
9E18
330
9E19
330
9E1A
330
9E1B
330
9E1C
330
9E1D
330
9E1E
330
9E1F
330
9E20
330
9E2C
330
9E2D
330
9E2E
330
9E2F
330
9E30
330
9E31
330
9E32
330
9E33
330
9E34
330
9E35
330
9E36
330
9E37
330
9E3B
330
9E95
330
9E96
330
9E97
330
9E98
330
9E99
330
9E9A
330
9E9B
330
9E9C
330
9E9D
330
9E9E
330
9EA6
330
9EA8
330
9EA9
330
9EAA
330
9EAB
330
9EAC
330
9EAD
330
9EAE
330
9EAF
330
9EB5
330
9EB6
330
9EB7
330
9EB8
330
9EB9
330
9EBA
330
9EBB
330
9EBC
330
9EBD
330
9EBE
330
9EBF
330
9EC0
330
9EC1
330
9EC2
330
9ECF
330
9EDB
330
9EDC
330
9EDD
330
9EDE
330
9EDF
330
9EE0
330
9EE1
330
9EE2
330
9EE3
330
9EE4
330
9EE5
330
9EE6
330
9EE7
330
9EE8
330
9EE9
330
9EEA
330
9EEB
330
9EEC
330
9EED
330
9EEE
330
9EEF
330
9EF0
330
9EF1
330
9EF2
330
9EF3
330
9EF4
330
9EF5
330
9EF6
330
9EF7
330
9EF8
330
9EF9
330
9EFA
330
9EFB
330
9EFC
330
9EFD
330
9EFE
330
9EFF
330
9F00
330
9F01
330
9F02
330
9F03
330
9F04
330
9F05
330
9F06
330
9F07
330
9F08
330
9F09
330
9F0A
330
9F0B
330
9F0C
330
9F0D
330
9F0E
330
9F0F
330
9F10
330
9F11
330
9F12
330
9F13
330
9F14
330
9F15
  0
IDBUFFER
  5
AA16
330
0
100
AcDbIdBuffer
330
9E56
330
9E57
330
9E58
330
9E59
330
9E5A
330
9E5B
330
9E5C
330
9E5D
330
9F39
330
9F3A
330
9F3B
330
9F3C
330
9F3D
330
9F3E
330
9F43
330
9F48
330
9F49
330
9F4A
330
9F4B
330
9F4C
330
9D86
330
9D87
330
9D88
330
9D89
330
9D8A
330
9D8B
330
9D8C
330
9E04
330
9E05
330
9E06
330
9E07
330
9E21
330
9E25
330
9E26
330
9E27
330
9E28
330
9E29
330
9E2A
330
9E2B
330
9E38
330
9E39
330
9E3A
330
9E3C
330
9E3D
330
9E3E
330
9E3F
330
9E40
330
9E41
330
9E42
330
9E43
330
9E44
330
9E45
330
9E46
330
9E47
330
9E48
330
9E49
330
9E4A
330
9E4B
330
9E4C
330
9E4D
330
9E4E
330
9E4F
330
9E50
330
9E51
330
9E52
330
9E53
330
9E54
330
9E55
  0
IDBUFFER
  5
AA17
330
0
100
AcDbIdBuffer
  0
IDBUFFER
  5
AA18
330
0
100
AcDbIdBuffer
330
9E74
330
9E75
330
9E90
330
9F60
330
A0D3
330
A0E1
330
A0EF
330
A2A2
330
A8D4
330
A8D5
330
A970
330
A971
330
9E5E
330
9E5F
330
9E60
330
9E61
330
9E62
330
9E65
330
9E6A
330
9E6B
330
9E6C
330
9E6D
330
9E6E
330
9E6F
330
9E70
330
9E71
330
9E72
330
9E73
  0
IDBUFFER
  5
AA19
330
0
100
AcDbIdBuffer
330
9E63
330
9E77
330
9E93
330
9E94
330
9E9F
330
9EA0
330
9EA1
330
9EA2
330
9EA3
330
9EA4
330
9EA5
330
9EA7
  0
IDBUFFER
  5
AA1A
330
0
100
AcDbIdBuffer
330
9E76
330
A0BB
330
A0BC
330
A0BD
330
A0BE
  0
IDBUFFER
  5
AA1B
330
0
100
AcDbIdBuffer
  0
IDBUFFER
  5
AA1C
330
0
100
AcDbIdBuffer
  0
IDBUFFER
  5
AA1D
330
0
100
AcDbIdBuffer
330
BF7
330
BF8
  0
IDBUFFER
  5
AA1E
330
0
100
AcDbIdBuffer
330
23A5
  0
IDBUFFER
  5
AA1F
330
0
100
AcDbIdBuffer
  0
IDBUFFER
  5
AA20
330
0
100
AcDbIdBuffer
  0
IDBUFFER
  5
AA21
330
0
100
AcDbIdBuffer
  0
IDBUFFER
  5
AA22
330
0
100
AcDbIdBuffer
  0
IDBUFFER
  5
AA23
330
0
100
AcDbIdBuffer
  0
IDBUFFER
  5
AA24
330
0
100
AcDbIdBuffer
  0
IDBUFFER
  5
AA25
330
0
100
AcDbIdBuffer
  0
IDBUFFER
  5
AA26
330
0
100
AcDbIdBuffer
  0
IDBUFFER
  5
AA27
330
0
100
AcDbIdBuffer
  0
IDBUFFER
  5
AA28
330
0
100
AcDbIdBuffer
  0
IDBUFFER
  5
AA29
330
0
100
AcDbIdBuffer
  0
IDBUFFER
  5
AA2A
330
0
100
AcDbIdBuffer
  0
IDBUFFER
  5
AA2B
330
0
100
AcDbIdBuffer
  0
IDBUFFER
  5
AA2C
330
0
100
AcDbIdBuffer
  0
ENDSEC
  0
EOF
