  0
SECTION
  2
HEADER
  9
$ACADVER
  1
AC1014
  9
$ACADMAINTVER
 70
     0
  9
$DWGCODEPAGE
  3
ANSI_1252
  9
$INSBASE
 10
59.953689
 20
150.804907
 30
0.0
  9
$EXTMIN
 10
33.53879
 20
107.641204
 30
0.0
  9
$EXTMAX
 10
102.667447
 20
165.605059
 30
0.0
  9
$LIMMIN
 10
0.0
 20
0.0
  9
$LIMMAX
 10
210.0
 20
297.0
  9
$ORTHOMODE
 70
     0
  9
$REGENMODE
 70
     1
  9
$FILLMODE
 70
     1
  9
$QTEXTMODE
 70
     0
  9
$MIRRTEXT
 70
     1
  9
$DRAGMODE
 70
     2
  9
$LTSCALE
 40
7.0
  9
$OSMODE
 70
     0
  9
$ATTMODE
 70
     1
  9
$TEXTSIZE
 40
0.2
  9
$TRACEWID
 40
0.05
  9
$TEXTSTYLE
  7
STANDARD
  9
$CLAYER
  8
COTATION1
  9
$CELTYPE
  6
BYLAYER
  9
$CECOLOR
 62
   256
  9
$CELTSCALE
 40
1.0
  9
$DELOBJ
 70
     1
  9
$DISPSILH
 70
     0
  9
$DIMSCALE
 40
1.0
  9
$DIMASZ
 40
3.0
  9
$DIMEXO
 40
0.0625
  9
$DIMDLI
 40
0.38
  9
$DIMRND
 40
0.01
  9
$DIMDLE
 40
0.0
  9
$DIMEXE
 40
0.18
  9
$DIMTP
 40
0.0
  9
$DIMTM
 40
0.0
  9
$DIMTXT
 40
2.5
  9
$DIMCEN
 40
0.09
  9
$DIMTSZ
 40
0.0
  9
$DIMTOL
 70
     0
  9
$DIMLIM
 70
     0
  9
$DIMTIH
 70
     0
  9
$DIMTOH
 70
     0
  9
$DIMSE1
 70
     0
  9
$DIMSE2
 70
     0
  9
$DIMTAD
 70
     1
  9
$DIMZIN
 70
    12
  9
$DIMBLK
  1

  9
$DIMASO
 70
     1
  9
$DIMSHO
 70
     1
  9
$DIMPOST
  1

  9
$DIMAPOST
  1

  9
$DIMALT
 70
     0
  9
$DIMALTD
 70
     2
  9
$DIMALTF
 40
25.4
  9
$DIMLFAC
 40
1.0
  9
$DIMTOFL
 70
     1
  9
$DIMTVP
 40
0.0
  9
$DIMTIX
 70
     0
  9
$DIMSOXD
 70
     0
  9
$DIMSAH
 70
     0
  9
$DIMBLK1
  1

  9
$DIMBLK2
  1

  9
$DIMSTYLE
  2
SC_STAND
  9
$DIMCLRD
 70
     0
  9
$DIMCLRE
 70
     0
  9
$DIMCLRT
 70
     0
  9
$DIMTFAC
 40
1.0
  9
$DIMGAP
 40
1.0
  9
$DIMJUST
 70
     0
  9
$DIMSD1
 70
     0
  9
$DIMSD2
 70
     0
  9
$DIMTOLJ
 70
     1
  9
$DIMTZIN
 70
    12
  9
$DIMALTZ
 70
    12
  9
$DIMALTTZ
 70
    12
  9
$DIMFIT
 70
     5
  9
$DIMUPT
 70
     0
  9
$DIMUNIT
 70
     2
  9
$DIMDEC
 70
     4
  9
$DIMTDEC
 70
     4
  9
$DIMALTU
 70
     2
  9
$DIMALTTD
 70
     2
  9
$DIMTXSTY
  7
STANDARD
  9
$DIMAUNIT
 70
     0
  9
$LUNITS
 70
     2
  9
$LUPREC
 70
     4
  9
$SKETCHINC
 40
0.1
  9
$FILLETRAD
 40
0.0
  9
$AUNITS
 70
     0
  9
$AUPREC
 70
     0
  9
$MENU
  1
acad
  9
$ELEVATION
 40
0.0
  9
$PELEVATION
 40
0.0
  9
$THICKNESS
 40
0.0
  9
$LIMCHECK
 70
     0
  9
$BLIPMODE
 70
     1
  9
$CHAMFERA
 40
0.0
  9
$CHAMFERB
 40
0.0
  9
$CHAMFERC
 40
0.0
  9
$CHAMFERD
 40
0.0
  9
$SKPOLY
 70
     0
  9
$TDCREATE
 40
2451086.661016782
  9
$TDUPDATE
 40
2451387.897562442
  9
$TDINDWG
 40
0.0000116898
  9
$TDUSRTIMER
 40
0.0000116898
  9
$USRTIMER
 70
     1
  9
$ANGBASE
 50
0.0
  9
$ANGDIR
 70
     0
  9
$PDMODE
 70
     0
  9
$PDSIZE
 40
0.0
  9
$PLINEWID
 40
0.0
  9
$COORDS
 70
     1
  9
$SPLFRAME
 70
     0
  9
$SPLINETYPE
 70
     6
  9
$SPLINESEGS
 70
     8
  9
$ATTDIA
 70
     0
  9
$ATTREQ
 70
     1
  9
$HANDLING
 70
     1
  9
$HANDSEED
  5
3E2
  9
$SURFTAB1
 70
     6
  9
$SURFTAB2
 70
     6
  9
$SURFTYPE
 70
     6
  9
$SURFU
 70
     6
  9
$SURFV
 70
     6
  9
$UCSNAME
  2

  9
$UCSORG
 10
0.0
 20
0.0
 30
0.0
  9
$UCSXDIR
 10
1.0
 20
0.0
 30
0.0
  9
$UCSYDIR
 10
0.0
 20
1.0
 30
0.0
  9
$PUCSNAME
  2

  9
$PUCSORG
 10
0.0
 20
0.0
 30
0.0
  9
$PUCSXDIR
 10
1.0
 20
0.0
 30
0.0
  9
$PUCSYDIR
 10
0.0
 20
1.0
 30
0.0
  9
$USERI1
 70
     0
  9
$USERI2
 70
     0
  9
$USERI3
 70
     0
  9
$USERI4
 70
     0
  9
$USERI5
 70
     0
  9
$USERR1
 40
0.0
  9
$USERR2
 40
0.0
  9
$USERR3
 40
0.0
  9
$USERR4
 40
0.0
  9
$USERR5
 40
0.0
  9
$WORLDVIEW
 70
     1
  9
$SHADEDGE
 70
     3
  9
$SHADEDIF
 70
    70
  9
$TILEMODE
 70
     1
  9
$MAXACTVP
 70
    16
  9
$PINSBASE
 10
0.0
 20
0.0
 30
0.0
  9
$PLIMCHECK
 70
     0
  9
$PEXTMIN
 10
1.000000E+20
 20
1.000000E+20
 30
1.000000E+20
  9
$PEXTMAX
 10
-1.000000E+20
 20
-1.000000E+20
 30
-1.000000E+20
  9
$PLIMMIN
 10
0.0
 20
0.0
  9
$PLIMMAX
 10
12.0
 20
9.0
  9
$UNITMODE
 70
     0
  9
$VISRETAIN
 70
     0
  9
$PLINEGEN
 70
     0
  9
$PSLTSCALE
 70
     1
  9
$TREEDEPTH
 70
  3020
  9
$PICKSTYLE
 70
     1
  9
$CMLSTYLE
  2
STANDARD
  9
$CMLJUST
 70
     0
  9
$CMLSCALE
 40
1.0
  9
$PROXYGRAPHICS
 70
     1
  9
$MEASUREMENT
 70
     0
  0
ENDSEC
  0
SECTION
  2
CLASSES
  0
CLASS
  1
DICTIONARYVAR
  2
AcDbDictionaryVar
  3
"AutoCAD"
 90
        0
280
     0
281
     0
  0
CLASS
  1
LWPOLYLINE
  2
AcDbPolyline
  3
"AutoCAD"
 90
        0
280
     0
281
     1
  0
ENDSEC
  0
SECTION
  2
TABLES
  0
TABLE
  2
VPORT
  5
3B8
100
AcDbSymbolTable
 70
     1
  0
VPORT
  5
3DD
100
AcDbSymbolTableRecord
100
AcDbViewportTableRecord
  2
*ACTIVE
 70
     0
 10
0.0
 20
0.0
 11
1.0
 21
1.0
 12
189.545455
 22
113.428776
 13
0.0
 23
0.0
 14
1.0
 24
1.0
 15
0.0
 25
0.0
 16
0.0
 26
0.0
 36
1.0
 17
0.0
 27
0.0
 37
0.0
 40
226.857552
 41
1.671053
 42
50.0
 43
0.0
 44
0.0
 50
0.0
 51
0.0
 71
     0
 72
   100
 73
     1
 74
     1
 75
     0
 76
     0
 77
     0
 78
     0
  0
ENDTAB
  0
TABLE
  2
LTYPE
  5
3B5
100
AcDbSymbolTable
 70
     1
  0
LTYPE
  5
3C1
100
AcDbSymbolTableRecord
100
AcDbLinetypeTableRecord
  2
BYBLOCK
 70
     0
  3

 72
    65
 73
     0
 40
0.0
  0
LTYPE
  5
3C2
100
AcDbSymbolTableRecord
100
AcDbLinetypeTableRecord
  2
BYLAYER
 70
     0
  3

 72
    65
 73
     0
 40
0.0
  0
LTYPE
  5
3C3
100
AcDbSymbolTableRecord
100
AcDbLinetypeTableRecord
  2
CONTINUOUS
 70
     0
  3
Solid line
 72
    65
 73
     0
 40
0.0
  0
ENDTAB
  0
TABLE
  2
LAYER
  5
3B2
100
AcDbSymbolTable
 70
     4
  0
LAYER
  5
3BE
100
AcDbSymbolTableRecord
100
AcDbLayerTableRecord
  2
0
 70
     0
 62
     7
  6
CONTINUOUS
  0
LAYER
  5
3D1
100
AcDbSymbolTableRecord
100
AcDbLayerTableRecord
  2
COTATION1
 70
     0
 62
     2
  6
CONTINUOUS
  0
LAYER
  5
3D2
100
AcDbSymbolTableRecord
100
AcDbLayerTableRecord
  2
ALPHA
 70
     0
 62
   255
  6
CONTINUOUS
  0
LAYER
  5
3D3
100
AcDbSymbolTableRecord
100
AcDbLayerTableRecord
  2
DEFPOINTS
 70
     0
 62
     7
  6
CONTINUOUS
  0
ENDTAB
  0
TABLE
  2
STYLE
  5
3B3
100
AcDbSymbolTable
 70
     2
  0
STYLE
  5
3BF
100
AcDbSymbolTableRecord
100
AcDbTextStyleTableRecord
  2
STANDARD
 70
     0
 40
0.0
 41
1.0
 50
0.0
 71
     0
 42
0.2
  3
txt
  4

  0
STYLE
  5
3CE
100
AcDbSymbolTableRecord
100
AcDbTextStyleTableRecord
  2
ROMANS
 70
     0
 40
0.0
 41
1.0
 50
0.0
 71
     0
 42
2.9
  3
romans.shx
  4

  0
ENDTAB
  0
TABLE
  2
VIEW
  5
3B6
100
AcDbSymbolTable
 70
     0
  0
ENDTAB
  0
TABLE
  2
UCS
  5
3B7
100
AcDbSymbolTable
 70
     0
  0
ENDTAB
  0
TABLE
  2
APPID
  5
3B9
100
AcDbSymbolTable
 70
     1
  0
APPID
  5
3C0
100
AcDbSymbolTableRecord
100
AcDbRegAppTableRecord
  2
ACAD
 70
     0
  0
ENDTAB
  0
TABLE
  2
DIMSTYLE
  5
3BA
100
AcDbSymbolTable
 70
     1
  0
DIMSTYLE
105
3D0
102
{ACAD_REACTORS
330
1F
330
2D
102
}
100
AcDbSymbolTableRecord
100
AcDbDimStyleTableRecord
  2
SC_STAND
 70
     0
  3

  4

  5

  6

  7

 40
1.0
 41
3.0
 42
0.0625
 43
0.38
 44
0.18
 45
0.01
 46
0.0
 47
0.0
 48
0.0
140
2.5
141
0.09
142
0.0
143
25.4
144
1.0
145
0.0
146
1.0
147
1.0
 71
     0
 72
     0
 73
     0
 74
     0
 75
     0
 76
     0
 77
     1
 78
    12
170
     0
171
     2
172
     1
173
     0
174
     0
175
     0
176
     0
177
     0
178
     0
270
     2
271
     4
272
     4
273
     2
274
     2
340
3BF
275
     0
280
     0
281
     0
282
     0
283
     1
284
    12
285
    12
286
    12
287
     5
288
     0
  0
ENDTAB
  0
TABLE
  2
BLOCK_RECORD
  5
3B1
100
AcDbSymbolTable
 70
     2
  0
BLOCK_RECORD
  5
3C7
100
AcDbSymbolTableRecord
100
AcDbBlockTableRecord
  2
*MODEL_SPACE
  0
BLOCK_RECORD
  5
3C4
100
AcDbSymbolTableRecord
100
AcDbBlockTableRecord
  2
*PAPER_SPACE
  0
BLOCK_RECORD
  5
3CC
100
AcDbSymbolTableRecord
100
AcDbBlockTableRecord
  2
*D0
  0
BLOCK_RECORD
  5
3CD
100
AcDbSymbolTableRecord
100
AcDbBlockTableRecord
  2
*D1
  0
ENDTAB
  0
ENDSEC
  0
SECTION
  2
BLOCKS
  0
BLOCK
  5
3D6
100
AcDbEntity
  8
0
100
AcDbBlockBegin
  2
*MODEL_SPACE
 70
     0
 10
0.0
 20
0.0
 30
0.0
  3
*MODEL_SPACE
  1

  0
ENDBLK
  5
3D7
100
AcDbEntity
  8
0
100
AcDbBlockEnd
  0
BLOCK
  5
3D4
100
AcDbEntity
 67
     1
  8
0
100
AcDbBlockBegin
  2
*PAPER_SPACE
 70
     0
 10
0.0
 20
0.0
 30
0.0
  3
*PAPER_SPACE
  1

  0
ENDBLK
  5
3D5
100
AcDbEntity
 67
     1
  8
0
100
AcDbBlockEnd
  0
BLOCK
  5
38
100
AcDbEntity
  8
0
100
AcDbBlockBegin
  2
*D0
 70
     1
 10
0.0
 20
0.0
 30
0.0
  3
*D0
  1
AVE_GLOBAL
  0
LINE
  5
2F
100
AcDbEntity
  8
0
  6
BYBLOCK
 62
     0
100
AcDbLine
 10
33.925572
 20
149.961339
 30
0.0
 11
33.925572
 21
107.961204
 31
0.0
  0
LINE
  5
30
100
AcDbEntity
  8
0
  6
BYBLOCK
 62
     0
100
AcDbLine
 10
86.125572
 20
141.421433
 30
0.0
 11
86.125572
 21
107.961204
 31
0.0
  0
LINE
  5
31
100
AcDbEntity
  8
0
  6
BYBLOCK
 62
     0
100
AcDbLine
 10
36.925572
 20
108.141204
 30
0.0
 11
83.125572
 21
108.141204
 31
0.0
  0
SOLID
  5
32
100
AcDbEntity
  8
0
  6
BYBLOCK
 62
     0
100
AcDbTrace
 10
36.925572
 20
108.641204
 30
0.0
 11
36.925572
 21
107.641204
 31
0.0
 12
33.925572
 22
108.141204
 32
0.0
 13
33.925572
 23
108.141204
 33
0.0
  0
SOLID
  5
33
100
AcDbEntity
  8
0
  6
BYBLOCK
 62
     0
100
AcDbTrace
 10
83.125572
 20
108.641204
 30
0.0
 11
83.125572
 21
107.641204
 31
0.0
 12
86.125572
 22
108.141204
 32
0.0
 13
86.125572
 23
108.141204
 33
0.0
  0
TEXT
  5
34
100
AcDbEntity
  8
0
  6
BYBLOCK
 62
     0
100
AcDbText
 10
55.858905
 20
109.141204
 30
0.0
 40
2.5
  1
52.2
  7
ROMANS
100
AcDbText
  0
POINT
  5
35
100
AcDbEntity
  8
DEFPOINTS
  6
BYBLOCK
 62
     0
100
AcDbPoint
 10
33.925572
 20
150.023839
 30
0.0
  0
POINT
  5
36
100
AcDbEntity
  8
DEFPOINTS
  6
BYBLOCK
 62
     0
100
AcDbPoint
 10
86.125572
 20
141.483933
 30
0.0
  0
POINT
  5
37
100
AcDbEntity
  8
DEFPOINTS
  6
BYBLOCK
 62
     0
100
AcDbPoint
 10
86.125572
 20
108.141204
 30
0.0
  0
ENDBLK
  5
39
100
AcDbEntity
  8
0
100
AcDbBlockEnd
  0
BLOCK
  5
2B
100
AcDbEntity
  8
0
100
AcDbBlockBegin
  2
*D1
 70
     1
 10
0.0
 20
0.0
 30
0.0
  3
*D1
  1
AVE_GLOBAL
  0
LINE
  5
21
100
AcDbEntity
  8
0
  6
BYBLOCK
 62
     0
100
AcDbLine
 10
67.288072
 20
135.773839
 30
0.0
 11
102.347447
 21
135.773839
 31
0.0
  0
LINE
  5
22
100
AcDbEntity
  8
0
  6
BYBLOCK
 62
     0
100
AcDbLine
 10
67.288072
 20
164.273839
 30
0.0
 11
102.347447
 21
164.273839
 31
0.0
  0
LINE
  5
23
100
AcDbEntity
  8
0
  6
BYBLOCK
 62
     0
100
AcDbLine
 10
102.167447
 20
138.773839
 30
0.0
 11
102.167447
 21
161.273839
 31
0.0
  0
SOLID
  5
24
100
AcDbEntity
  8
0
  6
BYBLOCK
 62
     0
100
AcDbTrace
 10
101.667447
 20
138.773839
 30
0.0
 11
102.667447
 21
138.773839
 31
0.0
 12
102.167447
 22
135.773839
 32
0.0
 13
102.167447
 23
135.773839
 33
0.0
  0
SOLID
  5
25
100
AcDbEntity
  8
0
  6
BYBLOCK
 62
     0
100
AcDbTrace
 10
101.667447
 20
161.273839
 30
0.0
 11
102.667447
 21
161.273839
 31
0.0
 12
102.167447
 22
164.273839
 32
0.0
 13
102.167447
 23
164.273839
 33
0.0
  0
TEXT
  5
26
100
AcDbEntity
  8
0
  6
BYBLOCK
 62
     0
100
AcDbText
 10
101.167447
 20
145.857172
 30
0.0
 40
2.5
  1
28.5
 50
90.0
  7
ROMANS
100
AcDbText
  0
POINT
  5
27
100
AcDbEntity
  8
DEFPOINTS
  6
BYBLOCK
 62
     0
100
AcDbPoint
 10
67.225572
 20
135.773839
 30
0.0
  0
POINT
  5
29
100
AcDbEntity
  8
DEFPOINTS
  6
BYBLOCK
 62
     0
100
AcDbPoint
 10
67.225572
 20
164.273839
 30
0.0
  0
POINT
  5
2A
100
AcDbEntity
  8
DEFPOINTS
  6
BYBLOCK
 62
     0
100
AcDbPoint
 10
102.167447
 20
164.273839
 30
0.0
  0
ENDBLK
  5
2C
100
AcDbEntity
  8
0
100
AcDbBlockEnd
  0
ENDSEC
  0
SECTION
  2
ENTITIES
  0
DIMENSION
  5
1F
100
AcDbEntity
  8
COTATION1
100
AcDbDimension
  2
*D1
 10
102.167447
 20
164.273839
 30
0.0
 11
99.917447
 21
150.023839
 31
0.0
  3
SC_STAND
100
AcDbAlignedDimension
 13
67.225572
 23
135.773839
 33
0.0
 14
67.225572
 24
164.273839
 34
0.0
 50
90.0
100
AcDbRotatedDimension
  0
DIMENSION
  5
2D
100
AcDbEntity
  8
COTATION1
100
AcDbDimension
  2
*D0
 10
86.125572
 20
108.141204
 30
0.0
 11
60.025572
 21
110.391204
 31
0.0
  3
SC_STAND
100
AcDbAlignedDimension
 13
33.925572
 23
150.023839
 33
0.0
 14
86.125572
 24
141.483933
 34
0.0
100
AcDbRotatedDimension
  0
LWPOLYLINE
  5
3A
100
AcDbEntity
  8
ALPHA
100
AcDbPolyline
 90
       22
 70
     0
 43
0.0
 10
54.559546
 20
165.023839
 10
54.559546
 20
164.856301
 10
54.559546
 20
164.357431
 10
54.559546
 20
163.538372
 10
54.559546
 20
162.417421
 10
54.559546
 20
161.019617
 10
54.559546
 20
159.376186
 10
54.559546
 20
157.523839
 10
54.559546
 20
155.503954
 10
54.559546
 20
153.361653
 10
54.559546
 20
151.14479
 10
54.559546
 20
148.902888
 10
54.559546
 20
146.686025
 10
54.559546
 20
144.543724
 10
54.559546
 20
142.523839
 10
54.559546
 20
140.671492
 10
54.559546
 20
139.028061
 10
54.559546
 20
137.630257
 10
54.559546
 20
136.509306
 10
54.559546
 20
135.690247
 10
54.559546
 20
135.191377
 10
54.559546
 20
135.023839
  0
LWPOLYLINE
  5
53
100
AcDbEntity
  8
ALPHA
100
AcDbPolyline
 90
       22
 70
     0
 43
0.0
 10
38.87005
 20
165.023839
 10
38.87005
 20
164.856301
 10
38.87005
 20
164.357431
 10
38.87005
 20
163.538372
 10
38.87005
 20
162.417421
 10
38.87005
 20
161.019617
 10
38.87005
 20
159.376186
 10
38.87005
 20
157.523839
 10
38.87005
 20
155.503954
 10
38.87005
 20
153.361653
 10
38.87005
 20
151.14479
 10
38.87005
 20
148.902888
 10
38.87005
 20
146.686025
 10
38.87005
 20
144.543724
 10
38.87005
 20
142.523839
 10
38.87005
 20
140.671492
 10
38.87005
 20
139.028061
 10
38.87005
 20
137.630257
 10
38.87005
 20
136.509306
 10
38.87005
 20
135.690247
 10
38.87005
 20
135.191377
 10
38.87005
 20
135.023839
  0
LWPOLYLINE
  5
6B
100
AcDbEntity
  8
ALPHA
100
AcDbPolyline
 90
       21
 70
     0
 43
0.0
 10
35.478775
 20
162.38943
 10
35.478775
 20
162.237189
 10
35.478775
 20
161.784215
 10
35.478775
 20
161.041662
 10
35.478775
 20
160.027813
 10
35.478775
 20
158.767633
 10
35.478775
 20
157.292151
 10
35.478775
 20
155.6377
 10
35.478775
 20
153.845017
 10
35.478775
 20
151.958244
 10
35.478775
 20
150.023839
 10
35.478775
 20
148.089434
 10
35.478775
 20
146.202661
 10
35.478775
 20
144.409978
 10
35.478775
 20
142.755527
 10
35.478775
 20
141.280045
 10
35.478775
 20
140.019865
 10
35.478775
 20
139.006016
 10
35.478775
 20
138.263463
 10
35.478775
 20
137.810489
 10
35.478775
 20
137.658248
  0
ARC
  5
82
100
AcDbEntity
  8
ALPHA
100
AcDbCircle
 10
83.925572
 20
150.023839
 30
0.0
 40
50.0
100
AcDbArc
 50
165.681503
 51
180.0
  0
ARC
  5
83
100
AcDbEntity
  8
ALPHA
100
AcDbCircle
 10
83.925572
 20
150.023839
 30
0.0
 40
50.0
100
AcDbArc
 50
180.0
 51
194.318497
  0
ARC
  5
84
100
AcDbEntity
  8
ALPHA
100
AcDbCircle
 10
38.87005
 20
161.523839
 30
0.0
 40
3.5
100
AcDbArc
 50
90.0
 51
165.681503
  0
ARC
  5
85
100
AcDbEntity
  8
ALPHA
100
AcDbCircle
 10
38.87005
 20
138.523839
 30
0.0
 40
3.5
100
AcDbArc
 50
194.318497
 51
270.0
  0
LINE
  5
86
100
AcDbEntity
  8
ALPHA
100
AcDbLine
 10
54.559546
 20
135.023839
 30
0.0
 11
38.87005
 21
135.023839
 31
0.0
  0
LINE
  5
87
100
AcDbEntity
  8
ALPHA
100
AcDbLine
 10
54.559546
 20
165.023839
 30
0.0
 11
38.87005
 21
165.023839
 31
0.0
  0
LINE
  5
88
100
AcDbEntity
  8
ALPHA
100
AcDbLine
 10
55.425572
 20
135.523839
 30
0.0
 11
54.559546
 21
135.023839
 31
0.0
  0
LINE
  5
89
100
AcDbEntity
  8
ALPHA
100
AcDbLine
 10
55.425572
 20
164.523839
 30
0.0
 11
54.559546
 21
165.023839
 31
0.0
  0
ARC
  5
8A
100
AcDbEntity
  8
ALPHA
100
AcDbCircle
 10
38.87005
 20
161.523839
 30
0.0
 40
3.5
100
AcDbArc
 50
90.0
 51
165.681503
  0
ARC
  5
8B
100
AcDbEntity
  8
ALPHA
100
AcDbCircle
 10
38.87005
 20
138.523839
 30
0.0
 40
3.5
100
AcDbArc
 50
194.318497
 51
270.0
  0
LINE
  5
8C
100
AcDbEntity
  8
ALPHA
100
AcDbLine
 10
54.559546
 20
135.023839
 30
0.0
 11
38.87005
 21
135.023839
 31
0.0
  0
LINE
  5
8D
100
AcDbEntity
  8
ALPHA
100
AcDbLine
 10
54.559546
 20
165.023839
 30
0.0
 11
38.87005
 21
165.023839
 31
0.0
  0
LINE
  5
8E
100
AcDbEntity
  8
ALPHA
100
AcDbLine
 10
55.425572
 20
135.523839
 30
0.0
 11
54.559546
 21
135.023839
 31
0.0
  0
LINE
  5
8F
100
AcDbEntity
  8
ALPHA
100
AcDbLine
 10
55.425572
 20
164.523839
 30
0.0
 11
54.559546
 21
165.023839
 31
0.0
  0
LINE
  5
90
100
AcDbEntity
  8
ALPHA
100
AcDbLine
 10
55.425572
 20
136.323839
 30
0.0
 11
55.425572
 21
135.523839
 31
0.0
  0
LINE
  5
91
100
AcDbEntity
  8
ALPHA
100
AcDbLine
 10
55.425572
 20
163.723839
 30
0.0
 11
55.425572
 21
136.323839
 31
0.0
  0
LINE
  5
92
100
AcDbEntity
  8
ALPHA
100
AcDbLine
 10
55.425572
 20
164.523839
 30
0.0
 11
55.425572
 21
163.723839
 31
0.0
  0
LWPOLYLINE
  5
93
100
AcDbEntity
  8
ALPHA
100
AcDbPolyline
 90
        4
 70
     0
 43
0.0
 10
80.598777
 20
150.023839
 10
80.598777
 20
150.609802
 10
80.598777
 20
151.193791
 10
80.598777
 20
151.773839
  0
LWPOLYLINE
  5
99
100
AcDbEntity
  8
ALPHA
100
AcDbPolyline
 90
        9
 70
     0
 43
0.0
 10
80.625572
 20
151.773839
 10
80.625572
 20
153.44404
 10
80.625572
 20
155.023839
 10
80.625572
 20
156.451715
 10
80.625572
 20
157.684283
 10
80.625572
 20
158.684093
 10
80.625572
 20
159.420765
 10
80.625572
 20
159.871917
 10
80.625572
 20
160.023839
  0
LINE
  5
A4
100
AcDbEntity
  8
ALPHA
100
AcDbLine
 10
80.625572
 20
151.760321
 30
0.0
 11
80.625572
 21
151.773839
 31
0.0
  0
LINE
  5
A5
100
AcDbEntity
  8
ALPHA
100
AcDbLine
 10
80.625572
 20
150.023839
 30
0.0
 11
80.625572
 21
151.760321
 31
0.0
  0
LWPOLYLINE
  5
A6
100
AcDbEntity
  8
ALPHA
100
AcDbPolyline
 90
        8
 70
     0
 43
0.0
 10
80.625572
 20
148.273839
 10
80.625572
 20
146.812339
 10
80.625572
 20
145.313916
 10
80.625572
 20
143.941076
 10
80.625572
 20
142.730425
 10
80.625572
 20
141.714242
 10
80.625572
 20
140.919622
 10
80.625572
 20
140.367753
  0
LWPOLYLINE
  5
B0
100
AcDbEntity
  8
ALPHA
100
AcDbPolyline
 90
        3
 70
     0
 43
0.0
 10
80.625572
 20
150.023839
 10
80.625572
 20
148.396392
 10
80.625572
 20
148.273839
  0
LWPOLYLINE
  5
B5
100
AcDbEntity
  8
ALPHA
100
AcDbPolyline
 90
       13
 70
     0
 43
0.0
 10
85.825572
 20
155.20905
 10
84.877128
 20
154.332368
 10
84.127237
 20
153.437877
 10
83.571671
 20
152.545075
 10
83.200484
 20
151.67618
 10
82.992274
 20
150.839873
 10
82.925572
 20
150.023808
 10
82.992283
 20
149.207749
 10
83.200495
 20
148.371465
 10
83.571668
 20
147.502608
 10
84.127227
 20
146.609815
 10
84.877133
 20
145.715305
 10
85.825572
 20
144.838563
  0
LWPOLYLINE
  5
C4
100
AcDbEntity
  8
ALPHA
100
AcDbPolyline
 90
        4
 70
     0
 43
0.0
 10
80.598777
 20
148.273839
 10
80.598777
 20
148.853887
 10
80.598777
 20
149.437876
 10
80.598777
 20
150.023839
  0
LINE
  5
CA
100
AcDbEntity
  8
ALPHA
100
AcDbLine
 10
69.225572
 20
161.823839
 30
0.0
 11
68.425572
 21
161.823839
 31
0.0
  0
LWPOLYLINE
  5
CB
100
AcDbEntity
  8
ALPHA
100
AcDbPolyline
 90
        4
 70
     0
 43
0.0
 10
86.125572
 20
154.874612
 10
86.024602
 20
154.988545
 10
85.92476
 20
155.100174
 10
85.825572
 20
155.20905
  0
LWPOLYLINE
  5
D1
100
AcDbEntity
  8
ALPHA
100
AcDbPolyline
 90
        4
 70
     0
 43
0.0
 10
85.825572
 20
155.209858
 10
85.825572
 20
156.812794
 10
85.825572
 20
158.142258
 10
85.825572
 20
159.144694
  0
LWPOLYLINE
  5
D7
100
AcDbEntity
  8
ALPHA
100
AcDbPolyline
 90
       19
 70
     0
 43
0.0
 10
80.945572
 20
146.323042
 10
80.955412
 20
146.025086
 10
80.985006
 20
145.755968
 10
81.034447
 20
145.515266
 10
81.102856
 20
145.305653
 10
81.189384
 20
145.127408
 10
81.294608
 20
144.979533
 10
81.422001
 20
144.862199
 10
81.568305
 20
144.785023
 10
81.725627
 20
144.756113
 10
81.884376
 20
144.778898
 10
82.034641
 20
144.85209
 10
82.166473
 20
144.968153
 10
82.275594
 20
145.117029
 10
82.364613
 20
145.296552
 10
82.434732
 20
145.507836
 10
82.485284
 20
145.750503
 10
82.515503
 20
146.021834
 10
82.525572
 20
146.323042
  0
LWPOLYLINE
  5
EC
100
AcDbEntity
  8
ALPHA
100
AcDbPolyline
 90
        4
 70
     0
 43
0.0
 10
85.825572
 20
141.057991
 10
85.825572
 20
142.04926
 10
85.825572
 20
143.324322
 10
85.825572
 20
144.837801
  0
LWPOLYLINE
  5
F2
100
AcDbEntity
  8
ALPHA
100
AcDbPolyline
 90
        4
 70
     0
 43
0.0
 10
86.125572
 20
145.173066
 10
86.024628
 20
145.059161
 10
85.924775
 20
144.947522
 10
85.825572
 20
144.838563
  0
LWPOLYLINE
  5
F8
100
AcDbEntity
  8
ALPHA
100
AcDbPolyline
 90
        8
 70
     0
 43
0.0
 10
80.330827
 20
160.123839
 10
80.330827
 20
159.378465
 10
80.330827
 20
158.448264
 10
80.330827
 20
157.351614
 10
80.330827
 20
156.110185
 10
80.330827
 20
154.748502
 10
80.330827
 20
153.293471
 10
80.330827
 20
151.773839
  0
LWPOLYLINE
  5
102
100
AcDbEntity
  8
ALPHA
100
AcDbPolyline
 90
        8
 70
     0
 43
0.0
 10
80.330827
 20
148.273839
 10
80.330827
 20
146.754207
 10
80.330827
 20
145.299176
 10
80.330827
 20
143.937493
 10
80.330827
 20
142.696063
 10
80.330827
 20
141.599414
 10
80.330827
 20
140.669213
 10
80.330827
 20
139.923839
  0
LWPOLYLINE
  5
10C
100
AcDbEntity
  8
ALPHA
100
AcDbPolyline
 90
       19
 70
     0
 43
0.0
 10
82.525572
 20
153.724636
 10
82.515907
 20
154.020043
 10
82.486799
 20
154.287417
 10
82.438003
 20
154.527401
 10
82.370376
 20
154.736778
 10
82.285079
 20
154.914576
 10
82.182352
 20
155.061377
 10
82.058078
 20
155.178952
 10
81.912547
 20
155.25913
 10
81.758495
 20
155.291129
 10
81.604621
 20
155.27399
 10
81.453308
 20
155.206578
 10
81.315601
 20
155.091428
 10
81.201325
 20
154.940148
 10
81.109652
 20
154.758726
 10
81.038051
 20
154.545963
 10
80.986577
 20
154.301722
 10
80.95581
 20
154.028246
 10
80.945572
 20
153.724636
  0
LWPOLYLINE
  5
121
100
AcDbEntity
  8
ALPHA
100
AcDbPolyline
 90
       22
 70
     0
 43
0.0
 10
62.225572
 20
164.273839
 10
62.225572
 20
164.114678
 10
62.225572
 20
163.640751
 10
62.225572
 20
162.862645
 10
62.225572
 20
161.797742
 10
62.225572
 20
160.469828
 10
62.225572
 20
158.908569
 10
62.225572
 20
157.148839
 10
62.225572
 20
155.229949
 10
62.225572
 20
153.194762
 10
62.225572
 20
151.088743
 10
62.225572
 20
148.958935
 10
62.225572
 20
146.852916
 10
62.225572
 20
144.817729
 10
62.225572
 20
142.898839
 10
62.225572
 20
141.139109
 10
62.225572
 20
139.57785
 10
62.225572
 20
138.249936
 10
62.225572
 20
137.185033
 10
62.225572
 20
136.406926
 10
62.225572
 20
135.933
 10
62.225572
 20
135.773839
  0
LWPOLYLINE
  5
139
100
AcDbEntity
  8
ALPHA
100
AcDbPolyline
 90
       22
 70
     0
 43
0.0
 10
61.375572
 20
163.423839
 10
61.375572
 20
163.274172
 10
61.375572
 20
162.828515
 10
61.375572
 20
162.096822
 10
61.375572
 20
161.095439
 10
61.375572
 20
159.846734
 10
61.375572
 20
158.378602
 10
61.375572
 20
156.723839
 10
61.375572
 20
154.919409
 10
61.375572
 20
153.005619
 10
61.375572
 20
151.025222
 10
61.375572
 20
149.022456
 10
61.375572
 20
147.042058
 10
61.375572
 20
145.128269
 10
61.375572
 20
143.323839
 10
61.375572
 20
141.669076
 10
61.375572
 20
140.200944
 10
61.375572
 20
138.952239
 10
61.375572
 20
137.950856
 10
61.375572
 20
137.219163
 10
61.375572
 20
136.773506
 10
61.375572
 20
136.623839
  0
LINE
  5
151
100
AcDbEntity
  8
ALPHA
100
AcDbLine
 10
82.525572
 20
146.323042
 30
0.0
 11
82.525572
 21
153.724636
 31
0.0
  0
LINE
  5
152
100
AcDbEntity
  8
ALPHA
100
AcDbLine
 10
80.945572
 20
153.724636
 30
0.0
 11
80.945572
 21
146.323042
 31
0.0
  0
LINE
  5
153
100
AcDbEntity
  8
ALPHA
100
AcDbLine
 10
80.330827
 20
151.773839
 30
0.0
 11
71.825572
 21
151.773839
 31
0.0
  0
LINE
  5
154
100
AcDbEntity
  8
ALPHA
100
AcDbLine
 10
80.330827
 20
151.773839
 30
0.0
 11
80.598777
 21
151.773839
 31
0.0
  0
LINE
  5
155
100
AcDbEntity
  8
ALPHA
100
AcDbLine
 10
70.825572
 20
151.773839
 30
0.0
 11
71.825572
 21
151.773839
 31
0.0
  0
LINE
  5
156
100
AcDbEntity
  8
ALPHA
100
AcDbLine
 10
80.330827
 20
148.273839
 30
0.0
 11
71.825572
 21
148.273839
 31
0.0
  0
LINE
  5
157
100
AcDbEntity
  8
ALPHA
100
AcDbLine
 10
70.825572
 20
148.273839
 30
0.0
 11
71.825572
 21
148.273839
 31
0.0
  0
LINE
  5
158
100
AcDbEntity
  8
ALPHA
100
AcDbLine
 10
80.598777
 20
148.273839
 30
0.0
 11
80.330827
 21
148.273839
 31
0.0
  0
LINE
  5
159
100
AcDbEntity
  8
ALPHA
100
AcDbLine
 10
71.825572
 20
139.923839
 30
0.0
 11
71.825572
 21
139.523821
 31
0.0
  0
LINE
  5
15A
100
AcDbEntity
  8
ALPHA
100
AcDbLine
 10
80.330827
 20
139.923839
 30
0.0
 11
71.825572
 21
139.923839
 31
0.0
  0
LINE
  5
15B
100
AcDbEntity
  8
ALPHA
100
AcDbLine
 10
80.330827
 20
160.123839
 30
0.0
 11
71.825572
 21
160.123839
 31
0.0
  0
LINE
  5
15C
100
AcDbEntity
  8
ALPHA
100
AcDbLine
 10
80.330827
 20
160.123839
 30
0.0
 11
80.598777
 21
160.123839
 31
0.0
  0
LWPOLYLINE
  5
15D
100
AcDbEntity
  8
ALPHA
100
AcDbPolyline
 90
        4
 70
     0
 43
0.0
 10
82.625572
 20
140.367753
 10
83.726823
 20
140.559606
 10
84.79559
 20
140.790512
 10
85.825572
 20
141.057821
  0
LINE
  5
163
100
AcDbEntity
  8
ALPHA
100
AcDbLine
 10
82.625572
 20
140.367753
 30
0.0
 11
80.625572
 21
140.367753
 31
0.0
  0
LINE
  5
164
100
AcDbEntity
  8
ALPHA
100
AcDbLine
 10
85.825572
 20
159.144694
 30
0.0
 11
85.825572
 21
160.023839
 31
0.0
  0
LINE
  5
165
100
AcDbEntity
  8
ALPHA
100
AcDbLine
 10
66.025572
 20
148.998839
 30
0.0
 11
66.025572
 21
151.048839
 31
0.0
  0
LINE
  5
166
100
AcDbEntity
  8
ALPHA
100
AcDbLine
 10
67.225572
 20
148.893839
 30
0.0
 11
66.025572
 21
148.998839
 31
0.0
  0
LINE
  5
167
100
AcDbEntity
  8
ALPHA
100
AcDbLine
 10
66.025572
 20
151.048839
 30
0.0
 11
67.225572
 21
151.153839
 31
0.0
  0
LINE
  5
168
100
AcDbEntity
  8
ALPHA
100
AcDbLine
 10
69.225572
 20
161.823839
 30
0.0
 11
69.225572
 21
160.923839
 31
0.0
  0
LINE
  5
169
100
AcDbEntity
  8
ALPHA
100
AcDbLine
 10
69.225572
 20
160.923839
 30
0.0
 11
69.062424
 21
160.760691
 31
0.0
  0
LINE
  5
16A
100
AcDbEntity
  8
ALPHA
100
AcDbLine
 10
67.225572
 20
163.52382
 30
0.0
 11
67.225572
 21
164.273839
 31
0.0
  0
LINE
  5
16B
100
AcDbEntity
  8
ALPHA
100
AcDbLine
 10
67.225572
 20
162.053839
 30
0.0
 11
67.225572
 21
163.52382
 31
0.0
  0
LINE
  5
16C
100
AcDbEntity
  8
ALPHA
100
AcDbLine
 10
67.225572
 20
162.023781
 30
0.0
 11
67.225572
 21
162.053839
 31
0.0
  0
LINE
  5
16D
100
AcDbEntity
  8
ALPHA
100
AcDbLine
 10
67.225572
 20
161.874242
 30
0.0
 11
67.225572
 21
162.023781
 31
0.0
  0
LINE
  5
16E
100
AcDbEntity
  8
ALPHA
100
AcDbLine
 10
67.225572
 20
160.623839
 30
0.0
 11
67.225572
 21
161.874242
 31
0.0
  0
LINE
  5
16F
100
AcDbEntity
  8
ALPHA
100
AcDbLine
 10
67.225572
 20
160.583827
 30
0.0
 11
67.225572
 21
160.623839
 31
0.0
  0
LINE
  5
170
100
AcDbEntity
  8
ALPHA
100
AcDbLine
 10
67.225572
 20
160.123839
 30
0.0
 11
67.225572
 21
160.583827
 31
0.0
  0
LINE
  5
171
100
AcDbEntity
  8
ALPHA
100
AcDbLine
 10
67.225572
 20
158.871438
 30
0.0
 11
67.225572
 21
160.123839
 31
0.0
  0
LINE
  5
172
100
AcDbEntity
  8
ALPHA
100
AcDbLine
 10
67.225572
 20
158.635511
 30
0.0
 11
67.225572
 21
158.871438
 31
0.0
  0
LINE
  5
173
100
AcDbEntity
  8
ALPHA
100
AcDbLine
 10
67.225572
 20
155.122858
 30
0.0
 11
67.225572
 21
158.635511
 31
0.0
  0
LINE
  5
174
100
AcDbEntity
  8
ALPHA
100
AcDbLine
 10
67.225572
 20
151.153839
 30
0.0
 11
67.225572
 21
155.122858
 31
0.0
  0
LINE
  5
175
100
AcDbEntity
  8
ALPHA
100
AcDbLine
 10
67.225572
 20
151.153839
 30
0.0
 11
67.225572
 21
148.893839
 31
0.0
  0
ARC
  5
176
100
AcDbEntity
  8
ALPHA
100
AcDbCircle
 10
69.025572
 20
161.823839
 30
0.0
 40
0.2
100
AcDbArc
 50
0.0
 51
90.0
  0
LINE
  5
177
100
AcDbEntity
  8
ALPHA
100
AcDbLine
 10
69.025572
 20
162.023839
 30
0.0
 11
68.425572
 21
162.023839
 31
0.0
  0
LINE
  5
178
100
AcDbEntity
  8
ALPHA
100
AcDbLine
 10
86.125572
 20
154.874612
 30
0.0
 11
86.125572
 21
158.814743
 31
0.0
  0
LWPOLYLINE
  5
179
100
AcDbEntity
  8
ALPHA
100
AcDbPolyline
 90
        4
 70
     0
 43
0.0
 10
86.125572
 20
158.814743
 10
86.026423
 20
158.924026
 10
85.926422
 20
159.034009
 10
85.825572
 20
159.144694
  0
LINE
  5
17F
100
AcDbEntity
  8
ALPHA
100
AcDbLine
 10
86.125572
 20
141.483933
 30
0.0
 11
86.125572
 21
145.173066
 31
0.0
  0
LWPOLYLINE
  5
180
100
AcDbEntity
  8
ALPHA
100
AcDbPolyline
 90
        4
 70
     0
 43
0.0
 10
86.125572
 20
141.483933
 10
86.02748
 20
141.343105
 10
85.927472
 20
141.201084
 10
85.825572
 20
141.057821
  0
LINE
  5
186
100
AcDbEntity
  8
ALPHA
100
AcDbLine
 10
61.375572
 20
136.623839
 30
0.0
 11
55.425572
 21
136.623839
 31
0.0
  0
LINE
  5
187
100
AcDbEntity
  8
ALPHA
100
AcDbLine
 10
61.375572
 20
163.423839
 30
0.0
 11
55.425572
 21
163.423839
 31
0.0
  0
LINE
  5
188
100
AcDbEntity
  8
ALPHA
100
AcDbLine
 10
62.225572
 20
135.773839
 30
0.0
 11
61.375572
 21
136.623839
 31
0.0
  0
LINE
  5
189
100
AcDbEntity
  8
ALPHA
100
AcDbLine
 10
62.225572
 20
164.273839
 30
0.0
 11
61.375572
 21
163.423839
 31
0.0
  0
LINE
  5
18A
100
AcDbEntity
  8
ALPHA
100
AcDbLine
 10
67.225572
 20
135.773839
 30
0.0
 11
62.225572
 21
135.773839
 31
0.0
  0
LINE
  5
18B
100
AcDbEntity
  8
ALPHA
100
AcDbLine
 10
67.225572
 20
164.273839
 30
0.0
 11
62.225572
 21
164.273839
 31
0.0
  0
LINE
  5
18C
100
AcDbEntity
  8
ALPHA
100
AcDbLine
 10
61.375572
 20
136.623839
 30
0.0
 11
55.425572
 21
136.623839
 31
0.0
  0
LINE
  5
18D
100
AcDbEntity
  8
ALPHA
100
AcDbLine
 10
62.225572
 20
135.773839
 30
0.0
 11
61.375572
 21
136.623839
 31
0.0
  0
LINE
  5
18E
100
AcDbEntity
  8
ALPHA
100
AcDbLine
 10
86.125572
 20
154.874612
 30
0.0
 11
86.125572
 21
145.173066
 31
0.0
  0
LINE
  5
18F
100
AcDbEntity
  8
ALPHA
100
AcDbLine
 10
62.225572
 20
164.273839
 30
0.0
 11
61.375572
 21
163.423839
 31
0.0
  0
LINE
  5
190
100
AcDbEntity
  8
ALPHA
100
AcDbLine
 10
67.225572
 20
135.773839
 30
0.0
 11
62.225572
 21
135.773839
 31
0.0
  0
LINE
  5
191
100
AcDbEntity
  8
ALPHA
100
AcDbLine
 10
67.225572
 20
145.632837
 30
0.0
 11
67.225572
 21
148.893839
 31
0.0
  0
LINE
  5
192
100
AcDbEntity
  8
ALPHA
100
AcDbLine
 10
67.225572
 20
145.186484
 30
0.0
 11
67.225572
 21
145.632837
 31
0.0
  0
LINE
  5
193
100
AcDbEntity
  8
ALPHA
100
AcDbLine
 10
67.225572
 20
144.924819
 30
0.0
 11
67.225572
 21
145.186484
 31
0.0
  0
LINE
  5
194
100
AcDbEntity
  8
ALPHA
100
AcDbLine
 10
67.225572
 20
140.523839
 30
0.0
 11
67.225572
 21
144.924819
 31
0.0
  0
LINE
  5
195
100
AcDbEntity
  8
ALPHA
100
AcDbLine
 10
67.225572
 20
139.959456
 30
0.0
 11
67.225572
 21
140.523839
 31
0.0
  0
LINE
  5
196
100
AcDbEntity
  8
ALPHA
100
AcDbLine
 10
67.225572
 20
139.923839
 30
0.0
 11
67.225572
 21
139.959456
 31
0.0
  0
LINE
  5
197
100
AcDbEntity
  8
ALPHA
100
AcDbLine
 10
67.225572
 20
138.235247
 30
0.0
 11
67.225572
 21
139.923839
 31
0.0
  0
LINE
  5
198
100
AcDbEntity
  8
ALPHA
100
AcDbLine
 10
67.225572
 20
138.123911
 30
0.0
 11
67.225572
 21
138.235247
 31
0.0
  0
LINE
  5
199
100
AcDbEntity
  8
ALPHA
100
AcDbLine
 10
67.225572
 20
137.993839
 30
0.0
 11
67.225572
 21
138.123911
 31
0.0
  0
LINE
  5
19A
100
AcDbEntity
  8
ALPHA
100
AcDbLine
 10
67.225572
 20
136.523839
 30
0.0
 11
67.225572
 21
137.993839
 31
0.0
  0
LINE
  5
19B
100
AcDbEntity
  8
ALPHA
100
AcDbLine
 10
67.225572
 20
135.773839
 30
0.0
 11
67.225572
 21
136.523839
 31
0.0
  0
LINE
  5
19C
100
AcDbEntity
  8
ALPHA
100
AcDbLine
 10
67.225572
 20
164.273839
 30
0.0
 11
62.225572
 21
164.273839
 31
0.0
  0
LINE
  5
19D
100
AcDbEntity
  8
ALPHA
100
AcDbLine
 10
71.825572
 20
151.773839
 30
0.0
 11
71.825572
 21
160.123839
 31
0.0
  0
LINE
  5
19E
100
AcDbEntity
  8
ALPHA
100
AcDbLine
 10
71.825572
 20
139.923839
 30
0.0
 11
71.825572
 21
148.273839
 31
0.0
  0
LINE
  5
19F
100
AcDbEntity
  8
ALPHA
100
AcDbLine
 10
71.825572
 20
139.523839
 30
0.0
 11
71.225572
 21
139.523839
 31
0.0
  0
LINE
  5
1A0
100
AcDbEntity
  8
ALPHA
100
AcDbLine
 10
71.825572
 20
160.523839
 30
0.0
 11
71.225572
 21
160.523839
 31
0.0
  0
LINE
  5
1A1
100
AcDbEntity
  8
ALPHA
100
AcDbLine
 10
71.225572
 20
160.523839
 30
0.0
 11
71.825572
 21
160.523839
 31
0.0
  0
LINE
  5
1A2
100
AcDbEntity
  8
ALPHA
100
AcDbLine
 10
71.825572
 20
160.523857
 30
0.0
 11
71.825572
 21
160.123839
 31
0.0
  0
LINE
  5
1A3
100
AcDbEntity
  8
ALPHA
100
AcDbLine
 10
85.825572
 20
160.023839
 30
0.0
 11
80.625572
 21
160.023839
 31
0.0
  0
LINE
  5
1A4
100
AcDbEntity
  8
ALPHA
100
AcDbLine
 10
80.625572
 20
160.023839
 30
0.0
 11
80.598773
 21
160.123854
 31
0.0
  0
LINE
  5
1A5
100
AcDbEntity
  8
ALPHA
100
AcDbLine
 10
80.625572
 20
140.023839
 30
0.0
 11
80.598773
 21
139.923824
 31
0.0
  0
LINE
  5
1A6
100
AcDbEntity
  8
ALPHA
100
AcDbLine
 10
80.625572
 20
140.023839
 30
0.0
 11
80.625572
 21
140.367753
 31
0.0
  0
LINE
  5
1A7
100
AcDbEntity
  8
ALPHA
100
AcDbLine
 10
80.598777
 20
139.923839
 30
0.0
 11
80.330827
 21
139.923839
 31
0.0
  0
LWPOLYLINE
  5
1A8
100
AcDbEntity
  8
ALPHA
100
AcDbPolyline
 90
        9
 70
     0
 43
0.0
 10
70.925572
 20
144.548779
 10
70.894993
 20
144.814839
 10
70.80139
 20
145.084354
 10
70.638072
 20
145.35775
 10
70.396325
 20
145.631263
 10
70.07177
 20
145.896175
 10
69.665986
 20
146.143777
 10
69.182834
 20
146.369096
 10
68.625572
 20
146.570569
  0
LWPOLYLINE
  5
1B3
100
AcDbEntity
  8
ALPHA
100
AcDbPolyline
 90
        8
 70
     0
 43
0.0
 10
68.625572
 20
142.751415
 10
69.256327
 20
142.936821
 10
69.789767
 20
143.153133
 10
70.220951
 20
143.400178
 10
70.544882
 20
143.672323
 10
70.762376
 20
143.957894
 10
70.885571
 20
144.250074
 10
70.925572
 20
144.548779
  0
LINE
  5
1BD
100
AcDbEntity
  8
ALPHA
100
AcDbLine
 10
68.625572
 20
140.068866
 30
0.0
 11
68.425572
 21
140.068866
 31
0.0
  0
LINE
  5
1BE
100
AcDbEntity
  8
ALPHA
100
AcDbLine
 10
68.625572
 20
147.677704
 30
0.0
 11
68.425572
 21
147.677704
 31
0.0
  0
LWPOLYLINE
  5
1BF
100
AcDbEntity
  8
ALPHA
100
AcDbPolyline
 90
        9
 70
     0
 43
0.0
 10
70.925572
 20
144.548779
 10
70.925572
 20
143.357853
 10
70.925572
 20
142.280982
 10
70.925572
 20
141.336593
 10
70.925572
 20
140.540843
 10
70.925572
 20
139.907347
 10
70.925572
 20
139.446946
 10
70.925572
 20
139.167516
 10
70.925572
 20
139.073839
  0
LWPOLYLINE
  5
1CA
100
AcDbEntity
  8
ALPHA
100
AcDbPolyline
 90
        3
 70
     0
 43
0.0
 10
70.925572
 20
146.448926
 10
70.925572
 20
145.478132
 10
70.925572
 20
144.548779
  0
LWPOLYLINE
  5
1CF
100
AcDbEntity
  8
ALPHA
100
AcDbPolyline
 90
        9
 70
     0
 43
0.0
 10
71.164126
 20
146.139386
 10
71.133712
 20
146.123361
 10
71.100002
 20
146.132989
 10
71.067817
 20
146.161191
 10
71.037689
 20
146.201187
 10
71.008628
 20
146.250816
 10
70.980387
 20
146.308857
 10
70.95273
 20
146.374941
 10
70.925572
 20
146.448926
  0
LWPOLYLINE
  5
1DA
100
AcDbEntity
  8
ALPHA
100
AcDbPolyline
 90
        9
 70
     0
 43
0.0
 10
68.625572
 20
157.190792
 10
69.18502
 20
157.351178
 10
69.669619
 20
157.528549
 10
70.075972
 20
157.720843
 10
70.40052
 20
157.923539
 10
70.64137
 20
158.128986
 10
70.803079
 20
158.329794
 10
70.895386
 20
158.523438
 10
70.925572
 20
158.711059
  0
LWPOLYLINE
  5
1E5
100
AcDbEntity
  8
ALPHA
100
AcDbPolyline
 90
        7
 70
     0
 43
0.0
 10
70.925572
 20
158.711059
 10
70.886084
 20
158.917327
 10
70.764434
 20
159.114315
 10
70.548574
 20
159.302775
 10
70.225184
 20
159.478256
 10
69.793744
 20
159.633197
 10
69.706165
 20
159.658289
  0
LINE
  5
1EE
100
AcDbEntity
  8
ALPHA
100
AcDbLine
 10
68.625572
 20
160.452481
 30
0.0
 11
68.425572
 21
160.452481
 31
0.0
  0
LWPOLYLINE
  5
1EF
100
AcDbEntity
  8
ALPHA
100
AcDbPolyline
 90
        9
 70
     0
 43
0.0
 10
71.164126
 20
153.908292
 10
71.133712
 20
153.924317
 10
71.100002
 20
153.914689
 10
71.067817
 20
153.886487
 10
71.037689
 20
153.846491
 10
71.008628
 20
153.796862
 10
70.980387
 20
153.738821
 10
70.95273
 20
153.672737
 10
70.925572
 20
153.598752
  0
LINE
  5
1FA
100
AcDbEntity
  8
ALPHA
100
AcDbLine
 10
68.625572
 20
160.431774
 30
0.0
 11
68.425572
 21
160.431774
 31
0.0
  0
LINE
  5
1FB
100
AcDbEntity
  8
ALPHA
100
AcDbLine
 10
68.425572
 20
155.122858
 30
0.0
 11
67.225572
 21
155.122858
 31
0.0
  0
LWPOLYLINE
  5
1FC
100
AcDbEntity
  8
ALPHA
100
AcDbPolyline
 90
        6
 70
     0
 43
0.0
 10
70.925572
 20
153.598752
 10
70.925572
 20
154.779985
 10
70.925572
 20
155.896469
 10
70.925572
 20
156.933004
 10
70.925572
 20
157.875477
 10
70.925572
 20
158.711059
  0
LINE
  5
204
100
AcDbEntity
  8
ALPHA
100
AcDbLine
 10
68.425572
 20
144.924819
 30
0.0
 11
67.225572
 21
144.924819
 31
0.0
  0
LWPOLYLINE
  5
205
100
AcDbEntity
  8
ALPHA
100
AcDbPolyline
 90
        5
 70
     0
 43
0.0
 10
70.325572
 20
150.023839
 10
70.361915
 20
149.132432
 10
70.471898
 20
148.239705
 10
70.658283
 20
147.345092
 10
70.925572
 20
146.448926
  0
LWPOLYLINE
  5
20C
100
AcDbEntity
  8
ALPHA
100
AcDbPolyline
 90
        5
 70
     0
 43
0.0
 10
70.325572
 20
150.023839
 10
70.361917
 20
150.91527
 10
70.471903
 20
151.808002
 10
70.658287
 20
152.702603
 10
70.925572
 20
153.598752
  0
LWPOLYLINE
  5
213
100
AcDbEntity
  8
ALPHA
100
AcDbPolyline
 90
        6
 70
     0
 43
0.0
 10
70.925572
 20
158.711059
 10
70.925572
 20
159.506818
 10
70.925572
 20
160.140321
 10
70.925572
 20
160.600727
 10
70.925572
 20
160.88016
 10
70.925572
 20
160.973839
  0
LINE
  5
21B
100
AcDbEntity
  8
ALPHA
100
AcDbLine
 10
68.625572
 20
156.322649
 30
0.0
 11
68.425572
 21
156.322649
 31
0.0
  0
LINE
  5
21C
100
AcDbEntity
  8
ALPHA
100
AcDbLine
 10
68.625572
 20
156.322649
 30
0.0
 11
68.625572
 21
157.190777
 31
0.0
  0
LINE
  5
21D
100
AcDbEntity
  8
ALPHA
100
AcDbLine
 10
69.725572
 20
160.760691
 30
0.0
 11
69.725572
 21
160.973839
 31
0.0
  0
LINE
  5
21E
100
AcDbEntity
  8
ALPHA
100
AcDbLine
 10
68.625572
 20
159.963991
 30
0.0
 11
68.625572
 21
160.452481
 31
0.0
  0
LINE
  5
21F
100
AcDbEntity
  8
ALPHA
100
AcDbLine
 10
69.725572
 20
160.760691
 30
0.0
 11
68.425572
 21
160.760691
 31
0.0
  0
LINE
  5
220
100
AcDbEntity
  8
ALPHA
100
AcDbLine
 10
68.625572
 20
140.068866
 30
0.0
 11
68.625572
 21
142.751411
 31
0.0
  0
LINE
  5
221
100
AcDbEntity
  8
ALPHA
100
AcDbLine
 10
68.625572
 20
146.570583
 30
0.0
 11
68.625572
 21
142.751413
 31
0.0
  0
LINE
  5
222
100
AcDbEntity
  8
ALPHA
100
AcDbLine
 10
68.625572
 20
146.570583
 30
0.0
 11
68.625572
 21
147.677704
 31
0.0
  0
LINE
  5
223
100
AcDbEntity
  8
ALPHA
100
AcDbLine
 10
70.825572
 20
147.523839
 30
0.0
 11
70.825572
 21
152.523839
 31
0.0
  0
ARC
  5
224
100
AcDbEntity
  8
ALPHA
100
AcDbCircle
 10
73.825572
 20
152.523839
 30
0.0
 40
3.0
100
AcDbArc
 50
152.517078
 51
180.0
  0
ARC
  5
225
100
AcDbEntity
  8
ALPHA
100
AcDbCircle
 10
73.825572
 20
147.523839
 30
0.0
 40
3.0
100
AcDbArc
 50
180.0
 51
207.482922
  0
LINE
  5
226
100
AcDbEntity
  8
ALPHA
100
AcDbLine
 10
71.225572
 20
160.581486
 30
0.0
 11
71.225572
 21
160.673839
 31
0.0
  0
LINE
  5
227
100
AcDbEntity
  8
ALPHA
100
AcDbLine
 10
71.225572
 20
154.020502
 30
0.0
 11
71.225572
 21
160.581486
 31
0.0
  0
LINE
  5
228
100
AcDbEntity
  8
ALPHA
100
AcDbLine
 10
71.225572
 20
139.466192
 30
0.0
 11
71.225572
 21
139.373839
 31
0.0
  0
LINE
  5
229
100
AcDbEntity
  8
ALPHA
100
AcDbLine
 10
71.225572
 20
146.027176
 30
0.0
 11
71.225572
 21
139.466192
 31
0.0
  0
LINE
  5
22A
100
AcDbEntity
  8
ALPHA
100
AcDbLine
 10
68.425572
 20
163.523839
 30
0.0
 11
67.225572
 21
163.523839
 31
0.0
  0
LINE
  5
22B
100
AcDbEntity
  8
ALPHA
100
AcDbLine
 10
70.925572
 20
160.973839
 30
0.0
 11
69.725572
 21
160.973839
 31
0.0
  0
LINE
  5
22C
100
AcDbEntity
  8
ALPHA
100
AcDbLine
 10
68.425572
 20
136.523839
 30
0.0
 11
67.225572
 21
136.523839
 31
0.0
  0
LINE
  5
22D
100
AcDbEntity
  8
ALPHA
100
AcDbLine
 10
70.925572
 20
139.073839
 30
0.0
 11
68.425572
 21
139.073839
 31
0.0
  0
LWPOLYLINE
  5
22E
100
AcDbEntity
  8
ALPHA
100
AcDbPolyline
 90
        3
 70
     0
 43
0.0
 10
69.706188
 20
159.658308
 10
69.455738
 20
159.728167
 10
68.625572
 20
159.964019
  0
LINE
  5
233
100
AcDbEntity
  8
ALPHA
100
AcDbLine
 10
68.625572
 20
159.116919
 30
0.0
 11
68.625572
 21
157.190777
 31
0.0
  0
LINE
  5
234
100
AcDbEntity
  8
ALPHA
100
AcDbLine
 10
68.625572
 20
159.176808
 30
0.0
 11
68.625572
 21
159.128801
 31
0.0
  0
LINE
  5
235
100
AcDbEntity
  8
ALPHA
100
AcDbLine
 10
68.625572
 20
159.963991
 30
0.0
 11
68.625572
 21
159.164017
 31
0.0
  0
LINE
  5
236
100
AcDbEntity
  8
ALPHA
100
AcDbLine
 10
68.425572
 20
162.023839
 30
0.0
 11
68.425572
 21
163.52382
 31
0.0
  0
LINE
  5
237
100
AcDbEntity
  8
ALPHA
100
AcDbLine
 10
68.425572
 20
161.984749
 30
0.0
 11
68.425572
 21
162.023839
 31
0.0
  0
LINE
  5
238
100
AcDbEntity
  8
ALPHA
100
AcDbLine
 10
68.425572
 20
160.760691
 30
0.0
 11
68.425572
 21
161.984749
 31
0.0
  0
LINE
  5
239
100
AcDbEntity
  8
ALPHA
100
AcDbLine
 10
68.425572
 20
160.623839
 30
0.0
 11
68.425572
 21
160.760691
 31
0.0
  0
LINE
  5
23A
100
AcDbEntity
  8
ALPHA
100
AcDbLine
 10
68.425572
 20
160.452481
 30
0.0
 11
68.425572
 21
160.623839
 31
0.0
  0
LINE
  5
23B
100
AcDbEntity
  8
ALPHA
100
AcDbLine
 10
68.425572
 20
156.322649
 30
0.0
 11
68.425572
 21
160.452481
 31
0.0
  0
LINE
  5
23C
100
AcDbEntity
  8
ALPHA
100
AcDbLine
 10
68.425572
 20
155.122858
 30
0.0
 11
68.425572
 21
156.322649
 31
0.0
  0
LINE
  5
23D
100
AcDbEntity
  8
ALPHA
100
AcDbLine
 10
68.425572
 20
155.122858
 30
0.0
 11
68.425572
 21
144.924819
 31
0.0
  0
LINE
  5
23E
100
AcDbEntity
  8
ALPHA
100
AcDbLine
 10
68.425572
 20
139.073839
 30
0.0
 11
68.425572
 21
136.523858
 31
0.0
  0
LINE
  5
23F
100
AcDbEntity
  8
ALPHA
100
AcDbLine
 10
68.425572
 20
139.923839
 30
0.0
 11
68.425572
 21
139.073839
 31
0.0
  0
LINE
  5
240
100
AcDbEntity
  8
ALPHA
100
AcDbLine
 10
68.425572
 20
140.068866
 30
0.0
 11
68.425572
 21
139.923839
 31
0.0
  0
LINE
  5
241
100
AcDbEntity
  8
ALPHA
100
AcDbLine
 10
68.425572
 20
140.101611
 30
0.0
 11
68.425572
 21
140.068866
 31
0.0
  0
LINE
  5
242
100
AcDbEntity
  8
ALPHA
100
AcDbLine
 10
68.425572
 20
144.924819
 30
0.0
 11
68.425572
 21
140.101611
 31
0.0
  0
LINE
  5
243
100
AcDbEntity
  8
ALPHA
100
AcDbLine
 10
71.225572
 20
160.651231
 30
0.0
 11
71.225572
 21
154.020502
 31
0.0
  0
ARC
  5
244
100
AcDbEntity
  8
ALPHA
100
AcDbCircle
 10
73.825572
 20
152.523839
 30
0.0
 40
3.0
100
AcDbArc
 50
150.073565
 51
152.517078
  0
LINE
  5
245
100
AcDbEntity
  8
ALPHA
100
AcDbLine
 10
71.225572
 20
160.651231
 30
0.0
 11
71.225572
 21
160.673839
 31
0.0
  0
ARC
  5
246
100
AcDbEntity
  8
ALPHA
100
AcDbCircle
 10
70.925572
 20
160.673839
 30
0.0
 40
0.3
100
AcDbArc
 50
0.0
 51
90.0
  0
LINE
  5
247
100
AcDbEntity
  8
ALPHA
100
AcDbLine
 10
71.225572
 20
146.027176
 30
0.0
 11
71.225572
 21
139.373839
 31
0.0
  0
ARC
  5
248
100
AcDbEntity
  8
ALPHA
100
AcDbCircle
 10
73.825572
 20
147.523839
 30
0.0
 40
3.0
100
AcDbArc
 50
207.482922
 51
209.926435
  0
ARC
  5
249
100
AcDbEntity
  8
ALPHA
100
AcDbCircle
 10
70.925572
 20
139.373839
 30
0.0
 40
0.3
100
AcDbArc
 50
270.0
 51
0.0
  0
ENDSEC
  0
SECTION
  2
OBJECTS
  0
DICTIONARY
  5
3BC
100
AcDbDictionary
  3
ACAD_GROUP
350
3BD
  3
ACAD_MLINESTYLE
350
3CA
  3
ACDBVARIABLEDICTIONARY
350
3D8
  0
DICTIONARY
  5
3BD
102
{ACAD_REACTORS
330
3BC
102
}
100
AcDbDictionary
  0
DICTIONARY
  5
3CA
102
{ACAD_REACTORS
330
3BC
102
}
100
AcDbDictionary
  3
STANDARD
350
3CB
  0
DICTIONARY
  5
3D8
102
{ACAD_REACTORS
330
3BC
102
}
100
AcDbDictionary
  3
DIMADEC
350
3D9
  0
MLINESTYLE
  5
3CB
102
{ACAD_REACTORS
330
3CA
102
}
100
AcDbMlineStyle
  2
STANDARD
 70
     0
  3

 62
   256
 51
90.0
 52
90.0
 71
     2
 49
0.5
 62
   256
  6
BYLAYER
 49
-0.5
 62
   256
  6
BYLAYER
  0
DICTIONARYVAR
  5
3D9
102
{ACAD_REACTORS
330
3D8
102
}
100
DictionaryVariables
280
     0
  1
0
  0
ENDSEC
  0
EOF
