  0
SECTION
  2
HEADER
  9
$ACADVER
  1
AC1009
  9
$INSBASE
 10
-146.27124
 20
-153.796096
 30
0.0
  9
$EXTMIN
 10
1507.46632
 20
85.491586
 30
0.0
  9
$EXTMAX
 10
1572.641188
 20
181.791586
 30
0.0
  9
$LIMMIN
 10
-407.970438
 20
-367.832444
  9
$LIMMAX
 10
429.804077
 20
234.370848
  9
$ORTHOMODE
 70
     1
  9
$REGENMODE
 70
     1
  9
$FILLMODE
 70
     1
  9
$QTEXTMODE
 70
     0
  9
$MIRRTEXT
 70
     1
  9
$DRAGMODE
 70
     2
  9
$LTSCALE
 40
10.0
  9
$OSMODE
 70
    33
  9
$ATTMODE
 70
     1
  9
$TEXTSIZE
 40
6.0
  9
$TRACEWID
 40
1.0
  9
$TEXTSTYLE
  7
ROMANS
  9
$CLAYER
  8
COTATION1
  9
$CELTYPE
  6
BYLAYER
  9
$CECOLOR
 62
   256
  9
$DIMSCALE
 40
1.0
  9
$DIMASZ
 40
3.0
  9
$DIMEXO
 40
1.0
  9
$DIMDLI
 40
0.1
  9
$DIMRND
 40
0.0
  9
$DIMDLE
 40
0.0
  9
$DIMEXE
 40
0.5
  9
$DIMTP
 40
0.0
  9
$DIMTM
 40
0.0
  9
$DIMTXT
 40
3.0
  9
$DIMCEN
 40
0.0
  9
$DIMTSZ
 40
0.0
  9
$DIMTOL
 70
     0
  9
$DIMLIM
 70
     0
  9
$DIMTIH
 70
     0
  9
$DIMTOH
 70
     0
  9
$DIMSE1
 70
     0
  9
$DIMSE2
 70
     0
  9
$DIMTAD
 70
     1
  9
$DIMZIN
 70
    12
  9
$DIMBLK
  1
OPEN30
  9
$DIMASO
 70
     1
  9
$DIMSHO
 70
     1
  9
$DIMPOST
  1

  9
$DIMAPOST
  1

  9
$DIMALT
 70
     0
  9
$DIMALTD
 70
     2
  9
$DIMALTF
 40
25.4
  9
$DIMLFAC
 40
1.0
  9
$DIMTOFL
 70
     0
  9
$DIMTVP
 40
0.0
  9
$DIMTIX
 70
     0
  9
$DIMSOXD
 70
     0
  9
$DIMSAH
 70
     0
  9
$DIMBLK1
  1

  9
$DIMBLK2
  1

  9
$DIMSTYLE
  2
SC_DEFAUT
  9
$DIMCLRD
 70
     0
  9
$DIMCLRE
 70
     0
  9
$DIMCLRT
 70
     0
  9
$DIMTFAC
 40
1.0
  9
$DIMGAP
 40
0.6
  9
$LUNITS
 70
     2
  9
$LUPREC
 70
     1
  9
$SKETCHINC
 40
0.1
  9
$FILLETRAD
 40
2.0
  9
$AUNITS
 70
     0
  9
$AUPREC
 70
     0
  9
$MENU
  1
acad
  9
$ELEVATION
 40
0.0
  9
$PELEVATION
 40
0.0
  9
$THICKNESS
 40
0.0
  9
$LIMCHECK
 70
     0
  9
$BLIPMODE
 70
     0
  9
$CHAMFERA
 40
0.0
  9
$CHAMFERB
 40
0.0
  9
$SKPOLY
 70
     0
  9
$TDCREATE
 40
2450365.355314
  9
$TDUPDATE
 40
2452576.582248
  9
$TDINDWG
 40
1.004513
  9
$TDUSRTIMER
 40
1.004513
  9
$USRTIMER
 70
     1
  9
$ANGBASE
 50
0.0
  9
$ANGDIR
 70
     0
  9
$PDMODE
 70
    32
  9
$PDSIZE
 40
0.0
  9
$PLINEWID
 40
0.0
  9
$COORDS
 70
     2
  9
$SPLFRAME
 70
     0
  9
$SPLINETYPE
 70
     6
  9
$SPLINESEGS
 70
     8
  9
$ATTDIA
 70
     0
  9
$ATTREQ
 70
     1
  9
$HANDLING
 70
     1
  9
$HANDSEED
  5
703D
  9
$SURFTAB1
 70
     6
  9
$SURFTAB2
 70
     6
  9
$SURFTYPE
 70
     6
  9
$SURFU
 70
     6
  9
$SURFV
 70
     6
  9
$UCSNAME
  2

  9
$UCSORG
 10
0.0
 20
0.0
 30
0.0
  9
$UCSXDIR
 10
1.0
 20
0.0
 30
0.0
  9
$UCSYDIR
 10
0.0
 20
1.0
 30
0.0
  9
$PUCSNAME
  2

  9
$PUCSORG
 10
0.0
 20
0.0
 30
0.0
  9
$PUCSXDIR
 10
1.0
 20
0.0
 30
0.0
  9
$PUCSYDIR
 10
0.0
 20
1.0
 30
0.0
  9
$USERI1
 70
     0
  9
$USERI2
 70
     0
  9
$USERI3
 70
     0
  9
$USERI4
 70
     0
  9
$USERI5
 70
     0
  9
$USERR1
 40
0.0
  9
$USERR2
 40
0.0
  9
$USERR3
 40
0.0
  9
$USERR4
 40
0.0
  9
$USERR5
 40
0.0
  9
$WORLDVIEW
 70
     1
  9
$SHADEDGE
 70
     3
  9
$SHADEDIF
 70
    70
  9
$TILEMODE
 70
     1
  9
$MAXACTVP
 70
    16
  9
$PLIMCHECK
 70
     0
  9
$PEXTMIN
 10
1.000000E+020
 20
1.000000E+020
 30
1.000000E+020
  9
$PEXTMAX
 10
-1.000000E+020
 20
-1.000000E+020
 30
-1.000000E+020
  9
$PLIMMIN
 10
0.0
 20
0.0
  9
$PLIMMAX
 10
12.0
 20
9.0
  9
$UNITMODE
 70
     0
  9
$VISRETAIN
 70
     0
  9
$PLINEGEN
 70
     0
  9
$PSLTSCALE
 70
     0
  0
ENDSEC
  0
SECTION
  2
TABLES
  0
TABLE
  2
VPORT
 70
     2
  0
VPORT
  2
*ACTIVE
 70
     0
 10
0.0
 20
0.0
 11
1.0
 21
1.0
 12
1540.062164
 22
133.655988
 13
0.0
 23
0.0
 14
1.0
 24
1.0
 15
10.0
 25
10.0
 16
0.0
 26
0.0
 36
1.0
 17
0.0
 27
0.0
 37
0.0
 40
97.217448
 41
1.63142
 42
50.0
 43
0.0
 44
0.0
 50
0.0
 51
0.0
 71
     0
 72
   100
 73
     1
 74
     0
 75
     0
 76
     0
 77
     0
 78
     0
  0
ENDTAB
  0
TABLE
  2
LTYPE
 70
    25
  0
LTYPE
  2
CONTINUOUS
 70
     0
  3
Solid line
 72
    65
 73
     0
 40
0.0
  0
LTYPE
  2
AXES2
 70
     0
  3
___ _ ___ _ ___ _ ___ _ ___ _ ___ _ ___ _ ___ _
 72
    65
 73
     4
 40
1.125
 49
0.75
 49
-0.125
 49
0.125
 49
-0.125
  0
LTYPE
  2
AXES
 70
     0
  3
____ _ ____ _ ____ _ ____ _ ____ _ ____ _ ____ 
 72
    65
 73
     4
 40
2.0
 49
1.25
 49
-0.25
 49
0.25
 49
-0.25
  0
LTYPE
  2
AXESX2
 70
     0
  3
________  __  ________  __  ________  __  _____
 72
    65
 73
     4
 40
4.0
 49
2.5
 49
-0.5
 49
0.5
 49
-0.5
  0
LTYPE
  2
TIRETPT
 70
     0
  3
__ . __ . __ . __ . __ . __ . __ . __ . __ . __
 72
    65
 73
     4
 40
1.0
 49
0.5
 49
-0.25
 49
0.0
 49
-0.25
  0
LTYPE
  2
TIRETPT2
 70
     0
  3
_._._._._._._._._._._._._._._._._._._._._._._._
 72
    65
 73
     4
 40
0.5
 49
0.25
 49
-0.125
 49
0.0
 49
-0.125
  0
LTYPE
  2
TIRETPTX2
 70
     0
  3
____  .  ____  .  ____  .  ____  .  ____  .  __
 72
    65
 73
     4
 40
2.0
 49
1.0
 49
-0.5
 49
0.0
 49
-0.5
  0
LTYPE
  2
DISCONTINU
 70
     0
  3
__ __ __ __ __ __ __ __ __ __ __ __ __ __ __ __
 72
    65
 73
     2
 40
0.75
 49
0.5
 49
-0.25
  0
LTYPE
  2
DISCONTINU2
 70
     0
  3
_ _ _ _ _ _ _ _ _ _ _ _ _ _ _ _ _ _ _ _ _ _ _ _
 72
    65
 73
     2
 40
0.375
 49
0.25
 49
-0.125
  0
LTYPE
  2
DISCONTINUX2
 70
     0
  3
____  ____  ____  ____  ____  ____  ____  ____ 
 72
    65
 73
     2
 40
1.5
 49
1.0
 49
-0.5
  0
LTYPE
  2
DIVISE
 70
     0
  3
____ . . ____ . . ____ . . ____ . . ____ . . __
 72
    65
 73
     6
 40
1.25
 49
0.5
 49
-0.25
 49
0.0
 49
-0.25
 49
0.0
 49
-0.25
  0
LTYPE
  2
DIVISE2
 70
     0
  3
__..__..__..__..__..__..__..__..__..__..__..__.
 72
    65
 73
     6
 40
0.625
 49
0.25
 49
-0.125
 49
0.0
 49
-0.125
 49
0.0
 49
-0.125
  0
LTYPE
  2
DIVISEX2
 70
     0
  3
________  .  .  ________  .  .  ________  .  . 
 72
    65
 73
     6
 40
2.5
 49
1.0
 49
-0.5
 49
0.0
 49
-0.5
 49
0.0
 49
-0.5
  0
LTYPE
  2
POINTILLE
 70
     0
  3
. . . . . . . . . . . . . . . . . . . . . . . .
 72
    65
 73
     2
 40
0.25
 49
0.0
 49
-0.25
  0
LTYPE
  2
POINTILLE2
 70
     0
  3
...............................................
 72
    65
 73
     2
 40
0.125
 49
0.0
 49
-0.125
  0
LTYPE
  2
POINTILLEX2
 70
     0
  3
.  .  .  .  .  .  .  .  .  .  .  .  .  .  .  . 
 72
    65
 73
     2
 40
0.5
 49
0.0
 49
-0.5
  0
LTYPE
  2
CACHE
 70
     0
  3
__ __ __ __ __ __ __ __ __ __ __ __ __ __ __ __
 72
    65
 73
     2
 40
0.375
 49
0.25
 49
-0.125
  0
LTYPE
  2
CACHE2
 70
     0
  3
_ _ _ _ _ _ _ _ _ _ _ _ _ _ _ _ _ _ _ _ _ _ _ _
 72
    65
 73
     2
 40
0.1875
 49
0.125
 49
-0.0625
  0
LTYPE
  2
CACHEX2
 70
     0
  3
____ ____ ____ ____ ____ ____ ____ ____ ____ __
 72
    65
 73
     2
 40
0.75
 49
0.5
 49
-0.25
  0
LTYPE
  2
FANTOME
 70
     0
  3
______  __  __  ______  __  __  ______  __  __ 
 72
    65
 73
     6
 40
2.5
 49
1.25
 49
-0.25
 49
0.25
 49
-0.25
 49
0.25
 49
-0.25
  0
LTYPE
  2
FANTOME2
 70
     0
  3
___ _ _ ___ _ _ ___ _ _ ___ _ _ ___ _ _ ___ _ _
 72
    65
 73
     6
 40
1.25
 49
0.625
 49
-0.125
 49
0.125
 49
-0.125
 49
0.125
 49
-0.125
  0
LTYPE
  2
FANTOMEX2
 70
     0
  3
____________    ____    ____    ____________   
 72
    65
 73
     6
 40
5.0
 49
2.5
 49
-0.5
 49
0.5
 49
-0.5
 49
0.5
 49
-0.5
  0
LTYPE
  2
0
 70
     0
  3
MEDUSA PEN 0
 72
    65
 73
     0
 40
0.0
  0
LTYPE
  2
AI9-LTYPE1
 70
     0
  3
Illustrator Dash Style No.1
 72
    65
 73
     4
 40
5.64621
 49
4.106333
 49
-0.307975
 49
0.923926
 49
-0.307975
  0
LTYPE
  2
ACAD_ISO04W100
 70
     0
  3
ISO Lang gestrichelt punktiert ____ . ____ . __
 72
    65
 73
     4
 40
30.5
 49
24.0
 49
-3.0
 49
0.5
 49
-3.0
  0
ENDTAB
  0
TABLE
  2
LAYER
 70
    17
  0
LAYER
  2
0
 70
     0
 62
     7
  6
CONTINUOUS
  0
LAYER
  2
TEXTE_MOYEN
 70
     0
 62
   131
  6
CONTINUOUS
  0
LAYER
  2
ALPHA
 70
     0
 62
   254
  6
CONTINUOUS
  0
LAYER
  2
COTATION1
 70
     0
 62
    50
  6
CONTINUOUS
  0
LAYER
  2
AXE
 70
     0
 62
    80
  6
AXES2
  0
LAYER
  2
DEFPOINTS
 70
     0
 62
     7
  6
CONTINUOUS
  0
LAYER
  2
HACHURES1
 70
     0
 62
   130
  6
CONTINUOUS
  0
LAYER
  2
FMULT
 70
     0
 62
   210
  6
CONTINUOUS
  0
LAYER
  2
FDP_CARTOUCHE
 70
     0
 62
   136
  6
CONTINUOUS
  0
LAYER
  2
FDP_TEXTES
 70
     0
 62
   171
  6
CONTINUOUS
  0
LAYER
  2
FDP_LOGO_MG
 70
     0
 62
    30
  6
CONTINUOUS
  0
LAYER
  2
FDP_LOGO_SCH
 70
     0
 62
    90
  6
CONTINUOUS
  0
LAYER
  2
FDP_FDP
 70
     0
 62
   170
  6
CONTINUOUS
  0
LAYER
  2
POINTILLE_COURT2
 70
     0
 62
    41
  6
CACHE2
  0
LAYER
  2
POINTILLE_MOYEN2
 70
     0
 62
   141
  6
CACHE
  0
LAYER
  2
POINTILLE_LONG2
 70
     0
 62
   241
  6
CACHEX2
  0
LAYER
  2
ALPHA_FIN
 70
     0
 62
   255
  6
CONTINUOUS
  0
ENDTAB
  0
TABLE
  2
STYLE
 70
     4
  0
STYLE
  2
ROMANS
 70
     0
 40
0.0
 41
1.0
 50
0.0
 71
     0
 42
6.0
  3
romans
  4

  0
STYLE
  2
STANDARD
 70
     0
 40
0.2
 41
1.0
 50
0.0
 71
     0
 42
0.2
  3
txt
  4

  0
STYLE
  2
CARTOUCHE
 70
     0
 40
0.0
 41
1.0
 50
0.0
 71
     0
 42
0.2
  3
ROMANS.SHX
  4

  0
STYLE
  2
STD
 70
     0
 40
0.0
 41
1.0
 50
0.0
 71
     0
 42
0.0
  3
txt
  4

  0
ENDTAB
  0
TABLE
  2
VIEW
 70
     0
  0
ENDTAB
  0
TABLE
  2
UCS
 70
     0
  0
ENDTAB
  0
TABLE
  2
APPID
 70
     3
  0
APPID
  2
ACAD
 70
     0
  0
APPID
  2
AVE_RENDER
 70
     0
  0
APPID
  2
AVE_MATERIAL
 70
     0
  0
ENDTAB
  0
TABLE
  2
DIMSTYLE
 70
     2
  0
DIMSTYLE
  2
SC_DEFAUT
 70
     0
  3

  4

  5
OPEN30
  6

  7

 40
1.0
 41
3.0
 42
1.0
 43
0.1
 44
0.5
 45
0.0
 46
0.0
 47
0.0
 48
0.0
140
3.0
141
0.0
142
0.0
143
25.4
144
1.0
145
0.0
146
1.0
147
0.6
 71
     0
 72
     0
 73
     0
 74
     0
 75
     0
 76
     0
 77
     1
 78
    12
170
     0
171
     2
172
     0
173
     0
174
     0
175
     0
176
     0
177
     0
178
     0
  0
DIMSTYLE
  2
STANDARD
 70
     0
  3

  4

  5

  6

  7

 40
1.0
 41
0.18
 42
0.0625
 43
0.38
 44
0.18
 45
0.0
 46
0.0
 47
0.0
 48
0.0
140
0.18
141
0.09
142
0.0
143
25.4
144
1.0
145
0.0
146
1.0
147
0.09
 71
     0
 72
     0
 73
     1
 74
     1
 75
     0
 76
     0
 77
     0
 78
     0
170
     0
171
     2
172
     0
173
     0
174
     0
175
     0
176
     0
177
     0
178
     0
  0
ENDTAB
  0
ENDSEC
  0
SECTION
  2
BLOCKS
  0
BLOCK
  8
0
  2
$MODEL_SPACE
 70
     0
 10
0.0
 20
0.0
 30
0.0
  3
$MODEL_SPACE
  1

  0
ENDBLK
  5
7036
  8
0
  0
BLOCK
 67
     1
  8
0
  2
$PAPER_SPACE
 70
     0
 10
0.0
 20
0.0
 30
0.0
  3
$PAPER_SPACE
  1

  0
ENDBLK
  5
7034
 67
     1
  8
0
  0
BLOCK
  8
0
  2
COTE
 70
     0
 10
0.0
 20
0.0
 30
0.0
  3
COTE
  1

  0
ENDBLK
  5
35
  8
0
  0
BLOCK
  8
0
  2
FOND
 70
     0
 10
0.0
 20
0.0
 30
0.0
  3
FOND
  1

  0
ENDBLK
  5
39
  8
0
  0
BLOCK
  8
0
  2
SCH_ISO
 70
     0
 10
0.0
 20
0.0
 30
0.0
  3
SCH_ISO
  1

  0
ENDBLK
  5
24AD
  8
0
  0
BLOCK
  8
0
  2
_OPEN30
 70
     0
 10
0.0
 20
0.0
 30
0.0
  3
_OPEN30
  1

  0
LINE
  5
27E1
  8
COTATION1
 62
     0
 10
-1.0
 20
0.267949
 30
0.0
 11
0.0
 21
0.0
 31
0.0
1001
ACAD
1000
RTLwPs
1070
   158
  0
LINE
  5
27E2
  8
COTATION1
 62
     0
 10
0.0
 20
0.0
 30
0.0
 11
-1.0
 21
-0.267949
 31
0.0
1001
ACAD
1000
RTLwPs
1070
   158
  0
LINE
  5
27E3
  8
COTATION1
 62
     0
 10
0.0
 20
0.0
 30
0.0
 11
-1.0
 21
0.0
 31
0.0
1001
ACAD
1000
RTLwPs
1070
   158
  0
ENDBLK
  5
27E5
  8
0
  0
BLOCK
  8
0
  2
*D4
 70
     1
 10
0.0
 20
0.0
 30
0.0
  3
*D4
  1

  0
LINE
  5
6E59
  8
COTATION1
 62
     0
 10
1525.06632
 20
105.191586
 30
0.0
 11
1510.56632
 21
105.191586
 31
0.0
1001
ACAD
1000
RTLwPs
1070
   158
  0
LINE
  5
6E5A
  8
COTATION1
 62
     0
 10
1525.06632
 20
163.191586
 30
0.0
 11
1510.56632
 21
163.191586
 31
0.0
1001
ACAD
1000
RTLwPs
1070
   158
  0
LINE
  5
6E5B
  8
COTATION1
 62
     0
 10
1511.06632
 20
108.191586
 30
0.0
 11
1511.06632
 21
160.191586
 31
0.0
1001
ACAD
1000
RTLwPs
1070
   158
  0
INSERT
  5
6E5C
  8
COTATION1
 62
     0
  2
_OPEN30
 10
1511.06632
 20
105.191586
 30
0.0
 41
3.0
 42
3.0
 43
3.0
 50
270.0
1001
ACAD
1000
RTLwPs
1070
   158
  0
INSERT
  5
6E5D
  8
COTATION1
 62
     0
  2
_OPEN30
 10
1511.06632
 20
163.191586
 30
0.0
 41
3.0
 42
3.0
 43
3.0
 50
90.0
1001
ACAD
1000
RTLwPs
1070
   158
  0
TEXT
  5
6E5E
  8
COTATION1
 62
     0
 10
1510.46632
 20
131.334443
 30
0.0
 40
3.0
  1
58
 50
90.0
1001
ACAD
1000
MTEXTBEGIN
1070
    73
1070
     1
1070
    44
1040
1.0
1070
    74
1070
     0
1000
MTEXTEND
1000
MTEXTBEGIN
1070
    73
1070
     1
1070
    44
1040
1.0
1070
    74
1070
     0
1000
MTEXTEND
  0
POINT
  5
6E5F
  8
DEFPOINTS
 62
     0
 10
1526.06632
 20
105.191586
 30
0.0
  0
POINT
  5
6E60
  8
DEFPOINTS
 62
     0
 10
1526.06632
 20
163.191586
 30
0.0
  0
POINT
  5
6E61
  8
DEFPOINTS
 62
     0
 10
1511.06632
 20
163.191586
 30
0.0
  0
ENDBLK
  5
611B
  8
0
  0
BLOCK
  8
0
  2
*D5
 70
     1
 10
0.0
 20
0.0
 30
0.0
  3
*D5
  1

  0
LINE
  5
6E4F
  8
COTATION1
 62
     0
 10
1525.06632
 20
105.191586
 30
0.0
 11
1510.56632
 21
105.191586
 31
0.0
1001
ACAD
1000
RTLwPs
1070
   158
  0
LINE
  5
6E50
  8
COTATION1
 62
     0
 10
1528.06632
 20
99.291586
 30
0.0
 11
1510.56632
 21
99.291586
 31
0.0
1001
ACAD
1000
RTLwPs
1070
   158
  0
LINE
  5
6E51
  8
COTATION1
 62
     0
 10
1511.06632
 20
108.191586
 30
0.0
 11
1511.06632
 21
111.191586
 31
0.0
1001
ACAD
1000
RTLwPs
1070
   158
  0
LINE
  5
6E52
  8
COTATION1
 62
     0
 10
1511.06632
 20
96.291586
 30
0.0
 11
1511.06632
 21
85.948728
 31
0.0
1001
ACAD
1000
RTLwPs
1070
   158
  0
INSERT
  5
6E53
  8
COTATION1
 62
     0
  2
_OPEN30
 10
1511.06632
 20
105.191586
 30
0.0
 41
3.0
 42
3.0
 43
3.0
 50
270.0
1001
ACAD
1000
RTLwPs
1070
   158
  0
INSERT
  5
6E54
  8
COTATION1
 62
     0
  2
_OPEN30
 10
1511.06632
 20
99.291586
 30
0.0
 41
3.0
 42
3.0
 43
3.0
 50
90.0
1001
ACAD
1000
RTLwPs
1070
   158
  0
TEXT
  5
6E55
  8
COTATION1
 62
     0
 10
1510.46632
 20
86.120157
 30
0.0
 40
3.0
  1
5.9
 50
90.0
1001
ACAD
1000
MTEXTBEGIN
1070
    73
1070
     1
1070
    44
1040
1.0
1070
    74
1070
     0
1000
MTEXTEND
1000
MTEXTBEGIN
1070
    73
1070
     1
1070
    44
1040
1.0
1070
    74
1070
     0
1000
MTEXTEND
  0
POINT
  5
6E56
  8
DEFPOINTS
 62
     0
 10
1526.06632
 20
105.191586
 30
0.0
  0
POINT
  5
6E57
  8
DEFPOINTS
 62
     0
 10
1529.06632
 20
99.291586
 30
0.0
  0
POINT
  5
6E58
  8
DEFPOINTS
 62
     0
 10
1511.06632
 20
99.291586
 30
0.0
  0
ENDBLK
  5
69C4
  8
0
  0
BLOCK
  8
0
  2
*D6
 70
     1
 10
0.0
 20
0.0
 30
0.0
  3
*D6
  1

  0
LINE
  5
6EAA
  8
COTATION1
 62
     0
 10
1557.06632
 20
164.191586
 30
0.0
 11
1557.06632
 21
178.691586
 31
0.0
1001
ACAD
1000
RTLwPs
1070
   158
  0
LINE
  5
6EAB
  8
COTATION1
 62
     0
 10
1526.06632
 20
164.191586
 30
0.0
 11
1526.06632
 21
178.691586
 31
0.0
1001
ACAD
1000
RTLwPs
1070
   158
  0
LINE
  5
6EAC
  8
COTATION1
 62
     0
 10
1554.06632
 20
178.191586
 30
0.0
 11
1529.06632
 21
178.191586
 31
0.0
1001
ACAD
1000
RTLwPs
1070
   158
  0
INSERT
  5
6EAD
  8
COTATION1
 62
     0
  2
_OPEN30
 10
1557.06632
 20
178.191586
 30
0.0
 41
3.0
 42
3.0
 43
3.0
1001
ACAD
1000
RTLwPs
1070
   158
  0
INSERT
  5
6EAE
  8
COTATION1
 62
     0
  2
_OPEN30
 10
1526.06632
 20
178.191586
 30
0.0
 41
3.0
 42
3.0
 43
3.0
 50
180.0
1001
ACAD
1000
RTLwPs
1070
   158
  0
TEXT
  5
6EAF
  8
COTATION1
 62
     0
 10
1539.137748
 20
178.791586
 30
0.0
 40
3.0
  1
31
1001
ACAD
1000
MTEXTBEGIN
1070
    73
1070
     1
1070
    44
1040
1.0
1070
    74
1070
     0
1000
MTEXTEND
1000
MTEXTBEGIN
1070
    73
1070
     1
1070
    44
1040
1.0
1070
    74
1070
     0
1000
MTEXTEND
  0
POINT
  5
6EB0
  8
DEFPOINTS
 62
     0
 10
1557.06632
 20
163.191586
 30
0.0
  0
POINT
  5
6EB1
  8
DEFPOINTS
 62
     0
 10
1526.06632
 20
163.191586
 30
0.0
  0
POINT
  5
6EB2
  8
DEFPOINTS
 62
     0
 10
1526.06632
 20
178.191586
 30
0.0
  0
ENDBLK
  5
6AA1
  8
0
  0
ENDSEC
  0
SECTION
  2
ENTITIES
  0
INSERT
  5
32
  8
0
  2
COTE
 10
0.0
 20
0.0
 30
0.0
  0
INSERT
  5
36
  8
0
  2
FOND
 10
0.0
 20
0.0
 30
0.0
  0
INSERT
  5
24AE
  8
ALPHA
  2
SCH_ISO
 10
-66.27012
 20
-238.940658
 30
0.0
  0
DIMENSION
  5
6102
  8
COTATION1
  2
*D4
 10
1511.06632
 20
163.191586
 30
0.0
 11
1508.96632
 21
134.191586
 31
0.0
 13
1526.06632
 23
105.191586
 33
0.0
 14
1526.06632
 24
163.191586
 34
0.0
 50
90.0
  0
DIMENSION
  5
69B7
  8
COTATION1
  2
*D5
 10
1511.06632
 20
99.291586
 30
0.0
 11
1508.96632
 21
89.620157
 31
0.0
 13
1526.06632
 23
105.191586
 33
0.0
 14
1529.06632
 24
99.291586
 34
0.0
 50
90.0
  0
LINE
  5
6A66
  8
AXE
 10
1521.06632
 20
134.191586
 30
0.0
 11
1572.641188
 21
134.191586
 31
0.0
  0
TEXT
  5
6A67
  8
AXE
 10
1566.002038
 20
135.191586
 30
0.0
 40
8.0
  1
X
 72
     2
 11
1572.478229
 21
135.191586
 31
0.0
  0
LINE
  5
6A68
  8
ALPHA
 10
1541.56632
 20
163.191586
 30
0.0
 11
1526.06632
 21
163.191586
 31
0.0
  0
LINE
  5
6A69
  8
ALPHA
 10
1541.56632
 20
105.191586
 30
0.0
 11
1526.06632
 21
105.191586
 31
0.0
  0
LINE
  5
6A73
  8
ALPHA
 10
1541.56632
 20
99.291586
 30
0.0
 11
1529.06632
 21
99.291586
 31
0.0
  0
LINE
  5
6A79
  8
AXE
 10
1541.56632
 20
168.191586
 30
0.0
 11
1541.56632
 21
85.491586
 31
0.0
  0
TEXT
  5
6A7A
  8
AXE
 10
1534.090129
 20
85.491586
 30
0.0
 40
8.0
  1
Y
 72
     2
 11
1540.56632
 21
85.491586
 31
0.0
  0
LINE
  5
6A7B
  8
ALPHA
 10
1526.06632
 20
163.191586
 30
0.0
 11
1526.06632
 21
105.191586
 31
0.0
  0
CIRCLE
  5
6A7C
  8
ALPHA
 10
1541.56632
 20
120.991586
 30
0.0
 40
12.5
  0
LINE
  5
6A7F
  8
ALPHA
 10
1541.56632
 20
103.691586
 30
0.0
 11
1529.06632
 21
103.691586
 31
0.0
  0
LINE
  5
6A80
  8
ALPHA
 10
1541.56632
 20
102.991586
 30
0.0
 11
1529.06632
 21
102.991586
 31
0.0
  0
LINE
  5
6A81
  8
ALPHA
 10
1541.56632
 20
101.491586
 30
0.0
 11
1529.06632
 21
101.491586
 31
0.0
  0
LINE
  5
6A82
  8
ALPHA
 10
1541.56632
 20
100.791586
 30
0.0
 11
1529.06632
 21
100.791586
 31
0.0
  0
LINE
  5
6A83
  8
ALPHA
 10
1529.06632
 20
102.991586
 30
0.0
 11
1529.06632
 21
101.491586
 31
0.0
  0
LINE
  5
6A84
  8
ALPHA
 10
1529.66632
 20
101.491586
 30
0.0
 11
1529.66632
 21
100.791586
 31
0.0
  0
LINE
  5
6A85
  8
ALPHA
 10
1529.66632
 20
103.691586
 30
0.0
 11
1529.66632
 21
102.991586
 31
0.0
  0
LINE
  5
6A86
  8
ALPHA
 10
1529.06632
 20
100.791586
 30
0.0
 11
1529.06632
 21
99.291586
 31
0.0
  0
LINE
  5
6A87
  8
ALPHA
 10
1529.06632
 20
105.191586
 30
0.0
 11
1529.06632
 21
103.691586
 31
0.0
  0
LINE
  5
6A88
  8
ALPHA
 10
1541.56632
 20
100.791586
 30
0.0
 11
1554.06632
 21
100.791586
 31
0.0
  0
LINE
  5
6A89
  8
ALPHA
 10
1541.56632
 20
101.491586
 30
0.0
 11
1554.06632
 21
101.491586
 31
0.0
  0
LINE
  5
6A8A
  8
ALPHA
 10
1541.56632
 20
102.991586
 30
0.0
 11
1554.06632
 21
102.991586
 31
0.0
  0
LINE
  5
6A8B
  8
ALPHA
 10
1541.56632
 20
103.691586
 30
0.0
 11
1554.06632
 21
103.691586
 31
0.0
  0
LINE
  5
6A8C
  8
ALPHA
 10
1541.56632
 20
99.291586
 30
0.0
 11
1554.06632
 21
99.291586
 31
0.0
  0
LINE
  5
6A8D
  8
ALPHA
 10
1541.56632
 20
105.191586
 30
0.0
 11
1557.06632
 21
105.191586
 31
0.0
  0
LINE
  5
6A8E
  8
ALPHA
 10
1541.56632
 20
163.191586
 30
0.0
 11
1557.06632
 21
163.191586
 31
0.0
  0
LINE
  5
6A8F
  8
ALPHA
 10
1557.06632
 20
163.191586
 30
0.0
 11
1557.06632
 21
105.191586
 31
0.0
  0
LINE
  5
6A90
  8
ALPHA
 10
1554.06632
 20
105.191586
 30
0.0
 11
1554.06632
 21
103.691586
 31
0.0
  0
LINE
  5
6A91
  8
ALPHA
 10
1554.06632
 20
100.791586
 30
0.0
 11
1554.06632
 21
99.291586
 31
0.0
  0
LINE
  5
6A92
  8
ALPHA
 10
1553.46632
 20
103.691586
 30
0.0
 11
1553.46632
 21
102.991586
 31
0.0
  0
LINE
  5
6A93
  8
ALPHA
 10
1553.46632
 20
101.491586
 30
0.0
 11
1553.46632
 21
100.791586
 31
0.0
  0
LINE
  5
6A94
  8
ALPHA
 10
1554.06632
 20
102.991586
 30
0.0
 11
1554.06632
 21
101.491586
 31
0.0
  0
DIMENSION
  5
6A95
  8
COTATION1
  2
*D6
 10
1526.06632
 20
178.191586
 30
0.0
 11
1541.56632
 21
180.291586
 31
0.0
 13
1557.06632
 23
163.191586
 33
0.0
 14
1526.06632
 24
163.191586
 34
0.0
 50
180.0
  0
ENDSEC
  0
EOF
