  0
SECTION
  2
HEADER
  9
$ACADVER
  1
AC1014
  9
$ACADMAINTVER
 70
     0
  9
$DWGCODEPAGE
  3
ANSI_1252
  9
$INSBASE
 10
93.894301
 20
236.06014
 30
0.0
  9
$EXTMIN
 10
5.259644
 20
101.299293
 30
0.0
  9
$EXTMAX
 10
29.159644
 20
128.662221
 30
0.0
  9
$LIMMIN
 10
0.0
 20
0.0
  9
$LIMMAX
 10
210.0
 20
297.0
  9
$ORTHOMODE
 70
     0
  9
$REGENMODE
 70
     1
  9
$FILLMODE
 70
     1
  9
$QTEXTMODE
 70
     0
  9
$MIRRTEXT
 70
     0
  9
$DRAGMODE
 70
     1
  9
$LTSCALE
 40
7.0
  9
$OSMODE
 70
  4095
  9
$ATTMODE
 70
     1
  9
$TEXTSIZE
 40
2.5
  9
$TRACEWID
 40
0.05
  9
$TEXTSTYLE
  7
STANDARD
  9
$CLAYER
  8
COTATION1
  9
$CELTYPE
  6
BYLAYER
  9
$CECOLOR
 62
   256
  9
$CELTSCALE
 40
1.0
  9
$DELOBJ
 70
     1
  9
$DISPSILH
 70
     0
  9
$DIMSCALE
 40
1.0
  9
$DIMASZ
 40
3.0
  9
$DIMEXO
 40
0.0625
  9
$DIMDLI
 40
0.38
  9
$DIMRND
 40
0.01
  9
$DIMDLE
 40
0.0
  9
$DIMEXE
 40
0.18
  9
$DIMTP
 40
0.0
  9
$DIMTM
 40
0.0
  9
$DIMTXT
 40
2.5
  9
$DIMCEN
 40
0.09
  9
$DIMTSZ
 40
0.0
  9
$DIMTOL
 70
     0
  9
$DIMLIM
 70
     0
  9
$DIMTIH
 70
     0
  9
$DIMTOH
 70
     0
  9
$DIMSE1
 70
     0
  9
$DIMSE2
 70
     0
  9
$DIMTAD
 70
     1
  9
$DIMZIN
 70
    12
  9
$DIMBLK
  1

  9
$DIMASO
 70
     1
  9
$DIMSHO
 70
     0
  9
$DIMPOST
  1

  9
$DIMAPOST
  1

  9
$DIMALT
 70
     0
  9
$DIMALTD
 70
     2
  9
$DIMALTF
 40
25.4
  9
$DIMLFAC
 40
1.0
  9
$DIMTOFL
 70
     1
  9
$DIMTVP
 40
0.0
  9
$DIMTIX
 70
     0
  9
$DIMSOXD
 70
     0
  9
$DIMSAH
 70
     0
  9
$DIMBLK1
  1

  9
$DIMBLK2
  1

  9
$DIMSTYLE
  2
SC_STAND
  9
$DIMCLRD
 70
     0
  9
$DIMCLRE
 70
     0
  9
$DIMCLRT
 70
     0
  9
$DIMTFAC
 40
1.0
  9
$DIMGAP
 40
1.0
  9
$DIMJUST
 70
     0
  9
$DIMSD1
 70
     0
  9
$DIMSD2
 70
     0
  9
$DIMTOLJ
 70
     1
  9
$DIMTZIN
 70
    12
  9
$DIMALTZ
 70
    12
  9
$DIMALTTZ
 70
    12
  9
$DIMFIT
 70
     5
  9
$DIMUPT
 70
     0
  9
$DIMUNIT
 70
     2
  9
$DIMDEC
 70
     3
  9
$DIMTDEC
 70
     3
  9
$DIMALTU
 70
     2
  9
$DIMALTTD
 70
     2
  9
$DIMTXSTY
  7
STANDARD
  9
$DIMAUNIT
 70
     0
  9
$LUNITS
 70
     2
  9
$LUPREC
 70
     3
  9
$SKETCHINC
 40
0.1
  9
$FILLETRAD
 40
0.0625
  9
$AUNITS
 70
     0
  9
$AUPREC
 70
     0
  9
$MENU
  1
ACAD
  9
$ELEVATION
 40
0.0
  9
$PELEVATION
 40
0.0
  9
$THICKNESS
 40
0.0
  9
$LIMCHECK
 70
     0
  9
$BLIPMODE
 70
     1
  9
$CHAMFERA
 40
0.0
  9
$CHAMFERB
 40
0.0
  9
$CHAMFERC
 40
0.0
  9
$CHAMFERD
 40
0.0
  9
$SKPOLY
 70
     0
  9
$TDCREATE
 40
2450953.590960648
  9
$TDUPDATE
 40
2453103.723084305
  9
$TDINDWG
 40
0.0035788194
  9
$TDUSRTIMER
 40
0.0035788194
  9
$USRTIMER
 70
     1
  9
$ANGBASE
 50
0.0
  9
$ANGDIR
 70
     0
  9
$PDMODE
 70
     0
  9
$PDSIZE
 40
0.0
  9
$PLINEWID
 40
0.0
  9
$COORDS
 70
     0
  9
$SPLFRAME
 70
     0
  9
$SPLINETYPE
 70
     6
  9
$SPLINESEGS
 70
     8
  9
$ATTDIA
 70
     0
  9
$ATTREQ
 70
     1
  9
$HANDLING
 70
     1
  9
$HANDSEED
  5
7C9
  9
$SURFTAB1
 70
     6
  9
$SURFTAB2
 70
     6
  9
$SURFTYPE
 70
     6
  9
$SURFU
 70
     6
  9
$SURFV
 70
     6
  9
$UCSNAME
  2

  9
$UCSORG
 10
0.0
 20
0.0
 30
0.0
  9
$UCSXDIR
 10
1.0
 20
0.0
 30
0.0
  9
$UCSYDIR
 10
0.0
 20
1.0
 30
0.0
  9
$PUCSNAME
  2

  9
$PUCSORG
 10
0.0
 20
0.0
 30
0.0
  9
$PUCSXDIR
 10
1.0
 20
0.0
 30
0.0
  9
$PUCSYDIR
 10
0.0
 20
1.0
 30
0.0
  9
$USERI1
 70
     0
  9
$USERI2
 70
     0
  9
$USERI3
 70
     0
  9
$USERI4
 70
     0
  9
$USERI5
 70
     0
  9
$USERR1
 40
0.0
  9
$USERR2
 40
0.0
  9
$USERR3
 40
0.0
  9
$USERR4
 40
0.0
  9
$USERR5
 40
0.0
  9
$WORLDVIEW
 70
     1
  9
$SHADEDGE
 70
     3
  9
$SHADEDIF
 70
    70
  9
$TILEMODE
 70
     1
  9
$MAXACTVP
 70
    32
  9
$PINSBASE
 10
0.0
 20
0.0
 30
0.0
  9
$PLIMCHECK
 70
     0
  9
$PEXTMIN
 10
-3.174999
 20
-3.175
 30
0.0
  9
$PEXTMAX
 10
203.812116
 20
370.276807
 30
0.0
  9
$PLIMMIN
 10
-3.175
 20
-3.175
  9
$PLIMMAX
 10
203.812115
 20
370.276807
  9
$UNITMODE
 70
     0
  9
$VISRETAIN
 70
     0
  9
$PLINEGEN
 70
     0
  9
$PSLTSCALE
 70
     1
  9
$TREEDEPTH
 70
  3020
  9
$PICKSTYLE
 70
     1
  9
$CMLSTYLE
  2
STANDARD
  9
$CMLJUST
 70
     0
  9
$CMLSCALE
 40
1.0
  9
$PROXYGRAPHICS
 70
     1
  9
$MEASUREMENT
 70
     0
  0
ENDSEC
  0
SECTION
  2
CLASSES
  0
CLASS
  1
DICTIONARYVAR
  2
AcDbDictionaryVar
  3
"AutoCAD"
 90
        0
280
     0
281
     0
  0
CLASS
  1
HATCH
  2
AcDbHatch
  3
"ACAD_SEDONA"
 90
        0
280
     0
281
     1
  0
ENDSEC
  0
SECTION
  2
TABLES
  0
TABLE
  2
VPORT
  5
F4
100
AcDbSymbolTable
 70
     1
  0
VPORT
  5
7C5
100
AcDbSymbolTableRecord
100
AcDbViewportTableRecord
  2
*ACTIVE
 70
     0
 10
0.0
 20
0.0
 11
1.0
 21
1.0
 12
23.083701
 22
115.882127
 13
0.0
 23
0.0
 14
1.0
 24
1.0
 15
10.0
 25
10.0
 16
0.0
 26
0.0
 36
1.0
 17
0.0
 27
0.0
 37
0.0
 40
56.907612
 41
1.446134
 42
50.0
 43
0.0
 44
0.0
 50
0.0
 51
0.0
 71
     0
 72
   100
 73
     1
 74
     1
 75
     0
 76
     1
 77
     0
 78
     0
  0
ENDTAB
  0
TABLE
  2
LTYPE
  5
F1
100
AcDbSymbolTable
 70
     7
  0
LTYPE
  5
FD
100
AcDbSymbolTableRecord
100
AcDbLinetypeTableRecord
  2
BYBLOCK
 70
     0
  3

 72
    65
 73
     0
 40
0.0
  0
LTYPE
  5
FE
100
AcDbSymbolTableRecord
100
AcDbLinetypeTableRecord
  2
BYLAYER
 70
     0
  3

 72
    65
 73
     0
 40
0.0
  0
LTYPE
  5
FF
100
AcDbSymbolTableRecord
100
AcDbLinetypeTableRecord
  2
CONTINUOUS
 70
     0
  3
Solid line
 72
    65
 73
     0
 40
0.0
  0
LTYPE
  5
110
100
AcDbSymbolTableRecord
100
AcDbLinetypeTableRecord
  2
CACHE
 70
     0
  3
__ __ __ __ __ __ __ __ __ __ __ __ __ __ __ __
 72
    65
 73
     2
 40
0.375
 49
0.25
 74
     0
 49
-0.125
 74
     0
  0
LTYPE
  5
112
100
AcDbSymbolTableRecord
100
AcDbLinetypeTableRecord
  2
AXES2
 70
     0
  3
___ _ ___ _ ___ _ ___ _ ___ _ ___ _ ___ _ ___ _
 72
    65
 73
     4
 40
1.125
 49
0.75
 74
     0
 49
-0.125
 74
     0
 49
0.125
 74
     0
 49
-0.125
 74
     0
  0
LTYPE
  5
120
100
AcDbSymbolTableRecord
100
AcDbLinetypeTableRecord
  2
CACHE2
 70
     0
  3
_ _ _ _ _ _ _ _ _ _ _ _ _ _ _ _ _ _ _ _ _ _ _ _
 72
    65
 73
     2
 40
0.1875
 49
0.125
 74
     0
 49
-0.0625
 74
     0
  0
LTYPE
  5
121
100
AcDbSymbolTableRecord
100
AcDbLinetypeTableRecord
  2
CACHEX2
 70
     0
  3
____ ____ ____ ____ ____ ____ ____ ____ ____ __
 72
    65
 73
     2
 40
0.75
 49
0.5
 74
     0
 49
-0.25
 74
     0
  0
LTYPE
  5
58E
100
AcDbSymbolTableRecord
100
AcDbLinetypeTableRecord
  2
SOLID
 70
     0
  3
Solid
 72
    65
 73
     0
 40
0.0
  0
LTYPE
  5
58F
100
AcDbSymbolTableRecord
100
AcDbLinetypeTableRecord
  2
CENTERLINE
 70
     0
  3
Centerline
 72
    65
 73
     4
 40
25.4
 49
19.05
 74
     0
 49
-1.5875
 74
     0
 49
3.175
 74
     0
 49
-1.5875
 74
     0
  0
ENDTAB
  0
TABLE
  2
LAYER
  5
EE
100
AcDbSymbolTable
 70
     8
  0
LAYER
  5
FA
100
AcDbSymbolTableRecord
100
AcDbLayerTableRecord
  2
0
 70
     0
 62
     7
  6
CONTINUOUS
  0
LAYER
  5
12C
100
AcDbSymbolTableRecord
100
AcDbLayerTableRecord
  2
ALPHA
 70
     0
 62
   255
  6
CONTINUOUS
  0
LAYER
  5
12D
100
AcDbSymbolTableRecord
100
AcDbLayerTableRecord
  2
AXE
 70
     0
 62
    80
  6
AXES2
  0
LAYER
  5
12F
100
AcDbSymbolTableRecord
100
AcDbLayerTableRecord
  2
COTATION1
 70
     0
 62
     2
  6
CONTINUOUS
  0
LAYER
  5
13B
100
AcDbSymbolTableRecord
100
AcDbLayerTableRecord
  2
ASHADE
 70
     0
 62
     7
  6
CONTINUOUS
  0
LAYER
  5
13E
100
AcDbSymbolTableRecord
100
AcDbLayerTableRecord
  2
DEFPOINTS
 70
     0
 62
     7
  6
CONTINUOUS
  0
LAYER
  5
590
100
AcDbSymbolTableRecord
100
AcDbLayerTableRecord
  2
LAYER1$C$L1$V_TOP
 70
     0
 62
     4
  6
SOLID
  0
LAYER
  5
591
100
AcDbSymbolTableRecord
100
AcDbLayerTableRecord
  2
LAYER9$C$L9$V_TOP
 70
     0
 62
   253
  6
SOLID
  0
ENDTAB
  0
TABLE
  2
STYLE
  5
EF
100
AcDbSymbolTable
 70
     2
  0
STYLE
  5
FB
100
AcDbSymbolTableRecord
100
AcDbTextStyleTableRecord
  2
STANDARD
 70
     0
 40
0.0
 41
1.0
 50
0.0
 71
     0
 42
2.5
  3
txt
  4

  0
STYLE
  5
386
100
AcDbSymbolTableRecord
100
AcDbTextStyleTableRecord
  2
STD
 70
     0
 40
0.0
 41
1.0
 50
0.0
 71
     0
 42
0.0
  3
txt
  4

  0
ENDTAB
  0
TABLE
  2
VIEW
  5
F2
100
AcDbSymbolTable
 70
     0
  0
ENDTAB
  0
TABLE
  2
UCS
  5
F3
100
AcDbSymbolTable
 70
     0
  0
ENDTAB
  0
TABLE
  2
APPID
  5
F5
100
AcDbSymbolTable
 70
     3
  0
APPID
  5
FC
100
AcDbSymbolTableRecord
100
AcDbRegAppTableRecord
  2
ACAD
 70
     0
  0
APPID
  5
127
100
AcDbSymbolTableRecord
100
AcDbRegAppTableRecord
  2
AVE_RENDER
 70
     0
  0
APPID
  5
128
100
AcDbSymbolTableRecord
100
AcDbRegAppTableRecord
  2
AVE_MATERIAL
 70
     0
  0
ENDTAB
  0
TABLE
  2
DIMSTYLE
  5
F6
100
AcDbSymbolTable
 70
     2
  0
DIMSTYLE
105
129
100
AcDbSymbolTableRecord
100
AcDbDimStyleTableRecord
  2
STANDARD
 70
     0
  3

  4

  5

  6

  7

 40
1.0
 41
0.18
 42
0.0625
 43
0.38
 44
0.18
 45
0.0
 46
0.0
 47
0.0
 48
0.0
140
0.18
141
0.09
142
0.0
143
25.4
144
1.0
145
0.0
146
1.0
147
0.09
 71
     0
 72
     0
 73
     1
 74
     1
 75
     0
 76
     0
 77
     0
 78
     0
170
     0
171
     2
172
     0
173
     0
174
     0
175
     0
176
     0
177
     0
178
     0
270
     2
271
     3
272
     3
273
     2
274
     2
340
FB
275
     0
280
     0
281
     0
282
     0
283
     1
284
    12
285
    12
286
    12
287
     5
288
     0
  0
DIMSTYLE
105
12A
102
{ACAD_REACTORS
330
7C3
102
}
100
AcDbSymbolTableRecord
100
AcDbDimStyleTableRecord
  2
SC_STAND
 70
     0
  3

  4

  5

  6

  7

 40
1.0
 41
3.0
 42
0.0625
 43
0.38
 44
0.18
 45
0.01
 46
0.0
 47
0.0
 48
0.0
140
2.5
141
0.09
142
0.0
143
25.4
144
1.0
145
0.0
146
1.0
147
1.0
 71
     0
 72
     0
 73
     0
 74
     0
 75
     0
 76
     0
 77
     1
 78
    12
170
     0
171
     2
172
     1
173
     0
174
     0
175
     0
176
     0
177
     0
178
     0
270
     2
271
     3
272
     3
273
     2
274
     2
340
FB
275
     0
280
     0
281
     0
282
     0
283
     1
284
    12
285
    12
286
    12
287
     5
288
     0
  0
ENDTAB
  0
TABLE
  2
BLOCK_RECORD
  5
ED
100
AcDbSymbolTable
 70
     9
  0
BLOCK_RECORD
  5
103
100
AcDbSymbolTableRecord
100
AcDbBlockTableRecord
  2
*MODEL_SPACE
  0
BLOCK_RECORD
  5
100
100
AcDbSymbolTableRecord
100
AcDbBlockTableRecord
  2
*PAPER_SPACE
  0
BLOCK_RECORD
  5
108
100
AcDbSymbolTableRecord
100
AcDbBlockTableRecord
  2
AVE_RENDER
  0
BLOCK_RECORD
  5
109
100
AcDbSymbolTableRecord
100
AcDbBlockTableRecord
  2
AVE_GLOBAL
  0
BLOCK_RECORD
  5
10A
100
AcDbSymbolTableRecord
100
AcDbBlockTableRecord
  2
SCH_IS
  0
BLOCK_RECORD
  5
14D
100
AcDbSymbolTableRecord
100
AcDbBlockTableRecord
  2
AI9-BLK1
  0
BLOCK_RECORD
  5
37A
100
AcDbSymbolTableRecord
100
AcDbBlockTableRecord
  2
AI9-BLK7
  0
BLOCK_RECORD
  5
37E
100
AcDbSymbolTableRecord
100
AcDbBlockTableRecord
  2
AI9-BLK8
  0
BLOCK_RECORD
  5
382
100
AcDbSymbolTableRecord
100
AcDbBlockTableRecord
  2
AI9-BLK9
  0
BLOCK_RECORD
  5
7B7
100
AcDbSymbolTableRecord
100
AcDbBlockTableRecord
  2
*D8
  0
ENDTAB
  0
ENDSEC
  0
SECTION
  2
BLOCKS
  0
BLOCK
  5
141
100
AcDbEntity
  8
0
100
AcDbBlockBegin
  2
*MODEL_SPACE
 70
     0
 10
0.0
 20
0.0
 30
0.0
  3
*MODEL_SPACE
  1

  0
ENDBLK
  5
142
100
AcDbEntity
  8
0
100
AcDbBlockEnd
  0
BLOCK
  5
13F
100
AcDbEntity
 67
     1
  8
0
100
AcDbBlockBegin
  2
*PAPER_SPACE
 70
     0
 10
0.0
 20
0.0
 30
0.0
  3
*PAPER_SPACE
  1

  0
ENDBLK
  5
140
100
AcDbEntity
 67
     1
  8
0
100
AcDbBlockEnd
  0
BLOCK
  5
8D
100
AcDbEntity
  8
0
100
AcDbBlockBegin
  2
AVE_RENDER
 70
     0
 10
0.0
 20
0.0
 30
0.0
  3
AVE_RENDER
  1
AVE_RENDER
  0
ENDBLK
  5
8E
100
AcDbEntity
  8
0
100
AcDbBlockEnd
  0
BLOCK
  5
90
100
AcDbEntity
  8
0
100
AcDbBlockBegin
  2
AVE_GLOBAL
 70
     0
 10
0.0
 20
0.0
 30
0.0
  3
AVE_GLOBAL
  1
AVE_GLOBAL
  0
ENDBLK
  5
91
100
AcDbEntity
  8
0
100
AcDbBlockEnd
  0
BLOCK
  5
C9
100
AcDbEntity
  8
0
100
AcDbBlockBegin
  2
SCH_IS
 70
     0
 10
0.0
 20
0.0
 30
0.0
  3
SCH_IS
  1

  0
INSERT
  5
C0
100
AcDbEntity
  8
ASHADE
 62
     1
100
AcDbBlockReference
  2
AVE_RENDER
 10
0.0
 20
0.0
 30
0.0
1001
AVE_RENDER
1002
{
1070
     6
1000
Pref
1070
    50
1070
    20
1070
     1
1070
     0
1000

1070
    10
1070
     1
1070
    30
1040
25.4
1070
     1
1040
0.3
1040
0.7
1040
0.0
1040
10.0
1010
-1.0
1020
-1.0
1030
-1.0
1040
0.3
1070
    49
1070
     0
1070
     0
1010
1.0
1020
1.0
1030
1.0
1040
45.0
1070
     1
1070
     0
1000
WCS
1040
0.0
1002
}
  0
INSERT
  5
C1
100
AcDbEntity
  8
ASHADE
 62
     3
100
AcDbBlockReference
  2
AVE_RENDER
 10
0.0
 20
0.0
 30
0.0
1001
AVE_RENDER
1002
{
1070
     0
1000
Full Opt
1070
     0
1070
     1
1070
     1
1070
     1
1070
     0
1070
     0
1070
     0
1070
     1
1070
     1
1040
0.0001
1040
0.0001
1002
}
  0
INSERT
  5
C2
100
AcDbEntity
  8
ASHADE
 62
     4
100
AcDbBlockReference
  2
AVE_RENDER
 10
0.0
 20
0.0
 30
0.0
1001
AVE_RENDER
1002
{
1070
     0
1000
Quick Opt
1070
     0
1070
     1
1070
     1
1070
     1
1070
     0
1070
     0
1070
     1
1002
}
  0
INSERT
  5
C3
100
AcDbEntity
  8
ASHADE
 62
     5
100
AcDbBlockReference
  2
AVE_RENDER
 10
0.0
 20
0.0
 30
0.0
1001
AVE_RENDER
1002
{
1070
     1
1000
Scanl Opt
1070
     2
1070
     0
1070
     2
1040
2.0
1040
4.0
1070
     0
1070
     1
1070
     0
1040
0.03
1002
}
  0
INSERT
  5
C4
100
AcDbEntity
  8
ASHADE
 62
     6
100
AcDbBlockReference
  2
AVE_RENDER
 10
0.0
 20
0.0
 30
0.0
1001
AVE_RENDER
1002
{
1070
     2
1000
Raytr Opt
1070
     2
1070
     0
1070
     2
1040
2.0
1040
4.0
1070
     0
1070
     1
1070
     1
1040
0.03
1070
     3
1040
0.03
1002
}
  0
INSERT
  5
C5
100
AcDbEntity
  8
ASHADE
 62
     7
100
AcDbBlockReference
  2
AVE_RENDER
 10
0.0
 20
0.0
 30
0.0
1001
AVE_RENDER
1002
{
1070
     0
1000
RFile Opt
1070
     5
1070
   640
1070
   480
1070
 10000
1070
     3
1070
    32
1070
    24
1070
     0
1070
     0
1070
     0
1070
     1
1070
     0
1070
     0
1070
     0
1002
}
  0
INSERT
  5
C6
100
AcDbEntity
  8
ASHADE
 62
     8
100
AcDbBlockReference
  2
AVE_RENDER
 10
0.0
 20
0.0
 30
0.0
1001
AVE_RENDER
1002
{
1070
     0
1000
Fog Opt
1070
     0
1070
     0
1040
0.0
1040
1.0
1040
0.0
1040
1.0
1010
0.5
1020
0.5
1030
0.5
1002
}
  0
INSERT
  5
C7
100
AcDbEntity
  8
ASHADE
 62
     9
100
AcDbBlockReference
  2
AVE_RENDER
 10
0.0
 20
0.0
 30
0.0
1001
AVE_RENDER
1002
{
1070
     0
1000
BG Opt
1070
     0
1070
     1
1010
0.0
1020
0.0
1030
0.0
1010
1.0
1020
0.0
1030
0.0
1010
0.0
1020
1.0
1030
0.0
1010
0.0
1020
0.0
1030
1.0
1040
0.5
1040
0.33
1040
0.0
1000

1070
     1
1000

1070
     1
1070
     1
1040
1.0
1040
1.0
1040
0.0
1040
0.0
1070
     0
1002
}
  0
INSERT
  5
C8
100
AcDbEntity
  8
ASHADE
 62
     1
100
AcDbBlockReference
  2
AVE_GLOBAL
 10
0.0
 20
0.0
 30
0.0
1001
AVE_MATERIAL
1002
{
1000
*GLOBAL*
1000
1
1000
Finition globale.
1002
{
1002
}
1002
{
1070
    63
1002
{
1002
{
1010
-1.0
1020
-1.0
1030
-1.0
1002
}
1040
0.1
1000

1040
0.0
1002
{
1002
}
1040
0.0
1002
{
1002
}
1040
0.0
1002
}
1002
{
1002
{
1010
-1.0
1020
-1.0
1030
-1.0
1002
}
1040
0.7
1000

1040
0.0
1002
{
1002
}
1040
0.0
1002
{
1002
}
1040
0.0
1002
}
1002
{
1002
{
1010
-1.0
1020
-1.0
1030
-1.0
1002
}
1040
0.2
1000

1040
0.0
1002
{
1002
}
1040
0.0
1002
{
1002
}
1040
0.0
1002
}
1002
{
1070
     0
1002
{
1070
     1
1002
{
1040
1.0
1040
1.0
1000

1040
0.0
1002
{
1002
}
1040
0.0
1002
{
1002
}
1040
0.0
1002
}
1002
}
1040
1.0
1040
0.0
1040
0.0
1002
}
1002
{
1040
1.0
1040
1.0
1000

1040
0.0
1002
{
1002
}
1040
0.0
1002
{
1002
}
1040
0.0
1002
}
1002
{
1040
0.5
1040
1.0
1000

1040
0.0
1002
{
1002
}
1040
0.0
1002
{
1002
}
1040
0.0
1002
}
1002
{
1070
     0
1040
0.0
1002
{
1002
}
1040
1.0
1002
{
1002
}
1040
0.0
1002
}
1002
{
1040
0.0
1002
{
1002
{
1010
0.0
1020
0.0
1030
0.0
1002
}
1040
1.0
1000

1040
0.0
1002
{
1002
}
1040
0.0
1002
{
1002
}
1040
0.0
1002
}
1002
}
1002
{
1002
{
1070
     1
1002
{
1040
0.0
1040
1.0
1000

1040
0.0
1002
{
1002
}
1040
0.0
1002
{
1002
}
1040
0.0
1002
}
1002
}
1040
0.0
1002
{
1002
}
1010
1.0
1020
0.0
1030
0.0
1010
0.0
1020
1.0
1030
0.0
1010
0.0
1020
0.0
1030
1.0
1070
     0
1002
}
1002
{
1002
{
1040
1.0
1040
1.0
1002
{
1070
     1
1002
{
1040
1.0
1040
1.0
1000

1040
0.0
1002
{
1002
}
1040
0.0
1002
{
1002
}
1040
0.0
1002
}
1002
}
1002
}
1070
     0
1040
0.0
1002
{
1002
}
1002
}
1002
{
1002
}
1002
}
1002
{
1071
        3
1070
     3
1070
     0
1002
{
1070
     2
1070
     0
1070
     0
1040
0.0
1002
}
1070
     0
1070
     2
1002
{
1002
}
1002
}
1002
{
1040
8030.0
1040
190.300003
1040
0.305
1040
228.0
1040
545.0
1040
14.0
1040
17.4
1040
0.456
1002
}
1002
}
  0
ENDBLK
  5
CA
100
AcDbEntity
  8
0
100
AcDbBlockEnd
  0
BLOCK
  5
232
100
AcDbEntity
  8
ALPHA
 62
     7
100
AcDbBlockBegin
  2
AI9-BLK1
 70
     0
 10
0.0
 20
0.0
 30
0.0
  3
AI9-BLK1
  1

  0
SPLINE
  5
14E
100
AcDbEntity
  8
ALPHA
 62
     7
100
AcDbSpline
210
0.0
220
0.0
230
-1.0
 70
    11
 71
     3
 72
    29
 73
    25
 74
     0
 42
0.0000001
 43
0.0000001
 40
0.0
 40
0.0
 40
0.0
 40
0.0
 40
1.0
 40
1.0
 40
1.0
 40
2.0
 40
2.0
 40
2.0
 40
3.0
 40
3.0
 40
3.0
 40
4.0
 40
4.0
 40
4.0
 40
5.0
 40
5.0
 40
5.0
 40
6.0
 40
6.0
 40
6.0
 40
7.0
 40
7.0
 40
7.0
 40
8.0
 40
8.0
 40
8.0
 40
8.0
 10
146.0000891791449
 20
-98.25020446777344
 30
0.0
 10
146.0000891791449
 20
-99.90660637749565
 30
0.0
 10
144.6571909586588
 20
-101.2501936170789
 30
0.0
 10
143.0001000298393
 20
-101.2501936170789
 30
0.0
 10
143.0001000298393
 20
-101.2501936170789
 30
0.0
 10
-143.0000139024522
 20
-101.2501936170789
 30
0.0
 10
-143.0000139024522
 20
-101.2501936170789
 30
0.0
 10
-144.656760321723
 20
-101.2501936170789
 30
0.0
 10
-146.0000030517577
 20
-99.90660637749565
 30
0.0
 10
-146.0000030517577
 20
-98.25020446777344
 30
0.0
 10
-146.0000030517577
 20
-98.25020446777344
 30
0.0
 10
-146.0000030517577
 20
98.25011834038628
 30
0.0
 10
-146.0000030517577
 20
98.25011834038628
 30
0.0
 10
-146.0000030517577
 20
99.90686475965711
 30
0.0
 10
-144.656760321723
 20
101.2501074896918
 30
0.0
 10
-143.0000139024522
 20
101.2501074896918
 30
0.0
 10
-143.0000139024522
 20
101.2501074896918
 30
0.0
 10
143.0001000298393
 20
101.2501074896918
 30
0.0
 10
143.0001000298393
 20
101.2501074896918
 30
0.0
 10
144.6571909586588
 20
101.2501074896918
 30
0.0
 10
146.0000891791449
 20
99.90686475965711
 30
0.0
 10
146.0000891791449
 20
98.25011834038628
 30
0.0
 10
146.0000891791449
 20
98.25011834038628
 30
0.0
 10
146.0000891791449
 20
-98.25020446777344
 30
0.0
 10
146.0000891791449
 20
-98.25020446777344
 30
0.0
  0
SPLINE
  5
14F
100
AcDbEntity
  8
ALPHA
 62
     7
100
AcDbSpline
210
0.0
220
0.0
230
-1.0
 70
    11
 71
     3
 72
    29
 73
    25
 74
     0
 42
0.0000001
 43
0.0000001
 40
0.0
 40
0.0
 40
0.0
 40
0.0
 40
1.0
 40
1.0
 40
1.0
 40
2.0
 40
2.0
 40
2.0
 40
3.0
 40
3.0
 40
3.0
 40
4.0
 40
4.0
 40
4.0
 40
5.0
 40
5.0
 40
5.0
 40
6.0
 40
6.0
 40
6.0
 40
7.0
 40
7.0
 40
7.0
 40
8.0
 40
8.0
 40
8.0
 40
8.0
 10
76.18936326768663
 20
40.38818935818142
 30
0.0
 10
77.01894226074218
 20
40.38818935818142
 30
0.0
 10
77.69142489963107
 20
41.0606719970703
 30
0.0
 10
77.69142489963107
 20
41.88887295193142
 30
0.0
 10
77.69142489963107
 20
41.88887295193142
 30
0.0
 10
77.87056986490885
 20
67.24339769151474
 30
0.0
 10
77.87056986490885
 20
67.24339769151474
 30
0.0
 10
77.87056986490885
 20
68.0757327609592
 30
0.0
 10
77.19808722601996
 20
68.74683736165363
 30
0.0
 10
76.36437411838106
 20
68.74683736165363
 30
0.0
 10
76.36437411838106
 20
68.74683736165363
 30
0.0
 10
-76.01202697753905
 20
68.92460428873697
 30
0.0
 10
-76.01202697753905
 20
68.92460428873697
 30
0.0
 10
-76.84022793240017
 20
68.92460428873697
 30
0.0
 10
-77.51271057128906
 20
68.25074361165363
 30
0.0
 10
-77.51271057128906
 20
67.42116461859808
 30
0.0
 10
-77.51271057128906
 20
67.42116461859808
 30
0.0
 10
-77.69185553656683
 20
41.88887295193142
 30
0.0
 10
-77.69185553656683
 20
41.88887295193142
 30
0.0
 10
-77.69185553656683
 20
41.0606719970703
 30
0.0
 10
-77.01937289767794
 20
40.38818935818142
 30
0.0
 10
-76.1870378282335
 20
40.38818935818142
 30
0.0
 10
-76.1870378282335
 20
40.38818935818142
 30
0.0
 10
76.18936326768663
 20
40.38818935818142
 30
0.0
 10
76.18936326768663
 20
40.38818935818142
 30
0.0
  0
POLYLINE
  5
150
100
AcDbEntity
  8
ALPHA
 62
     7
100
AcDb2dPolyline
 66
     1
 10
0.0
 20
0.0
 30
0.0
 70
     1
  0
VERTEX
  5
151
100
AcDbEntity
  8
ALPHA
 62
     7
100
AcDbVertex
100
AcDb2dVertex
 10
77.691425
 20
-84.679973
 30
0.0
  0
VERTEX
  5
152
100
AcDbEntity
  8
ALPHA
 62
     7
100
AcDbVertex
100
AcDb2dVertex
 10
77.691425
 20
25.69279
 30
0.0
  0
VERTEX
  5
153
100
AcDbEntity
  8
ALPHA
 62
     7
100
AcDbVertex
100
AcDb2dVertex
 10
-77.691856
 20
25.69279
 30
0.0
  0
VERTEX
  5
154
100
AcDbEntity
  8
ALPHA
 62
     7
100
AcDbVertex
100
AcDb2dVertex
 10
-77.691856
 20
-84.679973
 30
0.0
  0
SEQEND
  5
155
100
AcDbEntity
  8
ALPHA
 62
     7
  0
POLYLINE
  5
156
100
AcDbEntity
  8
ALPHA
 62
     7
100
AcDb2dPolyline
 66
     1
 10
0.0
 20
0.0
 30
0.0
 70
     1
  0
VERTEX
  5
157
100
AcDbEntity
  8
ALPHA
 62
     7
100
AcDbVertex
100
AcDb2dVertex
 10
-36.28198
 20
-29.293862
 30
0.0
  0
VERTEX
  5
158
100
AcDbEntity
  8
ALPHA
 62
     7
100
AcDbVertex
100
AcDb2dVertex
 10
-41.795511
 20
-25.282393
 30
0.0
  0
VERTEX
  5
159
100
AcDbEntity
  8
ALPHA
 62
     7
100
AcDbVertex
100
AcDb2dVertex
 10
-41.795511
 20
-25.282393
 30
0.0
  0
VERTEX
  5
15A
100
AcDbEntity
  8
ALPHA
 62
     7
100
AcDbVertex
100
AcDb2dVertex
 10
-47.307664
 20
-29.293862
 30
0.0
  0
VERTEX
  5
15B
100
AcDbEntity
  8
ALPHA
 62
     7
100
AcDbVertex
100
AcDb2dVertex
 10
-44.558477
 20
-29.297996
 30
0.0
  0
VERTEX
  5
15C
100
AcDbEntity
  8
ALPHA
 62
     7
100
AcDbVertex
100
AcDb2dVertex
 10
-44.558477
 20
-32.304876
 30
0.0
  0
VERTEX
  5
15D
100
AcDbEntity
  8
ALPHA
 62
     7
100
AcDbVertex
100
AcDb2dVertex
 10
-39.046325
 20
-32.304876
 30
0.0
  0
VERTEX
  5
15E
100
AcDbEntity
  8
ALPHA
 62
     7
100
AcDbVertex
100
AcDb2dVertex
 10
-39.046325
 20
-29.297996
 30
0.0
  0
SEQEND
  5
15F
100
AcDbEntity
  8
ALPHA
 62
     7
  0
POLYLINE
  5
160
100
AcDbEntity
  8
ALPHA
 62
     7
100
AcDb2dPolyline
 66
     1
 10
0.0
 20
0.0
 30
0.0
 70
     1
  0
VERTEX
  5
161
100
AcDbEntity
  8
ALPHA
 62
     7
100
AcDbVertex
100
AcDb2dVertex
 10
-23.222312
 20
-53.379214
 30
0.0
  0
VERTEX
  5
162
100
AcDbEntity
  8
ALPHA
 62
     7
100
AcDbVertex
100
AcDb2dVertex
 10
-19.210843
 20
-47.865683
 30
0.0
  0
VERTEX
  5
163
100
AcDbEntity
  8
ALPHA
 62
     7
100
AcDbVertex
100
AcDb2dVertex
 10
-19.210843
 20
-47.865683
 30
0.0
  0
VERTEX
  5
164
100
AcDbEntity
  8
ALPHA
 62
     7
100
AcDbVertex
100
AcDb2dVertex
 10
-23.222312
 20
-42.349396
 30
0.0
  0
VERTEX
  5
165
100
AcDbEntity
  8
ALPHA
 62
     7
100
AcDbVertex
100
AcDb2dVertex
 10
-23.231958
 20
-45.102716
 30
0.0
  0
VERTEX
  5
166
100
AcDbEntity
  8
ALPHA
 62
     7
100
AcDbVertex
100
AcDb2dVertex
 10
-26.238838
 20
-45.102716
 30
0.0
  0
VERTEX
  5
167
100
AcDbEntity
  8
ALPHA
 62
     7
100
AcDbVertex
100
AcDb2dVertex
 10
-26.238838
 20
-50.614869
 30
0.0
  0
VERTEX
  5
168
100
AcDbEntity
  8
ALPHA
 62
     7
100
AcDbVertex
100
AcDb2dVertex
 10
-23.231958
 20
-50.614869
 30
0.0
  0
SEQEND
  5
169
100
AcDbEntity
  8
ALPHA
 62
     7
  0
POLYLINE
  5
16A
100
AcDbEntity
  8
ALPHA
 62
     7
100
AcDb2dPolyline
 66
     1
 10
0.0
 20
0.0
 30
0.0
 70
     1
  0
VERTEX
  5
16B
100
AcDbEntity
  8
ALPHA
 62
     7
100
AcDbVertex
100
AcDb2dVertex
 10
-60.367159
 20
-42.349396
 30
0.0
  0
VERTEX
  5
16C
100
AcDbEntity
  8
ALPHA
 62
     7
100
AcDbVertex
100
AcDb2dVertex
 10
-64.378629
 20
-47.865683
 30
0.0
  0
VERTEX
  5
16D
100
AcDbEntity
  8
ALPHA
 62
     7
100
AcDbVertex
100
AcDb2dVertex
 10
-64.378629
 20
-47.865683
 30
0.0
  0
VERTEX
  5
16E
100
AcDbEntity
  8
ALPHA
 62
     7
100
AcDbVertex
100
AcDb2dVertex
 10
-60.367159
 20
-53.379214
 30
0.0
  0
VERTEX
  5
16F
100
AcDbEntity
  8
ALPHA
 62
     7
100
AcDbVertex
100
AcDb2dVertex
 10
-60.363025
 20
-50.62865
 30
0.0
  0
VERTEX
  5
170
100
AcDbEntity
  8
ALPHA
 62
     7
100
AcDbVertex
100
AcDb2dVertex
 10
-57.356146
 20
-50.62865
 30
0.0
  0
VERTEX
  5
171
100
AcDbEntity
  8
ALPHA
 62
     7
100
AcDbVertex
100
AcDb2dVertex
 10
-57.356146
 20
-45.112363
 30
0.0
  0
VERTEX
  5
172
100
AcDbEntity
  8
ALPHA
 62
     7
100
AcDbVertex
100
AcDb2dVertex
 10
-60.363025
 20
-45.112363
 30
0.0
  0
SEQEND
  5
173
100
AcDbEntity
  8
ALPHA
 62
     7
  0
POLYLINE
  5
174
100
AcDbEntity
  8
ALPHA
 62
     7
100
AcDb2dPolyline
 66
     1
 10
0.0
 20
0.0
 30
0.0
 70
     1
  0
VERTEX
  5
175
100
AcDbEntity
  8
ALPHA
 62
     7
100
AcDbVertex
100
AcDb2dVertex
 10
-47.307664
 20
-66.438882
 30
0.0
  0
VERTEX
  5
176
100
AcDbEntity
  8
ALPHA
 62
     7
100
AcDbVertex
100
AcDb2dVertex
 10
-41.795511
 20
-70.444839
 30
0.0
  0
VERTEX
  5
177
100
AcDbEntity
  8
ALPHA
 62
     7
100
AcDbVertex
100
AcDb2dVertex
 10
-41.795511
 20
-70.444839
 30
0.0
  0
VERTEX
  5
178
100
AcDbEntity
  8
ALPHA
 62
     7
100
AcDbVertex
100
AcDb2dVertex
 10
-36.28198
 20
-66.438882
 30
0.0
  0
VERTEX
  5
179
100
AcDbEntity
  8
ALPHA
 62
     7
100
AcDbVertex
100
AcDb2dVertex
 10
-39.032544
 20
-66.429236
 30
0.0
  0
VERTEX
  5
17A
100
AcDbEntity
  8
ALPHA
 62
     7
100
AcDbVertex
100
AcDb2dVertex
 10
-39.032544
 20
-63.422356
 30
0.0
  0
VERTEX
  5
17B
100
AcDbEntity
  8
ALPHA
 62
     7
100
AcDbVertex
100
AcDb2dVertex
 10
-44.544697
 20
-63.422356
 30
0.0
  0
VERTEX
  5
17C
100
AcDbEntity
  8
ALPHA
 62
     7
100
AcDbVertex
100
AcDb2dVertex
 10
-44.544697
 20
-66.429236
 30
0.0
  0
SEQEND
  5
17D
100
AcDbEntity
  8
ALPHA
 62
     7
  0
SPLINE
  5
17E
100
AcDbEntity
  8
ALPHA
 62
     7
100
AcDbSpline
210
0.0
220
0.0
230
-1.0
 70
     8
 71
     3
 72
    17
 73
    13
 74
     0
 42
0.0000001
 43
0.0000001
 40
0.0
 40
0.0
 40
0.0
 40
0.0
 40
1.0
 40
1.0
 40
1.0
 40
2.0
 40
2.0
 40
2.0
 40
3.0
 40
3.0
 40
3.0
 40
4.0
 40
4.0
 40
4.0
 40
4.0
 10
-48.39906989203559
 20
-38.33792690700954
 30
0.0
 10
-48.39906989203559
 20
-38.33792690700954
 30
0.0
 10
-48.39906989203559
 20
-34.95759921603732
 30
0.0
 10
-48.39906989203559
 20
-34.95759921603732
 30
0.0
 10
-48.39906989203559
 20
-34.95759921603732
 30
0.0
 10
-48.40320400661892
 20
-34.95346510145399
 30
0.0
 10
-48.40320400661892
 20
-34.95346510145399
 30
0.0
 10
-49.89975348578559
 20
-33.34667256673176
 30
0.0
 10
-50.81614888509114
 20
-31.18590867784288
 30
0.0
 10
-50.81614888509114
 20
-28.81017083062065
 30
0.0
 10
-50.81614888509114
 20
-24.42525329589843
 30
0.0
 10
-47.6893802218967
 20
-20.76931796603732
 30
0.0
 10
-43.54010721842447
 20
-19.95903150770399
 30
0.0
  0
SPLINE
  5
17F
100
AcDbEntity
  8
ALPHA
 62
     7
100
AcDbSpline
210
0.0
220
0.0
230
1.0
 70
     8
 71
     3
 72
    17
 73
    13
 74
     0
 42
0.0000001
 43
0.0000001
 40
0.0
 40
0.0
 40
0.0
 40
0.0
 40
1.0
 40
1.0
 40
1.0
 40
2.0
 40
2.0
 40
2.0
 40
3.0
 40
3.0
 40
3.0
 40
4.0
 40
4.0
 40
4.0
 40
4.0
 10
-40.0495364718967
 20
-19.95903150770399
 30
0.0
 10
-35.9043975830078
 20
-20.76931796603732
 30
0.0
 10
-32.77349480523003
 20
-24.42525329589843
 30
0.0
 10
-32.77349480523003
 20
-28.81017083062065
 30
0.0
 10
-32.77349480523003
 20
-31.28237135145399
 30
0.0
 10
-33.76292622884114
 20
-33.51617126464843
 30
0.0
 10
-35.37109680175781
 20
-35.14639044867621
 30
0.0
 10
-35.37109680175781
 20
-35.14639044867621
 30
0.0
 10
-35.36558464898003
 20
-35.15603671603732
 30
0.0
 10
-35.36558464898003
 20
-35.15603671603732
 30
0.0
 10
-35.36558464898003
 20
-35.15603671603732
 30
0.0
 10
-35.36558464898003
 20
-38.33792690700954
 30
0.0
 10
-35.36558464898003
 20
-38.33792690700954
 30
0.0
  0
SPLINE
  5
180
100
AcDbEntity
  8
ALPHA
 62
     7
100
AcDbSpline
210
0.0
220
0.0
230
-1.0
 70
     8
 71
     3
 72
    17
 73
    13
 74
     0
 42
0.0000001
 43
0.0000001
 40
0.0
 40
0.0
 40
0.0
 40
0.0
 40
1.0
 40
1.0
 40
1.0
 40
2.0
 40
2.0
 40
2.0
 40
3.0
 40
3.0
 40
3.0
 40
4.0
 40
4.0
 40
4.0
 40
4.0
 10
-32.35870530870225
 20
-41.3503184000651
 30
0.0
 10
-32.35870530870225
 20
-41.3503184000651
 30
0.0
 10
-28.9742435031467
 20
-41.3503184000651
 30
0.0
 10
-28.9742435031467
 20
-41.3503184000651
 30
0.0
 10
-28.9742435031467
 20
-41.3503184000651
 30
0.0
 10
-28.9742435031467
 20
-41.34480624728732
 30
0.0
 10
-28.9742435031467
 20
-41.34480624728732
 30
0.0
 10
-27.3619388156467
 20
-39.84825676812065
 30
0.0
 10
-25.20255296495225
 20
-38.9318613688151
 30
0.0
 10
-22.83094923231336
 20
-38.9318613688151
 30
0.0
 10
-18.44740973578558
 20
-38.9318613688151
 30
0.0
 10
-14.79009636773003
 20
-42.05863003200954
 30
0.0
 10
-13.9798099093967
 20
-46.20790303548176
 30
0.0
  0
SPLINE
  5
181
100
AcDbEntity
  8
ALPHA
 62
     7
100
AcDbSpline
210
0.0
220
0.0
230
1.0
 70
     8
 71
     3
 72
    17
 73
    13
 74
     0
 42
0.0000001
 43
0.0000001
 40
0.0
 40
0.0
 40
0.0
 40
0.0
 40
1.0
 40
1.0
 40
1.0
 40
2.0
 40
2.0
 40
2.0
 40
3.0
 40
3.0
 40
3.0
 40
4.0
 40
4.0
 40
4.0
 40
4.0
 10
-13.9798099093967
 20
-49.69847378200954
 30
0.0
 10
-14.79009636773003
 20
-53.84361267089843
 30
0.0
 10
-18.44740973578558
 20
-56.97589348687065
 30
0.0
 10
-22.83094923231336
 20
-56.97589348687065
 30
0.0
 10
-25.29901563856336
 20
-56.97589348687065
 30
0.0
 10
-27.53694966634114
 20
-55.9850840250651
 30
0.0
 10
-29.16716885036892
 20
-54.37829149034287
 30
0.0
 10
-29.16716885036892
 20
-54.37829149034287
 30
0.0
 10
-29.17681511773003
 20
-54.38242560492621
 30
0.0
 10
-29.17681511773003
 20
-54.38242560492621
 30
0.0
 10
-29.17681511773003
 20
-54.38242560492621
 30
0.0
 10
-32.35870530870225
 20
-54.38242560492621
 30
0.0
 10
-32.35870530870225
 20
-54.38242560492621
 30
0.0
  0
SPLINE
  5
182
100
AcDbEntity
  8
ALPHA
 62
     7
100
AcDbSpline
210
0.0
220
0.0
230
1.0
 70
     8
 71
     3
 72
    17
 73
    13
 74
     0
 42
0.0000001
 43
0.0000001
 40
0.0
 40
0.0
 40
0.0
 40
0.0
 40
1.0
 40
1.0
 40
1.0
 40
2.0
 40
2.0
 40
2.0
 40
3.0
 40
3.0
 40
3.0
 40
4.0
 40
4.0
 40
4.0
 40
4.0
 10
-35.36558464898003
 20
-57.38930494520399
 30
0.0
 10
-35.36558464898003
 20
-57.38930494520399
 30
0.0
 10
-35.36558464898003
 20
-60.77514478895398
 30
0.0
 10
-35.36558464898003
 20
-60.77514478895398
 30
0.0
 10
-35.36558464898003
 20
-60.77514478895398
 30
0.0
 10
-35.36558464898003
 20
-60.77514478895398
 30
0.0
 10
-35.36558464898003
 20
-60.77514478895398
 30
0.0
 10
-33.86490105523003
 20
-62.38607143825954
 30
0.0
 10
-32.94850565592447
 20
-64.54683532714843
 30
0.0
 10
-32.94850565592447
 20
-66.91843905978732
 30
0.0
 10
-32.94850565592447
 20
-71.30197855631509
 30
0.0
 10
-36.07940843370225
 20
-74.95791388617622
 30
0.0
 10
-40.22868143717447
 20
-75.76957838270399
 30
0.0
  0
SPLINE
  5
183
100
AcDbEntity
  8
ALPHA
 62
     7
100
AcDbSpline
210
0.0
220
0.0
230
-1.0
 70
     8
 71
     3
 72
    17
 73
    13
 74
     0
 42
0.0000001
 43
0.0000001
 40
0.0
 40
0.0
 40
0.0
 40
0.0
 40
1.0
 40
1.0
 40
1.0
 40
2.0
 40
2.0
 40
2.0
 40
3.0
 40
3.0
 40
3.0
 40
4.0
 40
4.0
 40
4.0
 40
4.0
 10
-43.71511806911892
 20
-75.76957838270399
 30
0.0
 10
-47.86439107259114
 20
-74.95791388617622
 30
0.0
 10
-50.99667188856336
 20
-71.30197855631509
 30
0.0
 10
-50.99667188856336
 20
-66.91843905978732
 30
0.0
 10
-50.99667188856336
 20
-64.44899461534287
 30
0.0
 10
-50.00172831217447
 20
-62.2110605875651
 30
0.0
 10
-48.39493577745225
 20
-60.58084140353732
 30
0.0
 10
-48.39493577745225
 20
-60.58084140353732
 30
0.0
 10
-48.39906989203559
 20
-60.57257317437065
 30
0.0
 10
-48.39906989203559
 20
-60.57257317437065
 30
0.0
 10
-48.39906989203559
 20
-60.57257317437065
 30
0.0
 10
-48.39906989203559
 20
-57.38930494520399
 30
0.0
 10
-48.39906989203559
 20
-57.38930494520399
 30
0.0
  0
SPLINE
  5
184
100
AcDbEntity
  8
ALPHA
 62
     7
100
AcDbSpline
210
0.0
220
0.0
230
1.0
 70
     8
 71
     3
 72
    17
 73
    13
 74
     0
 42
0.0000001
 43
0.0000001
 40
0.0
 40
0.0
 40
0.0
 40
0.0
 40
1.0
 40
1.0
 40
1.0
 40
2.0
 40
2.0
 40
2.0
 40
3.0
 40
3.0
 40
3.0
 40
4.0
 40
4.0
 40
4.0
 40
4.0
 10
-51.4100833468967
 20
-54.38242560492621
 30
0.0
 10
-51.4100833468967
 20
-54.38242560492621
 30
0.0
 10
-54.79023878309462
 20
-54.38242560492621
 30
0.0
 10
-54.79023878309462
 20
-54.38242560492621
 30
0.0
 10
-54.79023878309462
 20
-54.38242560492621
 30
0.0
 10
-54.79575093587239
 20
-54.38242560492621
 30
0.0
 10
-54.79575093587239
 20
-54.38242560492621
 30
0.0
 10
-56.40254347059461
 20
-55.88448723687065
 30
0.0
 10
-58.56192932128905
 20
-56.80088263617621
 30
0.0
 10
-60.93904520670572
 20
-56.80088263617621
 30
0.0
 10
-65.3225847032335
 20
-56.80088263617621
 30
0.0
 10
-68.97989807128905
 20
-53.66860182020399
 30
0.0
 10
-69.7901845296224
 20
-49.51932881673176
 30
0.0
  0
SPLINE
  5
185
100
AcDbEntity
  8
ALPHA
 62
     7
100
AcDbSpline
210
0.0
220
0.0
230
-1.0
 70
     8
 71
     3
 72
    17
 73
    13
 74
     0
 42
0.0000001
 43
0.0000001
 40
0.0
 40
0.0
 40
0.0
 40
0.0
 40
1.0
 40
1.0
 40
1.0
 40
2.0
 40
2.0
 40
2.0
 40
3.0
 40
3.0
 40
3.0
 40
4.0
 40
4.0
 40
4.0
 40
4.0
 10
-69.7901845296224
 20
-46.03289218478732
 30
0.0
 10
-68.97989807128905
 20
-41.88361918131509
 30
0.0
 10
-65.3225847032335
 20
-38.75271640353732
 30
0.0
 10
-60.93904520670572
 20
-38.75271640353732
 30
0.0
 10
-58.46546664767794
 20
-38.75271640353732
 30
0.0
 10
-56.2316667344835
 20
-39.74765997992621
 30
0.0
 10
-54.60161980523003
 20
-41.35445251464843
 30
0.0
 10
-54.60161980523003
 20
-41.35445251464843
 30
0.0
 10
-54.59335157606336
 20
-41.3503184000651
 30
0.0
 10
-54.59335157606336
 20
-41.3503184000651
 30
0.0
 10
-54.59335157606336
 20
-41.3503184000651
 30
0.0
 10
-51.4100833468967
 20
-41.3503184000651
 30
0.0
 10
-51.4100833468967
 20
-41.3503184000651
 30
0.0
  0
SPLINE
  5
186
100
AcDbEntity
  8
ALPHA
 62
     7
100
AcDbSpline
210
0.0
220
0.0
230
-1.0
 70
    11
 71
     3
 72
    29
 73
    25
 74
     0
 42
0.0000001
 43
0.0000001
 40
0.0
 40
0.0
 40
0.0
 40
0.0
 40
1.0
 40
1.0
 40
1.0
 40
2.0
 40
2.0
 40
2.0
 40
3.0
 40
3.0
 40
3.0
 40
4.0
 40
4.0
 40
4.0
 40
5.0
 40
5.0
 40
5.0
 40
6.0
 40
6.0
 40
6.0
 40
7.0
 40
7.0
 40
7.0
 40
8.0
 40
8.0
 40
8.0
 40
8.0
 10
-16.60497266981336
 20
-72.66485833062064
 30
0.0
 10
-16.05237935384114
 20
-72.66485833062064
 30
0.0
 10
-15.60589497884114
 20
-72.21837395562065
 30
0.0
 10
-15.60589497884114
 20
-71.66578063964843
 30
0.0
 10
-15.60589497884114
 20
-71.66578063964843
 30
0.0
 10
-15.60589497884114
 20
-64.64743211534288
 30
0.0
 10
-15.60589497884114
 20
-64.64743211534288
 30
0.0
 10
-15.60589497884114
 20
-64.09483879937065
 30
0.0
 10
-16.05237935384114
 20
-63.64422030978732
 30
0.0
 10
-16.60497266981336
 20
-63.64422030978732
 30
0.0
 10
-16.60497266981336
 20
-63.64422030978732
 30
0.0
 10
-28.63386806911892
 20
-63.64422030978732
 30
0.0
 10
-28.63386806911892
 20
-63.64422030978732
 30
0.0
 10
-29.19059549967447
 20
-63.64422030978732
 30
0.0
 10
-29.63707987467447
 20
-64.09483879937065
 30
0.0
 10
-29.63707987467447
 20
-64.64743211534288
 30
0.0
 10
-29.63707987467447
 20
-64.64743211534288
 30
0.0
 10
-29.63707987467447
 20
-71.66578063964843
 30
0.0
 10
-29.63707987467447
 20
-71.66578063964843
 30
0.0
 10
-29.63707987467447
 20
-72.21837395562065
 30
0.0
 10
-29.19059549967447
 20
-72.66485833062064
 30
0.0
 10
-28.63386806911892
 20
-72.66485833062064
 30
0.0
 10
-28.63386806911892
 20
-72.66485833062064
 30
0.0
 10
-16.60497266981336
 20
-72.66485833062064
 30
0.0
 10
-16.60497266981336
 20
-72.66485833062064
 30
0.0
  0
SPLINE
  5
187
100
AcDbEntity
  8
ALPHA
 62
     7
100
AcDbSpline
210
0.0
220
0.0
230
1.0
 70
     8
 71
     3
 72
    32
 73
    28
 74
     0
 42
0.0000001
 43
0.0000001
 40
0.0
 40
0.0
 40
0.0
 40
0.0
 40
1.0
 40
1.0
 40
1.0
 40
2.0
 40
2.0
 40
2.0
 40
3.0
 40
3.0
 40
3.0
 40
4.0
 40
4.0
 40
4.0
 40
5.0
 40
5.0
 40
5.0
 40
6.0
 40
6.0
 40
6.0
 40
7.0
 40
7.0
 40
7.0
 40
8.0
 40
8.0
 40
8.0
 40
9.0
 40
9.0
 40
9.0
 40
9.0
 10
-109.2930274115668
 20
44.47682868109808
 30
0.0
 10
-109.2930274115668
 20
44.47682868109808
 30
0.0
 10
-108.5419965955946
 20
44.47682868109808
 30
0.0
 10
-108.5419965955946
 20
44.47682868109808
 30
0.0
 10
-107.7137956407334
 20
44.47682868109808
 30
0.0
 10
-107.0413130018446
 20
45.14931131998697
 30
0.0
 10
-107.0413130018446
 20
45.98302442762586
 30
0.0
 10
-107.0413130018446
 20
45.98302442762586
 30
0.0
 10
-107.0413130018446
 20
49.49150967068142
 30
0.0
 10
-107.0413130018446
 20
49.49150967068142
 30
0.0
 10
-107.0413130018446
 20
50.32246670193142
 30
0.0
 10
-107.7137956407334
 20
50.99494934082031
 30
0.0
 10
-108.5419965955946
 20
50.99494934082031
 30
0.0
 10
-108.5419965955946
 20
50.99494934082031
 30
0.0
 10
-115.5603451199001
 20
50.99494934082031
 30
0.0
 10
-115.5603451199001
 20
50.99494934082031
 30
0.0
 10
-116.3899241129557
 20
50.99494934082031
 30
0.0
 10
-117.0624067518446
 20
50.32246670193142
 30
0.0
 10
-117.0624067518446
 20
49.49150967068142
 30
0.0
 10
-117.0624067518446
 20
49.49150967068142
 30
0.0
 10
-117.0624067518446
 20
45.98302442762586
 30
0.0
 10
-117.0624067518446
 20
45.98302442762586
 30
0.0
 10
-117.0624067518446
 20
45.14931131998697
 30
0.0
 10
-116.3899241129557
 20
44.47682868109808
 30
0.0
 10
-115.5603451199001
 20
44.47682868109808
 30
0.0
 10
-115.5603451199001
 20
44.47682868109808
 30
0.0
 10
-114.8106923421223
 20
44.47682868109808
 30
0.0
 10
-114.8106923421223
 20
44.47682868109808
 30
0.0
  0
SPLINE
  5
188
100
AcDbEntity
  8
ALPHA
 62
     7
100
AcDbSpline
210
0.0
220
0.0
230
-1.0
 70
     8
 71
     3
 72
    20
 73
    16
 74
     0
 42
0.0000001
 43
0.0000001
 40
0.0
 40
0.0
 40
0.0
 40
0.0
 40
1.0
 40
1.0
 40
1.0
 40
2.0
 40
2.0
 40
2.0
 40
3.0
 40
3.0
 40
3.0
 40
4.0
 40
4.0
 40
4.0
 40
5.0
 40
5.0
 40
5.0
 40
5.0
 10
-109.2930274115668
 20
42.47316114637587
 30
0.0
 10
-109.2930274115668
 20
42.47316114637587
 30
0.0
 10
-109.2930274115668
 20
45.23199361165364
 30
0.0
 10
-109.2930274115668
 20
45.23199361165364
 30
0.0
 10
-109.2930274115668
 20
46.75610385470919
 30
0.0
 10
-110.527749633789
 20
47.99082607693142
 30
0.0
 10
-112.0518598768446
 20
47.99082607693142
 30
0.0
 10
-112.0518598768446
 20
47.99082607693142
 30
0.0
 10
-112.0518598768446
 20
47.99082607693142
 30
0.0
 10
-112.0518598768446
 20
47.99082607693142
 30
0.0
 10
-113.5759701199001
 20
47.99082607693142
 30
0.0
 10
-114.8106923421223
 20
46.75610385470919
 30
0.0
 10
-114.8106923421223
 20
45.23199361165364
 30
0.0
 10
-114.8106923421223
 20
45.23199361165364
 30
0.0
 10
-114.8106923421223
 20
42.47316114637587
 30
0.0
 10
-114.8106923421223
 20
42.47316114637587
 30
0.0
  0
SPLINE
  5
189
100
AcDbEntity
  8
ALPHA
 62
     7
100
AcDbSpline
210
0.0
220
0.0
230
-1.0
 70
    11
 71
     3
 72
    29
 73
    25
 74
     0
 42
0.0000001
 43
0.0000001
 40
0.0
 40
0.0
 40
0.0
 40
0.0
 40
1.0
 40
1.0
 40
1.0
 40
2.0
 40
2.0
 40
2.0
 40
3.0
 40
3.0
 40
3.0
 40
4.0
 40
4.0
 40
4.0
 40
5.0
 40
5.0
 40
5.0
 40
6.0
 40
6.0
 40
6.0
 40
7.0
 40
7.0
 40
7.0
 40
8.0
 40
8.0
 40
8.0
 40
8.0
 10
-112.0518598768446
 20
43.92423536512587
 30
0.0
 10
-111.3600847032335
 20
43.92423536512587
 30
0.0
 10
-110.7992231580946
 20
44.4864749484592
 30
0.0
 10
-110.7992231580946
 20
45.17687208387586
 30
0.0
 10
-110.7992231580946
 20
45.17687208387586
 30
0.0
 10
-110.7992231580946
 20
46.18146192762586
 30
0.0
 10
-110.7992231580946
 20
46.18146192762586
 30
0.0
 10
-110.7992231580946
 20
46.87185906304253
 30
0.0
 10
-111.3600847032335
 20
47.43409864637587
 30
0.0
 10
-112.0518598768446
 20
47.43409864637587
 30
0.0
 10
-112.0518598768446
 20
47.43409864637587
 30
0.0
 10
-112.0518598768446
 20
47.43409864637587
 30
0.0
 10
-112.0518598768446
 20
47.43409864637587
 30
0.0
 10
-112.7422570122612
 20
47.43409864637587
 30
0.0
 10
-113.3044965955946
 20
46.87185906304253
 30
0.0
 10
-113.3044965955946
 20
46.18146192762586
 30
0.0
 10
-113.3044965955946
 20
46.18146192762586
 30
0.0
 10
-113.3044965955946
 20
45.17687208387586
 30
0.0
 10
-113.3044965955946
 20
45.17687208387586
 30
0.0
 10
-113.3044965955946
 20
44.4864749484592
 30
0.0
 10
-112.7422570122612
 20
43.92423536512587
 30
0.0
 10
-112.0518598768446
 20
43.92423536512587
 30
0.0
 10
-112.0518598768446
 20
43.92423536512587
 30
0.0
 10
-112.0518598768446
 20
43.92423536512587
 30
0.0
 10
-112.0518598768446
 20
43.92423536512587
 30
0.0
  0
SPLINE
  5
18A
100
AcDbEntity
  8
ALPHA
 62
     7
100
AcDbSpline
210
0.0
220
0.0
230
-1.0
 70
     8
 71
     3
 72
    32
 73
    28
 74
     0
 42
0.0000001
 43
0.0000001
 40
0.0
 40
0.0
 40
0.0
 40
0.0
 40
1.0
 40
1.0
 40
1.0
 40
2.0
 40
2.0
 40
2.0
 40
3.0
 40
3.0
 40
3.0
 40
4.0
 40
4.0
 40
4.0
 40
5.0
 40
5.0
 40
5.0
 40
6.0
 40
6.0
 40
6.0
 40
7.0
 40
7.0
 40
7.0
 40
8.0
 40
8.0
 40
8.0
 40
9.0
 40
9.0
 40
9.0
 40
9.0
 10
-127.8207509358723
 20
15.07362772623697
 30
0.0
 10
-127.8207509358723
 20
15.07362772623697
 30
0.0
 10
-127.8207509358723
 20
12.06537034776475
 30
0.0
 10
-127.8207509358723
 20
12.06537034776475
 30
0.0
 10
-127.8207509358723
 20
11.5086429172092
 30
0.0
 10
-127.3742665608723
 20
11.0621585422092
 30
0.0
 10
-126.8189171685112
 20
11.0621585422092
 30
0.0
 10
-126.8189171685112
 20
11.0621585422092
 30
0.0
 10
-112.7835981580946
 20
11.0621585422092
 30
0.0
 10
-112.7835981580946
 20
11.0621585422092
 30
0.0
 10
-112.2310048421223
 20
11.0621585422092
 30
0.0
 10
-111.780386352539
 20
11.5086429172092
 30
0.0
 10
-111.780386352539
 20
12.06537034776475
 30
0.0
 10
-111.780386352539
 20
12.06537034776475
 30
0.0
 10
-111.780386352539
 20
24.09426574707031
 30
0.0
 10
-111.780386352539
 20
24.09426574707031
 30
0.0
 10
-111.780386352539
 20
24.64685906304253
 30
0.0
 10
-112.2310048421223
 20
25.09334343804253
 30
0.0
 10
-112.7835981580946
 20
25.09334343804253
 30
0.0
 10
-112.7835981580946
 20
25.09334343804253
 30
0.0
 10
-126.8189171685112
 20
25.09334343804253
 30
0.0
 10
-126.8189171685112
 20
25.09334343804253
 30
0.0
 10
-127.3742665608723
 20
25.09334343804253
 30
0.0
 10
-127.8207509358723
 20
24.64685906304253
 30
0.0
 10
-127.8207509358723
 20
24.09426574707031
 30
0.0
 10
-127.8207509358723
 20
24.09426574707031
 30
0.0
 10
-127.8207509358723
 20
21.08738640679253
 30
0.0
 10
-127.8207509358723
 20
21.08738640679253
 30
0.0
  0
SPLINE
  5
18B
100
AcDbEntity
  8
ALPHA
 62
     7
100
AcDbSpline
210
0.0
220
0.0
230
1.0
 70
    11
 71
     3
 72
    26
 73
    22
 74
     0
 42
0.0000001
 43
0.0000001
 40
0.0
 40
0.0
 40
0.0
 40
0.0
 40
1.0
 40
1.0
 40
1.0
 40
2.0
 40
2.0
 40
2.0
 40
3.0
 40
3.0
 40
3.0
 40
4.0
 40
4.0
 40
4.0
 40
5.0
 40
5.0
 40
5.0
 40
6.0
 40
6.0
 40
6.0
 40
7.0
 40
7.0
 40
7.0
 40
7.0
 10
-124.8083594428168
 20
18.08050706651475
 30
0.0
 10
-124.8083594428168
 20
18.08050706651475
 30
0.0
 10
-127.816616821289
 20
21.08738640679253
 30
0.0
 10
-127.816616821289
 20
21.08738640679253
 30
0.0
 10
-127.816616821289
 20
21.08738640679253
 30
0.0
 10
-132.8285417344835
 20
21.08738640679253
 30
0.0
 10
-132.8285417344835
 20
21.08738640679253
 30
0.0
 10
-134.489077758789
 20
21.08738640679253
 30
0.0
 10
-135.8367991129556
 20
19.73828701443142
 30
0.0
 10
-135.8367991129556
 20
18.08050706651475
 30
0.0
 10
-135.8367991129556
 20
18.08050706651475
 30
0.0
 10
-135.8367991129556
 20
18.08050706651475
 30
0.0
 10
-135.8367991129556
 20
18.08050706651475
 30
0.0
 10
-135.8367991129556
 20
16.41721496582031
 30
0.0
 10
-134.489077758789
 20
15.07362772623697
 30
0.0
 10
-132.8285417344835
 20
15.07362772623697
 30
0.0
 10
-132.8285417344835
 20
15.07362772623697
 30
0.0
 10
-127.816616821289
 20
15.07362772623697
 30
0.0
 10
-127.816616821289
 20
15.07362772623697
 30
0.0
 10
-127.816616821289
 20
15.07362772623697
 30
0.0
 10
-124.8083594428168
 20
18.08050706651475
 30
0.0
 10
-124.8083594428168
 20
18.08050706651475
 30
0.0
  0
SPLINE
  5
18C
100
AcDbEntity
  8
ALPHA
 62
     7
100
AcDbSpline
210
0.0
220
0.0
230
-1.0
 70
     8
 71
     3
 72
    32
 73
    28
 74
     0
 42
0.0000001
 43
0.0000001
 40
0.0
 40
0.0
 40
0.0
 40
0.0
 40
1.0
 40
1.0
 40
1.0
 40
2.0
 40
2.0
 40
2.0
 40
3.0
 40
3.0
 40
3.0
 40
4.0
 40
4.0
 40
4.0
 40
5.0
 40
5.0
 40
5.0
 40
6.0
 40
6.0
 40
6.0
 40
7.0
 40
7.0
 40
7.0
 40
8.0
 40
8.0
 40
8.0
 40
9.0
 40
9.0
 40
9.0
 40
9.0
 10
-127.8207509358723
 20
-4.024775865342881
 30
0.0
 10
-127.8207509358723
 20
-4.024775865342881
 30
0.0
 10
-127.8207509358723
 20
-7.031655205620658
 30
0.0
 10
-127.8207509358723
 20
-7.031655205620658
 30
0.0
 10
-127.8207509358723
 20
-7.589760674370658
 30
0.0
 10
-127.3742665608723
 20
-8.036245049370659
 30
0.0
 10
-126.8189171685112
 20
-8.036245049370659
 30
0.0
 10
-126.8189171685112
 20
-8.036245049370659
 30
0.0
 10
-112.7835981580946
 20
-8.036245049370659
 30
0.0
 10
-112.7835981580946
 20
-8.036245049370659
 30
0.0
 10
-112.2310048421223
 20
-8.036245049370659
 30
0.0
 10
-111.780386352539
 20
-7.589760674370658
 30
0.0
 10
-111.780386352539
 20
-7.031655205620658
 30
0.0
 10
-111.780386352539
 20
-7.031655205620658
 30
0.0
 10
-111.780386352539
 20
4.997240193684895
 30
0.0
 10
-111.780386352539
 20
4.997240193684895
 30
0.0
 10
-111.780386352539
 20
5.549833509657117
 30
0.0
 10
-112.2310048421223
 20
5.996317884657117
 30
0.0
 10
-112.7835981580946
 20
5.996317884657117
 30
0.0
 10
-112.7835981580946
 20
5.996317884657117
 30
0.0
 10
-126.8189171685112
 20
5.996317884657117
 30
0.0
 10
-126.8189171685112
 20
5.996317884657117
 30
0.0
 10
-127.3742665608723
 20
5.996317884657117
 30
0.0
 10
-127.8207509358723
 20
5.549833509657117
 30
0.0
 10
-127.8207509358723
 20
4.997240193684895
 30
0.0
 10
-127.8207509358723
 20
4.997240193684895
 30
0.0
 10
-127.8207509358723
 20
1.988982815212673
 30
0.0
 10
-127.8207509358723
 20
1.988982815212673
 30
0.0
  0
SPLINE
  5
18D
100
AcDbEntity
  8
ALPHA
 62
     7
100
AcDbSpline
210
0.0
220
0.0
230
1.0
 70
    11
 71
     3
 72
    26
 73
    22
 74
     0
 42
0.0000001
 43
0.0000001
 40
0.0
 40
0.0
 40
0.0
 40
0.0
 40
1.0
 40
1.0
 40
1.0
 40
2.0
 40
2.0
 40
2.0
 40
3.0
 40
3.0
 40
3.0
 40
4.0
 40
4.0
 40
4.0
 40
5.0
 40
5.0
 40
5.0
 40
6.0
 40
6.0
 40
6.0
 40
7.0
 40
7.0
 40
7.0
 40
7.0
 10
-124.8083594428168
 20
-1.017896525065103
 30
0.0
 10
-124.8083594428168
 20
-1.017896525065103
 30
0.0
 10
-127.816616821289
 20
1.988982815212673
 30
0.0
 10
-127.816616821289
 20
1.988982815212673
 30
0.0
 10
-127.816616821289
 20
1.988982815212673
 30
0.0
 10
-132.8285417344835
 20
1.988982815212673
 30
0.0
 10
-132.8285417344835
 20
1.988982815212673
 30
0.0
 10
-134.489077758789
 20
1.988982815212673
 30
0.0
 10
-135.8367991129556
 20
0.6398834228515625
 30
0.0
 10
-135.8367991129556
 20
-1.017896525065103
 30
0.0
 10
-135.8367991129556
 20
-1.017896525065103
 30
0.0
 10
-135.8367991129556
 20
-1.017896525065103
 30
0.0
 10
-135.8367991129556
 20
-1.017896525065103
 30
0.0
 10
-135.8367991129556
 20
-2.679810587565103
 30
0.0
 10
-134.489077758789
 20
-4.024775865342881
 30
0.0
 10
-132.8285417344835
 20
-4.024775865342881
 30
0.0
 10
-132.8285417344835
 20
-4.024775865342881
 30
0.0
 10
-127.816616821289
 20
-4.024775865342881
 30
0.0
 10
-127.816616821289
 20
-4.024775865342881
 30
0.0
 10
-127.816616821289
 20
-4.024775865342881
 30
0.0
 10
-124.8083594428168
 20
-1.017896525065103
 30
0.0
 10
-124.8083594428168
 20
-1.017896525065103
 30
0.0
  0
SPLINE
  5
18E
100
AcDbEntity
  8
ALPHA
 62
     7
100
AcDbSpline
210
0.0
220
0.0
230
-1.0
 70
     8
 71
     3
 72
    32
 73
    28
 74
     0
 42
0.0000001
 43
0.0000001
 40
0.0
 40
0.0
 40
0.0
 40
0.0
 40
1.0
 40
1.0
 40
1.0
 40
2.0
 40
2.0
 40
2.0
 40
3.0
 40
3.0
 40
3.0
 40
4.0
 40
4.0
 40
4.0
 40
5.0
 40
5.0
 40
5.0
 40
6.0
 40
6.0
 40
6.0
 40
7.0
 40
7.0
 40
7.0
 40
8.0
 40
8.0
 40
8.0
 40
9.0
 40
9.0
 40
9.0
 40
9.0
 10
-127.8207509358723
 20
-23.12300720214843
 30
0.0
 10
-127.8207509358723
 20
-23.12300720214843
 30
0.0
 10
-127.8207509358723
 20
-26.12988654242621
 30
0.0
 10
-127.8207509358723
 20
-26.12988654242621
 30
0.0
 10
-127.8207509358723
 20
-26.68661397298176
 30
0.0
 10
-127.3742665608723
 20
-27.13309834798177
 30
0.0
 10
-126.8189171685112
 20
-27.13309834798177
 30
0.0
 10
-126.8189171685112
 20
-27.13309834798177
 30
0.0
 10
-112.7835981580946
 20
-27.13309834798177
 30
0.0
 10
-112.7835981580946
 20
-27.13309834798177
 30
0.0
 10
-112.2310048421223
 20
-27.13309834798177
 30
0.0
 10
-111.780386352539
 20
-26.68661397298176
 30
0.0
 10
-111.780386352539
 20
-26.12988654242621
 30
0.0
 10
-111.780386352539
 20
-26.12988654242621
 30
0.0
 10
-111.780386352539
 20
-14.10099114312066
 30
0.0
 10
-111.780386352539
 20
-14.10099114312066
 30
0.0
 10
-111.780386352539
 20
-13.54839782714843
 30
0.0
 10
-112.2310048421223
 20
-13.10191345214843
 30
0.0
 10
-112.7835981580946
 20
-13.10191345214843
 30
0.0
 10
-112.7835981580946
 20
-13.10191345214843
 30
0.0
 10
-126.8189171685112
 20
-13.10191345214843
 30
0.0
 10
-126.8189171685112
 20
-13.10191345214843
 30
0.0
 10
-127.3742665608723
 20
-13.10191345214843
 30
0.0
 10
-127.8207509358723
 20
-13.54839782714843
 30
0.0
 10
-127.8207509358723
 20
-14.10099114312066
 30
0.0
 10
-127.8207509358723
 20
-14.10099114312066
 30
0.0
 10
-127.8207509358723
 20
-17.10787048339843
 30
0.0
 10
-127.8207509358723
 20
-17.10787048339843
 30
0.0
  0
SPLINE
  5
18F
100
AcDbEntity
  8
ALPHA
 62
     7
100
AcDbSpline
210
0.0
220
0.0
230
1.0
 70
    11
 71
     3
 72
    26
 73
    22
 74
     0
 42
0.0000001
 43
0.0000001
 40
0.0
 40
0.0
 40
0.0
 40
0.0
 40
1.0
 40
1.0
 40
1.0
 40
2.0
 40
2.0
 40
2.0
 40
3.0
 40
3.0
 40
3.0
 40
4.0
 40
4.0
 40
4.0
 40
5.0
 40
5.0
 40
5.0
 40
6.0
 40
6.0
 40
6.0
 40
7.0
 40
7.0
 40
7.0
 40
7.0
 10
-124.8083594428168
 20
-20.11474982367621
 30
0.0
 10
-124.8083594428168
 20
-20.11474982367621
 30
0.0
 10
-127.816616821289
 20
-17.10787048339843
 30
0.0
 10
-127.816616821289
 20
-17.10787048339843
 30
0.0
 10
-127.816616821289
 20
-17.10787048339843
 30
0.0
 10
-132.8285417344835
 20
-17.10787048339843
 30
0.0
 10
-132.8285417344835
 20
-17.10787048339843
 30
0.0
 10
-134.489077758789
 20
-17.10787048339843
 30
0.0
 10
-135.8367991129556
 20
-18.45696987575954
 30
0.0
 10
-135.8367991129556
 20
-20.11474982367621
 30
0.0
 10
-135.8367991129556
 20
-20.11474982367621
 30
0.0
 10
-135.8367991129556
 20
-20.11474982367621
 30
0.0
 10
-135.8367991129556
 20
-20.11474982367621
 30
0.0
 10
-135.8367991129556
 20
-21.77804192437065
 30
0.0
 10
-134.489077758789
 20
-23.12300720214843
 30
0.0
 10
-132.8285417344835
 20
-23.12300720214843
 30
0.0
 10
-132.8285417344835
 20
-23.12300720214843
 30
0.0
 10
-127.816616821289
 20
-23.12300720214843
 30
0.0
 10
-127.816616821289
 20
-23.12300720214843
 30
0.0
 10
-127.816616821289
 20
-23.12300720214843
 30
0.0
 10
-124.8083594428168
 20
-20.11474982367621
 30
0.0
 10
-124.8083594428168
 20
-20.11474982367621
 30
0.0
  0
SPLINE
  5
190
100
AcDbEntity
  8
ALPHA
 62
     7
100
AcDbSpline
210
0.0
220
0.0
230
-1.0
 70
     8
 71
     3
 72
    32
 73
    28
 74
     0
 42
0.0000001
 43
0.0000001
 40
0.0
 40
0.0
 40
0.0
 40
0.0
 40
1.0
 40
1.0
 40
1.0
 40
2.0
 40
2.0
 40
2.0
 40
3.0
 40
3.0
 40
3.0
 40
4.0
 40
4.0
 40
4.0
 40
5.0
 40
5.0
 40
5.0
 40
6.0
 40
6.0
 40
6.0
 40
7.0
 40
7.0
 40
7.0
 40
8.0
 40
8.0
 40
8.0
 40
9.0
 40
9.0
 40
9.0
 40
9.0
 10
-127.8207509358723
 20
-42.21986050075954
 30
0.0
 10
-127.8207509358723
 20
-42.21986050075954
 30
0.0
 10
-127.8207509358723
 20
-45.22811787923177
 30
0.0
 10
-127.8207509358723
 20
-45.22811787923177
 30
0.0
 10
-127.8207509358723
 20
-45.78484530978732
 30
0.0
 10
-127.3742665608723
 20
-46.23132968478731
 30
0.0
 10
-126.8189171685112
 20
-46.23132968478731
 30
0.0
 10
-126.8189171685112
 20
-46.23132968478731
 30
0.0
 10
-112.7835981580946
 20
-46.23132968478731
 30
0.0
 10
-112.7835981580946
 20
-46.23132968478731
 30
0.0
 10
-112.2310048421223
 20
-46.23132968478731
 30
0.0
 10
-111.780386352539
 20
-45.78484530978732
 30
0.0
 10
-111.780386352539
 20
-45.22811787923177
 30
0.0
 10
-111.780386352539
 20
-45.22811787923177
 30
0.0
 10
-111.780386352539
 20
-33.19922247992621
 30
0.0
 10
-111.780386352539
 20
-33.19922247992621
 30
0.0
 10
-111.780386352539
 20
-32.64662916395399
 30
0.0
 10
-112.2310048421223
 20
-32.19876675075954
 30
0.0
 10
-112.7835981580946
 20
-32.19876675075954
 30
0.0
 10
-112.7835981580946
 20
-32.19876675075954
 30
0.0
 10
-126.8189171685112
 20
-32.19876675075954
 30
0.0
 10
-126.8189171685112
 20
-32.19876675075954
 30
0.0
 10
-127.3742665608723
 20
-32.19876675075954
 30
0.0
 10
-127.8207509358723
 20
-32.64662916395399
 30
0.0
 10
-127.8207509358723
 20
-33.19922247992621
 30
0.0
 10
-127.8207509358723
 20
-33.19922247992621
 30
0.0
 10
-127.8207509358723
 20
-36.20610182020399
 30
0.0
 10
-127.8207509358723
 20
-36.20610182020399
 30
0.0
  0
SPLINE
  5
191
100
AcDbEntity
  8
ALPHA
 62
     7
100
AcDbSpline
210
0.0
220
0.0
230
1.0
 70
    11
 71
     3
 72
    26
 73
    22
 74
     0
 42
0.0000001
 43
0.0000001
 40
0.0
 40
0.0
 40
0.0
 40
0.0
 40
1.0
 40
1.0
 40
1.0
 40
2.0
 40
2.0
 40
2.0
 40
3.0
 40
3.0
 40
3.0
 40
4.0
 40
4.0
 40
4.0
 40
5.0
 40
5.0
 40
5.0
 40
6.0
 40
6.0
 40
6.0
 40
7.0
 40
7.0
 40
7.0
 40
7.0
 10
-124.8083594428168
 20
-39.21298116048177
 30
0.0
 10
-124.8083594428168
 20
-39.21298116048177
 30
0.0
 10
-127.816616821289
 20
-36.20610182020399
 30
0.0
 10
-127.816616821289
 20
-36.20610182020399
 30
0.0
 10
-127.816616821289
 20
-36.20610182020399
 30
0.0
 10
-132.8285417344835
 20
-36.20610182020399
 30
0.0
 10
-132.8285417344835
 20
-36.20610182020399
 30
0.0
 10
-134.489077758789
 20
-36.20610182020399
 30
0.0
 10
-135.8367991129556
 20
-37.5552012125651
 30
0.0
 10
-135.8367991129556
 20
-39.21298116048177
 30
0.0
 10
-135.8367991129556
 20
-39.21298116048177
 30
0.0
 10
-135.8367991129556
 20
-39.21298116048177
 30
0.0
 10
-135.8367991129556
 20
-39.21298116048177
 30
0.0
 10
-135.8367991129556
 20
-40.87489522298176
 30
0.0
 10
-134.489077758789
 20
-42.21986050075954
 30
0.0
 10
-132.8285417344835
 20
-42.21986050075954
 30
0.0
 10
-132.8285417344835
 20
-42.21986050075954
 30
0.0
 10
-127.816616821289
 20
-42.21986050075954
 30
0.0
 10
-127.816616821289
 20
-42.21986050075954
 30
0.0
 10
-127.816616821289
 20
-42.21986050075954
 30
0.0
 10
-124.8083594428168
 20
-39.21298116048177
 30
0.0
 10
-124.8083594428168
 20
-39.21298116048177
 30
0.0
  0
SPLINE
  5
192
100
AcDbEntity
  8
ALPHA
 62
     7
100
AcDbSpline
210
0.0
220
0.0
230
-1.0
 70
     8
 71
     3
 72
    32
 73
    28
 74
     0
 42
0.0000001
 43
0.0000001
 40
0.0
 40
0.0
 40
0.0
 40
0.0
 40
1.0
 40
1.0
 40
1.0
 40
2.0
 40
2.0
 40
2.0
 40
3.0
 40
3.0
 40
3.0
 40
4.0
 40
4.0
 40
4.0
 40
5.0
 40
5.0
 40
5.0
 40
6.0
 40
6.0
 40
6.0
 40
7.0
 40
7.0
 40
7.0
 40
8.0
 40
8.0
 40
8.0
 40
9.0
 40
9.0
 40
9.0
 40
9.0
 10
-127.8207509358723
 20
-61.3180918375651
 30
0.0
 10
-127.8207509358723
 20
-61.3180918375651
 30
0.0
 10
-127.8207509358723
 20
-64.32497117784286
 30
0.0
 10
-127.8207509358723
 20
-64.32497117784286
 30
0.0
 10
-127.8207509358723
 20
-64.88169860839843
 30
0.0
 10
-127.3742665608723
 20
-65.32956102159288
 30
0.0
 10
-126.8189171685112
 20
-65.32956102159288
 30
0.0
 10
-126.8189171685112
 20
-65.32956102159288
 30
0.0
 10
-112.7835981580946
 20
-65.32956102159288
 30
0.0
 10
-112.7835981580946
 20
-65.32956102159288
 30
0.0
 10
-112.2310048421223
 20
-65.32956102159288
 30
0.0
 10
-111.780386352539
 20
-64.88169860839843
 30
0.0
 10
-111.780386352539
 20
-64.32497117784286
 30
0.0
 10
-111.780386352539
 20
-64.32497117784286
 30
0.0
 10
-111.780386352539
 20
-52.29607577853732
 30
0.0
 10
-111.780386352539
 20
-52.29607577853732
 30
0.0
 10
-111.780386352539
 20
-51.7434824625651
 30
0.0
 10
-112.2310048421223
 20
-51.2969980875651
 30
0.0
 10
-112.7835981580946
 20
-51.2969980875651
 30
0.0
 10
-112.7835981580946
 20
-51.2969980875651
 30
0.0
 10
-126.8189171685112
 20
-51.2969980875651
 30
0.0
 10
-126.8189171685112
 20
-51.2969980875651
 30
0.0
 10
-127.3742665608723
 20
-51.2969980875651
 30
0.0
 10
-127.8207509358723
 20
-51.7434824625651
 30
0.0
 10
-127.8207509358723
 20
-52.29607577853732
 30
0.0
 10
-127.8207509358723
 20
-52.29607577853732
 30
0.0
 10
-127.8207509358723
 20
-55.3029551188151
 30
0.0
 10
-127.8207509358723
 20
-55.3029551188151
 30
0.0
  0
SPLINE
  5
193
100
AcDbEntity
  8
ALPHA
 62
     7
100
AcDbSpline
210
0.0
220
0.0
230
1.0
 70
    11
 71
     3
 72
    26
 73
    22
 74
     0
 42
0.0000001
 43
0.0000001
 40
0.0
 40
0.0
 40
0.0
 40
0.0
 40
1.0
 40
1.0
 40
1.0
 40
2.0
 40
2.0
 40
2.0
 40
3.0
 40
3.0
 40
3.0
 40
4.0
 40
4.0
 40
4.0
 40
5.0
 40
5.0
 40
5.0
 40
6.0
 40
6.0
 40
6.0
 40
7.0
 40
7.0
 40
7.0
 40
7.0
 10
-124.8083594428168
 20
-58.31121249728732
 30
0.0
 10
-124.8083594428168
 20
-58.31121249728732
 30
0.0
 10
-127.816616821289
 20
-55.3029551188151
 30
0.0
 10
-127.816616821289
 20
-55.3029551188151
 30
0.0
 10
-127.816616821289
 20
-55.3029551188151
 30
0.0
 10
-132.8285417344835
 20
-55.3029551188151
 30
0.0
 10
-132.8285417344835
 20
-55.3029551188151
 30
0.0
 10
-134.489077758789
 20
-55.3029551188151
 30
0.0
 10
-135.8367991129556
 20
-56.65343254937066
 30
0.0
 10
-135.8367991129556
 20
-58.31121249728732
 30
0.0
 10
-135.8367991129556
 20
-58.31121249728732
 30
0.0
 10
-135.8367991129556
 20
-58.31121249728732
 30
0.0
 10
-135.8367991129556
 20
-58.31121249728732
 30
0.0
 10
-135.8367991129556
 20
-59.97312655978731
 30
0.0
 10
-134.489077758789
 20
-61.3180918375651
 30
0.0
 10
-132.8285417344835
 20
-61.3180918375651
 30
0.0
 10
-132.8285417344835
 20
-61.3180918375651
 30
0.0
 10
-127.816616821289
 20
-61.3180918375651
 30
0.0
 10
-127.816616821289
 20
-61.3180918375651
 30
0.0
 10
-127.816616821289
 20
-61.3180918375651
 30
0.0
 10
-124.8083594428168
 20
-58.31121249728732
 30
0.0
 10
-124.8083594428168
 20
-58.31121249728732
 30
0.0
  0
SPLINE
  5
194
100
AcDbEntity
  8
ALPHA
 62
     7
100
AcDbSpline
210
0.0
220
0.0
230
-1.0
 70
     8
 71
     3
 72
    32
 73
    28
 74
     0
 42
0.0000001
 43
0.0000001
 40
0.0
 40
0.0
 40
0.0
 40
0.0
 40
1.0
 40
1.0
 40
1.0
 40
2.0
 40
2.0
 40
2.0
 40
3.0
 40
3.0
 40
3.0
 40
4.0
 40
4.0
 40
4.0
 40
5.0
 40
5.0
 40
5.0
 40
6.0
 40
6.0
 40
6.0
 40
7.0
 40
7.0
 40
7.0
 40
8.0
 40
8.0
 40
8.0
 40
9.0
 40
9.0
 40
9.0
 40
9.0
 10
-127.8207509358723
 20
-80.41494513617621
 30
0.0
 10
-127.8207509358723
 20
-80.41494513617621
 30
0.0
 10
-127.8207509358723
 20
-83.42320251464842
 30
0.0
 10
-127.8207509358723
 20
-83.42320251464842
 30
0.0
 10
-127.8207509358723
 20
-83.97992994520398
 30
0.0
 10
-127.3742665608723
 20
-84.42641432020399
 30
0.0
 10
-126.8189171685112
 20
-84.42641432020399
 30
0.0
 10
-126.8189171685112
 20
-84.42641432020399
 30
0.0
 10
-112.7835981580946
 20
-84.42641432020399
 30
0.0
 10
-112.7835981580946
 20
-84.42641432020399
 30
0.0
 10
-112.2310048421223
 20
-84.42641432020399
 30
0.0
 10
-111.780386352539
 20
-83.97992994520398
 30
0.0
 10
-111.780386352539
 20
-83.42320251464842
 30
0.0
 10
-111.780386352539
 20
-83.42320251464842
 30
0.0
 10
-111.780386352539
 20
-71.39430711534287
 30
0.0
 10
-111.780386352539
 20
-71.39430711534287
 30
0.0
 10
-111.780386352539
 20
-70.84171379937065
 30
0.0
 10
-112.2310048421223
 20
-70.39522942437065
 30
0.0
 10
-112.7835981580946
 20
-70.39522942437065
 30
0.0
 10
-112.7835981580946
 20
-70.39522942437065
 30
0.0
 10
-126.8189171685112
 20
-70.39522942437065
 30
0.0
 10
-126.8189171685112
 20
-70.39522942437065
 30
0.0
 10
-127.3742665608723
 20
-70.39522942437065
 30
0.0
 10
-127.8207509358723
 20
-70.84171379937065
 30
0.0
 10
-127.8207509358723
 20
-71.39430711534287
 30
0.0
 10
-127.8207509358723
 20
-71.39430711534287
 30
0.0
 10
-127.8207509358723
 20
-74.40118645562065
 30
0.0
 10
-127.8207509358723
 20
-74.40118645562065
 30
0.0
  0
SPLINE
  5
195
100
AcDbEntity
  8
ALPHA
 62
     7
100
AcDbSpline
210
0.0
220
0.0
230
1.0
 70
    11
 71
     3
 72
    26
 73
    22
 74
     0
 42
0.0000001
 43
0.0000001
 40
0.0
 40
0.0
 40
0.0
 40
0.0
 40
1.0
 40
1.0
 40
1.0
 40
2.0
 40
2.0
 40
2.0
 40
3.0
 40
3.0
 40
3.0
 40
4.0
 40
4.0
 40
4.0
 40
5.0
 40
5.0
 40
5.0
 40
6.0
 40
6.0
 40
6.0
 40
7.0
 40
7.0
 40
7.0
 40
7.0
 10
-124.8083594428168
 20
-77.40806579589843
 30
0.0
 10
-124.8083594428168
 20
-77.40806579589843
 30
0.0
 10
-127.816616821289
 20
-74.40118645562065
 30
0.0
 10
-127.816616821289
 20
-74.40118645562065
 30
0.0
 10
-127.816616821289
 20
-74.40118645562065
 30
0.0
 10
-132.8285417344835
 20
-74.40118645562065
 30
0.0
 10
-132.8285417344835
 20
-74.40118645562065
 30
0.0
 10
-134.489077758789
 20
-74.40118645562065
 30
0.0
 10
-135.8367991129556
 20
-75.75028584798175
 30
0.0
 10
-135.8367991129556
 20
-77.40806579589843
 30
0.0
 10
-135.8367991129556
 20
-77.40806579589843
 30
0.0
 10
-135.8367991129556
 20
-77.40806579589843
 30
0.0
 10
-135.8367991129556
 20
-77.40806579589843
 30
0.0
 10
-135.8367991129556
 20
-79.07135789659287
 30
0.0
 10
-134.489077758789
 20
-80.41494513617621
 30
0.0
 10
-132.8285417344835
 20
-80.41494513617621
 30
0.0
 10
-132.8285417344835
 20
-80.41494513617621
 30
0.0
 10
-127.816616821289
 20
-80.41494513617621
 30
0.0
 10
-127.816616821289
 20
-80.41494513617621
 30
0.0
 10
-127.816616821289
 20
-80.41494513617621
 30
0.0
 10
-124.8083594428168
 20
-77.40806579589843
 30
0.0
 10
-124.8083594428168
 20
-77.40806579589843
 30
0.0
  0
SPLINE
  5
196
100
AcDbEntity
  8
ALPHA
 62
     7
100
AcDbSpline
210
0.0
220
0.0
230
-1.0
 70
     8
 71
     3
 72
    32
 73
    28
 74
     0
 42
0.0000001
 43
0.0000001
 40
0.0
 40
0.0
 40
0.0
 40
0.0
 40
1.0
 40
1.0
 40
1.0
 40
2.0
 40
2.0
 40
2.0
 40
3.0
 40
3.0
 40
3.0
 40
4.0
 40
4.0
 40
4.0
 40
5.0
 40
5.0
 40
5.0
 40
6.0
 40
6.0
 40
6.0
 40
7.0
 40
7.0
 40
7.0
 40
8.0
 40
8.0
 40
8.0
 40
9.0
 40
9.0
 40
9.0
 40
9.0
 10
-89.72075093587239
 20
15.07362772623697
 30
0.0
 10
-89.72075093587239
 20
15.07362772623697
 30
0.0
 10
-89.72075093587239
 20
12.06537034776475
 30
0.0
 10
-89.72075093587239
 20
12.06537034776475
 30
0.0
 10
-89.72075093587239
 20
11.5086429172092
 30
0.0
 10
-90.16723531087238
 20
11.0621585422092
 30
0.0
 10
-90.72534077962238
 20
11.0621585422092
 30
0.0
 10
-90.72534077962238
 20
11.0621585422092
 30
0.0
 10
-104.7565256754557
 20
11.0621585422092
 30
0.0
 10
-104.7565256754557
 20
11.0621585422092
 30
0.0
 10
-105.3091189914279
 20
11.0621585422092
 30
0.0
 10
-105.7611155192057
 20
11.5086429172092
 30
0.0
 10
-105.7611155192057
 20
12.06537034776475
 30
0.0
 10
-105.7611155192057
 20
12.06537034776475
 30
0.0
 10
-105.7611155192057
 20
24.09426574707031
 30
0.0
 10
-105.7611155192057
 20
24.09426574707031
 30
0.0
 10
-105.7611155192057
 20
24.64685906304253
 30
0.0
 10
-105.3091189914279
 20
25.09334343804253
 30
0.0
 10
-104.7565256754557
 20
25.09334343804253
 30
0.0
 10
-104.7565256754557
 20
25.09334343804253
 30
0.0
 10
-90.72534077962238
 20
25.09334343804253
 30
0.0
 10
-90.72534077962238
 20
25.09334343804253
 30
0.0
 10
-90.16723531087238
 20
25.09334343804253
 30
0.0
 10
-89.72075093587239
 20
24.64685906304253
 30
0.0
 10
-89.72075093587239
 20
24.09426574707031
 30
0.0
 10
-89.72075093587239
 20
24.09426574707031
 30
0.0
 10
-89.72075093587239
 20
21.08738640679253
 30
0.0
 10
-89.72075093587239
 20
21.08738640679253
 30
0.0
  0
SPLINE
  5
197
100
AcDbEntity
  8
ALPHA
 62
     7
100
AcDbSpline
210
0.0
220
0.0
230
1.0
 70
    11
 71
     3
 72
    26
 73
    22
 74
     0
 42
0.0000001
 43
0.0000001
 40
0.0
 40
0.0
 40
0.0
 40
0.0
 40
1.0
 40
1.0
 40
1.0
 40
2.0
 40
2.0
 40
2.0
 40
3.0
 40
3.0
 40
3.0
 40
4.0
 40
4.0
 40
4.0
 40
5.0
 40
5.0
 40
5.0
 40
6.0
 40
6.0
 40
6.0
 40
7.0
 40
7.0
 40
7.0
 40
7.0
 10
-92.73314242892794
 20
18.08050706651475
 30
0.0
 10
-92.73314242892794
 20
18.08050706651475
 30
0.0
 10
-89.72626308865017
 20
21.08738640679253
 30
0.0
 10
-89.72626308865017
 20
21.08738640679253
 30
0.0
 10
-89.72626308865017
 20
21.08738640679253
 30
0.0
 10
-84.71571621365017
 20
21.08738640679253
 30
0.0
 10
-84.71571621365017
 20
21.08738640679253
 30
0.0
 10
-83.05242411295571
 20
21.08738640679253
 30
0.0
 10
-81.70745883517794
 20
19.73828701443142
 30
0.0
 10
-81.70745883517794
 20
18.08050706651475
 30
0.0
 10
-81.70745883517794
 20
18.08050706651475
 30
0.0
 10
-81.70745883517794
 20
18.08050706651475
 30
0.0
 10
-81.70745883517794
 20
18.08050706651475
 30
0.0
 10
-81.70745883517794
 20
16.41721496582031
 30
0.0
 10
-83.05242411295571
 20
15.07362772623697
 30
0.0
 10
-84.71571621365017
 20
15.07362772623697
 30
0.0
 10
-84.71571621365017
 20
15.07362772623697
 30
0.0
 10
-89.72626308865017
 20
15.07362772623697
 30
0.0
 10
-89.72626308865017
 20
15.07362772623697
 30
0.0
 10
-89.72626308865017
 20
15.07362772623697
 30
0.0
 10
-92.73314242892794
 20
18.08050706651475
 30
0.0
 10
-92.73314242892794
 20
18.08050706651475
 30
0.0
  0
SPLINE
  5
198
100
AcDbEntity
  8
ALPHA
 62
     7
100
AcDbSpline
210
0.0
220
0.0
230
-1.0
 70
     8
 71
     3
 72
    32
 73
    28
 74
     0
 42
0.0000001
 43
0.0000001
 40
0.0
 40
0.0
 40
0.0
 40
0.0
 40
1.0
 40
1.0
 40
1.0
 40
2.0
 40
2.0
 40
2.0
 40
3.0
 40
3.0
 40
3.0
 40
4.0
 40
4.0
 40
4.0
 40
5.0
 40
5.0
 40
5.0
 40
6.0
 40
6.0
 40
6.0
 40
7.0
 40
7.0
 40
7.0
 40
8.0
 40
8.0
 40
8.0
 40
9.0
 40
9.0
 40
9.0
 40
9.0
 10
-89.72075093587239
 20
-4.024775865342881
 30
0.0
 10
-89.72075093587239
 20
-4.024775865342881
 30
0.0
 10
-89.72075093587239
 20
-7.031655205620658
 30
0.0
 10
-89.72075093587239
 20
-7.031655205620658
 30
0.0
 10
-89.72075093587239
 20
-7.589760674370658
 30
0.0
 10
-90.16723531087238
 20
-8.036245049370659
 30
0.0
 10
-90.72534077962238
 20
-8.036245049370659
 30
0.0
 10
-90.72534077962238
 20
-8.036245049370659
 30
0.0
 10
-104.7565256754557
 20
-8.036245049370659
 30
0.0
 10
-104.7565256754557
 20
-8.036245049370659
 30
0.0
 10
-105.3091189914279
 20
-8.036245049370659
 30
0.0
 10
-105.7611155192057
 20
-7.589760674370658
 30
0.0
 10
-105.7611155192057
 20
-7.031655205620658
 30
0.0
 10
-105.7611155192057
 20
-7.031655205620658
 30
0.0
 10
-105.7611155192057
 20
4.997240193684895
 30
0.0
 10
-105.7611155192057
 20
4.997240193684895
 30
0.0
 10
-105.7611155192057
 20
5.549833509657117
 30
0.0
 10
-105.3091189914279
 20
5.996317884657117
 30
0.0
 10
-104.7565256754557
 20
5.996317884657117
 30
0.0
 10
-104.7565256754557
 20
5.996317884657117
 30
0.0
 10
-90.72534077962238
 20
5.996317884657117
 30
0.0
 10
-90.72534077962238
 20
5.996317884657117
 30
0.0
 10
-90.16723531087238
 20
5.996317884657117
 30
0.0
 10
-89.72075093587239
 20
5.549833509657117
 30
0.0
 10
-89.72075093587239
 20
4.997240193684895
 30
0.0
 10
-89.72075093587239
 20
4.997240193684895
 30
0.0
 10
-89.72075093587239
 20
1.988982815212673
 30
0.0
 10
-89.72075093587239
 20
1.988982815212673
 30
0.0
  0
SPLINE
  5
199
100
AcDbEntity
  8
ALPHA
 62
     7
100
AcDbSpline
210
0.0
220
0.0
230
1.0
 70
    11
 71
     3
 72
    26
 73
    22
 74
     0
 42
0.0000001
 43
0.0000001
 40
0.0
 40
0.0
 40
0.0
 40
0.0
 40
1.0
 40
1.0
 40
1.0
 40
2.0
 40
2.0
 40
2.0
 40
3.0
 40
3.0
 40
3.0
 40
4.0
 40
4.0
 40
4.0
 40
5.0
 40
5.0
 40
5.0
 40
6.0
 40
6.0
 40
6.0
 40
7.0
 40
7.0
 40
7.0
 40
7.0
 10
-92.73314242892794
 20
-1.017896525065103
 30
0.0
 10
-92.73314242892794
 20
-1.017896525065103
 30
0.0
 10
-89.72626308865017
 20
1.988982815212673
 30
0.0
 10
-89.72626308865017
 20
1.988982815212673
 30
0.0
 10
-89.72626308865017
 20
1.988982815212673
 30
0.0
 10
-84.71571621365017
 20
1.988982815212673
 30
0.0
 10
-84.71571621365017
 20
1.988982815212673
 30
0.0
 10
-83.05242411295571
 20
1.988982815212673
 30
0.0
 10
-81.70745883517794
 20
0.6398834228515625
 30
0.0
 10
-81.70745883517794
 20
-1.017896525065103
 30
0.0
 10
-81.70745883517794
 20
-1.017896525065103
 30
0.0
 10
-81.70745883517794
 20
-1.017896525065103
 30
0.0
 10
-81.70745883517794
 20
-1.017896525065103
 30
0.0
 10
-81.70745883517794
 20
-2.679810587565103
 30
0.0
 10
-83.05242411295571
 20
-4.024775865342881
 30
0.0
 10
-84.71571621365017
 20
-4.024775865342881
 30
0.0
 10
-84.71571621365017
 20
-4.024775865342881
 30
0.0
 10
-89.72626308865017
 20
-4.024775865342881
 30
0.0
 10
-89.72626308865017
 20
-4.024775865342881
 30
0.0
 10
-89.72626308865017
 20
-4.024775865342881
 30
0.0
 10
-92.73314242892794
 20
-1.017896525065103
 30
0.0
 10
-92.73314242892794
 20
-1.017896525065103
 30
0.0
  0
SPLINE
  5
19A
100
AcDbEntity
  8
ALPHA
 62
     7
100
AcDbSpline
210
0.0
220
0.0
230
-1.0
 70
     8
 71
     3
 72
    32
 73
    28
 74
     0
 42
0.0000001
 43
0.0000001
 40
0.0
 40
0.0
 40
0.0
 40
0.0
 40
1.0
 40
1.0
 40
1.0
 40
2.0
 40
2.0
 40
2.0
 40
3.0
 40
3.0
 40
3.0
 40
4.0
 40
4.0
 40
4.0
 40
5.0
 40
5.0
 40
5.0
 40
6.0
 40
6.0
 40
6.0
 40
7.0
 40
7.0
 40
7.0
 40
8.0
 40
8.0
 40
8.0
 40
9.0
 40
9.0
 40
9.0
 40
9.0
 10
-89.72075093587239
 20
-23.12300720214843
 30
0.0
 10
-89.72075093587239
 20
-23.12300720214843
 30
0.0
 10
-89.72075093587239
 20
-26.12988654242621
 30
0.0
 10
-89.72075093587239
 20
-26.12988654242621
 30
0.0
 10
-89.72075093587239
 20
-26.68661397298176
 30
0.0
 10
-90.16723531087238
 20
-27.13309834798177
 30
0.0
 10
-90.72534077962238
 20
-27.13309834798177
 30
0.0
 10
-90.72534077962238
 20
-27.13309834798177
 30
0.0
 10
-104.7565256754557
 20
-27.13309834798177
 30
0.0
 10
-104.7565256754557
 20
-27.13309834798177
 30
0.0
 10
-105.3091189914279
 20
-27.13309834798177
 30
0.0
 10
-105.7611155192057
 20
-26.68661397298176
 30
0.0
 10
-105.7611155192057
 20
-26.12988654242621
 30
0.0
 10
-105.7611155192057
 20
-26.12988654242621
 30
0.0
 10
-105.7611155192057
 20
-14.10099114312066
 30
0.0
 10
-105.7611155192057
 20
-14.10099114312066
 30
0.0
 10
-105.7611155192057
 20
-13.54839782714843
 30
0.0
 10
-105.3091189914279
 20
-13.10191345214843
 30
0.0
 10
-104.7565256754557
 20
-13.10191345214843
 30
0.0
 10
-104.7565256754557
 20
-13.10191345214843
 30
0.0
 10
-90.72534077962238
 20
-13.10191345214843
 30
0.0
 10
-90.72534077962238
 20
-13.10191345214843
 30
0.0
 10
-90.16723531087238
 20
-13.10191345214843
 30
0.0
 10
-89.72075093587239
 20
-13.54839782714843
 30
0.0
 10
-89.72075093587239
 20
-14.10099114312066
 30
0.0
 10
-89.72075093587239
 20
-14.10099114312066
 30
0.0
 10
-89.72075093587239
 20
-17.10787048339843
 30
0.0
 10
-89.72075093587239
 20
-17.10787048339843
 30
0.0
  0
SPLINE
  5
19B
100
AcDbEntity
  8
ALPHA
 62
     7
100
AcDbSpline
210
0.0
220
0.0
230
1.0
 70
    11
 71
     3
 72
    26
 73
    22
 74
     0
 42
0.0000001
 43
0.0000001
 40
0.0
 40
0.0
 40
0.0
 40
0.0
 40
1.0
 40
1.0
 40
1.0
 40
2.0
 40
2.0
 40
2.0
 40
3.0
 40
3.0
 40
3.0
 40
4.0
 40
4.0
 40
4.0
 40
5.0
 40
5.0
 40
5.0
 40
6.0
 40
6.0
 40
6.0
 40
7.0
 40
7.0
 40
7.0
 40
7.0
 10
-92.73314242892794
 20
-20.11474982367621
 30
0.0
 10
-92.73314242892794
 20
-20.11474982367621
 30
0.0
 10
-89.72626308865017
 20
-17.10787048339843
 30
0.0
 10
-89.72626308865017
 20
-17.10787048339843
 30
0.0
 10
-89.72626308865017
 20
-17.10787048339843
 30
0.0
 10
-84.71571621365017
 20
-17.10787048339843
 30
0.0
 10
-84.71571621365017
 20
-17.10787048339843
 30
0.0
 10
-83.05242411295571
 20
-17.10787048339843
 30
0.0
 10
-81.70745883517794
 20
-18.45696987575954
 30
0.0
 10
-81.70745883517794
 20
-20.11474982367621
 30
0.0
 10
-81.70745883517794
 20
-20.11474982367621
 30
0.0
 10
-81.70745883517794
 20
-20.11474982367621
 30
0.0
 10
-81.70745883517794
 20
-20.11474982367621
 30
0.0
 10
-81.70745883517794
 20
-21.77804192437065
 30
0.0
 10
-83.05242411295571
 20
-23.12300720214843
 30
0.0
 10
-84.71571621365017
 20
-23.12300720214843
 30
0.0
 10
-84.71571621365017
 20
-23.12300720214843
 30
0.0
 10
-89.72626308865017
 20
-23.12300720214843
 30
0.0
 10
-89.72626308865017
 20
-23.12300720214843
 30
0.0
 10
-89.72626308865017
 20
-23.12300720214843
 30
0.0
 10
-92.73314242892794
 20
-20.11474982367621
 30
0.0
 10
-92.73314242892794
 20
-20.11474982367621
 30
0.0
  0
SPLINE
  5
19C
100
AcDbEntity
  8
ALPHA
 62
     7
100
AcDbSpline
210
0.0
220
0.0
230
-1.0
 70
     8
 71
     3
 72
    32
 73
    28
 74
     0
 42
0.0000001
 43
0.0000001
 40
0.0
 40
0.0
 40
0.0
 40
0.0
 40
1.0
 40
1.0
 40
1.0
 40
2.0
 40
2.0
 40
2.0
 40
3.0
 40
3.0
 40
3.0
 40
4.0
 40
4.0
 40
4.0
 40
5.0
 40
5.0
 40
5.0
 40
6.0
 40
6.0
 40
6.0
 40
7.0
 40
7.0
 40
7.0
 40
8.0
 40
8.0
 40
8.0
 40
9.0
 40
9.0
 40
9.0
 40
9.0
 10
-89.72075093587239
 20
-42.21986050075954
 30
0.0
 10
-89.72075093587239
 20
-42.21986050075954
 30
0.0
 10
-89.72075093587239
 20
-45.22811787923177
 30
0.0
 10
-89.72075093587239
 20
-45.22811787923177
 30
0.0
 10
-89.72075093587239
 20
-45.78484530978732
 30
0.0
 10
-90.16723531087238
 20
-46.23132968478731
 30
0.0
 10
-90.72534077962238
 20
-46.23132968478731
 30
0.0
 10
-90.72534077962238
 20
-46.23132968478731
 30
0.0
 10
-104.7565256754557
 20
-46.23132968478731
 30
0.0
 10
-104.7565256754557
 20
-46.23132968478731
 30
0.0
 10
-105.3091189914279
 20
-46.23132968478731
 30
0.0
 10
-105.7611155192057
 20
-45.78484530978732
 30
0.0
 10
-105.7611155192057
 20
-45.22811787923177
 30
0.0
 10
-105.7611155192057
 20
-45.22811787923177
 30
0.0
 10
-105.7611155192057
 20
-33.19922247992621
 30
0.0
 10
-105.7611155192057
 20
-33.19922247992621
 30
0.0
 10
-105.7611155192057
 20
-32.64662916395399
 30
0.0
 10
-105.3091189914279
 20
-32.19876675075954
 30
0.0
 10
-104.7565256754557
 20
-32.19876675075954
 30
0.0
 10
-104.7565256754557
 20
-32.19876675075954
 30
0.0
 10
-90.72534077962238
 20
-32.19876675075954
 30
0.0
 10
-90.72534077962238
 20
-32.19876675075954
 30
0.0
 10
-90.16723531087238
 20
-32.19876675075954
 30
0.0
 10
-89.72075093587239
 20
-32.64662916395399
 30
0.0
 10
-89.72075093587239
 20
-33.19922247992621
 30
0.0
 10
-89.72075093587239
 20
-33.19922247992621
 30
0.0
 10
-89.72075093587239
 20
-36.20610182020399
 30
0.0
 10
-89.72075093587239
 20
-36.20610182020399
 30
0.0
  0
SPLINE
  5
19D
100
AcDbEntity
  8
ALPHA
 62
     7
100
AcDbSpline
210
0.0
220
0.0
230
1.0
 70
    11
 71
     3
 72
    26
 73
    22
 74
     0
 42
0.0000001
 43
0.0000001
 40
0.0
 40
0.0
 40
0.0
 40
0.0
 40
1.0
 40
1.0
 40
1.0
 40
2.0
 40
2.0
 40
2.0
 40
3.0
 40
3.0
 40
3.0
 40
4.0
 40
4.0
 40
4.0
 40
5.0
 40
5.0
 40
5.0
 40
6.0
 40
6.0
 40
6.0
 40
7.0
 40
7.0
 40
7.0
 40
7.0
 10
-92.73314242892794
 20
-39.21298116048177
 30
0.0
 10
-92.73314242892794
 20
-39.21298116048177
 30
0.0
 10
-89.72626308865017
 20
-36.20610182020399
 30
0.0
 10
-89.72626308865017
 20
-36.20610182020399
 30
0.0
 10
-89.72626308865017
 20
-36.20610182020399
 30
0.0
 10
-84.71571621365017
 20
-36.20610182020399
 30
0.0
 10
-84.71571621365017
 20
-36.20610182020399
 30
0.0
 10
-83.05242411295571
 20
-36.20610182020399
 30
0.0
 10
-81.70745883517794
 20
-37.5552012125651
 30
0.0
 10
-81.70745883517794
 20
-39.21298116048177
 30
0.0
 10
-81.70745883517794
 20
-39.21298116048177
 30
0.0
 10
-81.70745883517794
 20
-39.21298116048177
 30
0.0
 10
-81.70745883517794
 20
-39.21298116048177
 30
0.0
 10
-81.70745883517794
 20
-40.87489522298176
 30
0.0
 10
-83.05242411295571
 20
-42.21986050075954
 30
0.0
 10
-84.71571621365017
 20
-42.21986050075954
 30
0.0
 10
-84.71571621365017
 20
-42.21986050075954
 30
0.0
 10
-89.72626308865017
 20
-42.21986050075954
 30
0.0
 10
-89.72626308865017
 20
-42.21986050075954
 30
0.0
 10
-89.72626308865017
 20
-42.21986050075954
 30
0.0
 10
-92.73314242892794
 20
-39.21298116048177
 30
0.0
 10
-92.73314242892794
 20
-39.21298116048177
 30
0.0
  0
SPLINE
  5
19E
100
AcDbEntity
  8
ALPHA
 62
     7
100
AcDbSpline
210
0.0
220
0.0
230
-1.0
 70
     8
 71
     3
 72
    32
 73
    28
 74
     0
 42
0.0000001
 43
0.0000001
 40
0.0
 40
0.0
 40
0.0
 40
0.0
 40
1.0
 40
1.0
 40
1.0
 40
2.0
 40
2.0
 40
2.0
 40
3.0
 40
3.0
 40
3.0
 40
4.0
 40
4.0
 40
4.0
 40
5.0
 40
5.0
 40
5.0
 40
6.0
 40
6.0
 40
6.0
 40
7.0
 40
7.0
 40
7.0
 40
8.0
 40
8.0
 40
8.0
 40
9.0
 40
9.0
 40
9.0
 40
9.0
 10
-89.72075093587239
 20
-61.3180918375651
 30
0.0
 10
-89.72075093587239
 20
-61.3180918375651
 30
0.0
 10
-89.72075093587239
 20
-64.32497117784286
 30
0.0
 10
-89.72075093587239
 20
-64.32497117784286
 30
0.0
 10
-89.72075093587239
 20
-64.88169860839843
 30
0.0
 10
-90.16723531087238
 20
-65.32956102159288
 30
0.0
 10
-90.72534077962238
 20
-65.32956102159288
 30
0.0
 10
-90.72534077962238
 20
-65.32956102159288
 30
0.0
 10
-104.7565256754557
 20
-65.32956102159288
 30
0.0
 10
-104.7565256754557
 20
-65.32956102159288
 30
0.0
 10
-105.3091189914279
 20
-65.32956102159288
 30
0.0
 10
-105.7611155192057
 20
-64.88169860839843
 30
0.0
 10
-105.7611155192057
 20
-64.32497117784286
 30
0.0
 10
-105.7611155192057
 20
-64.32497117784286
 30
0.0
 10
-105.7611155192057
 20
-52.29607577853732
 30
0.0
 10
-105.7611155192057
 20
-52.29607577853732
 30
0.0
 10
-105.7611155192057
 20
-51.7434824625651
 30
0.0
 10
-105.3091189914279
 20
-51.2969980875651
 30
0.0
 10
-104.7565256754557
 20
-51.2969980875651
 30
0.0
 10
-104.7565256754557
 20
-51.2969980875651
 30
0.0
 10
-90.72534077962238
 20
-51.2969980875651
 30
0.0
 10
-90.72534077962238
 20
-51.2969980875651
 30
0.0
 10
-90.16723531087238
 20
-51.2969980875651
 30
0.0
 10
-89.72075093587239
 20
-51.7434824625651
 30
0.0
 10
-89.72075093587239
 20
-52.29607577853732
 30
0.0
 10
-89.72075093587239
 20
-52.29607577853732
 30
0.0
 10
-89.72075093587239
 20
-55.3029551188151
 30
0.0
 10
-89.72075093587239
 20
-55.3029551188151
 30
0.0
  0
SPLINE
  5
19F
100
AcDbEntity
  8
ALPHA
 62
     7
100
AcDbSpline
210
0.0
220
0.0
230
1.0
 70
    11
 71
     3
 72
    26
 73
    22
 74
     0
 42
0.0000001
 43
0.0000001
 40
0.0
 40
0.0
 40
0.0
 40
0.0
 40
1.0
 40
1.0
 40
1.0
 40
2.0
 40
2.0
 40
2.0
 40
3.0
 40
3.0
 40
3.0
 40
4.0
 40
4.0
 40
4.0
 40
5.0
 40
5.0
 40
5.0
 40
6.0
 40
6.0
 40
6.0
 40
7.0
 40
7.0
 40
7.0
 40
7.0
 10
-92.73314242892794
 20
-58.31121249728732
 30
0.0
 10
-92.73314242892794
 20
-58.31121249728732
 30
0.0
 10
-89.72626308865017
 20
-55.3029551188151
 30
0.0
 10
-89.72626308865017
 20
-55.3029551188151
 30
0.0
 10
-89.72626308865017
 20
-55.3029551188151
 30
0.0
 10
-84.71571621365017
 20
-55.3029551188151
 30
0.0
 10
-84.71571621365017
 20
-55.3029551188151
 30
0.0
 10
-83.05242411295571
 20
-55.3029551188151
 30
0.0
 10
-81.70745883517794
 20
-56.65343254937066
 30
0.0
 10
-81.70745883517794
 20
-58.31121249728732
 30
0.0
 10
-81.70745883517794
 20
-58.31121249728732
 30
0.0
 10
-81.70745883517794
 20
-58.31121249728732
 30
0.0
 10
-81.70745883517794
 20
-58.31121249728732
 30
0.0
 10
-81.70745883517794
 20
-59.97312655978731
 30
0.0
 10
-83.05242411295571
 20
-61.3180918375651
 30
0.0
 10
-84.71571621365017
 20
-61.3180918375651
 30
0.0
 10
-84.71571621365017
 20
-61.3180918375651
 30
0.0
 10
-89.72626308865017
 20
-61.3180918375651
 30
0.0
 10
-89.72626308865017
 20
-61.3180918375651
 30
0.0
 10
-89.72626308865017
 20
-61.3180918375651
 30
0.0
 10
-92.73314242892794
 20
-58.31121249728732
 30
0.0
 10
-92.73314242892794
 20
-58.31121249728732
 30
0.0
  0
SPLINE
  5
1A0
100
AcDbEntity
  8
ALPHA
 62
     7
100
AcDbSpline
210
0.0
220
0.0
230
-1.0
 70
     8
 71
     3
 72
    32
 73
    28
 74
     0
 42
0.0000001
 43
0.0000001
 40
0.0
 40
0.0
 40
0.0
 40
0.0
 40
1.0
 40
1.0
 40
1.0
 40
2.0
 40
2.0
 40
2.0
 40
3.0
 40
3.0
 40
3.0
 40
4.0
 40
4.0
 40
4.0
 40
5.0
 40
5.0
 40
5.0
 40
6.0
 40
6.0
 40
6.0
 40
7.0
 40
7.0
 40
7.0
 40
8.0
 40
8.0
 40
8.0
 40
9.0
 40
9.0
 40
9.0
 40
9.0
 10
-89.72075093587239
 20
-80.41494513617621
 30
0.0
 10
-89.72075093587239
 20
-80.41494513617621
 30
0.0
 10
-89.72075093587239
 20
-83.42320251464842
 30
0.0
 10
-89.72075093587239
 20
-83.42320251464842
 30
0.0
 10
-89.72075093587239
 20
-83.97992994520398
 30
0.0
 10
-90.16723531087238
 20
-84.42641432020399
 30
0.0
 10
-90.72534077962238
 20
-84.42641432020399
 30
0.0
 10
-90.72534077962238
 20
-84.42641432020399
 30
0.0
 10
-104.7565256754557
 20
-84.42641432020399
 30
0.0
 10
-104.7565256754557
 20
-84.42641432020399
 30
0.0
 10
-105.3091189914279
 20
-84.42641432020399
 30
0.0
 10
-105.7611155192057
 20
-83.97992994520398
 30
0.0
 10
-105.7611155192057
 20
-83.42320251464842
 30
0.0
 10
-105.7611155192057
 20
-83.42320251464842
 30
0.0
 10
-105.7611155192057
 20
-71.39430711534287
 30
0.0
 10
-105.7611155192057
 20
-71.39430711534287
 30
0.0
 10
-105.7611155192057
 20
-70.84171379937065
 30
0.0
 10
-105.3091189914279
 20
-70.39522942437065
 30
0.0
 10
-104.7565256754557
 20
-70.39522942437065
 30
0.0
 10
-104.7565256754557
 20
-70.39522942437065
 30
0.0
 10
-90.72534077962238
 20
-70.39522942437065
 30
0.0
 10
-90.72534077962238
 20
-70.39522942437065
 30
0.0
 10
-90.16723531087238
 20
-70.39522942437065
 30
0.0
 10
-89.72075093587239
 20
-70.84171379937065
 30
0.0
 10
-89.72075093587239
 20
-71.39430711534287
 30
0.0
 10
-89.72075093587239
 20
-71.39430711534287
 30
0.0
 10
-89.72075093587239
 20
-74.40118645562065
 30
0.0
 10
-89.72075093587239
 20
-74.40118645562065
 30
0.0
  0
SPLINE
  5
1A1
100
AcDbEntity
  8
ALPHA
 62
     7
100
AcDbSpline
210
0.0
220
0.0
230
1.0
 70
    11
 71
     3
 72
    26
 73
    22
 74
     0
 42
0.0000001
 43
0.0000001
 40
0.0
 40
0.0
 40
0.0
 40
0.0
 40
1.0
 40
1.0
 40
1.0
 40
2.0
 40
2.0
 40
2.0
 40
3.0
 40
3.0
 40
3.0
 40
4.0
 40
4.0
 40
4.0
 40
5.0
 40
5.0
 40
5.0
 40
6.0
 40
6.0
 40
6.0
 40
7.0
 40
7.0
 40
7.0
 40
7.0
 10
-92.73314242892794
 20
-77.40806579589843
 30
0.0
 10
-92.73314242892794
 20
-77.40806579589843
 30
0.0
 10
-89.72626308865017
 20
-74.40118645562065
 30
0.0
 10
-89.72626308865017
 20
-74.40118645562065
 30
0.0
 10
-89.72626308865017
 20
-74.40118645562065
 30
0.0
 10
-84.71571621365017
 20
-74.40118645562065
 30
0.0
 10
-84.71571621365017
 20
-74.40118645562065
 30
0.0
 10
-83.05242411295571
 20
-74.40118645562065
 30
0.0
 10
-81.70745883517794
 20
-75.75028584798175
 30
0.0
 10
-81.70745883517794
 20
-77.40806579589843
 30
0.0
 10
-81.70745883517794
 20
-77.40806579589843
 30
0.0
 10
-81.70745883517794
 20
-77.40806579589843
 30
0.0
 10
-81.70745883517794
 20
-77.40806579589843
 30
0.0
 10
-81.70745883517794
 20
-79.07135789659287
 30
0.0
 10
-83.05242411295571
 20
-80.41494513617621
 30
0.0
 10
-84.71571621365017
 20
-80.41494513617621
 30
0.0
 10
-84.71571621365017
 20
-80.41494513617621
 30
0.0
 10
-89.72626308865017
 20
-80.41494513617621
 30
0.0
 10
-89.72626308865017
 20
-80.41494513617621
 30
0.0
 10
-89.72626308865017
 20
-80.41494513617621
 30
0.0
 10
-92.73314242892794
 20
-77.40806579589843
 30
0.0
 10
-92.73314242892794
 20
-77.40806579589843
 30
0.0
  0
SPLINE
  5
1A2
100
AcDbEntity
  8
ALPHA
 62
     7
100
AcDbSpline
210
0.0
220
0.0
230
-1.0
 70
     8
 71
     3
 72
    32
 73
    28
 74
     0
 42
0.0000001
 43
0.0000001
 40
0.0
 40
0.0
 40
0.0
 40
0.0
 40
1.0
 40
1.0
 40
1.0
 40
2.0
 40
2.0
 40
2.0
 40
3.0
 40
3.0
 40
3.0
 40
4.0
 40
4.0
 40
4.0
 40
5.0
 40
5.0
 40
5.0
 40
6.0
 40
6.0
 40
6.0
 40
7.0
 40
7.0
 40
7.0
 40
8.0
 40
8.0
 40
8.0
 40
9.0
 40
9.0
 40
9.0
 40
9.0
 10
89.68311326768661
 20
15.07362772623697
 30
0.0
 10
89.68311326768661
 20
15.07362772623697
 30
0.0
 10
89.68311326768661
 20
12.06537034776475
 30
0.0
 10
89.68311326768661
 20
12.06537034776475
 30
0.0
 10
89.68311326768661
 20
11.5086429172092
 30
0.0
 10
90.12959764268662
 20
11.0621585422092
 30
0.0
 10
90.68219095865885
 20
11.0621585422092
 30
0.0
 10
90.68219095865885
 20
11.0621585422092
 30
0.0
 10
104.7188880072699
 20
11.0621585422092
 30
0.0
 10
104.7188880072699
 20
11.0621585422092
 30
0.0
 10
105.2714813232421
 20
11.0621585422092
 30
0.0
 10
105.7220998128254
 20
11.5086429172092
 30
0.0
 10
105.7220998128254
 20
12.06537034776475
 30
0.0
 10
105.7220998128254
 20
12.06537034776475
 30
0.0
 10
105.7220998128254
 20
24.09426574707031
 30
0.0
 10
105.7220998128254
 20
24.09426574707031
 30
0.0
 10
105.7220998128254
 20
24.64685906304253
 30
0.0
 10
105.2714813232421
 20
25.09334343804253
 30
0.0
 10
104.7188880072699
 20
25.09334343804253
 30
0.0
 10
104.7188880072699
 20
25.09334343804253
 30
0.0
 10
90.68219095865885
 20
25.09334343804253
 30
0.0
 10
90.68219095865885
 20
25.09334343804253
 30
0.0
 10
90.12959764268662
 20
25.09334343804253
 30
0.0
 10
89.68311326768661
 20
24.64685906304253
 30
0.0
 10
89.68311326768661
 20
24.09426574707031
 30
0.0
 10
89.68311326768661
 20
24.09426574707031
 30
0.0
 10
89.68311326768661
 20
21.08738640679253
 30
0.0
 10
89.68311326768661
 20
21.08738640679253
 30
0.0
  0
SPLINE
  5
1A3
100
AcDbEntity
  8
ALPHA
 62
     7
100
AcDbSpline
210
0.0
220
0.0
230
1.0
 70
    11
 71
     3
 72
    26
 73
    22
 74
     0
 42
0.0000001
 43
0.0000001
 40
0.0
 40
0.0
 40
0.0
 40
0.0
 40
1.0
 40
1.0
 40
1.0
 40
2.0
 40
2.0
 40
2.0
 40
3.0
 40
3.0
 40
3.0
 40
4.0
 40
4.0
 40
4.0
 40
5.0
 40
5.0
 40
5.0
 40
6.0
 40
6.0
 40
6.0
 40
7.0
 40
7.0
 40
7.0
 40
7.0
 10
92.69412672254773
 20
18.08050706651475
 30
0.0
 10
92.69412672254773
 20
18.08050706651475
 30
0.0
 10
89.68724738226995
 20
21.08738640679253
 30
0.0
 10
89.68724738226995
 20
21.08738640679253
 30
0.0
 10
89.68724738226995
 20
21.08738640679253
 30
0.0
 10
84.67256639268661
 20
21.08738640679253
 30
0.0
 10
84.67256639268661
 20
21.08738640679253
 30
0.0
 10
83.01478644476995
 20
21.08738640679253
 30
0.0
 10
81.66568705240884
 20
19.73828701443142
 30
0.0
 10
81.66568705240884
 20
18.08050706651475
 30
0.0
 10
81.66568705240884
 20
18.08050706651475
 30
0.0
 10
81.66568705240884
 20
18.08050706651475
 30
0.0
 10
81.66568705240884
 20
18.08050706651475
 30
0.0
 10
81.66568705240884
 20
16.41721496582031
 30
0.0
 10
83.01478644476995
 20
15.07362772623697
 30
0.0
 10
84.67256639268661
 20
15.07362772623697
 30
0.0
 10
84.67256639268661
 20
15.07362772623697
 30
0.0
 10
89.68724738226995
 20
15.07362772623697
 30
0.0
 10
89.68724738226995
 20
15.07362772623697
 30
0.0
 10
89.68724738226995
 20
15.07362772623697
 30
0.0
 10
92.69412672254773
 20
18.08050706651475
 30
0.0
 10
92.69412672254773
 20
18.08050706651475
 30
0.0
  0
SPLINE
  5
1A4
100
AcDbEntity
  8
ALPHA
 62
     7
100
AcDbSpline
210
0.0
220
0.0
230
-1.0
 70
     8
 71
     3
 72
    32
 73
    28
 74
     0
 42
0.0000001
 43
0.0000001
 40
0.0
 40
0.0
 40
0.0
 40
0.0
 40
1.0
 40
1.0
 40
1.0
 40
2.0
 40
2.0
 40
2.0
 40
3.0
 40
3.0
 40
3.0
 40
4.0
 40
4.0
 40
4.0
 40
5.0
 40
5.0
 40
5.0
 40
6.0
 40
6.0
 40
6.0
 40
7.0
 40
7.0
 40
7.0
 40
8.0
 40
8.0
 40
8.0
 40
9.0
 40
9.0
 40
9.0
 40
9.0
 10
89.68311326768661
 20
-4.024775865342881
 30
0.0
 10
89.68311326768661
 20
-4.024775865342881
 30
0.0
 10
89.68311326768661
 20
-7.031655205620658
 30
0.0
 10
89.68311326768661
 20
-7.031655205620658
 30
0.0
 10
89.68311326768661
 20
-7.589760674370658
 30
0.0
 10
90.12959764268662
 20
-8.036245049370659
 30
0.0
 10
90.68219095865885
 20
-8.036245049370659
 30
0.0
 10
90.68219095865885
 20
-8.036245049370659
 30
0.0
 10
104.7188880072699
 20
-8.036245049370659
 30
0.0
 10
104.7188880072699
 20
-8.036245049370659
 30
0.0
 10
105.2714813232421
 20
-8.036245049370659
 30
0.0
 10
105.7220998128254
 20
-7.589760674370658
 30
0.0
 10
105.7220998128254
 20
-7.031655205620658
 30
0.0
 10
105.7220998128254
 20
-7.031655205620658
 30
0.0
 10
105.7220998128254
 20
4.997240193684895
 30
0.0
 10
105.7220998128254
 20
4.997240193684895
 30
0.0
 10
105.7220998128254
 20
5.549833509657117
 30
0.0
 10
105.2714813232421
 20
5.996317884657117
 30
0.0
 10
104.7188880072699
 20
5.996317884657117
 30
0.0
 10
104.7188880072699
 20
5.996317884657117
 30
0.0
 10
90.68219095865885
 20
5.996317884657117
 30
0.0
 10
90.68219095865885
 20
5.996317884657117
 30
0.0
 10
90.12959764268662
 20
5.996317884657117
 30
0.0
 10
89.68311326768661
 20
5.549833509657117
 30
0.0
 10
89.68311326768661
 20
4.997240193684895
 30
0.0
 10
89.68311326768661
 20
4.997240193684895
 30
0.0
 10
89.68311326768661
 20
1.988982815212673
 30
0.0
 10
89.68311326768661
 20
1.988982815212673
 30
0.0
  0
SPLINE
  5
1A5
100
AcDbEntity
  8
ALPHA
 62
     7
100
AcDbSpline
210
0.0
220
0.0
230
1.0
 70
    11
 71
     3
 72
    26
 73
    22
 74
     0
 42
0.0000001
 43
0.0000001
 40
0.0
 40
0.0
 40
0.0
 40
0.0
 40
1.0
 40
1.0
 40
1.0
 40
2.0
 40
2.0
 40
2.0
 40
3.0
 40
3.0
 40
3.0
 40
4.0
 40
4.0
 40
4.0
 40
5.0
 40
5.0
 40
5.0
 40
6.0
 40
6.0
 40
6.0
 40
7.0
 40
7.0
 40
7.0
 40
7.0
 10
92.69412672254773
 20
-1.017896525065103
 30
0.0
 10
92.69412672254773
 20
-1.017896525065103
 30
0.0
 10
89.68724738226995
 20
1.988982815212673
 30
0.0
 10
89.68724738226995
 20
1.988982815212673
 30
0.0
 10
89.68724738226995
 20
1.988982815212673
 30
0.0
 10
84.67256639268661
 20
1.988982815212673
 30
0.0
 10
84.67256639268661
 20
1.988982815212673
 30
0.0
 10
83.01478644476995
 20
1.988982815212673
 30
0.0
 10
81.66568705240884
 20
0.6398834228515625
 30
0.0
 10
81.66568705240884
 20
-1.017896525065103
 30
0.0
 10
81.66568705240884
 20
-1.017896525065103
 30
0.0
 10
81.66568705240884
 20
-1.017896525065103
 30
0.0
 10
81.66568705240884
 20
-1.017896525065103
 30
0.0
 10
81.66568705240884
 20
-2.679810587565103
 30
0.0
 10
83.01478644476995
 20
-4.024775865342881
 30
0.0
 10
84.67256639268661
 20
-4.024775865342881
 30
0.0
 10
84.67256639268661
 20
-4.024775865342881
 30
0.0
 10
89.68724738226995
 20
-4.024775865342881
 30
0.0
 10
89.68724738226995
 20
-4.024775865342881
 30
0.0
 10
89.68724738226995
 20
-4.024775865342881
 30
0.0
 10
92.69412672254773
 20
-1.017896525065103
 30
0.0
 10
92.69412672254773
 20
-1.017896525065103
 30
0.0
  0
SPLINE
  5
1A6
100
AcDbEntity
  8
ALPHA
 62
     7
100
AcDbSpline
210
0.0
220
0.0
230
-1.0
 70
     8
 71
     3
 72
    32
 73
    28
 74
     0
 42
0.0000001
 43
0.0000001
 40
0.0
 40
0.0
 40
0.0
 40
0.0
 40
1.0
 40
1.0
 40
1.0
 40
2.0
 40
2.0
 40
2.0
 40
3.0
 40
3.0
 40
3.0
 40
4.0
 40
4.0
 40
4.0
 40
5.0
 40
5.0
 40
5.0
 40
6.0
 40
6.0
 40
6.0
 40
7.0
 40
7.0
 40
7.0
 40
8.0
 40
8.0
 40
8.0
 40
9.0
 40
9.0
 40
9.0
 40
9.0
 10
89.68311326768661
 20
-23.12300720214843
 30
0.0
 10
89.68311326768661
 20
-23.12300720214843
 30
0.0
 10
89.68311326768661
 20
-26.12988654242621
 30
0.0
 10
89.68311326768661
 20
-26.12988654242621
 30
0.0
 10
89.68311326768661
 20
-26.68661397298176
 30
0.0
 10
90.12959764268662
 20
-27.13309834798177
 30
0.0
 10
90.68219095865885
 20
-27.13309834798177
 30
0.0
 10
90.68219095865885
 20
-27.13309834798177
 30
0.0
 10
104.7188880072699
 20
-27.13309834798177
 30
0.0
 10
104.7188880072699
 20
-27.13309834798177
 30
0.0
 10
105.2714813232421
 20
-27.13309834798177
 30
0.0
 10
105.7220998128254
 20
-26.68661397298176
 30
0.0
 10
105.7220998128254
 20
-26.12988654242621
 30
0.0
 10
105.7220998128254
 20
-26.12988654242621
 30
0.0
 10
105.7220998128254
 20
-14.10099114312066
 30
0.0
 10
105.7220998128254
 20
-14.10099114312066
 30
0.0
 10
105.7220998128254
 20
-13.54839782714843
 30
0.0
 10
105.2714813232421
 20
-13.10191345214843
 30
0.0
 10
104.7188880072699
 20
-13.10191345214843
 30
0.0
 10
104.7188880072699
 20
-13.10191345214843
 30
0.0
 10
90.68219095865885
 20
-13.10191345214843
 30
0.0
 10
90.68219095865885
 20
-13.10191345214843
 30
0.0
 10
90.12959764268662
 20
-13.10191345214843
 30
0.0
 10
89.68311326768661
 20
-13.54839782714843
 30
0.0
 10
89.68311326768661
 20
-14.10099114312066
 30
0.0
 10
89.68311326768661
 20
-14.10099114312066
 30
0.0
 10
89.68311326768661
 20
-17.10787048339843
 30
0.0
 10
89.68311326768661
 20
-17.10787048339843
 30
0.0
  0
SPLINE
  5
1A7
100
AcDbEntity
  8
ALPHA
 62
     7
100
AcDbSpline
210
0.0
220
0.0
230
1.0
 70
    11
 71
     3
 72
    26
 73
    22
 74
     0
 42
0.0000001
 43
0.0000001
 40
0.0
 40
0.0
 40
0.0
 40
0.0
 40
1.0
 40
1.0
 40
1.0
 40
2.0
 40
2.0
 40
2.0
 40
3.0
 40
3.0
 40
3.0
 40
4.0
 40
4.0
 40
4.0
 40
5.0
 40
5.0
 40
5.0
 40
6.0
 40
6.0
 40
6.0
 40
7.0
 40
7.0
 40
7.0
 40
7.0
 10
92.69412672254773
 20
-20.11474982367621
 30
0.0
 10
92.69412672254773
 20
-20.11474982367621
 30
0.0
 10
89.68724738226995
 20
-17.10787048339843
 30
0.0
 10
89.68724738226995
 20
-17.10787048339843
 30
0.0
 10
89.68724738226995
 20
-17.10787048339843
 30
0.0
 10
84.67256639268661
 20
-17.10787048339843
 30
0.0
 10
84.67256639268661
 20
-17.10787048339843
 30
0.0
 10
83.01478644476995
 20
-17.10787048339843
 30
0.0
 10
81.66568705240884
 20
-18.45696987575954
 30
0.0
 10
81.66568705240884
 20
-20.11474982367621
 30
0.0
 10
81.66568705240884
 20
-20.11474982367621
 30
0.0
 10
81.66568705240884
 20
-20.11474982367621
 30
0.0
 10
81.66568705240884
 20
-20.11474982367621
 30
0.0
 10
81.66568705240884
 20
-21.77804192437065
 30
0.0
 10
83.01478644476995
 20
-23.12300720214843
 30
0.0
 10
84.67256639268661
 20
-23.12300720214843
 30
0.0
 10
84.67256639268661
 20
-23.12300720214843
 30
0.0
 10
89.68724738226995
 20
-23.12300720214843
 30
0.0
 10
89.68724738226995
 20
-23.12300720214843
 30
0.0
 10
89.68724738226995
 20
-23.12300720214843
 30
0.0
 10
92.69412672254773
 20
-20.11474982367621
 30
0.0
 10
92.69412672254773
 20
-20.11474982367621
 30
0.0
  0
SPLINE
  5
1A8
100
AcDbEntity
  8
ALPHA
 62
     7
100
AcDbSpline
210
0.0
220
0.0
230
-1.0
 70
     8
 71
     3
 72
    32
 73
    28
 74
     0
 42
0.0000001
 43
0.0000001
 40
0.0
 40
0.0
 40
0.0
 40
0.0
 40
1.0
 40
1.0
 40
1.0
 40
2.0
 40
2.0
 40
2.0
 40
3.0
 40
3.0
 40
3.0
 40
4.0
 40
4.0
 40
4.0
 40
5.0
 40
5.0
 40
5.0
 40
6.0
 40
6.0
 40
6.0
 40
7.0
 40
7.0
 40
7.0
 40
8.0
 40
8.0
 40
8.0
 40
9.0
 40
9.0
 40
9.0
 40
9.0
 10
89.68311326768661
 20
-42.21986050075954
 30
0.0
 10
89.68311326768661
 20
-42.21986050075954
 30
0.0
 10
89.68311326768661
 20
-45.22811787923177
 30
0.0
 10
89.68311326768661
 20
-45.22811787923177
 30
0.0
 10
89.68311326768661
 20
-45.78484530978732
 30
0.0
 10
90.12959764268662
 20
-46.23132968478731
 30
0.0
 10
90.68219095865885
 20
-46.23132968478731
 30
0.0
 10
90.68219095865885
 20
-46.23132968478731
 30
0.0
 10
104.7188880072699
 20
-46.23132968478731
 30
0.0
 10
104.7188880072699
 20
-46.23132968478731
 30
0.0
 10
105.2714813232421
 20
-46.23132968478731
 30
0.0
 10
105.7220998128254
 20
-45.78484530978732
 30
0.0
 10
105.7220998128254
 20
-45.22811787923177
 30
0.0
 10
105.7220998128254
 20
-45.22811787923177
 30
0.0
 10
105.7220998128254
 20
-33.19922247992621
 30
0.0
 10
105.7220998128254
 20
-33.19922247992621
 30
0.0
 10
105.7220998128254
 20
-32.64662916395399
 30
0.0
 10
105.2714813232421
 20
-32.19876675075954
 30
0.0
 10
104.7188880072699
 20
-32.19876675075954
 30
0.0
 10
104.7188880072699
 20
-32.19876675075954
 30
0.0
 10
90.68219095865885
 20
-32.19876675075954
 30
0.0
 10
90.68219095865885
 20
-32.19876675075954
 30
0.0
 10
90.12959764268662
 20
-32.19876675075954
 30
0.0
 10
89.68311326768661
 20
-32.64662916395399
 30
0.0
 10
89.68311326768661
 20
-33.19922247992621
 30
0.0
 10
89.68311326768661
 20
-33.19922247992621
 30
0.0
 10
89.68311326768661
 20
-36.20610182020399
 30
0.0
 10
89.68311326768661
 20
-36.20610182020399
 30
0.0
  0
SPLINE
  5
1A9
100
AcDbEntity
  8
ALPHA
 62
     7
100
AcDbSpline
210
0.0
220
0.0
230
1.0
 70
    11
 71
     3
 72
    26
 73
    22
 74
     0
 42
0.0000001
 43
0.0000001
 40
0.0
 40
0.0
 40
0.0
 40
0.0
 40
1.0
 40
1.0
 40
1.0
 40
2.0
 40
2.0
 40
2.0
 40
3.0
 40
3.0
 40
3.0
 40
4.0
 40
4.0
 40
4.0
 40
5.0
 40
5.0
 40
5.0
 40
6.0
 40
6.0
 40
6.0
 40
7.0
 40
7.0
 40
7.0
 40
7.0
 10
92.69412672254773
 20
-39.21298116048177
 30
0.0
 10
92.69412672254773
 20
-39.21298116048177
 30
0.0
 10
89.68724738226995
 20
-36.20610182020399
 30
0.0
 10
89.68724738226995
 20
-36.20610182020399
 30
0.0
 10
89.68724738226995
 20
-36.20610182020399
 30
0.0
 10
84.67256639268661
 20
-36.20610182020399
 30
0.0
 10
84.67256639268661
 20
-36.20610182020399
 30
0.0
 10
83.01478644476995
 20
-36.20610182020399
 30
0.0
 10
81.66568705240884
 20
-37.5552012125651
 30
0.0
 10
81.66568705240884
 20
-39.21298116048177
 30
0.0
 10
81.66568705240884
 20
-39.21298116048177
 30
0.0
 10
81.66568705240884
 20
-39.21298116048177
 30
0.0
 10
81.66568705240884
 20
-39.21298116048177
 30
0.0
 10
81.66568705240884
 20
-40.87489522298176
 30
0.0
 10
83.01478644476995
 20
-42.21986050075954
 30
0.0
 10
84.67256639268661
 20
-42.21986050075954
 30
0.0
 10
84.67256639268661
 20
-42.21986050075954
 30
0.0
 10
89.68724738226995
 20
-42.21986050075954
 30
0.0
 10
89.68724738226995
 20
-42.21986050075954
 30
0.0
 10
89.68724738226995
 20
-42.21986050075954
 30
0.0
 10
92.69412672254773
 20
-39.21298116048177
 30
0.0
 10
92.69412672254773
 20
-39.21298116048177
 30
0.0
  0
SPLINE
  5
1AA
100
AcDbEntity
  8
ALPHA
 62
     7
100
AcDbSpline
210
0.0
220
0.0
230
-1.0
 70
     8
 71
     3
 72
    32
 73
    28
 74
     0
 42
0.0000001
 43
0.0000001
 40
0.0
 40
0.0
 40
0.0
 40
0.0
 40
1.0
 40
1.0
 40
1.0
 40
2.0
 40
2.0
 40
2.0
 40
3.0
 40
3.0
 40
3.0
 40
4.0
 40
4.0
 40
4.0
 40
5.0
 40
5.0
 40
5.0
 40
6.0
 40
6.0
 40
6.0
 40
7.0
 40
7.0
 40
7.0
 40
8.0
 40
8.0
 40
8.0
 40
9.0
 40
9.0
 40
9.0
 40
9.0
 10
89.68311326768661
 20
-61.3180918375651
 30
0.0
 10
89.68311326768661
 20
-61.3180918375651
 30
0.0
 10
89.68311326768661
 20
-64.32497117784286
 30
0.0
 10
89.68311326768661
 20
-64.32497117784286
 30
0.0
 10
89.68311326768661
 20
-64.88169860839843
 30
0.0
 10
90.12959764268662
 20
-65.32956102159288
 30
0.0
 10
90.68219095865885
 20
-65.32956102159288
 30
0.0
 10
90.68219095865885
 20
-65.32956102159288
 30
0.0
 10
104.7188880072699
 20
-65.32956102159288
 30
0.0
 10
104.7188880072699
 20
-65.32956102159288
 30
0.0
 10
105.2714813232421
 20
-65.32956102159288
 30
0.0
 10
105.7220998128254
 20
-64.88169860839843
 30
0.0
 10
105.7220998128254
 20
-64.32497117784286
 30
0.0
 10
105.7220998128254
 20
-64.32497117784286
 30
0.0
 10
105.7220998128254
 20
-52.29607577853732
 30
0.0
 10
105.7220998128254
 20
-52.29607577853732
 30
0.0
 10
105.7220998128254
 20
-51.7434824625651
 30
0.0
 10
105.2714813232421
 20
-51.2969980875651
 30
0.0
 10
104.7188880072699
 20
-51.2969980875651
 30
0.0
 10
104.7188880072699
 20
-51.2969980875651
 30
0.0
 10
90.68219095865885
 20
-51.2969980875651
 30
0.0
 10
90.68219095865885
 20
-51.2969980875651
 30
0.0
 10
90.12959764268662
 20
-51.2969980875651
 30
0.0
 10
89.68311326768661
 20
-51.7434824625651
 30
0.0
 10
89.68311326768661
 20
-52.29607577853732
 30
0.0
 10
89.68311326768661
 20
-52.29607577853732
 30
0.0
 10
89.68311326768661
 20
-55.3029551188151
 30
0.0
 10
89.68311326768661
 20
-55.3029551188151
 30
0.0
  0
SPLINE
  5
1AB
100
AcDbEntity
  8
ALPHA
 62
     7
100
AcDbSpline
210
0.0
220
0.0
230
1.0
 70
    11
 71
     3
 72
    26
 73
    22
 74
     0
 42
0.0000001
 43
0.0000001
 40
0.0
 40
0.0
 40
0.0
 40
0.0
 40
1.0
 40
1.0
 40
1.0
 40
2.0
 40
2.0
 40
2.0
 40
3.0
 40
3.0
 40
3.0
 40
4.0
 40
4.0
 40
4.0
 40
5.0
 40
5.0
 40
5.0
 40
6.0
 40
6.0
 40
6.0
 40
7.0
 40
7.0
 40
7.0
 40
7.0
 10
92.69412672254773
 20
-58.31121249728732
 30
0.0
 10
92.69412672254773
 20
-58.31121249728732
 30
0.0
 10
89.68724738226995
 20
-55.3029551188151
 30
0.0
 10
89.68724738226995
 20
-55.3029551188151
 30
0.0
 10
89.68724738226995
 20
-55.3029551188151
 30
0.0
 10
84.67256639268661
 20
-55.3029551188151
 30
0.0
 10
84.67256639268661
 20
-55.3029551188151
 30
0.0
 10
83.01478644476995
 20
-55.3029551188151
 30
0.0
 10
81.66568705240884
 20
-56.65343254937066
 30
0.0
 10
81.66568705240884
 20
-58.31121249728732
 30
0.0
 10
81.66568705240884
 20
-58.31121249728732
 30
0.0
 10
81.66568705240884
 20
-58.31121249728732
 30
0.0
 10
81.66568705240884
 20
-58.31121249728732
 30
0.0
 10
81.66568705240884
 20
-59.97312655978731
 30
0.0
 10
83.01478644476995
 20
-61.3180918375651
 30
0.0
 10
84.67256639268661
 20
-61.3180918375651
 30
0.0
 10
84.67256639268661
 20
-61.3180918375651
 30
0.0
 10
89.68724738226995
 20
-61.3180918375651
 30
0.0
 10
89.68724738226995
 20
-61.3180918375651
 30
0.0
 10
89.68724738226995
 20
-61.3180918375651
 30
0.0
 10
92.69412672254773
 20
-58.31121249728732
 30
0.0
 10
92.69412672254773
 20
-58.31121249728732
 30
0.0
  0
SPLINE
  5
1AC
100
AcDbEntity
  8
ALPHA
 62
     7
100
AcDbSpline
210
0.0
220
0.0
230
-1.0
 70
     8
 71
     3
 72
    32
 73
    28
 74
     0
 42
0.0000001
 43
0.0000001
 40
0.0
 40
0.0
 40
0.0
 40
0.0
 40
1.0
 40
1.0
 40
1.0
 40
2.0
 40
2.0
 40
2.0
 40
3.0
 40
3.0
 40
3.0
 40
4.0
 40
4.0
 40
4.0
 40
5.0
 40
5.0
 40
5.0
 40
6.0
 40
6.0
 40
6.0
 40
7.0
 40
7.0
 40
7.0
 40
8.0
 40
8.0
 40
8.0
 40
9.0
 40
9.0
 40
9.0
 40
9.0
 10
89.68311326768661
 20
-80.41494513617621
 30
0.0
 10
89.68311326768661
 20
-80.41494513617621
 30
0.0
 10
89.68311326768661
 20
-83.42320251464842
 30
0.0
 10
89.68311326768661
 20
-83.42320251464842
 30
0.0
 10
89.68311326768661
 20
-83.97992994520398
 30
0.0
 10
90.12959764268662
 20
-84.42641432020399
 30
0.0
 10
90.68219095865885
 20
-84.42641432020399
 30
0.0
 10
90.68219095865885
 20
-84.42641432020399
 30
0.0
 10
104.7188880072699
 20
-84.42641432020399
 30
0.0
 10
104.7188880072699
 20
-84.42641432020399
 30
0.0
 10
105.2714813232421
 20
-84.42641432020399
 30
0.0
 10
105.7220998128254
 20
-83.97992994520398
 30
0.0
 10
105.7220998128254
 20
-83.42320251464842
 30
0.0
 10
105.7220998128254
 20
-83.42320251464842
 30
0.0
 10
105.7220998128254
 20
-71.39430711534287
 30
0.0
 10
105.7220998128254
 20
-71.39430711534287
 30
0.0
 10
105.7220998128254
 20
-70.84171379937065
 30
0.0
 10
105.2714813232421
 20
-70.39522942437065
 30
0.0
 10
104.7188880072699
 20
-70.39522942437065
 30
0.0
 10
104.7188880072699
 20
-70.39522942437065
 30
0.0
 10
90.68219095865885
 20
-70.39522942437065
 30
0.0
 10
90.68219095865885
 20
-70.39522942437065
 30
0.0
 10
90.12959764268662
 20
-70.39522942437065
 30
0.0
 10
89.68311326768661
 20
-70.84171379937065
 30
0.0
 10
89.68311326768661
 20
-71.39430711534287
 30
0.0
 10
89.68311326768661
 20
-71.39430711534287
 30
0.0
 10
89.68311326768661
 20
-74.40118645562065
 30
0.0
 10
89.68311326768661
 20
-74.40118645562065
 30
0.0
  0
SPLINE
  5
1AD
100
AcDbEntity
  8
ALPHA
 62
     7
100
AcDbSpline
210
0.0
220
0.0
230
1.0
 70
    11
 71
     3
 72
    26
 73
    22
 74
     0
 42
0.0000001
 43
0.0000001
 40
0.0
 40
0.0
 40
0.0
 40
0.0
 40
1.0
 40
1.0
 40
1.0
 40
2.0
 40
2.0
 40
2.0
 40
3.0
 40
3.0
 40
3.0
 40
4.0
 40
4.0
 40
4.0
 40
5.0
 40
5.0
 40
5.0
 40
6.0
 40
6.0
 40
6.0
 40
7.0
 40
7.0
 40
7.0
 40
7.0
 10
92.69412672254773
 20
-77.40806579589843
 30
0.0
 10
92.69412672254773
 20
-77.40806579589843
 30
0.0
 10
89.68724738226995
 20
-74.40118645562065
 30
0.0
 10
89.68724738226995
 20
-74.40118645562065
 30
0.0
 10
89.68724738226995
 20
-74.40118645562065
 30
0.0
 10
84.67256639268661
 20
-74.40118645562065
 30
0.0
 10
84.67256639268661
 20
-74.40118645562065
 30
0.0
 10
83.01478644476995
 20
-74.40118645562065
 30
0.0
 10
81.66568705240884
 20
-75.75028584798175
 30
0.0
 10
81.66568705240884
 20
-77.40806579589843
 30
0.0
 10
81.66568705240884
 20
-77.40806579589843
 30
0.0
 10
81.66568705240884
 20
-77.40806579589843
 30
0.0
 10
81.66568705240884
 20
-77.40806579589843
 30
0.0
 10
81.66568705240884
 20
-79.07135789659287
 30
0.0
 10
83.01478644476995
 20
-80.41494513617621
 30
0.0
 10
84.67256639268661
 20
-80.41494513617621
 30
0.0
 10
84.67256639268661
 20
-80.41494513617621
 30
0.0
 10
89.68724738226995
 20
-80.41494513617621
 30
0.0
 10
89.68724738226995
 20
-80.41494513617621
 30
0.0
 10
89.68724738226995
 20
-80.41494513617621
 30
0.0
 10
92.69412672254773
 20
-77.40806579589843
 30
0.0
 10
92.69412672254773
 20
-77.40806579589843
 30
0.0
  0
SPLINE
  5
1AE
100
AcDbEntity
  8
ALPHA
 62
     7
100
AcDbSpline
210
0.0
220
0.0
230
-1.0
 70
     8
 71
     3
 72
    32
 73
    28
 74
     0
 42
0.0000001
 43
0.0000001
 40
0.0
 40
0.0
 40
0.0
 40
0.0
 40
1.0
 40
1.0
 40
1.0
 40
2.0
 40
2.0
 40
2.0
 40
3.0
 40
3.0
 40
3.0
 40
4.0
 40
4.0
 40
4.0
 40
5.0
 40
5.0
 40
5.0
 40
6.0
 40
6.0
 40
6.0
 40
7.0
 40
7.0
 40
7.0
 40
8.0
 40
8.0
 40
8.0
 40
9.0
 40
9.0
 40
9.0
 40
9.0
 10
127.7817352294921
 20
15.07362772623697
 30
0.0
 10
127.7817352294921
 20
15.07362772623697
 30
0.0
 10
127.7817352294921
 20
12.06537034776475
 30
0.0
 10
127.7817352294921
 20
12.06537034776475
 30
0.0
 10
127.7817352294921
 20
11.5086429172092
 30
0.0
 10
127.3352508544921
 20
11.0621585422092
 30
0.0
 10
126.7771453857421
 20
11.0621585422092
 30
0.0
 10
126.7771453857421
 20
11.0621585422092
 30
0.0
 10
112.7459604899088
 20
11.0621585422092
 30
0.0
 10
112.7459604899088
 20
11.0621585422092
 30
0.0
 10
112.1933671739366
 20
11.0621585422092
 30
0.0
 10
111.7413706461588
 20
11.5086429172092
 30
0.0
 10
111.7413706461588
 20
12.06537034776475
 30
0.0
 10
111.7413706461588
 20
12.06537034776475
 30
0.0
 10
111.7413706461588
 20
24.09426574707031
 30
0.0
 10
111.7413706461588
 20
24.09426574707031
 30
0.0
 10
111.7413706461588
 20
24.64685906304253
 30
0.0
 10
112.1933671739366
 20
25.09334343804253
 30
0.0
 10
112.7459604899088
 20
25.09334343804253
 30
0.0
 10
112.7459604899088
 20
25.09334343804253
 30
0.0
 10
126.7771453857421
 20
25.09334343804253
 30
0.0
 10
126.7771453857421
 20
25.09334343804253
 30
0.0
 10
127.3352508544921
 20
25.09334343804253
 30
0.0
 10
127.7817352294921
 20
24.64685906304253
 30
0.0
 10
127.7817352294921
 20
24.09426574707031
 30
0.0
 10
127.7817352294921
 20
24.09426574707031
 30
0.0
 10
127.7817352294921
 20
21.08738640679253
 30
0.0
 10
127.7817352294921
 20
21.08738640679253
 30
0.0
  0
SPLINE
  5
1AF
100
AcDbEntity
  8
ALPHA
 62
     7
100
AcDbSpline
210
0.0
220
0.0
230
1.0
 70
    11
 71
     3
 72
    26
 73
    22
 74
     0
 42
0.0000001
 43
0.0000001
 40
0.0
 40
0.0
 40
0.0
 40
0.0
 40
1.0
 40
1.0
 40
1.0
 40
2.0
 40
2.0
 40
2.0
 40
3.0
 40
3.0
 40
3.0
 40
4.0
 40
4.0
 40
4.0
 40
5.0
 40
5.0
 40
5.0
 40
6.0
 40
6.0
 40
6.0
 40
7.0
 40
7.0
 40
7.0
 40
7.0
 10
124.7693437364366
 20
18.08050706651475
 30
0.0
 10
124.7693437364366
 20
18.08050706651475
 30
0.0
 10
127.7776011149088
 20
21.08738640679253
 30
0.0
 10
127.7776011149088
 20
21.08738640679253
 30
0.0
 10
127.7776011149088
 20
21.08738640679253
 30
0.0
 10
132.7867699517144
 20
21.08738640679253
 30
0.0
 10
132.7867699517144
 20
21.08738640679253
 30
0.0
 10
134.4500620524088
 20
21.08738640679253
 30
0.0
 10
135.7950273301866
 20
19.73828701443142
 30
0.0
 10
135.7950273301866
 20
18.08050706651475
 30
0.0
 10
135.7950273301866
 20
18.08050706651475
 30
0.0
 10
135.7950273301866
 20
18.08050706651475
 30
0.0
 10
135.7950273301866
 20
18.08050706651475
 30
0.0
 10
135.7950273301866
 20
16.41721496582031
 30
0.0
 10
134.4500620524088
 20
15.07362772623697
 30
0.0
 10
132.7867699517144
 20
15.07362772623697
 30
0.0
 10
132.7867699517144
 20
15.07362772623697
 30
0.0
 10
127.7776011149088
 20
15.07362772623697
 30
0.0
 10
127.7776011149088
 20
15.07362772623697
 30
0.0
 10
127.7776011149088
 20
15.07362772623697
 30
0.0
 10
124.7693437364366
 20
18.08050706651475
 30
0.0
 10
124.7693437364366
 20
18.08050706651475
 30
0.0
  0
SPLINE
  5
1B0
100
AcDbEntity
  8
ALPHA
 62
     7
100
AcDbSpline
210
0.0
220
0.0
230
-1.0
 70
     8
 71
     3
 72
    32
 73
    28
 74
     0
 42
0.0000001
 43
0.0000001
 40
0.0
 40
0.0
 40
0.0
 40
0.0
 40
1.0
 40
1.0
 40
1.0
 40
2.0
 40
2.0
 40
2.0
 40
3.0
 40
3.0
 40
3.0
 40
4.0
 40
4.0
 40
4.0
 40
5.0
 40
5.0
 40
5.0
 40
6.0
 40
6.0
 40
6.0
 40
7.0
 40
7.0
 40
7.0
 40
8.0
 40
8.0
 40
8.0
 40
9.0
 40
9.0
 40
9.0
 40
9.0
 10
127.7817352294921
 20
-4.024775865342881
 30
0.0
 10
127.7817352294921
 20
-4.024775865342881
 30
0.0
 10
127.7817352294921
 20
-7.031655205620658
 30
0.0
 10
127.7817352294921
 20
-7.031655205620658
 30
0.0
 10
127.7817352294921
 20
-7.589760674370658
 30
0.0
 10
127.3352508544921
 20
-8.036245049370659
 30
0.0
 10
126.7771453857421
 20
-8.036245049370659
 30
0.0
 10
126.7771453857421
 20
-8.036245049370659
 30
0.0
 10
112.7459604899088
 20
-8.036245049370659
 30
0.0
 10
112.7459604899088
 20
-8.036245049370659
 30
0.0
 10
112.1933671739366
 20
-8.036245049370659
 30
0.0
 10
111.7413706461588
 20
-7.589760674370658
 30
0.0
 10
111.7413706461588
 20
-7.031655205620658
 30
0.0
 10
111.7413706461588
 20
-7.031655205620658
 30
0.0
 10
111.7413706461588
 20
4.997240193684895
 30
0.0
 10
111.7413706461588
 20
4.997240193684895
 30
0.0
 10
111.7413706461588
 20
5.549833509657117
 30
0.0
 10
112.1933671739366
 20
5.996317884657117
 30
0.0
 10
112.7459604899088
 20
5.996317884657117
 30
0.0
 10
112.7459604899088
 20
5.996317884657117
 30
0.0
 10
126.7771453857421
 20
5.996317884657117
 30
0.0
 10
126.7771453857421
 20
5.996317884657117
 30
0.0
 10
127.3352508544921
 20
5.996317884657117
 30
0.0
 10
127.7817352294921
 20
5.549833509657117
 30
0.0
 10
127.7817352294921
 20
4.997240193684895
 30
0.0
 10
127.7817352294921
 20
4.997240193684895
 30
0.0
 10
127.7817352294921
 20
1.988982815212673
 30
0.0
 10
127.7817352294921
 20
1.988982815212673
 30
0.0
  0
SPLINE
  5
1B1
100
AcDbEntity
  8
ALPHA
 62
     7
100
AcDbSpline
210
0.0
220
0.0
230
1.0
 70
    11
 71
     3
 72
    26
 73
    22
 74
     0
 42
0.0000001
 43
0.0000001
 40
0.0
 40
0.0
 40
0.0
 40
0.0
 40
1.0
 40
1.0
 40
1.0
 40
2.0
 40
2.0
 40
2.0
 40
3.0
 40
3.0
 40
3.0
 40
4.0
 40
4.0
 40
4.0
 40
5.0
 40
5.0
 40
5.0
 40
6.0
 40
6.0
 40
6.0
 40
7.0
 40
7.0
 40
7.0
 40
7.0
 10
124.7693437364366
 20
-1.017896525065103
 30
0.0
 10
124.7693437364366
 20
-1.017896525065103
 30
0.0
 10
127.7776011149088
 20
1.988982815212673
 30
0.0
 10
127.7776011149088
 20
1.988982815212673
 30
0.0
 10
127.7776011149088
 20
1.988982815212673
 30
0.0
 10
132.7867699517144
 20
1.988982815212673
 30
0.0
 10
132.7867699517144
 20
1.988982815212673
 30
0.0
 10
134.4500620524088
 20
1.988982815212673
 30
0.0
 10
135.7950273301866
 20
0.6398834228515625
 30
0.0
 10
135.7950273301866
 20
-1.017896525065103
 30
0.0
 10
135.7950273301866
 20
-1.017896525065103
 30
0.0
 10
135.7950273301866
 20
-1.017896525065103
 30
0.0
 10
135.7950273301866
 20
-1.017896525065103
 30
0.0
 10
135.7950273301866
 20
-2.679810587565103
 30
0.0
 10
134.4500620524088
 20
-4.024775865342881
 30
0.0
 10
132.7867699517144
 20
-4.024775865342881
 30
0.0
 10
132.7867699517144
 20
-4.024775865342881
 30
0.0
 10
127.7776011149088
 20
-4.024775865342881
 30
0.0
 10
127.7776011149088
 20
-4.024775865342881
 30
0.0
 10
127.7776011149088
 20
-4.024775865342881
 30
0.0
 10
124.7693437364366
 20
-1.017896525065103
 30
0.0
 10
124.7693437364366
 20
-1.017896525065103
 30
0.0
  0
SPLINE
  5
1B2
100
AcDbEntity
  8
ALPHA
 62
     7
100
AcDbSpline
210
0.0
220
0.0
230
-1.0
 70
     8
 71
     3
 72
    32
 73
    28
 74
     0
 42
0.0000001
 43
0.0000001
 40
0.0
 40
0.0
 40
0.0
 40
0.0
 40
1.0
 40
1.0
 40
1.0
 40
2.0
 40
2.0
 40
2.0
 40
3.0
 40
3.0
 40
3.0
 40
4.0
 40
4.0
 40
4.0
 40
5.0
 40
5.0
 40
5.0
 40
6.0
 40
6.0
 40
6.0
 40
7.0
 40
7.0
 40
7.0
 40
8.0
 40
8.0
 40
8.0
 40
9.0
 40
9.0
 40
9.0
 40
9.0
 10
127.7817352294921
 20
-23.12300720214843
 30
0.0
 10
127.7817352294921
 20
-23.12300720214843
 30
0.0
 10
127.7817352294921
 20
-26.12988654242621
 30
0.0
 10
127.7817352294921
 20
-26.12988654242621
 30
0.0
 10
127.7817352294921
 20
-26.68661397298176
 30
0.0
 10
127.3352508544921
 20
-27.13309834798177
 30
0.0
 10
126.7771453857421
 20
-27.13309834798177
 30
0.0
 10
126.7771453857421
 20
-27.13309834798177
 30
0.0
 10
112.7459604899088
 20
-27.13309834798177
 30
0.0
 10
112.7459604899088
 20
-27.13309834798177
 30
0.0
 10
112.1933671739366
 20
-27.13309834798177
 30
0.0
 10
111.7413706461588
 20
-26.68661397298176
 30
0.0
 10
111.7413706461588
 20
-26.12988654242621
 30
0.0
 10
111.7413706461588
 20
-26.12988654242621
 30
0.0
 10
111.7413706461588
 20
-14.10099114312066
 30
0.0
 10
111.7413706461588
 20
-14.10099114312066
 30
0.0
 10
111.7413706461588
 20
-13.54839782714843
 30
0.0
 10
112.1933671739366
 20
-13.10191345214843
 30
0.0
 10
112.7459604899088
 20
-13.10191345214843
 30
0.0
 10
112.7459604899088
 20
-13.10191345214843
 30
0.0
 10
126.7771453857421
 20
-13.10191345214843
 30
0.0
 10
126.7771453857421
 20
-13.10191345214843
 30
0.0
 10
127.3352508544921
 20
-13.10191345214843
 30
0.0
 10
127.7817352294921
 20
-13.54839782714843
 30
0.0
 10
127.7817352294921
 20
-14.10099114312066
 30
0.0
 10
127.7817352294921
 20
-14.10099114312066
 30
0.0
 10
127.7817352294921
 20
-17.10787048339843
 30
0.0
 10
127.7817352294921
 20
-17.10787048339843
 30
0.0
  0
SPLINE
  5
1B3
100
AcDbEntity
  8
ALPHA
 62
     7
100
AcDbSpline
210
0.0
220
0.0
230
1.0
 70
    11
 71
     3
 72
    26
 73
    22
 74
     0
 42
0.0000001
 43
0.0000001
 40
0.0
 40
0.0
 40
0.0
 40
0.0
 40
1.0
 40
1.0
 40
1.0
 40
2.0
 40
2.0
 40
2.0
 40
3.0
 40
3.0
 40
3.0
 40
4.0
 40
4.0
 40
4.0
 40
5.0
 40
5.0
 40
5.0
 40
6.0
 40
6.0
 40
6.0
 40
7.0
 40
7.0
 40
7.0
 40
7.0
 10
124.7693437364366
 20
-20.11474982367621
 30
0.0
 10
124.7693437364366
 20
-20.11474982367621
 30
0.0
 10
127.7776011149088
 20
-17.10787048339843
 30
0.0
 10
127.7776011149088
 20
-17.10787048339843
 30
0.0
 10
127.7776011149088
 20
-17.10787048339843
 30
0.0
 10
132.7867699517144
 20
-17.10787048339843
 30
0.0
 10
132.7867699517144
 20
-17.10787048339843
 30
0.0
 10
134.4500620524088
 20
-17.10787048339843
 30
0.0
 10
135.7950273301866
 20
-18.45696987575954
 30
0.0
 10
135.7950273301866
 20
-20.11474982367621
 30
0.0
 10
135.7950273301866
 20
-20.11474982367621
 30
0.0
 10
135.7950273301866
 20
-20.11474982367621
 30
0.0
 10
135.7950273301866
 20
-20.11474982367621
 30
0.0
 10
135.7950273301866
 20
-21.77804192437065
 30
0.0
 10
134.4500620524088
 20
-23.12300720214843
 30
0.0
 10
132.7867699517144
 20
-23.12300720214843
 30
0.0
 10
132.7867699517144
 20
-23.12300720214843
 30
0.0
 10
127.7776011149088
 20
-23.12300720214843
 30
0.0
 10
127.7776011149088
 20
-23.12300720214843
 30
0.0
 10
127.7776011149088
 20
-23.12300720214843
 30
0.0
 10
124.7693437364366
 20
-20.11474982367621
 30
0.0
 10
124.7693437364366
 20
-20.11474982367621
 30
0.0
  0
SPLINE
  5
1B4
100
AcDbEntity
  8
ALPHA
 62
     7
100
AcDbSpline
210
0.0
220
0.0
230
-1.0
 70
     8
 71
     3
 72
    32
 73
    28
 74
     0
 42
0.0000001
 43
0.0000001
 40
0.0
 40
0.0
 40
0.0
 40
0.0
 40
1.0
 40
1.0
 40
1.0
 40
2.0
 40
2.0
 40
2.0
 40
3.0
 40
3.0
 40
3.0
 40
4.0
 40
4.0
 40
4.0
 40
5.0
 40
5.0
 40
5.0
 40
6.0
 40
6.0
 40
6.0
 40
7.0
 40
7.0
 40
7.0
 40
8.0
 40
8.0
 40
8.0
 40
9.0
 40
9.0
 40
9.0
 40
9.0
 10
127.7817352294921
 20
-42.21986050075954
 30
0.0
 10
127.7817352294921
 20
-42.21986050075954
 30
0.0
 10
127.7817352294921
 20
-45.22811787923177
 30
0.0
 10
127.7817352294921
 20
-45.22811787923177
 30
0.0
 10
127.7817352294921
 20
-45.78484530978732
 30
0.0
 10
127.3352508544921
 20
-46.23132968478731
 30
0.0
 10
126.7771453857421
 20
-46.23132968478731
 30
0.0
 10
126.7771453857421
 20
-46.23132968478731
 30
0.0
 10
112.7459604899088
 20
-46.23132968478731
 30
0.0
 10
112.7459604899088
 20
-46.23132968478731
 30
0.0
 10
112.1933671739366
 20
-46.23132968478731
 30
0.0
 10
111.7413706461588
 20
-45.78484530978732
 30
0.0
 10
111.7413706461588
 20
-45.22811787923177
 30
0.0
 10
111.7413706461588
 20
-45.22811787923177
 30
0.0
 10
111.7413706461588
 20
-33.19922247992621
 30
0.0
 10
111.7413706461588
 20
-33.19922247992621
 30
0.0
 10
111.7413706461588
 20
-32.64662916395399
 30
0.0
 10
112.1933671739366
 20
-32.19876675075954
 30
0.0
 10
112.7459604899088
 20
-32.19876675075954
 30
0.0
 10
112.7459604899088
 20
-32.19876675075954
 30
0.0
 10
126.7771453857421
 20
-32.19876675075954
 30
0.0
 10
126.7771453857421
 20
-32.19876675075954
 30
0.0
 10
127.3352508544921
 20
-32.19876675075954
 30
0.0
 10
127.7817352294921
 20
-32.64662916395399
 30
0.0
 10
127.7817352294921
 20
-33.19922247992621
 30
0.0
 10
127.7817352294921
 20
-33.19922247992621
 30
0.0
 10
127.7817352294921
 20
-36.20610182020399
 30
0.0
 10
127.7817352294921
 20
-36.20610182020399
 30
0.0
  0
SPLINE
  5
1B5
100
AcDbEntity
  8
ALPHA
 62
     7
100
AcDbSpline
210
0.0
220
0.0
230
1.0
 70
    11
 71
     3
 72
    26
 73
    22
 74
     0
 42
0.0000001
 43
0.0000001
 40
0.0
 40
0.0
 40
0.0
 40
0.0
 40
1.0
 40
1.0
 40
1.0
 40
2.0
 40
2.0
 40
2.0
 40
3.0
 40
3.0
 40
3.0
 40
4.0
 40
4.0
 40
4.0
 40
5.0
 40
5.0
 40
5.0
 40
6.0
 40
6.0
 40
6.0
 40
7.0
 40
7.0
 40
7.0
 40
7.0
 10
124.7693437364366
 20
-39.21298116048177
 30
0.0
 10
124.7693437364366
 20
-39.21298116048177
 30
0.0
 10
127.7776011149088
 20
-36.20610182020399
 30
0.0
 10
127.7776011149088
 20
-36.20610182020399
 30
0.0
 10
127.7776011149088
 20
-36.20610182020399
 30
0.0
 10
132.7867699517144
 20
-36.20610182020399
 30
0.0
 10
132.7867699517144
 20
-36.20610182020399
 30
0.0
 10
134.4500620524088
 20
-36.20610182020399
 30
0.0
 10
135.7950273301866
 20
-37.5552012125651
 30
0.0
 10
135.7950273301866
 20
-39.21298116048177
 30
0.0
 10
135.7950273301866
 20
-39.21298116048177
 30
0.0
 10
135.7950273301866
 20
-39.21298116048177
 30
0.0
 10
135.7950273301866
 20
-39.21298116048177
 30
0.0
 10
135.7950273301866
 20
-40.87489522298176
 30
0.0
 10
134.4500620524088
 20
-42.21986050075954
 30
0.0
 10
132.7867699517144
 20
-42.21986050075954
 30
0.0
 10
132.7867699517144
 20
-42.21986050075954
 30
0.0
 10
127.7776011149088
 20
-42.21986050075954
 30
0.0
 10
127.7776011149088
 20
-42.21986050075954
 30
0.0
 10
127.7776011149088
 20
-42.21986050075954
 30
0.0
 10
124.7693437364366
 20
-39.21298116048177
 30
0.0
 10
124.7693437364366
 20
-39.21298116048177
 30
0.0
  0
SPLINE
  5
1B6
100
AcDbEntity
  8
ALPHA
 62
     7
100
AcDbSpline
210
0.0
220
0.0
230
-1.0
 70
     8
 71
     3
 72
    32
 73
    28
 74
     0
 42
0.0000001
 43
0.0000001
 40
0.0
 40
0.0
 40
0.0
 40
0.0
 40
1.0
 40
1.0
 40
1.0
 40
2.0
 40
2.0
 40
2.0
 40
3.0
 40
3.0
 40
3.0
 40
4.0
 40
4.0
 40
4.0
 40
5.0
 40
5.0
 40
5.0
 40
6.0
 40
6.0
 40
6.0
 40
7.0
 40
7.0
 40
7.0
 40
8.0
 40
8.0
 40
8.0
 40
9.0
 40
9.0
 40
9.0
 40
9.0
 10
127.7817352294921
 20
-61.3180918375651
 30
0.0
 10
127.7817352294921
 20
-61.3180918375651
 30
0.0
 10
127.7817352294921
 20
-64.32497117784286
 30
0.0
 10
127.7817352294921
 20
-64.32497117784286
 30
0.0
 10
127.7817352294921
 20
-64.88169860839843
 30
0.0
 10
127.3352508544921
 20
-65.32956102159288
 30
0.0
 10
126.7771453857421
 20
-65.32956102159288
 30
0.0
 10
126.7771453857421
 20
-65.32956102159288
 30
0.0
 10
112.7459604899088
 20
-65.32956102159288
 30
0.0
 10
112.7459604899088
 20
-65.32956102159288
 30
0.0
 10
112.1933671739366
 20
-65.32956102159288
 30
0.0
 10
111.7413706461588
 20
-64.88169860839843
 30
0.0
 10
111.7413706461588
 20
-64.32497117784286
 30
0.0
 10
111.7413706461588
 20
-64.32497117784286
 30
0.0
 10
111.7413706461588
 20
-52.29607577853732
 30
0.0
 10
111.7413706461588
 20
-52.29607577853732
 30
0.0
 10
111.7413706461588
 20
-51.7434824625651
 30
0.0
 10
112.1933671739366
 20
-51.2969980875651
 30
0.0
 10
112.7459604899088
 20
-51.2969980875651
 30
0.0
 10
112.7459604899088
 20
-51.2969980875651
 30
0.0
 10
126.7771453857421
 20
-51.2969980875651
 30
0.0
 10
126.7771453857421
 20
-51.2969980875651
 30
0.0
 10
127.3352508544921
 20
-51.2969980875651
 30
0.0
 10
127.7817352294921
 20
-51.7434824625651
 30
0.0
 10
127.7817352294921
 20
-52.29607577853732
 30
0.0
 10
127.7817352294921
 20
-52.29607577853732
 30
0.0
 10
127.7817352294921
 20
-55.3029551188151
 30
0.0
 10
127.7817352294921
 20
-55.3029551188151
 30
0.0
  0
SPLINE
  5
1B7
100
AcDbEntity
  8
ALPHA
 62
     7
100
AcDbSpline
210
0.0
220
0.0
230
1.0
 70
    11
 71
     3
 72
    26
 73
    22
 74
     0
 42
0.0000001
 43
0.0000001
 40
0.0
 40
0.0
 40
0.0
 40
0.0
 40
1.0
 40
1.0
 40
1.0
 40
2.0
 40
2.0
 40
2.0
 40
3.0
 40
3.0
 40
3.0
 40
4.0
 40
4.0
 40
4.0
 40
5.0
 40
5.0
 40
5.0
 40
6.0
 40
6.0
 40
6.0
 40
7.0
 40
7.0
 40
7.0
 40
7.0
 10
124.7693437364366
 20
-58.31121249728732
 30
0.0
 10
124.7693437364366
 20
-58.31121249728732
 30
0.0
 10
127.7776011149088
 20
-55.3029551188151
 30
0.0
 10
127.7776011149088
 20
-55.3029551188151
 30
0.0
 10
127.7776011149088
 20
-55.3029551188151
 30
0.0
 10
132.7867699517144
 20
-55.3029551188151
 30
0.0
 10
132.7867699517144
 20
-55.3029551188151
 30
0.0
 10
134.4500620524088
 20
-55.3029551188151
 30
0.0
 10
135.7950273301866
 20
-56.65343254937066
 30
0.0
 10
135.7950273301866
 20
-58.31121249728732
 30
0.0
 10
135.7950273301866
 20
-58.31121249728732
 30
0.0
 10
135.7950273301866
 20
-58.31121249728732
 30
0.0
 10
135.7950273301866
 20
-58.31121249728732
 30
0.0
 10
135.7950273301866
 20
-59.97312655978731
 30
0.0
 10
134.4500620524088
 20
-61.3180918375651
 30
0.0
 10
132.7867699517144
 20
-61.3180918375651
 30
0.0
 10
132.7867699517144
 20
-61.3180918375651
 30
0.0
 10
127.7776011149088
 20
-61.3180918375651
 30
0.0
 10
127.7776011149088
 20
-61.3180918375651
 30
0.0
 10
127.7776011149088
 20
-61.3180918375651
 30
0.0
 10
124.7693437364366
 20
-58.31121249728732
 30
0.0
 10
124.7693437364366
 20
-58.31121249728732
 30
0.0
  0
SPLINE
  5
1B8
100
AcDbEntity
  8
ALPHA
 62
     7
100
AcDbSpline
210
0.0
220
0.0
230
-1.0
 70
     8
 71
     3
 72
    32
 73
    28
 74
     0
 42
0.0000001
 43
0.0000001
 40
0.0
 40
0.0
 40
0.0
 40
0.0
 40
1.0
 40
1.0
 40
1.0
 40
2.0
 40
2.0
 40
2.0
 40
3.0
 40
3.0
 40
3.0
 40
4.0
 40
4.0
 40
4.0
 40
5.0
 40
5.0
 40
5.0
 40
6.0
 40
6.0
 40
6.0
 40
7.0
 40
7.0
 40
7.0
 40
8.0
 40
8.0
 40
8.0
 40
9.0
 40
9.0
 40
9.0
 40
9.0
 10
127.7817352294921
 20
-80.41494513617621
 30
0.0
 10
127.7817352294921
 20
-80.41494513617621
 30
0.0
 10
127.7817352294921
 20
-83.42320251464842
 30
0.0
 10
127.7817352294921
 20
-83.42320251464842
 30
0.0
 10
127.7817352294921
 20
-83.97992994520398
 30
0.0
 10
127.3352508544921
 20
-84.42641432020399
 30
0.0
 10
126.7771453857421
 20
-84.42641432020399
 30
0.0
 10
126.7771453857421
 20
-84.42641432020399
 30
0.0
 10
112.7459604899088
 20
-84.42641432020399
 30
0.0
 10
112.7459604899088
 20
-84.42641432020399
 30
0.0
 10
112.1933671739366
 20
-84.42641432020399
 30
0.0
 10
111.7413706461588
 20
-83.97992994520398
 30
0.0
 10
111.7413706461588
 20
-83.42320251464842
 30
0.0
 10
111.7413706461588
 20
-83.42320251464842
 30
0.0
 10
111.7413706461588
 20
-71.39430711534287
 30
0.0
 10
111.7413706461588
 20
-71.39430711534287
 30
0.0
 10
111.7413706461588
 20
-70.84171379937065
 30
0.0
 10
112.1933671739366
 20
-70.39522942437065
 30
0.0
 10
112.7459604899088
 20
-70.39522942437065
 30
0.0
 10
112.7459604899088
 20
-70.39522942437065
 30
0.0
 10
126.7771453857421
 20
-70.39522942437065
 30
0.0
 10
126.7771453857421
 20
-70.39522942437065
 30
0.0
 10
127.3352508544921
 20
-70.39522942437065
 30
0.0
 10
127.7817352294921
 20
-70.84171379937065
 30
0.0
 10
127.7817352294921
 20
-71.39430711534287
 30
0.0
 10
127.7817352294921
 20
-71.39430711534287
 30
0.0
 10
127.7817352294921
 20
-74.40118645562065
 30
0.0
 10
127.7817352294921
 20
-74.40118645562065
 30
0.0
  0
SPLINE
  5
1B9
100
AcDbEntity
  8
ALPHA
 62
     7
100
AcDbSpline
210
0.0
220
0.0
230
1.0
 70
    11
 71
     3
 72
    26
 73
    22
 74
     0
 42
0.0000001
 43
0.0000001
 40
0.0
 40
0.0
 40
0.0
 40
0.0
 40
1.0
 40
1.0
 40
1.0
 40
2.0
 40
2.0
 40
2.0
 40
3.0
 40
3.0
 40
3.0
 40
4.0
 40
4.0
 40
4.0
 40
5.0
 40
5.0
 40
5.0
 40
6.0
 40
6.0
 40
6.0
 40
7.0
 40
7.0
 40
7.0
 40
7.0
 10
124.7693437364366
 20
-77.40806579589843
 30
0.0
 10
124.7693437364366
 20
-77.40806579589843
 30
0.0
 10
127.7776011149088
 20
-74.40118645562065
 30
0.0
 10
127.7776011149088
 20
-74.40118645562065
 30
0.0
 10
127.7776011149088
 20
-74.40118645562065
 30
0.0
 10
132.7867699517144
 20
-74.40118645562065
 30
0.0
 10
132.7867699517144
 20
-74.40118645562065
 30
0.0
 10
134.4500620524088
 20
-74.40118645562065
 30
0.0
 10
135.7950273301866
 20
-75.75028584798175
 30
0.0
 10
135.7950273301866
 20
-77.40806579589843
 30
0.0
 10
135.7950273301866
 20
-77.40806579589843
 30
0.0
 10
135.7950273301866
 20
-77.40806579589843
 30
0.0
 10
135.7950273301866
 20
-77.40806579589843
 30
0.0
 10
135.7950273301866
 20
-79.07135789659287
 30
0.0
 10
134.4500620524088
 20
-80.41494513617621
 30
0.0
 10
132.7867699517144
 20
-80.41494513617621
 30
0.0
 10
132.7867699517144
 20
-80.41494513617621
 30
0.0
 10
127.7776011149088
 20
-80.41494513617621
 30
0.0
 10
127.7776011149088
 20
-80.41494513617621
 30
0.0
 10
127.7776011149088
 20
-80.41494513617621
 30
0.0
 10
124.7693437364366
 20
-77.40806579589843
 30
0.0
 10
124.7693437364366
 20
-77.40806579589843
 30
0.0
  0
POLYLINE
  5
1BA
100
AcDbEntity
  8
ALPHA
 62
     7
100
AcDb2dPolyline
 66
     1
 10
0.0
 20
0.0
 30
0.0
 70
     1
  0
VERTEX
  5
1BB
100
AcDbEntity
  8
ALPHA
 62
     7
100
AcDbVertex
100
AcDb2dVertex
 10
-53.427531
 20
-72.416811
 30
0.0
  0
VERTEX
  5
1BC
100
AcDbEntity
  8
ALPHA
 62
     7
100
AcDbVertex
100
AcDb2dVertex
 10
-53.427531
 20
-63.394795
 30
0.0
  0
VERTEX
  5
1BD
100
AcDbEntity
  8
ALPHA
 62
     7
100
AcDbVertex
100
AcDb2dVertex
 10
-68.468646
 20
-63.394795
 30
0.0
  0
VERTEX
  5
1BE
100
AcDbEntity
  8
ALPHA
 62
     7
100
AcDbVertex
100
AcDb2dVertex
 10
-68.468646
 20
-72.416811
 30
0.0
  0
SEQEND
  5
1BF
100
AcDbEntity
  8
ALPHA
 62
     7
  0
POLYLINE
  5
1C0
100
AcDbEntity
  8
ALPHA
 62
     7
100
AcDb2dPolyline
 66
     1
 10
0.0
 20
0.0
 30
0.0
 70
     1
  0
VERTEX
  5
1C1
100
AcDbEntity
  8
ALPHA
 62
     7
100
AcDbVertex
100
AcDb2dVertex
 10
-53.427531
 20
-34.221727
 30
0.0
  0
VERTEX
  5
1C2
100
AcDbEntity
  8
ALPHA
 62
     7
100
AcDbVertex
100
AcDb2dVertex
 10
-53.427531
 20
-25.199711
 30
0.0
  0
VERTEX
  5
1C3
100
AcDbEntity
  8
ALPHA
 62
     7
100
AcDbVertex
100
AcDb2dVertex
 10
-68.468646
 20
-25.199711
 30
0.0
  0
VERTEX
  5
1C4
100
AcDbEntity
  8
ALPHA
 62
     7
100
AcDbVertex
100
AcDb2dVertex
 10
-68.468646
 20
-34.221727
 30
0.0
  0
SEQEND
  5
1C5
100
AcDbEntity
  8
ALPHA
 62
     7
  0
POLYLINE
  5
1C6
100
AcDbEntity
  8
ALPHA
 62
     7
100
AcDb2dPolyline
 66
     1
 10
0.0
 20
0.0
 30
0.0
 70
     1
  0
VERTEX
  5
1C7
100
AcDbEntity
  8
ALPHA
 62
     7
100
AcDbVertex
100
AcDb2dVertex
 10
-34.330678
 20
-52.789413
 30
0.0
  0
VERTEX
  5
1C8
100
AcDbEntity
  8
ALPHA
 62
     7
100
AcDbVertex
100
AcDb2dVertex
 10
-34.330678
 20
-43.767397
 30
0.0
  0
VERTEX
  5
1C9
100
AcDbEntity
  8
ALPHA
 62
     7
100
AcDbVertex
100
AcDb2dVertex
 10
-49.370587
 20
-43.767397
 30
0.0
  0
VERTEX
  5
1CA
100
AcDbEntity
  8
ALPHA
 62
     7
100
AcDbVertex
100
AcDb2dVertex
 10
-49.370587
 20
-52.789413
 30
0.0
  0
SEQEND
  5
1CB
100
AcDbEntity
  8
ALPHA
 62
     7
  0
POLYLINE
  5
1CC
100
AcDbEntity
  8
ALPHA
 62
     7
100
AcDb2dPolyline
 66
     1
 10
0.0
 20
0.0
 30
0.0
 70
     1
  0
VERTEX
  5
1CD
100
AcDbEntity
  8
ALPHA
 62
     7
100
AcDbVertex
100
AcDb2dVertex
 10
-14.528269
 20
-34.221727
 30
0.0
  0
VERTEX
  5
1CE
100
AcDbEntity
  8
ALPHA
 62
     7
100
AcDbVertex
100
AcDb2dVertex
 10
-14.528269
 20
-25.199711
 30
0.0
  0
VERTEX
  5
1CF
100
AcDbEntity
  8
ALPHA
 62
     7
100
AcDbVertex
100
AcDb2dVertex
 10
-29.564044
 20
-25.199711
 30
0.0
  0
VERTEX
  5
1D0
100
AcDbEntity
  8
ALPHA
 62
     7
100
AcDbVertex
100
AcDb2dVertex
 10
-29.564044
 20
-34.221727
 30
0.0
  0
SEQEND
  5
1D1
100
AcDbEntity
  8
ALPHA
 62
     7
  0
POLYLINE
  5
1D2
100
AcDbEntity
  8
ALPHA
 62
     7
100
AcDb2dPolyline
 66
     1
 10
0.0
 20
0.0
 30
0.0
 70
     1
  0
VERTEX
  5
1D3
100
AcDbEntity
  8
ALPHA
 62
     7
100
AcDbVertex
100
AcDb2dVertex
 10
1.03805
 20
3.265046
 30
0.0
  0
VERTEX
  5
1D4
100
AcDbEntity
  8
ALPHA
 62
     7
100
AcDbVertex
100
AcDb2dVertex
 10
1.03805
 20
12.287234
 30
0.0
  0
VERTEX
  5
1D5
100
AcDbEntity
  8
ALPHA
 62
     7
100
AcDbVertex
100
AcDb2dVertex
 10
-14.003237
 20
12.287234
 30
0.0
  0
VERTEX
  5
1D6
100
AcDbEntity
  8
ALPHA
 62
     7
100
AcDbVertex
100
AcDb2dVertex
 10
-14.003237
 20
3.265046
 30
0.0
  0
SEQEND
  5
1D7
100
AcDbEntity
  8
ALPHA
 62
     7
  0
POLYLINE
  5
1D8
100
AcDbEntity
  8
ALPHA
 62
     7
100
AcDb2dPolyline
 66
     1
 10
0.0
 20
0.0
 30
0.0
 70
     1
  0
VERTEX
  5
1D9
100
AcDbEntity
  8
ALPHA
 62
     7
100
AcDbVertex
100
AcDb2dVertex
 10
22.254326
 20
3.265046
 30
0.0
  0
VERTEX
  5
1DA
100
AcDbEntity
  8
ALPHA
 62
     7
100
AcDbVertex
100
AcDb2dVertex
 10
22.254326
 20
12.287234
 30
0.0
  0
VERTEX
  5
1DB
100
AcDbEntity
  8
ALPHA
 62
     7
100
AcDbVertex
100
AcDb2dVertex
 10
7.218552
 20
12.287234
 30
0.0
  0
VERTEX
  5
1DC
100
AcDbEntity
  8
ALPHA
 62
     7
100
AcDbVertex
100
AcDb2dVertex
 10
7.218552
 20
3.265046
 30
0.0
  0
SEQEND
  5
1DD
100
AcDbEntity
  8
ALPHA
 62
     7
  0
POLYLINE
  5
1DE
100
AcDbEntity
  8
ALPHA
 62
     7
100
AcDb2dPolyline
 66
     1
 10
0.0
 20
0.0
 30
0.0
 70
     1
  0
VERTEX
  5
1DF
100
AcDbEntity
  8
ALPHA
 62
     7
100
AcDbVertex
100
AcDb2dVertex
 10
43.474737
 20
3.265046
 30
0.0
  0
VERTEX
  5
1E0
100
AcDbEntity
  8
ALPHA
 62
     7
100
AcDbVertex
100
AcDb2dVertex
 10
43.474737
 20
12.287234
 30
0.0
  0
VERTEX
  5
1E1
100
AcDbEntity
  8
ALPHA
 62
     7
100
AcDbVertex
100
AcDb2dVertex
 10
28.438962
 20
12.287234
 30
0.0
  0
VERTEX
  5
1E2
100
AcDbEntity
  8
ALPHA
 62
     7
100
AcDbVertex
100
AcDb2dVertex
 10
28.438962
 20
3.265046
 30
0.0
  0
SEQEND
  5
1E3
100
AcDbEntity
  8
ALPHA
 62
     7
  0
POLYLINE
  5
1E4
100
AcDbEntity
  8
ALPHA
 62
     7
100
AcDb2dPolyline
 66
     1
 10
0.0
 20
0.0
 30
0.0
 70
     1
  0
VERTEX
  5
1E5
100
AcDbEntity
  8
ALPHA
 62
     7
100
AcDbVertex
100
AcDb2dVertex
 10
64.695147
 20
3.265046
 30
0.0
  0
VERTEX
  5
1E6
100
AcDbEntity
  8
ALPHA
 62
     7
100
AcDbVertex
100
AcDb2dVertex
 10
64.695147
 20
12.287234
 30
0.0
  0
VERTEX
  5
1E7
100
AcDbEntity
  8
ALPHA
 62
     7
100
AcDbVertex
100
AcDb2dVertex
 10
49.659372
 20
12.287234
 30
0.0
  0
VERTEX
  5
1E8
100
AcDbEntity
  8
ALPHA
 62
     7
100
AcDbVertex
100
AcDb2dVertex
 10
49.659372
 20
3.265046
 30
0.0
  0
SEQEND
  5
1E9
100
AcDbEntity
  8
ALPHA
 62
     7
  0
POLYLINE
  5
1EA
100
AcDbEntity
  8
ALPHA
 62
     7
100
AcDb2dPolyline
 66
     1
 10
0.0
 20
0.0
 30
0.0
 70
     1
  0
VERTEX
  5
1EB
100
AcDbEntity
  8
ALPHA
 62
     7
100
AcDbVertex
100
AcDb2dVertex
 10
22.254326
 20
-73.125123
 30
0.0
  0
VERTEX
  5
1EC
100
AcDbEntity
  8
ALPHA
 62
     7
100
AcDbVertex
100
AcDb2dVertex
 10
22.254326
 20
-64.104485
 30
0.0
  0
VERTEX
  5
1ED
100
AcDbEntity
  8
ALPHA
 62
     7
100
AcDbVertex
100
AcDb2dVertex
 10
7.218552
 20
-64.104485
 30
0.0
  0
VERTEX
  5
1EE
100
AcDbEntity
  8
ALPHA
 62
     7
100
AcDbVertex
100
AcDb2dVertex
 10
7.218552
 20
-73.125123
 30
0.0
  0
SEQEND
  5
1EF
100
AcDbEntity
  8
ALPHA
 62
     7
  0
POLYLINE
  5
1F0
100
AcDbEntity
  8
ALPHA
 62
     7
100
AcDb2dPolyline
 66
     1
 10
0.0
 20
0.0
 30
0.0
 70
     1
  0
VERTEX
  5
1F1
100
AcDbEntity
  8
ALPHA
 62
     7
100
AcDbVertex
100
AcDb2dVertex
 10
43.474737
 20
-73.125123
 30
0.0
  0
VERTEX
  5
1F2
100
AcDbEntity
  8
ALPHA
 62
     7
100
AcDbVertex
100
AcDb2dVertex
 10
43.474737
 20
-64.104485
 30
0.0
  0
VERTEX
  5
1F3
100
AcDbEntity
  8
ALPHA
 62
     7
100
AcDbVertex
100
AcDb2dVertex
 10
28.438962
 20
-64.104485
 30
0.0
  0
VERTEX
  5
1F4
100
AcDbEntity
  8
ALPHA
 62
     7
100
AcDbVertex
100
AcDb2dVertex
 10
28.438962
 20
-73.125123
 30
0.0
  0
SEQEND
  5
1F5
100
AcDbEntity
  8
ALPHA
 62
     7
  0
POLYLINE
  5
1F6
100
AcDbEntity
  8
ALPHA
 62
     7
100
AcDb2dPolyline
 66
     1
 10
0.0
 20
0.0
 30
0.0
 70
     1
  0
VERTEX
  5
1F7
100
AcDbEntity
  8
ALPHA
 62
     7
100
AcDbVertex
100
AcDb2dVertex
 10
64.695147
 20
-73.125123
 30
0.0
  0
VERTEX
  5
1F8
100
AcDbEntity
  8
ALPHA
 62
     7
100
AcDbVertex
100
AcDb2dVertex
 10
64.695147
 20
-64.104485
 30
0.0
  0
VERTEX
  5
1F9
100
AcDbEntity
  8
ALPHA
 62
     7
100
AcDbVertex
100
AcDb2dVertex
 10
49.659372
 20
-64.104485
 30
0.0
  0
VERTEX
  5
1FA
100
AcDbEntity
  8
ALPHA
 62
     7
100
AcDbVertex
100
AcDb2dVertex
 10
49.659372
 20
-73.125123
 30
0.0
  0
SEQEND
  5
1FB
100
AcDbEntity
  8
ALPHA
 62
     7
  0
POLYLINE
  5
1FC
100
AcDbEntity
  8
ALPHA
 62
     7
100
AcDb2dPolyline
 66
     1
 10
0.0
 20
0.0
 30
0.0
 70
     1
  0
VERTEX
  5
1FD
100
AcDbEntity
  8
ALPHA
 62
     7
100
AcDbVertex
100
AcDb2dVertex
 10
22.254326
 20
-55.442137
 30
0.0
  0
VERTEX
  5
1FE
100
AcDbEntity
  8
ALPHA
 62
     7
100
AcDbVertex
100
AcDb2dVertex
 10
22.254326
 20
-46.420121
 30
0.0
  0
VERTEX
  5
1FF
100
AcDbEntity
  8
ALPHA
 62
     7
100
AcDbVertex
100
AcDb2dVertex
 10
7.218552
 20
-46.420121
 30
0.0
  0
VERTEX
  5
200
100
AcDbEntity
  8
ALPHA
 62
     7
100
AcDbVertex
100
AcDb2dVertex
 10
7.218552
 20
-55.442137
 30
0.0
  0
SEQEND
  5
201
100
AcDbEntity
  8
ALPHA
 62
     7
  0
POLYLINE
  5
202
100
AcDbEntity
  8
ALPHA
 62
     7
100
AcDb2dPolyline
 66
     1
 10
0.0
 20
0.0
 30
0.0
 70
     1
  0
VERTEX
  5
203
100
AcDbEntity
  8
ALPHA
 62
     7
100
AcDbVertex
100
AcDb2dVertex
 10
43.474737
 20
-55.442137
 30
0.0
  0
VERTEX
  5
204
100
AcDbEntity
  8
ALPHA
 62
     7
100
AcDbVertex
100
AcDb2dVertex
 10
43.474737
 20
-46.420121
 30
0.0
  0
VERTEX
  5
205
100
AcDbEntity
  8
ALPHA
 62
     7
100
AcDbVertex
100
AcDb2dVertex
 10
28.438962
 20
-46.420121
 30
0.0
  0
VERTEX
  5
206
100
AcDbEntity
  8
ALPHA
 62
     7
100
AcDbVertex
100
AcDb2dVertex
 10
28.438962
 20
-55.442137
 30
0.0
  0
SEQEND
  5
207
100
AcDbEntity
  8
ALPHA
 62
     7
  0
POLYLINE
  5
208
100
AcDbEntity
  8
ALPHA
 62
     7
100
AcDb2dPolyline
 66
     1
 10
0.0
 20
0.0
 30
0.0
 70
     1
  0
VERTEX
  5
209
100
AcDbEntity
  8
ALPHA
 62
     7
100
AcDbVertex
100
AcDb2dVertex
 10
64.695147
 20
-55.442137
 30
0.0
  0
VERTEX
  5
20A
100
AcDbEntity
  8
ALPHA
 62
     7
100
AcDbVertex
100
AcDb2dVertex
 10
64.695147
 20
-46.420121
 30
0.0
  0
VERTEX
  5
20B
100
AcDbEntity
  8
ALPHA
 62
     7
100
AcDbVertex
100
AcDb2dVertex
 10
49.659372
 20
-46.420121
 30
0.0
  0
VERTEX
  5
20C
100
AcDbEntity
  8
ALPHA
 62
     7
100
AcDbVertex
100
AcDb2dVertex
 10
49.659372
 20
-55.442137
 30
0.0
  0
SEQEND
  5
20D
100
AcDbEntity
  8
ALPHA
 62
     7
  0
POLYLINE
  5
20E
100
AcDbEntity
  8
ALPHA
 62
     7
100
AcDb2dPolyline
 66
     1
 10
0.0
 20
0.0
 30
0.0
 70
     1
  0
VERTEX
  5
20F
100
AcDbEntity
  8
ALPHA
 62
     7
100
AcDbVertex
100
AcDb2dVertex
 10
22.254326
 20
-35.98975
 30
0.0
  0
VERTEX
  5
210
100
AcDbEntity
  8
ALPHA
 62
     7
100
AcDbVertex
100
AcDb2dVertex
 10
22.254326
 20
-26.967734
 30
0.0
  0
VERTEX
  5
211
100
AcDbEntity
  8
ALPHA
 62
     7
100
AcDbVertex
100
AcDb2dVertex
 10
7.218552
 20
-26.967734
 30
0.0
  0
VERTEX
  5
212
100
AcDbEntity
  8
ALPHA
 62
     7
100
AcDbVertex
100
AcDb2dVertex
 10
7.218552
 20
-35.98975
 30
0.0
  0
SEQEND
  5
213
100
AcDbEntity
  8
ALPHA
 62
     7
  0
POLYLINE
  5
214
100
AcDbEntity
  8
ALPHA
 62
     7
100
AcDb2dPolyline
 66
     1
 10
0.0
 20
0.0
 30
0.0
 70
     1
  0
VERTEX
  5
215
100
AcDbEntity
  8
ALPHA
 62
     7
100
AcDbVertex
100
AcDb2dVertex
 10
43.474737
 20
-35.98975
 30
0.0
  0
VERTEX
  5
216
100
AcDbEntity
  8
ALPHA
 62
     7
100
AcDbVertex
100
AcDb2dVertex
 10
43.474737
 20
-26.967734
 30
0.0
  0
VERTEX
  5
217
100
AcDbEntity
  8
ALPHA
 62
     7
100
AcDbVertex
100
AcDb2dVertex
 10
28.438962
 20
-26.967734
 30
0.0
  0
VERTEX
  5
218
100
AcDbEntity
  8
ALPHA
 62
     7
100
AcDbVertex
100
AcDb2dVertex
 10
28.438962
 20
-35.98975
 30
0.0
  0
SEQEND
  5
219
100
AcDbEntity
  8
ALPHA
 62
     7
  0
POLYLINE
  5
21A
100
AcDbEntity
  8
ALPHA
 62
     7
100
AcDb2dPolyline
 66
     1
 10
0.0
 20
0.0
 30
0.0
 70
     1
  0
VERTEX
  5
21B
100
AcDbEntity
  8
ALPHA
 62
     7
100
AcDbVertex
100
AcDb2dVertex
 10
64.695147
 20
-35.98975
 30
0.0
  0
VERTEX
  5
21C
100
AcDbEntity
  8
ALPHA
 62
     7
100
AcDbVertex
100
AcDb2dVertex
 10
64.695147
 20
-26.967734
 30
0.0
  0
VERTEX
  5
21D
100
AcDbEntity
  8
ALPHA
 62
     7
100
AcDbVertex
100
AcDb2dVertex
 10
49.659372
 20
-26.967734
 30
0.0
  0
VERTEX
  5
21E
100
AcDbEntity
  8
ALPHA
 62
     7
100
AcDbVertex
100
AcDb2dVertex
 10
49.659372
 20
-35.98975
 30
0.0
  0
SEQEND
  5
21F
100
AcDbEntity
  8
ALPHA
 62
     7
  0
POLYLINE
  5
220
100
AcDbEntity
  8
ALPHA
 62
     7
100
AcDb2dPolyline
 66
     1
 10
0.0
 20
0.0
 30
0.0
 70
     1
  0
VERTEX
  5
221
100
AcDbEntity
  8
ALPHA
 62
     7
100
AcDbVertex
100
AcDb2dVertex
 10
22.254326
 20
-16.362352
 30
0.0
  0
VERTEX
  5
222
100
AcDbEntity
  8
ALPHA
 62
     7
100
AcDbVertex
100
AcDb2dVertex
 10
22.254326
 20
-7.340336
 30
0.0
  0
VERTEX
  5
223
100
AcDbEntity
  8
ALPHA
 62
     7
100
AcDbVertex
100
AcDb2dVertex
 10
7.218552
 20
-7.340336
 30
0.0
  0
VERTEX
  5
224
100
AcDbEntity
  8
ALPHA
 62
     7
100
AcDbVertex
100
AcDb2dVertex
 10
7.218552
 20
-16.362352
 30
0.0
  0
SEQEND
  5
225
100
AcDbEntity
  8
ALPHA
 62
     7
  0
POLYLINE
  5
226
100
AcDbEntity
  8
ALPHA
 62
     7
100
AcDb2dPolyline
 66
     1
 10
0.0
 20
0.0
 30
0.0
 70
     1
  0
VERTEX
  5
227
100
AcDbEntity
  8
ALPHA
 62
     7
100
AcDbVertex
100
AcDb2dVertex
 10
43.474737
 20
-16.362352
 30
0.0
  0
VERTEX
  5
228
100
AcDbEntity
  8
ALPHA
 62
     7
100
AcDbVertex
100
AcDb2dVertex
 10
43.474737
 20
-7.340336
 30
0.0
  0
VERTEX
  5
229
100
AcDbEntity
  8
ALPHA
 62
     7
100
AcDbVertex
100
AcDb2dVertex
 10
28.438962
 20
-7.340336
 30
0.0
  0
VERTEX
  5
22A
100
AcDbEntity
  8
ALPHA
 62
     7
100
AcDbVertex
100
AcDb2dVertex
 10
28.438962
 20
-16.362352
 30
0.0
  0
SEQEND
  5
22B
100
AcDbEntity
  8
ALPHA
 62
     7
  0
POLYLINE
  5
22C
100
AcDbEntity
  8
ALPHA
 62
     7
100
AcDb2dPolyline
 66
     1
 10
0.0
 20
0.0
 30
0.0
 70
     1
  0
VERTEX
  5
22D
100
AcDbEntity
  8
ALPHA
 62
     7
100
AcDbVertex
100
AcDb2dVertex
 10
64.695147
 20
-16.362352
 30
0.0
  0
VERTEX
  5
22E
100
AcDbEntity
  8
ALPHA
 62
     7
100
AcDbVertex
100
AcDb2dVertex
 10
64.695147
 20
-7.340336
 30
0.0
  0
VERTEX
  5
22F
100
AcDbEntity
  8
ALPHA
 62
     7
100
AcDbVertex
100
AcDb2dVertex
 10
49.659372
 20
-7.340336
 30
0.0
  0
VERTEX
  5
230
100
AcDbEntity
  8
ALPHA
 62
     7
100
AcDbVertex
100
AcDb2dVertex
 10
49.659372
 20
-16.362352
 30
0.0
  0
SEQEND
  5
231
100
AcDbEntity
  8
ALPHA
 62
     7
  0
ENDBLK
  5
233
100
AcDbEntity
  8
ALPHA
100
AcDbBlockEnd
  0
BLOCK
  5
37C
100
AcDbEntity
  8
ALPHA
 62
     7
100
AcDbBlockBegin
  2
AI9-BLK7
 70
     0
 10
0.0
 20
0.0
 30
0.0
  3
AI9-BLK7
  1

  0
HATCH
  5
37B
100
AcDbEntity
  8
ALPHA
 62
     7
100
AcDbHatch
 10
0.0
 20
0.0
 30
0.0
210
0.0
220
0.0
230
1.0
  2
SOLID
 70
     1
 71
     0
 91
        1
 92
        1
 93
        1
 72
     4
 94
        3
 73
     0
 74
     0
 95
       59
 96
       55
 40
0.0
 40
0.0
 40
0.0
 40
0.0
 40
1.0
 40
1.0
 40
1.0
 40
2.0
 40
2.0
 40
2.0
 40
3.0
 40
3.0
 40
3.0
 40
4.0
 40
4.0
 40
4.0
 40
5.0
 40
5.0
 40
5.0
 40
6.0
 40
6.0
 40
6.0
 40
7.0
 40
7.0
 40
7.0
 40
8.0
 40
8.0
 40
8.0
 40
9.0
 40
9.0
 40
9.0
 40
10.0
 40
10.0
 40
10.0
 40
11.0
 40
11.0
 40
11.0
 40
12.0
 40
12.0
 40
12.0
 40
13.0
 40
13.0
 40
13.0
 40
14.0
 40
14.0
 40
14.0
 40
15.0
 40
15.0
 40
15.0
 40
16.0
 40
16.0
 40
16.0
 40
17.0
 40
17.0
 40
17.0
 40
18.0
 40
18.0
 40
18.0
 40
18.0
 10
-0.073381
 20
0.079754
 10
-0.054949
 20
0.078376
 10
-0.038068
 20
0.078376
 10
-0.021015
 20
0.078376
 10
0.080443
 20
0.078376
 10
0.169326
 20
0.133325
 10
0.169326
 20
0.242018
 10
0.169326
 20
0.346404
 10
0.09319
 20
0.402904
 10
-0.00844
 20
0.402904
 10
-0.139699
 20
0.402904
 10
-0.196026
 20
0.302652
 10
-0.197404
 20
0.185518
 10
-0.197404
 20
0.185518
 10
-0.317466
 20
0.185518
 10
-0.317466
 20
0.185518
 10
-0.310403
 20
0.376032
 10
-0.208773
 20
0.508668
 10
-0.00844
 20
0.508668
 10
0.165192
 20
0.508668
 10
0.29645
 20
0.425469
 10
0.29645
 20
0.24064
 10
0.29645
 20
0.153134
 10
0.234266
 20
0.076826
 10
0.15813
 20
0.041686
 10
0.15813
 20
0.041686
 10
0.15813
 20
0.038757
 10
0.15813
 20
0.038757
 10
0.279397
 20
0.012058
 10
0.338653
 20
-0.08406
 10
0.338653
 20
-0.20395
 10
0.338653
 20
-0.404282
 10
0.182073
 20
-0.508668
 10
-0.005512
 20
-0.508668
 10
-0.208773
 20
-0.508668
 10
-0.342787
 20
-0.388779
 10
-0.338653
 20
-0.182762
 10
-0.338653
 20
-0.182762
 10
-0.218591
 20
-0.182762
 10
-0.218591
 20
-0.182762
 10
-0.214457
 20
-0.312642
 10
-0.142455
 20
-0.402904
 10
-0.005512
 20
-0.402904
 10
0.111621
 20
-0.402904
 10
0.211701
 20
-0.330901
 10
0.211701
 20
-0.209634
 10
0.211701
 20
-0.08406
 10
0.117133
 20
-0.017742
 10
-0.001378
 20
-0.017742
 10
-0.025321
 20
-0.017742
 10
-0.050815
 20
-0.01912
 10
-0.073381
 20
-0.021876
 10
-0.073381
 20
-0.021876
 10
-0.073381
 20
0.079754
 10
-0.073381
 20
0.079754
 97
        0
 75
     0
 76
     1
 98
        1
 10
0.0
 20
0.0
  0
ENDBLK
  5
37D
100
AcDbEntity
  8
ALPHA
100
AcDbBlockEnd
  0
BLOCK
  5
380
100
AcDbEntity
  8
ALPHA
 62
     7
100
AcDbBlockBegin
  2
AI9-BLK8
 70
     0
 10
0.0
 20
0.0
 30
0.0
  3
AI9-BLK8
  1

  0
HATCH
  5
37F
100
AcDbEntity
  8
ALPHA
 62
     7
100
AcDbHatch
 10
0.0
 20
0.0
 30
0.0
210
0.0
220
0.0
230
1.0
  2
SOLID
 70
     1
 71
     0
 91
        2
 92
       16
 93
        1
 72
     4
 94
        3
 73
     0
 74
     0
 95
       17
 96
       13
 40
0.0
 40
0.0
 40
0.0
 40
0.0
 40
1.0
 40
1.0
 40
1.0
 40
2.0
 40
2.0
 40
2.0
 40
3.0
 40
3.0
 40
3.0
 40
4.0
 40
4.0
 40
4.0
 40
4.0
 10
0.095343
 20
-0.160197
 10
0.095343
 20
-0.160197
 10
0.095343
 20
0.329523
 10
0.095343
 20
0.329523
 10
0.095343
 20
0.329523
 10
0.092415
 20
0.329523
 10
0.092415
 20
0.329523
 10
0.092415
 20
0.329523
 10
-0.240554
 20
-0.160197
 10
-0.240554
 20
-0.160197
 10
-0.240554
 20
-0.160197
 10
0.095343
 20
-0.160197
 10
0.095343
 20
-0.160197
 97
        0
 92
        1
 93
        1
 72
     4
 94
        3
 73
     0
 74
     0
 95
       38
 96
       34
 40
0.0
 40
0.0
 40
0.0
 40
0.0
 40
1.0
 40
1.0
 40
1.0
 40
2.0
 40
2.0
 40
2.0
 40
3.0
 40
3.0
 40
3.0
 40
4.0
 40
4.0
 40
4.0
 40
5.0
 40
5.0
 40
5.0
 40
6.0
 40
6.0
 40
6.0
 40
7.0
 40
7.0
 40
7.0
 40
8.0
 40
8.0
 40
8.0
 40
9.0
 40
9.0
 40
9.0
 40
10.0
 40
10.0
 40
10.0
 40
11.0
 40
11.0
 40
11.0
 40
11.0
 10
0.20817
 20
-0.160197
 10
0.20817
 20
-0.160197
 10
0.343562
 20
-0.160197
 10
0.343562
 20
-0.160197
 10
0.343562
 20
-0.160197
 10
0.343562
 20
-0.265961
 10
0.343562
 20
-0.265961
 10
0.343562
 20
-0.265961
 10
0.20817
 20
-0.265961
 10
0.20817
 20
-0.265961
 10
0.20817
 20
-0.265961
 10
0.20817
 20
-0.500228
 10
0.20817
 20
-0.500228
 10
0.20817
 20
-0.500228
 10
0.095343
 20
-0.500228
 10
0.095343
 20
-0.500228
 10
0.095343
 20
-0.500228
 10
0.095343
 20
-0.265961
 10
0.095343
 20
-0.265961
 10
0.095343
 20
-0.265961
 10
-0.343562
 20
-0.265961
 10
-0.343562
 20
-0.265961
 10
-0.343562
 20
-0.265961
 10
-0.343562
 20
-0.150206
 10
-0.343562
 20
-0.150206
 10
-0.343562
 20
-0.150206
 10
0.112224
 20
0.500228
 10
0.112224
 20
0.500228
 10
0.112224
 20
0.500228
 10
0.20817
 20
0.500228
 10
0.20817
 20
0.500228
 10
0.20817
 20
0.500228
 10
0.20817
 20
-0.160197
 10
0.20817
 20
-0.160197
 97
        0
 75
     0
 76
     1
 98
        1
 10
0.0
 20
0.0
  0
ENDBLK
  5
381
100
AcDbEntity
  8
ALPHA
100
AcDbBlockEnd
  0
BLOCK
  5
384
100
AcDbEntity
  8
ALPHA
 62
     7
100
AcDbBlockBegin
  2
AI9-BLK9
 70
     0
 10
0.0
 20
0.0
 30
0.0
  3
AI9-BLK9
  1

  0
HATCH
  5
383
100
AcDbEntity
  8
ALPHA
 62
     7
100
AcDbHatch
 10
0.0
 20
0.0
 30
0.0
210
0.0
220
0.0
230
1.0
  2
SOLID
 70
     1
 71
     0
 91
        1
 92
        1
 93
        1
 72
     4
 94
        3
 73
     0
 74
     0
 95
       26
 96
       22
 40
0.0
 40
0.0
 40
0.0
 40
0.0
 40
1.0
 40
1.0
 40
1.0
 40
2.0
 40
2.0
 40
2.0
 40
3.0
 40
3.0
 40
3.0
 40
4.0
 40
4.0
 40
4.0
 40
5.0
 40
5.0
 40
5.0
 40
6.0
 40
6.0
 40
6.0
 40
7.0
 40
7.0
 40
7.0
 40
7.0
 10
0.189825
 20
-0.500228
 10
0.189825
 20
-0.500228
 10
0.069935
 20
-0.500228
 10
0.069935
 20
-0.500228
 10
0.069935
 20
-0.500228
 10
0.069935
 20
0.216697
 10
0.069935
 20
0.216697
 10
0.069935
 20
0.216697
 10
-0.189825
 20
0.216697
 10
-0.189825
 20
0.216697
 10
-0.189825
 20
0.216697
 10
-0.189825
 20
0.312642
 10
-0.189825
 20
0.312642
 10
-0.052882
 20
0.312642
 10
0.071313
 20
0.349333
 10
0.098013
 20
0.500228
 10
0.098013
 20
0.500228
 10
0.189825
 20
0.500228
 10
0.189825
 20
0.500228
 10
0.189825
 20
0.500228
 10
0.189825
 20
-0.500228
 10
0.189825
 20
-0.500228
 97
        0
 75
     0
 76
     1
 98
        1
 10
0.0
 20
0.0
  0
ENDBLK
  5
385
100
AcDbEntity
  8
ALPHA
100
AcDbBlockEnd
  0
BLOCK
  5
7B8
100
AcDbEntity
  8
0
100
AcDbBlockBegin
  2
*D8
 70
     1
 10
0.0
 20
0.0
 30
0.0
  3
*D8
  1

  0
LINE
  5
7B9
100
AcDbEntity
  8
0
  6
BYBLOCK
 62
     0
100
AcDbLine
 10
8.259644
 20
116.649721
 30
0.0
 11
8.259644
 21
101.619293
 31
0.0
  0
LINE
  5
7BA
100
AcDbEntity
  8
0
  6
BYBLOCK
 62
     0
100
AcDbLine
 10
26.159644
 20
116.649721
 30
0.0
 11
26.159644
 21
101.619293
 31
0.0
  0
LINE
  5
7BB
100
AcDbEntity
  8
0
  6
BYBLOCK
 62
     0
100
AcDbLine
 10
11.259644
 20
101.799293
 30
0.0
 11
23.159644
 21
101.799293
 31
0.0
  0
SOLID
  5
7BC
100
AcDbEntity
  8
0
  6
BYBLOCK
 62
     0
100
AcDbTrace
 10
11.259644
 20
102.299293
 30
0.0
 11
11.259644
 21
101.299293
 31
0.0
 12
8.259644
 22
101.799293
 32
0.0
 13
8.259644
 23
101.799293
 33
0.0
  0
SOLID
  5
7BD
100
AcDbEntity
  8
0
  6
BYBLOCK
 62
     0
100
AcDbTrace
 10
23.159644
 20
102.299293
 30
0.0
 11
23.159644
 21
101.299293
 31
0.0
 12
26.159644
 22
101.799293
 32
0.0
 13
26.159644
 23
101.799293
 33
0.0
  0
MTEXT
  5
7BE
100
AcDbEntity
  8
0
  6
BYBLOCK
 62
     0
100
AcDbMText
 10
17.209644
 20
104.049293
 30
0.0
 40
2.5
 41
0.0
 71
     5
 72
     1
  1
\A1;17.9
  0
POINT
  5
7BF
100
AcDbEntity
  8
DEFPOINTS
  6
BYBLOCK
 62
     0
100
AcDbPoint
 10
8.259644
 20
116.712221
 30
0.0
  0
POINT
  5
7C0
100
AcDbEntity
  8
DEFPOINTS
  6
BYBLOCK
 62
     0
100
AcDbPoint
 10
26.159644
 20
116.712221
 30
0.0
  0
POINT
  5
7C1
100
AcDbEntity
  8
DEFPOINTS
  6
BYBLOCK
 62
     0
100
AcDbPoint
 10
26.159644
 20
101.799293
 30
0.0
  0
ENDBLK
  5
7C2
100
AcDbEntity
  8
0
100
AcDbBlockEnd
  0
ENDSEC
  0
SECTION
  2
ENTITIES
  0
INSERT
  5
CC
100
AcDbEntity
  8
0
100
AcDbBlockReference
  2
SCH_IS
 10
-68.718396
 20
-140.042541
 30
0.0
  0
INSERT
  5
EC
100
AcDbEntity
  8
COTATION1
100
AcDbBlockReference
  2
SCH_IS
 10
0.0
 20
0.0
 30
0.0
  0
LINE
  5
69E
100
AcDbEntity
  8
ALPHA
 62
   254
100
AcDbLine
 10
25.663419
 20
125.162293
 30
0.0
 11
26.113239
 21
122.661408
 31
0.0
  0
LINE
  5
69F
100
AcDbEntity
  8
ALPHA
 62
   254
100
AcDbLine
 10
26.171746
 20
125.67069
 30
0.0
 11
23.162488
 21
125.612185
 31
0.0
  0
LINE
  5
6A0
100
AcDbEntity
  8
ALPHA
 62
   254
100
AcDbLine
 10
26.113242
 20
110.762933
 30
0.0
 11
25.663413
 21
108.262004
 31
0.0
  0
LINE
  5
6A1
100
AcDbEntity
  8
ALPHA
 62
   254
100
AcDbLine
 10
23.162502
 20
107.812188
 30
0.0
 11
26.17176
 21
107.753682
 31
0.0
  0
LINE
  5
6A2
100
AcDbEntity
  8
ALPHA
 62
   254
100
AcDbLine
 10
26.171676
 20
125.670699
 30
0.0
 11
25.663402
 21
125.16212
 31
0.0
  0
LINE
  5
6A3
100
AcDbEntity
  8
ALPHA
 62
   254
100
AcDbLine
 10
25.663403
 20
108.262333
 30
0.0
 11
26.171667
 21
107.753764
 31
0.0
  0
LINE
  5
6A4
100
AcDbEntity
  8
AXE
  6
CENTERLINE
100
AcDbLine
 10
5.259644
 20
116.712221
 30
0.0
 11
29.159644
 21
116.712221
 31
0.0
  0
CIRCLE
  5
6A6
100
AcDbEntity
  8
ALPHA
100
AcDbCircle
 10
17.209644
 20
116.712221
 30
0.0
 40
8.95
  0
CIRCLE
  5
6A7
100
AcDbEntity
  8
ALPHA
100
AcDbCircle
 10
17.209644
 20
116.712221
 30
0.0
 40
5.5
  0
LINE
  5
6A8
100
AcDbEntity
  8
ALPHA
 62
   254
100
AcDbLine
 10
8.313235
 20
117.69019
 30
0.0
 11
8.313235
 21
122.661471
 31
0.0
  0
LINE
  5
6A9
100
AcDbEntity
  8
AXE
  6
CENTERLINE
100
AcDbLine
 10
17.209644
 20
104.762221
 30
0.0
 11
17.209644
 21
128.662221
 31
0.0
  0
POLYLINE
  5
6AA
100
AcDbEntity
  8
ALPHA
100
AcDb2dPolyline
 66
     1
 10
0.0
 20
0.0
 30
0.0
  0
VERTEX
  5
6AB
100
AcDbEntity
  8
ALPHA
100
AcDbVertex
100
AcDb2dVertex
 10
23.309644
 20
111.620705
 30
0.0
  0
VERTEX
  5
6AC
100
AcDbEntity
  8
ALPHA
100
AcDbVertex
100
AcDb2dVertex
 10
23.849836
 20
112.346775
 30
0.0
  0
VERTEX
  5
6AD
100
AcDbEntity
  8
ALPHA
100
AcDbVertex
100
AcDb2dVertex
 10
24.304485
 20
113.130092
 30
0.0
  0
VERTEX
  5
6AE
100
AcDbEntity
  8
ALPHA
100
AcDbVertex
100
AcDb2dVertex
 10
24.662641
 20
113.950985
 30
0.0
  0
VERTEX
  5
6AF
100
AcDbEntity
  8
ALPHA
100
AcDbVertex
100
AcDb2dVertex
 10
24.927551
 20
114.810606
 30
0.0
  0
VERTEX
  5
6B0
100
AcDbEntity
  8
ALPHA
100
AcDbVertex
100
AcDb2dVertex
 10
25.093785
 20
115.692388
 30
0.0
  0
VERTEX
  5
6B1
100
AcDbEntity
  8
ALPHA
100
AcDbVertex
100
AcDb2dVertex
 10
25.157753
 20
116.572224
 30
0.0
  0
VERTEX
  5
6B2
100
AcDbEntity
  8
ALPHA
100
AcDbVertex
100
AcDb2dVertex
 10
25.123961
 20
117.456672
 30
0.0
  0
VERTEX
  5
6B3
100
AcDbEntity
  8
ALPHA
100
AcDbVertex
100
AcDb2dVertex
 10
24.993103
 20
118.3288
 30
0.0
  0
VERTEX
  5
6B4
100
AcDbEntity
  8
ALPHA
100
AcDbVertex
100
AcDb2dVertex
 10
24.76783
 20
119.172079
 30
0.0
  0
VERTEX
  5
6B5
100
AcDbEntity
  8
ALPHA
100
AcDbVertex
100
AcDb2dVertex
 10
24.451036
 20
119.987412
 30
0.0
  0
VERTEX
  5
6B6
100
AcDbEntity
  8
ALPHA
100
AcDbVertex
100
AcDb2dVertex
 10
24.048773
 20
120.760095
 30
0.0
  0
VERTEX
  5
6B7
100
AcDbEntity
  8
ALPHA
100
AcDbVertex
100
AcDb2dVertex
 10
23.700131
 20
121.296931
 30
0.0
  0
VERTEX
  5
6B8
100
AcDbEntity
  8
ALPHA
100
AcDbVertex
100
AcDb2dVertex
 10
23.309644
 20
121.803738
 30
0.0
  0
SEQEND
  5
6B9
100
AcDbEntity
  8
ALPHA
  0
POLYLINE
  5
6BA
100
AcDbEntity
  8
ALPHA
100
AcDb2dPolyline
 66
     1
 10
0.0
 20
0.0
 30
0.0
  0
VERTEX
  5
6BB
100
AcDbEntity
  8
ALPHA
100
AcDbVertex
100
AcDb2dVertex
 10
11.109644
 20
121.803738
 30
0.0
  0
VERTEX
  5
6BC
100
AcDbEntity
  8
ALPHA
100
AcDbVertex
100
AcDb2dVertex
 10
11.02088
 20
121.69576
 30
0.0
  0
VERTEX
  5
6BD
100
AcDbEntity
  8
ALPHA
100
AcDbVertex
100
AcDb2dVertex
 10
10.498589
 20
120.967337
 30
0.0
  0
VERTEX
  5
6BE
100
AcDbEntity
  8
ALPHA
100
AcDbVertex
100
AcDb2dVertex
 10
10.059602
 20
120.181706
 30
0.0
  0
VERTEX
  5
6BF
100
AcDbEntity
  8
ALPHA
100
AcDbVertex
100
AcDb2dVertex
 10
9.712484
 20
119.353546
 30
0.0
  0
VERTEX
  5
6C0
100
AcDbEntity
  8
ALPHA
100
AcDbVertex
100
AcDb2dVertex
 10
9.463881
 20
118.497287
 30
0.0
  0
VERTEX
  5
6C1
100
AcDbEntity
  8
ALPHA
100
AcDbVertex
100
AcDb2dVertex
 10
9.311884
 20
117.614983
 30
0.0
  0
VERTEX
  5
6C2
100
AcDbEntity
  8
ALPHA
100
AcDbVertex
100
AcDb2dVertex
 10
9.259652
 20
116.723761
 30
0.0
  0
VERTEX
  5
6C3
100
AcDbEntity
  8
ALPHA
100
AcDbVertex
100
AcDb2dVertex
 10
9.307497
 20
115.848168
 30
0.0
  0
VERTEX
  5
6C4
100
AcDbEntity
  8
ALPHA
100
AcDbVertex
100
AcDb2dVertex
 10
9.451648
 20
114.980741
 30
0.0
  0
VERTEX
  5
6C5
100
AcDbEntity
  8
ALPHA
100
AcDbVertex
100
AcDb2dVertex
 10
9.689207
 20
114.13774
 30
0.0
  0
VERTEX
  5
6C6
100
AcDbEntity
  8
ALPHA
100
AcDbVertex
100
AcDb2dVertex
 10
10.018597
 20
113.328165
 30
0.0
  0
VERTEX
  5
6C7
100
AcDbEntity
  8
ALPHA
100
AcDbVertex
100
AcDb2dVertex
 10
10.43548
 20
112.557919
 30
0.0
  0
VERTEX
  5
6C8
100
AcDbEntity
  8
ALPHA
100
AcDbVertex
100
AcDb2dVertex
 10
10.932119
 20
111.840663
 30
0.0
  0
VERTEX
  5
6C9
100
AcDbEntity
  8
ALPHA
100
AcDbVertex
100
AcDb2dVertex
 10
11.109644
 20
111.620705
 30
0.0
  0
SEQEND
  5
6CA
100
AcDbEntity
  8
ALPHA
  0
ARC
  5
6CB
100
AcDbEntity
  8
ALPHA
100
AcDbCircle
 10
17.209644
 20
116.712221
 30
0.0
 40
7.63913
100
AcDbArc
 50
152.731088
 51
168.675968
  0
ARC
  5
6CC
100
AcDbEntity
  8
ALPHA
100
AcDbCircle
 10
17.209644
 20
116.712221
 30
0.0
 40
7.626087
100
AcDbArc
 50
152.680564
 51
168.656343
  0
CIRCLE
  5
6CD
100
AcDbEntity
  8
ALPHA
100
AcDbCircle
 10
17.209644
 20
116.712221
 30
0.0
 40
7.85
  0
CIRCLE
  5
6CE
100
AcDbEntity
  8
ALPHA
100
AcDbCircle
 10
17.209644
 20
116.712221
 30
0.0
 40
7.75
  0
ARC
  5
6CF
100
AcDbEntity
  8
ALPHA
100
AcDbCircle
 10
17.209644
 20
116.712221
 30
0.0
 40
7.65
100
AcDbArc
 50
107.104635
 51
252.895365
  0
ARC
  5
6D0
100
AcDbEntity
  8
ALPHA
100
AcDbCircle
 10
17.209644
 20
116.712221
 30
0.0
 40
7.65
100
AcDbArc
 50
287.104635
 51
72.895365
  0
ARC
  5
6D1
100
AcDbEntity
  8
ALPHA
100
AcDbCircle
 10
17.209644
 20
116.712221
 30
0.0
 40
7.626087
100
AcDbArc
 50
11.343657
 51
27.319436
  0
ARC
  5
6D2
100
AcDbEntity
  8
ALPHA
100
AcDbCircle
 10
17.209644
 20
116.712221
 30
0.0
 40
7.63913
100
AcDbArc
 50
11.324032
 51
27.268912
  0
LINE
  5
6D3
100
AcDbEntity
  8
ALPHA
 62
   254
100
AcDbLine
 10
8.254735
 20
107.753676
 30
0.0
 11
11.264009
 21
107.812182
 31
0.0
  0
LINE
  5
6D4
100
AcDbEntity
  8
ALPHA
 62
   254
100
AcDbLine
 10
11.264009
 20
107.812191
 30
0.0
 11
8.76308
 21
108.262019
 31
0.0
  0
POLYLINE
  5
6D5
100
AcDbEntity
  8
ALPHA
100
AcDb2dPolyline
 66
     1
 10
0.0
 20
0.0
 30
0.0
  0
VERTEX
  5
6D6
100
AcDbEntity
  8
ALPHA
100
AcDbVertex
100
AcDb2dVertex
 10
11.247012
 20
110.092708
 30
0.0
  0
VERTEX
  5
6D7
100
AcDbEntity
  8
ALPHA
100
AcDbVertex
100
AcDb2dVertex
 10
11.106791
 20
110.222328
 30
0.0
  0
VERTEX
  5
6D8
100
AcDbEntity
  8
ALPHA
100
AcDbVertex
100
AcDb2dVertex
 10
11.026148
 20
110.299811
 30
0.0
  0
VERTEX
  5
6D9
100
AcDbEntity
  8
ALPHA
100
AcDbVertex
100
AcDb2dVertex
 10
10.983859
 20
110.341575
 30
0.0
  0
VERTEX
  5
6DA
100
AcDbEntity
  8
ALPHA
100
AcDbVertex
100
AcDb2dVertex
 10
10.969529
 20
110.356376
 30
0.0
  0
SEQEND
  5
6DB
100
AcDbEntity
  8
ALPHA
  0
POLYLINE
  5
6DC
100
AcDbEntity
  8
ALPHA
100
AcDb2dPolyline
 66
     1
 10
0.0
 20
0.0
 30
0.0
  0
VERTEX
  5
6DD
100
AcDbEntity
  8
ALPHA
100
AcDbVertex
100
AcDb2dVertex
 10
11.309644
 20
110.499089
 30
0.0
  0
VERTEX
  5
6DE
100
AcDbEntity
  8
ALPHA
100
AcDbVertex
100
AcDb2dVertex
 10
11.301098
 20
110.441254
 30
0.0
  0
VERTEX
  5
6DF
100
AcDbEntity
  8
ALPHA
100
AcDbVertex
100
AcDb2dVertex
 10
11.276193
 20
110.388361
 30
0.0
  0
VERTEX
  5
6E0
100
AcDbEntity
  8
ALPHA
100
AcDbVertex
100
AcDb2dVertex
 10
11.237055
 20
110.34493
 30
0.0
  0
VERTEX
  5
6E1
100
AcDbEntity
  8
ALPHA
100
AcDbVertex
100
AcDb2dVertex
 10
11.18703
 20
110.314672
 30
0.0
  0
VERTEX
  5
6E2
100
AcDbEntity
  8
ALPHA
100
AcDbVertex
100
AcDb2dVertex
 10
11.130391
 20
110.300173
 30
0.0
  0
VERTEX
  5
6E3
100
AcDbEntity
  8
ALPHA
100
AcDbVertex
100
AcDb2dVertex
 10
11.07198
 20
110.302673
 30
0.0
  0
VERTEX
  5
6E4
100
AcDbEntity
  8
ALPHA
100
AcDbVertex
100
AcDb2dVertex
 10
11.016787
 20
110.321956
 30
0.0
  0
VERTEX
  5
6E5
100
AcDbEntity
  8
ALPHA
100
AcDbVertex
100
AcDb2dVertex
 10
10.969529
 20
110.356376
 30
0.0
  0
SEQEND
  5
6E6
100
AcDbEntity
  8
ALPHA
  0
LINE
  5
6E7
100
AcDbEntity
  8
ALPHA
 62
   254
100
AcDbLine
 10
8.313261
 20
110.762965
 30
0.0
 11
8.254755
 21
107.753692
 31
0.0
  0
LINE
  5
6E8
100
AcDbEntity
  8
ALPHA
 62
   254
100
AcDbLine
 10
8.25474
 20
107.753755
 30
0.0
 11
8.763015
 21
108.262335
 31
0.0
  0
LINE
  5
6E9
100
AcDbEntity
  8
ALPHA
 62
   254
100
AcDbLine
 10
8.313235
 20
110.763064
 30
0.0
 11
8.313235
 21
115.734253
 31
0.0
  0
ARC
  5
6EA
100
AcDbEntity
  8
ALPHA
100
AcDbCircle
 10
17.209644
 20
116.712221
 30
0.0
 40
7.626087
100
AcDbArc
 50
191.343657
 51
207.319436
  0
ARC
  5
6EB
100
AcDbEntity
  8
ALPHA
100
AcDbCircle
 10
17.209644
 20
116.712221
 30
0.0
 40
7.63913
100
AcDbArc
 50
191.324032
 51
207.268912
  0
LINE
  5
6EC
100
AcDbEntity
  8
ALPHA
 62
   254
100
AcDbLine
 10
8.763053
 20
108.262044
 30
0.0
 11
8.313225
 21
110.762973
 31
0.0
  0
LINE
  5
6ED
100
AcDbEntity
  8
ALPHA
 62
   254
100
AcDbLine
 10
10.764039
 20
108.312099
 30
0.0
 11
8.813432
 21
110.262706
 31
0.0
  0
LINE
  5
6EE
100
AcDbEntity
  8
ALPHA
100
AcDbLine
 10
10.419481
 20
113.212221
 30
0.0
 11
10.434158
 21
113.212221
 31
0.0
  0
LINE
  5
6EF
100
AcDbEntity
  8
ALPHA
100
AcDbLine
 10
9.719229
 20
115.212221
 30
0.0
 11
9.732532
 21
115.212221
 31
0.0
  0
LINE
  5
6F0
100
AcDbEntity
  8
ALPHA
100
AcDbLine
 10
9.719229
 20
118.212221
 30
0.0
 11
9.732532
 21
118.212221
 31
0.0
  0
LINE
  5
6F1
100
AcDbEntity
  8
ALPHA
 62
   254
100
AcDbLine
 10
25.663403
 20
108.262047
 30
0.0
 11
23.162474
 21
107.812218
 31
0.0
  0
LINE
  5
6F2
100
AcDbEntity
  8
ALPHA
 62
   254
100
AcDbLine
 10
23.162479
 20
107.812228
 30
0.0
 11
18.154423
 21
107.812228
 31
0.0
  0
LINE
  5
6F3
100
AcDbEntity
  8
ALPHA
 62
   254
100
AcDbLine
 10
16.264864
 20
107.812228
 30
0.0
 11
11.263995
 21
107.812228
 31
0.0
  0
POLYLINE
  5
6F4
100
AcDbEntity
  8
ALPHA
100
AcDb2dPolyline
 66
     1
 10
0.0
 20
0.0
 30
0.0
  0
VERTEX
  5
6F5
100
AcDbEntity
  8
ALPHA
100
AcDbVertex
100
AcDb2dVertex
 10
11.445255
 20
111.26733
 30
0.0
  0
VERTEX
  5
6F6
100
AcDbEntity
  8
ALPHA
100
AcDbVertex
100
AcDb2dVertex
 10
12.04077
 20
110.702909
 30
0.0
  0
VERTEX
  5
6F7
100
AcDbEntity
  8
ALPHA
100
AcDbVertex
100
AcDb2dVertex
 10
12.69432
 20
110.200528
 30
0.0
  0
VERTEX
  5
6F8
100
AcDbEntity
  8
ALPHA
100
AcDbVertex
100
AcDb2dVertex
 10
13.397029
 20
109.76785
 30
0.0
  0
VERTEX
  5
6F9
100
AcDbEntity
  8
ALPHA
100
AcDbVertex
100
AcDb2dVertex
 10
14.209981
 20
109.383026
 30
0.0
  0
VERTEX
  5
6FA
100
AcDbEntity
  8
ALPHA
100
AcDbVertex
100
AcDb2dVertex
 10
15.068836
 20
109.089509
 30
0.0
  0
VERTEX
  5
6FB
100
AcDbEntity
  8
ALPHA
100
AcDbVertex
100
AcDb2dVertex
 10
15.956382
 20
108.894791
 30
0.0
  0
VERTEX
  5
6FC
100
AcDbEntity
  8
ALPHA
100
AcDbVertex
100
AcDb2dVertex
 10
16.810667
 20
108.8063
 30
0.0
  0
VERTEX
  5
6FD
100
AcDbEntity
  8
ALPHA
100
AcDbVertex
100
AcDb2dVertex
 10
17.673414
 20
108.809815
 30
0.0
  0
VERTEX
  5
6FE
100
AcDbEntity
  8
ALPHA
100
AcDbVertex
100
AcDb2dVertex
 10
18.526814
 20
108.905243
 30
0.0
  0
VERTEX
  5
6FF
100
AcDbEntity
  8
ALPHA
100
AcDbVertex
100
AcDb2dVertex
 10
19.323192
 20
109.081683
 30
0.0
  0
VERTEX
  5
700
100
AcDbEntity
  8
ALPHA
100
AcDbVertex
100
AcDb2dVertex
 10
20.096447
 20
109.337835
 30
0.0
  0
VERTEX
  5
701
100
AcDbEntity
  8
ALPHA
100
AcDbVertex
100
AcDb2dVertex
 10
20.833985
 20
109.668357
 30
0.0
  0
VERTEX
  5
702
100
AcDbEntity
  8
ALPHA
100
AcDbVertex
100
AcDb2dVertex
 10
21.55803
 20
110.0886
 30
0.0
  0
VERTEX
  5
703
100
AcDbEntity
  8
ALPHA
100
AcDbVertex
100
AcDb2dVertex
 10
22.233163
 20
110.581663
 30
0.0
  0
VERTEX
  5
704
100
AcDbEntity
  8
ALPHA
100
AcDbVertex
100
AcDb2dVertex
 10
22.849889
 20
111.139625
 30
0.0
  0
VERTEX
  5
705
100
AcDbEntity
  8
ALPHA
100
AcDbVertex
100
AcDb2dVertex
 10
22.974032
 20
111.26733
 30
0.0
  0
SEQEND
  5
706
100
AcDbEntity
  8
ALPHA
  0
ARC
  5
707
100
AcDbEntity
  8
ALPHA
100
AcDbCircle
 10
17.209644
 20
116.712221
 30
0.0
 40
7.617391
100
AcDbArc
 50
253.032461
 51
286.967539
  0
LINE
  5
708
100
AcDbEntity
  8
ALPHA
100
AcDbLine
 10
11.309644
 20
110.499089
 30
0.0
 11
11.309644
 21
111.4108
 31
0.0
  0
POLYLINE
  5
709
100
AcDbEntity
  8
ALPHA
100
AcDb2dPolyline
 66
     1
 10
0.0
 20
0.0
 30
0.0
  0
VERTEX
  5
70A
100
AcDbEntity
  8
ALPHA
100
AcDbVertex
100
AcDb2dVertex
 10
11.309644
 20
111.4108
 30
0.0
  0
VERTEX
  5
70B
100
AcDbEntity
  8
ALPHA
100
AcDbVertex
100
AcDb2dVertex
 10
11.316083
 20
111.404646
 30
0.0
  0
VERTEX
  5
70C
100
AcDbEntity
  8
ALPHA
100
AcDbVertex
100
AcDb2dVertex
 10
11.333392
 20
111.386365
 30
0.0
  0
VERTEX
  5
70D
100
AcDbEntity
  8
ALPHA
100
AcDbVertex
100
AcDb2dVertex
 10
11.370735
 20
111.346425
 30
0.0
  0
VERTEX
  5
70E
100
AcDbEntity
  8
ALPHA
100
AcDbVertex
100
AcDb2dVertex
 10
11.445255
 20
111.26733
 30
0.0
  0
SEQEND
  5
70F
100
AcDbEntity
  8
ALPHA
  0
POLYLINE
  5
710
100
AcDbEntity
  8
ALPHA
100
AcDb2dPolyline
 66
     1
 10
0.0
 20
0.0
 30
0.0
  0
VERTEX
  5
711
100
AcDbEntity
  8
ALPHA
100
AcDbVertex
100
AcDb2dVertex
 10
11.109644
 20
111.620705
 30
0.0
  0
VERTEX
  5
712
100
AcDbEntity
  8
ALPHA
100
AcDbVertex
100
AcDb2dVertex
 10
11.209616
 20
111.504124
 30
0.0
  0
VERTEX
  5
713
100
AcDbEntity
  8
ALPHA
100
AcDbVertex
100
AcDb2dVertex
 10
11.263958
 20
111.443265
 30
0.0
  0
VERTEX
  5
714
100
AcDbEntity
  8
ALPHA
100
AcDbVertex
100
AcDb2dVertex
 10
11.294438
 20
111.410181
 30
0.0
  0
VERTEX
  5
715
100
AcDbEntity
  8
ALPHA
100
AcDbVertex
100
AcDb2dVertex
 10
11.309644
 20
111.394843
 30
0.0
  0
SEQEND
  5
716
100
AcDbEntity
  8
ALPHA
  0
LINE
  5
717
100
AcDbEntity
  8
ALPHA
100
AcDbLine
 10
14.959644
 20
109.400587
 30
0.0
 11
14.986661
 21
109.426413
 31
0.0
  0
ARC
  5
718
100
AcDbEntity
  8
ALPHA
100
AcDbCircle
 10
17.209644
 20
116.712221
 30
0.0
 40
7.626087
100
AcDbArc
 50
332.680564
 51
348.656343
  0
ARC
  5
719
100
AcDbEntity
  8
ALPHA
100
AcDbCircle
 10
17.209644
 20
116.712221
 30
0.0
 40
7.63913
100
AcDbArc
 50
332.731088
 51
348.675968
  0
LINE
  5
71A
100
AcDbEntity
  8
ALPHA
100
AcDbLine
 10
19.432626
 20
109.426413
 30
0.0
 11
19.459644
 21
109.400587
 31
0.0
  0
LINE
  5
71B
100
AcDbEntity
  8
ALPHA
100
AcDbLine
 10
23.109644
 20
110.499089
 30
0.0
 11
23.109644
 21
111.4108
 31
0.0
  0
LINE
  5
71C
100
AcDbEntity
  8
ALPHA
 62
   254
100
AcDbLine
 10
25.613195
 20
110.262943
 30
0.0
 11
23.662436
 21
108.312185
 31
0.0
  0
POLYLINE
  5
71D
100
AcDbEntity
  8
ALPHA
100
AcDb2dPolyline
 66
     1
 10
0.0
 20
0.0
 30
0.0
  0
VERTEX
  5
71E
100
AcDbEntity
  8
ALPHA
100
AcDbVertex
100
AcDb2dVertex
 10
23.449758
 20
110.356376
 30
0.0
  0
VERTEX
  5
71F
100
AcDbEntity
  8
ALPHA
100
AcDbVertex
100
AcDb2dVertex
 10
23.435488
 20
110.341636
 30
0.0
  0
VERTEX
  5
720
100
AcDbEntity
  8
ALPHA
100
AcDbVertex
100
AcDb2dVertex
 10
23.397191
 20
110.303771
 30
0.0
  0
VERTEX
  5
721
100
AcDbEntity
  8
ALPHA
100
AcDbVertex
100
AcDb2dVertex
 10
23.314256
 20
110.223995
 30
0.0
  0
VERTEX
  5
722
100
AcDbEntity
  8
ALPHA
100
AcDbVertex
100
AcDb2dVertex
 10
23.172275
 20
110.092708
 30
0.0
  0
SEQEND
  5
723
100
AcDbEntity
  8
ALPHA
  0
POLYLINE
  5
724
100
AcDbEntity
  8
ALPHA
100
AcDb2dPolyline
 66
     1
 10
0.0
 20
0.0
 30
0.0
  0
VERTEX
  5
725
100
AcDbEntity
  8
ALPHA
100
AcDbVertex
100
AcDb2dVertex
 10
23.308366
 20
110.299098
 30
0.0
  0
VERTEX
  5
726
100
AcDbEntity
  8
ALPHA
100
AcDbVertex
100
AcDb2dVertex
 10
23.288896
 20
110.300173
 30
0.0
  0
VERTEX
  5
727
100
AcDbEntity
  8
ALPHA
100
AcDbVertex
100
AcDb2dVertex
 10
23.232258
 20
110.314672
 30
0.0
  0
VERTEX
  5
728
100
AcDbEntity
  8
ALPHA
100
AcDbVertex
100
AcDb2dVertex
 10
23.182232
 20
110.34493
 30
0.0
  0
VERTEX
  5
729
100
AcDbEntity
  8
ALPHA
100
AcDbVertex
100
AcDb2dVertex
 10
23.143094
 20
110.388361
 30
0.0
  0
VERTEX
  5
72A
100
AcDbEntity
  8
ALPHA
100
AcDbVertex
100
AcDb2dVertex
 10
23.118189
 20
110.441254
 30
0.0
  0
VERTEX
  5
72B
100
AcDbEntity
  8
ALPHA
100
AcDbVertex
100
AcDb2dVertex
 10
23.109644
 20
110.499089
 30
0.0
  0
SEQEND
  5
72C
100
AcDbEntity
  8
ALPHA
  0
POLYLINE
  5
72D
100
AcDbEntity
  8
ALPHA
100
AcDb2dPolyline
 66
     1
 10
0.0
 20
0.0
 30
0.0
  0
VERTEX
  5
72E
100
AcDbEntity
  8
ALPHA
100
AcDbVertex
100
AcDb2dVertex
 10
23.109644
 20
111.394843
 30
0.0
  0
VERTEX
  5
72F
100
AcDbEntity
  8
ALPHA
100
AcDbVertex
100
AcDb2dVertex
 10
23.116847
 20
111.401758
 30
0.0
  0
VERTEX
  5
730
100
AcDbEntity
  8
ALPHA
100
AcDbVertex
100
AcDb2dVertex
 10
23.13537
 20
111.421474
 30
0.0
  0
VERTEX
  5
731
100
AcDbEntity
  8
ALPHA
100
AcDbVertex
100
AcDb2dVertex
 10
23.178352
 20
111.46881
 30
0.0
  0
VERTEX
  5
732
100
AcDbEntity
  8
ALPHA
100
AcDbVertex
100
AcDb2dVertex
 10
23.255158
 20
111.556456
 30
0.0
  0
VERTEX
  5
733
100
AcDbEntity
  8
ALPHA
100
AcDbVertex
100
AcDb2dVertex
 10
23.309644
 20
111.620705
 30
0.0
  0
SEQEND
  5
734
100
AcDbEntity
  8
ALPHA
  0
POLYLINE
  5
735
100
AcDbEntity
  8
ALPHA
100
AcDb2dPolyline
 66
     1
 10
0.0
 20
0.0
 30
0.0
  0
VERTEX
  5
736
100
AcDbEntity
  8
ALPHA
100
AcDbVertex
100
AcDb2dVertex
 10
22.974032
 20
111.26733
 30
0.0
  0
VERTEX
  5
737
100
AcDbEntity
  8
ALPHA
100
AcDbVertex
100
AcDb2dVertex
 10
23.038634
 20
111.335827
 30
0.0
  0
VERTEX
  5
738
100
AcDbEntity
  8
ALPHA
100
AcDbVertex
100
AcDb2dVertex
 10
23.078427
 20
111.37839
 30
0.0
  0
VERTEX
  5
739
100
AcDbEntity
  8
ALPHA
100
AcDbVertex
100
AcDb2dVertex
 10
23.100425
 20
111.401754
 30
0.0
  0
VERTEX
  5
73A
100
AcDbEntity
  8
ALPHA
100
AcDbVertex
100
AcDb2dVertex
 10
23.109644
 20
111.4108
 30
0.0
  0
SEQEND
  5
73B
100
AcDbEntity
  8
ALPHA
  0
LINE
  5
73C
100
AcDbEntity
  8
ALPHA
100
AcDbLine
 10
23.985129
 20
113.212221
 30
0.0
 11
23.999807
 21
113.212221
 31
0.0
  0
LINE
  5
73D
100
AcDbEntity
  8
ALPHA
100
AcDbLine
 10
24.686755
 20
115.212221
 30
0.0
 11
24.700058
 21
115.212221
 31
0.0
  0
LINE
  5
73E
100
AcDbEntity
  8
ALPHA
100
AcDbLine
 10
24.686755
 20
118.212221
 30
0.0
 11
24.700058
 21
118.212221
 31
0.0
  0
LINE
  5
73F
100
AcDbEntity
  8
ALPHA
 62
   254
100
AcDbLine
 10
11.264022
 20
125.612191
 30
0.0
 11
8.254749
 21
125.670697
 31
0.0
  0
LINE
  5
740
100
AcDbEntity
  8
ALPHA
 62
   254
100
AcDbLine
 10
8.763099
 20
125.162125
 30
0.0
 11
11.264028
 21
125.611953
 31
0.0
  0
POLYLINE
  5
741
100
AcDbEntity
  8
ALPHA
100
AcDb2dPolyline
 66
     1
 10
0.0
 20
0.0
 30
0.0
  0
VERTEX
  5
742
100
AcDbEntity
  8
ALPHA
100
AcDbVertex
100
AcDb2dVertex
 10
10.969529
 20
123.068067
 30
0.0
  0
VERTEX
  5
743
100
AcDbEntity
  8
ALPHA
100
AcDbVertex
100
AcDb2dVertex
 10
10.983799
 20
123.082807
 30
0.0
  0
VERTEX
  5
744
100
AcDbEntity
  8
ALPHA
100
AcDbVertex
100
AcDb2dVertex
 10
11.022096
 20
123.120672
 30
0.0
  0
VERTEX
  5
745
100
AcDbEntity
  8
ALPHA
100
AcDbVertex
100
AcDb2dVertex
 10
11.105031
 20
123.200448
 30
0.0
  0
VERTEX
  5
746
100
AcDbEntity
  8
ALPHA
100
AcDbVertex
100
AcDb2dVertex
 10
11.247012
 20
123.331735
 30
0.0
  0
SEQEND
  5
747
100
AcDbEntity
  8
ALPHA
  0
LINE
  5
748
100
AcDbEntity
  8
ALPHA
 62
   254
100
AcDbLine
 10
8.813432
 20
123.16119
 30
0.0
 11
10.76419
 21
125.111948
 31
0.0
  0
LINE
  5
749
100
AcDbEntity
  8
ALPHA
 62
   254
100
AcDbLine
 10
8.313237
 20
122.661429
 30
0.0
 11
8.763065
 21
125.162358
 31
0.0
  0
LINE
  5
74A
100
AcDbEntity
  8
ALPHA
 62
   254
100
AcDbLine
 10
8.254741
 20
125.670681
 30
0.0
 11
8.313247
 21
122.661423
 31
0.0
  0
LINE
  5
74B
100
AcDbEntity
  8
ALPHA
100
AcDbLine
 10
10.419481
 20
120.212221
 30
0.0
 11
10.434158
 21
120.212221
 31
0.0
  0
LINE
  5
74C
100
AcDbEntity
  8
ALPHA
 62
   254
100
AcDbLine
 10
8.763017
 20
125.162118
 30
0.0
 11
8.254742
 21
125.670698
 31
0.0
  0
LINE
  5
74D
100
AcDbEntity
  8
ALPHA
 62
   254
100
AcDbLine
 10
18.154279
 20
125.612231
 30
0.0
 11
23.162479
 21
125.612231
 31
0.0
  0
POLYLINE
  5
74E
100
AcDbEntity
  8
ALPHA
100
AcDb2dPolyline
 66
     1
 10
0.0
 20
0.0
 30
0.0
  0
VERTEX
  5
74F
100
AcDbEntity
  8
ALPHA
100
AcDbVertex
100
AcDb2dVertex
 10
22.974032
 20
122.157113
 30
0.0
  0
VERTEX
  5
750
100
AcDbEntity
  8
ALPHA
100
AcDbVertex
100
AcDb2dVertex
 10
22.378517
 20
122.721534
 30
0.0
  0
VERTEX
  5
751
100
AcDbEntity
  8
ALPHA
100
AcDbVertex
100
AcDb2dVertex
 10
21.724967
 20
123.223915
 30
0.0
  0
VERTEX
  5
752
100
AcDbEntity
  8
ALPHA
100
AcDbVertex
100
AcDb2dVertex
 10
21.022258
 20
123.656593
 30
0.0
  0
VERTEX
  5
753
100
AcDbEntity
  8
ALPHA
100
AcDbVertex
100
AcDb2dVertex
 10
20.209307
 20
124.041417
 30
0.0
  0
VERTEX
  5
754
100
AcDbEntity
  8
ALPHA
100
AcDbVertex
100
AcDb2dVertex
 10
19.350451
 20
124.334934
 30
0.0
  0
VERTEX
  5
755
100
AcDbEntity
  8
ALPHA
100
AcDbVertex
100
AcDb2dVertex
 10
18.462905
 20
124.529652
 30
0.0
  0
VERTEX
  5
756
100
AcDbEntity
  8
ALPHA
100
AcDbVertex
100
AcDb2dVertex
 10
17.60862
 20
124.618143
 30
0.0
  0
VERTEX
  5
757
100
AcDbEntity
  8
ALPHA
100
AcDbVertex
100
AcDb2dVertex
 10
16.745873
 20
124.614628
 30
0.0
  0
VERTEX
  5
758
100
AcDbEntity
  8
ALPHA
100
AcDbVertex
100
AcDb2dVertex
 10
15.892473
 20
124.5192
 30
0.0
  0
VERTEX
  5
759
100
AcDbEntity
  8
ALPHA
100
AcDbVertex
100
AcDb2dVertex
 10
15.096096
 20
124.34276
 30
0.0
  0
VERTEX
  5
75A
100
AcDbEntity
  8
ALPHA
100
AcDbVertex
100
AcDb2dVertex
 10
14.32284
 20
124.086608
 30
0.0
  0
VERTEX
  5
75B
100
AcDbEntity
  8
ALPHA
100
AcDbVertex
100
AcDb2dVertex
 10
13.585302
 20
123.756086
 30
0.0
  0
VERTEX
  5
75C
100
AcDbEntity
  8
ALPHA
100
AcDbVertex
100
AcDb2dVertex
 10
12.861258
 20
123.335843
 30
0.0
  0
VERTEX
  5
75D
100
AcDbEntity
  8
ALPHA
100
AcDbVertex
100
AcDb2dVertex
 10
12.186124
 20
122.84278
 30
0.0
  0
VERTEX
  5
75E
100
AcDbEntity
  8
ALPHA
100
AcDbVertex
100
AcDb2dVertex
 10
11.569398
 20
122.284818
 30
0.0
  0
VERTEX
  5
75F
100
AcDbEntity
  8
ALPHA
100
AcDbVertex
100
AcDb2dVertex
 10
11.445255
 20
122.157113
 30
0.0
  0
SEQEND
  5
760
100
AcDbEntity
  8
ALPHA
  0
ARC
  5
761
100
AcDbEntity
  8
ALPHA
100
AcDbCircle
 10
17.209644
 20
116.712221
 30
0.0
 40
7.617391
100
AcDbArc
 50
73.032461
 51
106.967539
  0
LINE
  5
762
100
AcDbEntity
  8
ALPHA
100
AcDbLine
 10
11.309644
 20
122.013643
 30
0.0
 11
11.309644
 21
122.925354
 31
0.0
  0
POLYLINE
  5
763
100
AcDbEntity
  8
ALPHA
100
AcDb2dPolyline
 66
     1
 10
0.0
 20
0.0
 30
0.0
  0
VERTEX
  5
764
100
AcDbEntity
  8
ALPHA
100
AcDbVertex
100
AcDb2dVertex
 10
11.445255
 20
122.157113
 30
0.0
  0
VERTEX
  5
765
100
AcDbEntity
  8
ALPHA
100
AcDbVertex
100
AcDb2dVertex
 10
11.380653
 20
122.088616
 30
0.0
  0
VERTEX
  5
766
100
AcDbEntity
  8
ALPHA
100
AcDbVertex
100
AcDb2dVertex
 10
11.34086
 20
122.046053
 30
0.0
  0
VERTEX
  5
767
100
AcDbEntity
  8
ALPHA
100
AcDbVertex
100
AcDb2dVertex
 10
11.318862
 20
122.022689
 30
0.0
  0
VERTEX
  5
768
100
AcDbEntity
  8
ALPHA
100
AcDbVertex
100
AcDb2dVertex
 10
11.309644
 20
122.013643
 30
0.0
  0
SEQEND
  5
769
100
AcDbEntity
  8
ALPHA
  0
POLYLINE
  5
76A
100
AcDbEntity
  8
ALPHA
100
AcDb2dPolyline
 66
     1
 10
0.0
 20
0.0
 30
0.0
  0
VERTEX
  5
76B
100
AcDbEntity
  8
ALPHA
100
AcDbVertex
100
AcDb2dVertex
 10
11.309644
 20
122.0296
 30
0.0
  0
VERTEX
  5
76C
100
AcDbEntity
  8
ALPHA
100
AcDbVertex
100
AcDb2dVertex
 10
11.30244
 20
122.022685
 30
0.0
  0
VERTEX
  5
76D
100
AcDbEntity
  8
ALPHA
100
AcDbVertex
100
AcDb2dVertex
 10
11.283917
 20
122.002969
 30
0.0
  0
VERTEX
  5
76E
100
AcDbEntity
  8
ALPHA
100
AcDbVertex
100
AcDb2dVertex
 10
11.240935
 20
121.955633
 30
0.0
  0
VERTEX
  5
76F
100
AcDbEntity
  8
ALPHA
100
AcDbVertex
100
AcDb2dVertex
 10
11.164129
 20
121.867987
 30
0.0
  0
VERTEX
  5
770
100
AcDbEntity
  8
ALPHA
100
AcDbVertex
100
AcDb2dVertex
 10
11.109644
 20
121.803738
 30
0.0
  0
SEQEND
  5
771
100
AcDbEntity
  8
ALPHA
  0
POLYLINE
  5
772
100
AcDbEntity
  8
ALPHA
100
AcDb2dPolyline
 66
     1
 10
0.0
 20
0.0
 30
0.0
  0
VERTEX
  5
773
100
AcDbEntity
  8
ALPHA
100
AcDbVertex
100
AcDb2dVertex
 10
11.309644
 20
122.925354
 30
0.0
  0
VERTEX
  5
774
100
AcDbEntity
  8
ALPHA
100
AcDbVertex
100
AcDb2dVertex
 10
11.301098
 20
122.983189
 30
0.0
  0
VERTEX
  5
775
100
AcDbEntity
  8
ALPHA
100
AcDbVertex
100
AcDb2dVertex
 10
11.276193
 20
123.036082
 30
0.0
  0
VERTEX
  5
776
100
AcDbEntity
  8
ALPHA
100
AcDbVertex
100
AcDb2dVertex
 10
11.237055
 20
123.079513
 30
0.0
  0
VERTEX
  5
777
100
AcDbEntity
  8
ALPHA
100
AcDbVertex
100
AcDb2dVertex
 10
11.18703
 20
123.109771
 30
0.0
  0
VERTEX
  5
778
100
AcDbEntity
  8
ALPHA
100
AcDbVertex
100
AcDb2dVertex
 10
11.130391
 20
123.12427
 30
0.0
  0
VERTEX
  5
779
100
AcDbEntity
  8
ALPHA
100
AcDbVertex
100
AcDb2dVertex
 10
11.104821
 20
123.12529
 30
0.0
  0
SEQEND
  5
77A
100
AcDbEntity
  8
ALPHA
  0
LINE
  5
77B
100
AcDbEntity
  8
ALPHA
100
AcDbLine
 10
14.959644
 20
124.023856
 30
0.0
 11
14.986661
 21
123.99803
 31
0.0
  0
LINE
  5
77C
100
AcDbEntity
  8
ALPHA
 62
   254
100
AcDbLine
 10
11.263995
 20
125.612231
 30
0.0
 11
16.265008
 21
125.612231
 31
0.0
  0
LINE
  5
77D
100
AcDbEntity
  8
ALPHA
 62
   254
100
AcDbLine
 10
23.662674
 20
125.111948
 30
0.0
 11
25.613281
 21
123.161341
 31
0.0
  0
LINE
  5
77E
100
AcDbEntity
  8
ALPHA
100
AcDbLine
 10
19.432626
 20
123.99803
 30
0.0
 11
19.459644
 21
124.023856
 31
0.0
  0
LINE
  5
77F
100
AcDbEntity
  8
ALPHA
100
AcDbLine
 10
23.985129
 20
120.212221
 30
0.0
 11
23.999807
 21
120.212221
 31
0.0
  0
LINE
  5
780
100
AcDbEntity
  8
ALPHA
100
AcDbLine
 10
23.109644
 20
122.013643
 30
0.0
 11
23.109644
 21
122.925354
 31
0.0
  0
POLYLINE
  5
781
100
AcDbEntity
  8
ALPHA
100
AcDb2dPolyline
 66
     1
 10
0.0
 20
0.0
 30
0.0
  0
VERTEX
  5
782
100
AcDbEntity
  8
ALPHA
100
AcDbVertex
100
AcDb2dVertex
 10
23.309644
 20
121.803738
 30
0.0
  0
VERTEX
  5
783
100
AcDbEntity
  8
ALPHA
100
AcDbVertex
100
AcDb2dVertex
 10
23.209671
 20
121.920319
 30
0.0
  0
VERTEX
  5
784
100
AcDbEntity
  8
ALPHA
100
AcDbVertex
100
AcDb2dVertex
 10
23.155329
 20
121.981178
 30
0.0
  0
VERTEX
  5
785
100
AcDbEntity
  8
ALPHA
100
AcDbVertex
100
AcDb2dVertex
 10
23.12485
 20
122.014262
 30
0.0
  0
VERTEX
  5
786
100
AcDbEntity
  8
ALPHA
100
AcDbVertex
100
AcDb2dVertex
 10
23.109644
 20
122.0296
 30
0.0
  0
SEQEND
  5
787
100
AcDbEntity
  8
ALPHA
  0
POLYLINE
  5
788
100
AcDbEntity
  8
ALPHA
100
AcDb2dPolyline
 66
     1
 10
0.0
 20
0.0
 30
0.0
  0
VERTEX
  5
789
100
AcDbEntity
  8
ALPHA
100
AcDbVertex
100
AcDb2dVertex
 10
23.109644
 20
122.013643
 30
0.0
  0
VERTEX
  5
78A
100
AcDbEntity
  8
ALPHA
100
AcDbVertex
100
AcDb2dVertex
 10
23.103205
 20
122.019797
 30
0.0
  0
VERTEX
  5
78B
100
AcDbEntity
  8
ALPHA
100
AcDbVertex
100
AcDb2dVertex
 10
23.085895
 20
122.038078
 30
0.0
  0
VERTEX
  5
78C
100
AcDbEntity
  8
ALPHA
100
AcDbVertex
100
AcDb2dVertex
 10
23.048552
 20
122.078018
 30
0.0
  0
VERTEX
  5
78D
100
AcDbEntity
  8
ALPHA
100
AcDbVertex
100
AcDb2dVertex
 10
22.974032
 20
122.157113
 30
0.0
  0
SEQEND
  5
78E
100
AcDbEntity
  8
ALPHA
  0
POLYLINE
  5
78F
100
AcDbEntity
  8
ALPHA
100
AcDb2dPolyline
 66
     1
 10
0.0
 20
0.0
 30
0.0
  0
VERTEX
  5
790
100
AcDbEntity
  8
ALPHA
100
AcDbVertex
100
AcDb2dVertex
 10
23.172275
 20
123.331735
 30
0.0
  0
VERTEX
  5
791
100
AcDbEntity
  8
ALPHA
100
AcDbVertex
100
AcDb2dVertex
 10
23.312496
 20
123.202115
 30
0.0
  0
VERTEX
  5
792
100
AcDbEntity
  8
ALPHA
100
AcDbVertex
100
AcDb2dVertex
 10
23.39314
 20
123.124632
 30
0.0
  0
VERTEX
  5
793
100
AcDbEntity
  8
ALPHA
100
AcDbVertex
100
AcDb2dVertex
 10
23.435428
 20
123.082868
 30
0.0
  0
VERTEX
  5
794
100
AcDbEntity
  8
ALPHA
100
AcDbVertex
100
AcDb2dVertex
 10
23.449758
 20
123.068067
 30
0.0
  0
SEQEND
  5
795
100
AcDbEntity
  8
ALPHA
  0
POLYLINE
  5
796
100
AcDbEntity
  8
ALPHA
100
AcDb2dPolyline
 66
     1
 10
0.0
 20
0.0
 30
0.0
  0
VERTEX
  5
797
100
AcDbEntity
  8
ALPHA
100
AcDbVertex
100
AcDb2dVertex
 10
23.449758
 20
123.068067
 30
0.0
  0
VERTEX
  5
798
100
AcDbEntity
  8
ALPHA
100
AcDbVertex
100
AcDb2dVertex
 10
23.4025
 20
123.102487
 30
0.0
  0
VERTEX
  5
799
100
AcDbEntity
  8
ALPHA
100
AcDbVertex
100
AcDb2dVertex
 10
23.347307
 20
123.12177
 30
0.0
  0
VERTEX
  5
79A
100
AcDbEntity
  8
ALPHA
100
AcDbVertex
100
AcDb2dVertex
 10
23.288896
 20
123.12427
 30
0.0
  0
VERTEX
  5
79B
100
AcDbEntity
  8
ALPHA
100
AcDbVertex
100
AcDb2dVertex
 10
23.232258
 20
123.109771
 30
0.0
  0
VERTEX
  5
79C
100
AcDbEntity
  8
ALPHA
100
AcDbVertex
100
AcDb2dVertex
 10
23.182232
 20
123.079513
 30
0.0
  0
VERTEX
  5
79D
100
AcDbEntity
  8
ALPHA
100
AcDbVertex
100
AcDb2dVertex
 10
23.143094
 20
123.036082
 30
0.0
  0
VERTEX
  5
79E
100
AcDbEntity
  8
ALPHA
100
AcDbVertex
100
AcDb2dVertex
 10
23.118189
 20
122.983189
 30
0.0
  0
VERTEX
  5
79F
100
AcDbEntity
  8
ALPHA
100
AcDbVertex
100
AcDb2dVertex
 10
23.109644
 20
122.925354
 30
0.0
  0
SEQEND
  5
7A0
100
AcDbEntity
  8
ALPHA
  0
LINE
  5
7A1
100
AcDbEntity
  8
ALPHA
 62
   254
100
AcDbLine
 10
23.162487
 20
125.612183
 30
0.0
 11
25.663416
 21
125.162355
 31
0.0
  0
LINE
  5
7A2
100
AcDbEntity
  8
ALPHA
 62
   254
100
AcDbLine
 10
26.113239
 20
122.661471
 30
0.0
 11
26.113239
 21
117.622439
 31
0.0
  0
LINE
  5
7A3
100
AcDbEntity
  8
ALPHA
 62
   254
100
AcDbLine
 10
26.171756
 20
107.75367
 30
0.0
 11
26.113249
 21
110.762959
 31
0.0
  0
LINE
  5
7A4
100
AcDbEntity
  8
ALPHA
 62
   254
100
AcDbLine
 10
26.113239
 20
115.802004
 30
0.0
 11
26.113239
 21
110.762987
 31
0.0
  0
LINE
  5
7A5
100
AcDbEntity
  8
ALPHA
 62
   254
100
AcDbLine
 10
26.113263
 20
122.661429
 30
0.0
 11
26.171769
 21
125.670702
 31
0.0
  0
DIMENSION
  5
7C3
100
AcDbEntity
  8
COTATION1
100
AcDbDimension
  2
*D8
 10
26.159644
 20
101.799293
 30
0.0
 11
17.209644
 21
104.049293
 31
0.0
 70
    32
  3
SC_STAND
100
AcDbAlignedDimension
 13
8.259644
 23
116.712221
 33
0.0
 14
26.159644
 24
116.712221
 34
0.0
100
AcDbRotatedDimension
  0
ENDSEC
  0
SECTION
  2
OBJECTS
  0
DICTIONARY
  5
F8
100
AcDbDictionary
  3
ACAD_GROUP
350
F9
  3
ACAD_MLINESTYLE
350
106
  3
ACDBVARIABLEDICTIONARY
350
143
  0
DICTIONARY
  5
F9
102
{ACAD_REACTORS
330
F8
102
}
100
AcDbDictionary
  0
DICTIONARY
  5
106
102
{ACAD_REACTORS
330
F8
102
}
100
AcDbDictionary
  3
STANDARD
350
107
  0
DICTIONARY
  5
143
102
{ACAD_REACTORS
330
F8
102
}
100
AcDbDictionary
  3
DIMADEC
350
144
  0
MLINESTYLE
  5
107
102
{ACAD_REACTORS
330
106
102
}
100
AcDbMlineStyle
  2
STANDARD
 70
     0
  3

 62
   256
 51
90.0
 52
90.0
 71
     2
 49
0.5
 62
   256
  6
BYLAYER
 49
-0.5
 62
   256
  6
BYLAYER
  0
DICTIONARYVAR
  5
144
102
{ACAD_REACTORS
330
143
102
}
100
DictionaryVariables
280
     0
  1
0
  0
ENDSEC
  0
EOF
