  0
SECTION
  2
HEADER
  9
$ACADVER
  1
AC1012
  9
$DWGCODEPAGE
  3
ANSI_1252
  9
$INSBASE
 10
0.0
 20
0.0
 30
0.0
  9
$EXTMIN
 10
-0.460027
 20
2.715634
 30
0.0
  9
$EXTMAX
 10
82.537141
 20
70.724359
 30
0.0
  9
$LIMMIN
 10
19.077216
 20
43.616976
  9
$LIMMAX
 10
194.084622
 20
146.65737
  9
$ORTHOMODE
 70
     0
  9
$REGENMODE
 70
     1
  9
$FILLMODE
 70
     1
  9
$QTEXTMODE
 70
     0
  9
$MIRRTEXT
 70
     1
  9
$DRAGMODE
 70
     2
  9
$LTSCALE
 40
10.0
  9
$OSMODE
 70
    37
  9
$ATTMODE
 70
     1
  9
$TEXTSIZE
 40
0.2
  9
$TRACEWID
 40
0.05
  9
$TEXTSTYLE
  7
STANDARD
  9
$CLAYER
  8
ALPHA
  9
$CELTYPE
  6
CONTINUOUS
  9
$CECOLOR
 62
   256
  9
$CELTSCALE
 40
1.0
  9
$DELOBJ
 70
     1
  9
$DISPSILH
 70
     0
  9
$DIMSCALE
 40
1.0
  9
$DIMASZ
 40
0.18
  9
$DIMEXO
 40
0.0625
  9
$DIMDLI
 40
0.38
  9
$DIMRND
 40
0.0
  9
$DIMDLE
 40
0.0
  9
$DIMEXE
 40
0.18
  9
$DIMTP
 40
0.0
  9
$DIMTM
 40
0.0
  9
$DIMTXT
 40
0.18
  9
$DIMCEN
 40
0.09
  9
$DIMTSZ
 40
0.0
  9
$DIMTOL
 70
     0
  9
$DIMLIM
 70
     0
  9
$DIMTIH
 70
     1
  9
$DIMTOH
 70
     1
  9
$DIMSE1
 70
     0
  9
$DIMSE2
 70
     0
  9
$DIMTAD
 70
     0
  9
$DIMZIN
 70
     0
  9
$DIMBLK
  1

  9
$DIMASO
 70
     1
  9
$DIMSHO
 70
     1
  9
$DIMPOST
  1

  9
$DIMAPOST
  1

  9
$DIMALT
 70
     0
  9
$DIMALTD
 70
     2
  9
$DIMALTF
 40
25.4
  9
$DIMLFAC
 40
1.0
  9
$DIMTOFL
 70
     0
  9
$DIMTVP
 40
0.0
  9
$DIMTIX
 70
     0
  9
$DIMSOXD
 70
     0
  9
$DIMSAH
 70
     0
  9
$DIMBLK1
  1

  9
$DIMBLK2
  1

  9
$DIMSTYLE
  2
STANDARD
  9
$DIMCLRD
 70
     0
  9
$DIMCLRE
 70
     0
  9
$DIMCLRT
 70
     0
  9
$DIMTFAC
 40
1.0
  9
$DIMGAP
 40
0.09
  9
$DIMJUST
 70
     0
  9
$DIMSD1
 70
     0
  9
$DIMSD2
 70
     0
  9
$DIMTOLJ
 70
     1
  9
$DIMTZIN
 70
     0
  9
$DIMALTZ
 70
     0
  9
$DIMALTTZ
 70
     0
  9
$DIMFIT
 70
     3
  9
$DIMUPT
 70
     0
  9
$DIMUNIT
 70
     2
  9
$DIMDEC
 70
     4
  9
$DIMTDEC
 70
     4
  9
$DIMALTU
 70
     2
  9
$DIMALTTD
 70
     2
  9
$DIMTXSTY
  7
STANDARD
  9
$DIMAUNIT
 70
     0
  9
$LUNITS
 70
     2
  9
$LUPREC
 70
     4
  9
$SKETCHINC
 40
0.1
  9
$FILLETRAD
 40
0.0
  9
$AUNITS
 70
     0
  9
$AUPREC
 70
     0
  9
$MENU
  1
acad
  9
$ELEVATION
 40
0.0
  9
$PELEVATION
 40
0.0
  9
$THICKNESS
 40
0.0
  9
$LIMCHECK
 70
     0
  9
$BLIPMODE
 70
     0
  9
$CHAMFERA
 40
0.0
  9
$CHAMFERB
 40
0.0
  9
$CHAMFERC
 40
0.0
  9
$CHAMFERD
 40
0.0
  9
$SKPOLY
 70
     0
  9
$TDCREATE
 40
2453634.413430799
  9
$TDUPDATE
 40
2453893.696979351
  9
$TDINDWG
 40
0.6674615046
  9
$TDUSRTIMER
 40
0.6674604167
  9
$USRTIMER
 70
     1
  9
$ANGBASE
 50
0.0
  9
$ANGDIR
 70
     0
  9
$PDMODE
 70
     0
  9
$PDSIZE
 40
0.0
  9
$PLINEWID
 40
0.0
  9
$COORDS
 70
     1
  9
$SPLFRAME
 70
     0
  9
$SPLINETYPE
 70
     6
  9
$SPLINESEGS
 70
     8
  9
$ATTDIA
 70
     0
  9
$ATTREQ
 70
     1
  9
$HANDLING
 70
     1
  9
$HANDSEED
  5
5406
  9
$SURFTAB1
 70
     6
  9
$SURFTAB2
 70
     6
  9
$SURFTYPE
 70
     6
  9
$SURFU
 70
     6
  9
$SURFV
 70
     6
  9
$UCSNAME
  2

  9
$UCSORG
 10
0.0
 20
0.0
 30
0.0
  9
$UCSXDIR
 10
1.0
 20
0.0
 30
0.0
  9
$UCSYDIR
 10
0.0
 20
1.0
 30
0.0
  9
$PUCSNAME
  2

  9
$PUCSORG
 10
0.0
 20
0.0
 30
0.0
  9
$PUCSXDIR
 10
1.0
 20
0.0
 30
0.0
  9
$PUCSYDIR
 10
0.0
 20
1.0
 30
0.0
  9
$USERI1
 70
     0
  9
$USERI2
 70
     0
  9
$USERI3
 70
     0
  9
$USERI4
 70
     0
  9
$USERI5
 70
     0
  9
$USERR1
 40
0.0
  9
$USERR2
 40
0.0
  9
$USERR3
 40
0.0
  9
$USERR4
 40
0.0
  9
$USERR5
 40
0.0
  9
$WORLDVIEW
 70
     1
  9
$SHADEDGE
 70
     3
  9
$SHADEDIF
 70
    70
  9
$TILEMODE
 70
     1
  9
$MAXACTVP
 70
    16
  9
$PINSBASE
 10
0.0
 20
0.0
 30
0.0
  9
$PLIMCHECK
 70
     0
  9
$PEXTMIN
 10
1.000000E+20
 20
1.000000E+20
 30
1.000000E+20
  9
$PEXTMAX
 10
-1.000000E+20
 20
-1.000000E+20
 30
-1.000000E+20
  9
$PLIMMIN
 10
0.0
 20
0.0
  9
$PLIMMAX
 10
12.0
 20
9.0
  9
$UNITMODE
 70
     0
  9
$VISRETAIN
 70
     0
  9
$PLINEGEN
 70
     1
  9
$PSLTSCALE
 70
     0
  9
$TREEDEPTH
 70
  3020
  9
$PICKSTYLE
 70
     0
  9
$CMLSTYLE
  2
STANDARD
  9
$CMLJUST
 70
     0
  9
$CMLSCALE
 40
1.0
  9
$SAVEIMAGES
 70
     0
  0
ENDSEC
  0
SECTION
  2
CLASSES
  0
CLASS
  1
LWPOLYLINE
  2
AcDbPolyline
  3
"AutoCAD"
 90
    32768
280
     0
281
     1
  0
CLASS
  1
IMAGE
  2
AcDbRasterImage
  3
ISM
 90
    32895
280
     0
281
     1
  0
CLASS
  1
OLE2FRAME
  2
AcDbOle2Frame
  3
""
 90
    32768
280
     0
281
     1
  0
CLASS
  1
HATCH
  2
AcDbHatch
  3
"ACAD_SEDONA"
 90
    32768
280
     0
281
     1
  0
CLASS
  1
DICTIONARYVAR
  2
AcDbDictionaryVar
  3
"AutoCAD"
 90
    32768
280
     0
281
     0
  0
CLASS
  1
RASTERVARIABLES
  2
AcDbRasterVariables
  3
ISM
 90
    32768
280
     0
281
     0
  0
CLASS
  1
IMAGEDEF
  2
AcDbRasterImageDef
  3
ISM
 90
    32768
280
     0
281
     0
  0
CLASS
  1
IMAGEDEF_REACTOR
  2
AcDbRasterImageDefReactor
  3
ISM
 90
    32769
280
     0
281
     0
  0
CLASS
  1
SPATIAL_FILTER
  2
AcDbSpatialFilter
  3
"Acad"
 90
    32768
280
     0
281
     0
  0
CLASS
  1
XRECORD
  2
AcDbXrecord
  3
"<Built In>"
 90
    32768
280
     0
281
     0
  0
CLASS
  1
SORTENTSTABLE
  2
AcDbSortentsTable
  3
"AutoCAD"
 90
    32768
280
     0
281
     0
  0
CLASS
  1
LAYER_INDEX
  2
AcDbLayerIndex
  3
"Acad"
 90
    32768
280
     0
281
     0
  0
CLASS
  1
SPATIAL_INDEX
  2
AcDbSpatialIndex
  3
"Acad"
 90
    32768
280
     0
281
     0
  0
CLASS
  1
OBJECT_PTR
  2
CAseDLPNTableRecord
  3
ASE-LPNTableRecord
 90
    32769
280
     0
281
     0
  0
CLASS
  1
LAYOUT
  2
AcDbLayout
  3
AutoCAD 2000
 90
    32768
280
     0
281
     0
  0
CLASS
  1
PLOTSETTINGS
  2
AcDbPlotSettings
  3
AutoCAD 2000
 90
    32768
280
     0
281
     0
  0
CLASS
  1
ACDBDICTIONARYWDFLT
  2
AcDbDictionaryWithDefault
  3
AutoCAD 2000
 90
    32768
280
     0
281
     0
  0
CLASS
  1
ACDBPLACEHOLDER
  2
AcDbPlaceHolder
  3
AutoCAD 2000
 90
    32768
280
     0
281
     0
  0
CLASS
  1
VBA_PROJECT
  2
AcDbVbaProject
  3
acad
 90
    32768
280
     0
281
     0
  0
CLASS
  1
WIPEOUT
  2
AcDbWipeout
  3
WipeOut|AutoCAD Express Tool|expresstools@autodesk.com
 90
    32895
280
     0
281
     1
  0
CLASS
  1
WIPEOUTVARIABLES
  2
AcDbWipeoutVariables
  3
WipeOut|AutoCAD Express Tool|expresstools@autodesk.com
 90
    32768
280
     0
281
     0
  0
CLASS
  1
RTEXT
  2
RText
  3
RText|AutoCAD Express Tool|expresstools@autodesk.com
 90
    32768
280
     0
281
     1
  0
CLASS
  1
ARCALIGNEDTEXT
  2
AcDbArcAlignedText
  3
ATEXT|AutoCAD Express Tool|expresstools@autodesk.com
 90
    32768
280
     0
281
     1
  0
CLASS
  1
TABLESTYLE
  2
AcDbTableStyle
  3
ObjectDBX Classes
 90
    34815
280
     0
281
     0
  0
CLASS
  1
ACAD_PROXY_OBJECT_WRAPPER
  2
AcDbProxyObjectWrapper
  3
AutoCAD 2000
 90
    32768
280
     0
281
     0
  0
CLASS
  1
LONG_TRANSACTION
  2
AcDbLongTransaction
  3
AutoCAD 2000
 90
    32768
280
     0
281
     0
  0
CLASS
  1
LWPOLYLINE
  2
AcDbPolyline
  3
"AutoCAD"
 90
    32768
280
     0
281
     1
  0
CLASS
  1
HATCH
  2
AcDbHatch
  3
"ACAD_SEDONA"
 90
    32768
280
     0
281
     1
  0
CLASS
  1
XRECORD
  2
AcDbXrecord
  3
"<Built In>"
 90
    32768
280
     0
281
     0
  0
ENDSEC
  0
SECTION
  2
TABLES
  0
TABLE
  2
VPORT
  5
7
100
AcDbSymbolTable
 70
     2
  0
VPORT
  5
5405
100
AcDbSymbolTableRecord
100
AcDbViewportTableRecord
  2
*ACTIVE
 70
     0
 10
0.0
 20
0.0
 11
1.0
 21
1.0
 12
41.038557
 22
36.719997
 13
0.0
 23
0.0
 14
1.0
 24
1.0
 15
0.0
 25
0.0
 16
0.0
 26
0.0
 36
1.0
 17
0.0
 27
0.0
 37
0.0
 40
68.715922
 41
1.673611
 42
50.0
 43
0.0
 44
0.0
 50
0.0
 51
0.0
 71
     0
 72
   100
 73
     1
 74
     2
 75
     0
 76
     0
 77
     0
 78
     0
  0
ENDTAB
  0
TABLE
  2
LTYPE
  5
4
100
AcDbSymbolTable
 70
     2
  0
LTYPE
  5
11
102
{ACAD_XDICTIONARY
360
53C2
102
}
100
AcDbSymbolTableRecord
100
AcDbLinetypeTableRecord
  2
BYBLOCK
 70
     0
  3

 72
    65
 73
     0
 40
0.0
  0
LTYPE
  5
12
102
{ACAD_XDICTIONARY
360
53C4
102
}
100
AcDbSymbolTableRecord
100
AcDbLinetypeTableRecord
  2
BYLAYER
 70
     0
  3

 72
    65
 73
     0
 40
0.0
  0
LTYPE
  5
13
102
{ACAD_XDICTIONARY
360
53C6
102
}
100
AcDbSymbolTableRecord
100
AcDbLinetypeTableRecord
  2
CONTINUOUS
 70
     0
  3
Solid line
 72
    65
 73
     0
 40
0.0
  0
LTYPE
  5
725
100
AcDbSymbolTableRecord
100
AcDbLinetypeTableRecord
  2
AXES2
 70
     0
  3
___ _ ___ _ ___ _ ___ _ ___ _ ___ _ ___ _ ___ _
 72
    65
 73
     4
 40
1.125
 49
0.75
 74
     0
 49
-0.125
 74
     0
 49
0.125
 74
     0
 49
-0.125
 74
     0
  0
ENDTAB
  0
TABLE
  2
LAYER
  5
2
102
{ACAD_XDICTIONARY
360
26F0
102
}
100
AcDbSymbolTable
 70
     5
  0
LAYER
  5
14
100
AcDbSymbolTableRecord
100
AcDbLayerTableRecord
  2
0
 70
     0
 62
     7
  6
CONTINUOUS
  0
LAYER
  5
6EC
102
{ACAD_XDICTIONARY
360
53C0
102
}
100
AcDbSymbolTableRecord
100
AcDbLayerTableRecord
  2
DEFPOINTS
 70
     0
 62
     7
  6
CONTINUOUS
  0
LAYER
  5
727
100
AcDbSymbolTableRecord
100
AcDbLayerTableRecord
  2
COTATION1
 70
     0
 62
     2
  6
CONTINUOUS
  0
LAYER
  5
728
100
AcDbSymbolTableRecord
100
AcDbLayerTableRecord
  2
AXE
 70
     0
 62
    80
  6
AXES2
  0
LAYER
  5
729
100
AcDbSymbolTableRecord
100
AcDbLayerTableRecord
  2
ALPHA
 70
     0
 62
   254
  6
CONTINUOUS
  0
ENDTAB
  0
TABLE
  2
STYLE
  5
3
100
AcDbSymbolTable
 70
     2
  0
STYLE
  5
17
102
{ACAD_XDICTIONARY
360
53CC
102
}
100
AcDbSymbolTableRecord
100
AcDbTextStyleTableRecord
  2
STANDARD
 70
     0
 40
0.0
 41
1.0
 50
0.0
 71
     0
 42
0.0
  3
txt
  4

  0
STYLE
  5
72B
100
AcDbSymbolTableRecord
100
AcDbTextStyleTableRecord
  2
ROMANS
 70
     0
 40
0.0
 41
1.0
 50
0.0
 71
     0
 42
6.0
  3
romans
  4

  0
ENDTAB
  0
TABLE
  2
VIEW
  5
5
100
AcDbSymbolTable
 70
     0
  0
ENDTAB
  0
TABLE
  2
UCS
  5
6
100
AcDbSymbolTable
 70
     0
  0
ENDTAB
  0
TABLE
  2
APPID
  5
8
100
AcDbSymbolTable
 70
     4
  0
APPID
  5
16
100
AcDbSymbolTableRecord
100
AcDbRegAppTableRecord
  2
ACAD
 70
     0
  0
APPID
  5
26EF
102
{ACAD_XDICTIONARY
360
53C8
102
}
100
AcDbSymbolTableRecord
100
AcDbRegAppTableRecord
  2
ACAECLAYERSTANDARD
 70
     0
  0
APPID
  5
320E
100
AcDbSymbolTableRecord
100
AcDbRegAppTableRecord
  2
DCO15
 70
     0
  0
APPID
  5
3569
102
{ACAD_XDICTIONARY
360
53CA
102
}
100
AcDbSymbolTableRecord
100
AcDbRegAppTableRecord
  2
ACAD_EXEMPT_FROM_CAD_STAND
 70
     0
  0
ENDTAB
  0
TABLE
  2
DIMSTYLE
  5
9
100
AcDbSymbolTable
 70
     2
  0
DIMSTYLE
105
18
102
{ACAD_XDICTIONARY
360
53BE
102
}
100
AcDbSymbolTableRecord
100
AcDbDimStyleTableRecord
  2
STANDARD
 70
     0
  3

  4

  5

  6

  7

 40
1.0
 41
0.18
 42
0.0625
 43
0.38
 44
0.18
 45
0.0
 46
0.0
 47
0.0
 48
0.0
140
0.18
141
0.09
142
0.0
143
25.4
144
1.0
145
0.0
146
1.0
147
0.09
 71
     0
 72
     0
 73
     1
 74
     1
 75
     0
 76
     0
 77
     0
 78
     0
170
     0
171
     2
172
     0
173
     0
174
     0
175
     0
176
     0
177
     0
178
     0
270
     2
271
     4
272
     4
273
     2
274
     2
340
17
275
     0
280
     0
281
     0
282
     0
283
     1
284
     0
285
     0
286
     0
287
     3
288
     0
  0
DIMSTYLE
105
72C
102
{ACAD_XDICTIONARY
360
53FC
102
}
102
{ACAD_REACTORS
330
5058
330
5059
330
505B
102
}
100
AcDbSymbolTableRecord
100
AcDbDimStyleTableRecord
  2
SC_DEFAUT
 70
     0
  3

  4

  5
OPEN30
  6

  7

 40
1.0
 41
5.0
 42
2.0
 43
0.38
 44
2.5
 45
0.0
 46
0.0
 47
0.0
 48
0.0
140
2.5
141
0.0
142
0.0
143
25.4
144
1.0
145
0.0
146
1.0
147
2.0
 71
     0
 72
     0
 73
     1
 74
     1
 75
     0
 76
     0
 77
     1
 78
    12
170
     0
171
     2
172
     0
173
     0
174
     0
175
     0
176
     0
177
     0
178
     0
270
     2
271
     1
272
     1
273
     2
274
     2
340
72B
275
     0
280
     0
281
     0
282
     0
283
     1
284
    12
285
    12
286
    12
287
     5
288
     0
  0
ENDTAB
  0
TABLE
  2
BLOCK_RECORD
  5
1
100
AcDbSymbolTable
 70
     4
  0
BLOCK_RECORD
  5
A
102
{ACAD_XDICTIONARY
360
7D7
102
}
100
AcDbSymbolTableRecord
100
AcDbBlockTableRecord
  2
*MODEL_SPACE
  0
BLOCK_RECORD
  5
B
102
{ACAD_XDICTIONARY
360
53F2
102
}
100
AcDbSymbolTableRecord
100
AcDbBlockTableRecord
  2
*PAPER_SPACE
  0
BLOCK_RECORD
  5
6FA
100
AcDbSymbolTableRecord
100
AcDbBlockTableRecord
  2
_OPEN30
  0
BLOCK_RECORD
  5
5060
100
AcDbSymbolTableRecord
100
AcDbBlockTableRecord
  2
*D1
  0
BLOCK_RECORD
  5
506C
100
AcDbSymbolTableRecord
100
AcDbBlockTableRecord
  2
*D2
  0
BLOCK_RECORD
  5
5079
100
AcDbSymbolTableRecord
100
AcDbBlockTableRecord
  2
*D3
  0
ENDTAB
  0
ENDSEC
  0
SECTION
  2
BLOCKS
  0
BLOCK
  5
D
100
AcDbEntity
  8
0
100
AcDbBlockBegin
  2
*MODEL_SPACE
 70
     0
 10
0.0
 20
0.0
 30
0.0
  3
*MODEL_SPACE
  1

  0
ENDBLK
  5
E
100
AcDbEntity
  8
0
100
AcDbBlockEnd
  0
BLOCK
  5
F
100
AcDbEntity
 67
     1
  8
0
100
AcDbBlockBegin
  2
*PAPER_SPACE
 70
     0
 10
0.0
 20
0.0
 30
0.0
  3
*PAPER_SPACE
  1

  0
ENDBLK
  5
10
100
AcDbEntity
 67
     1
  8
0
100
AcDbBlockEnd
  0
BLOCK
  5
6FB
100
AcDbEntity
  8
0
100
AcDbBlockBegin
  2
_OPEN30
 70
     0
 10
0.0
 20
0.0
 30
0.0
  3
_OPEN30
  1

  0
LINE
  5
6FC
100
AcDbEntity
  8
COTATION1
 62
     0
100
AcDbLine
 10
-1.0
 20
0.267949
 30
0.0
 11
0.0
 21
0.0
 31
0.0
1001
ACAD
1000
RTLwPs
1070
   158
  0
LINE
  5
6FD
100
AcDbEntity
  8
COTATION1
 62
     0
100
AcDbLine
 10
0.0
 20
0.0
 30
0.0
 11
-1.0
 21
-0.267949
 31
0.0
1001
ACAD
1000
RTLwPs
1070
   158
  0
LINE
  5
6FE
100
AcDbEntity
  8
COTATION1
 62
     0
100
AcDbLine
 10
0.0
 20
0.0
 30
0.0
 11
-1.0
 21
0.0
 31
0.0
1001
ACAD
1000
RTLwPs
1070
   158
  0
ENDBLK
  5
6FF
100
AcDbEntity
  8
0
100
AcDbBlockEnd
  0
BLOCK
  5
506A
100
AcDbEntity
  8
0
100
AcDbBlockBegin
  2
*D1
 70
     1
 10
0.0
 20
0.0
 30
0.0
  3
*D1
  1

1001
ACAD
1000
RTLwPs
1070
   128
  0
LINE
  5
5397
100
AcDbEntity
  8
COTATION1
 62
     0
100
AcDbLine
 10
41.561813
 20
53.220026
 30
0.0
 11
41.561813
 21
68.720026
 31
0.0
1001
ACAD
1000
RTLwPs
1070
   158
  0
LINE
  5
5398
100
AcDbEntity
  8
COTATION1
 62
     0
100
AcDbLine
 10
16.561813
 20
38.970026
 30
0.0
 11
16.561813
 21
68.720026
 31
0.0
1001
ACAD
1000
RTLwPs
1070
   158
  0
LINE
  5
5399
100
AcDbEntity
  8
COTATION1
 62
     0
100
AcDbLine
 10
36.561813
 20
66.220026
 30
0.0
 11
21.561813
 21
66.220026
 31
0.0
1001
ACAD
1000
RTLwPs
1070
   158
  0
INSERT
  5
539A
100
AcDbEntity
  8
COTATION1
 62
     0
100
AcDbBlockReference
  2
_OPEN30
 10
41.561813
 20
66.220026
 30
0.0
 41
5.0
 42
5.0
 43
5.0
1001
ACAD
1000
RTLwPs
1070
   158
  0
INSERT
  5
539B
100
AcDbEntity
  8
COTATION1
 62
     0
100
AcDbBlockReference
  2
_OPEN30
 10
16.561813
 20
66.220026
 30
0.0
 41
5.0
 42
5.0
 43
5.0
 50
180.0
1001
ACAD
1000
RTLwPs
1070
   158
  0
MTEXT
  5
539C
100
AcDbEntity
  8
COTATION1
 62
     0
100
AcDbMText
 10
29.061813
 20
69.470026
 30
0.0
 40
2.5
 41
0.0
 71
     5
 72
     1
  1
\A1;25
  7
ROMANS
1001
ACAD
1000
MTEXTBEGIN
1070
    73
1070
     1
1070
    44
1040
1.0
1070
    74
1070
     0
1000
MTEXTEND
1000
MTEXTBEGIN
1070
    73
1070
     1
1070
    44
1040
1.0
1070
    74
1070
     0
1000
MTEXTEND
  0
POINT
  5
539D
100
AcDbEntity
  8
DEFPOINTS
 62
     0
100
AcDbPoint
 10
41.561813
 20
51.220026
 30
0.0
1001
ACAD
1000
RTLwPs
1070
   128
  0
POINT
  5
539E
100
AcDbEntity
  8
DEFPOINTS
 62
     0
100
AcDbPoint
 10
16.561813
 20
36.970026
 30
0.0
1001
ACAD
1000
RTLwPs
1070
   128
  0
POINT
  5
539F
100
AcDbEntity
  8
DEFPOINTS
 62
     0
100
AcDbPoint
 10
16.561813
 20
66.220026
 30
0.0
1001
ACAD
1000
RTLwPs
1070
   128
  0
ENDBLK
  5
506B
100
AcDbEntity
  8
0
100
AcDbBlockEnd
1001
ACAD
1000
RTLwPs
1070
   128
  0
BLOCK
  5
5077
100
AcDbEntity
  8
0
100
AcDbBlockBegin
  2
*D2
 70
     1
 10
0.0
 20
0.0
 30
0.0
  3
*D2
  1

1001
ACAD
1000
RTLwPs
1070
   128
  0
LINE
  5
53A0
100
AcDbEntity
  8
COTATION1
 62
     0
100
AcDbLine
 10
31.761309
 20
51.220645
 30
0.0
 11
-0.454091
 21
51.220645
 31
0.0
1001
ACAD
1000
RTLwPs
1070
   158
  0
LINE
  5
53A1
100
AcDbEntity
  8
COTATION1
 62
     0
100
AcDbLine
 10
31.761309
 20
17.220643
 30
0.0
 11
-0.454091
 21
17.220643
 31
0.0
1001
ACAD
1000
RTLwPs
1070
   158
  0
LINE
  5
53A2
100
AcDbEntity
  8
COTATION1
 62
     0
100
AcDbLine
 10
2.045909
 20
46.220645
 30
0.0
 11
2.045909
 21
37.470644
 31
0.0
1001
ACAD
1000
RTLwPs
1070
   158
  0
LINE
  5
53A3
100
AcDbEntity
  8
COTATION1
 62
     0
100
AcDbLine
 10
2.045909
 20
22.220643
 30
0.0
 11
2.045909
 21
30.970644
 31
0.0
1001
ACAD
1000
RTLwPs
1070
   158
  0
INSERT
  5
53A4
100
AcDbEntity
  8
COTATION1
 62
     0
100
AcDbBlockReference
  2
_OPEN30
 10
2.045909
 20
51.220645
 30
0.0
 41
5.0
 42
5.0
 43
5.0
 50
90.0
1001
ACAD
1000
RTLwPs
1070
   158
  0
INSERT
  5
53A5
100
AcDbEntity
  8
COTATION1
 62
     0
100
AcDbBlockReference
  2
_OPEN30
 10
2.045909
 20
17.220643
 30
0.0
 41
5.0
 42
5.0
 43
5.0
 50
270.0
1001
ACAD
1000
RTLwPs
1070
   158
  0
MTEXT
  5
53A6
100
AcDbEntity
  8
COTATION1
 62
     0
100
AcDbMText
 10
2.045909
 20
34.220644
 30
0.0
 40
2.5
 41
0.0
 71
     5
 72
     1
  1
\A1;34
  7
ROMANS
1001
ACAD
1000
MTEXTBEGIN
1070
    73
1070
     1
1070
    44
1040
1.0
1070
    74
1070
     0
1000
MTEXTEND
1000
MTEXTBEGIN
1070
    73
1070
     1
1070
    44
1040
1.0
1070
    74
1070
     0
1000
MTEXTEND
  0
POINT
  5
53A7
100
AcDbEntity
  8
DEFPOINTS
 62
     0
100
AcDbPoint
 10
33.761309
 20
51.220645
 30
0.0
1001
ACAD
1000
RTLwPs
1070
   128
  0
POINT
  5
53A8
100
AcDbEntity
  8
DEFPOINTS
 62
     0
100
AcDbPoint
 10
33.761309
 20
17.220643
 30
0.0
1001
ACAD
1000
RTLwPs
1070
   128
  0
POINT
  5
53A9
100
AcDbEntity
  8
DEFPOINTS
 62
     0
100
AcDbPoint
 10
2.045909
 20
17.220643
 30
0.0
1001
ACAD
1000
RTLwPs
1070
   128
  0
ENDBLK
  5
5078
100
AcDbEntity
  8
0
100
AcDbBlockEnd
1001
ACAD
1000
RTLwPs
1070
   128
  0
BLOCK
  5
5083
100
AcDbEntity
  8
0
100
AcDbBlockBegin
  2
*D3
 70
     1
 10
0.0
 20
0.0
 30
0.0
  3
*D3
  1

1001
ACAD
1000
RTLwPs
1070
   128
  0
LINE
  5
53AA
100
AcDbEntity
  8
COTATION1
 62
     0
100
AcDbLine
 10
67.561813
 20
47.970026
 30
0.0
 11
67.561813
 21
68.720026
 31
0.0
1001
ACAD
1000
RTLwPs
1070
   158
  0
LINE
  5
53AB
100
AcDbEntity
  8
COTATION1
 62
     0
100
AcDbLine
 10
41.561813
 20
53.220026
 30
0.0
 11
41.561813
 21
68.720026
 31
0.0
1001
ACAD
1000
RTLwPs
1070
   158
  0
LINE
  5
53AC
100
AcDbEntity
  8
COTATION1
 62
     0
100
AcDbLine
 10
62.561813
 20
66.220026
 30
0.0
 11
46.561813
 21
66.220026
 31
0.0
1001
ACAD
1000
RTLwPs
1070
   158
  0
INSERT
  5
53AD
100
AcDbEntity
  8
COTATION1
 62
     0
100
AcDbBlockReference
  2
_OPEN30
 10
67.561813
 20
66.220026
 30
0.0
 41
5.0
 42
5.0
 43
5.0
1001
ACAD
1000
RTLwPs
1070
   158
  0
INSERT
  5
53AE
100
AcDbEntity
  8
COTATION1
 62
     0
100
AcDbBlockReference
  2
_OPEN30
 10
41.561813
 20
66.220026
 30
0.0
 41
5.0
 42
5.0
 43
5.0
 50
180.0
1001
ACAD
1000
RTLwPs
1070
   158
  0
MTEXT
  5
53AF
100
AcDbEntity
  8
COTATION1
 62
     0
100
AcDbMText
 10
54.561813
 20
69.470026
 30
0.0
 40
2.5
 41
0.0
 71
     5
 72
     1
  1
\A1;26
  7
ROMANS
1001
ACAD
1000
MTEXTBEGIN
1070
    73
1070
     1
1070
    44
1040
1.0
1070
    74
1070
     0
1000
MTEXTEND
1000
MTEXTBEGIN
1070
    73
1070
     1
1070
    44
1040
1.0
1070
    74
1070
     0
1000
MTEXTEND
  0
POINT
  5
53B0
100
AcDbEntity
  8
DEFPOINTS
 62
     0
100
AcDbPoint
 10
67.561813
 20
45.970026
 30
0.0
1001
ACAD
1000
RTLwPs
1070
   128
  0
POINT
  5
53B1
100
AcDbEntity
  8
DEFPOINTS
 62
     0
100
AcDbPoint
 10
41.561813
 20
51.220026
 30
0.0
1001
ACAD
1000
RTLwPs
1070
   128
  0
POINT
  5
53B2
100
AcDbEntity
  8
DEFPOINTS
 62
     0
100
AcDbPoint
 10
41.561813
 20
66.220026
 30
0.0
1001
ACAD
1000
RTLwPs
1070
   128
  0
ENDBLK
  5
5084
100
AcDbEntity
  8
0
100
AcDbBlockEnd
1001
ACAD
1000
RTLwPs
1070
   128
  0
ENDSEC
  0
SECTION
  2
ENTITIES
  0
LINE
  5
504B
100
AcDbEntity
  8
ALPHA
  6
CONTINUOUS
100
AcDbLine
 10
41.561813
 20
35.365101
 30
0.0
 11
40.363859
 21
35.470343
 31
0.0
1001
ACAD
1000
RTLwPs
1070
   128
  0
LINE
  5
504C
100
AcDbEntity
  8
ALPHA
  6
CONTINUOUS
100
AcDbLine
 10
40.363859
 20
35.470343
 30
0.0
 11
40.363859
 21
38.470827
 31
0.0
1001
ACAD
1000
RTLwPs
1070
   128
  0
LINE
  5
504D
100
AcDbEntity
  8
ALPHA
  6
CONTINUOUS
100
AcDbLine
 10
40.363859
 20
38.470827
 30
0.0
 11
41.561813
 21
38.574947
 31
0.0
1001
ACAD
1000
RTLwPs
1070
   128
  0
LINE
  5
5051
100
AcDbEntity
  8
AXE
100
AcDbLine
 10
38.061813
 20
56.220026
 30
0.0
 11
38.061813
 21
2.720026
 31
0.0
  0
LINE
  5
5052
100
AcDbEntity
  8
ALPHA
  6
CONTINUOUS
100
AcDbLine
 10
41.561813
 20
51.220026
 30
0.0
 11
41.561813
 21
22.720026
 31
0.0
1001
ACAD
1000
RTLwPs
1070
   128
  0
LINE
  5
5053
100
AcDbEntity
  8
ALPHA
  6
CONTINUOUS
100
AcDbLine
 10
67.561813
 20
45.970026
 30
0.0
 11
67.561813
 21
27.970026
 31
0.0
1001
ACAD
1000
RTLwPs
1070
   128
  0
LINE
  5
5055
100
AcDbEntity
  8
ALPHA
  6
CONTINUOUS
100
AcDbLine
 10
67.561813
 20
45.970026
 30
0.0
 11
41.561813
 21
45.970026
 31
0.0
1001
ACAD
1000
RTLwPs
1070
   128
  0
TEXT
  5
5056
100
AcDbEntity
  8
AXE
100
AcDbText
 10
30.585622
 20
2.720026
 30
0.0
 40
8.0
  1
Y
  7
ROMANS
 72
     2
 11
37.061813
 21
2.720026
 31
0.0
100
AcDbText
  0
TEXT
  5
5057
100
AcDbEntity
  8
AXE
100
AcDbText
 10
75.884082
 20
37.919129
 30
0.0
 40
8.0
  1
Z
  7
ROMANS
 72
     2
 11
82.360272
 21
37.919129
 31
0.0
100
AcDbText
  0
DIMENSION
  5
5058
100
AcDbEntity
  8
COTATION1
100
AcDbDimension
  2
*D1
 10
16.561813
 20
66.220026
 30
0.0
 11
29.061813
 21
69.470026
 31
0.0
 70
    32
  3
SC_DEFAUT
100
AcDbAlignedDimension
 13
41.561813
 23
51.220026
 33
0.0
 14
16.561813
 24
36.970026
 34
0.0
100
AcDbRotatedDimension
  0
DIMENSION
  5
5059
100
AcDbEntity
  8
COTATION1
100
AcDbDimension
  2
*D2
 10
2.045909
 20
17.220643
 30
0.0
 11
2.045909
 21
34.220644
 31
0.0
 70
    32
  3
SC_DEFAUT
100
AcDbAlignedDimension
 13
33.761309
 23
51.220645
 33
0.0
 14
33.761309
 24
17.220643
 34
0.0
 50
90.0
100
AcDbRotatedDimension
  0
LINE
  5
505A
100
AcDbEntity
  8
ALPHA
  6
CONTINUOUS
100
AcDbLine
 10
67.561813
 20
27.970026
 30
0.0
 11
41.561813
 21
27.970026
 31
0.0
1001
ACAD
1000
RTLwPs
1070
   128
  0
DIMENSION
  5
505B
100
AcDbEntity
  8
COTATION1
100
AcDbDimension
  2
*D3
 10
41.561813
 20
66.220026
 30
0.0
 11
54.561813
 21
69.470026
 31
0.0
 70
    32
  3
SC_DEFAUT
100
AcDbAlignedDimension
 13
67.561813
 23
45.970026
 33
0.0
 14
41.561813
 24
51.220026
 34
0.0
100
AcDbRotatedDimension
  0
LINE
  5
505D
100
AcDbEntity
  8
ALPHA
  6
CONTINUOUS
100
AcDbLine
 10
41.561813
 20
51.220026
 30
0.0
 11
34.561813
 21
51.220026
 31
0.0
1001
ACAD
1000
RTLwPs
1070
   128
  0
LINE
  5
505E
100
AcDbEntity
  8
ALPHA
  6
CONTINUOUS
100
AcDbLine
 10
41.561813
 20
22.720026
 30
0.0
 11
34.561813
 21
22.720026
 31
0.0
1001
ACAD
1000
RTLwPs
1070
   128
  0
LINE
  5
505F
100
AcDbEntity
  8
ALPHA
  6
CONTINUOUS
100
AcDbLine
 10
34.561813
 20
51.220643
 30
0.0
 11
34.561813
 21
22.719409
 31
0.0
1001
ACAD
1000
RTLwPs
1070
   128
  0
LINE
  5
50A1
100
AcDbEntity
  8
AXE
100
AcDbLine
 10
10.487097
 20
36.970026
 30
0.0
 11
82.53641
 21
36.970026
 31
0.0
  0
LINE
  5
50A7
100
AcDbEntity
  8
ALPHA
  6
CONTINUOUS
100
AcDbLine
 10
34.561813
 20
51.220643
 30
0.0
 11
34.561813
 21
22.735086
 31
0.0
1001
ACAD
1000
RTLwPs
1070
   128
  0
LINE
  5
50AC
100
AcDbEntity
  8
ALPHA
  6
CONTINUOUS
100
AcDbLine
 10
33.761308
 20
49.532313
 30
0.0
 11
34.145326
 21
49.532313
 31
0.0
1001
ACAD
1000
RTLwPs
1070
   128
  0
LINE
  5
50AD
100
AcDbEntity
  8
ALPHA
  6
CONTINUOUS
100
AcDbLine
 10
34.145326
 20
49.532313
 30
0.0
 11
34.145326
 21
24.483875
 31
0.0
1001
ACAD
1000
RTLwPs
1070
   128
  0
LINE
  5
50AE
100
AcDbEntity
  8
ALPHA
  6
CONTINUOUS
100
AcDbLine
 10
34.145326
 20
24.483875
 30
0.0
 11
33.761308
 21
24.483875
 31
0.0
1001
ACAD
1000
RTLwPs
1070
   128
  0
LINE
  5
50AF
100
AcDbEntity
  8
ALPHA
  6
CONTINUOUS
100
AcDbLine
 10
33.761308
 20
24.483875
 30
0.0
 11
33.761308
 21
49.532313
 31
0.0
1001
ACAD
1000
RTLwPs
1070
   128
  0
LINE
  5
50B0
100
AcDbEntity
  8
ALPHA
  6
CONTINUOUS
100
AcDbLine
 10
34.145326
 20
49.825646
 30
0.0
 11
34.561813
 21
51.220643
 31
0.0
1001
ACAD
1000
RTLwPs
1070
   128
  0
LINE
  5
50B4
100
AcDbEntity
  8
ALPHA
  6
CONTINUOUS
100
AcDbLine
 10
34.561813
 20
22.735086
 30
0.0
 11
34.145326
 21
24.130087
 31
0.0
1001
ACAD
1000
RTLwPs
1070
   128
  0
LINE
  5
50B5
100
AcDbEntity
  8
ALPHA
  6
CONTINUOUS
100
AcDbLine
 10
34.145326
 20
24.130087
 30
0.0
 11
34.145326
 21
49.825646
 31
0.0
1001
ACAD
1000
RTLwPs
1070
   128
  0
SPLINE
  5
50B6
100
AcDbEntity
  8
ALPHA
  6
CONTINUOUS
100
AcDbSpline
210
0.0
220
0.0
230
-1.0
 70
     8
 71
     3
 72
    11
 73
     7
 74
     0
 42
0.0000001
 43
0.0000001
 40
0.0
 40
0.0
 40
0.0
 40
0.0
 40
1.0
 40
1.0
 40
1.0
 40
2.0
 40
2.0
 40
2.0
 40
2.0
 10
18.36210240705705
 20
50.72802835132072
 30
0.0
 10
17.19717592277007
 20
46.52959075778219
 30
0.0
 10
16.56181236694797
 20
41.54408606337537
 30
0.0
 10
16.56181236694797
 20
36.97394679488908
 30
0.0
 10
16.56181236694797
 20
28.75620494513666
 30
0.0
 10
18.58098095360029
 20
20.45001601008047
 30
0.0
 10
22.13621790780862
 20
17.7132601748028
 30
0.0
1001
ACAD
1000
RTLwPs
1070
   128
  0
SPLINE
  5
50B7
100
AcDbEntity
  8
ALPHA
  6
CONTINUOUS
100
AcDbSpline
210
0.0423373013952742
220
0.9991033744866273
230
0.0
 70
    24
 71
     3
 72
     8
 73
     4
 74
     0
 42
0.0000001
 43
0.0000001
 40
2.0
 40
2.0
 40
2.0
 40
2.0
 40
3.0
 40
3.0
 40
3.0
 40
3.0
 10
22.13621790780862
 20
17.7132601748028
 30
0.0
 10
22.13621790780862
 20
17.7132601748028
 30
0.0
 10
33.7613089915622
 20
17.22064349716093
 30
0.0
 10
33.7613089915622
 20
17.22064349716093
 30
0.0
1001
ACAD
1000
RTLwPs
1070
   128
  0
SPLINE
  5
50B8
100
AcDbEntity
  8
ALPHA
  6
CONTINUOUS
100
AcDbSpline
210
-1.0
220
0.0
230
0.0
 70
    24
 71
     3
 72
     8
 73
     4
 74
     0
 42
0.0000001
 43
0.0000001
 40
3.0
 40
3.0
 40
3.0
 40
3.0
 40
4.0
 40
4.0
 40
4.0
 40
4.0
 10
33.7613089915622
 20
17.22064349716093
 30
0.0
 10
33.7613089915622
 20
17.22064349716093
 30
0.0
 10
33.7613089915622
 20
51.22064502896248
 30
0.0
 10
33.7613089915622
 20
51.22064502896248
 30
0.0
1001
ACAD
1000
RTLwPs
1070
   128
  0
SPLINE
  5
50B9
100
AcDbEntity
  8
ALPHA
  6
CONTINUOUS
100
AcDbSpline
210
-0.0319733883780526
220
0.9994887205144568
230
0.0
 70
    24
 71
     3
 72
     8
 73
     4
 74
     0
 42
0.0000001
 43
0.0000001
 40
4.0
 40
4.0
 40
4.0
 40
4.0
 40
5.0
 40
5.0
 40
5.0
 40
5.0
 10
33.7613089915622
 20
51.22064502896248
 30
0.0
 10
33.7613089915622
 20
51.22064502896248
 30
0.0
 10
18.36210240705705
 20
50.72802835132072
 30
0.0
 10
18.36210240705705
 20
50.72802835132072
 30
0.0
1001
ACAD
1000
RTLwPs
1070
   128
  0
ENDSEC
  0
SECTION
  2
OBJECTS
  0
DICTIONARY
  5
19
102
{ACAD_XDICTIONARY
360
53F4
102
}
100
AcDbDictionary
  3
ACAD_COLOR
350
6DB
  3
ACAD_GROUP
350
1A
  3
ACAD_LAYOUT
350
1E
  3
ACAD_MATERIAL
350
6DA
  3
ACAD_MLINESTYLE
350
1B
  3
ACAD_PLOTSETTINGS
350
22
  3
ACAD_PLOTSTYLENAME
350
1F
  3
ACAD_TABLESTYLE
350
6DC
  3
ACAD_WIPEOUT_VARS
350
23
  3
ACDBHEADERROUNDTRIPXREC
350
53D0
  3
ACDBVARIABLEDICTIONARY
350
7DA
  3
ASE_INDEX_DICTIONARY
350
3571
  0
DICTIONARY
  5
53C2
100
AcDbDictionary
  3
ACAD_XREC_ROUNDTRIP
360
53C3
  0
DICTIONARY
  5
53C4
100
AcDbDictionary
  3
ACAD_XREC_ROUNDTRIP
360
53C5
  0
DICTIONARY
  5
53C6
100
AcDbDictionary
  3
ACAD_XREC_ROUNDTRIP
360
53C7
  0
DICTIONARY
  5
26F0
100
AcDbDictionary
  3
ACAD_LAYERFILTERS
360
26F2
  3
ACAD_LAYERSTATES
360
3474
  3
ACLYDICTIONARY
360
26F1
  0
DICTIONARY
  5
53C0
100
AcDbDictionary
  3
ACAD_XREC_ROUNDTRIP
360
53C1
  0
DICTIONARY
  5
53CC
100
AcDbDictionary
  3
ACAD_XREC_ROUNDTRIP
360
53CD
  0
DICTIONARY
  5
53C8
100
AcDbDictionary
  3
ACAD_XREC_ROUNDTRIP
360
53C9
  0
DICTIONARY
  5
53CA
100
AcDbDictionary
  3
ACAD_XREC_ROUNDTRIP
360
53CB
  0
DICTIONARY
  5
53BE
100
AcDbDictionary
  3
ACAD_XREC_ROUNDTRIP
360
53BF
  0
DICTIONARY
  5
53FC
100
AcDbDictionary
  3
ACAD_XREC_ROUNDTRIP
360
53FD
  0
DICTIONARY
  5
7D7
100
AcDbDictionary
  3
ACAD_LAYOUTSELFREF
360
53F1
  3
ACAD_SORTENTS
360
7D8
  0
DICTIONARY
  5
53F2
100
AcDbDictionary
  3
ACAD_LAYOUTSELFREF
360
53F3
  0
DICTIONARY
  5
53F4
100
AcDbDictionary
  3
ACAD_XREC_ROUNDTRIP
360
53F5
  0
DICTIONARY
  5
6DB
102
{ACAD_REACTORS
330
19
102
}
100
AcDbDictionary
  0
DICTIONARY
  5
1A
102
{ACAD_REACTORS
330
19
102
}
100
AcDbDictionary
  0
DICTIONARY
  5
1E
102
{ACAD_XDICTIONARY
360
53F8
102
}
102
{ACAD_REACTORS
330
19
102
}
100
AcDbDictionary
  3
LAYOUT1
350
21
  3
MODEL
350
20
  0
DICTIONARY
  5
6DA
102
{ACAD_REACTORS
330
19
102
}
100
AcDbDictionary
  0
DICTIONARY
  5
1B
102
{ACAD_XDICTIONARY
360
53F6
102
}
102
{ACAD_REACTORS
330
19
102
}
100
AcDbDictionary
  3
STANDARD
350
1C
  0
DICTIONARY
  5
22
102
{ACAD_REACTORS
330
19
102
}
100
AcDbDictionary
  0
ACAD_ZOMBIE_OBJECT
  5
1F
102
{ACAD_REACTORS
330
19
102
}
100
AcDbZombieObject
 90
      499
 91
      517
 93
       86
310
405010041939BDC9B585B0
350
1D
340
1D
 94
        0
  0
DICTIONARY
  5
6DC
102
{ACAD_XDICTIONARY
360
53FA
102
}
102
{ACAD_REACTORS
330
19
102
}
100
AcDbDictionary
  3
STANDARD
350
6DD
  0
ACAD_ZOMBIE_OBJECT
  5
23
102
{ACAD_REACTORS
330
19
102
}
100
AcDbZombieObject
 90
      499
 91
      521
 93
       10
310
4040
 94
        0
  0
DICTIONARY
  5
53D0
102
{ACAD_REACTORS
330
19
102
}
100
AcDbDictionary
  3
CEPSNTYPE
350
53DA
  3
DIMSTYLEDATA
350
53DE
  3
FINGERPRINTGUID
350
53DB
  3
HYPERLINKBASE
350
53D3
  3
INSUNITS
350
53D9
  3
LAYOUTDICT
350
53D5
  3
LWETCUNION
350
53D8
  3
PLOTSETDICT
350
53D6
  3
PLOTSTYLNAMDICT
350
53D7
  3
PSVPSCALE
350
53DD
  3
PUCSBASE
350
53E1
  3
PUCSORGBACK
350
53E7
  3
PUCSORGBOTTOM
350
53E3
  3
PUCSORGFRONT
350
53E6
  3
PUCSORGLEFT
350
53E4
  3
PUCSORGRIGHT
350
53E5
  3
PUCSORGTOP
350
53E2
  3
PUCSORTHOREF
350
53DF
  3
PUCSORTHOVIEW
350
53E0
  3
STYLESHEET
350
53D4
  3
TSTACKALIGN
350
53D1
  3
TSTACKSIZE
350
53D2
  3
UCSBASE
350
53EA
  3
UCSORGBACK
350
53F0
  3
UCSORGBOTTOM
350
53EC
  3
UCSORGFRONT
350
53EF
  3
UCSORGLEFT
350
53ED
  3
UCSORGRIGHT
350
53EE
  3
UCSORGTOP
350
53EB
  3
UCSORTHOREF
350
53E8
  3
UCSORTHOVIEW
350
53E9
  3
VERSIONGUID
350
53DC
  0
DICTIONARY
  5
7DA
102
{ACAD_REACTORS
330
19
102
}
100
AcDbDictionary
  3
CTABLESTYLE
350
7DB
  3
DIMASSOC
350
1A71
  3
PROJECTNAME
350
1A72
  0
DICTIONARY
  5
3571
102
{ACAD_XDICTIONARY
360
53FE
102
}
102
{ACAD_REACTORS
330
19
102
}
100
AcDbDictionary
  3
ASEBLOCKHIERARCHYINDEXRECORD
350
3572
1001
DCO15
1040
1558939622.437
  0
XRECORD
  5
53C3
102
{ACAD_REACTORS
330
53C2
102
}
100
AcDbXrecord
102
EXTNAMES
  1
BYBLOCK
  2
ByBlock
  0
XRECORD
  5
53C5
102
{ACAD_REACTORS
330
53C4
102
}
100
AcDbXrecord
102
EXTNAMES
  1
BYLAYER
  2
ByLayer
  0
XRECORD
  5
53C7
102
{ACAD_REACTORS
330
53C6
102
}
100
AcDbXrecord
102
EXTNAMES
  1
CONTINUOUS
  2
Continuous
  0
DICTIONARY
  5
26F2
102
{ACAD_REACTORS
330
26F0
102
}
100
AcDbDictionary
  0
DICTIONARY
  5
3474
102
{ACAD_REACTORS
330
26F0
102
}
100
AcDbDictionary
  0
DICTIONARY
  5
26F1
102
{ACAD_REACTORS
330
26F0
102
}
100
AcDbDictionary
1001
ACAD
1000
<All
  0
XRECORD
  5
53C1
102
{ACAD_REACTORS
330
53C0
102
}
100
AcDbXrecord
102
EXTNAMES
  1
DEFPOINTS
  2
Defpoints
102
PLOTBIT
280
     0
  0
XRECORD
  5
53CD
102
{ACAD_REACTORS
330
53CC
102
}
100
AcDbXrecord
102
EXTNAMES
  1
STANDARD
  2
Standard
  0
XRECORD
  5
53C9
102
{ACAD_REACTORS
330
53C8
102
}
100
AcDbXrecord
102
EXTNAMES
  1
ACAECLAYERSTANDARD
  2
AcAecLayerStandard
  0
XRECORD
  5
53CB
102
{ACAD_REACTORS
330
53CA
102
}
100
AcDbXrecord
102
EXTNAMES
  1
ACAD_EXEMPT_FROM_CAD_STAND
  2
ACAD_EXEMPT_FROM_CAD_STANDARDS
  0
XRECORD
  5
53BF
102
{ACAD_REACTORS
330
53BE
102
}
100
AcDbXrecord
102
EXTNAMES
  1
STANDARD
  2
Standard
  0
XRECORD
  5
53FD
102
{ACAD_REACTORS
330
53FC
102
}
100
AcDbXrecord
102
ACADR14ROUNDTRIP
1000
DSTYLE
1002
{
1070
   279
 70
     2
1070
   341
340
6FA
1070
   342
340
6FA
1002
}
  0
XRECORD
  5
53F1
102
{ACAD_REACTORS
330
7D7
102
}
100
AcDbXrecord
340
A
  0
SORTENTSTABLE
  5
7D8
102
{ACAD_REACTORS
330
7D7
102
}
100
AcDbSortentsTable
330
A
331
5058
  5
5059
331
505A
  5
505B
331
50A7
  5
50A8
331
505E
  5
505F
331
50AD
  5
50AE
331
50AF
  5
50B0
331
504B
  5
504B
331
50B5
  5
50B6
331
504D
  5
504D
331
50B8
  5
50B9
331
50B7
  5
50B8
331
5051
  5
5051
331
5053
  5
5055
331
5055
  5
5056
331
5057
  5
5058
331
5059
  5
505A
331
505B
  5
505D
331
505D
  5
505E
331
505F
  5
50A1
331
50AC
  5
50AD
331
50AE
  5
50AF
331
50B0
  5
50B1
331
50B4
  5
50B5
331
504C
  5
504C
331
50B9
  5
50BA
331
50B6
  5
50B7
331
5052
  5
5052
331
50A1
  5
50A2
331
5056
  5
5057
  0
XRECORD
  5
53F3
102
{ACAD_REACTORS
330
53F2
102
}
100
AcDbXrecord
340
B
  0
XRECORD
  5
53F5
102
{ACAD_REACTORS
330
53F4
102
}
100
AcDbXrecord
102
EXTNAMES
  1
ACDBVARIABLEDICTIONARY
  2
AcDbVariableDictionary
  0
DICTIONARY
  5
53F8
100
AcDbDictionary
  3
ACAD_XREC_ROUNDTRIP
360
53F9
  0
ACAD_ZOMBIE_OBJECT
  5
21
102
{ACAD_XDICTIONARY
360
53B7
102
}
102
{ACAD_REACTORS
330
1E
102
}
100
AcDbZombieObject
 90
      499
 91
      515
 93
      812
310
AAAAAAAAAA5A69074C61796F757431406A800000000000000000000000000000000000000000000A1000000000000008902A6A6A10232D5E076BC5510408CB5781DAF154410232D5E076BC5510408CB5781DAF15C410232D5E076BC5710408CB5781DAF15C40
330
B
330
0
340
0
340
0
 94
        0
  0
ACAD_ZOMBIE_OBJECT
  5
20
102
{ACAD_XDICTIONARY
360
53B5
102
}
102
{ACAD_REACTORS
330
1E
102
}
100
AcDbZombieObject
 90
      499
 91
      515
 93
      420
310
A00012AAAAAAAA5A69054D6F64656CAA80000000000000000000000000000000000000000000000000000000000000002AAAAAAAA0
330
A
330
0
340
0
340
0
 94
        0
  0
DICTIONARY
  5
53F6
100
AcDbDictionary
  3
ACAD_XREC_ROUNDTRIP
360
53F7
  0
MLINESTYLE
  5
1C
102
{ACAD_REACTORS
330
1B
102
}
100
AcDbMlineStyle
  2
STANDARD
 70
     0
  3

 62
     0
 51
90.0
 52
90.0
 71
     2
 49
0.5
 62
   256
  6
BYLAYER
 49
-0.5
 62
   256
  6
BYLAYER
  0
ACAD_ZOMBIE_OBJECT
  5
1D
102
{ACAD_REACTORS
330
1F
102
}
100
AcDbZombieObject
 90
      499
 91
      518
 93
        0
 94
        0
  0
DICTIONARY
  5
53FA
100
AcDbDictionary
  3
ACAD_XREC_ROUNDTRIP
360
53FB
  0
ACAD_ZOMBIE_OBJECT
  5
6DD
102
{ACAD_REACTORS
330
6DC
102
}
100
AcDbZombieObject
 90
      499
 91
      525
 93
     1841
310
4214DD185B99185C9928000000000000F83F0000000000003E0FC00000000000004901028000000C1008070000C3001FDFF8000000C1003FBFF000000182007F7FE00000030400FEFFC00000060801FDFF8000000C1003FBFF000000182000000000000000C2020B0000001820100E000186003FBFF000000182007F7FE000
310
00030400FEFFC00000060801FDFF8000000C1003FBFF000000182007F7FE0000003040000000000000012404160000003040201C00030C007F7FE00000030400FEFFC00000060801FDFF8000000C1003FBFF000000182007F7FE00000030400FEFFC00000060803C
340
17
340
17
340
17
 94
        0
1001
ACAD
1000
AcadProxyRoundTripData
1071
      524
1071
   393239
1070
     0
  0
XRECORD
  5
53DA
102
{ACAD_REACTORS
330
53D0
102
}
100
AcDbXrecord
 90
        0
  0
XRECORD
  5
53DE
102
{ACAD_REACTORS
330
53D0
102
}
100
AcDbXrecord
1000
DSTYLE
1002
{
1070
   278
 70
     0
1070
   371
 70
     0
1070
   372
 70
     0
1002
}
  0
XRECORD
  5
53DB
102
{ACAD_REACTORS
330
53D0
102
}
100
AcDbXrecord
  1

  0
XRECORD
  5
53D3
102
{ACAD_REACTORS
330
53D0
102
}
100
AcDbXrecord
  1

  0
XRECORD
  5
53D9
102
{ACAD_REACTORS
330
53D0
102
}
100
AcDbXrecord
 90
        0
  0
XRECORD
  5
53D5
102
{ACAD_REACTORS
330
53D0
102
}
100
AcDbXrecord
340
1E
  0
XRECORD
  5
53D8
102
{ACAD_REACTORS
330
53D0
102
}
100
AcDbXrecord
 90
    10752
  0
XRECORD
  5
53D6
102
{ACAD_REACTORS
330
53D0
102
}
100
AcDbXrecord
340
22
  0
XRECORD
  5
53D7
102
{ACAD_REACTORS
330
53D0
102
}
100
AcDbXrecord
340
1F
  0
XRECORD
  5
53DD
102
{ACAD_REACTORS
330
53D0
102
}
100
AcDbXrecord
 40
0.0
  0
XRECORD
  5
53E1
102
{ACAD_REACTORS
330
53D0
102
}
100
AcDbXrecord
340
0
  0
XRECORD
  5
53E7
102
{ACAD_REACTORS
330
53D0
102
}
100
AcDbXrecord
 10
0.0
 20
0.0
 30
0.0
  0
XRECORD
  5
53E3
102
{ACAD_REACTORS
330
53D0
102
}
100
AcDbXrecord
 10
0.0
 20
0.0
 30
0.0
  0
XRECORD
  5
53E6
102
{ACAD_REACTORS
330
53D0
102
}
100
AcDbXrecord
 10
0.0
 20
0.0
 30
0.0
  0
XRECORD
  5
53E4
102
{ACAD_REACTORS
330
53D0
102
}
100
AcDbXrecord
 10
0.0
 20
0.0
 30
0.0
  0
XRECORD
  5
53E5
102
{ACAD_REACTORS
330
53D0
102
}
100
AcDbXrecord
 10
0.0
 20
0.0
 30
0.0
  0
XRECORD
  5
53E2
102
{ACAD_REACTORS
330
53D0
102
}
100
AcDbXrecord
 10
0.0
 20
0.0
 30
0.0
  0
XRECORD
  5
53DF
102
{ACAD_REACTORS
330
53D0
102
}
100
AcDbXrecord
340
0
  0
XRECORD
  5
53E0
102
{ACAD_REACTORS
330
53D0
102
}
100
AcDbXrecord
 70
     0
  0
XRECORD
  5
53D4
102
{ACAD_REACTORS
330
53D0
102
}
100
AcDbXrecord
  1

  0
XRECORD
  5
53D1
102
{ACAD_REACTORS
330
53D0
102
}
100
AcDbXrecord
 90
        1
  0
XRECORD
  5
53D2
102
{ACAD_REACTORS
330
53D0
102
}
100
AcDbXrecord
 90
       70
  0
XRECORD
  5
53EA
102
{ACAD_REACTORS
330
53D0
102
}
100
AcDbXrecord
340
0
  0
XRECORD
  5
53F0
102
{ACAD_REACTORS
330
53D0
102
}
100
AcDbXrecord
 10
0.0
 20
0.0
 30
0.0
  0
XRECORD
  5
53EC
102
{ACAD_REACTORS
330
53D0
102
}
100
AcDbXrecord
 10
0.0
 20
0.0
 30
0.0
  0
XRECORD
  5
53EF
102
{ACAD_REACTORS
330
53D0
102
}
100
AcDbXrecord
 10
0.0
 20
0.0
 30
0.0
  0
XRECORD
  5
53ED
102
{ACAD_REACTORS
330
53D0
102
}
100
AcDbXrecord
 10
0.0
 20
0.0
 30
0.0
  0
XRECORD
  5
53EE
102
{ACAD_REACTORS
330
53D0
102
}
100
AcDbXrecord
 10
0.0
 20
0.0
 30
0.0
  0
XRECORD
  5
53EB
102
{ACAD_REACTORS
330
53D0
102
}
100
AcDbXrecord
 10
0.0
 20
0.0
 30
0.0
  0
XRECORD
  5
53E8
102
{ACAD_REACTORS
330
53D0
102
}
100
AcDbXrecord
340
0
  0
XRECORD
  5
53E9
102
{ACAD_REACTORS
330
53D0
102
}
100
AcDbXrecord
 70
     0
  0
XRECORD
  5
53DC
102
{ACAD_REACTORS
330
53D0
102
}
100
AcDbXrecord
  1
{E07BB2F6-A0C3-43E3-84E5-26656529B1AA}
  0
DICTIONARYVAR
  5
7DB
102
{ACAD_REACTORS
330
7DA
102
}
100
DictionaryVariables
280
     0
  1
STANDARD
  0
DICTIONARYVAR
  5
1A71
102
{ACAD_REACTORS
330
7DA
102
}
100
DictionaryVariables
280
     0
  1
1
  0
DICTIONARYVAR
  5
1A72
102
{ACAD_REACTORS
330
7DA
102
}
100
DictionaryVariables
280
     0
  1

  0
DICTIONARY
  5
53FE
100
AcDbDictionary
  3
ACAD_XREC_ROUNDTRIP
360
53FF
  0
XRECORD
  5
3572
102
{ACAD_REACTORS
330
3571
102
}
100
AcDbXrecord
330
0
330
0
330
0
330
0
330
0
330
0
330
0
330
0
330
0
330
0
330
0
330
0
330
0
330
0
330
0
330
0
330
0
330
0
330
0
330
0
330
0
330
0
330
0
330
0
330
0
330
0
330
0
330
0
330
0
330
0
330
0
  0
XRECORD
  5
53F9
102
{ACAD_REACTORS
330
53F8
102
}
100
AcDbXrecord
102
EXTNAMES
  1
LAYOUT1
  2
Layout1
  1
MODEL
  2
Model
  0
DICTIONARY
  5
53B7
100
AcDbDictionary
  3
ACAD_XREC_ROUNDTRIP
360
53B8
  0
DICTIONARY
  5
53B5
100
AcDbDictionary
  3
ACAD_XREC_ROUNDTRIP
360
53B6
  0
XRECORD
  5
53F7
102
{ACAD_REACTORS
330
53F6
102
}
100
AcDbXrecord
102
EXTNAMES
  1
STANDARD
  2
Standard
  0
XRECORD
  5
53FB
102
{ACAD_REACTORS
330
53FA
102
}
100
AcDbXrecord
102
EXTNAMES
  1
STANDARD
  2
Standard
  0
XRECORD
  5
53FF
102
{ACAD_REACTORS
330
53FE
102
}
100
AcDbXrecord
102
EXTNAMES
  1
ASEBLOCKHIERARCHYINDEXRECORD
  2
ASEBlockHierarchyIndexRecord
  0
XRECORD
  5
53B8
102
{ACAD_REACTORS
330
53B7
102
}
100
AcDbXrecord
102
SHADEPLOT
 70
     0
102
SHADEPLOTRESLEVEL
 70
     2
102
SHADEPLOTCUSTOMDPI
 70
   300
  0
XRECORD
  5
53B6
102
{ACAD_REACTORS
330
53B5
102
}
100
AcDbXrecord
102
SHADEPLOT
 70
     0
102
SHADEPLOTRESLEVEL
 70
     2
102
SHADEPLOTCUSTOMDPI
 70
   300
  0
ENDSEC
  0
EOF
