  0
SECTION
  2
HEADER
  9
$ACADVER
  1
AC1012
  9
$DWGCODEPAGE
  3
ANSI_1252
  9
$INSBASE
 10
402.590624
 20
-1.041018
 30
0.0
  9
$EXTMIN
 10
39.807362
 20
13.534184
 30
0.0
  9
$EXTMAX
 10
179.146689
 20
119.06862
 30
0.0
  9
$LIMMIN
 10
-407.970438
 20
-367.832444
  9
$LIMMAX
 10
429.804077
 20
234.370848
  9
$ORTHOMODE
 70
     1
  9
$REGENMODE
 70
     1
  9
$FILLMODE
 70
     1
  9
$QTEXTMODE
 70
     0
  9
$MIRRTEXT
 70
     1
  9
$DRAGMODE
 70
     2
  9
$LTSCALE
 40
10.0
  9
$OSMODE
 70
    39
  9
$ATTMODE
 70
     1
  9
$TEXTSIZE
 40
6.0
  9
$TRACEWID
 40
1.0
  9
$TEXTSTYLE
  7
ROMANS
  9
$CLAYER
  8
ALPHA
  9
$CELTYPE
  6
BYLAYER
  9
$CECOLOR
 62
   256
  9
$CELTSCALE
 40
1.0
  9
$DELOBJ
 70
     1
  9
$DISPSILH
 70
     0
  9
$DIMSCALE
 40
1.0
  9
$DIMASZ
 40
5.0
  9
$DIMEXO
 40
2.0
  9
$DIMDLI
 40
0.38
  9
$DIMRND
 40
0.0
  9
$DIMDLE
 40
0.0
  9
$DIMEXE
 40
2.5
  9
$DIMTP
 40
0.0
  9
$DIMTM
 40
0.0
  9
$DIMTXT
 40
2.5
  9
$DIMCEN
 40
0.0
  9
$DIMTSZ
 40
0.0
  9
$DIMTOL
 70
     0
  9
$DIMLIM
 70
     0
  9
$DIMTIH
 70
     1
  9
$DIMTOH
 70
     1
  9
$DIMSE1
 70
     0
  9
$DIMSE2
 70
     0
  9
$DIMTAD
 70
     1
  9
$DIMZIN
 70
    12
  9
$DIMBLK
  1
OPEN30
  9
$DIMASO
 70
     1
  9
$DIMSHO
 70
     1
  9
$DIMPOST
  1

  9
$DIMAPOST
  1

  9
$DIMALT
 70
     0
  9
$DIMALTD
 70
     2
  9
$DIMALTF
 40
25.4
  9
$DIMLFAC
 40
1.0
  9
$DIMTOFL
 70
     0
  9
$DIMTVP
 40
0.0
  9
$DIMTIX
 70
     0
  9
$DIMSOXD
 70
     0
  9
$DIMSAH
 70
     0
  9
$DIMBLK1
  1

  9
$DIMBLK2
  1

  9
$DIMSTYLE
  2
SC_DEFAUT
  9
$DIMCLRD
 70
     0
  9
$DIMCLRE
 70
     0
  9
$DIMCLRT
 70
     0
  9
$DIMTFAC
 40
1.0
  9
$DIMGAP
 40
2.0
  9
$DIMJUST
 70
     0
  9
$DIMSD1
 70
     0
  9
$DIMSD2
 70
     0
  9
$DIMTOLJ
 70
     1
  9
$DIMTZIN
 70
    12
  9
$DIMALTZ
 70
    12
  9
$DIMALTTZ
 70
    12
  9
$DIMFIT
 70
     5
  9
$DIMUPT
 70
     0
  9
$DIMUNIT
 70
     2
  9
$DIMDEC
 70
     1
  9
$DIMTDEC
 70
     1
  9
$DIMALTU
 70
     2
  9
$DIMALTTD
 70
     2
  9
$DIMTXSTY
  7
ROMANS
  9
$DIMAUNIT
 70
     0
  9
$LUNITS
 70
     2
  9
$LUPREC
 70
     1
  9
$SKETCHINC
 40
0.1
  9
$FILLETRAD
 40
0.0
  9
$AUNITS
 70
     0
  9
$AUPREC
 70
     0
  9
$MENU
  1
acad
  9
$ELEVATION
 40
0.0
  9
$PELEVATION
 40
0.0
  9
$THICKNESS
 40
0.0
  9
$LIMCHECK
 70
     0
  9
$BLIPMODE
 70
     0
  9
$CHAMFERA
 40
0.0
  9
$CHAMFERB
 40
0.0
  9
$CHAMFERC
 40
0.0
  9
$CHAMFERD
 40
0.0
  9
$SKPOLY
 70
     0
  9
$TDCREATE
 40
2450373.687919444
  9
$TDUPDATE
 40
2453511.386231110
  9
$TDINDWG
 40
0.9653189236
  9
$TDUSRTIMER
 40
0.9653189236
  9
$USRTIMER
 70
     1
  9
$ANGBASE
 50
0.0
  9
$ANGDIR
 70
     0
  9
$PDMODE
 70
    32
  9
$PDSIZE
 40
0.0
  9
$PLINEWID
 40
0.0
  9
$COORDS
 70
     0
  9
$SPLFRAME
 70
     0
  9
$SPLINETYPE
 70
     6
  9
$SPLINESEGS
 70
     8
  9
$ATTDIA
 70
     0
  9
$ATTREQ
 70
     1
  9
$HANDLING
 70
     1
  9
$HANDSEED
  5
C252
  9
$SURFTAB1
 70
     6
  9
$SURFTAB2
 70
     6
  9
$SURFTYPE
 70
     6
  9
$SURFU
 70
     6
  9
$SURFV
 70
     6
  9
$UCSNAME
  2

  9
$UCSORG
 10
0.0
 20
0.0
 30
0.0
  9
$UCSXDIR
 10
1.0
 20
0.0
 30
0.0
  9
$UCSYDIR
 10
0.0
 20
1.0
 30
0.0
  9
$PUCSNAME
  2

  9
$PUCSORG
 10
0.0
 20
0.0
 30
0.0
  9
$PUCSXDIR
 10
1.0
 20
0.0
 30
0.0
  9
$PUCSYDIR
 10
0.0
 20
1.0
 30
0.0
  9
$USERI1
 70
     0
  9
$USERI2
 70
     0
  9
$USERI3
 70
     0
  9
$USERI4
 70
     0
  9
$USERI5
 70
     0
  9
$USERR1
 40
0.0
  9
$USERR2
 40
0.0
  9
$USERR3
 40
0.0
  9
$USERR4
 40
0.0
  9
$USERR5
 40
0.0
  9
$WORLDVIEW
 70
     1
  9
$SHADEDGE
 70
     3
  9
$SHADEDIF
 70
    70
  9
$TILEMODE
 70
     1
  9
$MAXACTVP
 70
    16
  9
$PINSBASE
 10
0.0
 20
0.0
 30
0.0
  9
$PLIMCHECK
 70
     0
  9
$PEXTMIN
 10
1.000000E+20
 20
1.000000E+20
 30
1.000000E+20
  9
$PEXTMAX
 10
-1.000000E+20
 20
-1.000000E+20
 30
-1.000000E+20
  9
$PLIMMIN
 10
0.0
 20
0.0
  9
$PLIMMAX
 10
12.0
 20
9.0
  9
$UNITMODE
 70
     0
  9
$VISRETAIN
 70
     0
  9
$PLINEGEN
 70
     0
  9
$PSLTSCALE
 70
     0
  9
$TREEDEPTH
 70
  3020
  9
$PICKSTYLE
 70
     1
  9
$CMLSTYLE
  2
STANDARD
  9
$CMLJUST
 70
     0
  9
$CMLSCALE
 40
1.0
  9
$SAVEIMAGES
 70
     1
  0
ENDSEC
  0
SECTION
  2
CLASSES
  0
CLASS
  1
ACDBDICTIONARYWDFLT
  2
AcDbDictionaryWithDefault
  3
AutoCAD 2000
 90
    32768
280
     0
281
     0
  0
CLASS
  1
ACDBPLACEHOLDER
  2
AcDbPlaceHolder
  3
AutoCAD 2000
 90
    32768
280
     0
281
     0
  0
CLASS
  1
LAYOUT
  2
AcDbLayout
  3
AutoCAD 2000
 90
    32768
280
     0
281
     0
  0
CLASS
  1
DICTIONARYVAR
  2
AcDbDictionaryVar
  3
"AutoCAD"
 90
    32768
280
     0
281
     0
  0
CLASS
  1
LONG_TRANSACTION
  2
AcDbLongTransaction
  3
AutoCAD 2000
 90
    32768
280
     0
281
     0
  0
CLASS
  1
LWPOLYLINE
  2
AcDbPolyline
  3
"AutoCAD"
 90
    32768
280
     0
281
     1
  0
CLASS
  1
HATCH
  2
AcDbHatch
  3
"ACAD_SEDONA"
 90
    32768
280
     0
281
     1
  0
CLASS
  1
XRECORD
  2
AcDbXrecord
  3
"<Built In>"
 90
    32768
280
     0
281
     0
  0
CLASS
  1
LONG_TRANSACTION
  2
AcDbLongTransaction
  3
AutoCAD 2000
 90
    32768
280
     0
281
     0
  0
CLASS
  1
LWPOLYLINE
  2
AcDbPolyline
  3
"AutoCAD"
 90
    32768
280
     0
281
     1
  0
CLASS
  1
HATCH
  2
AcDbHatch
  3
"ACAD_SEDONA"
 90
    32768
280
     0
281
     1
  0
CLASS
  1
XRECORD
  2
AcDbXrecord
  3
"<Built In>"
 90
    32768
280
     0
281
     0
  0
CLASS
  1
LONG_TRANSACTION
  2
AcDbLongTransaction
  3
AutoCAD 2000
 90
    32768
280
     0
281
     0
  0
CLASS
  1
LWPOLYLINE
  2
AcDbPolyline
  3
"AutoCAD"
 90
    32768
280
     0
281
     1
  0
CLASS
  1
HATCH
  2
AcDbHatch
  3
"ACAD_SEDONA"
 90
    32768
280
     0
281
     1
  0
CLASS
  1
XRECORD
  2
AcDbXrecord
  3
"<Built In>"
 90
    32768
280
     0
281
     0
  0
CLASS
  1
LONG_TRANSACTION
  2
AcDbLongTransaction
  3
AutoCAD 2000
 90
    32768
280
     0
281
     0
  0
CLASS
  1
LWPOLYLINE
  2
AcDbPolyline
  3
"AutoCAD"
 90
    32768
280
     0
281
     1
  0
CLASS
  1
HATCH
  2
AcDbHatch
  3
"ACAD_SEDONA"
 90
    32768
280
     0
281
     1
  0
CLASS
  1
XRECORD
  2
AcDbXrecord
  3
"<Built In>"
 90
    32768
280
     0
281
     0
  0
CLASS
  1
LONG_TRANSACTION
  2
AcDbLongTransaction
  3
AutoCAD 2000
 90
    32768
280
     0
281
     0
  0
CLASS
  1
LWPOLYLINE
  2
AcDbPolyline
  3
"AutoCAD"
 90
    32768
280
     0
281
     1
  0
CLASS
  1
HATCH
  2
AcDbHatch
  3
"ACAD_SEDONA"
 90
    32768
280
     0
281
     1
  0
CLASS
  1
XRECORD
  2
AcDbXrecord
  3
"<Built In>"
 90
    32768
280
     0
281
     0
  0
CLASS
  1
LONG_TRANSACTION
  2
AcDbLongTransaction
  3
AutoCAD 2000
 90
    32768
280
     0
281
     0
  0
CLASS
  1
LWPOLYLINE
  2
AcDbPolyline
  3
"AutoCAD"
 90
    32768
280
     0
281
     1
  0
CLASS
  1
HATCH
  2
AcDbHatch
  3
"ACAD_SEDONA"
 90
    32768
280
     0
281
     1
  0
CLASS
  1
XRECORD
  2
AcDbXrecord
  3
"<Built In>"
 90
    32768
280
     0
281
     0
  0
CLASS
  1
LONG_TRANSACTION
  2
AcDbLongTransaction
  3
AutoCAD 2000
 90
    32768
280
     0
281
     0
  0
CLASS
  1
LWPOLYLINE
  2
AcDbPolyline
  3
"AutoCAD"
 90
    32768
280
     0
281
     1
  0
CLASS
  1
HATCH
  2
AcDbHatch
  3
"ACAD_SEDONA"
 90
    32768
280
     0
281
     1
  0
CLASS
  1
XRECORD
  2
AcDbXrecord
  3
"<Built In>"
 90
    32768
280
     0
281
     0
  0
CLASS
  1
LONG_TRANSACTION
  2
AcDbLongTransaction
  3
AutoCAD 2000
 90
    32768
280
     0
281
     0
  0
CLASS
  1
LWPOLYLINE
  2
AcDbPolyline
  3
"AutoCAD"
 90
    32768
280
     0
281
     1
  0
CLASS
  1
HATCH
  2
AcDbHatch
  3
"ACAD_SEDONA"
 90
    32768
280
     0
281
     1
  0
CLASS
  1
XRECORD
  2
AcDbXrecord
  3
"<Built In>"
 90
    32768
280
     0
281
     0
  0
CLASS
  1
LONG_TRANSACTION
  2
AcDbLongTransaction
  3
AutoCAD 2000
 90
    32768
280
     0
281
     0
  0
CLASS
  1
LWPOLYLINE
  2
AcDbPolyline
  3
"AutoCAD"
 90
    32768
280
     0
281
     1
  0
CLASS
  1
HATCH
  2
AcDbHatch
  3
"ACAD_SEDONA"
 90
    32768
280
     0
281
     1
  0
CLASS
  1
XRECORD
  2
AcDbXrecord
  3
"<Built In>"
 90
    32768
280
     0
281
     0
  0
CLASS
  1
LONG_TRANSACTION
  2
AcDbLongTransaction
  3
AutoCAD 2000
 90
    32768
280
     0
281
     0
  0
CLASS
  1
LWPOLYLINE
  2
AcDbPolyline
  3
"AutoCAD"
 90
    32768
280
     0
281
     1
  0
CLASS
  1
HATCH
  2
AcDbHatch
  3
"ACAD_SEDONA"
 90
    32768
280
     0
281
     1
  0
CLASS
  1
XRECORD
  2
AcDbXrecord
  3
"<Built In>"
 90
    32768
280
     0
281
     0
  0
CLASS
  1
LONG_TRANSACTION
  2
AcDbLongTransaction
  3
AutoCAD 2000
 90
    32768
280
     0
281
     0
  0
CLASS
  1
LWPOLYLINE
  2
AcDbPolyline
  3
"AutoCAD"
 90
    32768
280
     0
281
     1
  0
CLASS
  1
HATCH
  2
AcDbHatch
  3
"ACAD_SEDONA"
 90
    32768
280
     0
281
     1
  0
CLASS
  1
XRECORD
  2
AcDbXrecord
  3
"<Built In>"
 90
    32768
280
     0
281
     0
  0
CLASS
  1
LONG_TRANSACTION
  2
AcDbLongTransaction
  3
AutoCAD 2000
 90
    32768
280
     0
281
     0
  0
CLASS
  1
LWPOLYLINE
  2
AcDbPolyline
  3
"AutoCAD"
 90
    32768
280
     0
281
     1
  0
CLASS
  1
HATCH
  2
AcDbHatch
  3
"ACAD_SEDONA"
 90
    32768
280
     0
281
     1
  0
CLASS
  1
XRECORD
  2
AcDbXrecord
  3
"<Built In>"
 90
    32768
280
     0
281
     0
  0
CLASS
  1
LONG_TRANSACTION
  2
AcDbLongTransaction
  3
AutoCAD 2000
 90
    32768
280
     0
281
     0
  0
CLASS
  1
LWPOLYLINE
  2
AcDbPolyline
  3
"AutoCAD"
 90
    32768
280
     0
281
     1
  0
CLASS
  1
HATCH
  2
AcDbHatch
  3
"ACAD_SEDONA"
 90
    32768
280
     0
281
     1
  0
CLASS
  1
XRECORD
  2
AcDbXrecord
  3
"<Built In>"
 90
    32768
280
     0
281
     0
  0
CLASS
  1
LONG_TRANSACTION
  2
AcDbLongTransaction
  3
AutoCAD 2000
 90
    32768
280
     0
281
     0
  0
CLASS
  1
LWPOLYLINE
  2
AcDbPolyline
  3
"AutoCAD"
 90
    32768
280
     0
281
     1
  0
CLASS
  1
HATCH
  2
AcDbHatch
  3
"ACAD_SEDONA"
 90
    32768
280
     0
281
     1
  0
CLASS
  1
XRECORD
  2
AcDbXrecord
  3
"<Built In>"
 90
    32768
280
     0
281
     0
  0
CLASS
  1
LONG_TRANSACTION
  2
AcDbLongTransaction
  3
AutoCAD 2000
 90
    32768
280
     0
281
     0
  0
CLASS
  1
LWPOLYLINE
  2
AcDbPolyline
  3
"AutoCAD"
 90
    32768
280
     0
281
     1
  0
CLASS
  1
HATCH
  2
AcDbHatch
  3
"ACAD_SEDONA"
 90
    32768
280
     0
281
     1
  0
CLASS
  1
XRECORD
  2
AcDbXrecord
  3
"<Built In>"
 90
    32768
280
     0
281
     0
  0
ENDSEC
  0
SECTION
  2
TABLES
  0
TABLE
  2
VPORT
  5
7CF0
100
AcDbSymbolTable
 70
     2
  0
VPORT
  5
C251
100
AcDbSymbolTableRecord
100
AcDbViewportTableRecord
  2
*ACTIVE
 70
     0
 10
0.0
 20
0.0
 11
1.0
 21
1.0
 12
109.477025
 22
66.301402
 13
0.0
 23
0.0
 14
1.0
 24
1.0
 15
10.0
 25
10.0
 16
0.0
 26
0.0
 36
1.0
 17
0.0
 27
0.0
 37
0.0
 40
106.475307
 41
1.625
 42
50.0
 43
0.0
 44
0.0
 50
0.0
 51
0.0
 71
     0
 72
   100
 73
     1
 74
     0
 75
     0
 76
     0
 77
     0
 78
     0
  0
ENDTAB
  0
TABLE
  2
LTYPE
  5
7CED
100
AcDbSymbolTable
 70
     2
  0
LTYPE
  5
7CFB
102
{ACAD_XDICTIONARY
360
C11F
102
}
100
AcDbSymbolTableRecord
100
AcDbLinetypeTableRecord
  2
BYBLOCK
 70
     0
  3

 72
    65
 73
     0
 40
0.0
  0
LTYPE
  5
7CFC
102
{ACAD_XDICTIONARY
360
C121
102
}
100
AcDbSymbolTableRecord
100
AcDbLinetypeTableRecord
  2
BYLAYER
 70
     0
  3

 72
    65
 73
     0
 40
0.0
  0
LTYPE
  5
7CFD
100
AcDbSymbolTableRecord
100
AcDbLinetypeTableRecord
  2
CONTINUOUS
 70
     0
  3
Solid line
 72
    65
 73
     0
 40
0.0
  0
LTYPE
  5
7D15
100
AcDbSymbolTableRecord
100
AcDbLinetypeTableRecord
  2
AXES2
 70
     0
  3
___ _ ___ _ ___ _ ___ _ ___ _ ___ _ ___ _ ___ _
 72
    65
 73
     4
 40
1.125
 49
0.75
 74
     0
 49
-0.125
 74
     0
 49
0.125
 74
     0
 49
-0.125
 74
     0
  0
ENDTAB
  0
TABLE
  2
LAYER
  5
7CEA
100
AcDbSymbolTable
 70
     6
  0
LAYER
  5
7CF8
100
AcDbSymbolTableRecord
100
AcDbLayerTableRecord
  2
0
 70
     0
 62
   255
  6
CONTINUOUS
  0
LAYER
  5
7D1C
100
AcDbSymbolTableRecord
100
AcDbLayerTableRecord
  2
COTATION1
 70
     0
 62
     2
  6
CONTINUOUS
  0
LAYER
  5
7D1D
100
AcDbSymbolTableRecord
100
AcDbLayerTableRecord
  2
AXE
 70
     0
 62
    80
  6
AXES2
  0
LAYER
  5
7D1E
102
{ACAD_XDICTIONARY
360
C154
102
}
100
AcDbSymbolTableRecord
100
AcDbLayerTableRecord
  2
DEFPOINTS
 70
     0
 62
     7
  6
CONTINUOUS
  0
LAYER
  5
7D1F
100
AcDbSymbolTableRecord
100
AcDbLayerTableRecord
  2
ALPHA
 70
     0
 62
   254
  6
CONTINUOUS
  0
LAYER
  5
BE6E
100
AcDbSymbolTableRecord
100
AcDbLayerTableRecord
  2
TEXTE
 70
     0
 62
   130
  6
CONTINUOUS
  0
ENDTAB
  0
TABLE
  2
STYLE
  5
7CEB
100
AcDbSymbolTable
 70
     2
  0
STYLE
  5
7CF9
100
AcDbSymbolTableRecord
100
AcDbTextStyleTableRecord
  2
ROMANS
 70
     0
 40
0.0
 41
1.0
 50
0.0
 71
     0
 42
6.0
  3
romans
  4

  0
STYLE
  5
7D14
100
AcDbSymbolTableRecord
100
AcDbTextStyleTableRecord
  2
STANDARD
 70
     0
 40
0.0
 41
1.0
 50
0.0
 71
     0
 42
0.2
  3
txt
  4

  0
ENDTAB
  0
TABLE
  2
VIEW
  5
7CEE
100
AcDbSymbolTable
 70
     0
  0
ENDTAB
  0
TABLE
  2
UCS
  5
7CEF
100
AcDbSymbolTable
 70
     0
  0
ENDTAB
  0
TABLE
  2
APPID
  5
7CF1
100
AcDbSymbolTable
 70
     1
  0
APPID
  5
7CFA
100
AcDbSymbolTableRecord
100
AcDbRegAppTableRecord
  2
ACAD
 70
     0
  0
ENDTAB
  0
TABLE
  2
DIMSTYLE
  5
7CF2
100
AcDbSymbolTable
 70
     2
  0
DIMSTYLE
105
7D18
102
{ACAD_XDICTIONARY
360
C150
102
}
102
{ACAD_REACTORS
330
BE8F
102
}
100
AcDbSymbolTableRecord
100
AcDbDimStyleTableRecord
  2
SC_DEFAUT
 70
     0
  3

  4

  5
OPEN30
  6

  7

 40
1.0
 41
5.0
 42
2.0
 43
0.38
 44
2.5
 45
0.0
 46
0.0
 47
0.0
 48
0.0
140
2.5
141
0.0
142
0.0
143
25.4
144
1.0
145
0.0
146
1.0
147
2.0
 71
     0
 72
     0
 73
     1
 74
     1
 75
     0
 76
     0
 77
     1
 78
    12
170
     0
171
     2
172
     0
173
     0
174
     0
175
     0
176
     0
177
     0
178
     0
270
     2
271
     1
272
     1
273
     2
274
     2
340
7CF9
275
     0
280
     0
281
     0
282
     0
283
     1
284
    12
285
    12
286
    12
287
     5
288
     0
  0
DIMSTYLE
105
7D19
102
{ACAD_XDICTIONARY
360
C152
102
}
100
AcDbSymbolTableRecord
100
AcDbDimStyleTableRecord
  2
STANDARD
 70
     0
  3

  4

  5

  6

  7

 40
1.0
 41
0.18
 42
0.0625
 43
0.38
 44
0.18
 45
0.0
 46
0.0
 47
0.0
 48
0.0
140
0.18
141
0.09
142
0.0
143
25.4
144
1.0
145
0.0
146
1.0
147
0.09
 71
     0
 72
     0
 73
     1
 74
     1
 75
     0
 76
     0
 77
     0
 78
     0
170
     0
171
     2
172
     0
173
     0
174
     0
175
     0
176
     0
177
     0
178
     0
270
     2
271
     1
272
     1
273
     2
274
     2
340
7CF9
275
     0
280
     0
281
     0
282
     0
283
     1
284
    12
285
    12
286
    12
287
     5
288
     0
  0
ENDTAB
  0
TABLE
  2
BLOCK_RECORD
  5
7CE9
100
AcDbSymbolTable
 70
     4
  0
BLOCK_RECORD
  5
7D06
102
{ACAD_XDICTIONARY
360
800F
102
}
100
AcDbSymbolTableRecord
100
AcDbBlockTableRecord
  2
*MODEL_SPACE
  0
BLOCK_RECORD
  5
7D02
102
{ACAD_XDICTIONARY
360
8011
102
}
100
AcDbSymbolTableRecord
100
AcDbBlockTableRecord
  2
*PAPER_SPACE
  0
BLOCK_RECORD
  5
7D0A
100
AcDbSymbolTableRecord
100
AcDbBlockTableRecord
  2
COTE
  0
BLOCK_RECORD
  5
7D0B
100
AcDbSymbolTableRecord
100
AcDbBlockTableRecord
  2
FOND
  0
BLOCK_RECORD
  5
7D0C
100
AcDbSymbolTableRecord
100
AcDbBlockTableRecord
  2
_OPEN30
  0
BLOCK_RECORD
  5
BE90
100
AcDbSymbolTableRecord
100
AcDbBlockTableRecord
  2
*D3
  0
ENDTAB
  0
ENDSEC
  0
SECTION
  2
BLOCKS
  0
BLOCK
  5
7D24
100
AcDbEntity
  8
0
100
AcDbBlockBegin
  2
*MODEL_SPACE
 70
     0
 10
0.0
 20
0.0
 30
0.0
  3
*MODEL_SPACE
  1

  0
ENDBLK
  5
7D25
100
AcDbEntity
  8
0
100
AcDbBlockEnd
  0
BLOCK
  5
7D22
100
AcDbEntity
 67
     1
  8
0
100
AcDbBlockBegin
  2
*PAPER_SPACE
 70
     0
 10
0.0
 20
0.0
 30
0.0
  3
*PAPER_SPACE
  1

  0
ENDBLK
  5
7D23
100
AcDbEntity
 67
     1
  8
0
100
AcDbBlockEnd
  0
BLOCK
  5
E
100
AcDbEntity
  8
0
100
AcDbBlockBegin
  2
COTE
 70
     0
 10
0.0
 20
0.0
 30
0.0
  3
COTE
  1

  0
ENDBLK
  5
F
100
AcDbEntity
  8
0
100
AcDbBlockEnd
  0
BLOCK
  5
74
100
AcDbEntity
  8
0
100
AcDbBlockBegin
  2
FOND
 70
     0
 10
0.0
 20
0.0
 30
0.0
  3
FOND
  1

  0
ENDBLK
  5
75
100
AcDbEntity
  8
0
100
AcDbBlockEnd
  0
BLOCK
  5
4B08
100
AcDbEntity
  8
0
100
AcDbBlockBegin
  2
_OPEN30
 70
     0
 10
0.0
 20
0.0
 30
0.0
  3
_OPEN30
  1

  0
LINE
  5
4B05
100
AcDbEntity
  8
COTATION1
 62
     0
100
AcDbLine
 10
-1.0
 20
0.267949
 30
0.0
 11
0.0
 21
0.0
 31
0.0
1001
ACAD
1000
RTLwPs
1070
   158
  0
LINE
  5
4B06
100
AcDbEntity
  8
COTATION1
 62
     0
100
AcDbLine
 10
0.0
 20
0.0
 30
0.0
 11
-1.0
 21
-0.267949
 31
0.0
1001
ACAD
1000
RTLwPs
1070
   158
  0
LINE
  5
4B07
100
AcDbEntity
  8
COTATION1
 62
     0
100
AcDbLine
 10
0.0
 20
0.0
 30
0.0
 11
-1.0
 21
0.0
 31
0.0
1001
ACAD
1000
RTLwPs
1070
   158
  0
ENDBLK
  5
4B09
100
AcDbEntity
  8
0
100
AcDbBlockEnd
  0
BLOCK
  5
BE9A
100
AcDbEntity
  8
0
100
AcDbBlockBegin
  2
*D3
 70
     1
 10
0.0
 20
0.0
 30
0.0
  3
*D3
  1

  0
LINE
  5
BEC0
100
AcDbEntity
  8
COTATION1
 62
     0
100
AcDbLine
 10
61.855236
 20
73.295593
 30
0.0
 11
61.855236
 21
117.049678
 31
0.0
1001
ACAD
1000
RTLwPs
1070
   158
  0
LINE
  5
BEC1
100
AcDbEntity
  8
COTATION1
 62
     0
100
AcDbLine
 10
103.855236
 20
73.295593
 30
0.0
 11
103.855236
 21
117.049678
 31
0.0
1001
ACAD
1000
RTLwPs
1070
   158
  0
LINE
  5
BEC2
100
AcDbEntity
  8
COTATION1
 62
     0
100
AcDbLine
 10
66.855236
 20
114.549678
 30
0.0
 11
98.855236
 21
114.549678
 31
0.0
1001
ACAD
1000
RTLwPs
1070
   158
  0
INSERT
  5
BEC3
100
AcDbEntity
  8
COTATION1
 62
     0
100
AcDbBlockReference
  2
_OPEN30
 10
61.855236
 20
114.549678
 30
0.0
 41
5.0
 42
5.0
 43
5.0
 50
180.0
1001
ACAD
1000
RTLwPs
1070
   158
  0
INSERT
  5
BEC4
100
AcDbEntity
  8
COTATION1
 62
     0
100
AcDbBlockReference
  2
_OPEN30
 10
103.855236
 20
114.549678
 30
0.0
 41
5.0
 42
5.0
 43
5.0
1001
ACAD
1000
RTLwPs
1070
   158
  0
MTEXT
  5
BEC5
100
AcDbEntity
  8
COTATION1
 62
     0
100
AcDbMText
 10
82.855236
 20
117.799678
 30
0.0
 40
2.5
 41
0.0
 71
     5
 72
     1
  1
\A1;42
1001
ACAD
1000
MTEXTBEGIN
1070
    73
1070
     1
1070
    44
1040
1.0
1070
    74
1070
     0
1000
MTEXTEND
  0
POINT
  5
BEC6
100
AcDbEntity
  8
DEFPOINTS
 62
     0
100
AcDbPoint
 10
61.855236
 20
71.295593
 30
0.0
  0
POINT
  5
BEC7
100
AcDbEntity
  8
DEFPOINTS
 62
     0
100
AcDbPoint
 10
103.855236
 20
71.295593
 30
0.0
  0
POINT
  5
BEC8
100
AcDbEntity
  8
DEFPOINTS
 62
     0
100
AcDbPoint
 10
103.855236
 20
114.549678
 30
0.0
  0
ENDBLK
  5
BE9B
100
AcDbEntity
  8
0
100
AcDbBlockEnd
  0
ENDSEC
  0
SECTION
  2
ENTITIES
  0
INSERT
  5
A
100
AcDbEntity
  8
0
100
AcDbBlockReference
  2
COTE
 10
0.0
 20
0.0
 30
0.0
  0
INSERT
  5
17
100
AcDbEntity
  8
0
100
AcDbBlockReference
  2
COTE
 10
284.010391
 20
6.373258
 30
0.0
  0
INSERT
  5
72
100
AcDbEntity
  8
0
100
AcDbBlockReference
  2
FOND
 10
0.0
 20
0.0
 30
0.0
  0
MTEXT
  5
BE75
102
{ACAD_REACTORS
330
BE76
102
}
100
AcDbEntity
  8
TEXTE
100
AcDbMText
 10
134.348982
 20
92.119643
 30
0.0
 40
2.5
 41
0.0
 71
     1
 72
     1
  1
2 smashable hole %%c4,5
1001
ACAD
1000
MTEXTBEGIN
1070
    73
1070
     1
1070
    44
1040
1.0
1070
    74
1070
     0
1000
MTEXTEND
  0
LEADER
  5
BE76
100
AcDbEntity
  8
COTATION1
100
AcDbLeader
  3
SC_DEFAUT
 73
     0
 74
     0
 75
     1
 40
2.5
 41
42.5
 76
     3
 10
105.327396
 20
67.637258
 30
0.0
 10
127.348982
 20
86.369643
 30
0.0
 10
132.348982
 20
86.369643
 30
0.0
 77
   256
213
0.0
223
-1.25
233
0.0
1001
ACAD
1000
DSTYLE
1002
{
1070
     5
1000
OPEN30
1070
   342
1005
7D0C
1002
}
1000
LEANOF
1010
0.0
1020
-1.25
1030
0.0
  0
LINE
  5
BE77
100
AcDbEntity
  8
AXE
100
AcDbLine
 10
39.855236
 20
66.526533
 30
0.0
 11
134.144702
 21
66.526533
 31
0.0
  0
TEXT
  5
BE78
100
AcDbEntity
  8
AXE
100
AcDbText
 10
126.841313
 20
67.526533
 30
0.0
 40
8.0
  1
X
 72
     2
 11
133.317504
 21
67.526533
 31
0.0
100
AcDbText
  0
LINE
  5
BE79
100
AcDbEntity
  8
AXE
100
AcDbLine
 10
82.855236
 20
13.534494
 30
0.0
 11
82.855236
 21
109.526533
 31
0.0
  0
TEXT
  5
BE7A
100
AcDbEntity
  8
AXE
100
AcDbText
 10
75.379045
 20
13.534494
 30
0.0
 40
8.0
  1
Z
 72
     2
 11
81.855236
 21
13.534494
 31
0.0
100
AcDbText
  0
LINE
  5
BE7C
100
AcDbEntity
  8
AXE
100
AcDbLine
 10
61.855236
 20
71.295593
 30
0.0
 11
61.855236
 21
61.757473
 31
0.0
  0
LINE
  5
BE7D
100
AcDbEntity
  8
AXE
100
AcDbLine
 10
103.855236
 20
71.295593
 30
0.0
 11
103.855236
 21
61.757473
 31
0.0
  0
DIMENSION
  5
BE8F
100
AcDbEntity
  8
COTATION1
100
AcDbDimension
  2
*D3
 10
103.855236
 20
114.549678
 30
0.0
 11
82.855236
 21
117.799678
 31
0.0
 70
    32
  3
SC_DEFAUT
100
AcDbAlignedDimension
 13
61.855236
 23
71.295593
 33
0.0
 14
103.855236
 24
71.295593
 34
0.0
100
AcDbRotatedDimension
  0
CIRCLE
  5
BFEF
100
AcDbEntity
  8
ALPHA
100
AcDbCircle
 10
82.855236
 20
66.526533
 30
0.0
 40
32.95
  0
CIRCLE
  5
BFF0
100
AcDbEntity
  8
ALPHA
100
AcDbCircle
 10
82.855236
 20
66.526533
 30
0.0
 40
13.075
  0
ARC
  5
BFF1
100
AcDbEntity
  8
ALPHA
100
AcDbCircle
 10
82.855236
 20
66.526533
 30
0.0
 40
10.5
100
AcDbArc
 50
136.567972
 51
43.432028
  0
CIRCLE
  5
BFF2
100
AcDbEntity
  8
ALPHA
100
AcDbCircle
 10
82.855236
 20
66.526533
 30
0.0
 40
34.95
  0
CIRCLE
  5
BFF3
100
AcDbEntity
  8
ALPHA
100
AcDbCircle
 10
82.855236
 20
66.526533
 30
0.0
 40
14.1
  0
ARC
  5
BFF4
100
AcDbEntity
  8
ALPHA
100
AcDbCircle
 10
82.855236
 20
66.526533
 30
0.0
 40
12.575
100
AcDbArc
 50
190.232363
 51
349.767637
  0
ARC
  5
BFF5
100
AcDbEntity
  8
ALPHA
100
AcDbCircle
 10
82.855236
 20
66.526533
 30
0.0
 40
12.575
100
AcDbArc
 50
10.232363
 51
169.767637
  0
CIRCLE
  5
BFF6
100
AcDbEntity
  8
ALPHA
100
AcDbCircle
 10
82.855236
 20
66.526533
 30
0.0
 40
16.1
  0
ARC
  5
BFF7
100
AcDbEntity
  8
ALPHA
100
AcDbCircle
 10
82.855236
 20
66.526533
 30
0.0
 40
35.25
100
AcDbArc
 50
58.724819
 51
83.533538
  0
ARC
  5
BFF8
100
AcDbEntity
  8
ALPHA
100
AcDbCircle
 10
82.855236
 20
66.526533
 30
0.0
 40
36.575
100
AcDbArc
 50
271.625894
 51
13.236559
  0
ARC
  5
BFF9
100
AcDbEntity
  8
ALPHA
100
AcDbCircle
 10
82.855236
 20
66.526533
 30
0.0
 40
38.16
100
AcDbArc
 50
81.471043
 51
84.338255
  0
ARC
  5
BFFA
100
AcDbEntity
  8
ALPHA
100
AcDbCircle
 10
82.855236
 20
66.526533
 30
0.0
 40
36.575
100
AcDbArc
 50
26.670044
 51
86.9976
  0
ARC
  5
BFFB
100
AcDbEntity
  8
ALPHA
100
AcDbCircle
 10
82.855236
 20
66.526533
 30
0.0
 40
35.375
100
AcDbArc
 50
272.421179
 51
13.461375
  0
ARC
  5
BFFC
100
AcDbEntity
  8
ALPHA
100
AcDbCircle
 10
82.855236
 20
66.526533
 30
0.0
 40
35.375
100
AcDbArc
 50
26.917027
 51
83.603868
  0
CIRCLE
  5
BFFD
100
AcDbEntity
  8
ALPHA
100
AcDbCircle
 10
82.855236
 20
66.526533
 30
0.0
 40
38.0
  0
ARC
  5
BFFE
100
AcDbEntity
  8
ALPHA
100
AcDbCircle
 10
82.855236
 20
66.526533
 30
0.0
 40
38.36
100
AcDbArc
 50
81.510523
 51
96.489477
  0
ARC
  5
BFFF
100
AcDbEntity
  8
ALPHA
100
AcDbCircle
 10
82.855236
 20
66.526533
 30
0.0
 40
35.075
100
AcDbArc
 50
258.140003
 51
58.500217
  0
ARC
  5
C000
100
AcDbEntity
  8
ALPHA
100
AcDbCircle
 10
82.855236
 20
66.526533
 30
0.0
 40
38.061959
100
AcDbArc
 50
64.804083
 51
84.705711
  0
ARC
  5
C001
100
AcDbEntity
  8
ALPHA
100
AcDbCircle
 10
82.855236
 20
66.526533
 30
0.0
 40
38.061959
100
AcDbArc
 50
244.804083
 51
293.195917
  0
CIRCLE
  5
C002
100
AcDbEntity
  8
ALPHA
100
AcDbCircle
 10
82.855236
 20
66.526533
 30
0.0
 40
8.0
  0
POLYLINE
  5
C003
100
AcDbEntity
  8
ALPHA
100
AcDb2dPolyline
 66
     1
 10
0.0
 20
0.0
 30
0.0
  0
VERTEX
  5
C1D6
100
AcDbEntity
  8
ALPHA
100
AcDbVertex
100
AcDb2dVertex
 10
86.250596
 20
78.101966
 30
0.0
  0
VERTEX
  5
C1D7
100
AcDbEntity
  8
ALPHA
100
AcDbVertex
100
AcDb2dVertex
 10
86.731052
 20
77.96537
 30
0.0
  0
VERTEX
  5
C1D8
100
AcDbEntity
  8
ALPHA
100
AcDbVertex
100
AcDb2dVertex
 10
87.205997
 20
77.810826
 30
0.0
  0
VERTEX
  5
C1D9
100
AcDbEntity
  8
ALPHA
100
AcDbVertex
100
AcDb2dVertex
 10
87.646952
 20
77.648772
 30
0.0
  0
SEQEND
  5
C1DA
100
AcDbEntity
  8
ALPHA
  0
LINE
  5
C004
100
AcDbEntity
  8
ALPHA
100
AcDbLine
 10
78.386961
 20
73.129116
 30
0.0
 11
87.32351
 21
73.129116
 31
0.0
  0
LINE
  5
C005
100
AcDbEntity
  8
ALPHA
100
AcDbLine
 10
88.479948
 20
72.17806
 30
0.0
 11
77.230523
 21
72.17806
 31
0.0
  0
LINE
  5
C006
100
AcDbEntity
  8
ALPHA
100
AcDbLine
 10
77.230523
 20
60.875005
 30
0.0
 11
88.479948
 21
60.875005
 31
0.0
  0
LINE
  5
C007
100
AcDbEntity
  8
ALPHA
100
AcDbLine
 10
87.32351
 20
59.923949
 30
0.0
 11
78.386961
 21
59.923949
 31
0.0
  0
ARC
  5
C009
100
AcDbEntity
  8
ALPHA
100
AcDbCircle
 10
82.855236
 20
66.526533
 30
0.0
 40
38.018657
100
AcDbArc
 50
231.773595
 51
242.439094
  0
ARC
  5
C00A
100
AcDbEntity
  8
ALPHA
100
AcDbCircle
 10
82.855236
 20
66.526533
 30
0.0
 40
35.375
100
AcDbArc
 50
152.244395
 51
258.222365
  0
ARC
  5
C00B
100
AcDbEntity
  8
ALPHA
100
AcDbCircle
 10
82.855236
 20
66.526533
 30
0.0
 40
36.575
100
AcDbArc
 50
151.641334
 51
258.546157
  0
ARC
  5
C00C
100
AcDbEntity
  8
ALPHA
100
AcDbCircle
 10
82.855236
 20
66.526533
 30
0.0
 40
35.075
100
AcDbArc
 50
189.099167
 51
252.517315
  0
ARC
  5
C00D
100
AcDbEntity
  8
ALPHA
100
AcDbCircle
 10
82.855236
 20
66.526533
 30
0.0
 40
38.051831
100
AcDbArc
 50
231.811536
 51
242.464062
  0
ARC
  5
C00E
100
AcDbEntity
  8
ALPHA
100
AcDbCircle
 10
82.855236
 20
66.526533
 30
0.0
 40
35.0
100
AcDbArc
 50
244.921282
 51
252.516077
  0
LINE
  5
C010
100
AcDbEntity
  8
ALPHA
100
AcDbLine
 10
65.264336
 20
32.822253
 30
0.0
 11
65.263688
 21
32.785174
 31
0.0
  0
LINE
  5
C011
100
AcDbEntity
  8
ALPHA
100
AcDbLine
 10
66.653372
 20
32.181957
 30
0.0
 11
66.651696
 21
32.085887
 31
0.0
  0
ARC
  5
C012
100
AcDbEntity
  8
ALPHA
100
AcDbCircle
 10
82.855236
 20
66.526533
 30
0.0
 40
36.762598
100
AcDbArc
 50
258.594839
 51
271.506652
  0
ARC
  5
C013
100
AcDbEntity
  8
ALPHA
100
AcDbCircle
 10
82.855236
 20
66.526533
 30
0.0
 40
36.475
100
AcDbArc
 50
258.52
 51
271.69
  0
ARC
  5
C014
100
AcDbEntity
  8
ALPHA
100
AcDbCircle
 10
82.855236
 20
66.526533
 30
0.0
 40
35.075
100
AcDbArc
 50
254.866611
 51
258.137904
  0
ARC
  5
C015
100
AcDbEntity
  8
ALPHA
100
AcDbCircle
 10
82.855236
 20
66.526533
 30
0.0
 40
35.0
100
AcDbArc
 50
254.577264
 51
257.056237
  0
LINE
  5
C016
100
AcDbEntity
  8
ALPHA
100
AcDbLine
 10
75.585592
 20
30.489873
 30
0.0
 11
75.645331
 21
32.200553
 31
0.0
  0
ARC
  5
C017
100
AcDbEntity
  8
ALPHA
100
AcDbCircle
 10
82.855236
 20
66.526533
 30
0.0
 40
35.0
100
AcDbArc
 50
263.902887
 51
266.44499
  0
ARC
  5
C018
100
AcDbEntity
  8
ALPHA
100
AcDbCircle
 10
82.855236
 20
66.526533
 30
0.0
 40
35.0
100
AcDbArc
 50
273.368113
 51
274.677426
  0
LINE
  5
C019
100
AcDbEntity
  8
ALPHA
100
AcDbLine
 10
83.821835
 20
29.776645
 30
0.0
 11
84.46424
 21
31.488457
 31
0.0
  0
ARC
  5
C01A
100
AcDbEntity
  8
ALPHA
100
AcDbCircle
 10
82.855236
 20
66.526533
 30
0.0
 40
36.762598
100
AcDbArc
 50
138.578848
 51
151.550787
  0
ARC
  5
C01B
100
AcDbEntity
  8
ALPHA
100
AcDbCircle
 10
82.855236
 20
66.526533
 30
0.0
 40
36.475
100
AcDbArc
 50
138.52
 51
151.647242
  0
ARC
  5
C01C
100
AcDbEntity
  8
ALPHA
100
AcDbCircle
 10
82.855236
 20
66.526533
 30
0.0
 40
35.075
100
AcDbArc
 50
138.22136
 51
179.567247
  0
ARC
  5
C01D
100
AcDbEntity
  8
ALPHA
100
AcDbCircle
 10
82.855236
 20
66.526533
 30
0.0
 40
35.0
100
AcDbArc
 50
134.290724
 51
178.259125
  0
ARC
  5
C01E
100
AcDbEntity
  8
ALPHA
100
AcDbCircle
 10
82.855236
 20
66.526533
 30
0.0
 40
35.0
100
AcDbArc
 50
210.291902
 51
235.073656
  0
ARC
  5
C020
100
AcDbEntity
  8
ALPHA
100
AcDbCircle
 10
82.855236
 20
66.526533
 30
0.0
 40
35.0
100
AcDbArc
 50
190.836907
 51
197.768029
  0
ARC
  5
C021
100
AcDbEntity
  8
ALPHA
100
AcDbCircle
 10
82.855236
 20
66.526533
 30
0.0
 40
35.0
100
AcDbArc
 50
200.599588
 51
207.616991
  0
ARC
  5
C022
100
AcDbEntity
  8
ALPHA
100
AcDbCircle
 10
82.855236
 20
66.526533
 30
0.0
 40
35.075
100
AcDbArc
 50
179.997079
 51
188.185434
  0
ARC
  5
C023
100
AcDbEntity
  8
ALPHA
100
AcDbCircle
 10
82.855236
 20
66.526533
 30
0.0
 40
35.0
100
AcDbArc
 50
180.0
 51
187.956926
  0
LINE
  5
C024
100
AcDbEntity
  8
ALPHA
100
AcDbLine
 10
50.532099
 20
84.039484
 30
0.0
 11
51.771095
 21
82.775588
 31
0.0
  0
POLYLINE
  5
C027
100
AcDbEntity
  8
ALPHA
100
AcDb2dPolyline
 66
     1
 10
0.0
 20
0.0
 30
0.0
  0
VERTEX
  5
C1DB
100
AcDbEntity
  8
ALPHA
100
AcDbVertex
100
AcDb2dVertex
 10
55.391857
 20
40.215227
 30
0.0
  0
VERTEX
  5
C1DC
100
AcDbEntity
  8
ALPHA
100
AcDbVertex
100
AcDb2dVertex
 10
56.634455
 20
38.997654
 30
0.0
  0
VERTEX
  5
C1DD
100
AcDbEntity
  8
ALPHA
100
AcDbVertex
100
AcDb2dVertex
 10
57.94765
 20
37.818641
 30
0.0
  0
VERTEX
  5
C1DE
100
AcDbEntity
  8
ALPHA
100
AcDbVertex
100
AcDb2dVertex
 10
59.330801
 20
36.682421
 30
0.0
  0
SEQEND
  5
C1DF
100
AcDbEntity
  8
ALPHA
  0
POLYLINE
  5
C028
100
AcDbEntity
  8
ALPHA
100
AcDb2dPolyline
 66
     1
 10
0.0
 20
0.0
 30
0.0
  0
VERTEX
  5
C1E0
100
AcDbEntity
  8
ALPHA
100
AcDbVertex
100
AcDb2dVertex
 10
59.328378
 20
36.543625
 30
0.0
  0
VERTEX
  5
C1E1
100
AcDbEntity
  8
ALPHA
100
AcDbVertex
100
AcDb2dVertex
 10
57.943592
 20
37.727224
 30
0.0
  0
VERTEX
  5
C1E2
100
AcDbEntity
  8
ALPHA
100
AcDbVertex
100
AcDb2dVertex
 10
56.631286
 20
38.9525
 30
0.0
  0
VERTEX
  5
C1E3
100
AcDbEntity
  8
ALPHA
100
AcDbVertex
100
AcDb2dVertex
 10
55.391857
 20
40.215227
 30
0.0
  0
SEQEND
  5
C1E4
100
AcDbEntity
  8
ALPHA
  0
LINE
  5
C029
100
AcDbEntity
  8
ALPHA
100
AcDbLine
 10
55.394744
 20
40.380621
 30
0.0
 11
55.391857
 21
40.215227
 31
0.0
  0
LINE
  5
C02A
100
AcDbEntity
  8
ALPHA
100
AcDbLine
 10
59.330801
 20
36.682421
 30
0.0
 11
59.330412
 21
36.660148
 31
0.0
  0
LINE
  5
C02B
100
AcDbEntity
  8
ALPHA
100
AcDbLine
 10
59.329685
 20
36.618502
 30
0.0
 11
59.328378
 21
36.543625
 31
0.0
  0
LINE
  5
C02C
100
AcDbEntity
  8
ALPHA
100
AcDbLine
 10
62.846656
 20
37.870656
 30
0.0
 11
62.846656
 21
37.819966
 31
0.0
  0
CIRCLE
  5
C02D
100
AcDbEntity
  8
ALPHA
100
AcDbCircle
 10
61.855236
 20
66.526533
 30
0.0
 40
1.76906
  0
CIRCLE
  5
C02E
100
AcDbEntity
  8
ALPHA
100
AcDbCircle
 10
61.855236
 20
66.526533
 30
0.0
 40
1.42265
  0
CIRCLE
  5
C02F
100
AcDbEntity
  8
ALPHA
100
AcDbCircle
 10
61.855236
 20
66.526533
 30
0.0
 40
0.69282
  0
LINE
  5
C032
100
AcDbEntity
  8
ALPHA
100
AcDbLine
 10
70.480236
 20
68.760363
 30
0.0
 11
70.480236
 21
64.292702
 31
0.0
  0
ARC
  5
C033
100
AcDbEntity
  8
ALPHA
100
AcDbCircle
 10
82.855236
 20
66.526533
 30
0.0
 40
12.175
100
AcDbArc
 50
225.0
 51
245.752591
  0
LINE
  5
C034
100
AcDbEntity
  8
ALPHA
100
AcDbLine
 10
73.993491
 20
57.664788
 30
0.0
 11
74.246211
 21
57.917508
 31
0.0
  0
LINE
  5
C035
100
AcDbEntity
  8
ALPHA
100
AcDbLine
 10
77.855236
 20
55.036821
 30
0.0
 11
77.855236
 21
55.425604
 31
0.0
  0
POLYLINE
  5
C036
100
AcDbEntity
  8
ALPHA
100
AcDb2dPolyline
 66
     1
 10
0.0
 20
0.0
 30
0.0
  0
VERTEX
  5
C1E5
100
AcDbEntity
  8
ALPHA
100
AcDbVertex
100
AcDb2dVertex
 10
78.063519
 20
77.648772
 30
0.0
  0
VERTEX
  5
C1E6
100
AcDbEntity
  8
ALPHA
100
AcDbVertex
100
AcDb2dVertex
 10
78.504474
 20
77.810826
 30
0.0
  0
VERTEX
  5
C1E7
100
AcDbEntity
  8
ALPHA
100
AcDbVertex
100
AcDb2dVertex
 10
78.979419
 20
77.96537
 30
0.0
  0
VERTEX
  5
C1E8
100
AcDbEntity
  8
ALPHA
100
AcDbVertex
100
AcDb2dVertex
 10
79.459875
 20
78.101966
 30
0.0
  0
SEQEND
  5
C1E9
100
AcDbEntity
  8
ALPHA
  0
LINE
  5
C037
100
AcDbEntity
  8
ALPHA
100
AcDbLine
 10
75.230236
 20
73.745215
 30
0.0
 11
75.230226
 21
76.526026
 31
0.0
  0
LINE
  5
C038
100
AcDbEntity
  8
ALPHA
100
AcDbLine
 10
76.515766
 20
77.328892
 30
0.0
 11
77.771028
 21
76.71899
 31
0.0
  0
POLYLINE
  5
C039
100
AcDbEntity
  8
ALPHA
100
AcDb2dPolyline
 66
     1
 10
0.0
 20
0.0
 30
0.0
  0
VERTEX
  5
C1EA
100
AcDbEntity
  8
ALPHA
100
AcDbVertex
100
AcDb2dVertex
 10
76.932694
 20
77.595674
 30
0.0
  0
VERTEX
  5
C1EB
100
AcDbEntity
  8
ALPHA
100
AcDbVertex
100
AcDb2dVertex
 10
77.013343
 20
77.568186
 30
0.0
  0
VERTEX
  5
C1EC
100
AcDbEntity
  8
ALPHA
100
AcDbVertex
100
AcDb2dVertex
 10
77.101822
 20
77.55875
 30
0.0
  0
SEQEND
  5
C1ED
100
AcDbEntity
  8
ALPHA
  0
LINE
  5
C03A
100
AcDbEntity
  8
ALPHA
100
AcDbLine
 10
78.005993
 20
77.55875
 30
0.0
 11
77.101822
 21
77.55875
 31
0.0
  0
LINE
  5
C03B
100
AcDbEntity
  8
ALPHA
100
AcDbLine
 10
78.44508
 20
78.245876
 30
0.0
 11
78.005993
 21
77.55875
 31
0.0
  0
LINE
  5
C03C
100
AcDbEntity
  8
ALPHA
100
AcDbLine
 10
77.771028
 20
76.71899
 30
0.0
 11
78.012228
 21
77.556956
 31
0.0
  0
LINE
  5
C03D
100
AcDbEntity
  8
ALPHA
100
AcDbLine
 10
84.855236
 20
72.17806
 30
0.0
 11
84.855236
 21
60.875005
 31
0.0
  0
POLYLINE
  5
C03E
100
AcDbEntity
  8
ALPHA
100
AcDb2dPolyline
 66
     1
 10
0.0
 20
0.0
 30
0.0
  0
VERTEX
  5
C1EE
100
AcDbEntity
  8
ALPHA
100
AcDbVertex
100
AcDb2dVertex
 10
86.062657
 20
68.13829
 30
0.0
  0
VERTEX
  5
C1EF
100
AcDbEntity
  8
ALPHA
100
AcDbVertex
100
AcDb2dVertex
 10
86.025785
 20
69.604084
 30
0.0
  0
VERTEX
  5
C1F0
100
AcDbEntity
  8
ALPHA
100
AcDbVertex
100
AcDb2dVertex
 10
86.008169
 20
70.377667
 30
0.0
  0
VERTEX
  5
C1F1
100
AcDbEntity
  8
ALPHA
100
AcDbVertex
100
AcDb2dVertex
 10
85.991657
 20
71.231451
 30
0.0
  0
VERTEX
  5
C1F2
100
AcDbEntity
  8
ALPHA
100
AcDbVertex
100
AcDb2dVertex
 10
85.97674
 20
72.178059
 30
0.0
  0
SEQEND
  5
C1F3
100
AcDbEntity
  8
ALPHA
  0
LINE
  5
C03F
100
AcDbEntity
  8
ALPHA
100
AcDbLine
 10
80.855236
 20
72.17806
 30
0.0
 11
80.855236
 21
60.875005
 31
0.0
  0
POLYLINE
  5
C040
100
AcDbEntity
  8
ALPHA
100
AcDb2dPolyline
 66
     1
 10
0.0
 20
0.0
 30
0.0
  0
VERTEX
  5
C1F4
100
AcDbEntity
  8
ALPHA
100
AcDbVertex
100
AcDb2dVertex
 10
79.73373
 20
72.178059
 30
0.0
  0
VERTEX
  5
C1F5
100
AcDbEntity
  8
ALPHA
100
AcDbVertex
100
AcDb2dVertex
 10
79.718365
 20
71.205998
 30
0.0
  0
VERTEX
  5
C1F6
100
AcDbEntity
  8
ALPHA
100
AcDbVertex
100
AcDb2dVertex
 10
79.701255
 20
70.328489
 30
0.0
  0
VERTEX
  5
C1F7
100
AcDbEntity
  8
ALPHA
100
AcDbVertex
100
AcDb2dVertex
 10
79.683101
 20
69.539034
 30
0.0
  0
VERTEX
  5
C1F8
100
AcDbEntity
  8
ALPHA
100
AcDbVertex
100
AcDb2dVertex
 10
79.64654
 20
68.084122
 30
0.0
  0
SEQEND
  5
C1F9
100
AcDbEntity
  8
ALPHA
  0
POLYLINE
  5
C042
100
AcDbEntity
  8
ALPHA
100
AcDb2dPolyline
 66
     1
 10
0.0
 20
0.0
 30
0.0
  0
VERTEX
  5
C1FA
100
AcDbEntity
  8
ALPHA
100
AcDbVertex
100
AcDb2dVertex
 10
79.625505
 20
66.526533
 30
0.0
  0
VERTEX
  5
C1FB
100
AcDbEntity
  8
ALPHA
100
AcDbVertex
100
AcDb2dVertex
 10
79.632155
 20
65.694594
 30
0.0
  0
VERTEX
  5
C1FC
100
AcDbEntity
  8
ALPHA
100
AcDbVertex
100
AcDb2dVertex
 10
79.647813
 20
64.914806
 30
0.0
  0
VERTEX
  5
C1FD
100
AcDbEntity
  8
ALPHA
100
AcDbVertex
100
AcDb2dVertex
 10
79.684685
 20
63.449014
 30
0.0
  0
SEQEND
  5
C1FE
100
AcDbEntity
  8
ALPHA
  0
LINE
  5
C043
100
AcDbEntity
  8
ALPHA
100
AcDbLine
 10
79.745762
 20
59.92395
 30
0.0
 11
79.753246
 21
59.185504
 31
0.0
  0
POLYLINE
  5
C044
100
AcDbEntity
  8
ALPHA
100
AcDb2dPolyline
 66
     1
 10
0.0
 20
0.0
 30
0.0
  0
VERTEX
  5
C1FF
100
AcDbEntity
  8
ALPHA
100
AcDbVertex
100
AcDb2dVertex
 10
79.684685
 20
63.449014
 30
0.0
  0
VERTEX
  5
C200
100
AcDbEntity
  8
ALPHA
100
AcDbVertex
100
AcDb2dVertex
 10
79.702302
 20
62.67542
 30
0.0
  0
VERTEX
  5
C201
100
AcDbEntity
  8
ALPHA
100
AcDbVertex
100
AcDb2dVertex
 10
79.718814
 20
61.821623
 30
0.0
  0
VERTEX
  5
C202
100
AcDbEntity
  8
ALPHA
100
AcDbVertex
100
AcDb2dVertex
 10
79.733731
 20
60.875007
 30
0.0
  0
SEQEND
  5
C203
100
AcDbEntity
  8
ALPHA
  0
LINE
  5
C045
100
AcDbEntity
  8
ALPHA
100
AcDbLine
 10
80.851194
 20
58.797296
 30
0.0
 11
80.855236
 21
59.078954
 31
0.0
  0
LINE
  5
C046
100
AcDbEntity
  8
ALPHA
100
AcDbLine
 10
80.855236
 20
59.923949
 30
0.0
 11
80.855236
 21
59.077684
 31
0.0
  0
POLYLINE
  5
C047
100
AcDbEntity
  8
ALPHA
100
AcDb2dPolyline
 66
     1
 10
0.0
 20
0.0
 30
0.0
  0
VERTEX
  5
C204
100
AcDbEntity
  8
ALPHA
100
AcDbVertex
100
AcDb2dVertex
 10
79.64654
 20
68.084122
 30
0.0
  0
VERTEX
  5
C205
100
AcDbEntity
  8
ALPHA
100
AcDbVertex
100
AcDb2dVertex
 10
79.631743
 20
67.331235
 30
0.0
  0
VERTEX
  5
C206
100
AcDbEntity
  8
ALPHA
100
AcDbVertex
100
AcDb2dVertex
 10
79.625505
 20
66.526533
 30
0.0
  0
SEQEND
  5
C207
100
AcDbEntity
  8
ALPHA
  0
POLYLINE
  5
C049
100
AcDbEntity
  8
ALPHA
100
AcDb2dPolyline
 66
     1
 10
0.0
 20
0.0
 30
0.0
  0
VERTEX
  5
C208
100
AcDbEntity
  8
ALPHA
100
AcDbVertex
100
AcDb2dVertex
 10
85.976741
 20
60.875006
 30
0.0
  0
VERTEX
  5
C209
100
AcDbEntity
  8
ALPHA
100
AcDbVertex
100
AcDb2dVertex
 10
85.992107
 20
61.847085
 30
0.0
  0
VERTEX
  5
C20A
100
AcDbEntity
  8
ALPHA
100
AcDbVertex
100
AcDb2dVertex
 10
86.009217
 20
62.724611
 30
0.0
  0
VERTEX
  5
C20B
100
AcDbEntity
  8
ALPHA
100
AcDbVertex
100
AcDb2dVertex
 10
86.027371
 20
63.514076
 30
0.0
  0
VERTEX
  5
C20C
100
AcDbEntity
  8
ALPHA
100
AcDbVertex
100
AcDb2dVertex
 10
86.063932
 20
64.968979
 30
0.0
  0
SEQEND
  5
C20D
100
AcDbEntity
  8
ALPHA
  0
LINE
  5
C04A
100
AcDbEntity
  8
ALPHA
100
AcDbLine
 10
84.855236
 20
59.923949
 30
0.0
 11
84.855236
 21
59.078464
 31
0.0
  0
LINE
  5
C04B
100
AcDbEntity
  8
ALPHA
100
AcDbLine
 10
84.859277
 20
58.797296
 30
0.0
 11
84.855236
 21
59.078954
 31
0.0
  0
LINE
  5
C04C
100
AcDbEntity
  8
ALPHA
100
AcDbLine
 10
85.957228
 20
59.185505
 30
0.0
 11
85.96471
 21
59.923949
 31
0.0
  0
POLYLINE
  5
C04D
100
AcDbEntity
  8
ALPHA
100
AcDb2dPolyline
 66
     1
 10
0.0
 20
0.0
 30
0.0
  0
VERTEX
  5
C20E
100
AcDbEntity
  8
ALPHA
100
AcDbVertex
100
AcDb2dVertex
 10
86.063932
 20
64.968979
 30
0.0
  0
VERTEX
  5
C20F
100
AcDbEntity
  8
ALPHA
100
AcDbVertex
100
AcDb2dVertex
 10
86.078728
 20
65.721852
 30
0.0
  0
VERTEX
  5
C210
100
AcDbEntity
  8
ALPHA
100
AcDbVertex
100
AcDb2dVertex
 10
86.084966
 20
66.526533
 30
0.0
  0
SEQEND
  5
C211
100
AcDbEntity
  8
ALPHA
  0
POLYLINE
  5
C04E
100
AcDbEntity
  8
ALPHA
100
AcDb2dPolyline
 66
     1
 10
0.0
 20
0.0
 30
0.0
  0
VERTEX
  5
C212
100
AcDbEntity
  8
ALPHA
100
AcDbVertex
100
AcDb2dVertex
 10
86.084966
 20
66.526533
 30
0.0
  0
VERTEX
  5
C213
100
AcDbEntity
  8
ALPHA
100
AcDbVertex
100
AcDb2dVertex
 10
86.078316
 20
67.358488
 30
0.0
  0
VERTEX
  5
C214
100
AcDbEntity
  8
ALPHA
100
AcDbVertex
100
AcDb2dVertex
 10
86.062657
 20
68.13829
 30
0.0
  0
SEQEND
  5
C215
100
AcDbEntity
  8
ALPHA
  0
POLYLINE
  5
C04F
100
AcDbEntity
  8
ALPHA
100
AcDb2dPolyline
 66
     1
 10
0.0
 20
0.0
 30
0.0
  0
VERTEX
  5
C216
100
AcDbEntity
  8
ALPHA
100
AcDbVertex
100
AcDb2dVertex
 10
83.008444
 20
77.926728
 30
0.0
  0
VERTEX
  5
C217
100
AcDbEntity
  8
ALPHA
100
AcDbVertex
100
AcDb2dVertex
 10
82.955236
 20
77.88225
 30
0.0
  0
VERTEX
  5
C218
100
AcDbEntity
  8
ALPHA
100
AcDbVertex
100
AcDb2dVertex
 10
82.889965
 20
77.858584
 30
0.0
  0
VERTEX
  5
C219
100
AcDbEntity
  8
ALPHA
100
AcDbVertex
100
AcDb2dVertex
 10
82.820506
 20
77.858584
 30
0.0
  0
VERTEX
  5
C21A
100
AcDbEntity
  8
ALPHA
100
AcDbVertex
100
AcDb2dVertex
 10
82.755236
 20
77.88225
 30
0.0
  0
VERTEX
  5
C21B
100
AcDbEntity
  8
ALPHA
100
AcDbVertex
100
AcDb2dVertex
 10
82.702027
 20
77.926728
 30
0.0
  0
SEQEND
  5
C21C
100
AcDbEntity
  8
ALPHA
  0
LINE
  5
C050
100
AcDbEntity
  8
ALPHA
100
AcDbLine
 10
79.753244
 20
73.867561
 30
0.0
 11
79.745761
 21
73.129116
 31
0.0
  0
LINE
  5
C051
100
AcDbEntity
  8
ALPHA
100
AcDbLine
 10
80.855236
 20
73.974602
 30
0.0
 11
80.855236
 21
73.129116
 31
0.0
  0
LINE
  5
C052
100
AcDbEntity
  8
ALPHA
100
AcDbLine
 10
80.851194
 20
74.255769
 30
0.0
 11
80.855236
 21
73.974112
 31
0.0
  0
POLYLINE
  5
C053
100
AcDbEntity
  8
ALPHA
100
AcDb2dPolyline
 66
     1
 10
0.0
 20
0.0
 30
0.0
  0
VERTEX
  5
C21D
100
AcDbEntity
  8
ALPHA
100
AcDbVertex
100
AcDb2dVertex
 10
80.747741
 20
78.374668
 30
0.0
  0
VERTEX
  5
C21E
100
AcDbEntity
  8
ALPHA
100
AcDbVertex
100
AcDb2dVertex
 10
81.228829
 20
78.442889
 30
0.0
  0
VERTEX
  5
C21F
100
AcDbEntity
  8
ALPHA
100
AcDbVertex
100
AcDb2dVertex
 10
81.712104
 20
78.49349
 30
0.0
  0
VERTEX
  5
C220
100
AcDbEntity
  8
ALPHA
100
AcDbVertex
100
AcDb2dVertex
 10
82.196917
 20
78.526403
 30
0.0
  0
SEQEND
  5
C221
100
AcDbEntity
  8
ALPHA
  0
LINE
  5
C054
100
AcDbEntity
  8
ALPHA
100
AcDbLine
 10
79.459875
 20
78.101966
 30
0.0
 11
80.079103
 21
77.620013
 31
0.0
  0
POLYLINE
  5
C055
100
AcDbEntity
  8
ALPHA
100
AcDb2dPolyline
 66
     1
 10
0.0
 20
0.0
 30
0.0
  0
VERTEX
  5
C222
100
AcDbEntity
  8
ALPHA
100
AcDbVertex
100
AcDb2dVertex
 10
80.378825
 20
77.683478
 30
0.0
  0
VERTEX
  5
C223
100
AcDbEntity
  8
ALPHA
100
AcDbVertex
100
AcDb2dVertex
 10
80.336061
 20
77.628952
 30
0.0
  0
VERTEX
  5
C224
100
AcDbEntity
  8
ALPHA
100
AcDbVertex
100
AcDb2dVertex
 10
80.277157
 20
77.592284
 30
0.0
  0
VERTEX
  5
C225
100
AcDbEntity
  8
ALPHA
100
AcDbVertex
100
AcDb2dVertex
 10
80.209215
 20
77.577898
 30
0.0
  0
VERTEX
  5
C226
100
AcDbEntity
  8
ALPHA
100
AcDbVertex
100
AcDb2dVertex
 10
80.140432
 20
77.587528
 30
0.0
  0
VERTEX
  5
C227
100
AcDbEntity
  8
ALPHA
100
AcDbVertex
100
AcDb2dVertex
 10
80.079103
 20
77.620013
 30
0.0
  0
SEQEND
  5
C228
100
AcDbEntity
  8
ALPHA
  0
LINE
  5
C056
100
AcDbEntity
  8
ALPHA
100
AcDbLine
 10
80.378825
 20
77.683478
 30
0.0
 11
80.747741
 21
78.374668
 31
0.0
  0
LINE
  5
C057
100
AcDbEntity
  8
ALPHA
100
AcDbLine
 10
82.196917
 20
78.526403
 30
0.0
 11
82.702027
 21
77.926728
 31
0.0
  0
LINE
  5
C058
100
AcDbEntity
  8
ALPHA
100
AcDbLine
 10
84.859277
 20
74.255769
 30
0.0
 11
84.855236
 21
73.974112
 31
0.0
  0
LINE
  5
C059
100
AcDbEntity
  8
ALPHA
100
AcDbLine
 10
84.855236
 20
73.975381
 30
0.0
 11
84.855236
 21
73.129116
 31
0.0
  0
LINE
  5
C05A
100
AcDbEntity
  8
ALPHA
100
AcDbLine
 10
85.964709
 20
73.129115
 30
0.0
 11
85.957225
 21
73.867562
 31
0.0
  0
POLYLINE
  5
C05B
100
AcDbEntity
  8
ALPHA
100
AcDb2dPolyline
 66
     1
 10
0.0
 20
0.0
 30
0.0
  0
VERTEX
  5
C229
100
AcDbEntity
  8
ALPHA
100
AcDbVertex
100
AcDb2dVertex
 10
83.513554
 20
78.526403
 30
0.0
  0
VERTEX
  5
C22A
100
AcDbEntity
  8
ALPHA
100
AcDbVertex
100
AcDb2dVertex
 10
83.998367
 20
78.49349
 30
0.0
  0
VERTEX
  5
C22B
100
AcDbEntity
  8
ALPHA
100
AcDbVertex
100
AcDb2dVertex
 10
84.481643
 20
78.442889
 30
0.0
  0
VERTEX
  5
C22C
100
AcDbEntity
  8
ALPHA
100
AcDbVertex
100
AcDb2dVertex
 10
84.96273
 20
78.374668
 30
0.0
  0
SEQEND
  5
C22D
100
AcDbEntity
  8
ALPHA
  0
LINE
  5
C05C
100
AcDbEntity
  8
ALPHA
100
AcDbLine
 10
83.008444
 20
77.926728
 30
0.0
 11
83.513554
 21
78.526403
 31
0.0
  0
LINE
  5
C05D
100
AcDbEntity
  8
ALPHA
100
AcDbLine
 10
84.96273
 20
78.374668
 30
0.0
 11
85.331646
 21
77.683478
 31
0.0
  0
POLYLINE
  5
C05E
100
AcDbEntity
  8
ALPHA
100
AcDb2dPolyline
 66
     1
 10
0.0
 20
0.0
 30
0.0
  0
VERTEX
  5
C22E
100
AcDbEntity
  8
ALPHA
100
AcDbVertex
100
AcDb2dVertex
 10
85.631368
 20
77.620013
 30
0.0
  0
VERTEX
  5
C22F
100
AcDbEntity
  8
ALPHA
100
AcDbVertex
100
AcDb2dVertex
 10
85.570039
 20
77.587528
 30
0.0
  0
VERTEX
  5
C230
100
AcDbEntity
  8
ALPHA
100
AcDbVertex
100
AcDb2dVertex
 10
85.501256
 20
77.577898
 30
0.0
  0
VERTEX
  5
C231
100
AcDbEntity
  8
ALPHA
100
AcDbVertex
100
AcDb2dVertex
 10
85.433315
 20
77.592284
 30
0.0
  0
VERTEX
  5
C232
100
AcDbEntity
  8
ALPHA
100
AcDbVertex
100
AcDb2dVertex
 10
85.37441
 20
77.628952
 30
0.0
  0
VERTEX
  5
C233
100
AcDbEntity
  8
ALPHA
100
AcDbVertex
100
AcDb2dVertex
 10
85.331646
 20
77.683478
 30
0.0
  0
SEQEND
  5
C234
100
AcDbEntity
  8
ALPHA
  0
LINE
  5
C05F
100
AcDbEntity
  8
ALPHA
100
AcDbLine
 10
85.631368
 20
77.620013
 30
0.0
 11
86.250596
 21
78.101966
 31
0.0
  0
ARC
  5
C060
100
AcDbEntity
  8
ALPHA
100
AcDbCircle
 10
82.855236
 20
66.526533
 30
0.0
 40
35.25
100
AcDbArc
 50
96.466462
 51
120.234887
  0
ARC
  5
C061
100
AcDbEntity
  8
ALPHA
100
AcDbCircle
 10
82.855236
 20
66.526533
 30
0.0
 40
35.375
100
AcDbArc
 50
96.407397
 51
138.286013
  0
ARC
  5
C062
100
AcDbEntity
  8
ALPHA
100
AcDbCircle
 10
82.855236
 20
66.526533
 30
0.0
 40
36.575
100
AcDbArc
 50
93.01119
 51
138.540568
  0
ARC
  5
C063
100
AcDbEntity
  8
ALPHA
100
AcDbCircle
 10
82.855236
 20
66.526533
 30
0.0
 40
38.061959
100
AcDbArc
 50
93.294126
 51
113.195917
  0
ARC
  5
C064
100
AcDbEntity
  8
ALPHA
100
AcDbCircle
 10
82.855236
 20
66.526533
 30
0.0
 40
38.018657
100
AcDbArc
 50
115.560906
 51
126.226405
  0
ARC
  5
C065
100
AcDbEntity
  8
ALPHA
100
AcDbCircle
 10
82.855236
 20
66.526533
 30
0.0
 40
35.075
100
AcDbArc
 50
120.354354
 51
138.219627
  0
ARC
  5
C066
100
AcDbEntity
  8
ALPHA
100
AcDbCircle
 10
82.855236
 20
66.526533
 30
0.0
 40
38.051831
100
AcDbArc
 50
115.535938
 51
126.188464
  0
ARC
  5
C067
100
AcDbEntity
  8
ALPHA
100
AcDbCircle
 10
82.855236
 20
66.526533
 30
0.0
 40
35.0
100
AcDbArc
 50
124.926344
 51
131.10174
  0
LINE
  5
C068
100
AcDbEntity
  8
ALPHA
100
AcDbLine
 10
55.288181
 20
90.848254
 30
0.0
 11
56.699658
 21
89.896201
 31
0.0
  0
POLYLINE
  5
C069
100
AcDbEntity
  8
ALPHA
100
AcDb2dPolyline
 66
     1
 10
0.0
 20
0.0
 30
0.0
  0
VERTEX
  5
C235
100
AcDbEntity
  8
ALPHA
100
AcDbVertex
100
AcDb2dVertex
 10
60.386676
 20
97.173455
 30
0.0
  0
VERTEX
  5
C236
100
AcDbEntity
  8
ALPHA
100
AcDbVertex
100
AcDb2dVertex
 10
58.964714
 20
96.086199
 30
0.0
  0
VERTEX
  5
C237
100
AcDbEntity
  8
ALPHA
100
AcDbVertex
100
AcDb2dVertex
 10
57.611172
 20
94.953734
 30
0.0
  0
VERTEX
  5
C238
100
AcDbEntity
  8
ALPHA
100
AcDbVertex
100
AcDb2dVertex
 10
56.326838
 20
93.780268
 30
0.0
  0
SEQEND
  5
C239
100
AcDbEntity
  8
ALPHA
  0
POLYLINE
  5
C06A
100
AcDbEntity
  8
ALPHA
100
AcDb2dPolyline
 66
     1
 10
0.0
 20
0.0
 30
0.0
  0
VERTEX
  5
C23A
100
AcDbEntity
  8
ALPHA
100
AcDbVertex
100
AcDb2dVertex
 10
56.326838
 20
93.780268
 30
0.0
  0
VERTEX
  5
C23B
100
AcDbEntity
  8
ALPHA
100
AcDbVertex
100
AcDb2dVertex
 10
57.60958
 20
94.99897
 30
0.0
  0
VERTEX
  5
C23C
100
AcDbEntity
  8
ALPHA
100
AcDbVertex
100
AcDb2dVertex
 10
58.963849
 20
96.177701
 30
0.0
  0
SEQEND
  5
C23D
100
AcDbEntity
  8
ALPHA
  0
LINE
  5
C06B
100
AcDbEntity
  8
ALPHA
100
AcDbLine
 10
56.325723
 20
93.716388
 30
0.0
 11
56.326838
 21
93.780268
 31
0.0
  0
LINE
  5
C06C
100
AcDbEntity
  8
ALPHA
100
AcDbLine
 10
58.963849
 20
96.177701
 30
0.0
 11
60.389099
 21
97.312251
 31
0.0
  0
LINE
  5
C06D
100
AcDbEntity
  8
ALPHA
100
AcDbLine
 10
60.387065
 20
97.195728
 30
0.0
 11
60.386676
 21
97.173455
 31
0.0
  0
LINE
  5
C06E
100
AcDbEntity
  8
ALPHA
100
AcDbLine
 10
60.389099
 20
97.312251
 30
0.0
 11
60.387792
 21
97.237374
 31
0.0
  0
LINE
  5
C06F
100
AcDbEntity
  8
ALPHA
100
AcDbLine
 10
62.846656
 20
95.199016
 30
0.0
 11
62.846656
 21
95.182409
 31
0.0
  0
LINE
  5
C070
100
AcDbEntity
  8
ALPHA
100
AcDbLine
 10
65.105236
 20
96.633675
 30
0.0
 11
65.105236
 21
96.981417
 31
0.0
  0
LINE
  5
C071
100
AcDbEntity
  8
ALPHA
100
AcDbLine
 10
66.451961
 20
100.861273
 30
0.0
 11
66.451314
 21
100.824195
 31
0.0
  0
LINE
  5
C072
100
AcDbEntity
  8
ALPHA
100
AcDbLine
 10
67.860971
 20
101.365208
 30
0.0
 11
67.863528
 21
101.511693
 31
0.0
  0
ARC
  5
C073
100
AcDbEntity
  8
ALPHA
100
AcDbCircle
 10
79.655236
 20
101.293523
 30
0.0
 40
0.8
100
AcDbArc
 50
124.152915
 51
180.0
  0
ARC
  5
C074
100
AcDbEntity
  8
ALPHA
100
AcDbCircle
 10
82.855236
 20
98.476533
 30
0.0
 40
5.0
100
AcDbArc
 50
73.39845
 51
106.60155
  0
LINE
  5
C075
100
AcDbEntity
  8
ALPHA
100
AcDbLine
 10
80.362348
 20
101.976533
 30
0.0
 11
85.348123
 21
101.976533
 31
0.0
  0
LINE
  5
C076
100
AcDbEntity
  8
ALPHA
100
AcDbLine
 10
85.355236
 20
101.776533
 30
0.0
 11
80.355236
 21
101.776533
 31
0.0
  0
ARC
  5
C077
100
AcDbEntity
  8
ALPHA
100
AcDbCircle
 10
81.855236
 20
101.830635
 30
0.0
 40
1.5
100
AcDbArc
 50
106.60155
 51
180.0
  0
ARC
  5
C078
100
AcDbEntity
  8
ALPHA
100
AcDbCircle
 10
82.855236
 20
96.576533
 30
0.0
 40
6.5
100
AcDbArc
 50
110.031388
 51
124.152915
  0
LINE
  5
C079
100
AcDbEntity
  8
ALPHA
100
AcDbLine
 10
79.206113
 20
101.955557
 30
0.0
 11
80.362348
 21
101.955557
 31
0.0
  0
LINE
  5
C07A
100
AcDbEntity
  8
ALPHA
100
AcDbLine
 10
78.855236
 20
101.293523
 30
0.0
 11
79.677609
 21
101.293523
 31
0.0
  0
LINE
  5
C07B
100
AcDbEntity
  8
ALPHA
100
AcDbLine
 10
80.355236
 20
101.476533
 30
0.0
 11
80.355236
 21
101.830635
 31
0.0
  0
ARC
  5
C07C
100
AcDbEntity
  8
ALPHA
100
AcDbCircle
 10
83.855236
 20
101.830635
 30
0.0
 40
1.5
100
AcDbArc
 50
0.0
 51
73.39845
  0
ARC
  5
C07D
100
AcDbEntity
  8
ALPHA
100
AcDbCircle
 10
82.855236
 20
96.576533
 30
0.0
 40
6.5
100
AcDbArc
 50
55.847085
 51
69.968496
  0
ARC
  5
C07E
100
AcDbEntity
  8
ALPHA
100
AcDbCircle
 10
86.055236
 20
101.293523
 30
0.0
 40
0.8
100
AcDbArc
 50
0.0
 51
55.847085
  0
LINE
  5
C07F
100
AcDbEntity
  8
ALPHA
100
AcDbLine
 10
86.504358
 20
101.955557
 30
0.0
 11
85.348123
 21
101.955557
 31
0.0
  0
LINE
  5
C080
100
AcDbEntity
  8
ALPHA
100
AcDbLine
 10
86.855236
 20
101.293523
 30
0.0
 11
86.032862
 21
101.293523
 31
0.0
  0
LINE
  5
C081
100
AcDbEntity
  8
ALPHA
100
AcDbLine
 10
85.355236
 20
101.830635
 30
0.0
 11
85.355236
 21
101.476533
 31
0.0
  0
ARC
  5
C082
100
AcDbEntity
  8
ALPHA
100
AcDbCircle
 10
82.855236
 20
66.526533
 30
0.0
 40
38.16
100
AcDbArc
 50
93.661759
 51
96.528957
  0
LINE
  5
C083
100
AcDbEntity
  8
ALPHA
100
AcDbLine
 10
78.514264
 20
104.325851
 30
0.0
 11
78.51976
 21
104.640746
 31
0.0
  0
LINE
  5
C084
100
AcDbEntity
  8
ALPHA
100
AcDbLine
 10
86.521482
 20
104.668357
 30
0.0
 11
80.522396
 21
104.773071
 31
0.0
  0
LINE
  5
C085
100
AcDbEntity
  8
ALPHA
100
AcDbLine
 10
80.418899
 20
104.574848
 30
0.0
 11
80.417523
 21
104.495985
 31
0.0
  0
LINE
  5
C086
100
AcDbEntity
  8
ALPHA
100
AcDbLine
 10
80.522396
 20
104.773071
 30
0.0
 11
80.418899
 21
104.574848
 31
0.0
  0
LINE
  5
C087
100
AcDbEntity
  8
ALPHA
100
AcDbLine
 10
84.018912
 20
104.512009
 30
0.0
 11
83.019065
 21
104.529461
 31
0.0
  0
LINE
  5
C088
100
AcDbEntity
  8
ALPHA
100
AcDbLine
 10
82.922549
 20
104.731177
 30
0.0
 11
83.019065
 21
104.529461
 31
0.0
  0
LINE
  5
C089
100
AcDbEntity
  8
ALPHA
100
AcDbLine
 10
84.122366
 20
104.710234
 30
0.0
 11
84.018912
 21
104.512009
 31
0.0
  0
LINE
  5
C08A
100
AcDbEntity
  8
ALPHA
100
AcDbLine
 10
86.521482
 20
104.668357
 30
0.0
 11
86.617955
 21
104.466643
 31
0.0
  0
LINE
  5
C08B
100
AcDbEntity
  8
ALPHA
100
AcDbLine
 10
86.617957
 20
104.466744
 30
0.0
 11
86.616581
 21
104.387922
 31
0.0
  0
ARC
  5
C08C
100
AcDbEntity
  8
ALPHA
100
AcDbCircle
 10
82.855236
 20
66.526533
 30
0.0
 40
38.018657
100
AcDbArc
 50
295.560906
 51
306.226405
  0
ARC
  5
C08D
100
AcDbEntity
  8
ALPHA
100
AcDbCircle
 10
82.855236
 20
66.526533
 30
0.0
 40
38.051831
100
AcDbArc
 50
295.535938
 51
306.188464
  0
ARC
  5
C08E
100
AcDbEntity
  8
ALPHA
100
AcDbCircle
 10
82.855236
 20
66.526533
 30
0.0
 40
35.0
100
AcDbArc
 50
282.907392
 51
350.166469
  0
LINE
  5
C08F
100
AcDbEntity
  8
ALPHA
100
AcDbLine
 10
99.25851
 20
32.191792
 30
0.0
 11
99.259157
 21
32.228871
 31
0.0
  0
LINE
  5
C090
100
AcDbEntity
  8
ALPHA
100
AcDbLine
 10
97.849501
 20
31.687857
 30
0.0
 11
97.846944
 21
31.541372
 31
0.0
  0
ARC
  5
C092
100
AcDbEntity
  8
ALPHA
100
AcDbCircle
 10
82.855236
 20
66.526533
 30
0.0
 40
35.0
100
AcDbArc
 50
10.110612
 51
58.428116
  0
ARC
  5
C094
100
AcDbEntity
  8
ALPHA
100
AcDbCircle
 10
82.855236
 20
66.526533
 30
0.0
 40
36.762598
100
AcDbArc
 50
13.202749
 51
26.632902
  0
ARC
  5
C095
100
AcDbEntity
  8
ALPHA
100
AcDbCircle
 10
82.855236
 20
66.526533
 30
0.0
 40
36.475
100
AcDbArc
 50
13.254725
 51
26.650136
  0
CIRCLE
  5
C096
100
AcDbEntity
  8
ALPHA
100
AcDbCircle
 10
103.855236
 20
66.526533
 30
0.0
 40
1.42265
  0
CIRCLE
  5
C097
100
AcDbEntity
  8
ALPHA
100
AcDbCircle
 10
103.855236
 20
66.526533
 30
0.0
 40
1.76906
  0
CIRCLE
  5
C098
100
AcDbEntity
  8
ALPHA
100
AcDbCircle
 10
103.855236
 20
66.526533
 30
0.0
 40
0.69282
  0
ARC
  5
C099
100
AcDbEntity
  8
ALPHA
100
AcDbCircle
 10
82.855236
 20
66.526533
 30
0.0
 40
12.175
100
AcDbArc
 50
294.247409
 51
315.0
  0
LINE
  5
C09A
100
AcDbEntity
  8
ALPHA
100
AcDbLine
 10
91.71698
 20
57.664788
 30
0.0
 11
91.464261
 21
57.917508
 31
0.0
  0
LINE
  5
C09B
100
AcDbEntity
  8
ALPHA
100
AcDbLine
 10
87.855236
 20
55.425604
 30
0.0
 11
87.855236
 21
55.036821
 31
0.0
  0
LINE
  5
C09C
100
AcDbEntity
  8
ALPHA
100
AcDbLine
 10
90.480245
 20
76.526026
 30
0.0
 11
90.480236
 21
73.745215
 31
0.0
  0
LINE
  5
C09D
100
AcDbEntity
  8
ALPHA
100
AcDbLine
 10
87.939444
 20
76.71899
 30
0.0
 11
89.194705
 21
77.328892
 31
0.0
  0
LINE
  5
C09E
100
AcDbEntity
  8
ALPHA
100
AcDbLine
 10
87.704478
 20
77.55875
 30
0.0
 11
87.265391
 21
78.245876
 31
0.0
  0
LINE
  5
C09F
100
AcDbEntity
  8
ALPHA
100
AcDbLine
 10
88.608649
 20
77.55875
 30
0.0
 11
87.704478
 21
77.55875
 31
0.0
  0
LINE
  5
C0A0
100
AcDbEntity
  8
ALPHA
100
AcDbLine
 10
88.608649
 20
77.55875
 30
0.0
 11
88.697129
 21
77.568186
 31
0.0
  0
LINE
  5
C0A1
100
AcDbEntity
  8
ALPHA
100
AcDbLine
 10
87.692192
 20
77.577977
 30
0.0
 11
87.939444
 21
76.71899
 31
0.0
  0
LINE
  5
C0A2
100
AcDbEntity
  8
ALPHA
100
AcDbLine
 10
88.697129
 20
77.568186
 30
0.0
 11
88.777777
 21
77.595674
 31
0.0
  0
LINE
  5
C0A3
100
AcDbEntity
  8
ALPHA
100
AcDbLine
 10
95.230236
 20
64.292702
 30
0.0
 11
95.230236
 21
68.760363
 31
0.0
  0
POLYLINE
  5
C0A5
100
AcDbEntity
  8
ALPHA
100
AcDb2dPolyline
 66
     1
 10
0.0
 20
0.0
 30
0.0
  0
VERTEX
  5
C23E
100
AcDbEntity
  8
ALPHA
100
AcDbVertex
100
AcDb2dVertex
 10
105.323795
 20
35.87961
 30
0.0
  0
VERTEX
  5
C23F
100
AcDbEntity
  8
ALPHA
100
AcDbVertex
100
AcDb2dVertex
 10
106.745757
 20
36.966866
 30
0.0
  0
VERTEX
  5
C240
100
AcDbEntity
  8
ALPHA
100
AcDbVertex
100
AcDb2dVertex
 10
108.099299
 20
38.099331
 30
0.0
  0
VERTEX
  5
C241
100
AcDbEntity
  8
ALPHA
100
AcDbVertex
100
AcDb2dVertex
 10
109.383633
 20
39.272797
 30
0.0
  0
SEQEND
  5
C242
100
AcDbEntity
  8
ALPHA
  0
POLYLINE
  5
C0A6
100
AcDbEntity
  8
ALPHA
100
AcDb2dPolyline
 66
     1
 10
0.0
 20
0.0
 30
0.0
  0
VERTEX
  5
C243
100
AcDbEntity
  8
ALPHA
100
AcDbVertex
100
AcDb2dVertex
 10
109.383633
 20
39.272797
 30
0.0
  0
VERTEX
  5
C244
100
AcDbEntity
  8
ALPHA
100
AcDbVertex
100
AcDb2dVertex
 10
108.100891
 20
38.054095
 30
0.0
  0
VERTEX
  5
C245
100
AcDbEntity
  8
ALPHA
100
AcDbVertex
100
AcDb2dVertex
 10
106.746623
 20
36.875364
 30
0.0
  0
SEQEND
  5
C246
100
AcDbEntity
  8
ALPHA
  0
LINE
  5
C0A7
100
AcDbEntity
  8
ALPHA
100
AcDbLine
 10
106.746623
 20
36.875364
 30
0.0
 11
105.321372
 21
35.740814
 31
0.0
  0
LINE
  5
C0A8
100
AcDbEntity
  8
ALPHA
100
AcDbLine
 10
105.321372
 20
35.740814
 30
0.0
 11
105.322679
 21
35.815691
 31
0.0
  0
LINE
  5
C0A9
100
AcDbEntity
  8
ALPHA
100
AcDbLine
 10
105.323406
 20
35.857337
 30
0.0
 11
105.323795
 21
35.87961
 31
0.0
  0
LINE
  5
C0AA
100
AcDbEntity
  8
ALPHA
100
AcDbLine
 10
109.384748
 20
39.336678
 30
0.0
 11
109.383633
 21
39.272797
 31
0.0
  0
ARC
  5
C0AD
100
AcDbEntity
  8
ALPHA
100
AcDbCircle
 10
82.855236
 20
66.526533
 30
0.0
 40
35.0
100
AcDbArc
 50
0.699102
 51
8.673395
  0
LINE
  5
C0AE
100
AcDbEntity
  8
ALPHA
100
AcDbLine
 10
117.286363
 20
60.526533
 30
0.0
 11
117.302315
 21
60.537703
 31
0.0
  0
LINE
  5
C0AF
100
AcDbEntity
  8
ALPHA
100
AcDbLine
 10
116.95825
 20
74.726533
 30
0.0
 11
118.646122
 21
74.923021
 31
0.0
  0
ARC
  5
C0B0
100
AcDbEntity
  8
ALPHA
100
AcDbCircle
 10
82.855236
 20
66.526533
 30
0.0
 40
38.018657
100
AcDbArc
 50
51.773595
 51
62.439094
  0
ARC
  5
C0B1
100
AcDbEntity
  8
ALPHA
100
AcDbCircle
 10
82.855236
 20
66.526533
 30
0.0
 40
38.051831
100
AcDbArc
 50
51.811536
 51
62.464062
  0
LINE
  5
C0B2
100
AcDbEntity
  8
ALPHA
100
AcDbLine
 10
88.51274
 20
104.151327
 30
0.0
 11
88.518237
 21
104.466222
 31
0.0
  0
LINE
  5
C0B3
100
AcDbEntity
  8
ALPHA
100
AcDbLine
 10
99.057099
 20
100.871108
 30
0.0
 11
99.058776
 21
100.967178
 31
0.0
  0
LINE
  5
C0B4
100
AcDbEntity
  8
ALPHA
100
AcDbLine
 10
101.155236
 20
96.302572
 30
0.0
 11
101.155236
 21
96.654136
 31
0.0
  0
LINE
  5
C0B5
100
AcDbEntity
  8
ALPHA
100
AcDbLine
 10
100.605236
 20
96.633675
 30
0.0
 11
100.605236
 21
96.981417
 31
0.0
  0
LINE
  5
C0B6
100
AcDbEntity
  8
ALPHA
100
AcDbLine
 10
102.175348
 20
96.159688
 30
0.0
 11
102.169157
 21
95.80499
 31
0.0
  0
LINE
  5
C0B7
100
AcDbEntity
  8
ALPHA
100
AcDbLine
 10
100.446136
 20
100.230813
 30
0.0
 11
100.446783
 21
100.267891
 31
0.0
  0
LINE
  5
C0B8
100
AcDbEntity
  8
ALPHA
100
AcDbLine
 10
110.315727
 20
92.672444
 30
0.0
 11
110.318614
 21
92.837838
 31
0.0
  0
POLYLINE
  5
C0B9
100
AcDbEntity
  8
ALPHA
100
AcDb2dPolyline
 66
     1
 10
0.0
 20
0.0
 30
0.0
  0
VERTEX
  5
C247
100
AcDbEntity
  8
ALPHA
100
AcDbVertex
100
AcDb2dVertex
 10
110.318614
 20
92.837838
 30
0.0
  0
VERTEX
  5
C248
100
AcDbEntity
  8
ALPHA
100
AcDbVertex
100
AcDb2dVertex
 10
109.076016
 20
94.055412
 30
0.0
  0
VERTEX
  5
C249
100
AcDbEntity
  8
ALPHA
100
AcDbVertex
100
AcDb2dVertex
 10
107.762821
 20
95.234425
 30
0.0
  0
VERTEX
  5
C24A
100
AcDbEntity
  8
ALPHA
100
AcDbVertex
100
AcDb2dVertex
 10
106.37967
 20
96.370644
 30
0.0
  0
SEQEND
  5
C24B
100
AcDbEntity
  8
ALPHA
  0
POLYLINE
  5
C0BA
100
AcDbEntity
  8
ALPHA
100
AcDb2dPolyline
 66
     1
 10
0.0
 20
0.0
 30
0.0
  0
VERTEX
  5
C24C
100
AcDbEntity
  8
ALPHA
100
AcDbVertex
100
AcDb2dVertex
 10
106.382093
 20
96.509441
 30
0.0
  0
VERTEX
  5
C24D
100
AcDbEntity
  8
ALPHA
100
AcDbVertex
100
AcDb2dVertex
 10
107.766879
 20
95.325841
 30
0.0
  0
VERTEX
  5
C24E
100
AcDbEntity
  8
ALPHA
100
AcDbVertex
100
AcDb2dVertex
 10
109.079186
 20
94.100565
 30
0.0
  0
VERTEX
  5
C24F
100
AcDbEntity
  8
ALPHA
100
AcDbVertex
100
AcDb2dVertex
 10
110.318614
 20
92.837838
 30
0.0
  0
SEQEND
  5
C250
100
AcDbEntity
  8
ALPHA
  0
LINE
  5
C0BB
100
AcDbEntity
  8
ALPHA
100
AcDbLine
 10
106.380786
 20
96.434563
 30
0.0
 11
106.382093
 21
96.509441
 31
0.0
  0
LINE
  5
C0BC
100
AcDbEntity
  8
ALPHA
100
AcDbLine
 10
106.37967
 20
96.370644
 30
0.0
 11
106.380059
 21
96.392918
 31
0.0
  0
LINE
  5
C0BD
100
AcDbEntity
  8
ALPHA
100
AcDbLine
 10
115.71721
 20
83.006193
 30
0.0
 11
114.112447
 21
82.440123
 31
0.0
  0
VIEWPORT
  5
494D
102
{ACAD_XDICTIONARY
360
C146
102
}
100
AcDbEntity
 67
     1
  8
0
100
AcDbViewport
 10
6.0
 20
4.5
 30
0.0
 40
13.37404
 41
9.064748
 68
    -1
 69
     1
1001
ACAD
1000
MVIEW
1002
{
1070
    16
1010
0.0
1020
0.0
1030
0.0
1010
0.0
1020
0.0
1030
1.0
1040
0.0
1040
9.064748
1040
6.0
1040
4.5
1040
50.0
1040
0.0
1040
0.0
1070
     0
1070
   100
1070
     1
1070
     1
1070
     0
1070
     0
1070
     0
1070
     0
1040
0.0
1040
0.0
1040
0.0
1040
10.0
1040
10.0
1040
10.0
1040
10.0
1070
     0
1002
{
1002
}
1002
}
  0
ENDSEC
  0
SECTION
  2
OBJECTS
  0
DICTIONARY
  5
7CF4
102
{ACAD_XDICTIONARY
360
C148
102
}
100
AcDbDictionary
  3
ACAD_GROUP
350
7CF5
  3
ACAD_LAYOUT
350
7D01
  3
ACAD_MLINESTYLE
350
7CFE
  3
ACAD_PLOTSETTINGS
350
7D00
  3
ACAD_PLOTSTYLENAME
350
7CF6
  3
ACDBHEADERROUNDTRIPXREC
350
C125
  3
ACDBVARIABLEDICTIONARY
350
8048
  0
DICTIONARY
  5
C11F
100
AcDbDictionary
  3
ACAD_XREC_ROUNDTRIP
360
C120
  0
DICTIONARY
  5
C121
100
AcDbDictionary
  3
ACAD_XREC_ROUNDTRIP
360
C122
  0
DICTIONARY
  5
C154
100
AcDbDictionary
  3
ACAD_XREC_ROUNDTRIP
360
C155
  0
DICTIONARY
  5
C150
100
AcDbDictionary
  3
ACAD_XREC_ROUNDTRIP
360
C151
  0
DICTIONARY
  5
C152
100
AcDbDictionary
  3
ACAD_XREC_ROUNDTRIP
360
C153
  0
DICTIONARY
  5
800F
100
AcDbDictionary
  3
ACAD_LAYOUTSELFREF
360
C14F
  3
ACAD_XREC_ROUNDTRIP
360
C11D
  0
DICTIONARY
  5
8011
100
AcDbDictionary
  3
ACAD_LAYOUTSELFREF
360
C14E
  3
ACAD_XREC_ROUNDTRIP
360
C11E
  0
DICTIONARY
  5
C146
100
AcDbDictionary
  3
ACAD_XREC_ROUNDTRIP
360
C147
  0
DICTIONARY
  5
C148
100
AcDbDictionary
  3
ACAD_XREC_ROUNDTRIP
360
C149
  0
DICTIONARY
  5
7CF5
102
{ACAD_REACTORS
330
7CF4
102
}
100
AcDbDictionary
  0
DICTIONARY
  5
7D01
102
{ACAD_XDICTIONARY
360
C14C
102
}
102
{ACAD_REACTORS
330
7CF4
102
}
100
AcDbDictionary
  3
MODEL
350
7D09
  3
PRÉSENTATION1
350
7D05
  0
DICTIONARY
  5
7CFE
102
{ACAD_XDICTIONARY
360
C14A
102
}
102
{ACAD_REACTORS
330
7CF4
102
}
100
AcDbDictionary
  3
STANDARD
350
7CFF
  0
DICTIONARY
  5
7D00
102
{ACAD_REACTORS
330
7CF4
102
}
100
AcDbDictionary
  0
ACAD_ZOMBIE_OBJECT
  5
7CF6
102
{ACAD_REACTORS
330
7CF4
102
}
100
AcDbZombieObject
 90
      499
 91
      500
 93
       86
310
405010041939BDC9B585B0
350
7CF7
340
7CF7
 94
        0
  0
DICTIONARY
  5
C125
102
{ACAD_REACTORS
330
7CF4
102
}
100
AcDbDictionary
  3
CEPSNTYPE
350
C12F
  3
DIMSTYLEDATA
350
C133
  3
FINGERPRINTGUID
350
C130
  3
HYPERLINKBASE
350
C128
  3
INSUNITS
350
C12E
  3
LAYOUTDICT
350
C12A
  3
LWETCUNION
350
C12D
  3
PLOTSETDICT
350
C12B
  3
PLOTSTYLNAMDICT
350
C12C
  3
PSVPSCALE
350
C132
  3
PUCSBASE
350
C136
  3
PUCSORGBACK
350
C13C
  3
PUCSORGBOTTOM
350
C138
  3
PUCSORGFRONT
350
C13B
  3
PUCSORGLEFT
350
C139
  3
PUCSORGRIGHT
350
C13A
  3
PUCSORGTOP
350
C137
  3
PUCSORTHOREF
350
C134
  3
PUCSORTHOVIEW
350
C135
  3
STYLESHEET
350
C129
  3
TSTACKALIGN
350
C126
  3
TSTACKSIZE
350
C127
  3
UCSBASE
350
C13F
  3
UCSORGBACK
350
C145
  3
UCSORGBOTTOM
350
C141
  3
UCSORGFRONT
350
C144
  3
UCSORGLEFT
350
C142
  3
UCSORGRIGHT
350
C143
  3
UCSORGTOP
350
C140
  3
UCSORTHOREF
350
C13D
  3
UCSORTHOVIEW
350
C13E
  3
VERSIONGUID
350
C131
  0
DICTIONARY
  5
8048
102
{ACAD_REACTORS
330
7CF4
102
}
100
AcDbDictionary
  3
DIMASSOC
350
804A
  3
HIDETEXT
350
8049
  0
XRECORD
  5
C120
102
{ACAD_REACTORS
330
C11F
102
}
100
AcDbXrecord
102
EXTNAMES
  1
BYBLOCK
  2
ByBlock
  0
XRECORD
  5
C122
102
{ACAD_REACTORS
330
C121
102
}
100
AcDbXrecord
102
EXTNAMES
  1
BYLAYER
  2
ByLayer
  0
XRECORD
  5
C155
102
{ACAD_REACTORS
330
C154
102
}
100
AcDbXrecord
102
PLOTBIT
280
     0
  0
XRECORD
  5
C151
102
{ACAD_REACTORS
330
C150
102
}
100
AcDbXrecord
102
ACADR14ROUNDTRIP
1000
DSTYLE
1002
{
1070
   279
 70
     2
1070
   341
340
7D0C
1070
   342
340
7D0C
1002
}
  0
XRECORD
  5
C153
102
{ACAD_REACTORS
330
C152
102
}
100
AcDbXrecord
102
ACADR14ROUNDTRIP
1000
DSTYLE
1002
{
1070
   279
 70
     2
1002
}
  0
XRECORD
  5
C14F
102
{ACAD_REACTORS
330
800F
102
}
100
AcDbXrecord
340
7D06
  0
XRECORD
  5
C11D
102
{ACAD_REACTORS
330
800F
102
}
100
AcDbXrecord
102
EXTNAMES
  1
*MODEL_SPACE
  2
*Model_Space
  0
XRECORD
  5
C14E
102
{ACAD_REACTORS
330
8011
102
}
100
AcDbXrecord
340
7D02
  0
XRECORD
  5
C11E
102
{ACAD_REACTORS
330
8011
102
}
100
AcDbXrecord
102
EXTNAMES
  1
*PAPER_SPACE
  2
*Paper_Space
  0
XRECORD
  5
C147
102
{ACAD_REACTORS
330
C146
102
}
100
AcDbXrecord
102
UCS
 74
     0
 71
     0
 10
0.0
 20
0.0
 30
0.0
 10
0.0
 20
0.0
 30
0.0
 10
0.0
 20
0.0
 30
0.0
146
0.0
 79
     0
102
VIEW
281
     0
102
NEWVIEWCONTROL
280
     4
  0
XRECORD
  5
C149
102
{ACAD_REACTORS
330
C148
102
}
100
AcDbXrecord
102
EXTNAMES
  1
ACDBVARIABLEDICTIONARY
  2
AcDbVariableDictionary
  0
DICTIONARY
  5
C14C
100
AcDbDictionary
  3
ACAD_XREC_ROUNDTRIP
360
C14D
  0
ACAD_ZOMBIE_OBJECT
  5
7D09
102
{ACAD_REACTORS
330
7D01
102
}
100
AcDbZombieObject
 90
      499
 91
      502
 93
      428
310
A2C01AAAAAAAAA5A69054D6F64656C901A800000000000000000000000000000000000000000000A1000000000000008902A6A6AAAA4
330
7D06
330
0
340
0
340
0
 94
        0
  0
ACAD_ZOMBIE_OBJECT
  5
7D05
102
{ACAD_REACTORS
330
7D01
102
}
100
AcDbZombieObject
 90
      499
 91
      502
 93
     1484
310
9154850204C617365724A65742035303030204E2050532C00800000040B87E17400000003838A84550000000000444F1640000000000611C510000000080253F6A40000000101FA3DC901024134A901416AA5910690D5072E973656E746174696F6E31406A800000000000000000000000000000000000000000000A100000
310
0000000008902A6A6A10232D5E076BC5510408CB5781DAF154410232D5E076BC5510408CB5781DAF15C410232D5E076BC5710408CB5781DAF15C40
330
7D02
330
494D
340
0
340
0
 94
        0
  0
DICTIONARY
  5
C14A
100
AcDbDictionary
  3
ACAD_XREC_ROUNDTRIP
360
C14B
  0
MLINESTYLE
  5
7CFF
102
{ACAD_REACTORS
330
7CFE
102
}
100
AcDbMlineStyle
  2
STANDARD
 70
     0
  3

 62
   256
 51
90.0
 52
90.0
 71
     2
 49
0.5
 62
   256
  6
BYLAYER
 49
-0.5
 62
   256
  6
BYLAYER
  0
ACAD_ZOMBIE_OBJECT
  5
7CF7
102
{ACAD_REACTORS
330
7CF6
102
}
100
AcDbZombieObject
 90
      499
 91
      501
 93
        0
 94
        0
  0
XRECORD
  5
C12F
102
{ACAD_REACTORS
330
C125
102
}
100
AcDbXrecord
 90
        0
  0
XRECORD
  5
C133
102
{ACAD_REACTORS
330
C125
102
}
100
AcDbXrecord
1000
DSTYLE
1002
{
1070
   279
 70
     2
1070
   341
340
7D0C
1070
   342
340
7D0C
1002
}
  0
XRECORD
  5
C130
102
{ACAD_REACTORS
330
C125
102
}
100
AcDbXrecord
  1
{20110D97-5561-4CA7-8FED-06A9B97BF164}
  0
XRECORD
  5
C128
102
{ACAD_REACTORS
330
C125
102
}
100
AcDbXrecord
  1

  0
XRECORD
  5
C12E
102
{ACAD_REACTORS
330
C125
102
}
100
AcDbXrecord
 90
        0
  0
XRECORD
  5
C12A
102
{ACAD_REACTORS
330
C125
102
}
100
AcDbXrecord
340
7D01
  0
XRECORD
  5
C12D
102
{ACAD_REACTORS
330
C125
102
}
100
AcDbXrecord
 90
    14877
  0
XRECORD
  5
C12B
102
{ACAD_REACTORS
330
C125
102
}
100
AcDbXrecord
340
7D00
  0
XRECORD
  5
C12C
102
{ACAD_REACTORS
330
C125
102
}
100
AcDbXrecord
340
7CF6
  0
XRECORD
  5
C132
102
{ACAD_REACTORS
330
C125
102
}
100
AcDbXrecord
 40
0.0
  0
XRECORD
  5
C136
102
{ACAD_REACTORS
330
C125
102
}
100
AcDbXrecord
340
0
  0
XRECORD
  5
C13C
102
{ACAD_REACTORS
330
C125
102
}
100
AcDbXrecord
 10
0.0
 20
0.0
 30
0.0
  0
XRECORD
  5
C138
102
{ACAD_REACTORS
330
C125
102
}
100
AcDbXrecord
 10
0.0
 20
0.0
 30
0.0
  0
XRECORD
  5
C13B
102
{ACAD_REACTORS
330
C125
102
}
100
AcDbXrecord
 10
0.0
 20
0.0
 30
0.0
  0
XRECORD
  5
C139
102
{ACAD_REACTORS
330
C125
102
}
100
AcDbXrecord
 10
0.0
 20
0.0
 30
0.0
  0
XRECORD
  5
C13A
102
{ACAD_REACTORS
330
C125
102
}
100
AcDbXrecord
 10
0.0
 20
0.0
 30
0.0
  0
XRECORD
  5
C137
102
{ACAD_REACTORS
330
C125
102
}
100
AcDbXrecord
 10
0.0
 20
0.0
 30
0.0
  0
XRECORD
  5
C134
102
{ACAD_REACTORS
330
C125
102
}
100
AcDbXrecord
340
0
  0
XRECORD
  5
C135
102
{ACAD_REACTORS
330
C125
102
}
100
AcDbXrecord
 70
     0
  0
XRECORD
  5
C129
102
{ACAD_REACTORS
330
C125
102
}
100
AcDbXrecord
  1

  0
XRECORD
  5
C126
102
{ACAD_REACTORS
330
C125
102
}
100
AcDbXrecord
 90
        1
  0
XRECORD
  5
C127
102
{ACAD_REACTORS
330
C125
102
}
100
AcDbXrecord
 90
       70
  0
XRECORD
  5
C13F
102
{ACAD_REACTORS
330
C125
102
}
100
AcDbXrecord
340
0
  0
XRECORD
  5
C145
102
{ACAD_REACTORS
330
C125
102
}
100
AcDbXrecord
 10
0.0
 20
0.0
 30
0.0
  0
XRECORD
  5
C141
102
{ACAD_REACTORS
330
C125
102
}
100
AcDbXrecord
 10
0.0
 20
0.0
 30
0.0
  0
XRECORD
  5
C144
102
{ACAD_REACTORS
330
C125
102
}
100
AcDbXrecord
 10
0.0
 20
0.0
 30
0.0
  0
XRECORD
  5
C142
102
{ACAD_REACTORS
330
C125
102
}
100
AcDbXrecord
 10
0.0
 20
0.0
 30
0.0
  0
XRECORD
  5
C143
102
{ACAD_REACTORS
330
C125
102
}
100
AcDbXrecord
 10
0.0
 20
0.0
 30
0.0
  0
XRECORD
  5
C140
102
{ACAD_REACTORS
330
C125
102
}
100
AcDbXrecord
 10
0.0
 20
0.0
 30
0.0
  0
XRECORD
  5
C13D
102
{ACAD_REACTORS
330
C125
102
}
100
AcDbXrecord
340
0
  0
XRECORD
  5
C13E
102
{ACAD_REACTORS
330
C125
102
}
100
AcDbXrecord
 70
     0
  0
XRECORD
  5
C131
102
{ACAD_REACTORS
330
C125
102
}
100
AcDbXrecord
  1
{EE0786AC-8998-4994-A6C2-4B709955091F}
  0
DICTIONARYVAR
  5
804A
102
{ACAD_REACTORS
330
8048
102
}
100
DictionaryVariables
280
     0
  1
2
  0
DICTIONARYVAR
  5
8049
102
{ACAD_REACTORS
330
8048
102
}
100
DictionaryVariables
280
     0
  1
1
  0
XRECORD
  5
C14D
102
{ACAD_REACTORS
330
C14C
102
}
100
AcDbXrecord
102
EXTNAMES
  1
MODEL
  2
Model
  1
PRÉSENTATION1
  2
Présentation1
  0
XRECORD
  5
C14B
102
{ACAD_REACTORS
330
C14A
102
}
100
AcDbXrecord
102
EXTNAMES
  1
STANDARD
  2
Standard
  0
ENDSEC
  0
EOF
