  0
SECTION
  2
HEADER
  9
$ACADVER
  1
AC1014
  9
$ACADMAINTVER
 70
     0
  9
$DWGCODEPAGE
  3
ANSI_1252
  9
$INSBASE
 10
83.040274
 20
138.077131
 30
0.0
  9
$EXTMIN
 10
58.942187
 20
107.630509
 30
0.0
  9
$EXTMAX
 10
102.608833
 20
150.723407
 30
0.0
  9
$LIMMIN
 10
0.0
 20
0.0
  9
$LIMMAX
 10
210.0
 20
297.0
  9
$ORTHOMODE
 70
     0
  9
$REGENMODE
 70
     1
  9
$FILLMODE
 70
     1
  9
$QTEXTMODE
 70
     0
  9
$MIRRTEXT
 70
     1
  9
$DRAGMODE
 70
     2
  9
$LTSCALE
 40
7.0
  9
$OSMODE
 70
     1
  9
$ATTMODE
 70
     1
  9
$TEXTSIZE
 40
0.2
  9
$TRACEWID
 40
0.05
  9
$TEXTSTYLE
  7
STANDARD
  9
$CLAYER
  8
COTATION1
  9
$CELTYPE
  6
BYLAYER
  9
$CECOLOR
 62
   256
  9
$CELTSCALE
 40
1.0
  9
$DELOBJ
 70
     1
  9
$DISPSILH
 70
     0
  9
$DIMSCALE
 40
1.0
  9
$DIMASZ
 40
3.0
  9
$DIMEXO
 40
0.0625
  9
$DIMDLI
 40
0.38
  9
$DIMRND
 40
0.01
  9
$DIMDLE
 40
0.0
  9
$DIMEXE
 40
0.18
  9
$DIMTP
 40
0.0
  9
$DIMTM
 40
0.0
  9
$DIMTXT
 40
2.5
  9
$DIMCEN
 40
0.09
  9
$DIMTSZ
 40
0.0
  9
$DIMTOL
 70
     0
  9
$DIMLIM
 70
     0
  9
$DIMTIH
 70
     0
  9
$DIMTOH
 70
     0
  9
$DIMSE1
 70
     0
  9
$DIMSE2
 70
     0
  9
$DIMTAD
 70
     1
  9
$DIMZIN
 70
    12
  9
$DIMBLK
  1

  9
$DIMASO
 70
     1
  9
$DIMSHO
 70
     1
  9
$DIMPOST
  1

  9
$DIMAPOST
  1

  9
$DIMALT
 70
     0
  9
$DIMALTD
 70
     2
  9
$DIMALTF
 40
25.4
  9
$DIMLFAC
 40
1.0
  9
$DIMTOFL
 70
     1
  9
$DIMTVP
 40
0.0
  9
$DIMTIX
 70
     0
  9
$DIMSOXD
 70
     0
  9
$DIMSAH
 70
     0
  9
$DIMBLK1
  1

  9
$DIMBLK2
  1

  9
$DIMSTYLE
  2
SC_STAND
  9
$DIMCLRD
 70
     0
  9
$DIMCLRE
 70
     0
  9
$DIMCLRT
 70
     0
  9
$DIMTFAC
 40
1.0
  9
$DIMGAP
 40
1.0
  9
$DIMJUST
 70
     0
  9
$DIMSD1
 70
     0
  9
$DIMSD2
 70
     0
  9
$DIMTOLJ
 70
     1
  9
$DIMTZIN
 70
    12
  9
$DIMALTZ
 70
    12
  9
$DIMALTTZ
 70
    12
  9
$DIMFIT
 70
     5
  9
$DIMUPT
 70
     0
  9
$DIMUNIT
 70
     2
  9
$DIMDEC
 70
     4
  9
$DIMTDEC
 70
     4
  9
$DIMALTU
 70
     2
  9
$DIMALTTD
 70
     2
  9
$DIMTXSTY
  7
STANDARD
  9
$DIMAUNIT
 70
     0
  9
$LUNITS
 70
     2
  9
$LUPREC
 70
     4
  9
$SKETCHINC
 40
0.1
  9
$FILLETRAD
 40
0.0
  9
$AUNITS
 70
     0
  9
$AUPREC
 70
     0
  9
$MENU
  1
acad
  9
$ELEVATION
 40
0.0
  9
$PELEVATION
 40
0.0
  9
$THICKNESS
 40
0.0
  9
$LIMCHECK
 70
     0
  9
$BLIPMODE
 70
     1
  9
$CHAMFERA
 40
0.0
  9
$CHAMFERB
 40
0.0
  9
$CHAMFERC
 40
0.0
  9
$CHAMFERD
 40
0.0
  9
$SKPOLY
 70
     0
  9
$TDCREATE
 40
2451086.697497106
  9
$TDUPDATE
 40
2451387.897786146
  9
$TDINDWG
 40
0.0000137731
  9
$TDUSRTIMER
 40
0.0000137731
  9
$USRTIMER
 70
     1
  9
$ANGBASE
 50
0.0
  9
$ANGDIR
 70
     0
  9
$PDMODE
 70
     0
  9
$PDSIZE
 40
0.0
  9
$PLINEWID
 40
0.0
  9
$COORDS
 70
     1
  9
$SPLFRAME
 70
     0
  9
$SPLINETYPE
 70
     6
  9
$SPLINESEGS
 70
     8
  9
$ATTDIA
 70
     0
  9
$ATTREQ
 70
     1
  9
$HANDLING
 70
     1
  9
$HANDSEED
  5
412
  9
$SURFTAB1
 70
     6
  9
$SURFTAB2
 70
     6
  9
$SURFTYPE
 70
     6
  9
$SURFU
 70
     6
  9
$SURFV
 70
     6
  9
$UCSNAME
  2

  9
$UCSORG
 10
0.0
 20
0.0
 30
0.0
  9
$UCSXDIR
 10
1.0
 20
0.0
 30
0.0
  9
$UCSYDIR
 10
0.0
 20
1.0
 30
0.0
  9
$PUCSNAME
  2

  9
$PUCSORG
 10
0.0
 20
0.0
 30
0.0
  9
$PUCSXDIR
 10
1.0
 20
0.0
 30
0.0
  9
$PUCSYDIR
 10
0.0
 20
1.0
 30
0.0
  9
$USERI1
 70
     0
  9
$USERI2
 70
     0
  9
$USERI3
 70
     0
  9
$USERI4
 70
     0
  9
$USERI5
 70
     0
  9
$USERR1
 40
0.0
  9
$USERR2
 40
0.0
  9
$USERR3
 40
0.0
  9
$USERR4
 40
0.0
  9
$USERR5
 40
0.0
  9
$WORLDVIEW
 70
     1
  9
$SHADEDGE
 70
     3
  9
$SHADEDIF
 70
    70
  9
$TILEMODE
 70
     1
  9
$MAXACTVP
 70
    16
  9
$PINSBASE
 10
0.0
 20
0.0
 30
0.0
  9
$PLIMCHECK
 70
     0
  9
$PEXTMIN
 10
1.000000E+20
 20
1.000000E+20
 30
1.000000E+20
  9
$PEXTMAX
 10
-1.000000E+20
 20
-1.000000E+20
 30
-1.000000E+20
  9
$PLIMMIN
 10
0.0
 20
0.0
  9
$PLIMMAX
 10
12.0
 20
9.0
  9
$UNITMODE
 70
     0
  9
$VISRETAIN
 70
     0
  9
$PLINEGEN
 70
     0
  9
$PSLTSCALE
 70
     1
  9
$TREEDEPTH
 70
  3020
  9
$PICKSTYLE
 70
     1
  9
$CMLSTYLE
  2
STANDARD
  9
$CMLJUST
 70
     0
  9
$CMLSCALE
 40
1.0
  9
$PROXYGRAPHICS
 70
     1
  9
$MEASUREMENT
 70
     0
  0
ENDSEC
  0
SECTION
  2
CLASSES
  0
CLASS
  1
DICTIONARYVAR
  2
AcDbDictionaryVar
  3
"AutoCAD"
 90
        0
280
     0
281
     0
  0
CLASS
  1
LWPOLYLINE
  2
AcDbPolyline
  3
"AutoCAD"
 90
        0
280
     0
281
     1
  0
ENDSEC
  0
SECTION
  2
TABLES
  0
TABLE
  2
VPORT
  5
3E8
100
AcDbSymbolTable
 70
     1
  0
VPORT
  5
40D
100
AcDbSymbolTableRecord
100
AcDbViewportTableRecord
  2
*ACTIVE
 70
     0
 10
0.0
 20
0.0
 11
1.0
 21
1.0
 12
189.545455
 22
113.428776
 13
0.0
 23
0.0
 14
1.0
 24
1.0
 15
0.0
 25
0.0
 16
0.0
 26
0.0
 36
1.0
 17
0.0
 27
0.0
 37
0.0
 40
226.857552
 41
1.671053
 42
50.0
 43
0.0
 44
0.0
 50
0.0
 51
0.0
 71
     0
 72
   100
 73
     1
 74
     1
 75
     0
 76
     0
 77
     0
 78
     0
  0
ENDTAB
  0
TABLE
  2
LTYPE
  5
3E5
100
AcDbSymbolTable
 70
     1
  0
LTYPE
  5
3F1
100
AcDbSymbolTableRecord
100
AcDbLinetypeTableRecord
  2
BYBLOCK
 70
     0
  3

 72
    65
 73
     0
 40
0.0
  0
LTYPE
  5
3F2
100
AcDbSymbolTableRecord
100
AcDbLinetypeTableRecord
  2
BYLAYER
 70
     0
  3

 72
    65
 73
     0
 40
0.0
  0
LTYPE
  5
3F3
100
AcDbSymbolTableRecord
100
AcDbLinetypeTableRecord
  2
CONTINUOUS
 70
     0
  3
Solid line
 72
    65
 73
     0
 40
0.0
  0
ENDTAB
  0
TABLE
  2
LAYER
  5
3E2
100
AcDbSymbolTable
 70
     4
  0
LAYER
  5
3EE
100
AcDbSymbolTableRecord
100
AcDbLayerTableRecord
  2
0
 70
     0
 62
     7
  6
CONTINUOUS
  0
LAYER
  5
401
100
AcDbSymbolTableRecord
100
AcDbLayerTableRecord
  2
COTATION1
 70
     0
 62
     2
  6
CONTINUOUS
  0
LAYER
  5
402
100
AcDbSymbolTableRecord
100
AcDbLayerTableRecord
  2
ALPHA
 70
     0
 62
   255
  6
CONTINUOUS
  0
LAYER
  5
403
100
AcDbSymbolTableRecord
100
AcDbLayerTableRecord
  2
DEFPOINTS
 70
     0
 62
     7
  6
CONTINUOUS
  0
ENDTAB
  0
TABLE
  2
STYLE
  5
3E3
100
AcDbSymbolTable
 70
     2
  0
STYLE
  5
3EF
100
AcDbSymbolTableRecord
100
AcDbTextStyleTableRecord
  2
STANDARD
 70
     0
 40
0.0
 41
1.0
 50
0.0
 71
     0
 42
0.2
  3
txt
  4

  0
STYLE
  5
3FE
100
AcDbSymbolTableRecord
100
AcDbTextStyleTableRecord
  2
ROMANS
 70
     0
 40
0.0
 41
1.0
 50
0.0
 71
     0
 42
2.9
  3
romans.shx
  4

  0
ENDTAB
  0
TABLE
  2
VIEW
  5
3E6
100
AcDbSymbolTable
 70
     0
  0
ENDTAB
  0
TABLE
  2
UCS
  5
3E7
100
AcDbSymbolTable
 70
     0
  0
ENDTAB
  0
TABLE
  2
APPID
  5
3E9
100
AcDbSymbolTable
 70
     1
  0
APPID
  5
3F0
100
AcDbSymbolTableRecord
100
AcDbRegAppTableRecord
  2
ACAD
 70
     0
  0
ENDTAB
  0
TABLE
  2
DIMSTYLE
  5
3EA
100
AcDbSymbolTable
 70
     1
  0
DIMSTYLE
105
400
102
{ACAD_REACTORS
330
1F
330
2D
102
}
100
AcDbSymbolTableRecord
100
AcDbDimStyleTableRecord
  2
SC_STAND
 70
     0
  3

  4

  5

  6

  7

 40
1.0
 41
3.0
 42
0.0625
 43
0.38
 44
0.18
 45
0.01
 46
0.0
 47
0.0
 48
0.0
140
2.5
141
0.09
142
0.0
143
25.4
144
1.0
145
0.0
146
1.0
147
1.0
 71
     0
 72
     0
 73
     0
 74
     0
 75
     0
 76
     0
 77
     1
 78
    12
170
     0
171
     2
172
     1
173
     0
174
     0
175
     0
176
     0
177
     0
178
     0
270
     2
271
     4
272
     4
273
     2
274
     2
340
3EF
275
     0
280
     0
281
     0
282
     0
283
     1
284
    12
285
    12
286
    12
287
     5
288
     0
  0
ENDTAB
  0
TABLE
  2
BLOCK_RECORD
  5
3E1
100
AcDbSymbolTable
 70
     2
  0
BLOCK_RECORD
  5
3F7
100
AcDbSymbolTableRecord
100
AcDbBlockTableRecord
  2
*MODEL_SPACE
  0
BLOCK_RECORD
  5
3F4
100
AcDbSymbolTableRecord
100
AcDbBlockTableRecord
  2
*PAPER_SPACE
  0
BLOCK_RECORD
  5
3FC
100
AcDbSymbolTableRecord
100
AcDbBlockTableRecord
  2
*D0
  0
BLOCK_RECORD
  5
3FD
100
AcDbSymbolTableRecord
100
AcDbBlockTableRecord
  2
*D1
  0
ENDTAB
  0
ENDSEC
  0
SECTION
  2
BLOCKS
  0
BLOCK
  5
406
100
AcDbEntity
  8
0
100
AcDbBlockBegin
  2
*MODEL_SPACE
 70
     0
 10
0.0
 20
0.0
 30
0.0
  3
*MODEL_SPACE
  1

  0
ENDBLK
  5
407
100
AcDbEntity
  8
0
100
AcDbBlockEnd
  0
BLOCK
  5
404
100
AcDbEntity
 67
     1
  8
0
100
AcDbBlockBegin
  2
*PAPER_SPACE
 70
     0
 10
0.0
 20
0.0
 30
0.0
  3
*PAPER_SPACE
  1

  0
ENDBLK
  5
405
100
AcDbEntity
 67
     1
  8
0
100
AcDbBlockEnd
  0
BLOCK
  5
38
100
AcDbEntity
  8
0
100
AcDbBlockBegin
  2
*D0
 70
     1
 10
0.0
 20
0.0
 30
0.0
  3
*D0
  1
AVE_GLOBAL
  0
LINE
  5
2F
100
AcDbEntity
  8
0
  6
BYBLOCK
 62
     0
100
AcDbLine
 10
83.102774
 20
126.227131
 30
0.0
 11
102.288833
 21
126.227131
 31
0.0
  0
LINE
  5
30
100
AcDbEntity
  8
0
  6
BYBLOCK
 62
     0
100
AcDbLine
 10
83.102774
 20
146.427131
 30
0.0
 11
102.288833
 21
146.427131
 31
0.0
  0
LINE
  5
31
100
AcDbEntity
  8
0
  6
BYBLOCK
 62
     0
100
AcDbLine
 10
102.108833
 20
129.227131
 30
0.0
 11
102.108833
 21
143.427131
 31
0.0
  0
SOLID
  5
32
100
AcDbEntity
  8
0
  6
BYBLOCK
 62
     0
100
AcDbTrace
 10
101.608833
 20
129.227131
 30
0.0
 11
102.608833
 21
129.227131
 31
0.0
 12
102.108833
 22
126.227131
 32
0.0
 13
102.108833
 23
126.227131
 33
0.0
  0
SOLID
  5
33
100
AcDbEntity
  8
0
  6
BYBLOCK
 62
     0
100
AcDbTrace
 10
101.608833
 20
143.427131
 30
0.0
 11
102.608833
 21
143.427131
 31
0.0
 12
102.108833
 22
146.427131
 32
0.0
 13
102.108833
 23
146.427131
 33
0.0
  0
TEXT
  5
34
100
AcDbEntity
  8
0
  6
BYBLOCK
 62
     0
100
AcDbText
 10
101.108833
 20
131.14856
 30
0.0
 40
2.5
  1
%%c20.2
 50
90.0
  7
ROMANS
100
AcDbText
  0
POINT
  5
35
100
AcDbEntity
  8
DEFPOINTS
  6
BYBLOCK
 62
     0
100
AcDbPoint
 10
83.040274
 20
126.227131
 30
0.0
  0
POINT
  5
36
100
AcDbEntity
  8
DEFPOINTS
  6
BYBLOCK
 62
     0
100
AcDbPoint
 10
83.040274
 20
146.427131
 30
0.0
  0
POINT
  5
37
100
AcDbEntity
  8
DEFPOINTS
  6
BYBLOCK
 62
     0
100
AcDbPoint
 10
102.108833
 20
146.427131
 30
0.0
  0
ENDBLK
  5
39
100
AcDbEntity
  8
0
100
AcDbBlockEnd
  0
BLOCK
  5
2B
100
AcDbEntity
  8
0
100
AcDbBlockBegin
  2
*D1
 70
     1
 10
0.0
 20
0.0
 30
0.0
  3
*D1
  1
AVE_GLOBAL
  0
LINE
  5
21
100
AcDbEntity
  8
0
  6
BYBLOCK
 62
     0
100
AcDbLine
 10
89.954633
 20
140.464631
 30
0.0
 11
89.954633
 21
107.950509
 31
0.0
  0
LINE
  5
22
100
AcDbEntity
  8
0
  6
BYBLOCK
 62
     0
100
AcDbLine
 10
59.554633
 20
136.264631
 30
0.0
 11
59.554633
 21
107.950509
 31
0.0
  0
LINE
  5
23
100
AcDbEntity
  8
0
  6
BYBLOCK
 62
     0
100
AcDbLine
 10
86.954633
 20
108.130509
 30
0.0
 11
62.554633
 21
108.130509
 31
0.0
  0
SOLID
  5
24
100
AcDbEntity
  8
0
  6
BYBLOCK
 62
     0
100
AcDbTrace
 10
86.954633
 20
108.630509
 30
0.0
 11
86.954633
 21
107.630509
 31
0.0
 12
89.954633
 22
108.130509
 32
0.0
 13
89.954633
 23
108.130509
 33
0.0
  0
SOLID
  5
25
100
AcDbEntity
  8
0
  6
BYBLOCK
 62
     0
100
AcDbTrace
 10
62.554633
 20
108.630509
 30
0.0
 11
62.554633
 21
107.630509
 31
0.0
 12
59.554633
 22
108.130509
 32
0.0
 13
59.554633
 23
108.130509
 33
0.0
  0
TEXT
  5
26
100
AcDbEntity
  8
0
  6
BYBLOCK
 62
     0
100
AcDbText
 10
70.528443
 20
109.130509
 30
0.0
 40
2.5
  1
30.4
  7
ROMANS
100
AcDbText
  0
POINT
  5
27
100
AcDbEntity
  8
DEFPOINTS
  6
BYBLOCK
 62
     0
100
AcDbPoint
 10
89.954633
 20
140.527131
 30
0.0
  0
POINT
  5
29
100
AcDbEntity
  8
DEFPOINTS
  6
BYBLOCK
 62
     0
100
AcDbPoint
 10
59.554633
 20
136.327131
 30
0.0
  0
POINT
  5
2A
100
AcDbEntity
  8
DEFPOINTS
  6
BYBLOCK
 62
     0
100
AcDbPoint
 10
59.554633
 20
108.130509
 30
0.0
  0
ENDBLK
  5
2C
100
AcDbEntity
  8
0
100
AcDbBlockEnd
  0
ENDSEC
  0
SECTION
  2
ENTITIES
  0
DIMENSION
  5
1F
100
AcDbEntity
  8
COTATION1
100
AcDbDimension
  2
*D1
 10
59.554633
 20
108.130509
 30
0.0
 11
74.754633
 21
110.380509
 31
0.0
  3
SC_STAND
100
AcDbAlignedDimension
 13
89.954633
 23
140.527131
 33
0.0
 14
59.554633
 24
136.327131
 34
0.0
100
AcDbRotatedDimension
  0
DIMENSION
  5
2D
100
AcDbEntity
  8
COTATION1
100
AcDbDimension
  2
*D0
 10
102.108833
 20
146.427131
 30
0.0
 11
99.858833
 21
136.327131
 31
0.0
  1
%%c<>
  3
SC_STAND
100
AcDbAlignedDimension
 13
83.040274
 23
126.227131
 33
0.0
 14
83.040274
 24
146.427131
 34
0.0
 50
90.0
100
AcDbRotatedDimension
  0
LWPOLYLINE
  5
3A
100
AcDbEntity
  8
ALPHA
100
AcDbPolyline
 90
        8
 70
     0
 43
0.0
 10
83.040274
 20
134.577131
 10
83.040274
 20
133.057499
 10
83.040274
 20
131.602468
 10
83.040274
 20
130.240785
 10
83.040274
 20
128.999356
 10
83.040274
 20
127.902707
 10
83.040274
 20
126.972505
 10
83.040274
 20
126.227131
  0
LINE
  5
45
100
AcDbEntity
  8
ALPHA
100
AcDbLine
 10
88.454633
 20
146.172815
 30
0.0
 11
86.254633
 21
146.172815
 31
0.0
  0
LWPOLYLINE
  5
46
100
AcDbEntity
  8
ALPHA
100
AcDbPolyline
 90
       13
 70
     0
 43
0.0
 10
89.262304
 20
142.127131
 10
88.088636
 20
141.198962
 10
87.154779
 20
140.246486
 10
86.452586
 20
139.289892
 10
85.970666
 20
138.356185
 10
85.684749
 20
137.465957
 10
85.562482
 20
136.60726
 10
85.587322
 20
135.755623
 10
85.76266
 20
134.888575
 10
86.111343
 20
133.984137
 10
86.665397
 20
133.040919
 10
87.443322
 20
132.085068
 10
88.454633
 20
131.140851
  0
LWPOLYLINE
  5
55
100
AcDbEntity
  8
ALPHA
100
AcDbPolyline
 90
       20
 70
     0
 43
0.0
 10
83.574633
 20
140.027928
 10
83.583809
 20
140.316125
 10
83.611249
 20
140.576401
 10
83.656816
 20
140.809495
 10
83.71949
 20
141.013233
 10
83.798215
 20
141.187649
 10
83.892846
 20
141.333893
 10
84.006304
 20
141.453692
 10
84.138203
 20
141.541097
 10
84.280648
 20
141.587727
 10
84.428075
 20
141.590839
 10
84.573214
 20
141.549454
 10
84.708711
 20
141.465521
 10
84.826143
 20
141.34688
 10
84.924471
 20
141.199655
 10
85.005876
 20
141.02353
 10
85.07048
 20
140.817356
 10
85.117172
 20
140.582068
 10
85.145197
 20
140.32
 10
85.154633
 20
140.027928
  0
LWPOLYLINE
  5
6B
100
AcDbEntity
  8
ALPHA
100
AcDbPolyline
 90
       20
 70
     0
 43
0.0
 10
85.154633
 20
132.626334
 10
85.145238
 20
132.334871
 10
85.11709
 20
132.07165
 10
85.069893
 20
131.834587
 10
85.004476
 20
131.627088
 10
84.922452
 20
131.450988
 10
84.824933
 20
131.305885
 10
84.709835
 20
131.189652
 10
84.574184
 20
131.105243
 10
84.42609
 20
131.063169
 10
84.277329
 20
131.06712
 10
84.133375
 20
131.115558
 10
84.00244
 20
131.203888
 10
83.891394
 20
131.322243
 10
83.797993
 20
131.467024
 10
83.719454
 20
131.641126
 10
83.656697
 20
131.845249
 10
83.611098
 20
132.078884
 10
83.583737
 20
132.339207
 10
83.574633
 20
132.626334
  0
LWPOLYLINE
  5
81
100
AcDbEntity
  8
ALPHA
100
AcDbPolyline
 90
        4
 70
     0
 43
0.0
 10
88.754633
 20
131.476358
 10
88.656396
 20
131.365494
 10
88.556396
 20
131.253662
 10
88.454633
 20
131.140851
  0
LWPOLYLINE
  5
87
100
AcDbEntity
  8
ALPHA
100
AcDbPolyline
 90
        5
 70
     0
 43
0.0
 10
88.454633
 20
127.361209
 10
88.454633
 20
128.076457
 10
88.454633
 20
128.957074
 10
88.454633
 20
129.985409
 10
88.454633
 20
131.140851
  0
LINE
  5
8E
100
AcDbEntity
  8
ALPHA
100
AcDbLine
 10
71.854633
 20
148.127131
 30
0.0
 11
71.054633
 21
148.127131
 31
0.0
  0
LWPOLYLINE
  5
8F
100
AcDbEntity
  8
ALPHA
100
AcDbPolyline
 90
        8
 70
     0
 43
0.0
 10
83.040274
 20
146.427131
 10
83.040274
 20
145.681757
 10
83.040274
 20
144.751556
 10
83.040274
 20
143.654907
 10
83.040274
 20
142.413477
 10
83.040274
 20
141.051795
 10
83.040274
 20
139.596763
 10
83.040274
 20
138.077131
  0
LINE
  5
99
100
AcDbEntity
  8
ALPHA
100
AcDbLine
 10
71.854633
 20
148.127131
 30
0.0
 11
71.854633
 21
147.227131
 31
0.0
  0
LINE
  5
9A
100
AcDbEntity
  8
ALPHA
100
AcDbLine
 10
71.854633
 20
147.227131
 30
0.0
 11
71.691486
 21
147.063984
 31
0.0
  0
LINE
  5
9B
100
AcDbEntity
  8
ALPHA
100
AcDbLine
 10
69.854633
 20
123.527131
 30
0.0
 11
69.604633
 21
123.527131
 31
0.0
  0
LINE
  5
9C
100
AcDbEntity
  8
ALPHA
100
AcDbLine
 10
69.854633
 20
149.127131
 30
0.0
 11
69.604633
 21
149.127131
 31
0.0
  0
LINE
  5
9D
100
AcDbEntity
  8
ALPHA
100
AcDbLine
 10
83.254633
 20
126.227131
 30
0.0
 11
83.040274
 21
126.227131
 31
0.0
  0
LINE
  5
9E
100
AcDbEntity
  8
ALPHA
100
AcDbLine
 10
74.454633
 20
126.227131
 30
0.0
 11
83.040274
 21
126.227131
 31
0.0
  0
LINE
  5
9F
100
AcDbEntity
  8
ALPHA
100
AcDbLine
 10
83.040274
 20
146.427131
 30
0.0
 11
83.254633
 21
146.427131
 31
0.0
  0
LINE
  5
A0
100
AcDbEntity
  8
ALPHA
100
AcDbLine
 10
83.040274
 20
146.427131
 30
0.0
 11
74.454633
 21
146.427131
 31
0.0
  0
LINE
  5
A1
100
AcDbEntity
  8
ALPHA
100
AcDbLine
 10
83.040274
 20
138.077131
 30
0.0
 11
83.254633
 21
138.077131
 31
0.0
  0
LINE
  5
A2
100
AcDbEntity
  8
ALPHA
100
AcDbLine
 10
73.454633
 20
138.077131
 30
0.0
 11
73.854633
 21
138.077131
 31
0.0
  0
LINE
  5
A3
100
AcDbEntity
  8
ALPHA
100
AcDbLine
 10
83.254633
 20
134.577131
 30
0.0
 11
83.040274
 21
134.577131
 31
0.0
  0
LINE
  5
A4
100
AcDbEntity
  8
ALPHA
100
AcDbLine
 10
73.454633
 20
134.577131
 30
0.0
 11
73.854633
 21
134.577131
 31
0.0
  0
LINE
  5
A5
100
AcDbEntity
  8
ALPHA
100
AcDbLine
 10
88.754633
 20
127.787225
 30
0.0
 11
88.754633
 21
131.476358
 31
0.0
  0
LINE
  5
A6
100
AcDbEntity
  8
ALPHA
100
AcDbLine
 10
89.262304
 20
142.127131
 30
0.0
 11
88.754633
 21
142.127131
 31
0.0
  0
LINE
  5
A7
100
AcDbEntity
  8
ALPHA
100
AcDbLine
 10
89.954633
 20
142.127131
 30
0.0
 11
89.262304
 21
142.127131
 31
0.0
  0
LINE
  5
A8
100
AcDbEntity
  8
ALPHA
100
AcDbLine
 10
89.954633
 20
140.527131
 30
0.0
 11
88.754633
 21
140.527131
 31
0.0
  0
LINE
  5
A9
100
AcDbEntity
  8
ALPHA
100
AcDbLine
 10
89.954633
 20
140.527131
 30
0.0
 11
89.954633
 21
142.127131
 31
0.0
  0
LINE
  5
AA
100
AcDbEntity
  8
ALPHA
100
AcDbLine
 10
83.254633
 20
126.671045
 30
0.0
 11
83.254633
 21
134.577131
 31
0.0
  0
LINE
  5
AB
100
AcDbEntity
  8
ALPHA
100
AcDbLine
 10
83.254633
 20
126.643537
 30
0.0
 11
83.254633
 21
126.671045
 31
0.0
  0
LINE
  5
AC
100
AcDbEntity
  8
ALPHA
100
AcDbLine
 10
83.254633
 20
126.227131
 30
0.0
 11
83.254633
 21
126.643537
 31
0.0
  0
LWPOLYLINE
  5
AD
100
AcDbEntity
  8
ALPHA
100
AcDbPolyline
 90
        4
 70
     0
 43
0.0
 10
85.254633
 20
126.671045
 10
86.355751
 20
126.862872
 10
87.424404
 20
127.093746
 10
88.454633
 20
127.361209
  0
LWPOLYLINE
  5
B3
100
AcDbEntity
  8
ALPHA
100
AcDbPolyline
 90
        4
 70
     0
 43
0.0
 10
88.454633
 20
127.361209
 10
88.556642
 20
127.504529
 10
88.656634
 20
127.64653
 10
88.754633
 20
127.787225
  0
LINE
  5
B9
100
AcDbEntity
  8
ALPHA
100
AcDbLine
 10
83.254633
 20
126.671045
 30
0.0
 11
85.254633
 21
126.671045
 31
0.0
  0
LINE
  5
BA
100
AcDbEntity
  8
ALPHA
100
AcDbLine
 10
83.254633
 20
146.427131
 30
0.0
 11
83.254633
 21
138.077131
 31
0.0
  0
LINE
  5
BB
100
AcDbEntity
  8
ALPHA
100
AcDbLine
 10
88.454633
 20
146.172815
 30
0.0
 11
88.454633
 21
146.327004
 31
0.0
  0
LINE
  5
BC
100
AcDbEntity
  8
ALPHA
100
AcDbLine
 10
88.454633
 20
145.447986
 30
0.0
 11
88.454633
 21
146.172815
 31
0.0
  0
LINE
  5
BD
100
AcDbEntity
  8
ALPHA
100
AcDbLine
 10
86.254633
 20
145.447986
 30
0.0
 11
86.254633
 21
146.172815
 31
0.0
  0
LINE
  5
BE
100
AcDbEntity
  8
ALPHA
100
AcDbLine
 10
86.254633
 20
145.447986
 30
0.0
 11
88.754633
 21
145.447986
 31
0.0
  0
LINE
  5
BF
100
AcDbEntity
  8
ALPHA
100
AcDbLine
 10
74.454633
 20
126.227131
 30
0.0
 11
74.454633
 21
125.827131
 31
0.0
  0
LINE
  5
C0
100
AcDbEntity
  8
ALPHA
100
AcDbLine
 10
85.154633
 20
132.626334
 30
0.0
 11
85.154633
 21
140.027928
 31
0.0
  0
LINE
  5
C1
100
AcDbEntity
  8
ALPHA
100
AcDbLine
 10
83.574633
 20
140.027928
 30
0.0
 11
83.574633
 21
132.626334
 31
0.0
  0
LINE
  5
C2
100
AcDbEntity
  8
ALPHA
100
AcDbLine
 10
69.854633
 20
135.197131
 30
0.0
 11
69.604648
 21
135.219005
 31
0.0
  0
LINE
  5
C3
100
AcDbEntity
  8
ALPHA
100
AcDbLine
 10
69.604648
 20
137.435257
 30
0.0
 11
69.854633
 21
137.457131
 31
0.0
  0
ARC
  5
C4
100
AcDbEntity
  8
ALPHA
100
AcDbCircle
 10
71.654633
 20
148.127131
 30
0.0
 40
0.2
100
AcDbArc
 50
0.0
 51
90.0
  0
LINE
  5
C5
100
AcDbEntity
  8
ALPHA
100
AcDbLine
 10
71.654633
 20
148.327131
 30
0.0
 11
71.054633
 21
148.327131
 31
0.0
  0
LINE
  5
C6
100
AcDbEntity
  8
ALPHA
100
AcDbLine
 10
69.854633
 20
137.457131
 30
0.0
 11
69.854633
 21
135.197131
 31
0.0
  0
LINE
  5
C7
100
AcDbEntity
  8
ALPHA
100
AcDbLine
 10
74.454633
 20
139.327131
 30
0.0
 11
73.854633
 21
138.827131
 31
0.0
  0
LINE
  5
C8
100
AcDbEntity
  8
ALPHA
100
AcDbLine
 10
73.854633
 20
138.827131
 30
0.0
 11
73.854633
 21
138.077131
 31
0.0
  0
LINE
  5
C9
100
AcDbEntity
  8
ALPHA
100
AcDbLine
 10
83.040274
 20
138.077131
 30
0.0
 11
73.854633
 21
138.077131
 31
0.0
  0
LINE
  5
CA
100
AcDbEntity
  8
ALPHA
100
AcDbLine
 10
73.854633
 20
134.577131
 30
0.0
 11
83.040274
 21
134.577131
 31
0.0
  0
LINE
  5
CB
100
AcDbEntity
  8
ALPHA
100
AcDbLine
 10
73.854633
 20
134.577131
 30
0.0
 11
73.854633
 21
133.827131
 31
0.0
  0
LINE
  5
CC
100
AcDbEntity
  8
ALPHA
100
AcDbLine
 10
73.854633
 20
133.827131
 30
0.0
 11
74.454633
 21
133.327131
 31
0.0
  0
LINE
  5
CD
100
AcDbEntity
  8
ALPHA
100
AcDbLine
 10
88.754633
 20
142.127131
 30
0.0
 11
88.754633
 21
145.447986
 31
0.0
  0
LINE
  5
CE
100
AcDbEntity
  8
ALPHA
100
AcDbLine
 10
73.854633
 20
125.827131
 30
0.0
 11
74.454633
 21
125.827131
 31
0.0
  0
LINE
  5
CF
100
AcDbEntity
  8
ALPHA
100
AcDbLine
 10
88.754633
 20
140.527131
 30
0.0
 11
88.754633
 21
131.476358
 31
0.0
  0
LINE
  5
D0
100
AcDbEntity
  8
ALPHA
100
AcDbLine
 10
73.854633
 20
146.827131
 30
0.0
 11
74.454633
 21
146.827131
 31
0.0
  0
LINE
  5
D1
100
AcDbEntity
  8
ALPHA
100
AcDbLine
 10
74.454633
 20
146.427131
 30
0.0
 11
74.454633
 21
139.327131
 31
0.0
  0
LINE
  5
D2
100
AcDbEntity
  8
ALPHA
100
AcDbLine
 10
74.454633
 20
146.827131
 30
0.0
 11
74.454633
 21
146.427131
 31
0.0
  0
LINE
  5
D3
100
AcDbEntity
  8
ALPHA
100
AcDbLine
 10
74.454633
 20
126.227131
 30
0.0
 11
74.454633
 21
133.327131
 31
0.0
  0
LINE
  5
D4
100
AcDbEntity
  8
ALPHA
100
AcDbLine
 10
88.454633
 20
146.327131
 30
0.0
 11
83.254633
 21
146.327131
 31
0.0
  0
LINE
  5
D5
100
AcDbEntity
  8
ALPHA
100
AcDbLine
 10
69.854633
 20
131.936129
 30
0.0
 11
69.854633
 21
135.197131
 31
0.0
  0
LINE
  5
D6
100
AcDbEntity
  8
ALPHA
100
AcDbLine
 10
69.854633
 20
131.489777
 30
0.0
 11
69.854633
 21
131.936129
 31
0.0
  0
LINE
  5
D7
100
AcDbEntity
  8
ALPHA
100
AcDbLine
 10
69.854633
 20
131.292839
 30
0.0
 11
69.854633
 21
131.489777
 31
0.0
  0
LINE
  5
D8
100
AcDbEntity
  8
ALPHA
100
AcDbLine
 10
69.854633
 20
131.228112
 30
0.0
 11
69.854633
 21
131.292839
 31
0.0
  0
LINE
  5
D9
100
AcDbEntity
  8
ALPHA
100
AcDbLine
 10
69.854633
 20
130.267812
 30
0.0
 11
69.854633
 21
131.228112
 31
0.0
  0
LINE
  5
DA
100
AcDbEntity
  8
ALPHA
100
AcDbLine
 10
69.854633
 20
126.827131
 30
0.0
 11
69.854633
 21
130.267812
 31
0.0
  0
LINE
  5
DB
100
AcDbEntity
  8
ALPHA
100
AcDbLine
 10
69.854633
 20
126.262748
 30
0.0
 11
69.854633
 21
126.827131
 31
0.0
  0
LINE
  5
DC
100
AcDbEntity
  8
ALPHA
100
AcDbLine
 10
69.854633
 20
126.227131
 30
0.0
 11
69.854633
 21
126.262748
 31
0.0
  0
LINE
  5
DD
100
AcDbEntity
  8
ALPHA
100
AcDbLine
 10
69.854633
 20
123.607668
 30
0.0
 11
69.854633
 21
126.227131
 31
0.0
  0
LINE
  5
DE
100
AcDbEntity
  8
ALPHA
100
AcDbLine
 10
69.854633
 20
123.527131
 30
0.0
 11
69.854633
 21
123.607668
 31
0.0
  0
LINE
  5
DF
100
AcDbEntity
  8
ALPHA
100
AcDbLine
 10
69.854633
 20
149.046594
 30
0.0
 11
69.854633
 21
149.127131
 31
0.0
  0
LINE
  5
E0
100
AcDbEntity
  8
ALPHA
100
AcDbLine
 10
69.854633
 20
146.927131
 30
0.0
 11
69.854633
 21
149.046594
 31
0.0
  0
LINE
  5
E1
100
AcDbEntity
  8
ALPHA
100
AcDbLine
 10
69.854633
 20
146.887119
 30
0.0
 11
69.854633
 21
146.927131
 31
0.0
  0
LINE
  5
E2
100
AcDbEntity
  8
ALPHA
100
AcDbLine
 10
69.854633
 20
146.427131
 30
0.0
 11
69.854633
 21
146.887119
 31
0.0
  0
LINE
  5
E3
100
AcDbEntity
  8
ALPHA
100
AcDbLine
 10
69.854633
 20
145.17473
 30
0.0
 11
69.854633
 21
146.427131
 31
0.0
  0
LINE
  5
E4
100
AcDbEntity
  8
ALPHA
100
AcDbLine
 10
69.854633
 20
144.938803
 30
0.0
 11
69.854633
 21
145.17473
 31
0.0
  0
LINE
  5
E5
100
AcDbEntity
  8
ALPHA
100
AcDbLine
 10
69.854633
 20
142.38645
 30
0.0
 11
69.854633
 21
144.938803
 31
0.0
  0
LINE
  5
E6
100
AcDbEntity
  8
ALPHA
100
AcDbLine
 10
69.854633
 20
141.426151
 30
0.0
 11
69.854633
 21
142.38645
 31
0.0
  0
LINE
  5
E7
100
AcDbEntity
  8
ALPHA
100
AcDbLine
 10
69.854633
 20
141.361423
 30
0.0
 11
69.854633
 21
141.426151
 31
0.0
  0
LINE
  5
E8
100
AcDbEntity
  8
ALPHA
100
AcDbLine
 10
69.854633
 20
137.457131
 30
0.0
 11
69.854633
 21
141.361423
 31
0.0
  0
LINE
  5
E9
100
AcDbEntity
  8
ALPHA
100
AcDbLine
 10
69.604633
 20
139.805703
 30
0.0
 11
66.104633
 21
139.805703
 31
0.0
  0
LWPOLYLINE
  5
EA
100
AcDbEntity
  8
ALPHA
100
AcDbPolyline
 90
       16
 70
     0
 43
0.0
 10
62.024449
 20
122.725557
 10
62.024449
 20
122.850952
 10
62.024449
 20
123.223978
 10
62.024449
 20
123.839618
 10
62.024449
 20
124.691401
 10
62.024449
 20
125.751134
 10
62.024449
 20
126.966118
 10
62.024449
 20
128.262875
 10
62.024449
 20
129.555356
 10
62.024449
 20
130.782615
 10
62.024449
 20
131.923561
 10
62.024449
 20
132.970787
 10
62.024449
 20
133.925568
 10
62.024449
 20
134.795197
 10
62.024449
 20
135.590962
 10
62.024449
 20
136.327131
  0
LINE
  5
FC
100
AcDbEntity
  8
ALPHA
100
AcDbLine
 10
69.604633
 20
133.94991
 30
0.0
 11
66.104633
 21
133.94991
 31
0.0
  0
LINE
  5
FD
100
AcDbEntity
  8
ALPHA
100
AcDbLine
 10
69.604633
 20
135.431591
 30
0.0
 11
66.104633
 21
135.431591
 31
0.0
  0
LINE
  5
FE
100
AcDbEntity
  8
ALPHA
100
AcDbLine
 10
69.604633
 20
136.923083
 30
0.0
 11
66.104633
 21
136.923083
 31
0.0
  0
LINE
  5
FF
100
AcDbEntity
  8
ALPHA
100
AcDbLine
 10
69.604633
 20
138.408046
 30
0.0
 11
66.104633
 21
138.408046
 31
0.0
  0
LINE
  5
100
100
AcDbEntity
  8
ALPHA
100
AcDbLine
 10
69.604633
 20
139.870209
 30
0.0
 11
66.104633
 21
139.870209
 31
0.0
  0
LINE
  5
101
100
AcDbEntity
  8
ALPHA
100
AcDbLine
 10
69.604633
 20
141.293554
 30
0.0
 11
66.104633
 21
141.293554
 31
0.0
  0
LINE
  5
102
100
AcDbEntity
  8
ALPHA
100
AcDbLine
 10
69.604633
 20
142.662486
 30
0.0
 11
66.104633
 21
142.662486
 31
0.0
  0
LINE
  5
103
100
AcDbEntity
  8
ALPHA
100
AcDbLine
 10
69.604633
 20
143.962007
 30
0.0
 11
66.104633
 21
143.962007
 31
0.0
  0
LINE
  5
104
100
AcDbEntity
  8
ALPHA
100
AcDbLine
 10
69.604633
 20
145.177878
 30
0.0
 11
66.104633
 21
145.177878
 31
0.0
  0
LINE
  5
105
100
AcDbEntity
  8
ALPHA
100
AcDbLine
 10
69.604633
 20
146.296779
 30
0.0
 11
66.104633
 21
146.296779
 31
0.0
  0
LINE
  5
106
100
AcDbEntity
  8
ALPHA
100
AcDbLine
 10
69.604633
 20
147.306449
 30
0.0
 11
66.104633
 21
147.306449
 31
0.0
  0
LINE
  5
107
100
AcDbEntity
  8
ALPHA
100
AcDbLine
 10
69.604633
 20
148.195829
 30
0.0
 11
66.104633
 21
148.195829
 31
0.0
  0
LINE
  5
108
100
AcDbEntity
  8
ALPHA
100
AcDbLine
 10
66.804633
 20
148.955172
 30
0.0
 11
66.104633
 21
148.955172
 31
0.0
  0
LINE
  5
109
100
AcDbEntity
  8
ALPHA
100
AcDbLine
 10
66.854633
 20
148.955172
 30
0.0
 11
66.804633
 21
148.955172
 31
0.0
  0
LINE
  5
10A
100
AcDbEntity
  8
ALPHA
100
AcDbLine
 10
69.604633
 20
148.955172
 30
0.0
 11
66.854633
 21
148.955172
 31
0.0
  0
LINE
  5
10B
100
AcDbEntity
  8
ALPHA
100
AcDbLine
 10
69.604633
 20
149.57616
 30
0.0
 11
66.104633
 21
149.57616
 31
0.0
  0
LINE
  5
10C
100
AcDbEntity
  8
ALPHA
100
AcDbLine
 10
69.604633
 20
150.051989
 30
0.0
 11
66.104633
 21
150.051989
 31
0.0
  0
LINE
  5
10D
100
AcDbEntity
  8
ALPHA
100
AcDbLine
 10
69.604633
 20
150.377445
 30
0.0
 11
66.104633
 21
150.377445
 31
0.0
  0
LINE
  5
10E
100
AcDbEntity
  8
ALPHA
100
AcDbLine
 10
69.604633
 20
150.548963
 30
0.0
 11
66.104633
 21
150.548963
 31
0.0
  0
LINE
  5
10F
100
AcDbEntity
  8
ALPHA
100
AcDbLine
 10
69.604633
 20
138.704352
 30
0.0
 11
66.104633
 21
138.704352
 31
0.0
  0
LINE
  5
110
100
AcDbEntity
  8
ALPHA
100
AcDbLine
 10
69.604633
 20
138.358353
 30
0.0
 11
66.104633
 21
138.358353
 31
0.0
  0
LINE
  5
111
100
AcDbEntity
  8
ALPHA
100
AcDbLine
 10
69.604633
 20
137.241273
 30
0.0
 11
66.104633
 21
137.241273
 31
0.0
  0
LINE
  5
112
100
AcDbEntity
  8
ALPHA
100
AcDbLine
 10
69.604633
 20
137.222672
 30
0.0
 11
66.104633
 21
137.222672
 31
0.0
  0
LINE
  5
113
100
AcDbEntity
  8
ALPHA
100
AcDbLine
 10
69.604633
 20
136.888748
 30
0.0
 11
66.104633
 21
136.888748
 31
0.0
  0
LINE
  5
114
100
AcDbEntity
  8
ALPHA
100
AcDbLine
 10
69.604633
 20
135.765515
 30
0.0
 11
66.104633
 21
135.765515
 31
0.0
  0
LINE
  5
115
100
AcDbEntity
  8
ALPHA
100
AcDbLine
 10
69.604633
 20
135.73118
 30
0.0
 11
66.104633
 21
135.73118
 31
0.0
  0
LINE
  5
116
100
AcDbEntity
  8
ALPHA
100
AcDbLine
 10
69.604633
 20
135.412989
 30
0.0
 11
66.104633
 21
135.412989
 31
0.0
  0
LINE
  5
117
100
AcDbEntity
  8
ALPHA
100
AcDbLine
 10
69.604633
 20
134.29591
 30
0.0
 11
66.104633
 21
134.29591
 31
0.0
  0
LINE
  5
118
100
AcDbEntity
  8
ALPHA
100
AcDbLine
 10
69.604633
 20
150.224834
 30
0.0
 11
66.104633
 21
150.224834
 31
0.0
  0
LINE
  5
119
100
AcDbEntity
  8
ALPHA
100
AcDbLine
 10
69.604633
 20
134.246217
 30
0.0
 11
66.104633
 21
134.246217
 31
0.0
  0
LINE
  5
11A
100
AcDbEntity
  8
ALPHA
100
AcDbLine
 10
69.604633
 20
132.848559
 30
0.0
 11
66.104633
 21
132.848559
 31
0.0
  0
LINE
  5
11B
100
AcDbEntity
  8
ALPHA
100
AcDbLine
 10
69.604633
 20
132.784053
 30
0.0
 11
66.104633
 21
132.784053
 31
0.0
  0
LINE
  5
11C
100
AcDbEntity
  8
ALPHA
100
AcDbLine
 10
69.604633
 20
131.43932
 30
0.0
 11
66.104633
 21
131.43932
 31
0.0
  0
LINE
  5
11D
100
AcDbEntity
  8
ALPHA
100
AcDbLine
 10
69.604633
 20
149.899935
 30
0.0
 11
66.104633
 21
149.899935
 31
0.0
  0
LINE
  5
11E
100
AcDbEntity
  8
ALPHA
100
AcDbLine
 10
69.604633
 20
131.360708
 30
0.0
 11
66.104633
 21
131.360708
 31
0.0
  0
LINE
  5
11F
100
AcDbEntity
  8
ALPHA
100
AcDbLine
 10
69.604633
 20
130.083633
 30
0.0
 11
66.104633
 21
130.083633
 31
0.0
  0
LINE
  5
120
100
AcDbEntity
  8
ALPHA
100
AcDbLine
 10
69.604633
 20
129.991776
 30
0.0
 11
66.104633
 21
129.991776
 31
0.0
  0
LINE
  5
121
100
AcDbEntity
  8
ALPHA
100
AcDbLine
 10
69.604633
 20
128.796352
 30
0.0
 11
66.104633
 21
128.796352
 31
0.0
  0
LINE
  5
122
100
AcDbEntity
  8
ALPHA
100
AcDbLine
 10
69.604633
 20
128.692255
 30
0.0
 11
66.104633
 21
128.692255
 31
0.0
  0
LINE
  5
123
100
AcDbEntity
  8
ALPHA
100
AcDbLine
 10
69.604633
 20
149.42633
 30
0.0
 11
66.104633
 21
149.42633
 31
0.0
  0
LINE
  5
124
100
AcDbEntity
  8
ALPHA
100
AcDbLine
 10
69.604633
 20
126.482514
 30
0.0
 11
66.104633
 21
126.482514
 31
0.0
  0
LINE
  5
125
100
AcDbEntity
  8
ALPHA
100
AcDbLine
 10
69.604633
 20
126.357484
 30
0.0
 11
66.104633
 21
126.357484
 31
0.0
  0
LINE
  5
126
100
AcDbEntity
  8
ALPHA
100
AcDbLine
 10
69.604633
 20
125.48131
 30
0.0
 11
66.104633
 21
125.48131
 31
0.0
  0
LINE
  5
127
100
AcDbEntity
  8
ALPHA
100
AcDbLine
 10
69.604633
 20
125.347813
 30
0.0
 11
66.104633
 21
125.347813
 31
0.0
  0
LINE
  5
128
100
AcDbEntity
  8
ALPHA
100
AcDbLine
 10
69.604633
 20
124.598934
 30
0.0
 11
66.104633
 21
124.598934
 31
0.0
  0
LINE
  5
129
100
AcDbEntity
  8
ALPHA
100
AcDbLine
 10
69.604633
 20
124.458434
 30
0.0
 11
66.104633
 21
124.458434
 31
0.0
  0
LINE
  5
12A
100
AcDbEntity
  8
ALPHA
100
AcDbLine
 10
69.604633
 20
123.845055
 30
0.0
 11
66.104633
 21
123.845055
 31
0.0
  0
LINE
  5
12B
100
AcDbEntity
  8
ALPHA
100
AcDbLine
 10
66.804633
 20
123.69909
 30
0.0
 11
66.104633
 21
123.69909
 31
0.0
  0
LINE
  5
12C
100
AcDbEntity
  8
ALPHA
100
AcDbLine
 10
66.854633
 20
123.69909
 30
0.0
 11
66.804633
 21
123.69909
 31
0.0
  0
LINE
  5
12D
100
AcDbEntity
  8
ALPHA
100
AcDbLine
 10
69.604633
 20
123.69909
 30
0.0
 11
66.854633
 21
123.69909
 31
0.0
  0
LWPOLYLINE
  5
12E
100
AcDbEntity
  8
ALPHA
100
AcDbPolyline
 90
       16
 70
     0
 43
0.0
 10
62.024449
 20
136.327131
 10
62.024449
 20
137.063301
 10
62.024449
 20
137.859065
 10
62.024449
 20
138.728694
 10
62.024449
 20
139.683476
 10
62.024449
 20
140.730702
 10
62.024449
 20
141.871648
 10
62.024449
 20
143.098907
 10
62.024449
 20
144.391387
 10
62.024449
 20
145.688144
 10
62.024449
 20
146.903129
 10
62.024449
 20
147.962862
 10
62.024449
 20
148.814644
 10
62.024449
 20
149.430284
 10
62.024449
 20
149.80331
 10
62.024449
 20
149.928705
  0
LINE
  5
140
100
AcDbEntity
  8
ALPHA
100
AcDbLine
 10
69.604633
 20
123.227932
 30
0.0
 11
66.104633
 21
123.227932
 31
0.0
  0
LINE
  5
141
100
AcDbEntity
  8
ALPHA
100
AcDbLine
 10
69.604633
 20
123.078102
 30
0.0
 11
66.104633
 21
123.078102
 31
0.0
  0
LINE
  5
142
100
AcDbEntity
  8
ALPHA
100
AcDbLine
 10
69.604633
 20
148.809207
 30
0.0
 11
66.104633
 21
148.809207
 31
0.0
  0
LINE
  5
143
100
AcDbEntity
  8
ALPHA
100
AcDbLine
 10
69.604633
 20
122.754327
 30
0.0
 11
66.104633
 21
122.754327
 31
0.0
  0
LINE
  5
144
100
AcDbEntity
  8
ALPHA
100
AcDbLine
 10
69.604633
 20
122.602274
 30
0.0
 11
66.104633
 21
122.602274
 31
0.0
  0
LWPOLYLINE
  5
145
100
AcDbEntity
  8
ALPHA
100
AcDbPolyline
 90
       16
 70
     0
 43
0.0
 10
62.960609
 20
136.327131
 10
62.960609
 20
137.098396
 10
62.960609
 20
137.932097
 10
62.960609
 20
138.843184
 10
62.960609
 20
139.843482
 10
62.960609
 20
140.940633
 10
62.960609
 20
142.135971
 10
62.960609
 20
143.421737
 10
62.960609
 20
144.775834
 10
62.960609
 20
146.134411
 10
62.960609
 20
147.407317
 10
62.960609
 20
148.51757
 10
62.960609
 20
149.40996
 10
62.960609
 20
150.054949
 10
62.960609
 20
150.445758
 10
62.960609
 20
150.577131
  0
LINE
  5
157
100
AcDbEntity
  8
ALPHA
100
AcDbLine
 10
69.604633
 20
122.429428
 30
0.0
 11
66.104633
 21
122.429428
 31
0.0
  0
LINE
  5
158
100
AcDbEntity
  8
ALPHA
100
AcDbLine
 10
69.604633
 20
122.276817
 30
0.0
 11
66.104633
 21
122.276817
 31
0.0
  0
LWPOLYLINE
  5
159
100
AcDbEntity
  8
ALPHA
100
AcDbPolyline
 90
       16
 70
     0
 43
0.0
 10
62.960609
 20
122.077131
 10
62.960609
 20
122.208504
 10
62.960609
 20
122.599313
 10
62.960609
 20
123.244303
 10
62.960609
 20
124.136692
 10
62.960609
 20
125.246945
 10
62.960609
 20
126.519852
 10
62.960609
 20
127.878429
 10
62.960609
 20
129.232526
 10
62.960609
 20
130.518292
 10
62.960609
 20
131.71363
 10
62.960609
 20
132.81078
 10
62.960609
 20
133.811079
 10
62.960609
 20
134.722166
 10
62.960609
 20
135.555866
 10
62.960609
 20
136.327131
  0
LINE
  5
16B
100
AcDbEntity
  8
ALPHA
100
AcDbLine
 10
69.604633
 20
122.105299
 30
0.0
 11
66.104633
 21
122.105299
 31
0.0
  0
LINE
  5
16C
100
AcDbEntity
  8
ALPHA
100
AcDbLine
 10
69.604633
 20
148.055328
 30
0.0
 11
66.104633
 21
148.055328
 31
0.0
  0
LINE
  5
16D
100
AcDbEntity
  8
ALPHA
100
AcDbLine
 10
69.604633
 20
147.172953
 30
0.0
 11
66.104633
 21
147.172953
 31
0.0
  0
LINE
  5
16E
100
AcDbEntity
  8
ALPHA
100
AcDbLine
 10
69.604633
 20
146.171748
 30
0.0
 11
66.104633
 21
146.171748
 31
0.0
  0
LINE
  5
16F
100
AcDbEntity
  8
ALPHA
100
AcDbLine
 10
69.604633
 20
145.062684
 30
0.0
 11
66.104633
 21
145.062684
 31
0.0
  0
LINE
  5
170
100
AcDbEntity
  8
ALPHA
100
AcDbLine
 10
69.604633
 20
143.857911
 30
0.0
 11
66.104633
 21
143.857911
 31
0.0
  0
LINE
  5
171
100
AcDbEntity
  8
ALPHA
100
AcDbLine
 10
69.604633
 20
142.570629
 30
0.0
 11
66.104633
 21
142.570629
 31
0.0
  0
LINE
  5
172
100
AcDbEntity
  8
ALPHA
100
AcDbLine
 10
69.604633
 20
141.214942
 30
0.0
 11
66.104633
 21
141.214942
 31
0.0
  0
LINE
  5
173
100
AcDbEntity
  8
ALPHA
100
AcDbLine
 10
66.104633
 20
150.548963
 30
0.0
 11
66.104633
 21
150.424375
 31
0.0
  0
LINE
  5
174
100
AcDbEntity
  8
ALPHA
100
AcDbLine
 10
66.104633
 20
150.265584
 30
0.0
 11
66.104633
 21
150.129634
 31
0.0
  0
LINE
  5
175
100
AcDbEntity
  8
ALPHA
100
AcDbLine
 10
66.104633
 20
150.377445
 30
0.0
 11
66.104633
 21
150.265584
 31
0.0
  0
LINE
  5
176
100
AcDbEntity
  8
ALPHA
100
AcDbLine
 10
66.104633
 20
149.879465
 30
0.0
 11
66.104633
 21
149.68367
 31
0.0
  0
LINE
  5
177
100
AcDbEntity
  8
ALPHA
100
AcDbLine
 10
66.104633
 20
149.899935
 30
0.0
 11
66.104633
 21
149.879465
 31
0.0
  0
LINE
  5
178
100
AcDbEntity
  8
ALPHA
100
AcDbLine
 10
66.104633
 20
150.051989
 30
0.0
 11
66.104633
 21
149.899935
 31
0.0
  0
LINE
  5
179
100
AcDbEntity
  8
ALPHA
100
AcDbLine
 10
66.104633
 20
149.42633
 30
0.0
 11
66.104633
 21
149.091369
 31
0.0
  0
LINE
  5
17A
100
AcDbEntity
  8
ALPHA
100
AcDbLine
 10
66.104633
 20
149.57616
 30
0.0
 11
66.104633
 21
149.42633
 31
0.0
  0
LINE
  5
17B
100
AcDbEntity
  8
ALPHA
100
AcDbLine
 10
66.104633
 20
148.809207
 30
0.0
 11
66.104633
 21
148.35922
 31
0.0
  0
LINE
  5
17C
100
AcDbEntity
  8
ALPHA
100
AcDbLine
 10
66.104633
 20
148.955172
 30
0.0
 11
66.104633
 21
148.809207
 31
0.0
  0
LINE
  5
17D
100
AcDbEntity
  8
ALPHA
100
AcDbLine
 10
66.104633
 20
148.055328
 30
0.0
 11
66.104633
 21
147.495246
 31
0.0
  0
LINE
  5
17E
100
AcDbEntity
  8
ALPHA
100
AcDbLine
 10
66.104633
 20
148.195829
 30
0.0
 11
66.104633
 21
148.055328
 31
0.0
  0
LINE
  5
17F
100
AcDbEntity
  8
ALPHA
100
AcDbLine
 10
66.104633
 20
147.172953
 30
0.0
 11
66.104633
 21
146.508911
 31
0.0
  0
LINE
  5
180
100
AcDbEntity
  8
ALPHA
100
AcDbLine
 10
66.104633
 20
147.306449
 30
0.0
 11
66.104633
 21
147.172953
 31
0.0
  0
LINE
  5
181
100
AcDbEntity
  8
ALPHA
100
AcDbLine
 10
66.104633
 20
146.296779
 30
0.0
 11
66.104633
 21
145.411022
 31
0.0
  0
LINE
  5
182
100
AcDbEntity
  8
ALPHA
100
AcDbLine
 10
66.104633
 20
145.177878
 30
0.0
 11
66.104633
 21
144.213608
 31
0.0
  0
LINE
  5
183
100
AcDbEntity
  8
ALPHA
100
AcDbLine
 10
66.104633
 20
143.962007
 30
0.0
 11
66.104633
 21
142.929788
 31
0.0
  0
LINE
  5
184
100
AcDbEntity
  8
ALPHA
100
AcDbLine
 10
66.104633
 20
142.662486
 30
0.0
 11
66.104633
 21
141.573629
 31
0.0
  0
LINE
  5
185
100
AcDbEntity
  8
ALPHA
100
AcDbLine
 10
66.104633
 20
141.293554
 30
0.0
 11
66.104633
 21
140.159987
 31
0.0
  0
LINE
  5
186
100
AcDbEntity
  8
ALPHA
100
AcDbLine
 10
66.104633
 20
139.870209
 30
0.0
 11
66.104633
 21
138.704352
 31
0.0
  0
LINE
  5
187
100
AcDbEntity
  8
ALPHA
100
AcDbLine
 10
66.104633
 20
137.241273
 30
0.0
 11
66.104633
 21
137.222672
 31
0.0
  0
LINE
  5
188
100
AcDbEntity
  8
ALPHA
100
AcDbLine
 10
66.104633
 20
138.408046
 30
0.0
 11
66.104633
 21
137.241273
 31
0.0
  0
LINE
  5
189
100
AcDbEntity
  8
ALPHA
100
AcDbLine
 10
66.104633
 20
136.327131
 30
0.0
 11
66.104633
 21
135.73118
 31
0.0
  0
LINE
  5
18A
100
AcDbEntity
  8
ALPHA
100
AcDbLine
 10
66.104633
 20
136.923083
 30
0.0
 11
66.104633
 21
136.327131
 31
0.0
  0
LINE
  5
18B
100
AcDbEntity
  8
ALPHA
100
AcDbLine
 10
66.104633
 20
135.412989
 30
0.0
 11
66.104633
 21
134.246217
 31
0.0
  0
LINE
  5
18C
100
AcDbEntity
  8
ALPHA
100
AcDbLine
 10
66.104633
 20
135.431591
 30
0.0
 11
66.104633
 21
135.412989
 31
0.0
  0
LINE
  5
18D
100
AcDbEntity
  8
ALPHA
100
AcDbLine
 10
66.104633
 20
133.94991
 30
0.0
 11
66.104633
 21
132.784053
 31
0.0
  0
LINE
  5
18E
100
AcDbEntity
  8
ALPHA
100
AcDbLine
 10
66.104633
 20
132.494275
 30
0.0
 11
66.104633
 21
131.360708
 31
0.0
  0
LINE
  5
18F
100
AcDbEntity
  8
ALPHA
100
AcDbLine
 10
66.104633
 20
131.080634
 30
0.0
 11
66.104633
 21
129.991776
 31
0.0
  0
LINE
  5
190
100
AcDbEntity
  8
ALPHA
100
AcDbLine
 10
66.104633
 20
129.724474
 30
0.0
 11
66.104633
 21
128.692255
 31
0.0
  0
LINE
  5
191
100
AcDbEntity
  8
ALPHA
100
AcDbLine
 10
66.104633
 20
128.440654
 30
0.0
 11
66.104633
 21
126.357484
 31
0.0
  0
LINE
  5
192
100
AcDbEntity
  8
ALPHA
100
AcDbLine
 10
69.604633
 20
126.145352
 30
0.0
 11
69.604633
 21
125.481356
 31
0.0
  0
LINE
  5
193
100
AcDbEntity
  8
ALPHA
100
AcDbLine
 10
69.604633
 20
125.159017
 30
0.0
 11
69.604633
 21
124.598969
 31
0.0
  0
LINE
  5
194
100
AcDbEntity
  8
ALPHA
100
AcDbLine
 10
69.604633
 20
124.295042
 30
0.0
 11
69.604633
 21
123.845085
 31
0.0
  0
LINE
  5
195
100
AcDbEntity
  8
ALPHA
100
AcDbLine
 10
69.604633
 20
123.562893
 30
0.0
 11
69.604633
 21
123.22796
 31
0.0
  0
LINE
  5
196
100
AcDbEntity
  8
ALPHA
100
AcDbLine
 10
69.604633
 20
122.970592
 30
0.0
 11
69.604633
 21
122.754379
 31
0.0
  0
LINE
  5
197
100
AcDbEntity
  8
ALPHA
100
AcDbLine
 10
69.604633
 20
122.524628
 30
0.0
 11
69.604633
 21
122.429453
 31
0.0
  0
LINE
  5
198
100
AcDbEntity
  8
ALPHA
100
AcDbLine
 10
69.604633
 20
150.224834
 30
0.0
 11
69.604633
 21
150.129634
 31
0.0
  0
LINE
  5
199
100
AcDbEntity
  8
ALPHA
100
AcDbLine
 10
69.604633
 20
149.899935
 30
0.0
 11
69.604633
 21
149.68367
 31
0.0
  0
LINE
  5
19A
100
AcDbEntity
  8
ALPHA
100
AcDbLine
 10
69.604633
 20
149.42633
 30
0.0
 11
69.604633
 21
149.091369
 31
0.0
  0
LINE
  5
19B
100
AcDbEntity
  8
ALPHA
100
AcDbLine
 10
69.604633
 20
148.809207
 30
0.0
 11
69.604633
 21
148.35922
 31
0.0
  0
LINE
  5
19C
100
AcDbEntity
  8
ALPHA
100
AcDbLine
 10
69.604633
 20
148.055328
 30
0.0
 11
69.604633
 21
147.495246
 31
0.0
  0
LINE
  5
19D
100
AcDbEntity
  8
ALPHA
100
AcDbLine
 10
69.604633
 20
147.172953
 30
0.0
 11
69.604633
 21
146.508911
 31
0.0
  0
LINE
  5
19E
100
AcDbEntity
  8
ALPHA
100
AcDbLine
 10
69.604633
 20
146.171748
 30
0.0
 11
69.604633
 21
145.411022
 31
0.0
  0
LINE
  5
19F
100
AcDbEntity
  8
ALPHA
100
AcDbLine
 10
69.604633
 20
145.062683
 30
0.0
 11
69.604633
 21
144.213608
 31
0.0
  0
LINE
  5
1A0
100
AcDbEntity
  8
ALPHA
100
AcDbLine
 10
69.604633
 20
143.85791
 30
0.0
 11
69.604633
 21
142.929788
 31
0.0
  0
LINE
  5
1A1
100
AcDbEntity
  8
ALPHA
100
AcDbLine
 10
69.604633
 20
142.570629
 30
0.0
 11
69.604633
 21
141.573629
 31
0.0
  0
LINE
  5
1A2
100
AcDbEntity
  8
ALPHA
100
AcDbLine
 10
69.604633
 20
141.214942
 30
0.0
 11
69.604633
 21
140.159987
 31
0.0
  0
LINE
  5
1A3
100
AcDbEntity
  8
ALPHA
100
AcDbLine
 10
69.604633
 20
139.805703
 30
0.0
 11
69.604633
 21
138.707016
 31
0.0
  0
LINE
  5
1A4
100
AcDbEntity
  8
ALPHA
100
AcDbLine
 10
69.604633
 20
138.358353
 30
0.0
 11
69.604633
 21
137.241274
 31
0.0
  0
LINE
  5
1A5
100
AcDbEntity
  8
ALPHA
100
AcDbLine
 10
69.604633
 20
136.888747
 30
0.0
 11
69.604633
 21
135.765517
 31
0.0
  0
LINE
  5
1A6
100
AcDbEntity
  8
ALPHA
100
AcDbLine
 10
69.604633
 20
135.412989
 30
0.0
 11
69.604633
 21
134.295912
 31
0.0
  0
LINE
  5
1A7
100
AcDbEntity
  8
ALPHA
100
AcDbLine
 10
69.604633
 20
133.947246
 30
0.0
 11
69.604633
 21
132.848562
 31
0.0
  0
LINE
  5
1A8
100
AcDbEntity
  8
ALPHA
100
AcDbLine
 10
69.604633
 20
132.494275
 30
0.0
 11
69.604633
 21
131.439323
 31
0.0
  0
LINE
  5
1A9
100
AcDbEntity
  8
ALPHA
100
AcDbLine
 10
69.604633
 20
131.080634
 30
0.0
 11
69.604633
 21
130.083637
 31
0.0
  0
LINE
  5
1AA
100
AcDbEntity
  8
ALPHA
100
AcDbLine
 10
69.604633
 20
129.724474
 30
0.0
 11
69.604633
 21
128.796355
 31
0.0
  0
LINE
  5
1AB
100
AcDbEntity
  8
ALPHA
100
AcDbLine
 10
69.604633
 20
128.440654
 30
0.0
 11
69.604633
 21
126.482554
 31
0.0
  0
LINE
  5
1AC
100
AcDbEntity
  8
ALPHA
100
AcDbLine
 10
66.104633
 20
122.089598
 30
0.0
 11
66.104633
 21
122.077131
 31
0.0
  0
LINE
  5
1AD
100
AcDbEntity
  8
ALPHA
100
AcDbLine
 10
66.104633
 20
122.229887
 30
0.0
 11
66.104633
 21
122.105299
 31
0.0
  0
LINE
  5
1AE
100
AcDbEntity
  8
ALPHA
100
AcDbLine
 10
66.104633
 20
122.388372
 30
0.0
 11
66.104633
 21
122.276817
 31
0.0
  0
LINE
  5
1AF
100
AcDbEntity
  8
ALPHA
100
AcDbLine
 10
66.104633
 20
122.524628
 30
0.0
 11
66.104633
 21
122.388372
 31
0.0
  0
LINE
  5
1B0
100
AcDbEntity
  8
ALPHA
100
AcDbLine
 10
66.104633
 20
122.754327
 30
0.0
 11
66.104633
 21
122.602274
 31
0.0
  0
LINE
  5
1B1
100
AcDbEntity
  8
ALPHA
100
AcDbLine
 10
66.104633
 20
122.774324
 30
0.0
 11
66.104633
 21
122.754327
 31
0.0
  0
LINE
  5
1B2
100
AcDbEntity
  8
ALPHA
100
AcDbLine
 10
66.104633
 20
122.970592
 30
0.0
 11
66.104633
 21
122.774324
 31
0.0
  0
LINE
  5
1B3
100
AcDbEntity
  8
ALPHA
100
AcDbLine
 10
66.104633
 20
123.227932
 30
0.0
 11
66.104633
 21
123.078102
 31
0.0
  0
LINE
  5
1B4
100
AcDbEntity
  8
ALPHA
100
AcDbLine
 10
66.104633
 20
123.562893
 30
0.0
 11
66.104633
 21
123.227932
 31
0.0
  0
LINE
  5
1B5
100
AcDbEntity
  8
ALPHA
100
AcDbLine
 10
66.104633
 20
123.845055
 30
0.0
 11
66.104633
 21
123.69909
 31
0.0
  0
LINE
  5
1B6
100
AcDbEntity
  8
ALPHA
100
AcDbLine
 10
66.104633
 20
124.295042
 30
0.0
 11
66.104633
 21
123.845055
 31
0.0
  0
LINE
  5
1B7
100
AcDbEntity
  8
ALPHA
100
AcDbLine
 10
66.104633
 20
124.598934
 30
0.0
 11
66.104633
 21
124.458434
 31
0.0
  0
LINE
  5
1B8
100
AcDbEntity
  8
ALPHA
100
AcDbLine
 10
66.104633
 20
125.159017
 30
0.0
 11
66.104633
 21
124.598934
 31
0.0
  0
LINE
  5
1B9
100
AcDbEntity
  8
ALPHA
100
AcDbLine
 10
66.104633
 20
125.48131
 30
0.0
 11
66.104633
 21
125.347813
 31
0.0
  0
LINE
  5
1BA
100
AcDbEntity
  8
ALPHA
100
AcDbLine
 10
66.104633
 20
126.145352
 30
0.0
 11
66.104633
 21
125.48131
 31
0.0
  0
LINE
  5
1BB
100
AcDbEntity
  8
ALPHA
100
AcDbLine
 10
69.604633
 20
150.564664
 30
0.0
 11
66.104633
 21
150.564664
 31
0.0
  0
LINE
  5
1BC
100
AcDbEntity
  8
ALPHA
100
AcDbLine
 10
69.604633
 20
122.089598
 30
0.0
 11
66.104633
 21
122.089598
 31
0.0
  0
LINE
  5
1BD
100
AcDbEntity
  8
ALPHA
100
AcDbLine
 10
69.604633
 20
122.229887
 30
0.0
 11
66.104633
 21
122.229887
 31
0.0
  0
LINE
  5
1BE
100
AcDbEntity
  8
ALPHA
100
AcDbLine
 10
69.604633
 20
122.524628
 30
0.0
 11
66.104633
 21
122.524628
 31
0.0
  0
LINE
  5
1BF
100
AcDbEntity
  8
ALPHA
100
AcDbLine
 10
69.604633
 20
122.970592
 30
0.0
 11
66.104633
 21
122.970592
 31
0.0
  0
LINE
  5
1C0
100
AcDbEntity
  8
ALPHA
100
AcDbLine
 10
66.854633
 20
123.562893
 30
0.0
 11
66.104633
 21
123.562893
 31
0.0
  0
LINE
  5
1C1
100
AcDbEntity
  8
ALPHA
100
AcDbLine
 10
69.604633
 20
123.562893
 30
0.0
 11
66.854633
 21
123.562893
 31
0.0
  0
LINE
  5
1C2
100
AcDbEntity
  8
ALPHA
100
AcDbLine
 10
69.604633
 20
124.295042
 30
0.0
 11
66.104633
 21
124.295042
 31
0.0
  0
LINE
  5
1C3
100
AcDbEntity
  8
ALPHA
100
AcDbLine
 10
69.604633
 20
125.159017
 30
0.0
 11
66.104633
 21
125.159017
 31
0.0
  0
LINE
  5
1C4
100
AcDbEntity
  8
ALPHA
100
AcDbLine
 10
69.604633
 20
126.145352
 30
0.0
 11
66.104633
 21
126.145352
 31
0.0
  0
LINE
  5
1C5
100
AcDbEntity
  8
ALPHA
100
AcDbLine
 10
69.604633
 20
128.440654
 30
0.0
 11
66.104633
 21
128.440654
 31
0.0
  0
LINE
  5
1C6
100
AcDbEntity
  8
ALPHA
100
AcDbLine
 10
69.604633
 20
129.724474
 30
0.0
 11
66.104633
 21
129.724474
 31
0.0
  0
LINE
  5
1C7
100
AcDbEntity
  8
ALPHA
100
AcDbLine
 10
69.604633
 20
131.080634
 30
0.0
 11
66.104633
 21
131.080634
 31
0.0
  0
LINE
  5
1C8
100
AcDbEntity
  8
ALPHA
100
AcDbLine
 10
69.604633
 20
132.494275
 30
0.0
 11
66.104633
 21
132.494275
 31
0.0
  0
LINE
  5
1C9
100
AcDbEntity
  8
ALPHA
100
AcDbLine
 10
69.604633
 20
150.424375
 30
0.0
 11
66.104633
 21
150.424375
 31
0.0
  0
LINE
  5
1CA
100
AcDbEntity
  8
ALPHA
100
AcDbLine
 10
69.604633
 20
126.357484
 30
0.0
 11
69.604633
 21
126.482554
 31
0.0
  0
LINE
  5
1CB
100
AcDbEntity
  8
ALPHA
100
AcDbLine
 10
69.604633
 20
126.145352
 30
0.0
 11
69.604633
 21
126.357484
 31
0.0
  0
LINE
  5
1CC
100
AcDbEntity
  8
ALPHA
100
AcDbLine
 10
69.604633
 20
150.129634
 30
0.0
 11
66.104633
 21
150.129634
 31
0.0
  0
LINE
  5
1CD
100
AcDbEntity
  8
ALPHA
100
AcDbLine
 10
69.604633
 20
125.347813
 30
0.0
 11
69.604633
 21
125.481356
 31
0.0
  0
LINE
  5
1CE
100
AcDbEntity
  8
ALPHA
100
AcDbLine
 10
69.604633
 20
125.159017
 30
0.0
 11
69.604633
 21
125.347813
 31
0.0
  0
LINE
  5
1CF
100
AcDbEntity
  8
ALPHA
100
AcDbLine
 10
69.604633
 20
124.458434
 30
0.0
 11
69.604633
 21
124.598969
 31
0.0
  0
LINE
  5
1D0
100
AcDbEntity
  8
ALPHA
100
AcDbLine
 10
69.604633
 20
124.295042
 30
0.0
 11
69.604633
 21
124.458434
 31
0.0
  0
LINE
  5
1D1
100
AcDbEntity
  8
ALPHA
100
AcDbLine
 10
69.604633
 20
149.68367
 30
0.0
 11
66.104633
 21
149.68367
 31
0.0
  0
LINE
  5
1D2
100
AcDbEntity
  8
ALPHA
100
AcDbLine
 10
69.604633
 20
123.69909
 30
0.0
 11
69.604633
 21
123.845085
 31
0.0
  0
LINE
  5
1D3
100
AcDbEntity
  8
ALPHA
100
AcDbLine
 10
69.604633
 20
123.562893
 30
0.0
 11
69.604633
 21
123.69909
 31
0.0
  0
LINE
  5
1D4
100
AcDbEntity
  8
ALPHA
100
AcDbLine
 10
69.604633
 20
123.078102
 30
0.0
 11
69.604633
 21
123.22796
 31
0.0
  0
LINE
  5
1D5
100
AcDbEntity
  8
ALPHA
100
AcDbLine
 10
69.604633
 20
123.005773
 30
0.0
 11
69.604633
 21
123.078102
 31
0.0
  0
LINE
  5
1D6
100
AcDbEntity
  8
ALPHA
100
AcDbLine
 10
69.604633
 20
122.970592
 30
0.0
 11
69.604633
 21
123.005773
 31
0.0
  0
LINE
  5
1D7
100
AcDbEntity
  8
ALPHA
100
AcDbLine
 10
66.854633
 20
149.091369
 30
0.0
 11
66.104633
 21
149.091369
 31
0.0
  0
LINE
  5
1D8
100
AcDbEntity
  8
ALPHA
100
AcDbLine
 10
69.604633
 20
149.091369
 30
0.0
 11
66.854633
 21
149.091369
 31
0.0
  0
LINE
  5
1D9
100
AcDbEntity
  8
ALPHA
100
AcDbLine
 10
69.604633
 20
122.602274
 30
0.0
 11
69.604633
 21
122.754379
 31
0.0
  0
LINE
  5
1DA
100
AcDbEntity
  8
ALPHA
100
AcDbLine
 10
69.604633
 20
122.524628
 30
0.0
 11
69.604633
 21
122.602274
 31
0.0
  0
LINE
  5
1DB
100
AcDbEntity
  8
ALPHA
100
AcDbLine
 10
69.604633
 20
122.276817
 30
0.0
 11
69.604633
 21
122.429453
 31
0.0
  0
LINE
  5
1DC
100
AcDbEntity
  8
ALPHA
100
AcDbLine
 10
69.604633
 20
122.260481
 30
0.0
 11
69.604633
 21
122.276817
 31
0.0
  0
LINE
  5
1DD
100
AcDbEntity
  8
ALPHA
100
AcDbLine
 10
69.604633
 20
122.229887
 30
0.0
 11
69.604633
 21
122.260481
 31
0.0
  0
LINE
  5
1DE
100
AcDbEntity
  8
ALPHA
100
AcDbLine
 10
69.604633
 20
148.35922
 30
0.0
 11
66.104633
 21
148.35922
 31
0.0
  0
LINE
  5
1DF
100
AcDbEntity
  8
ALPHA
100
AcDbLine
 10
69.604633
 20
122.105299
 30
0.0
 11
69.604633
 21
122.229887
 31
0.0
  0
LINE
  5
1E0
100
AcDbEntity
  8
ALPHA
100
AcDbLine
 10
69.604633
 20
122.089598
 30
0.0
 11
69.604633
 21
122.105299
 31
0.0
  0
LINE
  5
1E1
100
AcDbEntity
  8
ALPHA
100
AcDbLine
 10
69.604633
 20
147.495246
 30
0.0
 11
66.104633
 21
147.495246
 31
0.0
  0
LINE
  5
1E2
100
AcDbEntity
  8
ALPHA
100
AcDbLine
 10
69.604633
 20
146.508911
 30
0.0
 11
66.104633
 21
146.508911
 31
0.0
  0
LINE
  5
1E3
100
AcDbEntity
  8
ALPHA
100
AcDbLine
 10
69.604633
 20
145.411022
 30
0.0
 11
66.104633
 21
145.411022
 31
0.0
  0
LINE
  5
1E4
100
AcDbEntity
  8
ALPHA
100
AcDbLine
 10
69.604633
 20
144.213608
 30
0.0
 11
66.104633
 21
144.213608
 31
0.0
  0
LINE
  5
1E5
100
AcDbEntity
  8
ALPHA
100
AcDbLine
 10
69.604633
 20
142.929788
 30
0.0
 11
66.104633
 21
142.929788
 31
0.0
  0
LINE
  5
1E6
100
AcDbEntity
  8
ALPHA
100
AcDbLine
 10
69.604633
 20
141.573629
 30
0.0
 11
66.104633
 21
141.573629
 31
0.0
  0
LINE
  5
1E7
100
AcDbEntity
  8
ALPHA
100
AcDbLine
 10
69.604633
 20
140.159987
 30
0.0
 11
66.104633
 21
140.159987
 31
0.0
  0
LINE
  5
1E8
100
AcDbEntity
  8
ALPHA
100
AcDbLine
 10
62.960609
 20
150.577131
 30
0.0
 11
66.104633
 21
150.577131
 31
0.0
  0
LINE
  5
1E9
100
AcDbEntity
  8
ALPHA
100
AcDbLine
 10
66.104633
 20
150.577131
 30
0.0
 11
66.104633
 21
150.564664
 31
0.0
  0
ARC
  5
1EA
100
AcDbEntity
  8
ALPHA
100
AcDbCircle
 10
98.242299
 20
136.327131
 30
0.0
 40
38.687665
100
AcDbArc
 50
159.416387
 51
180.0
  0
LINE
  5
1EB
100
AcDbEntity
  8
ALPHA
100
AcDbLine
 10
62.960609
 20
122.077131
 30
0.0
 11
66.104633
 21
122.077131
 31
0.0
  0
LINE
  5
1EC
100
AcDbEntity
  8
ALPHA
100
AcDbLine
 10
69.604633
 20
150.548963
 30
0.0
 11
69.604633
 21
150.564664
 31
0.0
  0
LINE
  5
1ED
100
AcDbEntity
  8
ALPHA
100
AcDbLine
 10
69.604633
 20
150.424375
 30
0.0
 11
69.604633
 21
150.548963
 31
0.0
  0
ARC
  5
1EE
100
AcDbEntity
  8
ALPHA
100
AcDbCircle
 10
98.242299
 20
136.327131
 30
0.0
 40
38.687665
100
AcDbArc
 50
180.0
 51
200.583613
  0
LINE
  5
1EF
100
AcDbEntity
  8
ALPHA
100
AcDbLine
 10
69.604633
 20
150.409425
 30
0.0
 11
69.604633
 21
150.424375
 31
0.0
  0
LINE
  5
1F0
100
AcDbEntity
  8
ALPHA
100
AcDbLine
 10
69.604633
 20
150.377445
 30
0.0
 11
69.604633
 21
150.409425
 31
0.0
  0
LINE
  5
1F1
100
AcDbEntity
  8
ALPHA
100
AcDbLine
 10
69.604633
 20
150.224834
 30
0.0
 11
69.604633
 21
150.377445
 31
0.0
  0
LINE
  5
1F2
100
AcDbEntity
  8
ALPHA
100
AcDbLine
 10
69.604633
 20
150.051989
 30
0.0
 11
69.604633
 21
150.129634
 31
0.0
  0
LINE
  5
1F3
100
AcDbEntity
  8
ALPHA
100
AcDbLine
 10
69.604633
 20
149.899935
 30
0.0
 11
69.604633
 21
150.051989
 31
0.0
  0
LINE
  5
1F4
100
AcDbEntity
  8
ALPHA
100
AcDbLine
 10
69.604633
 20
149.648489
 30
0.0
 11
69.604633
 21
149.68367
 31
0.0
  0
LINE
  5
1F5
100
AcDbEntity
  8
ALPHA
100
AcDbLine
 10
69.604633
 20
149.57616
 30
0.0
 11
69.604633
 21
149.648489
 31
0.0
  0
LINE
  5
1F6
100
AcDbEntity
  8
ALPHA
100
AcDbLine
 10
69.604633
 20
149.42633
 30
0.0
 11
69.604633
 21
149.57616
 31
0.0
  0
LINE
  5
1F7
100
AcDbEntity
  8
ALPHA
100
AcDbLine
 10
69.604633
 20
148.955172
 30
0.0
 11
69.604633
 21
149.091369
 31
0.0
  0
LINE
  5
1F8
100
AcDbEntity
  8
ALPHA
100
AcDbLine
 10
69.604633
 20
148.809207
 30
0.0
 11
69.604633
 21
148.955172
 31
0.0
  0
LINE
  5
1F9
100
AcDbEntity
  8
ALPHA
100
AcDbLine
 10
69.604633
 20
148.195829
 30
0.0
 11
69.604633
 21
148.35922
 31
0.0
  0
LINE
  5
1FA
100
AcDbEntity
  8
ALPHA
100
AcDbLine
 10
69.604633
 20
148.055328
 30
0.0
 11
69.604633
 21
148.195829
 31
0.0
  0
LINE
  5
1FB
100
AcDbEntity
  8
ALPHA
100
AcDbLine
 10
69.604633
 20
147.306449
 30
0.0
 11
69.604633
 21
147.495246
 31
0.0
  0
LINE
  5
1FC
100
AcDbEntity
  8
ALPHA
100
AcDbLine
 10
69.604633
 20
147.172953
 30
0.0
 11
69.604633
 21
147.306449
 31
0.0
  0
ARC
  5
1FD
100
AcDbEntity
  8
ALPHA
100
AcDbCircle
 10
62.960609
 20
149.577131
 30
0.0
 40
1.0
100
AcDbArc
 50
90.0
 51
159.416387
  0
LINE
  5
1FE
100
AcDbEntity
  8
ALPHA
100
AcDbLine
 10
69.604633
 20
146.296779
 30
0.0
 11
69.604633
 21
146.508911
 31
0.0
  0
LINE
  5
1FF
100
AcDbEntity
  8
ALPHA
100
AcDbLine
 10
69.604633
 20
146.171748
 30
0.0
 11
69.604633
 21
146.296779
 31
0.0
  0
ARC
  5
200
100
AcDbEntity
  8
ALPHA
100
AcDbCircle
 10
62.960609
 20
123.077131
 30
0.0
 40
1.0
100
AcDbArc
 50
200.583613
 51
270.0
  0
LINE
  5
201
100
AcDbEntity
  8
ALPHA
100
AcDbLine
 10
69.604633
 20
145.177878
 30
0.0
 11
69.604633
 21
145.411022
 31
0.0
  0
LINE
  5
202
100
AcDbEntity
  8
ALPHA
100
AcDbLine
 10
69.604633
 20
145.062683
 30
0.0
 11
69.604633
 21
145.177878
 31
0.0
  0
LINE
  5
203
100
AcDbEntity
  8
ALPHA
100
AcDbLine
 10
69.604633
 20
143.962007
 30
0.0
 11
69.604633
 21
144.213608
 31
0.0
  0
LINE
  5
204
100
AcDbEntity
  8
ALPHA
100
AcDbLine
 10
69.604633
 20
143.85791
 30
0.0
 11
69.604633
 21
143.962007
 31
0.0
  0
LINE
  5
205
100
AcDbEntity
  8
ALPHA
100
AcDbLine
 10
69.604633
 20
142.662486
 30
0.0
 11
69.604633
 21
142.929788
 31
0.0
  0
LINE
  5
206
100
AcDbEntity
  8
ALPHA
100
AcDbLine
 10
69.604633
 20
142.570629
 30
0.0
 11
69.604633
 21
142.662486
 31
0.0
  0
LINE
  5
207
100
AcDbEntity
  8
ALPHA
100
AcDbLine
 10
69.604633
 20
141.293554
 30
0.0
 11
69.604633
 21
141.573629
 31
0.0
  0
LINE
  5
208
100
AcDbEntity
  8
ALPHA
100
AcDbLine
 10
69.604633
 20
141.214942
 30
0.0
 11
69.604633
 21
141.293554
 31
0.0
  0
LINE
  5
209
100
AcDbEntity
  8
ALPHA
100
AcDbLine
 10
69.604633
 20
139.870209
 30
0.0
 11
69.604633
 21
140.159987
 31
0.0
  0
LINE
  5
20A
100
AcDbEntity
  8
ALPHA
100
AcDbLine
 10
69.604633
 20
139.805703
 30
0.0
 11
69.604633
 21
139.870209
 31
0.0
  0
LINE
  5
20B
100
AcDbEntity
  8
ALPHA
100
AcDbLine
 10
69.604633
 20
138.408046
 30
0.0
 11
69.604633
 21
138.704352
 31
0.0
  0
LINE
  5
20C
100
AcDbEntity
  8
ALPHA
100
AcDbLine
 10
69.604633
 20
138.358353
 30
0.0
 11
69.604633
 21
138.408046
 31
0.0
  0
LINE
  5
20D
100
AcDbEntity
  8
ALPHA
100
AcDbLine
 10
69.604633
 20
137.222672
 30
0.0
 11
69.604633
 21
137.241274
 31
0.0
  0
LINE
  5
20E
100
AcDbEntity
  8
ALPHA
100
AcDbLine
 10
69.604633
 20
136.923083
 30
0.0
 11
69.604633
 21
137.222672
 31
0.0
  0
LINE
  5
20F
100
AcDbEntity
  8
ALPHA
100
AcDbLine
 10
69.604633
 20
136.888747
 30
0.0
 11
69.604633
 21
136.923083
 31
0.0
  0
LINE
  5
210
100
AcDbEntity
  8
ALPHA
100
AcDbLine
 10
69.604633
 20
135.73118
 30
0.0
 11
69.604633
 21
135.765517
 31
0.0
  0
LINE
  5
211
100
AcDbEntity
  8
ALPHA
100
AcDbLine
 10
69.604633
 20
135.431591
 30
0.0
 11
69.604633
 21
135.73118
 31
0.0
  0
LINE
  5
212
100
AcDbEntity
  8
ALPHA
100
AcDbLine
 10
69.604633
 20
135.412989
 30
0.0
 11
69.604633
 21
135.431591
 31
0.0
  0
LINE
  5
213
100
AcDbEntity
  8
ALPHA
100
AcDbLine
 10
69.604633
 20
134.246217
 30
0.0
 11
69.604633
 21
134.295912
 31
0.0
  0
LINE
  5
214
100
AcDbEntity
  8
ALPHA
100
AcDbLine
 10
69.604633
 20
133.94991
 30
0.0
 11
69.604633
 21
134.246217
 31
0.0
  0
LINE
  5
215
100
AcDbEntity
  8
ALPHA
100
AcDbLine
 10
69.604633
 20
132.784053
 30
0.0
 11
69.604633
 21
132.848562
 31
0.0
  0
LINE
  5
216
100
AcDbEntity
  8
ALPHA
100
AcDbLine
 10
69.604633
 20
132.494275
 30
0.0
 11
69.604633
 21
132.784053
 31
0.0
  0
LINE
  5
217
100
AcDbEntity
  8
ALPHA
100
AcDbLine
 10
69.604633
 20
131.360708
 30
0.0
 11
69.604633
 21
131.439323
 31
0.0
  0
LINE
  5
218
100
AcDbEntity
  8
ALPHA
100
AcDbLine
 10
69.604633
 20
131.080634
 30
0.0
 11
69.604633
 21
131.360708
 31
0.0
  0
LINE
  5
219
100
AcDbEntity
  8
ALPHA
100
AcDbLine
 10
69.604633
 20
129.991776
 30
0.0
 11
69.604633
 21
130.083637
 31
0.0
  0
LINE
  5
21A
100
AcDbEntity
  8
ALPHA
100
AcDbLine
 10
69.604633
 20
129.724474
 30
0.0
 11
69.604633
 21
129.991776
 31
0.0
  0
LINE
  5
21B
100
AcDbEntity
  8
ALPHA
100
AcDbLine
 10
69.604633
 20
128.692255
 30
0.0
 11
69.604633
 21
128.796355
 31
0.0
  0
LINE
  5
21C
100
AcDbEntity
  8
ALPHA
100
AcDbLine
 10
69.604633
 20
128.440654
 30
0.0
 11
69.604633
 21
128.692255
 31
0.0
  0
LWPOLYLINE
  5
21D
100
AcDbEntity
  8
ALPHA
100
AcDbPolyline
 90
        9
 70
     0
 43
0.0
 10
73.554633
 20
130.852071
 10
73.524054
 20
131.118131
 10
73.430451
 20
131.387646
 10
73.267134
 20
131.661042
 10
73.025387
 20
131.934555
 10
72.700832
 20
132.199467
 10
72.295048
 20
132.447069
 10
71.811896
 20
132.672388
 10
71.254633
 20
132.873861
  0
LWPOLYLINE
  5
228
100
AcDbEntity
  8
ALPHA
100
AcDbPolyline
 90
        8
 70
     0
 43
0.0
 10
71.254633
 20
129.054707
 10
71.885388
 20
129.240113
 10
72.418828
 20
129.456425
 10
72.850013
 20
129.703471
 10
73.173943
 20
129.975615
 10
73.391437
 20
130.261186
 10
73.514633
 20
130.553366
 10
73.554633
 20
130.852071
  0
LINE
  5
232
100
AcDbEntity
  8
ALPHA
100
AcDbLine
 10
71.254633
 20
126.372159
 30
0.0
 11
71.054633
 21
126.372159
 31
0.0
  0
LINE
  5
233
100
AcDbEntity
  8
ALPHA
100
AcDbLine
 10
71.254633
 20
133.980997
 30
0.0
 11
71.054633
 21
133.980997
 31
0.0
  0
LWPOLYLINE
  5
234
100
AcDbEntity
  8
ALPHA
100
AcDbPolyline
 90
        9
 70
     0
 43
0.0
 10
73.554633
 20
130.852071
 10
73.554633
 20
129.661145
 10
73.554633
 20
128.584275
 10
73.554633
 20
127.639885
 10
73.554633
 20
126.844135
 10
73.554633
 20
126.21064
 10
73.554633
 20
125.750238
 10
73.554633
 20
125.470808
 10
73.554633
 20
125.377131
  0
LWPOLYLINE
  5
23F
100
AcDbEntity
  8
ALPHA
100
AcDbPolyline
 90
        3
 70
     0
 43
0.0
 10
73.554633
 20
132.752219
 10
73.554633
 20
131.781425
 10
73.554633
 20
130.852071
  0
LWPOLYLINE
  5
244
100
AcDbEntity
  8
ALPHA
100
AcDbPolyline
 90
        9
 70
     0
 43
0.0
 10
73.793188
 20
132.442679
 10
73.762773
 20
132.426654
 10
73.729064
 20
132.436281
 10
73.696879
 20
132.464483
 10
73.666751
 20
132.504479
 10
73.63769
 20
132.554109
 10
73.609448
 20
132.612149
 10
73.581791
 20
132.678233
 10
73.554633
 20
132.752219
  0
LWPOLYLINE
  5
24F
100
AcDbEntity
  8
ALPHA
100
AcDbPolyline
 90
        9
 70
     0
 43
0.0
 10
71.254633
 20
143.494084
 10
71.814082
 20
143.65447
 10
72.29868
 20
143.831841
 10
72.705034
 20
144.024135
 10
73.029582
 20
144.226832
 10
73.270432
 20
144.432278
 10
73.43214
 20
144.633086
 10
73.524448
 20
144.82673
 10
73.554633
 20
145.014351
  0
LWPOLYLINE
  5
25A
100
AcDbEntity
  8
ALPHA
100
AcDbPolyline
 90
        7
 70
     0
 43
0.0
 10
73.554633
 20
145.014351
 10
73.515146
 20
145.220619
 10
73.393495
 20
145.417607
 10
73.177636
 20
145.606067
 10
72.854245
 20
145.781548
 10
72.422806
 20
145.93649
 10
72.335227
 20
145.961581
  0
LINE
  5
263
100
AcDbEntity
  8
ALPHA
100
AcDbLine
 10
71.254633
 20
146.755773
 30
0.0
 11
71.054633
 21
146.755773
 31
0.0
  0
LWPOLYLINE
  5
264
100
AcDbEntity
  8
ALPHA
100
AcDbPolyline
 90
        9
 70
     0
 43
0.0
 10
73.793188
 20
140.211584
 10
73.762773
 20
140.227609
 10
73.729064
 20
140.217982
 10
73.696879
 20
140.189779
 10
73.666751
 20
140.149783
 10
73.63769
 20
140.100154
 10
73.609448
 20
140.042113
 10
73.581791
 20
139.97603
 10
73.554633
 20
139.902044
  0
LINE
  5
26F
100
AcDbEntity
  8
ALPHA
100
AcDbLine
 10
71.254633
 20
146.735066
 30
0.0
 11
71.054633
 21
146.735066
 31
0.0
  0
LINE
  5
270
100
AcDbEntity
  8
ALPHA
100
AcDbLine
 10
71.054633
 20
141.426151
 30
0.0
 11
69.854633
 21
141.426151
 31
0.0
  0
LWPOLYLINE
  5
271
100
AcDbEntity
  8
ALPHA
100
AcDbPolyline
 90
        6
 70
     0
 43
0.0
 10
73.554633
 20
139.902044
 10
73.554633
 20
141.083278
 10
73.554633
 20
142.199761
 10
73.554633
 20
143.236296
 10
73.554633
 20
144.178769
 10
73.554633
 20
145.014351
  0
LINE
  5
279
100
AcDbEntity
  8
ALPHA
100
AcDbLine
 10
71.054633
 20
131.228112
 30
0.0
 11
69.854633
 21
131.228112
 31
0.0
  0
LWPOLYLINE
  5
27A
100
AcDbEntity
  8
ALPHA
100
AcDbPolyline
 90
        5
 70
     0
 43
0.0
 10
72.954633
 20
136.327131
 10
72.990977
 20
135.435724
 10
73.10096
 20
134.542997
 10
73.287345
 20
133.648384
 10
73.554633
 20
132.752219
  0
LWPOLYLINE
  5
281
100
AcDbEntity
  8
ALPHA
100
AcDbPolyline
 90
        5
 70
     0
 43
0.0
 10
72.954633
 20
136.327131
 10
72.990979
 20
137.218562
 10
73.100964
 20
138.111294
 10
73.287349
 20
139.005895
 10
73.554633
 20
139.902044
  0
LWPOLYLINE
  5
288
100
AcDbEntity
  8
ALPHA
100
AcDbPolyline
 90
        6
 70
     0
 43
0.0
 10
73.554633
 20
145.014351
 10
73.554633
 20
145.81011
 10
73.554633
 20
146.443613
 10
73.554633
 20
146.904019
 10
73.554633
 20
147.183453
 10
73.554633
 20
147.277131
  0
LINE
  5
290
100
AcDbEntity
  8
ALPHA
100
AcDbLine
 10
71.254633
 20
142.625941
 30
0.0
 11
71.054633
 21
142.625941
 31
0.0
  0
LINE
  5
291
100
AcDbEntity
  8
ALPHA
100
AcDbLine
 10
71.254633
 20
142.625941
 30
0.0
 11
71.254633
 21
143.494069
 31
0.0
  0
LINE
  5
292
100
AcDbEntity
  8
ALPHA
100
AcDbLine
 10
72.354633
 20
147.063984
 30
0.0
 11
72.354633
 21
147.277131
 31
0.0
  0
LINE
  5
293
100
AcDbEntity
  8
ALPHA
100
AcDbLine
 10
71.254633
 20
146.267283
 30
0.0
 11
71.254633
 21
146.755773
 31
0.0
  0
LINE
  5
294
100
AcDbEntity
  8
ALPHA
100
AcDbLine
 10
72.354633
 20
147.063984
 30
0.0
 11
71.054633
 21
147.063984
 31
0.0
  0
LINE
  5
295
100
AcDbEntity
  8
ALPHA
100
AcDbLine
 10
71.254633
 20
126.372159
 30
0.0
 11
71.254633
 21
129.054703
 31
0.0
  0
LINE
  5
296
100
AcDbEntity
  8
ALPHA
100
AcDbLine
 10
71.254633
 20
132.873875
 30
0.0
 11
71.254633
 21
129.054705
 31
0.0
  0
LINE
  5
297
100
AcDbEntity
  8
ALPHA
100
AcDbLine
 10
71.254633
 20
132.873876
 30
0.0
 11
71.254633
 21
133.980997
 31
0.0
  0
LINE
  5
298
100
AcDbEntity
  8
ALPHA
100
AcDbLine
 10
73.454633
 20
133.827131
 30
0.0
 11
73.454633
 21
138.827131
 31
0.0
  0
ARC
  5
299
100
AcDbEntity
  8
ALPHA
100
AcDbCircle
 10
76.454633
 20
138.827131
 30
0.0
 40
3.0
100
AcDbArc
 50
152.517078
 51
180.0
  0
ARC
  5
29A
100
AcDbEntity
  8
ALPHA
100
AcDbCircle
 10
76.454633
 20
133.827131
 30
0.0
 40
3.0
100
AcDbArc
 50
180.0
 51
207.482922
  0
LINE
  5
29B
100
AcDbEntity
  8
ALPHA
100
AcDbLine
 10
69.854633
 20
123.527131
 30
0.0
 11
69.854633
 21
122.82715
 31
0.0
  0
LINE
  5
29C
100
AcDbEntity
  8
ALPHA
100
AcDbLine
 10
69.854633
 20
123.607668
 30
0.0
 11
69.854633
 21
123.527131
 31
0.0
  0
LINE
  5
29D
100
AcDbEntity
  8
ALPHA
100
AcDbLine
 10
69.854633
 20
124.297131
 30
0.0
 11
69.854633
 21
123.607668
 31
0.0
  0
LINE
  5
29E
100
AcDbEntity
  8
ALPHA
100
AcDbLine
 10
69.854633
 20
124.366221
 30
0.0
 11
69.854633
 21
124.297131
 31
0.0
  0
LINE
  5
29F
100
AcDbEntity
  8
ALPHA
100
AcDbLine
 10
69.854633
 20
124.427203
 30
0.0
 11
69.854633
 21
124.366221
 31
0.0
  0
LINE
  5
2A0
100
AcDbEntity
  8
ALPHA
100
AcDbLine
 10
69.854633
 20
126.227131
 30
0.0
 11
69.854633
 21
124.427203
 31
0.0
  0
LINE
  5
2A1
100
AcDbEntity
  8
ALPHA
100
AcDbLine
 10
69.854633
 20
126.262748
 30
0.0
 11
69.854633
 21
126.227131
 31
0.0
  0
LINE
  5
2A2
100
AcDbEntity
  8
ALPHA
100
AcDbLine
 10
69.854633
 20
126.827131
 30
0.0
 11
69.854633
 21
126.262748
 31
0.0
  0
LINE
  5
2A3
100
AcDbEntity
  8
ALPHA
100
AcDbLine
 10
69.854633
 20
130.267812
 30
0.0
 11
69.854633
 21
126.827131
 31
0.0
  0
LINE
  5
2A4
100
AcDbEntity
  8
ALPHA
100
AcDbLine
 10
69.854633
 20
131.228112
 30
0.0
 11
69.854633
 21
130.267812
 31
0.0
  0
LINE
  5
2A5
100
AcDbEntity
  8
ALPHA
100
AcDbLine
 10
73.854633
 20
146.884778
 30
0.0
 11
73.854633
 21
146.977131
 31
0.0
  0
LINE
  5
2A6
100
AcDbEntity
  8
ALPHA
100
AcDbLine
 10
73.854633
 20
140.323794
 30
0.0
 11
73.854633
 21
146.884778
 31
0.0
  0
LINE
  5
2A7
100
AcDbEntity
  8
ALPHA
100
AcDbLine
 10
73.854633
 20
125.769484
 30
0.0
 11
73.854633
 21
125.677131
 31
0.0
  0
LINE
  5
2A8
100
AcDbEntity
  8
ALPHA
100
AcDbLine
 10
73.854633
 20
132.330468
 30
0.0
 11
73.854633
 21
125.769484
 31
0.0
  0
LINE
  5
2A9
100
AcDbEntity
  8
ALPHA
100
AcDbLine
 10
71.054633
 20
149.827131
 30
0.0
 11
69.854633
 21
149.827131
 31
0.0
  0
LINE
  5
2AA
100
AcDbEntity
  8
ALPHA
100
AcDbLine
 10
73.554633
 20
147.277131
 30
0.0
 11
72.354633
 21
147.277131
 31
0.0
  0
LINE
  5
2AB
100
AcDbEntity
  8
ALPHA
100
AcDbLine
 10
71.054633
 20
122.827131
 30
0.0
 11
69.854633
 21
122.827131
 31
0.0
  0
LINE
  5
2AC
100
AcDbEntity
  8
ALPHA
100
AcDbLine
 10
73.554633
 20
125.377131
 30
0.0
 11
71.054633
 21
125.377131
 31
0.0
  0
LWPOLYLINE
  5
2AD
100
AcDbEntity
  8
ALPHA
100
AcDbPolyline
 90
        3
 70
     0
 43
0.0
 10
72.33525
 20
145.9616
 10
72.084799
 20
146.031459
 10
71.254633
 20
146.267311
  0
LINE
  5
2B2
100
AcDbEntity
  8
ALPHA
100
AcDbLine
 10
71.254633
 20
145.420211
 30
0.0
 11
71.254633
 21
143.494069
 31
0.0
  0
LINE
  5
2B3
100
AcDbEntity
  8
ALPHA
100
AcDbLine
 10
71.254633
 20
145.4801
 30
0.0
 11
71.254633
 21
145.432093
 31
0.0
  0
LINE
  5
2B4
100
AcDbEntity
  8
ALPHA
100
AcDbLine
 10
71.254633
 20
146.267283
 30
0.0
 11
71.254633
 21
145.467309
 31
0.0
  0
LINE
  5
2B5
100
AcDbEntity
  8
ALPHA
100
AcDbLine
 10
71.054633
 20
148.327131
 30
0.0
 11
71.054633
 21
149.827112
 31
0.0
  0
LINE
  5
2B6
100
AcDbEntity
  8
ALPHA
100
AcDbLine
 10
71.054633
 20
148.288041
 30
0.0
 11
71.054633
 21
148.327131
 31
0.0
  0
LINE
  5
2B7
100
AcDbEntity
  8
ALPHA
100
AcDbLine
 10
71.054633
 20
147.063984
 30
0.0
 11
71.054633
 21
148.288041
 31
0.0
  0
LINE
  5
2B8
100
AcDbEntity
  8
ALPHA
100
AcDbLine
 10
71.054633
 20
146.927131
 30
0.0
 11
71.054633
 21
147.063984
 31
0.0
  0
LINE
  5
2B9
100
AcDbEntity
  8
ALPHA
100
AcDbLine
 10
71.054633
 20
146.755773
 30
0.0
 11
71.054633
 21
146.927131
 31
0.0
  0
LINE
  5
2BA
100
AcDbEntity
  8
ALPHA
100
AcDbLine
 10
71.054633
 20
142.625941
 30
0.0
 11
71.054633
 21
146.755773
 31
0.0
  0
LINE
  5
2BB
100
AcDbEntity
  8
ALPHA
100
AcDbLine
 10
71.054633
 20
141.426151
 30
0.0
 11
71.054633
 21
142.625941
 31
0.0
  0
LINE
  5
2BC
100
AcDbEntity
  8
ALPHA
100
AcDbLine
 10
71.054633
 20
141.426151
 30
0.0
 11
71.054633
 21
131.228112
 31
0.0
  0
LINE
  5
2BD
100
AcDbEntity
  8
ALPHA
100
AcDbLine
 10
71.054633
 20
125.377131
 30
0.0
 11
71.054633
 21
122.82715
 31
0.0
  0
LINE
  5
2BE
100
AcDbEntity
  8
ALPHA
100
AcDbLine
 10
71.054633
 20
126.227131
 30
0.0
 11
71.054633
 21
125.377131
 31
0.0
  0
LINE
  5
2BF
100
AcDbEntity
  8
ALPHA
100
AcDbLine
 10
71.054633
 20
126.372159
 30
0.0
 11
71.054633
 21
126.227131
 31
0.0
  0
LINE
  5
2C0
100
AcDbEntity
  8
ALPHA
100
AcDbLine
 10
71.054633
 20
126.404904
 30
0.0
 11
71.054633
 21
126.372159
 31
0.0
  0
LINE
  5
2C1
100
AcDbEntity
  8
ALPHA
100
AcDbLine
 10
71.054633
 20
131.228112
 30
0.0
 11
71.054633
 21
126.404904
 31
0.0
  0
LINE
  5
2C2
100
AcDbEntity
  8
ALPHA
100
AcDbLine
 10
69.854633
 20
149.127131
 30
0.0
 11
69.854633
 21
149.827112
 31
0.0
  0
LINE
  5
2C3
100
AcDbEntity
  8
ALPHA
100
AcDbLine
 10
69.854633
 20
149.046594
 30
0.0
 11
69.854633
 21
149.127131
 31
0.0
  0
LINE
  5
2C4
100
AcDbEntity
  8
ALPHA
100
AcDbLine
 10
69.854633
 20
148.357131
 30
0.0
 11
69.854633
 21
149.046594
 31
0.0
  0
LINE
  5
2C5
100
AcDbEntity
  8
ALPHA
100
AcDbLine
 10
69.854633
 20
148.327073
 30
0.0
 11
69.854633
 21
148.357131
 31
0.0
  0
LINE
  5
2C6
100
AcDbEntity
  8
ALPHA
100
AcDbLine
 10
69.854633
 20
148.288041
 30
0.0
 11
69.854633
 21
148.327073
 31
0.0
  0
LINE
  5
2C7
100
AcDbEntity
  8
ALPHA
100
AcDbLine
 10
69.854633
 20
148.177534
 30
0.0
 11
69.854633
 21
148.288041
 31
0.0
  0
LINE
  5
2C8
100
AcDbEntity
  8
ALPHA
100
AcDbLine
 10
69.854633
 20
146.927131
 30
0.0
 11
69.854633
 21
148.177534
 31
0.0
  0
LINE
  5
2C9
100
AcDbEntity
  8
ALPHA
100
AcDbLine
 10
69.854633
 20
146.887119
 30
0.0
 11
69.854633
 21
146.927131
 31
0.0
  0
LINE
  5
2CA
100
AcDbEntity
  8
ALPHA
100
AcDbLine
 10
69.854633
 20
146.427131
 30
0.0
 11
69.854633
 21
146.887119
 31
0.0
  0
LINE
  5
2CB
100
AcDbEntity
  8
ALPHA
100
AcDbLine
 10
69.854633
 20
142.38645
 30
0.0
 11
69.854633
 21
146.427131
 31
0.0
  0
LINE
  5
2CC
100
AcDbEntity
  8
ALPHA
100
AcDbLine
 10
69.854633
 20
141.426151
 30
0.0
 11
69.854633
 21
142.38645
 31
0.0
  0
LINE
  5
2CD
100
AcDbEntity
  8
ALPHA
100
AcDbLine
 10
73.854633
 20
146.954523
 30
0.0
 11
73.854633
 21
140.323794
 31
0.0
  0
ARC
  5
2CE
100
AcDbEntity
  8
ALPHA
100
AcDbCircle
 10
76.454633
 20
138.827131
 30
0.0
 40
3.0
100
AcDbArc
 50
150.073565
 51
152.517078
  0
LINE
  5
2CF
100
AcDbEntity
  8
ALPHA
100
AcDbLine
 10
73.854633
 20
146.954523
 30
0.0
 11
73.854633
 21
146.977131
 31
0.0
  0
ARC
  5
2D0
100
AcDbEntity
  8
ALPHA
100
AcDbCircle
 10
73.554633
 20
146.977131
 30
0.0
 40
0.3
100
AcDbArc
 50
0.0
 51
90.0
  0
LINE
  5
2D1
100
AcDbEntity
  8
ALPHA
100
AcDbLine
 10
73.854633
 20
132.330468
 30
0.0
 11
73.854633
 21
125.677131
 31
0.0
  0
ARC
  5
2D2
100
AcDbEntity
  8
ALPHA
100
AcDbCircle
 10
76.454633
 20
133.827131
 30
0.0
 40
3.0
100
AcDbArc
 50
207.482922
 51
209.926435
  0
LINE
  5
2D3
100
AcDbEntity
  8
ALPHA
100
AcDbLine
 10
69.854633
 20
131.292839
 30
0.0
 11
69.854633
 21
131.228112
 31
0.0
  0
ARC
  5
2D4
100
AcDbEntity
  8
ALPHA
100
AcDbCircle
 10
73.554633
 20
125.677131
 30
0.0
 40
0.3
100
AcDbArc
 50
270.0
 51
0.0
  0
ENDSEC
  0
SECTION
  2
OBJECTS
  0
DICTIONARY
  5
3EC
100
AcDbDictionary
  3
ACAD_GROUP
350
3ED
  3
ACAD_MLINESTYLE
350
3FA
  3
ACDBVARIABLEDICTIONARY
350
408
  0
DICTIONARY
  5
3ED
102
{ACAD_REACTORS
330
3EC
102
}
100
AcDbDictionary
  0
DICTIONARY
  5
3FA
102
{ACAD_REACTORS
330
3EC
102
}
100
AcDbDictionary
  3
STANDARD
350
3FB
  0
DICTIONARY
  5
408
102
{ACAD_REACTORS
330
3EC
102
}
100
AcDbDictionary
  3
DIMADEC
350
409
  0
MLINESTYLE
  5
3FB
102
{ACAD_REACTORS
330
3FA
102
}
100
AcDbMlineStyle
  2
STANDARD
 70
     0
  3

 62
   256
 51
90.0
 52
90.0
 71
     2
 49
0.5
 62
   256
  6
BYLAYER
 49
-0.5
 62
   256
  6
BYLAYER
  0
DICTIONARYVAR
  5
409
102
{ACAD_REACTORS
330
408
102
}
100
DictionaryVariables
280
     0
  1
0
  0
ENDSEC
  0
EOF
