  0
SECTION
  2
HEADER
  9
$ACADVER
  1
AC1012
  9
$DWGCODEPAGE
  3
ANSI_1252
  9
$INSBASE
 10
0.0
 20
0.0
 30
0.0
  9
$EXTMIN
 10
9.973469
 20
2.971313
 30
-0.001526
  9
$EXTMAX
 10
96.006062
 20
110.245853
 30
0.0
  9
$LIMMIN
 10
19.077216
 20
43.616976
  9
$LIMMAX
 10
194.084622
 20
146.65737
  9
$ORTHOMODE
 70
     0
  9
$REGENMODE
 70
     1
  9
$FILLMODE
 70
     1
  9
$QTEXTMODE
 70
     0
  9
$MIRRTEXT
 70
     1
  9
$DRAGMODE
 70
     2
  9
$LTSCALE
 40
10.0
  9
$OSMODE
 70
    37
  9
$ATTMODE
 70
     1
  9
$TEXTSIZE
 40
0.2
  9
$TRACEWID
 40
0.05
  9
$TEXTSTYLE
  7
STANDARD
  9
$CLAYER
  8
ALPHA
  9
$CELTYPE
  6
CONTINUOUS
  9
$CECOLOR
 62
   256
  9
$CELTSCALE
 40
1.0
  9
$DELOBJ
 70
     1
  9
$DISPSILH
 70
     0
  9
$DIMSCALE
 40
1.0
  9
$DIMASZ
 40
0.18
  9
$DIMEXO
 40
0.0625
  9
$DIMDLI
 40
0.38
  9
$DIMRND
 40
0.0
  9
$DIMDLE
 40
0.0
  9
$DIMEXE
 40
0.18
  9
$DIMTP
 40
0.0
  9
$DIMTM
 40
0.0
  9
$DIMTXT
 40
0.18
  9
$DIMCEN
 40
0.09
  9
$DIMTSZ
 40
0.0
  9
$DIMTOL
 70
     0
  9
$DIMLIM
 70
     0
  9
$DIMTIH
 70
     1
  9
$DIMTOH
 70
     1
  9
$DIMSE1
 70
     0
  9
$DIMSE2
 70
     0
  9
$DIMTAD
 70
     0
  9
$DIMZIN
 70
     0
  9
$DIMBLK
  1

  9
$DIMASO
 70
     1
  9
$DIMSHO
 70
     1
  9
$DIMPOST
  1

  9
$DIMAPOST
  1

  9
$DIMALT
 70
     0
  9
$DIMALTD
 70
     2
  9
$DIMALTF
 40
25.4
  9
$DIMLFAC
 40
1.0
  9
$DIMTOFL
 70
     0
  9
$DIMTVP
 40
0.0
  9
$DIMTIX
 70
     0
  9
$DIMSOXD
 70
     0
  9
$DIMSAH
 70
     0
  9
$DIMBLK1
  1

  9
$DIMBLK2
  1

  9
$DIMSTYLE
  2
STANDARD
  9
$DIMCLRD
 70
     0
  9
$DIMCLRE
 70
     0
  9
$DIMCLRT
 70
     0
  9
$DIMTFAC
 40
1.0
  9
$DIMGAP
 40
0.09
  9
$DIMJUST
 70
     0
  9
$DIMSD1
 70
     0
  9
$DIMSD2
 70
     0
  9
$DIMTOLJ
 70
     1
  9
$DIMTZIN
 70
     0
  9
$DIMALTZ
 70
     0
  9
$DIMALTTZ
 70
     0
  9
$DIMFIT
 70
     3
  9
$DIMUPT
 70
     0
  9
$DIMUNIT
 70
     2
  9
$DIMDEC
 70
     4
  9
$DIMTDEC
 70
     4
  9
$DIMALTU
 70
     2
  9
$DIMALTTD
 70
     2
  9
$DIMTXSTY
  7
STANDARD
  9
$DIMAUNIT
 70
     0
  9
$LUNITS
 70
     2
  9
$LUPREC
 70
     4
  9
$SKETCHINC
 40
0.1
  9
$FILLETRAD
 40
0.0
  9
$AUNITS
 70
     0
  9
$AUPREC
 70
     0
  9
$MENU
  1
acad
  9
$ELEVATION
 40
0.0
  9
$PELEVATION
 40
0.0
  9
$THICKNESS
 40
0.0
  9
$LIMCHECK
 70
     0
  9
$BLIPMODE
 70
     0
  9
$CHAMFERA
 40
0.0
  9
$CHAMFERB
 40
0.0
  9
$CHAMFERC
 40
0.0
  9
$CHAMFERD
 40
0.0
  9
$SKPOLY
 70
     0
  9
$TDCREATE
 40
2453634.413430799
  9
$TDUPDATE
 40
2453893.698679016
  9
$TDINDWG
 40
0.8079510995
  9
$TDUSRTIMER
 40
0.8079500116
  9
$USRTIMER
 70
     1
  9
$ANGBASE
 50
0.0
  9
$ANGDIR
 70
     0
  9
$PDMODE
 70
     0
  9
$PDSIZE
 40
0.0
  9
$PLINEWID
 40
0.0
  9
$COORDS
 70
     1
  9
$SPLFRAME
 70
     0
  9
$SPLINETYPE
 70
     6
  9
$SPLINESEGS
 70
     8
  9
$ATTDIA
 70
     0
  9
$ATTREQ
 70
     1
  9
$HANDLING
 70
     1
  9
$HANDSEED
  5
6C81
  9
$SURFTAB1
 70
     6
  9
$SURFTAB2
 70
     6
  9
$SURFTYPE
 70
     6
  9
$SURFU
 70
     6
  9
$SURFV
 70
     6
  9
$UCSNAME
  2

  9
$UCSORG
 10
0.0
 20
0.0
 30
0.0
  9
$UCSXDIR
 10
1.0
 20
0.0
 30
0.0
  9
$UCSYDIR
 10
0.0
 20
1.0
 30
0.0
  9
$PUCSNAME
  2

  9
$PUCSORG
 10
0.0
 20
0.0
 30
0.0
  9
$PUCSXDIR
 10
1.0
 20
0.0
 30
0.0
  9
$PUCSYDIR
 10
0.0
 20
1.0
 30
0.0
  9
$USERI1
 70
     0
  9
$USERI2
 70
     0
  9
$USERI3
 70
     0
  9
$USERI4
 70
     0
  9
$USERI5
 70
     0
  9
$USERR1
 40
0.0
  9
$USERR2
 40
0.0
  9
$USERR3
 40
0.0
  9
$USERR4
 40
0.0
  9
$USERR5
 40
0.0
  9
$WORLDVIEW
 70
     1
  9
$SHADEDGE
 70
     3
  9
$SHADEDIF
 70
    70
  9
$TILEMODE
 70
     1
  9
$MAXACTVP
 70
    16
  9
$PINSBASE
 10
0.0
 20
0.0
 30
0.0
  9
$PLIMCHECK
 70
     0
  9
$PEXTMIN
 10
1.000000E+20
 20
1.000000E+20
 30
1.000000E+20
  9
$PEXTMAX
 10
-1.000000E+20
 20
-1.000000E+20
 30
-1.000000E+20
  9
$PLIMMIN
 10
0.0
 20
0.0
  9
$PLIMMAX
 10
12.0
 20
9.0
  9
$UNITMODE
 70
     0
  9
$VISRETAIN
 70
     0
  9
$PLINEGEN
 70
     1
  9
$PSLTSCALE
 70
     0
  9
$TREEDEPTH
 70
  3020
  9
$PICKSTYLE
 70
     0
  9
$CMLSTYLE
  2
STANDARD
  9
$CMLJUST
 70
     0
  9
$CMLSCALE
 40
1.0
  9
$SAVEIMAGES
 70
     0
  0
ENDSEC
  0
SECTION
  2
CLASSES
  0
CLASS
  1
LWPOLYLINE
  2
AcDbPolyline
  3
"AutoCAD"
 90
    32768
280
     0
281
     1
  0
CLASS
  1
IMAGE
  2
AcDbRasterImage
  3
ISM
 90
    32895
280
     0
281
     1
  0
CLASS
  1
OLE2FRAME
  2
AcDbOle2Frame
  3
""
 90
    32768
280
     0
281
     1
  0
CLASS
  1
HATCH
  2
AcDbHatch
  3
"ACAD_SEDONA"
 90
    32768
280
     0
281
     1
  0
CLASS
  1
DICTIONARYVAR
  2
AcDbDictionaryVar
  3
"AutoCAD"
 90
    32768
280
     0
281
     0
  0
CLASS
  1
RASTERVARIABLES
  2
AcDbRasterVariables
  3
ISM
 90
    32768
280
     0
281
     0
  0
CLASS
  1
IMAGEDEF
  2
AcDbRasterImageDef
  3
ISM
 90
    32768
280
     0
281
     0
  0
CLASS
  1
IMAGEDEF_REACTOR
  2
AcDbRasterImageDefReactor
  3
ISM
 90
    32769
280
     0
281
     0
  0
CLASS
  1
SPATIAL_FILTER
  2
AcDbSpatialFilter
  3
"Acad"
 90
    32768
280
     0
281
     0
  0
CLASS
  1
XRECORD
  2
AcDbXrecord
  3
"<Built In>"
 90
    32768
280
     0
281
     0
  0
CLASS
  1
SORTENTSTABLE
  2
AcDbSortentsTable
  3
"AutoCAD"
 90
    32768
280
     0
281
     0
  0
CLASS
  1
LAYER_INDEX
  2
AcDbLayerIndex
  3
"Acad"
 90
    32768
280
     0
281
     0
  0
CLASS
  1
SPATIAL_INDEX
  2
AcDbSpatialIndex
  3
"Acad"
 90
    32768
280
     0
281
     0
  0
CLASS
  1
OBJECT_PTR
  2
CAseDLPNTableRecord
  3
ASE-LPNTableRecord
 90
    32769
280
     0
281
     0
  0
CLASS
  1
LAYOUT
  2
AcDbLayout
  3
AutoCAD 2000
 90
    32768
280
     0
281
     0
  0
CLASS
  1
PLOTSETTINGS
  2
AcDbPlotSettings
  3
AutoCAD 2000
 90
    32768
280
     0
281
     0
  0
CLASS
  1
ACDBDICTIONARYWDFLT
  2
AcDbDictionaryWithDefault
  3
AutoCAD 2000
 90
    32768
280
     0
281
     0
  0
CLASS
  1
ACDBPLACEHOLDER
  2
AcDbPlaceHolder
  3
AutoCAD 2000
 90
    32768
280
     0
281
     0
  0
CLASS
  1
VBA_PROJECT
  2
AcDbVbaProject
  3
acad
 90
    32768
280
     0
281
     0
  0
CLASS
  1
WIPEOUT
  2
AcDbWipeout
  3
WipeOut|AutoCAD Express Tool|expresstools@autodesk.com
 90
    32895
280
     0
281
     1
  0
CLASS
  1
WIPEOUTVARIABLES
  2
AcDbWipeoutVariables
  3
WipeOut|AutoCAD Express Tool|expresstools@autodesk.com
 90
    32768
280
     0
281
     0
  0
CLASS
  1
RTEXT
  2
RText
  3
RText|AutoCAD Express Tool|expresstools@autodesk.com
 90
    32768
280
     0
281
     1
  0
CLASS
  1
ARCALIGNEDTEXT
  2
AcDbArcAlignedText
  3
ATEXT|AutoCAD Express Tool|expresstools@autodesk.com
 90
    32768
280
     0
281
     1
  0
CLASS
  1
TABLESTYLE
  2
AcDbTableStyle
  3
ObjectDBX Classes
 90
    34815
280
     0
281
     0
  0
CLASS
  1
ACAD_PROXY_OBJECT_WRAPPER
  2
AcDbProxyObjectWrapper
  3
AutoCAD 2000
 90
    32768
280
     0
281
     0
  0
CLASS
  1
LONG_TRANSACTION
  2
AcDbLongTransaction
  3
AutoCAD 2000
 90
    32768
280
     0
281
     0
  0
CLASS
  1
LWPOLYLINE
  2
AcDbPolyline
  3
"AutoCAD"
 90
    32768
280
     0
281
     1
  0
CLASS
  1
HATCH
  2
AcDbHatch
  3
"ACAD_SEDONA"
 90
    32768
280
     0
281
     1
  0
CLASS
  1
XRECORD
  2
AcDbXrecord
  3
"<Built In>"
 90
    32768
280
     0
281
     0
  0
ENDSEC
  0
SECTION
  2
TABLES
  0
TABLE
  2
VPORT
  5
7
100
AcDbSymbolTable
 70
     2
  0
VPORT
  5
6C80
100
AcDbSymbolTableRecord
100
AcDbViewportTableRecord
  2
*ACTIVE
 70
     0
 10
0.0
 20
0.0
 11
1.0
 21
1.0
 12
52.989765
 22
56.608583
 13
0.0
 23
0.0
 14
1.0
 24
1.0
 15
0.0
 25
0.0
 16
0.0
 26
0.0
 36
1.0
 17
0.0
 27
0.0
 37
0.0
 40
108.390046
 41
1.673611
 42
50.0
 43
0.0
 44
0.0
 50
0.0
 51
0.0
 71
     0
 72
   100
 73
     1
 74
     2
 75
     0
 76
     0
 77
     0
 78
     0
  0
ENDTAB
  0
TABLE
  2
LTYPE
  5
4
100
AcDbSymbolTable
 70
     2
  0
LTYPE
  5
11
102
{ACAD_XDICTIONARY
360
6C3D
102
}
100
AcDbSymbolTableRecord
100
AcDbLinetypeTableRecord
  2
BYBLOCK
 70
     0
  3

 72
    65
 73
     0
 40
0.0
  0
LTYPE
  5
12
102
{ACAD_XDICTIONARY
360
6C3F
102
}
100
AcDbSymbolTableRecord
100
AcDbLinetypeTableRecord
  2
BYLAYER
 70
     0
  3

 72
    65
 73
     0
 40
0.0
  0
LTYPE
  5
13
102
{ACAD_XDICTIONARY
360
6C41
102
}
100
AcDbSymbolTableRecord
100
AcDbLinetypeTableRecord
  2
CONTINUOUS
 70
     0
  3
Solid line
 72
    65
 73
     0
 40
0.0
  0
LTYPE
  5
725
100
AcDbSymbolTableRecord
100
AcDbLinetypeTableRecord
  2
AXES2
 70
     0
  3
___ _ ___ _ ___ _ ___ _ ___ _ ___ _ ___ _ ___ _
 72
    65
 73
     4
 40
1.125
 49
0.75
 74
     0
 49
-0.125
 74
     0
 49
0.125
 74
     0
 49
-0.125
 74
     0
  0
ENDTAB
  0
TABLE
  2
LAYER
  5
2
102
{ACAD_XDICTIONARY
360
26F0
102
}
100
AcDbSymbolTable
 70
     5
  0
LAYER
  5
14
100
AcDbSymbolTableRecord
100
AcDbLayerTableRecord
  2
0
 70
     0
 62
     7
  6
CONTINUOUS
  0
LAYER
  5
6EC
102
{ACAD_XDICTIONARY
360
6C3B
102
}
100
AcDbSymbolTableRecord
100
AcDbLayerTableRecord
  2
DEFPOINTS
 70
     0
 62
     7
  6
CONTINUOUS
  0
LAYER
  5
727
100
AcDbSymbolTableRecord
100
AcDbLayerTableRecord
  2
COTATION1
 70
     0
 62
     2
  6
CONTINUOUS
  0
LAYER
  5
728
100
AcDbSymbolTableRecord
100
AcDbLayerTableRecord
  2
AXE
 70
     0
 62
    80
  6
AXES2
  0
LAYER
  5
729
100
AcDbSymbolTableRecord
100
AcDbLayerTableRecord
  2
ALPHA
 70
     0
 62
   254
  6
CONTINUOUS
  0
ENDTAB
  0
TABLE
  2
STYLE
  5
3
100
AcDbSymbolTable
 70
     2
  0
STYLE
  5
17
102
{ACAD_XDICTIONARY
360
6C47
102
}
100
AcDbSymbolTableRecord
100
AcDbTextStyleTableRecord
  2
STANDARD
 70
     0
 40
0.0
 41
1.0
 50
0.0
 71
     0
 42
0.0
  3
txt
  4

  0
STYLE
  5
72B
100
AcDbSymbolTableRecord
100
AcDbTextStyleTableRecord
  2
ROMANS
 70
     0
 40
0.0
 41
1.0
 50
0.0
 71
     0
 42
6.0
  3
romans
  4

  0
ENDTAB
  0
TABLE
  2
VIEW
  5
5
100
AcDbSymbolTable
 70
     0
  0
ENDTAB
  0
TABLE
  2
UCS
  5
6
100
AcDbSymbolTable
 70
     0
  0
ENDTAB
  0
TABLE
  2
APPID
  5
8
100
AcDbSymbolTable
 70
     4
  0
APPID
  5
16
100
AcDbSymbolTableRecord
100
AcDbRegAppTableRecord
  2
ACAD
 70
     0
  0
APPID
  5
26EF
102
{ACAD_XDICTIONARY
360
6C43
102
}
100
AcDbSymbolTableRecord
100
AcDbRegAppTableRecord
  2
ACAECLAYERSTANDARD
 70
     0
  0
APPID
  5
320E
100
AcDbSymbolTableRecord
100
AcDbRegAppTableRecord
  2
DCO15
 70
     0
  0
APPID
  5
3569
102
{ACAD_XDICTIONARY
360
6C45
102
}
100
AcDbSymbolTableRecord
100
AcDbRegAppTableRecord
  2
ACAD_EXEMPT_FROM_CAD_STAND
 70
     0
  0
ENDTAB
  0
TABLE
  2
DIMSTYLE
  5
9
100
AcDbSymbolTable
 70
     2
  0
DIMSTYLE
105
18
102
{ACAD_XDICTIONARY
360
6C39
102
}
100
AcDbSymbolTableRecord
100
AcDbDimStyleTableRecord
  2
STANDARD
 70
     0
  3

  4

  5

  6

  7

 40
1.0
 41
0.18
 42
0.0625
 43
0.38
 44
0.18
 45
0.0
 46
0.0
 47
0.0
 48
0.0
140
0.18
141
0.09
142
0.0
143
25.4
144
1.0
145
0.0
146
1.0
147
0.09
 71
     0
 72
     0
 73
     1
 74
     1
 75
     0
 76
     0
 77
     0
 78
     0
170
     0
171
     2
172
     0
173
     0
174
     0
175
     0
176
     0
177
     0
178
     0
270
     2
271
     4
272
     4
273
     2
274
     2
340
17
275
     0
280
     0
281
     0
282
     0
283
     1
284
     0
285
     0
286
     0
287
     3
288
     0
  0
DIMSTYLE
105
72C
102
{ACAD_XDICTIONARY
360
6C77
102
}
102
{ACAD_REACTORS
330
570F
330
5713
330
5717
330
5718
330
5714
102
}
100
AcDbSymbolTableRecord
100
AcDbDimStyleTableRecord
  2
SC_DEFAUT
 70
     0
  3

  4

  5
OPEN30
  6

  7

 40
1.0
 41
5.0
 42
2.0
 43
0.38
 44
2.5
 45
0.0
 46
0.0
 47
0.0
 48
0.0
140
2.5
141
0.0
142
0.0
143
25.4
144
1.0
145
0.0
146
1.0
147
2.0
 71
     0
 72
     0
 73
     1
 74
     1
 75
     0
 76
     0
 77
     1
 78
    12
170
     0
171
     2
172
     0
173
     0
174
     0
175
     0
176
     0
177
     0
178
     0
270
     2
271
     1
272
     1
273
     2
274
     2
340
72B
275
     0
280
     0
281
     0
282
     0
283
     1
284
    12
285
    12
286
    12
287
     5
288
     0
  0
ENDTAB
  0
TABLE
  2
BLOCK_RECORD
  5
1
100
AcDbSymbolTable
 70
     6
  0
BLOCK_RECORD
  5
A
102
{ACAD_XDICTIONARY
360
7D7
102
}
100
AcDbSymbolTableRecord
100
AcDbBlockTableRecord
  2
*MODEL_SPACE
  0
BLOCK_RECORD
  5
B
102
{ACAD_XDICTIONARY
360
6C6D
102
}
100
AcDbSymbolTableRecord
100
AcDbBlockTableRecord
  2
*PAPER_SPACE
  0
BLOCK_RECORD
  5
6FA
100
AcDbSymbolTableRecord
100
AcDbBlockTableRecord
  2
_OPEN30
  0
BLOCK_RECORD
  5
5724
100
AcDbSymbolTableRecord
100
AcDbBlockTableRecord
  2
*D1
  0
BLOCK_RECORD
  5
5757
100
AcDbSymbolTableRecord
100
AcDbBlockTableRecord
  2
*D2
  0
BLOCK_RECORD
  5
5763
100
AcDbSymbolTableRecord
100
AcDbBlockTableRecord
  2
*D3
  0
BLOCK_RECORD
  5
5770
100
AcDbSymbolTableRecord
100
AcDbBlockTableRecord
  2
*D4
  0
BLOCK_RECORD
  5
577D
100
AcDbSymbolTableRecord
100
AcDbBlockTableRecord
  2
*D5
  0
ENDTAB
  0
ENDSEC
  0
SECTION
  2
BLOCKS
  0
BLOCK
  5
D
100
AcDbEntity
  8
0
100
AcDbBlockBegin
  2
*MODEL_SPACE
 70
     0
 10
0.0
 20
0.0
 30
0.0
  3
*MODEL_SPACE
  1

  0
ENDBLK
  5
E
100
AcDbEntity
  8
0
100
AcDbBlockEnd
  0
BLOCK
  5
F
100
AcDbEntity
 67
     1
  8
0
100
AcDbBlockBegin
  2
*PAPER_SPACE
 70
     0
 10
0.0
 20
0.0
 30
0.0
  3
*PAPER_SPACE
  1

  0
ENDBLK
  5
10
100
AcDbEntity
 67
     1
  8
0
100
AcDbBlockEnd
  0
BLOCK
  5
6FB
100
AcDbEntity
  8
0
100
AcDbBlockBegin
  2
_OPEN30
 70
     0
 10
0.0
 20
0.0
 30
0.0
  3
_OPEN30
  1

  0
LINE
  5
6FC
100
AcDbEntity
  8
COTATION1
 62
     0
100
AcDbLine
 10
-1.0
 20
0.267949
 30
0.0
 11
0.0
 21
0.0
 31
0.0
1001
ACAD
1000
RTLwPs
1070
   158
  0
LINE
  5
6FD
100
AcDbEntity
  8
COTATION1
 62
     0
100
AcDbLine
 10
0.0
 20
0.0
 30
0.0
 11
-1.0
 21
-0.267949
 31
0.0
1001
ACAD
1000
RTLwPs
1070
   158
  0
LINE
  5
6FE
100
AcDbEntity
  8
COTATION1
 62
     0
100
AcDbLine
 10
0.0
 20
0.0
 30
0.0
 11
-1.0
 21
0.0
 31
0.0
1001
ACAD
1000
RTLwPs
1070
   158
  0
ENDBLK
  5
6FF
100
AcDbEntity
  8
0
100
AcDbBlockEnd
  0
BLOCK
  5
572E
100
AcDbEntity
  8
0
100
AcDbBlockBegin
  2
*D1
 70
     1
 10
0.0
 20
0.0
 30
0.0
  3
*D1
  1

1001
ACAD
1000
RTLwPs
1070
   128
  0
LINE
  5
6BFF
100
AcDbEntity
  8
COTATION1
 62
     0
100
AcDbLine
 10
59.979087
 20
83.244643
 30
0.0
 11
59.979087
 21
108.244643
 31
0.0
1001
ACAD
1000
RTLwPs
1070
   158
  0
LINE
  5
6C00
100
AcDbEntity
  8
COTATION1
 62
     0
100
AcDbLine
 10
14.979087
 20
83.244643
 30
0.0
 11
14.979087
 21
108.244643
 31
0.0
1001
ACAD
1000
RTLwPs
1070
   158
  0
LINE
  5
6C01
100
AcDbEntity
  8
COTATION1
 62
     0
100
AcDbLine
 10
54.979087
 20
105.744643
 30
0.0
 11
19.979087
 21
105.744643
 31
0.0
1001
ACAD
1000
RTLwPs
1070
   158
  0
INSERT
  5
6C02
100
AcDbEntity
  8
COTATION1
 62
     0
100
AcDbBlockReference
  2
_OPEN30
 10
59.979087
 20
105.744643
 30
0.0
 41
5.0
 42
5.0
 43
5.0
1001
ACAD
1000
RTLwPs
1070
   158
  0
INSERT
  5
6C03
100
AcDbEntity
  8
COTATION1
 62
     0
100
AcDbBlockReference
  2
_OPEN30
 10
14.979087
 20
105.744643
 30
0.0
 41
5.0
 42
5.0
 43
5.0
 50
180.0
1001
ACAD
1000
RTLwPs
1070
   158
  0
MTEXT
  5
6C04
100
AcDbEntity
  8
COTATION1
 62
     0
100
AcDbMText
 10
37.479087
 20
108.994643
 30
0.0
 40
2.5
 41
0.0
 71
     5
 72
     1
  1
\A1;45
  7
ROMANS
1001
ACAD
1000
MTEXTBEGIN
1070
    73
1070
     1
1070
    44
1040
1.0
1070
    74
1070
     0
1000
MTEXTEND
1000
MTEXTBEGIN
1070
    73
1070
     1
1070
    44
1040
1.0
1070
    74
1070
     0
1000
MTEXTEND
  0
POINT
  5
6C05
100
AcDbEntity
  8
DEFPOINTS
 62
     0
100
AcDbPoint
 10
59.979087
 20
81.244643
 30
0.0
1001
ACAD
1000
RTLwPs
1070
   128
  0
POINT
  5
6C06
100
AcDbEntity
  8
DEFPOINTS
 62
     0
100
AcDbPoint
 10
14.979087
 20
81.244643
 30
0.0
1001
ACAD
1000
RTLwPs
1070
   128
  0
POINT
  5
6C07
100
AcDbEntity
  8
DEFPOINTS
 62
     0
100
AcDbPoint
 10
14.979087
 20
105.744643
 30
0.0
1001
ACAD
1000
RTLwPs
1070
   128
  0
ENDBLK
  5
572F
100
AcDbEntity
  8
0
100
AcDbBlockEnd
1001
ACAD
1000
RTLwPs
1070
   128
  0
BLOCK
  5
5761
100
AcDbEntity
  8
0
100
AcDbBlockBegin
  2
*D2
 70
     1
 10
0.0
 20
0.0
 30
0.0
  3
*D2
  1

1001
ACAD
1000
RTLwPs
1070
   128
  0
LINE
  5
6C08
100
AcDbEntity
  8
COTATION1
 62
     0
100
AcDbLine
 10
54.979087
 20
57.494643
 30
0.0
 11
54.979087
 21
12.975698
 31
0.0
1001
ACAD
1000
RTLwPs
1070
   158
  0
LINE
  5
6C09
100
AcDbEntity
  8
COTATION1
 62
     0
100
AcDbLine
 10
19.979087
 20
57.494643
 30
0.0
 11
19.979087
 21
12.975698
 31
0.0
1001
ACAD
1000
RTLwPs
1070
   158
  0
LINE
  5
6C0A
100
AcDbEntity
  8
COTATION1
 62
     0
100
AcDbLine
 10
49.979087
 20
15.475698
 30
0.0
 11
24.979087
 21
15.475698
 31
0.0
1001
ACAD
1000
RTLwPs
1070
   158
  0
INSERT
  5
6C0B
100
AcDbEntity
  8
COTATION1
 62
     0
100
AcDbBlockReference
  2
_OPEN30
 10
54.979087
 20
15.475698
 30
0.0
 41
5.0
 42
5.0
 43
5.0
1001
ACAD
1000
RTLwPs
1070
   158
  0
INSERT
  5
6C0C
100
AcDbEntity
  8
COTATION1
 62
     0
100
AcDbBlockReference
  2
_OPEN30
 10
19.979087
 20
15.475698
 30
0.0
 41
5.0
 42
5.0
 43
5.0
 50
180.0
1001
ACAD
1000
RTLwPs
1070
   158
  0
MTEXT
  5
6C0D
100
AcDbEntity
  8
COTATION1
 62
     0
100
AcDbMText
 10
37.479087
 20
18.725698
 30
0.0
 40
2.5
 41
0.0
 71
     5
 72
     1
  1
\A1;35
  7
ROMANS
1001
ACAD
1000
MTEXTBEGIN
1070
    73
1070
     1
1070
    44
1040
1.0
1070
    74
1070
     0
1000
MTEXTEND
1000
MTEXTBEGIN
1070
    73
1070
     1
1070
    44
1040
1.0
1070
    74
1070
     0
1000
MTEXTEND
  0
POINT
  5
6C0E
100
AcDbEntity
  8
DEFPOINTS
 62
     0
100
AcDbPoint
 10
54.979087
 20
59.494643
 30
0.0
1001
ACAD
1000
RTLwPs
1070
   128
  0
POINT
  5
6C0F
100
AcDbEntity
  8
DEFPOINTS
 62
     0
100
AcDbPoint
 10
19.979087
 20
59.494643
 30
0.0
1001
ACAD
1000
RTLwPs
1070
   128
  0
POINT
  5
6C10
100
AcDbEntity
  8
DEFPOINTS
 62
     0
100
AcDbPoint
 10
19.979087
 20
15.475698
 30
0.0
1001
ACAD
1000
RTLwPs
1070
   128
  0
ENDBLK
  5
5762
100
AcDbEntity
  8
0
100
AcDbBlockEnd
1001
ACAD
1000
RTLwPs
1070
   128
  0
BLOCK
  5
576E
100
AcDbEntity
  8
0
100
AcDbBlockBegin
  2
*D3
 70
     1
 10
0.0
 20
0.0
 30
0.0
  3
*D3
  1

1001
ACAD
1000
RTLwPs
1070
   128
  0
LINE
  5
6C11
100
AcDbEntity
  8
COTATION1
 62
     0
100
AcDbLine
 10
61.229087
 20
81.244643
 30
0.0
 11
86.001517
 21
81.244643
 31
0.0
1001
ACAD
1000
RTLwPs
1070
   158
  0
LINE
  5
6C12
100
AcDbEntity
  8
COTATION1
 62
     0
100
AcDbLine
 10
61.229087
 20
45.244643
 30
0.0
 11
86.001517
 21
45.244643
 31
0.0
1001
ACAD
1000
RTLwPs
1070
   158
  0
LINE
  5
6C13
100
AcDbEntity
  8
COTATION1
 62
     0
100
AcDbLine
 10
83.501517
 20
76.244643
 30
0.0
 11
83.501517
 21
66.494643
 31
0.0
1001
ACAD
1000
RTLwPs
1070
   158
  0
LINE
  5
6C14
100
AcDbEntity
  8
COTATION1
 62
     0
100
AcDbLine
 10
83.501517
 20
50.244643
 30
0.0
 11
83.501517
 21
59.994643
 31
0.0
1001
ACAD
1000
RTLwPs
1070
   158
  0
INSERT
  5
6C15
100
AcDbEntity
  8
COTATION1
 62
     0
100
AcDbBlockReference
  2
_OPEN30
 10
83.501517
 20
81.244643
 30
0.0
 41
5.0
 42
5.0
 43
5.0
 50
90.0
1001
ACAD
1000
RTLwPs
1070
   158
  0
INSERT
  5
6C16
100
AcDbEntity
  8
COTATION1
 62
     0
100
AcDbBlockReference
  2
_OPEN30
 10
83.501517
 20
45.244643
 30
0.0
 41
5.0
 42
5.0
 43
5.0
 50
270.0
1001
ACAD
1000
RTLwPs
1070
   158
  0
MTEXT
  5
6C17
100
AcDbEntity
  8
COTATION1
 62
     0
100
AcDbMText
 10
83.501517
 20
63.244643
 30
0.0
 40
2.5
 41
0.0
 71
     5
 72
     1
  1
\A1;36
  7
ROMANS
1001
ACAD
1000
MTEXTBEGIN
1070
    73
1070
     1
1070
    44
1040
1.0
1070
    74
1070
     0
1000
MTEXTEND
1000
MTEXTBEGIN
1070
    73
1070
     1
1070
    44
1040
1.0
1070
    74
1070
     0
1000
MTEXTEND
  0
POINT
  5
6C18
100
AcDbEntity
  8
DEFPOINTS
 62
     0
100
AcDbPoint
 10
59.229087
 20
81.244643
 30
0.0
1001
ACAD
1000
RTLwPs
1070
   128
  0
POINT
  5
6C19
100
AcDbEntity
  8
DEFPOINTS
 62
     0
100
AcDbPoint
 10
59.229087
 20
45.244643
 30
0.0
1001
ACAD
1000
RTLwPs
1070
   128
  0
POINT
  5
6C1A
100
AcDbEntity
  8
DEFPOINTS
 62
     0
100
AcDbPoint
 10
83.501517
 20
45.244643
 30
0.0
1001
ACAD
1000
RTLwPs
1070
   128
  0
ENDBLK
  5
576F
100
AcDbEntity
  8
0
100
AcDbBlockEnd
1001
ACAD
1000
RTLwPs
1070
   128
  0
BLOCK
  5
577B
100
AcDbEntity
  8
0
100
AcDbBlockBegin
  2
*D4
 70
     1
 10
0.0
 20
0.0
 30
0.0
  3
*D4
  1

1001
ACAD
1000
RTLwPs
1070
   128
  0
LINE
  5
6C1B
100
AcDbEntity
  8
COTATION1
 62
     0
100
AcDbLine
 10
57.479087
 20
85.744643
 30
0.0
 11
96.001517
 21
85.744643
 31
0.0
1001
ACAD
1000
RTLwPs
1070
   158
  0
LINE
  5
6C1C
100
AcDbEntity
  8
COTATION1
 62
     0
100
AcDbLine
 10
57.479087
 20
40.744643
 30
0.0
 11
96.001517
 21
40.744643
 31
0.0
1001
ACAD
1000
RTLwPs
1070
   158
  0
LINE
  5
6C1D
100
AcDbEntity
  8
COTATION1
 62
     0
100
AcDbLine
 10
93.501517
 20
80.744643
 30
0.0
 11
93.501517
 21
66.494643
 31
0.0
1001
ACAD
1000
RTLwPs
1070
   158
  0
LINE
  5
6C1E
100
AcDbEntity
  8
COTATION1
 62
     0
100
AcDbLine
 10
93.501517
 20
45.744643
 30
0.0
 11
93.501517
 21
59.994643
 31
0.0
1001
ACAD
1000
RTLwPs
1070
   158
  0
INSERT
  5
6C1F
100
AcDbEntity
  8
COTATION1
 62
     0
100
AcDbBlockReference
  2
_OPEN30
 10
93.501517
 20
85.744643
 30
0.0
 41
5.0
 42
5.0
 43
5.0
 50
90.0
1001
ACAD
1000
RTLwPs
1070
   158
  0
INSERT
  5
6C20
100
AcDbEntity
  8
COTATION1
 62
     0
100
AcDbBlockReference
  2
_OPEN30
 10
93.501517
 20
40.744643
 30
0.0
 41
5.0
 42
5.0
 43
5.0
 50
270.0
1001
ACAD
1000
RTLwPs
1070
   158
  0
MTEXT
  5
6C21
100
AcDbEntity
  8
COTATION1
 62
     0
100
AcDbMText
 10
93.501517
 20
63.244643
 30
0.0
 40
2.5
 41
0.0
 71
     5
 72
     1
  1
\A1;45
  7
ROMANS
1001
ACAD
1000
MTEXTBEGIN
1070
    73
1070
     1
1070
    44
1040
1.0
1070
    74
1070
     0
1000
MTEXTEND
1000
MTEXTBEGIN
1070
    73
1070
     1
1070
    44
1040
1.0
1070
    74
1070
     0
1000
MTEXTEND
  0
POINT
  5
6C22
100
AcDbEntity
  8
DEFPOINTS
 62
     0
100
AcDbPoint
 10
55.479087
 20
85.744643
 30
0.0
1001
ACAD
1000
RTLwPs
1070
   128
  0
POINT
  5
6C23
100
AcDbEntity
  8
DEFPOINTS
 62
     0
100
AcDbPoint
 10
55.479087
 20
40.744643
 30
0.0
1001
ACAD
1000
RTLwPs
1070
   128
  0
POINT
  5
6C24
100
AcDbEntity
  8
DEFPOINTS
 62
     0
100
AcDbPoint
 10
93.501517
 20
40.744643
 30
0.0
1001
ACAD
1000
RTLwPs
1070
   128
  0
ENDBLK
  5
577C
100
AcDbEntity
  8
0
100
AcDbBlockEnd
1001
ACAD
1000
RTLwPs
1070
   128
  0
BLOCK
  5
5787
100
AcDbEntity
  8
0
100
AcDbBlockBegin
  2
*D5
 70
     1
 10
0.0
 20
0.0
 30
0.0
  3
*D5
  1

1001
ACAD
1000
RTLwPs
1070
   128
  0
LINE
  5
6C25
100
AcDbEntity
  8
COTATION1
 62
     0
100
AcDbLine
 10
55.479087
 20
39.494643
 30
0.0
 11
55.479087
 21
2.975698
 31
0.0
1001
ACAD
1000
RTLwPs
1070
   158
  0
LINE
  5
6C26
100
AcDbEntity
  8
COTATION1
 62
     0
100
AcDbLine
 10
19.479087
 20
39.494643
 30
0.0
 11
19.479087
 21
2.975698
 31
0.0
1001
ACAD
1000
RTLwPs
1070
   158
  0
LINE
  5
6C27
100
AcDbEntity
  8
COTATION1
 62
     0
100
AcDbLine
 10
50.479087
 20
5.475698
 30
0.0
 11
24.479087
 21
5.475698
 31
0.0
1001
ACAD
1000
RTLwPs
1070
   158
  0
INSERT
  5
6C28
100
AcDbEntity
  8
COTATION1
 62
     0
100
AcDbBlockReference
  2
_OPEN30
 10
55.479087
 20
5.475698
 30
0.0
 41
5.0
 42
5.0
 43
5.0
1001
ACAD
1000
RTLwPs
1070
   158
  0
INSERT
  5
6C29
100
AcDbEntity
  8
COTATION1
 62
     0
100
AcDbBlockReference
  2
_OPEN30
 10
19.479087
 20
5.475698
 30
0.0
 41
5.0
 42
5.0
 43
5.0
 50
180.0
1001
ACAD
1000
RTLwPs
1070
   158
  0
MTEXT
  5
6C2A
100
AcDbEntity
  8
COTATION1
 62
     0
100
AcDbMText
 10
37.479087
 20
8.725698
 30
0.0
 40
2.5
 41
0.0
 71
     5
 72
     1
  1
\A1;36
  7
ROMANS
1001
ACAD
1000
MTEXTBEGIN
1070
    73
1070
     1
1070
    44
1040
1.0
1070
    74
1070
     0
1000
MTEXTEND
1000
MTEXTBEGIN
1070
    73
1070
     1
1070
    44
1040
1.0
1070
    74
1070
     0
1000
MTEXTEND
  0
POINT
  5
6C2B
100
AcDbEntity
  8
DEFPOINTS
 62
     0
100
AcDbPoint
 10
55.479087
 20
41.494643
 30
0.0
1001
ACAD
1000
RTLwPs
1070
   128
  0
POINT
  5
6C2C
100
AcDbEntity
  8
DEFPOINTS
 62
     0
100
AcDbPoint
 10
19.479087
 20
41.494643
 30
0.0
1001
ACAD
1000
RTLwPs
1070
   128
  0
POINT
  5
6C2D
100
AcDbEntity
  8
DEFPOINTS
 62
     0
100
AcDbPoint
 10
19.479087
 20
5.475698
 30
0.0
1001
ACAD
1000
RTLwPs
1070
   128
  0
ENDBLK
  5
5788
100
AcDbEntity
  8
0
100
AcDbBlockEnd
1001
ACAD
1000
RTLwPs
1070
   128
  0
ENDSEC
  0
SECTION
  2
ENTITIES
  0
LINE
  5
56E2
100
AcDbEntity
  8
AXE
100
AcDbLine
 10
74.979087
 20
63.244643
 30
0.0
 11
9.979087
 21
63.244643
 31
0.0
  0
LINE
  5
56E5
100
AcDbEntity
  8
AXE
100
AcDbLine
 10
23.229087
 20
81.244643
 30
0.0
 11
15.729087
 21
81.244643
 31
0.0
  0
LINE
  5
56E6
100
AcDbEntity
  8
AXE
100
AcDbLine
 10
37.479087
 20
95.744643
 30
0.0
 11
37.479087
 21
25.744643
 31
0.0
  0
LINE
  5
56E7
100
AcDbEntity
  8
ALPHA
  6
CONTINUOUS
100
AcDbLine
 10
14.979087
 20
45.244643
 30
0.0
 11
14.979087
 21
81.244643
 31
0.0
1001
ACAD
1000
RTLwPs
1070
   128
  0
ARC
  5
56E8
100
AcDbEntity
  8
ALPHA
  6
CONTINUOUS
100
AcDbCircle
 10
19.479087
 20
45.244643
 30
0.0
 40
4.5
100
AcDbArc
 50
180.0
 51
270.0
1001
ACAD
1000
RTLwPs
1070
   128
  0
LINE
  5
56E9
100
AcDbEntity
  8
ALPHA
  6
CONTINUOUS
100
AcDbLine
 10
19.479087
 20
85.744643
 30
0.0
 11
55.479087
 21
85.744643
 31
0.0
1001
ACAD
1000
RTLwPs
1070
   128
  0
ARC
  5
56EA
100
AcDbEntity
  8
ALPHA
  6
CONTINUOUS
100
AcDbCircle
 10
19.479087
 20
81.244643
 30
0.0
 40
4.5
100
AcDbArc
 50
90.0
 51
180.0
1001
ACAD
1000
RTLwPs
1070
   128
  0
LINE
  5
56EB
100
AcDbEntity
  8
ALPHA
  6
CONTINUOUS
100
AcDbLine
 10
59.979087
 20
81.244643
 30
0.0
 11
59.979087
 21
45.244643
 31
0.0
1001
ACAD
1000
RTLwPs
1070
   128
  0
ARC
  5
56EC
100
AcDbEntity
  8
ALPHA
  6
CONTINUOUS
100
AcDbCircle
 10
55.479087
 20
81.244643
 30
0.0
 40
4.5
100
AcDbArc
 50
0.0
 51
90.0
1001
ACAD
1000
RTLwPs
1070
   128
  0
LINE
  5
56ED
100
AcDbEntity
  8
ALPHA
  6
CONTINUOUS
100
AcDbLine
 10
55.479087
 20
40.744643
 30
0.0
 11
19.479087
 21
40.744643
 31
0.0
1001
ACAD
1000
RTLwPs
1070
   128
  0
ARC
  5
56EE
100
AcDbEntity
  8
ALPHA
  6
CONTINUOUS
100
AcDbCircle
 10
55.479087
 20
45.244643
 30
0.0
 40
4.5
100
AcDbArc
 50
270.0
 51
0.0
1001
ACAD
1000
RTLwPs
1070
   128
  0
LINE
  5
56EF
100
AcDbEntity
  8
AXE
100
AcDbLine
 10
19.479087
 20
84.994643
 30
0.0
 11
19.479087
 21
77.494643
 31
0.0
  0
TEXT
  5
56F0
100
AcDbEntity
  8
AXE
100
AcDbText
 10
30.002896
 20
25.744643
 30
0.0
 40
8.0
  1
Y
  7
ROMANS
 72
     2
 11
36.479087
 21
25.744643
 31
0.0
100
AcDbText
  0
CIRCLE
  5
56F1
100
AcDbEntity
  8
ALPHA
  6
CONTINUOUS
100
AcDbCircle
 10
37.479087
 20
63.244643
 30
0.0
 40
11.0
1001
ACAD
1000
RTLwPs
1070
   128
  0
CIRCLE
  5
56F2
100
AcDbEntity
  8
ALPHA
  6
CONTINUOUS
100
AcDbCircle
 10
19.479087
 20
81.244643
 30
0.0
 40
1.75
1001
ACAD
1000
RTLwPs
1070
   128
  0
LINE
  5
56F3
100
AcDbEntity
  8
AXE
100
AcDbLine
 10
23.229087
 20
45.244643
 30
0.0
 11
15.729087
 21
45.244643
 31
0.0
  0
LINE
  5
56F4
100
AcDbEntity
  8
AXE
100
AcDbLine
 10
19.479087
 20
41.494643
 30
0.0
 11
19.479087
 21
48.994643
 31
0.0
  0
CIRCLE
  5
56F5
100
AcDbEntity
  8
ALPHA
  6
CONTINUOUS
100
AcDbCircle
 10
19.479087
 20
45.244643
 30
0.0
 40
1.75
1001
ACAD
1000
RTLwPs
1070
   128
  0
LINE
  5
56F6
100
AcDbEntity
  8
AXE
100
AcDbLine
 10
51.729087
 20
81.244643
 30
0.0
 11
59.229087
 21
81.244643
 31
0.0
  0
LINE
  5
56F7
100
AcDbEntity
  8
AXE
100
AcDbLine
 10
55.479087
 20
84.994643
 30
0.0
 11
55.479087
 21
77.494643
 31
0.0
  0
CIRCLE
  5
56F8
100
AcDbEntity
  8
ALPHA
  6
CONTINUOUS
100
AcDbCircle
 10
55.479087
 20
81.244643
 30
0.0
 40
1.75
1001
ACAD
1000
RTLwPs
1070
   128
  0
LINE
  5
56F9
100
AcDbEntity
  8
AXE
100
AcDbLine
 10
51.729087
 20
45.244643
 30
0.0
 11
59.229087
 21
45.244643
 31
0.0
  0
LINE
  5
56FA
100
AcDbEntity
  8
AXE
100
AcDbLine
 10
55.479087
 20
41.494643
 30
0.0
 11
55.479087
 21
48.994643
 31
0.0
  0
CIRCLE
  5
56FB
100
AcDbEntity
  8
ALPHA
  6
CONTINUOUS
100
AcDbCircle
 10
55.479087
 20
45.244643
 30
0.0
 40
1.75
1001
ACAD
1000
RTLwPs
1070
   128
  0
LINE
  5
5702
100
AcDbEntity
  8
AXE
100
AcDbLine
 10
16.229087
 20
63.244643
 30
0.0
 11
23.729087
 21
63.244643
 31
0.0
  0
LINE
  5
5703
100
AcDbEntity
  8
AXE
100
AcDbLine
 10
19.979087
 20
66.994643
 30
0.0
 11
19.979087
 21
59.494643
 31
0.0
  0
CIRCLE
  5
5704
100
AcDbEntity
  8
ALPHA
  6
CONTINUOUS
100
AcDbCircle
 10
19.979087
 20
63.244643
 30
0.0
 40
1.75
1001
ACAD
1000
RTLwPs
1070
   128
  0
LINE
  5
5705
100
AcDbEntity
  8
AXE
100
AcDbLine
 10
58.729087
 20
63.244643
 30
0.0
 11
51.229087
 21
63.244643
 31
0.0
  0
LINE
  5
5706
100
AcDbEntity
  8
AXE
100
AcDbLine
 10
54.979087
 20
66.994643
 30
0.0
 11
54.979087
 21
59.494643
 31
0.0
  0
CIRCLE
  5
5707
100
AcDbEntity
  8
ALPHA
  6
CONTINUOUS
100
AcDbCircle
 10
54.979087
 20
63.244643
 30
0.0
 40
1.75
1001
ACAD
1000
RTLwPs
1070
   128
  0
TEXT
  5
570E
100
AcDbEntity
  8
AXE
100
AcDbText
 10
68.463214
 20
64.248913
 30
0.0
 40
8.0
  1
X
  7
ROMANS
 72
     2
 11
74.939405
 21
64.248913
 31
0.0
100
AcDbText
  0
DIMENSION
  5
570F
100
AcDbEntity
  8
COTATION1
100
AcDbDimension
  2
*D1
 10
14.979087
 20
105.744643
 30
0.0
 11
37.479087
 21
108.994643
 31
0.0
 70
    32
  3
SC_DEFAUT
100
AcDbAlignedDimension
 13
59.979087
 23
81.244643
 33
0.0
 14
14.979087
 24
81.244643
 34
0.0
100
AcDbRotatedDimension
  0
DIMENSION
  5
5713
100
AcDbEntity
  8
COTATION1
100
AcDbDimension
  2
*D2
 10
19.979087
 20
15.475698
 30
0.0
 11
37.479087
 21
18.725698
 31
0.0
 70
    32
  3
SC_DEFAUT
100
AcDbAlignedDimension
 13
54.979087
 23
59.494643
 33
0.0
 14
19.979087
 24
59.494643
 34
0.0
100
AcDbRotatedDimension
  0
DIMENSION
  5
5714
100
AcDbEntity
  8
COTATION1
100
AcDbDimension
  2
*D3
 10
83.501517
 20
45.244643
 30
0.0
 11
83.501517
 21
63.244643
 31
0.0
 70
    32
  3
SC_DEFAUT
100
AcDbAlignedDimension
 13
59.229087
 23
81.244643
 33
0.0
 14
59.229087
 24
45.244643
 34
0.0
 50
90.0
100
AcDbRotatedDimension
  0
CIRCLE
  5
5716
100
AcDbEntity
  8
ALPHA
  6
CONTINUOUS
100
AcDbCircle
 10
37.479087
 20
63.244643
 30
0.0
 40
4.75
1001
ACAD
1000
RTLwPs
1070
   128
  0
DIMENSION
  5
5717
100
AcDbEntity
  8
COTATION1
100
AcDbDimension
  2
*D4
 10
93.501517
 20
40.744643
 30
0.0
 11
93.501517
 21
63.244643
 31
0.0
 70
    32
  3
SC_DEFAUT
100
AcDbAlignedDimension
 13
55.479087
 23
85.744643
 33
0.0
 14
55.479087
 24
40.744643
 34
0.0
 50
90.0
100
AcDbRotatedDimension
  0
DIMENSION
  5
5718
100
AcDbEntity
  8
COTATION1
100
AcDbDimension
  2
*D5
 10
19.479087
 20
5.475698
 30
0.0
 11
37.479087
 21
8.725698
 31
0.0
 70
    32
  3
SC_DEFAUT
100
AcDbAlignedDimension
 13
55.479087
 23
41.494643
 33
0.0
 14
19.479087
 24
41.494643
 34
0.0
100
AcDbRotatedDimension
  0
LINE
  5
571C
100
AcDbEntity
  8
AXE
100
AcDbLine
 10
19.979087
 20
59.494643
 30
0.0
 11
19.979087
 21
66.994643
 31
0.0
  0
LINE
  5
571E
100
AcDbEntity
  8
ALPHA
  6
CONTINUOUS
100
AcDbLine
 10
40.139094
 20
79.357429
 30
0.0
 11
36.091872
 21
83.40465
 31
0.0
1001
ACAD
1000
RTLwPs
1070
   128
  0
LINE
  5
571F
100
AcDbEntity
  8
ALPHA
  6
CONTINUOUS
100
AcDbLine
 10
38.866301
 20
78.084636
 30
0.0
 11
34.81908
 21
82.131858
 31
0.0
1001
ACAD
1000
RTLwPs
1070
   128
  0
CIRCLE
  5
5720
100
AcDbEntity
  8
ALPHA
  6
CONTINUOUS
100
AcDbCircle
 10
37.479087
 20
80.744643
 30
0.0
 40
3.0
1001
ACAD
1000
RTLwPs
1070
   128
  0
LINE
  5
57EC
100
AcDbEntity
  8
ALPHA
  6
CONTINUOUS
100
AcDbLine
 10
40.139094
 20
44.357429
 30
0.0
 11
36.091872
 21
48.40465
 31
0.0
1001
ACAD
1000
RTLwPs
1070
   128
  0
LINE
  5
57ED
100
AcDbEntity
  8
ALPHA
  6
CONTINUOUS
100
AcDbLine
 10
38.866301
 20
43.084636
 30
0.0
 11
34.81908
 21
47.131858
 31
0.0
1001
ACAD
1000
RTLwPs
1070
   128
  0
CIRCLE
  5
57EE
100
AcDbEntity
  8
ALPHA
  6
CONTINUOUS
100
AcDbCircle
 10
37.479087
 20
45.744643
 30
0.0
 40
3.0
1001
ACAD
1000
RTLwPs
1070
   128
  0
LINE
  5
57EF
100
AcDbEntity
  8
ALPHA
  6
CONTINUOUS
100
AcDbLine
 10
43.979087
 20
90.744643
 30
0.0
 11
37.479087
 21
90.744643
 31
0.0
1001
ACAD
1000
RTLwPs
1070
   128
  0
LINE
  5
57F0
100
AcDbEntity
  8
ALPHA
  6
CONTINUOUS
100
AcDbLine
 10
43.979087
 20
89.994643
 30
0.0
 11
37.479087
 21
89.994643
 31
0.0
1001
ACAD
1000
RTLwPs
1070
   128
  0
LINE
  5
57FC
100
AcDbEntity
  8
ALPHA
  6
CONTINUOUS
100
AcDbLine
 10
45.979087
 20
88.744643
 30
0.0
 11
45.979087
 21
85.744643
 31
0.0
1001
ACAD
1000
RTLwPs
1070
   128
  0
ARC
  5
57FD
100
AcDbEntity
  8
ALPHA
  6
CONTINUOUS
100
AcDbCircle
 10
43.979087
 20
88.744643
 30
0.0
 40
2.0
100
AcDbArc
 50
0.0
 51
90.0
1001
ACAD
1000
RTLwPs
1070
   128
  0
ARC
  5
57FE
100
AcDbEntity
  8
ALPHA
  6
CONTINUOUS
100
AcDbCircle
 10
43.979087
 20
88.744643
 30
0.0
 40
1.25
100
AcDbArc
 50
0.0
 51
90.0
1001
ACAD
1000
RTLwPs
1070
   128
  0
LINE
  5
57FF
100
AcDbEntity
  8
ALPHA
  6
CONTINUOUS
100
AcDbLine
 10
45.229087
 20
88.744643
 30
0.0
 11
45.229087
 21
85.744643
 31
0.0
1001
ACAD
1000
RTLwPs
1070
   128
  0
LINE
  5
5800
100
AcDbEntity
  8
ALPHA
  6
CONTINUOUS
100
AcDbLine
 10
28.979087
 20
88.744643
 30
0.0
 11
28.979087
 21
85.744643
 31
0.0
1001
ACAD
1000
RTLwPs
1070
   128
  0
LINE
  5
5801
100
AcDbEntity
  8
ALPHA
  6
CONTINUOUS
100
AcDbLine
 10
29.729087
 20
88.744643
 30
0.0
 11
29.729087
 21
85.744643
 31
0.0
1001
ACAD
1000
RTLwPs
1070
   128
  0
ARC
  5
5802
100
AcDbEntity
  8
ALPHA
  6
CONTINUOUS
100
AcDbCircle
 10
30.979087
 20
88.744643
 30
0.0
 40
2.0
100
AcDbArc
 50
90.0
 51
180.0
1001
ACAD
1000
RTLwPs
1070
   128
  0
ARC
  5
5803
100
AcDbEntity
  8
ALPHA
  6
CONTINUOUS
100
AcDbCircle
 10
30.979087
 20
88.744643
 30
0.0
 40
1.25
100
AcDbArc
 50
90.0
 51
180.0
1001
ACAD
1000
RTLwPs
1070
   128
  0
LINE
  5
5804
100
AcDbEntity
  8
ALPHA
  6
CONTINUOUS
100
AcDbLine
 10
30.979087
 20
90.744643
 30
0.0
 11
37.479087
 21
90.744643
 31
0.0
1001
ACAD
1000
RTLwPs
1070
   128
  0
LINE
  5
5805
100
AcDbEntity
  8
ALPHA
  6
CONTINUOUS
100
AcDbLine
 10
30.979087
 20
89.994643
 30
0.0
 11
37.479087
 21
89.994643
 31
0.0
1001
ACAD
1000
RTLwPs
1070
   128
  0
LINE
  5
5883
100
AcDbEntity
  8
ALPHA
  6
CONTINUOUS
100
AcDbLine
 10
46.479087
 20
69.569198
 30
0.0
 11
46.479087
 21
56.920088
 31
0.0
1001
ACAD
1000
RTLwPs
1070
   128
  0
LINE
  5
5884
100
AcDbEntity
  8
ALPHA
  6
CONTINUOUS
100
AcDbLine
 10
47.379087
 20
68.039432
 30
0.0
 11
47.379087
 21
58.449854
 31
0.0
1001
ACAD
1000
RTLwPs
1070
   128
  0
LINE
  5
5885
100
AcDbEntity
  8
ALPHA
  6
CONTINUOUS
100
AcDbLine
 10
50.040743
 20
65.494643
 30
0.0
 11
48.246515
 21
65.494643
 31
0.0
1001
ACAD
1000
RTLwPs
1070
   128
  0
LINE
  5
5887
100
AcDbEntity
  8
ALPHA
  6
CONTINUOUS
100
AcDbLine
 10
51.246515
 20
60.994643
 30
0.0
 11
48.246515
 21
60.994643
 31
0.0
1001
ACAD
1000
RTLwPs
1070
   128
  0
LINE
  5
5889
100
AcDbEntity
  8
ALPHA
  6
CONTINUOUS
100
AcDbLine
 10
50.040743
 20
65.494643
 30
0.0
 11
51.246515
 21
60.994643
 31
0.0
1001
ACAD
1000
RTLwPs
1070
   128
  0
LINE
  5
588A
100
AcDbEntity
  8
ALPHA
  6
CONTINUOUS
100
AcDbLine
 10
24.917431
 20
65.494643
 30
0.0
 11
26.711659
 21
65.494643
 31
0.0
1001
ACAD
1000
RTLwPs
1070
   128
  0
LINE
  5
588B
100
AcDbEntity
  8
ALPHA
  6
CONTINUOUS
100
AcDbLine
 10
23.711659
 20
60.994643
 30
0.0
 11
26.711659
 21
60.994643
 31
0.0
1001
ACAD
1000
RTLwPs
1070
   128
  0
LINE
  5
588C
100
AcDbEntity
  8
ALPHA
  6
CONTINUOUS
100
AcDbLine
 10
24.917431
 20
65.494643
 30
0.0
 11
23.711659
 21
60.994643
 31
0.0
1001
ACAD
1000
RTLwPs
1070
   128
  0
LINE
  5
588D
100
AcDbEntity
  8
ALPHA
  6
CONTINUOUS
100
AcDbLine
 10
28.479087
 20
69.569198
 30
0.0
 11
28.479087
 21
56.920088
 31
0.0
1001
ACAD
1000
RTLwPs
1070
   128
  0
LINE
  5
588E
100
AcDbEntity
  8
ALPHA
  6
CONTINUOUS
100
AcDbLine
 10
27.579087
 20
68.039432
 30
0.0
 11
27.579087
 21
58.449854
 31
0.0
1001
ACAD
1000
RTLwPs
1070
   128
  0
ENDSEC
  0
SECTION
  2
OBJECTS
  0
DICTIONARY
  5
19
102
{ACAD_XDICTIONARY
360
6C6F
102
}
100
AcDbDictionary
  3
ACAD_COLOR
350
6DB
  3
ACAD_GROUP
350
1A
  3
ACAD_LAYOUT
350
1E
  3
ACAD_MATERIAL
350
6DA
  3
ACAD_MLINESTYLE
350
1B
  3
ACAD_PLOTSETTINGS
350
22
  3
ACAD_PLOTSTYLENAME
350
1F
  3
ACAD_TABLESTYLE
350
6DC
  3
ACAD_WIPEOUT_VARS
350
23
  3
ACDBHEADERROUNDTRIPXREC
350
6C4B
  3
ACDBVARIABLEDICTIONARY
350
7DA
  3
ASE_INDEX_DICTIONARY
350
3571
  0
DICTIONARY
  5
6C3D
100
AcDbDictionary
  3
ACAD_XREC_ROUNDTRIP
360
6C3E
  0
DICTIONARY
  5
6C3F
100
AcDbDictionary
  3
ACAD_XREC_ROUNDTRIP
360
6C40
  0
DICTIONARY
  5
6C41
100
AcDbDictionary
  3
ACAD_XREC_ROUNDTRIP
360
6C42
  0
DICTIONARY
  5
26F0
100
AcDbDictionary
  3
ACAD_LAYERFILTERS
360
26F2
  3
ACAD_LAYERSTATES
360
3474
  3
ACLYDICTIONARY
360
26F1
  0
DICTIONARY
  5
6C3B
100
AcDbDictionary
  3
ACAD_XREC_ROUNDTRIP
360
6C3C
  0
DICTIONARY
  5
6C47
100
AcDbDictionary
  3
ACAD_XREC_ROUNDTRIP
360
6C48
  0
DICTIONARY
  5
6C43
100
AcDbDictionary
  3
ACAD_XREC_ROUNDTRIP
360
6C44
  0
DICTIONARY
  5
6C45
100
AcDbDictionary
  3
ACAD_XREC_ROUNDTRIP
360
6C46
  0
DICTIONARY
  5
6C39
100
AcDbDictionary
  3
ACAD_XREC_ROUNDTRIP
360
6C3A
  0
DICTIONARY
  5
6C77
100
AcDbDictionary
  3
ACAD_XREC_ROUNDTRIP
360
6C78
  0
DICTIONARY
  5
7D7
100
AcDbDictionary
  3
ACAD_LAYOUTSELFREF
360
6C6C
  3
ACAD_SORTENTS
360
7D8
  0
DICTIONARY
  5
6C6D
100
AcDbDictionary
  3
ACAD_LAYOUTSELFREF
360
6C6E
  0
DICTIONARY
  5
6C6F
100
AcDbDictionary
  3
ACAD_XREC_ROUNDTRIP
360
6C70
  0
DICTIONARY
  5
6DB
102
{ACAD_REACTORS
330
19
102
}
100
AcDbDictionary
  0
DICTIONARY
  5
1A
102
{ACAD_REACTORS
330
19
102
}
100
AcDbDictionary
  0
DICTIONARY
  5
1E
102
{ACAD_XDICTIONARY
360
6C73
102
}
102
{ACAD_REACTORS
330
19
102
}
100
AcDbDictionary
  3
LAYOUT1
350
21
  3
MODEL
350
20
  0
DICTIONARY
  5
6DA
102
{ACAD_REACTORS
330
19
102
}
100
AcDbDictionary
  0
DICTIONARY
  5
1B
102
{ACAD_XDICTIONARY
360
6C71
102
}
102
{ACAD_REACTORS
330
19
102
}
100
AcDbDictionary
  3
STANDARD
350
1C
  0
DICTIONARY
  5
22
102
{ACAD_REACTORS
330
19
102
}
100
AcDbDictionary
  0
ACAD_ZOMBIE_OBJECT
  5
1F
102
{ACAD_REACTORS
330
19
102
}
100
AcDbZombieObject
 90
      499
 91
      517
 93
       86
310
405010041939BDC9B585B1
350
1D
340
1D
 94
        0
  0
DICTIONARY
  5
6DC
102
{ACAD_XDICTIONARY
360
6C75
102
}
102
{ACAD_REACTORS
330
19
102
}
100
AcDbDictionary
  3
STANDARD
350
6DD
  0
ACAD_ZOMBIE_OBJECT
  5
23
102
{ACAD_REACTORS
330
19
102
}
100
AcDbZombieObject
 90
      499
 91
      521
 93
       10
310
4045
 94
        0
  0
DICTIONARY
  5
6C4B
102
{ACAD_REACTORS
330
19
102
}
100
AcDbDictionary
  3
CEPSNTYPE
350
6C55
  3
DIMSTYLEDATA
350
6C59
  3
FINGERPRINTGUID
350
6C56
  3
HYPERLINKBASE
350
6C4E
  3
INSUNITS
350
6C54
  3
LAYOUTDICT
350
6C50
  3
LWETCUNION
350
6C53
  3
PLOTSETDICT
350
6C51
  3
PLOTSTYLNAMDICT
350
6C52
  3
PSVPSCALE
350
6C58
  3
PUCSBASE
350
6C5C
  3
PUCSORGBACK
350
6C62
  3
PUCSORGBOTTOM
350
6C5E
  3
PUCSORGFRONT
350
6C61
  3
PUCSORGLEFT
350
6C5F
  3
PUCSORGRIGHT
350
6C60
  3
PUCSORGTOP
350
6C5D
  3
PUCSORTHOREF
350
6C5A
  3
PUCSORTHOVIEW
350
6C5B
  3
STYLESHEET
350
6C4F
  3
TSTACKALIGN
350
6C4C
  3
TSTACKSIZE
350
6C4D
  3
UCSBASE
350
6C65
  3
UCSORGBACK
350
6C6B
  3
UCSORGBOTTOM
350
6C67
  3
UCSORGFRONT
350
6C6A
  3
UCSORGLEFT
350
6C68
  3
UCSORGRIGHT
350
6C69
  3
UCSORGTOP
350
6C66
  3
UCSORTHOREF
350
6C63
  3
UCSORTHOVIEW
350
6C64
  3
VERSIONGUID
350
6C57
  0
DICTIONARY
  5
7DA
102
{ACAD_REACTORS
330
19
102
}
100
AcDbDictionary
  3
CTABLESTYLE
350
7DB
  3
DIMASSOC
350
1A71
  3
PROJECTNAME
350
1A72
  0
DICTIONARY
  5
3571
102
{ACAD_XDICTIONARY
360
6C79
102
}
102
{ACAD_REACTORS
330
19
102
}
100
AcDbDictionary
  3
ASEBLOCKHIERARCHYINDEXRECORD
350
3572
1001
DCO15
1040
1558939622.437
  0
XRECORD
  5
6C3E
102
{ACAD_REACTORS
330
6C3D
102
}
100
AcDbXrecord
102
EXTNAMES
  1
BYBLOCK
  2
ByBlock
  0
XRECORD
  5
6C40
102
{ACAD_REACTORS
330
6C3F
102
}
100
AcDbXrecord
102
EXTNAMES
  1
BYLAYER
  2
ByLayer
  0
XRECORD
  5
6C42
102
{ACAD_REACTORS
330
6C41
102
}
100
AcDbXrecord
102
EXTNAMES
  1
CONTINUOUS
  2
Continuous
  0
DICTIONARY
  5
26F2
102
{ACAD_REACTORS
330
26F0
102
}
100
AcDbDictionary
  0
DICTIONARY
  5
3474
102
{ACAD_REACTORS
330
26F0
102
}
100
AcDbDictionary
  0
DICTIONARY
  5
26F1
102
{ACAD_REACTORS
330
26F0
102
}
100
AcDbDictionary
1001
ACAD
1000
<All
  0
XRECORD
  5
6C3C
102
{ACAD_REACTORS
330
6C3B
102
}
100
AcDbXrecord
102
EXTNAMES
  1
DEFPOINTS
  2
Defpoints
102
PLOTBIT
280
     0
  0
XRECORD
  5
6C48
102
{ACAD_REACTORS
330
6C47
102
}
100
AcDbXrecord
102
EXTNAMES
  1
STANDARD
  2
Standard
  0
XRECORD
  5
6C44
102
{ACAD_REACTORS
330
6C43
102
}
100
AcDbXrecord
102
EXTNAMES
  1
ACAECLAYERSTANDARD
  2
AcAecLayerStandard
  0
XRECORD
  5
6C46
102
{ACAD_REACTORS
330
6C45
102
}
100
AcDbXrecord
102
EXTNAMES
  1
ACAD_EXEMPT_FROM_CAD_STAND
  2
ACAD_EXEMPT_FROM_CAD_STANDARDS
  0
XRECORD
  5
6C3A
102
{ACAD_REACTORS
330
6C39
102
}
100
AcDbXrecord
102
EXTNAMES
  1
STANDARD
  2
Standard
  0
XRECORD
  5
6C78
102
{ACAD_REACTORS
330
6C77
102
}
100
AcDbXrecord
102
ACADR14ROUNDTRIP
1000
DSTYLE
1002
{
1070
   279
 70
     2
1070
   341
340
6FA
1070
   342
340
6FA
1002
}
  0
XRECORD
  5
6C6C
102
{ACAD_REACTORS
330
7D7
102
}
100
AcDbXrecord
340
A
  0
SORTENTSTABLE
  5
7D8
102
{ACAD_REACTORS
330
7D7
102
}
100
AcDbSortentsTable
330
A
331
56F1
  5
5705
331
588E
  5
588E
331
56F0
  5
5704
331
570F
  5
57EE
331
5805
  5
5886
331
588D
  5
588D
331
56EF
  5
5703
331
571F
  5
57FF
331
570E
  5
57ED
331
5804
  5
5885
331
588C
  5
588C
331
56EE
  5
5702
331
571E
  5
57FE
331
5803
  5
5884
331
588B
  5
588B
331
56ED
  5
56F9
331
5802
  5
5883
331
571C
  5
57FD
331
588A
  5
588A
331
56EC
  5
56F8
331
5801
  5
5805
331
5889
  5
5889
331
56EB
  5
56F7
331
5800
  5
5804
331
56FB
  5
571A
331
56EA
  5
56F5
331
57FF
  5
56ED
331
57F0
  5
56FB
331
56FA
  5
5718
331
56E9
  5
56F4
331
5887
  5
5887
331
57FE
  5
56F0
331
57EF
  5
56FA
331
56F9
  5
5717
331
56E8
  5
56F3
331
5718
  5
57FC
331
57FD
  5
56EE
331
57EE
  5
5803
331
5707
  5
57EC
331
56F8
  5
5716
331
56E7
  5
56F1
331
5717
  5
57F2
331
5885
  5
56E5
331
57FC
  5
56EC
331
57ED
  5
5802
331
5706
  5
5722
331
56F7
  5
5714
331
5884
  5
56EB
331
56E6
  5
56E8
331
5716
  5
57F1
331
57EC
  5
5801
331
5705
  5
5721
331
56F6
  5
5713
331
5883
  5
56E9
331
56E5
  5
56E7
331
5704
  5
5720
331
56F5
  5
570F
331
5714
  5
57F0
331
5703
  5
571E
331
56F4
  5
570E
331
5713
  5
57EF
331
5702
  5
571B
331
56F3
  5
5707
331
56E2
  5
56E2
331
56F2
  5
5706
331
5720
  5
5800
  0
XRECORD
  5
6C6E
102
{ACAD_REACTORS
330
6C6D
102
}
100
AcDbXrecord
340
B
  0
XRECORD
  5
6C70
102
{ACAD_REACTORS
330
6C6F
102
}
100
AcDbXrecord
102
EXTNAMES
  1
ACDBVARIABLEDICTIONARY
  2
AcDbVariableDictionary
  0
DICTIONARY
  5
6C73
100
AcDbDictionary
  3
ACAD_XREC_ROUNDTRIP
360
6C74
  0
ACAD_ZOMBIE_OBJECT
  5
21
102
{ACAD_XDICTIONARY
360
6C32
102
}
102
{ACAD_REACTORS
330
1E
102
}
100
AcDbZombieObject
 90
      499
 91
      515
 93
      812
310
AAAAAAAAAA5A69074C61796F757431406A800000000000000000000000000000000000000000000A1000000000000008902A6A6A10232D5E076BC5510408CB5781DAF154410232D5E076BC5510408CB5781DAF15C410232D5E076BC5710408CB5781DAF15C42
330
B
330
0
340
0
340
0
 94
        0
  0
ACAD_ZOMBIE_OBJECT
  5
20
102
{ACAD_XDICTIONARY
360
6C30
102
}
102
{ACAD_REACTORS
330
1E
102
}
100
AcDbZombieObject
 90
      499
 91
      515
 93
      420
310
A00012AAAAAAAA5A69054D6F64656CAA80000000000000000000000000000000000000000000000000000000000000002AAAAAAAA8
330
A
330
0
340
0
340
0
 94
        0
  0
DICTIONARY
  5
6C71
100
AcDbDictionary
  3
ACAD_XREC_ROUNDTRIP
360
6C72
  0
MLINESTYLE
  5
1C
102
{ACAD_REACTORS
330
1B
102
}
100
AcDbMlineStyle
  2
STANDARD
 70
     0
  3

 62
     0
 51
90.0
 52
90.0
 71
     2
 49
0.5
 62
   256
  6
BYLAYER
 49
-0.5
 62
   256
  6
BYLAYER
  0
ACAD_ZOMBIE_OBJECT
  5
1D
102
{ACAD_REACTORS
330
1F
102
}
100
AcDbZombieObject
 90
      499
 91
      518
 93
        0
 94
        0
  0
DICTIONARY
  5
6C75
100
AcDbDictionary
  3
ACAD_XREC_ROUNDTRIP
360
6C76
  0
ACAD_ZOMBIE_OBJECT
  5
6DD
102
{ACAD_REACTORS
330
6DC
102
}
100
AcDbZombieObject
 90
      499
 91
      525
 93
     1841
310
4214DD185B99185C9928000000000000F83F0000000000003E0FC00000000000004901028000000C1008070000C3001FDFF8000000C1003FBFF000000182007F7FE00000030400FEFFC00000060801FDFF8000000C1003FBFF000000182000000000000000C2020B0000001820100E000186003FBFF000000182007F7FE000
310
00030400FEFFC00000060801FDFF8000000C1003FBFF000000182007F7FE0000003040000000000000012404160000003040201C00030C007F7FE00000030400FEFFC00000060801FDFF8000000C1003FBFF000000182007F7FE00000030400FEFFC000000608001
340
17
340
17
340
17
 94
        0
1001
ACAD
1000
AcadProxyRoundTripData
1071
      524
1071
   393239
1070
     0
  0
XRECORD
  5
6C55
102
{ACAD_REACTORS
330
6C4B
102
}
100
AcDbXrecord
 90
        0
  0
XRECORD
  5
6C59
102
{ACAD_REACTORS
330
6C4B
102
}
100
AcDbXrecord
1000
DSTYLE
1002
{
1070
   278
 70
     0
1070
   371
 70
     0
1070
   372
 70
     0
1002
}
  0
XRECORD
  5
6C56
102
{ACAD_REACTORS
330
6C4B
102
}
100
AcDbXrecord
  1

  0
XRECORD
  5
6C4E
102
{ACAD_REACTORS
330
6C4B
102
}
100
AcDbXrecord
  1

  0
XRECORD
  5
6C54
102
{ACAD_REACTORS
330
6C4B
102
}
100
AcDbXrecord
 90
        0
  0
XRECORD
  5
6C50
102
{ACAD_REACTORS
330
6C4B
102
}
100
AcDbXrecord
340
1E
  0
XRECORD
  5
6C53
102
{ACAD_REACTORS
330
6C4B
102
}
100
AcDbXrecord
 90
    10752
  0
XRECORD
  5
6C51
102
{ACAD_REACTORS
330
6C4B
102
}
100
AcDbXrecord
340
22
  0
XRECORD
  5
6C52
102
{ACAD_REACTORS
330
6C4B
102
}
100
AcDbXrecord
340
1F
  0
XRECORD
  5
6C58
102
{ACAD_REACTORS
330
6C4B
102
}
100
AcDbXrecord
 40
0.0
  0
XRECORD
  5
6C5C
102
{ACAD_REACTORS
330
6C4B
102
}
100
AcDbXrecord
340
0
  0
XRECORD
  5
6C62
102
{ACAD_REACTORS
330
6C4B
102
}
100
AcDbXrecord
 10
0.0
 20
0.0
 30
0.0
  0
XRECORD
  5
6C5E
102
{ACAD_REACTORS
330
6C4B
102
}
100
AcDbXrecord
 10
0.0
 20
0.0
 30
0.0
  0
XRECORD
  5
6C61
102
{ACAD_REACTORS
330
6C4B
102
}
100
AcDbXrecord
 10
0.0
 20
0.0
 30
0.0
  0
XRECORD
  5
6C5F
102
{ACAD_REACTORS
330
6C4B
102
}
100
AcDbXrecord
 10
0.0
 20
0.0
 30
0.0
  0
XRECORD
  5
6C60
102
{ACAD_REACTORS
330
6C4B
102
}
100
AcDbXrecord
 10
0.0
 20
0.0
 30
0.0
  0
XRECORD
  5
6C5D
102
{ACAD_REACTORS
330
6C4B
102
}
100
AcDbXrecord
 10
0.0
 20
0.0
 30
0.0
  0
XRECORD
  5
6C5A
102
{ACAD_REACTORS
330
6C4B
102
}
100
AcDbXrecord
340
0
  0
XRECORD
  5
6C5B
102
{ACAD_REACTORS
330
6C4B
102
}
100
AcDbXrecord
 70
     0
  0
XRECORD
  5
6C4F
102
{ACAD_REACTORS
330
6C4B
102
}
100
AcDbXrecord
  1

  0
XRECORD
  5
6C4C
102
{ACAD_REACTORS
330
6C4B
102
}
100
AcDbXrecord
 90
        1
  0
XRECORD
  5
6C4D
102
{ACAD_REACTORS
330
6C4B
102
}
100
AcDbXrecord
 90
       70
  0
XRECORD
  5
6C65
102
{ACAD_REACTORS
330
6C4B
102
}
100
AcDbXrecord
340
0
  0
XRECORD
  5
6C6B
102
{ACAD_REACTORS
330
6C4B
102
}
100
AcDbXrecord
 10
0.0
 20
0.0
 30
0.0
  0
XRECORD
  5
6C67
102
{ACAD_REACTORS
330
6C4B
102
}
100
AcDbXrecord
 10
0.0
 20
0.0
 30
0.0
  0
XRECORD
  5
6C6A
102
{ACAD_REACTORS
330
6C4B
102
}
100
AcDbXrecord
 10
0.0
 20
0.0
 30
0.0
  0
XRECORD
  5
6C68
102
{ACAD_REACTORS
330
6C4B
102
}
100
AcDbXrecord
 10
0.0
 20
0.0
 30
0.0
  0
XRECORD
  5
6C69
102
{ACAD_REACTORS
330
6C4B
102
}
100
AcDbXrecord
 10
0.0
 20
0.0
 30
0.0
  0
XRECORD
  5
6C66
102
{ACAD_REACTORS
330
6C4B
102
}
100
AcDbXrecord
 10
0.0
 20
0.0
 30
0.0
  0
XRECORD
  5
6C63
102
{ACAD_REACTORS
330
6C4B
102
}
100
AcDbXrecord
340
0
  0
XRECORD
  5
6C64
102
{ACAD_REACTORS
330
6C4B
102
}
100
AcDbXrecord
 70
     0
  0
XRECORD
  5
6C57
102
{ACAD_REACTORS
330
6C4B
102
}
100
AcDbXrecord
  1
{419B8337-2CF2-4CC8-8E15-9F90EDE4A909}
  0
DICTIONARYVAR
  5
7DB
102
{ACAD_REACTORS
330
7DA
102
}
100
DictionaryVariables
280
     0
  1
STANDARD
  0
DICTIONARYVAR
  5
1A71
102
{ACAD_REACTORS
330
7DA
102
}
100
DictionaryVariables
280
     0
  1
1
  0
DICTIONARYVAR
  5
1A72
102
{ACAD_REACTORS
330
7DA
102
}
100
DictionaryVariables
280
     0
  1

  0
DICTIONARY
  5
6C79
100
AcDbDictionary
  3
ACAD_XREC_ROUNDTRIP
360
6C7A
  0
XRECORD
  5
3572
102
{ACAD_REACTORS
330
3571
102
}
100
AcDbXrecord
330
0
330
0
330
0
330
0
330
0
330
0
330
0
330
0
330
0
330
0
330
0
330
0
330
0
330
0
330
0
330
0
330
0
330
0
330
0
330
0
330
0
330
0
330
0
330
0
330
0
330
0
330
0
330
0
330
0
330
0
330
0
  0
XRECORD
  5
6C74
102
{ACAD_REACTORS
330
6C73
102
}
100
AcDbXrecord
102
EXTNAMES
  1
LAYOUT1
  2
Layout1
  1
MODEL
  2
Model
  0
DICTIONARY
  5
6C32
100
AcDbDictionary
  3
ACAD_XREC_ROUNDTRIP
360
6C33
  0
DICTIONARY
  5
6C30
100
AcDbDictionary
  3
ACAD_XREC_ROUNDTRIP
360
6C31
  0
XRECORD
  5
6C72
102
{ACAD_REACTORS
330
6C71
102
}
100
AcDbXrecord
102
EXTNAMES
  1
STANDARD
  2
Standard
  0
XRECORD
  5
6C76
102
{ACAD_REACTORS
330
6C75
102
}
100
AcDbXrecord
102
EXTNAMES
  1
STANDARD
  2
Standard
  0
XRECORD
  5
6C7A
102
{ACAD_REACTORS
330
6C79
102
}
100
AcDbXrecord
102
EXTNAMES
  1
ASEBLOCKHIERARCHYINDEXRECORD
  2
ASEBlockHierarchyIndexRecord
  0
XRECORD
  5
6C33
102
{ACAD_REACTORS
330
6C32
102
}
100
AcDbXrecord
102
SHADEPLOT
 70
     0
102
SHADEPLOTRESLEVEL
 70
     2
102
SHADEPLOTCUSTOMDPI
 70
   300
  0
XRECORD
  5
6C31
102
{ACAD_REACTORS
330
6C30
102
}
100
AcDbXrecord
102
SHADEPLOT
 70
     0
102
SHADEPLOTRESLEVEL
 70
     2
102
SHADEPLOTCUSTOMDPI
 70
   300
  0
ENDSEC
  0
EOF
