  0
SECTION
  2
HEADER
  9
$ACADVER
  1
AC1014
  9
$ACADMAINTVER
 70
     9
  9
$DWGCODEPAGE
  3
ANSI_1252
  9
$INSBASE
 10
0.0
 20
0.0
 30
0.0
  9
$EXTMIN
 10
0.0
 20
0.0
 30
0.0
  9
$EXTMAX
 10
16.39999999999999
 20
10.0954
 30
0.0
  9
$LIMMIN
 10
0.0
 20
0.0
  9
$LIMMAX
 10
1632.0
 20
1056.0
  9
$ORTHOMODE
 70
     0
  9
$REGENMODE
 70
     1
  9
$FILLMODE
 70
     1
  9
$QTEXTMODE
 70
     0
  9
$MIRRTEXT
 70
     0
  9
$DRAGMODE
 70
     2
  9
$LTSCALE
 40
1.0
  9
$OSMODE
 70
    37
  9
$ATTMODE
 70
     1
  9
$TEXTSIZE
 40
0.2
  9
$TRACEWID
 40
0.05
  9
$TEXTSTYLE
  7
ROMANS
  9
$CLAYER
  8
0
  9
$CELTYPE
  6
BYLAYER
  9
$CECOLOR
 62
   256
  9
$CELTSCALE
 40
1.0
  9
$DELOBJ
 70
     1
  9
$DISPSILH
 70
     0
  9
$DIMSCALE
 40
0.0
  9
$DIMASZ
 40
0.07
  9
$DIMEXO
 40
0.0625
  9
$DIMDLI
 40
0.38
  9
$DIMRND
 40
0.001
  9
$DIMDLE
 40
0.0
  9
$DIMEXE
 40
0.0625
  9
$DIMTP
 40
0.0
  9
$DIMTM
 40
0.0
  9
$DIMTXT
 40
0.1
  9
$DIMCEN
 40
0.09
  9
$DIMTSZ
 40
0.0
  9
$DIMTOL
 70
     0
  9
$DIMLIM
 70
     0
  9
$DIMTIH
 70
     1
  9
$DIMTOH
 70
     1
  9
$DIMSE1
 70
     0
  9
$DIMSE2
 70
     0
  9
$DIMTAD
 70
     0
  9
$DIMZIN
 70
     4
  9
$DIMBLK
  1
SEARROW
  9
$DIMASO
 70
     1
  9
$DIMSHO
 70
     1
  9
$DIMPOST
  1
\P{\H0.8x;
  9
$DIMAPOST
  1

  9
$DIMALT
 70
     1
  9
$DIMALTD
 70
     0
  9
$DIMALTF
 40
25.4
  9
$DIMLFAC
 40
1.0
  9
$DIMTOFL
 70
     0
  9
$DIMTVP
 40
0.0
  9
$DIMTIX
 70
     0
  9
$DIMSOXD
 70
     0
  9
$DIMSAH
 70
     0
  9
$DIMBLK1
  1

  9
$DIMBLK2
  1

  9
$DIMSTYLE
  2
SCHNEIDERELECTRIC_DUAL_BEL
  9
$DIMCLRD
 70
   256
  9
$DIMCLRE
 70
   256
  9
$DIMCLRT
 70
   256
  9
$DIMTFAC
 40
1.0
  9
$DIMGAP
 40
0.04
  9
$DIMJUST
 70
     0
  9
$DIMSD1
 70
     0
  9
$DIMSD2
 70
     0
  9
$DIMTOLJ
 70
     1
  9
$DIMTZIN
 70
     0
  9
$DIMALTZ
 70
     4
  9
$DIMALTTZ
 70
     0
  9
$DIMFIT
 70
     3
  9
$DIMUPT
 70
     0
  9
$DIMUNIT
 70
     2
  9
$DIMDEC
 70
     2
  9
$DIMTDEC
 70
     2
  9
$DIMALTU
 70
     2
  9
$DIMALTTD
 70
     0
  9
$DIMTXSTY
  7
ROMANS
  9
$DIMAUNIT
 70
     0
  9
$LUNITS
 70
     2
  9
$LUPREC
 70
     4
  9
$SKETCHINC
 40
0.1
  9
$FILLETRAD
 40
0.5
  9
$AUNITS
 70
     0
  9
$AUPREC
 70
     0
  9
$MENU
  1
.
  9
$ELEVATION
 40
0.0
  9
$PELEVATION
 40
0.0
  9
$THICKNESS
 40
0.0
  9
$LIMCHECK
 70
     0
  9
$BLIPMODE
 70
     0
  9
$CHAMFERA
 40
0.5
  9
$CHAMFERB
 40
0.5
  9
$CHAMFERC
 40
1.0
  9
$CHAMFERD
 40
0.0
  9
$SKPOLY
 70
     0
  9
$TDCREATE
 40
2451764.535041909
  9
$TDUPDATE
 40
2453124.352125879
  9
$TDINDWG
 40
0.1166098611
  9
$TDUSRTIMER
 40
0.1166096296
  9
$USRTIMER
 70
     1
  9
$ANGBASE
 50
0.0
  9
$ANGDIR
 70
     0
  9
$PDMODE
 70
     0
  9
$PDSIZE
 40
0.0
  9
$PLINEWID
 40
0.0
  9
$COORDS
 70
     1
  9
$SPLFRAME
 70
     0
  9
$SPLINETYPE
 70
     6
  9
$SPLINESEGS
 70
     8
  9
$ATTDIA
 70
     0
  9
$ATTREQ
 70
     1
  9
$HANDLING
 70
     1
  9
$HANDSEED
  5
107C
  9
$SURFTAB1
 70
     6
  9
$SURFTAB2
 70
     6
  9
$SURFTYPE
 70
     6
  9
$SURFU
 70
     6
  9
$SURFV
 70
     6
  9
$UCSNAME
  2

  9
$UCSORG
 10
0.0
 20
0.0
 30
0.0
  9
$UCSXDIR
 10
1.0
 20
0.0
 30
0.0
  9
$UCSYDIR
 10
0.0
 20
1.0
 30
0.0
  9
$PUCSNAME
  2

  9
$PUCSORG
 10
0.0
 20
0.0
 30
0.0
  9
$PUCSXDIR
 10
1.0
 20
0.0
 30
0.0
  9
$PUCSYDIR
 10
0.0
 20
1.0
 30
0.0
  9
$USERI1
 70
     0
  9
$USERI2
 70
     0
  9
$USERI3
 70
     0
  9
$USERI4
 70
     0
  9
$USERI5
 70
     0
  9
$USERR1
 40
0.0
  9
$USERR2
 40
0.0
  9
$USERR3
 40
0.0
  9
$USERR4
 40
0.0
  9
$USERR5
 40
0.0
  9
$WORLDVIEW
 70
     1
  9
$SHADEDGE
 70
     3
  9
$SHADEDIF
 70
    70
  9
$TILEMODE
 70
     0
  9
$MAXACTVP
 70
    48
  9
$PINSBASE
 10
0.0
 20
0.0
 30
0.0
  9
$PLIMCHECK
 70
     0
  9
$PEXTMIN
 10
-0.0000294864410222
 20
-0.1665347403838311
 30
-0.0000000349181948
  9
$PEXTMAX
 10
16.40109409431429
 20
10.1007325812323
 30
0.0000000814935746
  9
$PLIMMIN
 10
-0.3061399560754534
 20
-1.606869118391835
  9
$PLIMMAX
 10
16.70720555116506
 20
11.53980687091721
  9
$UNITMODE
 70
     0
  9
$VISRETAIN
 70
     1
  9
$PLINEGEN
 70
     0
  9
$PSLTSCALE
 70
     1
  9
$TREEDEPTH
 70
  3020
  9
$PICKSTYLE
 70
     1
  9
$CMLSTYLE
  2
STANDARD
  9
$CMLJUST
 70
     0
  9
$CMLSCALE
 40
1.0
  9
$PROXYGRAPHICS
 70
     1
  9
$MEASUREMENT
 70
     0
  0
ENDSEC
  0
SECTION
  2
CLASSES
  0
CLASS
  1
ACDBDICTIONARYWDFLT
  2
AcDbDictionaryWithDefault
  3
AutoCAD 2000
 90
        0
280
     0
281
     0
  0
CLASS
  1
ACDBPLACEHOLDER
  2
AcDbPlaceHolder
  3
AutoCAD 2000
 90
        0
280
     0
281
     0
  0
CLASS
  1
LAYOUT
  2
AcDbLayout
  3
AutoCAD 2000
 90
        0
280
     0
281
     0
  0
CLASS
  1
LONG_TRANSACTION
  2
AcDbLongTransaction
  3
AutoCAD 2000
 90
        0
280
     0
281
     0
  0
CLASS
  1
LWPOLYLINE
  2
AcDbPolyline
  3
AutoCAD 2000
 90
        0
280
     0
281
     1
  0
CLASS
  1
HATCH
  2
AcDbHatch
  3
AutoCAD 2000
 90
        0
280
     0
281
     1
  0
CLASS
  1
XRECORD
  2
AcDbXrecord
  3
AutoCAD 2000
 90
        0
280
     0
281
     0
  0
CLASS
  1
LONG_TRANSACTION
  2
AcDbLongTransaction
  3
AutoCAD 2000
 90
        0
280
     0
281
     0
  0
CLASS
  1
LWPOLYLINE
  2
AcDbPolyline
  3
AutoCAD 2000
 90
        0
280
     0
281
     1
  0
CLASS
  1
HATCH
  2
AcDbHatch
  3
AutoCAD 2000
 90
        0
280
     0
281
     1
  0
CLASS
  1
XRECORD
  2
AcDbXrecord
  3
AutoCAD 2000
 90
        0
280
     0
281
     0
  0
CLASS
  1
PLOTSETTINGS
  2
AcDbPlotSettings
  3
AutoCAD 2000
 90
        0
280
     0
281
     0
  0
CLASS
  1
LONG_TRANSACTION
  2
AcDbLongTransaction
  3
AutoCAD 2000
 90
        0
280
     0
281
     0
  0
CLASS
  1
LWPOLYLINE
  2
AcDbPolyline
  3
AutoCAD 2000
 90
        0
280
     0
281
     1
  0
CLASS
  1
HATCH
  2
AcDbHatch
  3
AutoCAD 2000
 90
        0
280
     0
281
     1
  0
CLASS
  1
XRECORD
  2
AcDbXrecord
  3
AutoCAD 2000
 90
        0
280
     0
281
     0
  0
CLASS
  1
LONG_TRANSACTION
  2
AcDbLongTransaction
  3
AutoCAD 2000
 90
        0
280
     0
281
     0
  0
CLASS
  1
LWPOLYLINE
  2
AcDbPolyline
  3
AutoCAD 2000
 90
        0
280
     0
281
     1
  0
CLASS
  1
HATCH
  2
AcDbHatch
  3
AutoCAD 2000
 90
        0
280
     0
281
     1
  0
CLASS
  1
XRECORD
  2
AcDbXrecord
  3
AutoCAD 2000
 90
        0
280
     0
281
     0
  0
CLASS
  1
DICTIONARYVAR
  2
AcDbDictionaryVar
  3
AutoCAD 2000
 90
        0
280
     0
281
     0
  0
CLASS
  1
LONG_TRANSACTION
  2
AcDbLongTransaction
  3
AutoCAD 2000
 90
        0
280
     0
281
     0
  0
CLASS
  1
LWPOLYLINE
  2
AcDbPolyline
  3
AutoCAD 2000
 90
        0
280
     0
281
     1
  0
CLASS
  1
HATCH
  2
AcDbHatch
  3
AutoCAD 2000
 90
        0
280
     0
281
     1
  0
CLASS
  1
XRECORD
  2
AcDbXrecord
  3
AutoCAD 2000
 90
        0
280
     0
281
     0
  0
CLASS
  1
LONG_TRANSACTION
  2
AcDbLongTransaction
  3
AutoCAD 2000
 90
        0
280
     0
281
     0
  0
CLASS
  1
LWPOLYLINE
  2
AcDbPolyline
  3
AutoCAD 2000
 90
        0
280
     0
281
     1
  0
CLASS
  1
HATCH
  2
AcDbHatch
  3
AutoCAD 2000
 90
        0
280
     0
281
     1
  0
CLASS
  1
XRECORD
  2
AcDbXrecord
  3
AutoCAD 2000
 90
        0
280
     0
281
     0
  0
CLASS
  1
LONG_TRANSACTION
  2
AcDbLongTransaction
  3
AutoCAD 2000
 90
        0
280
     0
281
     0
  0
CLASS
  1
LWPOLYLINE
  2
AcDbPolyline
  3
AutoCAD 2000
 90
        0
280
     0
281
     1
  0
CLASS
  1
HATCH
  2
AcDbHatch
  3
AutoCAD 2000
 90
        0
280
     0
281
     1
  0
CLASS
  1
XRECORD
  2
AcDbXrecord
  3
AutoCAD 2000
 90
        0
280
     0
281
     0
  0
CLASS
  1
LONG_TRANSACTION
  2
AcDbLongTransaction
  3
AutoCAD 2000
 90
        0
280
     0
281
     0
  0
CLASS
  1
LWPOLYLINE
  2
AcDbPolyline
  3
AutoCAD 2000
 90
        0
280
     0
281
     1
  0
CLASS
  1
HATCH
  2
AcDbHatch
  3
AutoCAD 2000
 90
        0
280
     0
281
     1
  0
CLASS
  1
XRECORD
  2
AcDbXrecord
  3
AutoCAD 2000
 90
        0
280
     0
281
     0
  0
CLASS
  1
LONG_TRANSACTION
  2
AcDbLongTransaction
  3
AutoCAD 2000
 90
        0
280
     0
281
     0
  0
CLASS
  1
LWPOLYLINE
  2
AcDbPolyline
  3
AutoCAD 2000
 90
        0
280
     0
281
     1
  0
CLASS
  1
HATCH
  2
AcDbHatch
  3
AutoCAD 2000
 90
        0
280
     0
281
     1
  0
CLASS
  1
XRECORD
  2
AcDbXrecord
  3
AutoCAD 2000
 90
        0
280
     0
281
     0
  0
CLASS
  1
LONG_TRANSACTION
  2
AcDbLongTransaction
  3
AutoCAD 2000
 90
        0
280
     0
281
     0
  0
CLASS
  1
LWPOLYLINE
  2
AcDbPolyline
  3
AutoCAD 2000
 90
        0
280
     0
281
     1
  0
CLASS
  1
HATCH
  2
AcDbHatch
  3
AutoCAD 2000
 90
        0
280
     0
281
     1
  0
CLASS
  1
XRECORD
  2
AcDbXrecord
  3
AutoCAD 2000
 90
        0
280
     0
281
     0
  0
CLASS
  1
LONG_TRANSACTION
  2
AcDbLongTransaction
  3
AutoCAD 2000
 90
        0
280
     0
281
     0
  0
CLASS
  1
LWPOLYLINE
  2
AcDbPolyline
  3
AutoCAD 2000
 90
        0
280
     0
281
     1
  0
CLASS
  1
HATCH
  2
AcDbHatch
  3
AutoCAD 2000
 90
        0
280
     0
281
     1
  0
CLASS
  1
XRECORD
  2
AcDbXrecord
  3
AutoCAD 2000
 90
        0
280
     0
281
     0
  0
CLASS
  1
LONG_TRANSACTION
  2
AcDbLongTransaction
  3
AutoCAD 2000
 90
        0
280
     0
281
     0
  0
CLASS
  1
LWPOLYLINE
  2
AcDbPolyline
  3
AutoCAD 2000
 90
        0
280
     0
281
     1
  0
CLASS
  1
HATCH
  2
AcDbHatch
  3
AutoCAD 2000
 90
        0
280
     0
281
     1
  0
CLASS
  1
XRECORD
  2
AcDbXrecord
  3
AutoCAD 2000
 90
        0
280
     0
281
     0
  0
CLASS
  1
LONG_TRANSACTION
  2
AcDbLongTransaction
  3
AutoCAD 2000
 90
        0
280
     0
281
     0
  0
CLASS
  1
LWPOLYLINE
  2
AcDbPolyline
  3
AutoCAD 2000
 90
        0
280
     0
281
     1
  0
CLASS
  1
HATCH
  2
AcDbHatch
  3
AutoCAD 2000
 90
        0
280
     0
281
     1
  0
CLASS
  1
XRECORD
  2
AcDbXrecord
  3
AutoCAD 2000
 90
        0
280
     0
281
     0
  0
CLASS
  1
LONG_TRANSACTION
  2
AcDbLongTransaction
  3
AutoCAD 2000
 90
        0
280
     0
281
     0
  0
CLASS
  1
LWPOLYLINE
  2
AcDbPolyline
  3
AutoCAD 2000
 90
        0
280
     0
281
     1
  0
CLASS
  1
HATCH
  2
AcDbHatch
  3
AutoCAD 2000
 90
        0
280
     0
281
     1
  0
CLASS
  1
XRECORD
  2
AcDbXrecord
  3
AutoCAD 2000
 90
        0
280
     0
281
     0
  0
CLASS
  1
LONG_TRANSACTION
  2
AcDbLongTransaction
  3
AutoCAD 2000
 90
        0
280
     0
281
     0
  0
CLASS
  1
LWPOLYLINE
  2
AcDbPolyline
  3
AutoCAD 2000
 90
        0
280
     0
281
     1
  0
CLASS
  1
HATCH
  2
AcDbHatch
  3
AutoCAD 2000
 90
        0
280
     0
281
     1
  0
CLASS
  1
XRECORD
  2
AcDbXrecord
  3
AutoCAD 2000
 90
        0
280
     0
281
     0
  0
CLASS
  1
LONG_TRANSACTION
  2
AcDbLongTransaction
  3
AutoCAD 2000
 90
        0
280
     0
281
     0
  0
CLASS
  1
LWPOLYLINE
  2
AcDbPolyline
  3
AutoCAD 2000
 90
        0
280
     0
281
     1
  0
CLASS
  1
HATCH
  2
AcDbHatch
  3
AutoCAD 2000
 90
        0
280
     0
281
     1
  0
CLASS
  1
XRECORD
  2
AcDbXrecord
  3
AutoCAD 2000
 90
        0
280
     0
281
     0
  0
CLASS
  1
LONG_TRANSACTION
  2
AcDbLongTransaction
  3
AutoCAD 2000
 90
        0
280
     0
281
     0
  0
CLASS
  1
LWPOLYLINE
  2
AcDbPolyline
  3
AutoCAD 2000
 90
        0
280
     0
281
     1
  0
CLASS
  1
HATCH
  2
AcDbHatch
  3
AutoCAD 2000
 90
        0
280
     0
281
     1
  0
CLASS
  1
XRECORD
  2
AcDbXrecord
  3
AutoCAD 2000
 90
        0
280
     0
281
     0
  0
ENDSEC
  0
SECTION
  2
TABLES
  0
TABLE
  2
VPORT
  5
8
330
0
100
AcDbSymbolTable
 70
     1
  0
VPORT
  5
F5F
330
8
100
AcDbSymbolTableRecord
100
AcDbViewportTableRecord
  2
*ACTIVE
 70
     0
 10
0.0
 20
0.0
 11
1.0
 21
1.0
 12
8.23022746880315
 22
5.043458881140168
 13
0.0
 23
0.0
 14
0.5
 24
0.5
 15
0.5
 25
0.5
 16
0.0
 26
0.0
 36
1.0
 17
0.0
 27
0.0
 37
0.0
 40
10.2363146391765
 41
1.67877094972067
 42
50.0
 43
0.0
 44
0.0
 50
0.0
 51
0.0
 71
     0
 72
   100
 73
     1
 74
     2
 75
     0
 76
     0
 77
     0
 78
     0
  0
ENDTAB
  0
TABLE
  2
LTYPE
  5
5
330
0
100
AcDbSymbolTable
 70
     1
  0
LTYPE
  5
14
330
5
100
AcDbSymbolTableRecord
100
AcDbLinetypeTableRecord
  2
BYBLOCK
 70
     0
  3

 72
    65
 73
     0
 40
0.0
  0
LTYPE
  5
15
330
5
100
AcDbSymbolTableRecord
100
AcDbLinetypeTableRecord
  2
BYLAYER
 70
     0
  3

 72
    65
 73
     0
 40
0.0
  0
LTYPE
  5
16
330
5
100
AcDbSymbolTableRecord
100
AcDbLinetypeTableRecord
  2
CONTINUOUS
 70
     0
  3
Solid line
 72
    65
 73
     0
 40
0.0
  0
ENDTAB
  0
TABLE
  2
LAYER
  5
2
330
0
100
AcDbSymbolTable
 70
     9
  0
LAYER
  5
10
330
2
100
AcDbSymbolTableRecord
100
AcDbLayerTableRecord
  2
0
 70
     0
 62
     7
  6
CONTINUOUS
  0
LAYER
  5
47
330
2
100
AcDbSymbolTableRecord
100
AcDbLayerTableRecord
  2
CONTINUOUS1
 70
     0
 62
     7
  6
CONTINUOUS
  0
LAYER
  5
48
330
2
100
AcDbSymbolTableRecord
100
AcDbLayerTableRecord
  2
CONTINUOUS2
 70
     0
 62
   254
  6
CONTINUOUS
  0
LAYER
  5
49
330
2
100
AcDbSymbolTableRecord
100
AcDbLayerTableRecord
  2
CONTINUOUS3
 70
     0
 62
   253
  6
CONTINUOUS
  0
LAYER
  5
4D
330
2
100
AcDbSymbolTableRecord
100
AcDbLayerTableRecord
  2
DIM
 70
     0
 62
     2
  6
CONTINUOUS
  0
LAYER
  5
55
330
2
100
AcDbSymbolTableRecord
100
AcDbLayerTableRecord
  2
TEXT1
 70
     0
 62
     3
  6
CONTINUOUS
  0
LAYER
  5
58
330
2
100
AcDbSymbolTableRecord
100
AcDbLayerTableRecord
  2
TITLEBLOCK
 70
     0
 62
     9
  6
CONTINUOUS
  0
LAYER
  5
59
330
2
100
AcDbSymbolTableRecord
100
AcDbLayerTableRecord
  2
VIEWPORT
 70
     0
 62
     9
  6
CONTINUOUS
  0
LAYER
  5
19F
330
2
100
AcDbSymbolTableRecord
100
AcDbLayerTableRecord
  2
DEFPOINTS
 70
     0
 62
     7
  6
CONTINUOUS
  0
ENDTAB
  0
TABLE
  2
STYLE
  5
3
330
0
100
AcDbSymbolTable
 70
     3
  0
STYLE
  5
11
330
3
100
AcDbSymbolTableRecord
100
AcDbTextStyleTableRecord
  2
STANDARD
 70
     0
 40
0.0
 41
1.0
 50
0.0
 71
     0
 42
0.2
  3
txt
  4

  0
STYLE
  5
36
330
3
100
AcDbSymbolTableRecord
100
AcDbTextStyleTableRecord
  2
ROMANS
 70
     0
 40
0.0
 41
1.0
 50
0.0
 71
     0
 42
0.2
  3
romans.shx
  4

  0
STYLE
  5
5B4
330
3
100
AcDbSymbolTableRecord
100
AcDbTextStyleTableRecord
  2
M_STANDARD
 70
     0
 40
0.0
 41
0.8
 50
0.0
 71
     0
 42
0.0
  3
MEDUSA.SHX
  4

  0
ENDTAB
  0
TABLE
  2
VIEW
  5
6
330
0
100
AcDbSymbolTable
 70
     0
  0
ENDTAB
  0
TABLE
  2
UCS
  5
7
330
0
100
AcDbSymbolTable
 70
     0
  0
ENDTAB
  0
TABLE
  2
APPID
  5
9
330
0
100
AcDbSymbolTable
 70
    13
  0
APPID
  5
12
330
9
100
AcDbSymbolTableRecord
100
AcDbRegAppTableRecord
  2
ACAD
 70
     0
  0
APPID
  5
6B
330
9
100
AcDbSymbolTableRecord
100
AcDbRegAppTableRecord
  2
DCO15
 70
     0
  0
APPID
  5
5B5
330
9
100
AcDbSymbolTableRecord
100
AcDbRegAppTableRecord
  2
MCAD_NO_VIS
 70
     0
  0
APPID
  5
5B6
330
9
100
AcDbSymbolTableRecord
100
AcDbRegAppTableRecord
  2
ACAD_TEMP_GRAPHIC
 70
     0
  0
APPID
  5
5B7
330
9
100
AcDbSymbolTableRecord
100
AcDbRegAppTableRecord
  2
GENIUS_GENSCREG_15
 70
     0
  0
APPID
  5
5B8
330
9
100
AcDbSymbolTableRecord
100
AcDbRegAppTableRecord
  2
GENIUS_GENODEF_13
 70
     0
  0
APPID
  5
5B9
330
9
100
AcDbSymbolTableRecord
100
AcDbRegAppTableRecord
  2
GENIUS_GENOBJ-N-SDF_13
 70
     0
  0
APPID
  5
5BA
330
9
100
AcDbSymbolTableRecord
100
AcDbRegAppTableRecord
  2
GENIUS_GENOENT_13
 70
     0
  0
APPID
  5
5BB
330
9
100
AcDbSymbolTableRecord
100
AcDbRegAppTableRecord
  2
GENIUS_GENOREF_13
 70
     0
  0
APPID
  5
5BC
330
9
100
AcDbSymbolTableRecord
100
AcDbRegAppTableRecord
  2
GENIUS_GENOLIS_13
 70
     0
  0
APPID
  5
5BD
330
9
100
AcDbSymbolTableRecord
100
AcDbRegAppTableRecord
  2
MED_PRIMTYPE
 70
     0
  0
APPID
  5
6C7
330
9
100
AcDbSymbolTableRecord
100
AcDbRegAppTableRecord
  2
AVE_RENDER
 70
     0
  0
APPID
  5
6C8
330
9
100
AcDbSymbolTableRecord
100
AcDbRegAppTableRecord
  2
AVE_MATERIAL
 70
     0
  0
ENDTAB
  0
TABLE
  2
DIMSTYLE
  5
A
330
0
100
AcDbSymbolTable
 70
     1
  0
DIMSTYLE
105
1A1
102
{ACAD_REACTORS
330
A58
330
A66
102
}
330
A
100
AcDbSymbolTableRecord
100
AcDbDimStyleTableRecord
  2
SCHNEIDERELECTRIC_DUAL_BEL
 70
     0
  3
\P{\H0.8x;
  4

  5
SEARROW
  6

  7

 40
0.0
 41
0.07
 42
0.0625
 43
0.38
 44
0.0625
 45
0.001
 46
0.0
 47
0.0
 48
0.0
140
0.1
141
0.09
142
0.0
143
25.4
144
1.0
145
0.0
146
1.0
147
0.04
 71
     0
 72
     0
 73
     1
 74
     1
 75
     0
 76
     0
 77
     0
 78
     4
170
     1
171
     0
172
     0
173
     0
174
     0
175
     0
176
   256
177
   256
178
   256
270
     2
271
     2
272
     2
273
     2
274
     0
340
36
275
     0
280
     0
281
     0
282
     0
283
     1
284
     0
285
     4
286
     0
287
     3
288
     0
  0
ENDTAB
  0
TABLE
  2
BLOCK_RECORD
  5
1
330
0
100
AcDbSymbolTable
 70
     6
  0
BLOCK_RECORD
  5
1F
102
{ACAD_XDICTIONARY
360
73
102
}
330
1
100
AcDbSymbolTableRecord
100
AcDbBlockTableRecord
  2
*MODEL_SPACE
  0
BLOCK_RECORD
  5
1B
102
{ACAD_XDICTIONARY
360
75
102
}
330
1
100
AcDbSymbolTableRecord
100
AcDbBlockTableRecord
  2
*PAPER_SPACE
  0
BLOCK_RECORD
  5
195
330
1
100
AcDbSymbolTableRecord
100
AcDbBlockTableRecord
  2
SEARROW
1001
ACAD
1000
DesignCenter Data
1002
{
1070
     1
1070
     1
1002
}
  0
BLOCK_RECORD
  5
5BF
330
1
100
AcDbSymbolTableRecord
100
AcDbBlockTableRecord
  2
TB-PAD
  0
BLOCK_RECORD
  5
5DA
330
1
100
AcDbSymbolTableRecord
100
AcDbBlockTableRecord
  2
LOGO-PAD
  0
BLOCK_RECORD
  5
6AA
330
1
100
AcDbSymbolTableRecord
100
AcDbBlockTableRecord
  2
SCH_ISO
  0
BLOCK_RECORD
  5
A59
330
1
100
AcDbSymbolTableRecord
100
AcDbBlockTableRecord
  2
*D4
  0
BLOCK_RECORD
  5
A67
330
1
100
AcDbSymbolTableRecord
100
AcDbBlockTableRecord
  2
*D5
  0
ENDTAB
  0
ENDSEC
  0
SECTION
  2
BLOCKS
  0
BLOCK
  5
20
330
1F
100
AcDbEntity
  8
0
100
AcDbBlockBegin
  2
*MODEL_SPACE
 70
     0
 10
0.0
 20
0.0
 30
0.0
  3
*MODEL_SPACE
  1

  0
ENDBLK
  5
21
330
1F
100
AcDbEntity
  8
0
100
AcDbBlockEnd
  0
BLOCK
  5
1C
330
1B
100
AcDbEntity
 67
     1
  8
0
100
AcDbBlockBegin
  2
*PAPER_SPACE
 70
     0
 10
0.0
 20
0.0
 30
0.0
  3
*PAPER_SPACE
  1

  0
ENDBLK
  5
1D
330
1B
100
AcDbEntity
 67
     1
  8
0
100
AcDbBlockEnd
  0
BLOCK
  5
197
330
195
100
AcDbEntity
  8
0
100
AcDbBlockBegin
  2
SEARROW
 70
     0
 10
0.0
 20
0.0
 30
0.0
  3
SEARROW
  1

  0
LWPOLYLINE
  5
196
330
195
100
AcDbEntity
  8
0
  6
BYBLOCK
100
AcDbPolyline
 90
        2
 70
     0
 10
0.0
 20
0.0
 40
0.0
 41
0.5000000001500001
 10
-1.000000000300019
 20
0.0
 40
0.5000000001500001
 41
0.5000000001500001
  0
ENDBLK
  5
198
330
195
100
AcDbEntity
  8
0
100
AcDbBlockEnd
  0
BLOCK
  5
5CE
330
5BF
100
AcDbEntity
  8
0
100
AcDbBlockBegin
  2
TB-PAD
 70
     2
 10
0.0
 20
0.0
 30
0.0
  3
TB-PAD
  1

  0
LWPOLYLINE
  5
5C0
330
5BF
100
AcDbEntity
  8
CONTINUOUS2
 62
     0
100
AcDbPolyline
 90
        7
 70
     1
 43
0.0
 10
16.4000010086626
 20
-0.0000000084245251
 10
16.4000010086626
 20
-0.0000000084245251
 10
16.4000010086626
 20
-0.0000000084245251
 10
8.002461008662603
 20
-0.0000000084245251
 10
8.002461008662603
 20
0.9120019915754742
 10
16.4000010086626
 20
0.9120019915754742
 10
16.4000010086626
 20
-0.0000000084245251
  0
LINE
  5
5C1
330
5BF
100
AcDbEntity
  8
CONTINUOUS2
 62
     0
100
AcDbLine
 10
16.4000010086626
 20
0.3039999915754752
 30
0.0
 11
12.2457010086626
 21
0.3039999915754752
 31
0.0
  0
LINE
  5
5C2
330
5BF
100
AcDbEntity
  8
CONTINUOUS2
 62
     0
100
AcDbLine
 10
12.2457010086626
 20
0.9120019915754742
 30
0.0
 11
12.2457010086626
 21
-0.0000000084245251
 31
0.0
  0
TEXT
  5
5C3
330
5BF
100
AcDbEntity
  8
TEXT1
  6
CONTINUOUS
 62
     0
100
AcDbText
 10
12.36897712979916
 20
0.0611566646937659
 30
0.0
 40
0.0699999951940822
  1
NO.
  7
ROMANS
 11
12.36897712979916
 21
0.096156662290807
 31
0.0
100
AcDbText
 73
     2
  0
TEXT
  5
5C4
330
5BF
100
AcDbEntity
  8
TEXT1
  6
CONTINUOUS
 62
     0
100
AcDbText
 10
12.36897712979916
 20
0.1661566646937658
 30
0.0
 40
0.0699999951940822
  1
DWG#
  7
ROMANS
 11
12.36897712979916
 21
0.2011566622908068
 31
0.0
100
AcDbText
 73
     2
  0
ATTDEF
  5
5C5
330
5BF
100
AcDbEntity
  8
TEXT1
 62
     0
100
AcDbText
 10
10.10183835760059
 20
0.7474460800344916
 30
0.0
 40
0.1
  1

  7
ROMANS
 72
     4
 11
10.10183835760059
 21
0.7474460800344916
 31
0.0
100
AcDbAttributeDefinition
  3
DESCRIPTION 1
  2
DESCRIPTION 1
 70
     0
  0
ATTDEF
  5
5C6
330
5BF
100
AcDbEntity
  8
TEXT1
 62
     0
100
AcDbText
 10
10.10183835760059
 20
0.6017231627161466
 30
0.0
 40
0.1
  1

  7
ROMANS
 72
     4
 11
10.10183835760059
 21
0.6017231627161466
 31
0.0
100
AcDbAttributeDefinition
  3
DESCRIPTION 2
  2
DESCRIPTION 2
 70
     0
  0
ATTDEF
  5
5C7
330
5BF
100
AcDbEntity
  8
TEXT1
 62
     0
100
AcDbText
 10
10.10183835760059
 20
0.4560002453978016
 30
0.0
 40
0.08
  1

  7
ROMANS
 72
     4
 11
10.10183835760059
 21
0.4560002453978016
 31
0.0
100
AcDbAttributeDefinition
  3
DESCRIPTION 3
  2
DESCRIPTION 3
 70
     0
  0
ATTDEF
  5
5C8
330
5BF
100
AcDbEntity
  8
TEXT1
 62
     0
100
AcDbText
 10
10.10183835760059
 20
0.3202773280794582
 30
0.0
 40
0.08
  1

  7
ROMANS
 72
     4
 11
10.10183835760059
 21
0.3202773280794582
 31
0.0
100
AcDbAttributeDefinition
  3
DESCRIPTION 4
  2
DESCRIPTION 4
 70
     0
  0
ATTDEF
  5
5C9
330
5BF
100
AcDbEntity
  8
TEXT1
 62
     0
100
AcDbText
 10
10.10183835760059
 20
0.1845544107611148
 30
0.0
 40
0.08
  1

  7
ROMANS
 72
     4
 11
10.10183835760059
 21
0.1845544107611148
 31
0.0
100
AcDbAttributeDefinition
  3
DESCRIPTION 5
  2
DESCRIPTION 5
 70
     0
  0
ATTDEF
  5
5CA
330
5BF
100
AcDbEntity
  8
TEXT1
 62
     0
100
AcDbText
 10
12.74772367969455
 20
0.09654053761198
 30
0.0
 40
0.12
  1

 41
0.9512024731840066
  7
M_STANDARD
 11
12.74772367969455
 21
0.1565405376119799
 31
0.0
100
AcDbAttributeDefinition
  3
DRAWING NUMBER
  2
DWGNO
 70
     0
 74
     2
  0
ATTDEF
  5
5CB
330
5BF
100
AcDbEntity
  8
TEXT1
 62
     0
100
AcDbText
 10
16.35506455815586
 20
-0.1507193164174602
 30
0.0
 40
0.08
  1

  7
ROMANS
 72
     2
 11
16.35506455815586
 21
-0.1107193164174602
 31
0.0
100
AcDbAttributeDefinition
  3
REF DWG #
  2
REF
 70
     0
 74
     2
  0
ATTDEF
  5
5CC
330
5BF
100
AcDbEntity
  8
TEXT1
 62
     0
100
AcDbText
 10
0.0266402460664743
 20
-0.1507193164174602
 30
0.0
 40
0.08
  1

  7
ROMANS
 11
0.0266402460664743
 21
-0.1107193164174602
 31
0.0
100
AcDbAttributeDefinition
  3
DATE MODIFIED
  2
DATE
 70
     0
 74
     2
  0
LWPOLYLINE
  5
5CD
330
5BF
100
AcDbEntity
  8
CONTINUOUS3
 62
     0
100
AcDbPolyline
 90
        4
 70
   129
 43
0.0
 10
0.0000000086626031
 20
-0.0000000084245251
 10
16.4000010086626
 20
-0.0000000084245251
 10
16.4000010086626
 20
10.1
 10
0.0000000086626031
 20
10.1
  0
ENDBLK
  5
5CF
330
5BF
100
AcDbEntity
  8
0
100
AcDbBlockEnd
  0
BLOCK
  5
61C
330
5DA
100
AcDbEntity
  8
0
100
AcDbBlockBegin
  2
LOGO-PAD
 70
     0
 10
0.0
 20
0.0
 30
0.0
  3
LOGO-PAD
  1

  0
HATCH
  5
5DB
330
5DA
100
AcDbEntity
  8
CONTINUOUS1
 62
     9
100
AcDbHatch
 10
0.0
 20
0.0
 30
0.0
210
0.0
220
0.0
230
1.0
  2
SOLID
 70
     1
 71
     1
 91
        1
 92
        1
 93
        4
 72
     1
 10
1.830314246824318
 20
0.3820863083685713
 11
1.830314246824318
 21
0.3931967807444612
 72
     2
 10
1.808269786605604
 20
0.3584765545696773
 40
0.041127269930821
 50
57.58784372121546
 51
302.4121562787845
 73
     1
 72
     1
 10
1.830314246824318
 20
0.3237563283948935
 11
1.830314246824318
 21
0.3348668007707834
 72
     2
 10
1.812192479989334
 20
0.3584765545696773
 40
0.0297627100188458
 50
52.49180531393238
 51
307.5081946860675
 73
     0
 97
        1
330
5E0
 75
     0
 76
     1
 98
        1
 10
-6.623918024059631
 20
-0.1308261527660757
  0
HATCH
  5
5DC
330
5DA
100
AcDbEntity
  8
CONTINUOUS1
 62
     9
100
AcDbHatch
 10
0.0
 20
0.0
 30
0.0
210
0.0
220
0.0
230
1.0
  2
SOLID
 70
     1
 71
     1
 91
        1
 92
        1
 93
        4
 72
     1
 10
2.998736751853392
 20
0.4763401613594179
 11
1.673816157100507
 21
0.4763642794500816
 72
     1
 10
1.673816157100507
 20
0.4763642794500816
 11
1.673816157100507
 21
0.4979941642056934
 72
     1
 10
1.673816157100507
 20
0.4979941642056934
 11
2.998736751853392
 21
0.4979700461150296
 72
     1
 10
2.998736751853392
 20
0.4979700461150296
 11
2.998736751853392
 21
0.4763401613594179
 97
        1
330
5DE
 75
     0
 76
     1
 98
        1
 10
-6.623918024059631
 20
-0.1308261527660757
  0
HATCH
  5
5DD
330
5DA
100
AcDbEntity
  8
CONTINUOUS1
 62
     9
100
AcDbHatch
 10
0.0
 20
0.0
 30
0.0
210
0.0
220
0.0
230
1.0
  2
SOLID
 70
     1
 71
     1
 91
        1
 92
        1
 93
       26
 72
     1
 10
1.706158971979878
 20
0.6423016628555165
 11
1.794659236046104
 21
0.6423016628555165
 72
     2
 10
1.794659059797441
 20
0.6315206045637596
 40
0.0107810582931976
 50
270.0009366709926
 51
360.0009366862294
 73
     0
 72
     1
 10
1.805440118089197
 20
0.6315204283122289
 11
1.827002575925892
 21
0.6315204283122289
 72
     1
 10
1.827002575925892
 20
0.6315204283122289
 11
1.827002575925892
 21
0.6423016628555165
 72
     2
 10
1.805440021527005
 20
0.6423017594181574
 40
0.0215625543991033
 50
359.9997434148255
 51
449.9997434160159
 73
     1
 72
     1
 10
1.805440118089197
 20
0.6638643138170442
 11
1.695377564936368
 21
0.6638643138170442
 72
     2
 10
1.695378186492716
 20
0.6423022844272413
 40
0.0215620293987615
 50
90.00165163282177
 51
180.0014125206716
 73
     1
 72
     1
 10
1.673816157100507
 20
0.6423017528555879
 11
1.673816157100507
 21
0.6107079034654821
 72
     2
 10
1.695378141491445
 20
0.6107073268949657
 40
0.0215619843986475
 50
179.9984679027414
 51
269.9984679437668
 73
     1
 72
     1
 10
1.695377564936368
 20
0.5891453425040259
 11
1.794659236046104
 21
0.5891456106290894
 72
     2
 10
1.794659058859963
 20
0.5783645513998547
 40
0.0107810592306907
 50
270.0009416531222
 51
360.0009416684906
 73
     0
 72
     1
 10
1.805440118089197
 20
0.5783643742108216
 11
1.805440286839289
 21
0.5675829596673912
 72
     2
 10
1.794659009170951
 20
0.5675828227932667
 40
0.0107812776692067
 50
359.9992725992319
 51
449.9997907459082
 73
     0
 72
     1
 10
1.794659048546041
 20
0.5568015451241313
 11
1.706158971979878
 21
0.5568015451239608
 72
     2
 10
1.706158926979732
 20
0.5675830946673887
 40
0.0107815495435218
 50
89.99976085826782
 51
179.9997608594354
 73
     0
 72
     1
 10
1.695377377436305
 20
0.5675830496674626
 11
1.673816157100507
 21
0.5675830496674626
 72
     1
 10
1.673816157100507
 20
0.5675830496674626
 11
1.673816157100507
 21
0.5568018132491948
 72
     2
 10
1.695378051486819
 20
0.5568010585565073
 40
0.0215618943995203
 50
179.9979945776083
 51
269.9987071039827
 73
     1
 72
     1
 10
1.695377564936368
 20
0.5352391641624768
 11
1.805440118089197
 21
0.5352391641624768
 72
     2
 10
1.805440156527087
 20
0.5568015835616184
 40
0.0215624193991759
 50
269.9998978626289
 51
359.9996636967671
 73
     1
 72
     1
 10
1.827002575925892
 20
0.5568014569988696
 11
1.827002575925892
 21
0.5887705485089332
 72
     2
 10
1.805440111526664
 20
0.5887705550714311
 40
0.0215624643992288
 50
359.9999825621309
 51
449.9999825620359
 73
     1
 72
     1
 10
1.805440118089197
 20
0.6103330194706591
 11
1.706158971979878
 21
0.6103327513454251
 72
     2
 10
1.706158881980003
 20
0.6211142558887484
 40
0.0107815045436989
 50
89.99952171675776
 51
179.9999900368059
 73
     0
 72
     1
 10
1.695377377436305
 20
0.6211142540139467
 11
1.695377564936368
 21
0.6315205164371496
 72
     2
 10
1.706158885728571
 20
0.6315203420622487
 40
0.0107813207936133
 50
180.0009266903443
 51
270.0004583701697
 73
     0
 97
        1
330
5DF
 75
     0
 76
     1
 98
        1
 10
-6.623918024059631
 20
-0.1308261527660757
  0
LWPOLYLINE
  5
5DE
102
{ACAD_REACTORS
330
5DC
102
}
330
5DA
100
AcDbEntity
  8
CONTINUOUS1
  6
CONTINUOUS
 62
     9
100
AcDbPolyline
 90
        4
 70
     1
 43
0.0
 10
2.998736751853392
 20
0.4763401613594179
 10
1.673816157100507
 20
0.4763642794500816
 10
1.673816157100507
 20
0.4979941642056934
 10
2.998736751853392
 20
0.4979700461150296
  0
LWPOLYLINE
  5
5DF
102
{ACAD_REACTORS
330
5DD
102
}
330
5DA
100
AcDbEntity
  8
CONTINUOUS1
  6
CONTINUOUS
 62
     9
100
AcDbPolyline
 90
       26
 70
     1
 43
0.0
 10
1.706158971979878
 20
0.6423016628555165
 10
1.794659236046104
 20
0.6423016628555165
 42
-0.4142135624509854
 10
1.805440118089197
 20
0.6315204283122289
 10
1.827002575925892
 20
0.6315204283122289
 10
1.827002575925892
 20
0.6423016628555165
 42
0.4142135623791847
 10
1.805440118089197
 20
0.6638643138170442
 10
1.695377564936368
 20
0.6638643138170442
 42
0.4142123400440204
 10
1.673816157100507
 20
0.6423017528555879
 10
1.673816157100507
 20
0.6107079034654821
 42
0.4142135625828059
 10
1.695377564936368
 20
0.5891453425040259
 10
1.794659236046104
 20
0.5891456106290894
 42
-0.4142135624516547
 10
1.805440118089197
 20
0.5783643742108216
 10
1.805440286839289
 20
0.5675829596673912
 42
-0.4142162111159897
 10
1.794659048546041
 20
0.5568015451241313
 10
1.706158971979878
 20
0.5568015451239608
 42
-0.4142135623790486
 10
1.695377377436305
 20
0.5675830496674626
 10
1.673816157100507
 20
0.5675830496674626
 10
1.673816157100507
 20
0.5568018132491948
 42
0.4142172047777202
 10
1.695377564936368
 20
0.5352391641624768
 10
1.805440118089197
 20
0.5352391641624768
 42
0.4142123653291911
 10
1.827002575925892
 20
0.5568014569988696
 10
1.827002575925892
 20
0.5887705485089332
 42
0.4142135623726066
 10
1.805440118089197
 20
0.6103330194706591
 10
1.706158971979878
 20
0.6103327513454251
 42
-0.4142159564042797
 10
1.695377377436305
 20
0.6211142540139467
 10
1.695377564936368
 20
0.6315205164371496
 42
-0.4142111683453352
  0
LWPOLYLINE
  5
5E0
102
{ACAD_REACTORS
330
5DB
102
}
330
5DA
100
AcDbEntity
  8
CONTINUOUS1
  6
CONTINUOUS
 62
     9
100
AcDbPolyline
 90
        4
 70
     1
 43
0.0
 10
1.830314246824318
 20
0.3820863083685713
 10
1.830314246824318
 20
0.3931967807444612
 42
1.819450421535996
 10
1.830314246824318
 20
0.3237563283948935
 10
1.830314246824318
 20
0.3348668007707834
 42
-2.028165022884401
  0
HATCH
  5
5E1
330
5DA
100
AcDbEntity
  8
CONTINUOUS1
 62
     9
100
AcDbHatch
 10
0.0
 20
0.0
 30
0.0
210
0.0
220
0.0
230
1.0
  2
SOLID
 70
     1
 71
     1
 91
        4
 92
        1
 93
        4
 72
     1
 10
1.486316041326151
 20
0.6638643138170442
 11
1.111315796341873
 21
0.6638643138170442
 72
     1
 10
1.111315796341873
 20
0.6638643138170442
 11
1.111315796341873
 21
0.2888644264609757
 72
     1
 10
1.111315796341873
 20
0.2888644264609757
 11
1.486316041326151
 21
0.2888644264609757
 72
     1
 10
1.486316041326151
 20
0.2888644264609757
 11
1.486316041326151
 21
0.6638643138170442
 97
        1
330
5E2
 92
        0
 93
       10
 72
     1
 10
1.392565980080039
 20
0.6001142882630579
 11
1.175065956006481
 21
0.6001142882630579
 72
     1
 10
1.175065956006481
 20
0.6001142882630579
 11
1.175065956006481
 21
0.5569891671065084
 72
     1
 10
1.175065956006481
 20
0.5569891671065084
 11
1.208816124682616
 21
0.5569891671065084
 72
     1
 10
1.208816124682616
 20
0.5569891671065084
 11
1.208816124682616
 21
0.3957395731715114
 72
     1
 10
1.208816124682616
 20
0.3957395731715114
 11
1.175065956006481
 21
0.3957395731715114
 72
     1
 10
1.175065956006481
 20
0.3957395731715114
 11
1.175065956006481
 21
0.3526143179045111
 72
     1
 10
1.175065956006481
 20
0.3526143179045111
 11
1.392565980080039
 21
0.3526143179045111
 72
     1
 10
1.392565980080039
 20
0.3526143179045111
 11
1.422565792254577
 21
0.3826143535964666
 72
     1
 10
1.422565792254577
 20
0.3826143535964666
 11
1.422565792254577
 21
0.5701142078676189
 72
     1
 10
1.422565792254577
 20
0.5701142078676189
 11
1.392565980080039
 21
0.6001142882630579
 97
        1
330
5E3
 92
       16
 93
        4
 72
     1
 10
1.454440827383312
 20
0.631989144577688
 11
1.143190831470779
 21
0.631989144577688
 72
     1
 10
1.143190831470779
 20
0.631989144577688
 11
1.143190831470779
 21
0.3207393721827434
 72
     1
 10
1.143190831470779
 20
0.3207393721827434
 11
1.454440827383312
 21
0.3207393721827434
 72
     1
 10
1.454440827383312
 20
0.3207393721827434
 11
1.454440827383312
 21
0.631989144577688
 97
        1
330
5E4
 92
        0
 93
        4
 72
     1
 10
1.251941245839166
 20
0.5569891671065084
 11
1.251941245839166
 21
0.3957395731715114
 72
     1
 10
1.251941245839166
 20
0.3957395731715114
 11
1.379440760504994
 21
0.3957395731715114
 72
     1
 10
1.379440760504994
 20
0.3957395731715114
 11
1.379440760504994
 21
0.5569891671065084
 72
     1
 10
1.379440760504994
 20
0.5569891671065084
 11
1.251941245839166
 21
0.5569891671065084
 97
        1
330
5E5
 75
     0
 76
     1
 98
        1
 10
-6.623918024059631
 20
-0.1308261527660757
  0
LWPOLYLINE
  5
5E2
102
{ACAD_REACTORS
330
5E1
102
}
330
5DA
100
AcDbEntity
  8
CONTINUOUS1
  6
CONTINUOUS
 62
     9
100
AcDbPolyline
 90
        4
 70
     1
 43
0.0
 10
1.486316041326151
 20
0.6638643138170442
 10
1.111315796341873
 20
0.6638643138170442
 10
1.111315796341873
 20
0.2888644264609757
 10
1.486316041326151
 20
0.2888644264609757
  0
LWPOLYLINE
  5
5E3
102
{ACAD_REACTORS
330
5E1
102
}
330
5DA
100
AcDbEntity
  8
CONTINUOUS1
  6
CONTINUOUS
 62
     9
100
AcDbPolyline
 90
       10
 70
     1
 43
0.0
 10
1.392565980080039
 20
0.6001142882630579
 10
1.175065956006481
 20
0.6001142882630579
 10
1.175065956006481
 20
0.5569891671065084
 10
1.208816124682616
 20
0.5569891671065084
 10
1.208816124682616
 20
0.3957395731715114
 10
1.175065956006481
 20
0.3957395731715114
 10
1.175065956006481
 20
0.3526143179045111
 10
1.392565980080039
 20
0.3526143179045111
 10
1.422565792254577
 20
0.3826143535964666
 10
1.422565792254577
 20
0.5701142078676189
  0
LWPOLYLINE
  5
5E4
102
{ACAD_REACTORS
330
5E1
102
}
330
5DA
100
AcDbEntity
  8
CONTINUOUS1
  6
CONTINUOUS
 62
     9
100
AcDbPolyline
 90
        4
 70
     1
 43
0.0
 10
1.454440827383312
 20
0.631989144577688
 10
1.143190831470779
 20
0.631989144577688
 10
1.143190831470779
 20
0.3207393721827434
 10
1.454440827383312
 20
0.3207393721827434
  0
LWPOLYLINE
  5
5E5
102
{ACAD_REACTORS
330
5E1
102
}
330
5DA
100
AcDbEntity
  8
CONTINUOUS1
  6
CONTINUOUS
 62
     9
100
AcDbPolyline
 90
        4
 70
     1
 43
0.0
 10
1.251941245839166
 20
0.5569891671065084
 10
1.251941245839166
 20
0.3957395731715114
 10
1.379440760504994
 20
0.3957395731715114
 10
1.379440760504994
 20
0.5569891671065084
  0
HATCH
  5
5E6
330
5DA
100
AcDbEntity
  8
CONTINUOUS1
 62
     9
100
AcDbHatch
 10
0.0
 20
0.0
 30
0.0
210
0.0
220
0.0
230
1.0
  2
SOLID
 70
     1
 71
     1
 91
        1
 92
        1
 93
       89
 72
     2
 10
1.645257337476964
 20
0.0814143414971476
 40
0.3138538690791402
 50
284.6944519958723
 51
285.4191253488389
 73
     0
 72
     2
 10
1.720457213394254
 20
0.3531253338612149
 40
0.0319296518074946
 50
284.9683007167661
 51
291.8740039713855
 73
     0
 72
     2
 10
1.718195577080779
 20
0.3443304300779819
 40
0.0409509237081423
 50
290.2257686458056
 51
296.0035662963079
 73
     0
 72
     2
 10
1.72314595174561
 20
0.3537733468281424
 40
0.0302951436135202
 50
295.4187775578141
 51
306.3988581780349
 73
     0
 72
     2
 10
1.730025090825645
 20
0.361238674598352
 40
0.0202344686019184
 50
303.2624042499299
 51
317.2878846799652
 73
     0
 72
     2
 10
1.730612078202064
 20
0.3607780556607589
 40
0.0201290944001072
 50
315.1907124339085
 51
326.4916231752553
 73
     0
 72
     2
 10
1.731384680029217
 20
0.360485539114584
 40
0.0196578170187561
 50
324.5371901048516
 51
336.7528223782186
 73
     0
 72
     2
 10
1.740306489368903
 20
0.3630067677477766
 40
0.0105343712984082
 50
330.185107206006
 51
345.1051507906131
 73
     0
 72
     2
 10
1.730807356874114
 20
0.3584209650416714
 40
0.0209876439961997
 50
339.6643160257259
 51
350.0934782379626
 73
     0
 72
     2
 10
1.736619499258567
 20
0.3581357520531636
 40
0.0153647146054281
 50
345.3114316897936
 51
354.9413954442734
 73
     0
 72
     2
 10
1.736768036672925
 20
0.3568918841578894
 40
0.0153774953930229
 50
350.2708870332075
 51
359.9231366677853
 73
     0
 72
     2
 10
1.730590676285318
 20
0.3543834528394247
 40
0.0217027039382449
 50
353.3080009674447
 51
359.6430783683235
 73
     0
 72
     2
 10
1.740274031623638
 20
0.3541129784720702
 40
0.0120257717465816
 50
358.0668546616999
 51
370.2286816408818
 73
     0
 72
     2
 10
1.734983328508103
 20
0.3525209240439113
 40
0.0171339680084192
 50
1.817597670723287
 51
10.12122589077211
 73
     0
 72
     2
 10
1.720741037007382
 20
0.3544475624347459
 40
0.0314990269535048
 50
9.018567450089358
 51
13.77874652122445
 73
     0
 72
     2
 10
1.736924488523371
 20
0.3496574086216055
 40
0.0146621286791563
 50
10.65944881196798
 51
20.70103934564268
 73
     0
 72
     2
 10
1.736504343267595
 20
0.3481737388171249
 40
0.0146116828357803
 50
14.66530941358183
 51
25.10867622728001
 73
     0
 72
     2
 10
1.732146476908514
 20
0.3484117679524195
 40
0.0187301362989403
 50
20.10490982839685
 51
28.61210132811573
 73
     0
 72
     2
 10
1.735923851992664
 20
0.3448321994977361
 40
0.013764623253097
 50
23.05247272481818
 51
34.97873691770508
 73
     0
 72
     2
 10
1.736817050777414
 20
0.3420413163283825
 40
0.0115697541019344
 50
26.15519936339432
 51
41.2675437975994
 73
     0
 72
     2
 10
1.718278281875029
 20
0.3540391568686173
 40
0.0335714709763406
 50
35.78123864162446
 51
41.15363322202702
 73
     0
 72
     2
 10
1.727768982569827
 20
0.3459769352513192
 40
0.0211206067808035
 50
41.628953043204
 51
51.13236693201276
 73
     0
 72
     2
 10
1.7049361419961
 20
0.3726572867131739
 40
0.0562315357389323
 50
50.07766185775929
 51
54.48975877743766
 73
     0
 72
     2
 10
1.721996710283804
 20
0.3482674527964862
 40
0.0264697940015853
 50
53.88519289323266
 51
64.03139621868574
 73
     0
 72
     2
 10
1.71549323629139
 20
0.3583918783868048
 40
0.0384457260336791
 50
61.92426471048903
 51
71.20704351412637
 73
     0
 72
     2
 10
1.713056446365431
 20
0.3691361880596826
 40
0.0494157401965211
 50
72.54563927506668
 51
79.16534470614535
 73
     0
 72
     2
 10
1.712368390340278
 20
0.378009241623432
 40
0.0582684049416463
 50
80.14095651381211
 51
90.0416888893921
 73
     0
 72
     2
 10
1.711034894028758
 20
0.4162808932093566
 40
0.096548674122413
 50
89.23378781360057
 51
94.71296871457857
 73
     0
 72
     2
 10
1.715019285167041
 20
0.4355757642229089
 40
0.1161301845769512
 50
95.89003491054352
 51
99.42152931169502
 73
     0
 72
     2
 10
1.707384050587419
 20
0.3824129170476944
 40
0.0624455715380243
 50
100.4954159019732
 51
106.3873755254328
 73
     0
 72
     2
 10
1.716129204411812
 20
0.4114303679072302
 40
0.0927517156651875
 50
106.512896770692
 51
110.5690487960562
 73
     0
 72
     2
 10
1.696198413310064
 20
0.3625905204389435
 40
0.0400511678448031
 50
108.4212700638492
 51
114.2391927251731
 73
     0
 72
     2
 10
1.710118011273555
 20
0.4023608384343336
 40
0.082110467699766
 50
111.7018026255303
 51
116.2385814647555
 73
     0
 72
     1
 10
1.673816157100507
 20
0.3287109620632696
 11
1.673816157100507
 21
0.348755448516386
 72
     2
 10
1.683151915978065
 20
0.3592465940770362
 40
0.0140435226704221
 50
228.3350642341723
 51
234.1997399115519
 73
     1
 72
     2
 10
1.71106741933919
 20
0.3855932213725186
 40
0.0522443504544944
 50
226.2457929287056
 51
246.6255762978013
 73
     1
 72
     2
 10
1.7124653088878
 20
0.3860023780454533
 40
0.0531863360228971
 50
245.4180460169437
 51
259.9919736394325
 73
     1
 72
     2
 10
1.710648990849527
 20
0.3758156686850265
 40
0.042838986613708
 50
260.0165443283761
 51
273.9182757893534
 73
     1
 72
     2
 10
1.704270595794476
 20
0.4586741074147547
 40
0.125941558255588
 50
274.2374069265417
 51
275.5960285914579
 73
     1
 72
     2
 10
1.687010818636519
 20
0.5411427391697574
 40
0.2098991318858489
 50
278.0905665143724
 51
278.7875532853595
 73
     1
 72
     2
 10
1.674916599532425
 20
0.5319581852745105
 40
0.2031096024358981
 50
282.5577335184531
 51
283.2741998696473
 73
     1
 72
     2
 10
1.712960478455043
 20
0.3650274495505624
 40
0.0319300969034177
 50
285.6107769316435
 51
293.9249150269261
 73
     1
 72
     2
 10
1.717091548593948
 20
0.3539696976826635
 40
0.0201595864519346
 50
295.9382025947192
 51
314.8152667683908
 73
     1
 72
     2
 10
1.6400442733431
 20
0.4219905414971168
 40
0.1229006178787137
 50
317.946563084173
 51
318.8734190764908
 73
     1
 72
     2
 10
1.689533775167257
 20
0.3727603930704881
 40
0.0534349306228064
 50
323.7393060910158
 51
325.8371011508592
 73
     1
 72
     2
 10
1.732847152652873
 20
0.3433656347877086
 40
0.0010889614970517
 50
325.8371011415855
 51
338.3720801963383
 73
     1
 72
     2
 10
1.729762363574412
 20
0.345527035075586
 40
0.0048325847931998
 50
327.9736107298026
 51
337.3435922236591
 73
     1
 72
     2
 10
1.728938576684472
 20
0.3470616501634721
 40
0.0062808146373788
 50
327.2675058013616
 51
338.1636262704569
 73
     1
 72
     2
 10
1.718066376903955
 20
0.3518592455185608
 40
0.0181620471788818
 50
336.8720644633642
 51
339.5841382784865
 73
     1
 72
     2
 10
1.728443171512713
 20
0.3485112543123717
 40
0.0072851481640173
 50
335.7900569772922
 51
348.373615422373
 73
     1
 72
     2
 10
1.727754169766592
 20
0.3495237604987842
 40
0.0082084908006828
 50
342.4097077310363
 51
352.3427229945868
 73
     1
 72
     2
 10
1.728619171594273
 20
0.3504840831181579
 40
0.0075548925971309
 50
344.2233826564188
 51
361.8598518928816
 73
     1
 72
     2
 10
1.720733754063239
 20
0.3523571712334882
 40
0.0155219307481708
 50
353.9799134066503
 51
362.7705430541222
 73
     1
 72
     2
 10
1.726132206714243
 20
0.3535683939447038
 40
0.0101158423979231
 50
357.3882870010598
 51
372.3082229322081
 73
     1
 72
     2
 10
1.724756018715517
 20
0.3547830051705612
 40
0.0112988364300847
 50
4.781307968932465
 51
20.9890143012329
 73
     1
 72
     2
 10
1.726660663964363
 20
0.3566320215872782
 40
0.0089195903363647
 50
14.2666708584078
 51
35.42677828019
 73
     1
 72
     2
 10
1.725007785367363
 20
0.3573460494205585
 40
0.0099721744159251
 50
26.54339514703695
 51
53.39459405095841
 73
     1
 72
     2
 10
1.719832069396286
 20
0.353126094907573
 40
0.0165274923585889
 50
47.70505911180914
 51
69.77619662812056
 73
     1
 72
     2
 10
1.710207974215595
 20
0.3313170294772276
 40
0.0403465351747173
 50
67.65746071435081
 51
78.07775985177944
 73
     1
 72
     2
 10
1.601474124602898
 20
-0.0764452376149089
 40
0.4623065683695236
 50
75.33141058767751
 51
77.08564753834979
 73
     1
 72
     2
 10
1.727562810239215
 20
0.4665872614049196
 40
0.0951825269178676
 50
103.8381813161471
 51
111.0296444355485
 73
     0
 72
     2
 10
1.70471971545613
 20
0.4062361413736136
 40
0.030655669555327
 50
111.65657497264
 51
141.0002630637684
 73
     0
 72
     2
 10
1.700542583280421
 20
0.4033450635238994
 40
0.0255928623197818
 50
140.1451628894058
 51
170.4005157591877
 73
     0
 72
     2
 10
1.707946390985723
 20
0.4059675729609214
 40
0.0333577023314167
 50
168.0791562340355
 51
196.714918276154
 73
     0
 72
     2
 10
1.706228373491397
 20
0.4054484368029155
 40
0.0318770017390912
 50
198.4970064170468
 51
236.9071959398739
 73
     0
 72
     2
 10
1.712467544153362
 20
0.3958721183130906
 40
0.043306486619005
 50
236.9092344715733
 51
272.9993782410681
 73
     0
 72
     2
 10
1.713943818059902
 20
0.3576895869998347
 40
0.0814335220491864
 50
270.5556637982262
 51
294.5824803086023
 73
     0
 72
     1
 10
1.747820387170609
 20
0.4317422478475242
 11
1.747820387170609
 21
0.4116977613945783
 72
     2
 10
1.740625727683456
 20
0.4079966488085459
 40
0.0080908194585325
 50
27.22242166817361
 51
41.56665402458706
 73
     1
 72
     2
 10
1.706598002528515
 20
0.3661008206880739
 40
0.0619708439541246
 50
49.70116220293705
 51
59.84734228048411
 73
     1
 72
     2
 10
1.71458845708311
 20
0.3777828381052394
 40
0.0478671962964794
 50
61.09387816236751
 51
68.21315356019836
 73
     1
 72
     2
 10
1.721754113738912
 20
0.4005694677942343
 40
0.0241161586298676
 50
63.92424707162
 51
76.50768984029872
 73
     1
 72
     2
 10
1.720387329033739
 20
0.4052584665162603
 40
0.0200226190349931
 50
69.55689277879226
 51
79.95640428982631
 73
     1
 72
     2
 10
1.714854713299164
 20
0.3864537173573991
 40
0.0395635296700699
 50
76.81466162170224
 51
103.1853383782977
 73
     1
 72
     2
 10
1.711556222792086
 20
0.401176318347385
 40
0.0244771044560784
 50
103.5287750504826
 51
118.7111022038487
 73
     1
 72
     2
 10
1.709210382761595
 20
0.405247847997013
 40
0.0197794909640232
 50
118.4171119187522
 51
136.9427492139033
 73
     1
 72
     2
 10
1.705219023490787
 20
0.4088531486190613
 40
0.0144019602014125
 50
136.5818159972848
 51
158.311705465411
 73
     1
 72
     2
 10
1.705906344939513
 20
0.4084853055890463
 40
0.0151768177531213
 50
157.9802459264048
 51
175.7279862744334
 73
     1
 72
     2
 10
1.708158378716641
 20
0.4073882615894271
 40
0.0175288039263104
 50
172.6990132420623
 51
188.9919500615153
 73
     1
 72
     2
 10
1.709434724792039
 20
0.4071277136839012
 40
0.018754306378342
 50
187.5961529692752
 51
202.8514728843145
 73
     1
 72
     2
 10
1.713415982510703
 20
0.4098029626068265
 40
0.0234800083169512
 50
205.095036290115
 51
208.7062773863674
 73
     1
 72
     2
 10
1.716530427614822
 20
0.4130319444988484
 40
0.0277947475210845
 50
211.4617467723877
 51
214.4776167681863
 73
     1
 72
     2
 10
1.798805844752166
 20
0.4794678086208626
 40
0.1334781556174936
 50
217.9960096590552
 51
218.6051445060782
 73
     1
 72
     2
 10
1.71411393594937
 20
0.4147818027158588
 40
0.0270311104968983
 50
223.4727412172602
 51
231.5765454796655
 73
     1
 72
     2
 10
1.714970516181898
 20
0.4199578584883053
 40
0.0317208861058423
 50
236.179619535216
 51
243.9627139296284
 73
     1
 72
     2
 10
1.714189405924324
 20
0.4219347204146949
 40
0.0331913735031554
 50
246.6731896134593
 51
253.5722006974093
 73
     1
 72
     2
 10
1.744025458148191
 20
0.5256870746424274
 40
0.141147928729737
 50
253.8660232573638
 51
256.4915086256218
 73
     1
 72
     2
 10
1.777665220868062
 20
0.6375281662311756
 40
0.2578369482397982
 50
255.0282214889518
 51
257.0441428996435
 73
     1
 72
     2
 10
1.816666655740251
 20
0.7631436335592352
 40
0.3891233421787054
 50
255.5942969765304
 51
256.3550761129648
 73
     1
 97
        1
330
5E7
 75
     0
 76
     1
 98
        1
 10
-6.623918024059631
 20
-0.1308261527660757
  0
LWPOLYLINE
  5
5E7
102
{ACAD_REACTORS
330
5E6
102
}
330
5DA
100
AcDbEntity
  8
CONTINUOUS1
  6
CONTINUOUS
 62
     9
100
AcDbPolyline
 90
       89
 70
     1
 43
0.0
 10
1.724870853814341
 20
0.3850027786161268
 42
-0.0031619945407147
 10
1.728704150753092
 20
0.3839715765618625
 42
-0.030140937208008
 10
1.732353140628195
 20
0.3827562228082688
 42
-0.0252157404289211
 10
1.736149571400208
 20
0.3811357590471407
 42
-0.0479463296275325
 10
1.741123176189407
 20
0.3781580782775795
 42
-0.0612742161665951
 10
1.744892795204041
 20
0.3749640192613701
 42
-0.0493495283417487
 10
1.747395820137942
 20
0.3718905012960936
 42
-0.0533512835500878
 10
1.749446491741114
 20
0.3682444519009782
 42
-0.0651930963851117
 10
1.750486897271546
 20
0.3657145848738996
 42
-0.0455372415571768
 10
1.751482069845824
 20
0.3620317051387478
 42
-0.0420433899694379
 10
1.751924368767706
 20
0.3594905303429532
 42
-0.0421408027509401
 10
1.752145518228733
 20
0.3569125133419679
 42
-0.0276490321326908
 10
1.752292959125814
 20
0.3545186480399711
 42
-0.0531158483705343
 10
1.752108675831355
 20
0.351977473244347
 42
-0.0362472752477507
 10
1.751850660203931
 20
0.3495099472627889
 42
-0.0207731867223286
 10
1.751333606869341
 20
0.3469453382139709
 42
-0.0438427632265486
 10
1.750639995259209
 20
0.344474466177076
 42
-0.0455993495213645
 10
1.749735288597239
 20
0.3419734677764841
 42
-0.0371366834740924
 10
1.748589323656208
 20
0.3394423311468704
 42
-0.0520851678945367
 10
1.747202100436116
 20
0.3369413208807833
 42
-0.0660357795919543
 10
1.745513316251706
 20
0.3344101842511696
 42
-0.023445788208571
 10
1.743555844029206
 20
0.3319464314809016
 42
-0.0414902487431464
 10
1.741022655867912
 20
0.3295324779815592
 42
-0.0192537831905492
 10
1.737598143154318
 20
0.3268841582216742
 42
-0.0443001092257388
 10
1.733587265860453
 20
0.3244702047221613
 42
-0.0405259275577274
 10
1.727878500744825
 20
0.321995737455723
 42
-0.0288919489310161
 10
1.722345390671794
 20
0.320601346009426
 42
-0.0432269886872848
 10
1.712325993764213
 20
0.3197408521058383
 42
-0.0239119926891615
 10
1.703102059868147
 20
0.320058668037746
 42
-0.0154102708889789
 10
1.696009161539993
 20
0.3210120921031608
 42
-0.0257141890330953
 10
1.689766276740588
 20
0.3225041242924367
 42
-0.0177001500616332
 10
1.68354219344852
 20
0.3245916238161617
 42
-0.0253909309126544
 10
1.679755531853889
 20
0.3260702836495857
 42
-0.0197980181237655
 10
1.673816157100507
 20
0.3287109620632696
 10
1.673816157100507
 20
0.348755448516386
 42
0.0255950620068941
 10
1.674936997903589
 20
0.3478564382385803
 42
0.0891587087538363
 10
1.690340091136224
 20
0.3376364698146977
 42
0.0636766101274314
 10
1.703222261160565
 20
0.3336253562873144
 42
0.0607322500225615
 10
1.713576329651434
 20
0.333076816786218
 42
0.0059281747790857
 10
1.716551650349604
 20
0.3333327662903689
 42
0.0030411878748934
 10
1.719077351184896
 20
0.3337074888945045
 42
0.0031261843860593
 10
1.721552898821219
 20
0.33427519108858
 42
0.0362931935570043
 10
1.725909381570975
 20
0.3358408602267678
 42
0.0825535038755105
 10
1.731300493913952
 20
0.3396688306178253
 42
0.004044194237512
 10
1.732620188585404
 20
0.3411557606659703
 42
0.0091536133499963
 10
1.733748207713492
 20
0.3427541309694111
 42
0.054748767696608
 10
1.733859447984034
 20
0.342964267992159
 42
0.0409070518720577
 10
1.734222024712014
 20
0.3436655038990471
 42
0.0475791486181886
 10
1.734768742118806
 20
0.3447254559255275
 42
0.0118342068154451
 10
1.735087583355696
 20
0.3455237511688556
 42
0.0549613731019633
 10
1.735578847012138
 20
0.3470430857462366
 42
0.0433681134276899
 10
1.73588946407526
 20
0.3484300019622428
 42
0.0771058776446834
 10
1.736170084296336
 20
0.3507292759402394
 42
0.0383751788318603
 10
1.736237541537239
 20
0.3531074432588643
 42
0.0651926246618979
 10
1.736015536381987
 20
0.355724794208641
 42
0.0708375912954788
 10
1.735305167423494
 20
0.3588301234306077
 42
0.092591635874942
 10
1.733928854306643
 20
0.3618023698267057
 42
0.1176994875674221
 10
1.730954199148673
 20
0.3653513242892363
 42
0.0966023314025739
 10
1.725545426224218
 20
0.3686346589100826
 42
0.045498488973316
 10
1.718542922500464
 20
0.370793244312154
 42
0.0076544521501666
 10
1.704797000298331
 20
0.3741673970455399
 42
-0.0313889801307479
 10
1.693406471978821
 20
0.3777443776881459
 42
-0.1287402518965054
 10
1.68089569708869
 20
0.3869440128048614
 42
-0.1327861629458718
 10
1.675308084036803
 20
0.399077201103069
 42
-0.1256013842756795
 10
1.675998130253706
 20
0.4155615784346769
 42
-0.1691830721684855
 10
1.688823634294099
 20
0.4321545839108017
 42
-0.1587876586997674
 10
1.714733561235252
 20
0.4391192794900581
 42
-0.1052225384089748
 10
1.747820387170609
 20
0.4317422478475242
 10
1.747820387170609
 20
0.4116977613945783
 42
0.0626703755683868
 10
1.746679152318026
 20
0.4133648337628988
 42
0.0443000075885412
 10
1.737726307158229
 20
0.4196863985170585
 42
0.0310736945441558
 10
1.732354590554709
 20
0.4222309312336852
 42
0.0549608668437835
 10
1.727380771841954
 20
0.4240200504235081
 42
0.0454075984514084
 10
1.723879222863931
 20
0.4249742457425332
 42
0.1155742899323605
 10
1.705830203734397
 20
0.4249742457425332
 42
0.0663424745816582
 10
1.699797582061794
 20
0.4226440385507435
 42
0.0810098588725135
 10
1.694758065035475
 20
0.418751876104921
 42
0.0950996757952028
 10
1.691836605545322
 20
0.4141754927995867
 42
0.0775942943034753
 10
1.69077169387825
 20
0.4096158516364317
 42
0.0712113554365052
 10
1.690844998364273
 20
0.4046485849914921
 42
0.0666623741392031
 10
1.692152356774816
 20
0.3998445987287487
 42
0.0157583160010225
 10
1.692821818787681
 20
0.3985250545067633
 42
0.0131599749339241
 10
1.693617899800845
 20
0.3972977759814289
 42
0.0026578584258268
 10
1.694497411016957
 20
0.3961841446839576
 42
0.0353742605666019
 10
1.697314951177393
 20
0.3936045733095743
 42
0.0339732171468453
 10
1.70104644425314
 20
0.391456370171682
 42
0.0301117106030551
 10
1.704802657389084
 20
0.3900983225819918
 42
0.0114563422017746
 10
1.711054788441661
 20
0.3884439592457061
 42
0.0087963433832554
 10
1.719858101006852
 20
0.3862549508440911
 42
0.0033195373957588
  0
HATCH
  5
5E8
330
5DA
100
AcDbEntity
  8
CONTINUOUS1
 62
     9
100
AcDbHatch
 10
0.0
 20
0.0
 30
0.0
210
0.0
220
0.0
230
1.0
  2
SOLID
 70
     1
 71
     1
 91
        1
 92
        1
 93
       63
 72
     1
 10
2.811736575584777
 20
0.3185392197908646
 11
2.814514193678665
 21
0.3185392197908646
 72
     1
 10
2.814514193678665
 20
0.3185392197908646
 11
2.817291811772722
 21
0.3185392197908646
 72
     1
 10
2.817291811772722
 20
0.3185392197908646
 11
2.82006942986678
 21
0.3185392197908646
 72
     1
 10
2.82006942986678
 20
0.3185392197908646
 11
2.822847047960667
 21
0.3185392197908646
 72
     1
 10
2.822847047960667
 20
0.3185392197908646
 11
2.825624666054725
 21
0.3185392197908646
 72
     1
 10
2.825624666054725
 20
0.3185392197908646
 11
2.825624666054725
 21
0.3213168378847518
 72
     1
 10
2.825624666054725
 20
0.3213168378847518
 11
2.825624666054725
 21
0.3240944559788095
 72
     1
 10
2.825624666054725
 20
0.3240944559788095
 11
2.825624666054725
 21
0.3629811092945947
 72
     1
 10
2.825624666054725
 20
0.3629811092945947
 11
2.825624666054725
 21
0.3657587273886524
 72
     1
 10
2.825624666054725
 20
0.3657587273886524
 11
2.825624666054725
 21
0.3685363454825397
 72
     1
 10
2.825624666054725
 20
0.3685363454825397
 11
2.826336506825416
 21
0.3713139635765974
 72
     1
 10
2.826336506825416
 20
0.3713139635765974
 11
2.827485670177711
 21
0.3740915816706551
 72
     1
 10
2.827485670177711
 20
0.3740915816706551
 11
2.828930031586512
 21
0.3764803332313709
 72
     1
 10
2.828930031586512
 20
0.3764803332313709
 11
2.83117990224267
 21
0.378258008811486
 72
     1
 10
2.83117990224267
 20
0.378258008811486
 11
2.833957520336728
 21
0.3803481447481549
 72
     1
 10
2.833957520336728
 20
0.3803481447481549
 11
2.836458499551472
 21
0.3821533245041455
 72
     1
 10
2.836458499551472
 20
0.3821533245041455
 11
2.838496571758387
 21
0.3835311386972085
 72
     1
 10
2.838496571758387
 20
0.3835311386972085
 11
2.840318265771859
 21
0.3843965447991882
 72
     1
 10
2.840318265771859
 20
0.3843965447991882
 11
2.84229037461856
 21
0.3852020540465451
 72
     1
 10
2.84229037461856
 20
0.3852020540465451
 11
2.845067992712618
 21
0.3860225445559995
 72
     1
 10
2.845067992712618
 20
0.3860225445559995
 11
2.848792121584697
 21
0.3859647625154712
 72
     1
 10
2.848792121584697
 20
0.3859647625154712
 11
2.851394365793826
 21
0.3851557727118125
 72
     1
 10
2.851394365793826
 20
0.3851557727118125
 11
2.85340084699462
 21
0.3838132449996015
 72
     1
 10
2.85340084699462
 20
0.3838132449996015
 11
2.855500116228117
 21
0.3819776024104162
 72
     1
 10
2.855500116228117
 20
0.3819776024104162
 11
2.857567274135451
 21
0.3796468178584296
 72
     1
 10
2.857567274135451
 20
0.3796468178584296
 11
2.858956083182565
 21
0.3784524420782422
 72
     1
 10
2.858956083182565
 20
0.3784524420782422
 11
2.859999004466235
 21
0.380049012932091
 72
     1
 10
2.859999004466235
 20
0.380049012932091
 11
2.861508043922615
 21
0.3823591474088066
 72
     1
 10
2.861508043922615
 20
0.3823591474088066
 11
2.86329254810855
 21
0.3850909809773389
 72
     1
 10
2.86329254810855
 20
0.3850909809773389
 11
2.864332596004462
 21
0.3866831530647805
 72
     1
 10
2.864332596004462
 20
0.3866831530647805
 11
2.865705695150868
 21
0.3887851813877892
 72
     1
 10
2.865705695150868
 20
0.3887851813877892
 11
2.86451131937051
 21
0.39075729023449
 72
     1
 10
2.86451131937051
 20
0.39075729023449
 11
2.862459275569538
 21
0.3932298076646252
 72
     1
 10
2.862459275569538
 20
0.3932298076646252
 11
2.859413586285572
 21
0.3956385659741959
 72
     1
 10
2.859413586285572
 20
0.3956385659741959
 11
2.857697565716623
 21
0.3970016751998178
 72
     1
 10
2.857697565716623
 20
0.3970016751998178
 11
2.855372955841321
 21
0.3982846352691358
 72
     1
 10
2.855372955841321
 20
0.3982846352691358
 11
2.85340084699462
 21
0.3990901445163222
 72
     1
 10
2.85340084699462
 20
0.3990901445163222
 11
2.850623228900563
 21
0.3990901445163222
 72
     1
 10
2.850623228900563
 20
0.3990901445163222
 11
2.847845610806505
 21
0.3990901445163222
 72
     1
 10
2.847845610806505
 20
0.3990901445163222
 11
2.845067992712618
 21
0.3987012779831507
 72
     1
 10
2.845067992712618
 20
0.3987012779831507
 11
2.84229037461856
 21
0.3977013354693786
 72
     1
 10
2.84229037461856
 20
0.3977013354693786
 11
2.839707189791258
 21
0.3961180931558492
 72
     1
 10
2.839707189791258
 20
0.3961180931558492
 11
2.837429542954087
 21
0.394229312851849
 72
     1
 10
2.837429542954087
 20
0.394229312851849
 11
2.835346329383671
 21
0.3921460992814336
 72
     1
 10
2.835346329383671
 20
0.3921460992814336
 11
2.833263115813085
 21
0.3900628857110182
 72
     1
 10
2.833263115813085
 20
0.3900628857110182
 11
2.831537288210913
 21
0.3878950002004449
 72
     1
 10
2.831537288210913
 20
0.3878950002004449
 11
2.829863986653013
 21
0.3860075632937314
 72
     1
 10
2.829863986653013
 20
0.3860075632937314
 11
2.825624666054725
 21
0.3814779152569376
 72
     1
 10
2.825624666054725
 20
0.3814779152569376
 11
2.825624666054725
 21
0.3860075632937314
 72
     1
 10
2.825624666054725
 20
0.3860075632937314
 11
2.825624666054725
 21
0.3879796721404323
 72
     1
 10
2.825624666054725
 20
0.3879796721404323
 11
2.825624666054725
 21
0.39075729023449
 72
     1
 10
2.825624666054725
 20
0.39075729023449
 11
2.825624666054725
 21
0.3935349083285478
 72
     1
 10
2.825624666054725
 20
0.3935349083285478
 11
2.825624666054725
 21
0.396312526422435
 72
     1
 10
2.825624666054725
 20
0.396312526422435
 11
2.822847047960667
 21
0.396312526422435
 72
     1
 10
2.822847047960667
 20
0.396312526422435
 11
2.82006942986678
 21
0.396312526422435
 72
     1
 10
2.82006942986678
 20
0.396312526422435
 11
2.817291811772722
 21
0.396312526422435
 72
     1
 10
2.817291811772722
 20
0.396312526422435
 11
2.814514193678665
 21
0.396312526422435
 72
     1
 10
2.814514193678665
 20
0.396312526422435
 11
2.811736575584777
 21
0.396312526422435
 72
     1
 10
2.811736575584777
 20
0.396312526422435
 11
2.811736575584777
 21
0.3935349083285478
 72
     1
 10
2.811736575584777
 20
0.3935349083285478
 11
2.811736575584777
 21
0.39075729023449
 72
     1
 10
2.811736575584777
 20
0.39075729023449
 11
2.811736575584777
 21
0.3240944559788095
 72
     1
 10
2.811736575584777
 20
0.3240944559788095
 11
2.811736575584777
 21
0.3213168378847518
 72
     1
 10
2.811736575584777
 20
0.3213168378847518
 11
2.811736575584777
 21
0.3185392197908646
 97
        1
330
5E9
 75
     0
 76
     1
 98
        1
 10
-6.623918024059631
 20
-0.1308261527660757
  0
LWPOLYLINE
  5
5E9
102
{ACAD_REACTORS
330
5E8
102
}
330
5DA
100
AcDbEntity
  8
CONTINUOUS1
  6
CONTINUOUS
 62
     9
100
AcDbPolyline
 90
       64
 70
     0
 43
0.0
 10
2.811736575584777
 20
0.3185392197908646
 10
2.814514193678665
 20
0.3185392197908646
 10
2.817291811772722
 20
0.3185392197908646
 10
2.82006942986678
 20
0.3185392197908646
 10
2.822847047960667
 20
0.3185392197908646
 10
2.825624666054725
 20
0.3185392197908646
 10
2.825624666054725
 20
0.3213168378847518
 10
2.825624666054725
 20
0.3240944559788095
 10
2.825624666054725
 20
0.3629811092945947
 10
2.825624666054725
 20
0.3657587273886524
 10
2.825624666054725
 20
0.3685363454825397
 10
2.826336506825416
 20
0.3713139635765974
 10
2.827485670177711
 20
0.3740915816706551
 10
2.828930031586512
 20
0.3764803332313709
 10
2.83117990224267
 20
0.378258008811486
 10
2.833957520336728
 20
0.3803481447481549
 10
2.836458499551472
 20
0.3821533245041455
 10
2.838496571758387
 20
0.3835311386972085
 10
2.840318265771859
 20
0.3843965447991882
 10
2.84229037461856
 20
0.3852020540465451
 10
2.845067992712618
 20
0.3860225445559995
 10
2.848792121584697
 20
0.3859647625154712
 10
2.851394365793826
 20
0.3851557727118125
 10
2.85340084699462
 20
0.3838132449996015
 10
2.855500116228117
 20
0.3819776024104162
 10
2.857567274135451
 20
0.3796468178584296
 10
2.858956083182565
 20
0.3784524420782422
 10
2.859999004466235
 20
0.380049012932091
 10
2.861508043922615
 20
0.3823591474088066
 10
2.86329254810855
 20
0.3850909809773389
 10
2.864332596004462
 20
0.3866831530647805
 10
2.865705695150868
 20
0.3887851813877892
 10
2.86451131937051
 20
0.39075729023449
 10
2.862459275569538
 20
0.3932298076646252
 10
2.859413586285572
 20
0.3956385659741959
 10
2.857697565716623
 20
0.3970016751998178
 10
2.855372955841321
 20
0.3982846352691358
 10
2.85340084699462
 20
0.3990901445163222
 10
2.850623228900563
 20
0.3990901445163222
 10
2.847845610806505
 20
0.3990901445163222
 10
2.845067992712618
 20
0.3987012779831507
 10
2.84229037461856
 20
0.3977013354693786
 10
2.839707189791258
 20
0.3961180931558492
 10
2.837429542954087
 20
0.394229312851849
 10
2.835346329383671
 20
0.3921460992814336
 10
2.833263115813085
 20
0.3900628857110182
 10
2.831537288210913
 20
0.3878950002004449
 10
2.829863986653013
 20
0.3860075632937314
 10
2.825624666054725
 20
0.3814779152569376
 10
2.825624666054725
 20
0.3860075632937314
 10
2.825624666054725
 20
0.3879796721404323
 10
2.825624666054725
 20
0.39075729023449
 10
2.825624666054725
 20
0.3935349083285478
 10
2.825624666054725
 20
0.396312526422435
 10
2.822847047960667
 20
0.396312526422435
 10
2.82006942986678
 20
0.396312526422435
 10
2.817291811772722
 20
0.396312526422435
 10
2.814514193678665
 20
0.396312526422435
 10
2.811736575584777
 20
0.396312526422435
 10
2.811736575584777
 20
0.3935349083285478
 10
2.811736575584777
 20
0.39075729023449
 10
2.811736575584777
 20
0.3240944559788095
 10
2.811736575584777
 20
0.3213168378847518
 10
2.811736575584777
 20
0.3185392197908646
  0
HATCH
  5
5EA
330
5DA
100
AcDbEntity
  8
CONTINUOUS1
 62
     9
100
AcDbHatch
 10
0.0
 20
0.0
 30
0.0
210
0.0
220
0.0
230
1.0
  2
SOLID
 70
     1
 71
     1
 91
        2
 92
        1
 93
       10
 72
     1
 10
2.824501390082563
 20
0.6423016628555165
 11
2.824501390082563
 21
0.5568015451240994
 72
     1
 10
2.824501390082563
 20
0.5568015451240994
 11
2.803688857735931
 21
0.5568015451240994
 72
     1
 10
2.803688857735931
 20
0.5568015451240994
 11
2.803688857735931
 21
0.5352391641626002
 72
     1
 10
2.803688857735931
 20
0.5352391641626002
 11
2.97056404175391
 21
0.5352391641626002
 72
     2
 10
2.970564089566778
 20
0.5568015929366667
 40
0.0215624287741196
 50
269.9998729514383
 51
359.9996387859521
 73
     1
 72
     1
 10
2.992126518340469
 20
0.5568014569990419
 11
2.992126518340469
 21
0.6423016628555165
 72
     2
 10
2.970563865504514
 20
0.6423018391063527
 40
0.0215626528366757
 50
359.9995316703782
 51
449.9995316742062
 73
     1
 72
     1
 10
2.97056404175391
 20
0.6638644919423083
 11
2.803688857735931
 21
0.6638644919423083
 72
     1
 10
2.803688857735931
 20
0.6638644919423083
 11
2.803688857735931
 21
0.6423016628555165
 72
     1
 10
2.803688857735931
 20
0.6423016628555165
 11
2.824501390082563
 21
0.6423016628555165
 97
        1
330
5EB
 92
       16
 93
        6
 72
     1
 10
2.846064035419235
 20
0.6423016628555165
 11
2.959782634710521
 21
0.6423016628555165
 72
     2
 10
2.959782720960921
 20
0.6315203420625278
 40
0.0107813207933337
 50
269.9995416346447
 51
359.9995416383139
 73
     0
 72
     1
 10
2.97056404175391
 20
0.6315204283122381
 11
2.97056404175391
 21
0.5675829596674955
 72
     2
 10
2.959782585960379
 20
0.5675830009175986
 40
0.0107814557936096
 50
0.0002192149982456
 51
89.99974092762393
 73
     0
 72
     1
 10
2.959782634710521
 20
0.5568015451240994
 11
2.846064035419235
 21
0.5568015451240994
 72
     1
 10
2.846064035419235
 20
0.5568015451240994
 11
2.846064035419235
 21
0.6423016628555165
 97
        1
330
61B
 75
     0
 76
     1
 98
        1
 10
-6.623918024059631
 20
-0.1308261527660757
  0
LWPOLYLINE
  5
5EB
102
{ACAD_REACTORS
330
5EA
102
}
330
5DA
100
AcDbEntity
  8
CONTINUOUS1
  6
CONTINUOUS
 62
     9
100
AcDbPolyline
 90
       11
 70
     0
 43
0.0
 10
2.824501390082563
 20
0.6423016628555165
 10
2.824501390082563
 20
0.5568015451240994
 10
2.803688857735931
 20
0.5568015451240994
 10
2.803688857735931
 20
0.5352391641626002
 10
2.97056404175391
 20
0.5352391641626002
 42
0.4142123653311114
 10
2.992126518340469
 20
0.5568014569990419
 10
2.992126518340469
 20
0.6423016628555165
 42
0.4142135623926597
 10
2.97056404175391
 20
0.6638644919423083
 10
2.803688857735931
 20
0.6638644919423083
 10
2.803688857735931
 20
0.6423016628555165
 10
2.824501390082563
 20
0.6423016628555165
  0
HATCH
  5
5EC
330
5DA
100
AcDbEntity
  8
CONTINUOUS1
 62
     9
100
AcDbHatch
 10
0.0
 20
0.0
 30
0.0
210
0.0
220
0.0
230
1.0
  2
SOLID
 70
     1
 71
     1
 91
        2
 92
        1
 93
        8
 72
     1
 10
2.270499521908366
 20
0.6638644919422068
 11
2.186814373487525
 21
0.5352389860374847
 72
     1
 10
2.186814373487525
 20
0.5352389860374847
 11
2.212539634043626
 21
0.5352391641624768
 72
     1
 10
2.212539634043626
 20
0.5352391641624768
 11
2.226567774458121
 21
0.5568015451239608
 72
     1
 10
2.226567774458121
 20
0.5568015451239608
 11
2.329499210452329
 21
0.5568015451239608
 72
     1
 10
2.329499210452329
 20
0.5568015451239608
 11
2.343527538366888
 21
0.5352394322875403
 72
     1
 10
2.343527538366888
 20
0.5352394322875403
 11
2.369251898922275
 21
0.5352394322875403
 72
     1
 10
2.369251898922275
 20
0.5352394322875403
 11
2.285566919251696
 21
0.6638644919422068
 72
     1
 10
2.285566919251696
 20
0.6638644919422068
 11
2.270499521908366
 21
0.6638644919422068
 97
        1
330
5ED
 92
       16
 93
        3
 72
     1
 10
2.278033314329977
 20
0.6359049480514618
 11
2.315470001287028
 21
0.5783643742108216
 72
     1
 10
2.315470001287028
 20
0.5783643742108216
 11
2.240596983623252
 21
0.578364196085659
 72
     1
 10
2.240596983623252
 20
0.578364196085659
 11
2.278033126829914
 21
0.635904589926327
 97
        1
330
603
 75
     0
 76
     1
 98
        1
 10
-6.623918024059631
 20
-0.1308261527660757
  0
LWPOLYLINE
  5
5ED
102
{ACAD_REACTORS
330
5EC
102
}
330
5DA
100
AcDbEntity
  8
CONTINUOUS1
  6
CONTINUOUS
 62
     9
100
AcDbPolyline
 90
        9
 70
     0
 43
0.0
 10
2.270499521908366
 20
0.6638644919422068
 10
2.186814373487525
 20
0.5352389860374847
 10
2.212539634043626
 20
0.5352391641624768
 10
2.226567774458121
 20
0.5568015451239608
 10
2.329499210452329
 20
0.5568015451239608
 10
2.343527538366888
 20
0.5352394322875403
 10
2.369251898922275
 20
0.5352394322875403
 10
2.285566919251696
 20
0.6638644919422068
 10
2.270499521908366
 20
0.6638644919422068
  0
HATCH
  5
5EE
330
5DA
100
AcDbEntity
  8
CONTINUOUS1
 62
     9
100
AcDbHatch
 10
0.0
 20
0.0
 30
0.0
210
0.0
220
0.0
230
1.0
  2
SOLID
 70
     1
 71
     1
 91
        2
 92
        7
 72
     0
 73
     1
 93
       20
 10
2.128442524464478
 20
0.39075729023449
 10
2.128442524464478
 20
0.3935349083285478
 10
2.128443163460961
 20
0.396312526422435
 10
2.125664906370591
 20
0.396312526422435
 10
2.122887288276533
 20
0.396312526422435
 10
2.120109670182646
 20
0.396312526422435
 10
2.117332052088588
 20
0.396312526422435
 10
2.114554433994529
 20
0.3963125264224349
 10
2.114554433994531
 20
0.3935349083285478
 10
2.114554433994531
 20
0.39075729023449
 10
2.114554433994531
 20
0.3240944559788095
 10
2.114554433994531
 20
0.3213168378847518
 10
2.114554433994529
 20
0.3185392197908645
 10
2.117332052088588
 20
0.3185392197908646
 10
2.120109670182646
 20
0.3185392197908646
 10
2.122887288276533
 20
0.3185392197908646
 10
2.125664906370591
 20
0.3185392197908646
 10
2.128442524464478
 20
0.3185392197908646
 10
2.128442524464478
 20
0.3213168378847518
 10
2.128442524464478
 20
0.3240944559788095
 97
        1
330
5FD
 92
        7
 72
     1
 73
     1
 93
        2
 10
2.129831333511544
 20
0.4213110892682726
 42
1.0
 10
2.113165624947635
 20
0.4213110892682726
 42
1.0
 97
        1
330
600
 75
     0
 76
     1
 47
0.0005102668735142
 98
        2
 10
2.122640693305477
 20
0.3456997447544359
 10
2.123406352313963
 20
0.4207089780563021
  0
HATCH
  5
5EF
330
5DA
100
AcDbEntity
  8
CONTINUOUS1
 62
     9
100
AcDbHatch
 10
0.0
 20
0.0
 30
0.0
210
0.0
220
0.0
230
1.0
  2
SOLID
 70
     1
 71
     1
 91
        2
 92
       16
 93
       18
 72
     2
 10
2.321414633785401
 20
0.3528851545616271
 40
0.0664396543383199
 50
198.4619958207183
 51
200.1842354247361
 73
     0
 72
     2
 10
2.346555496252456
 20
0.3352454129199108
 40
0.096445586517071
 50
204.8718608834226
 51
205.9393865440841
 73
     0
 72
     2
 10
2.284841225309381
 20
0.3643060230231959
 40
0.0282500412151287
 50
207.6881291807204
 51
212.1468522298009
 73
     0
 72
     2
 10
2.282909253313798
 20
0.3643452262975984
 40
0.0266120055644413
 50
214.289143935524
 51
220.152251626646
 73
     0
 72
     2
 10
2.278385727874132
 20
0.3678076991082785
 40
0.0209235948276609
 50
220.892661179859
 51
232.6516971443595
 73
     0
 72
     2
 10
2.276895739610928
 20
0.3706911836161677
 40
0.0177364140530899
 50
230.8268348175522
 51
247.1055208447452
 73
     0
 72
     2
 10
2.276817950372624
 20
0.370391197006481
 40
0.0179834923776296
 50
247.7056716281972
 51
261.203082165149
 73
     0
 72
     2
 10
2.278151306688851
 20
0.36717654635147
 40
0.0213802051303731
 50
258.9888491839005
 51
271.7108857747937
 73
     0
 72
     2
 10
2.279349636213083
 20
0.3639169558453035
 40
0.0246366297664502
 50
268.6975355392314
 51
280.2804749251206
 73
     0
 72
     2
 10
2.280596940506969
 20
0.369608213028888
 40
0.0188153276110619
 50
279.6361688894454
 51
298.0573516433577
 73
     0
 72
     2
 10
2.281663127814024
 20
0.3730218708912918
 40
0.0153157982727261
 50
300.5449189786844
 51
323.3255645340623
 73
     0
 72
     2
 10
2.278053685300495
 20
0.3712331984285728
 40
0.0192925244149349
 50
325.4679485472512
 51
338.7424644189146
 73
     0
 72
     2
 10
2.27572340908584
 20
0.3699536532293334
 40
0.0219309169397976
 50
337.8342522704153
 51
350.2507032151334
 73
     0
 72
     2
 10
2.256877395661122
 20
0.3664737796651569
 40
0.0410947224300675
 50
349.9184788839777
 51
358.9348353768806
 73
     0
 72
     1
 10
2.297965016891087
 20
0.3672377124287327
 11
2.257140622649931
 21
0.3672377124287327
 72
     2
 10
2.308122798849584
 20
0.3622878182718704
 40
0.051221906858459
 50
185.5455046984018
 51
188.2011430538267
 73
     0
 72
     2
 10
2.608837683911046
 20
0.3072422364761533
 40
0.3569017845664977
 50
190.0614576287786
 51
190.4239000976597
 73
     0
 72
     2
 10
2.44271291905515
 20
0.3231292571124805
 40
0.1911897814441117
 50
194.7530117273464
 51
195.4074903055051
 73
     0
 97
        1
330
601
 92
        1
 93
       47
 72
     2
 10
2.281525461809295
 20
0.3532598947256552
 40
0.0241752923918273
 50
138.3496533346511
 51
148.4595555609686
 73
     0
 72
     2
 10
2.281020321028989
 20
0.3521059761880958
 40
0.0231523339774945
 50
150.2396979683238
 51
156.5937677099167
 73
     0
 72
     2
 10
2.296899550485688
 20
0.3585924636724106
 40
0.040303192361997
 50
157.0988242481769
 51
160.8634840437796
 73
     0
 72
     2
 10
2.35918612564275
 20
0.3744094790060188
 40
0.1044765553251907
 50
163.8678439431619
 51
165.4002231692524
 73
     0
 72
     2
 10
2.290868471540939
 20
0.3551965516179019
 40
0.033550015770866
 50
167.7439659185812
 51
173.0844435487628
 73
     0
 72
     2
 10
2.296499925882827
 20
0.356927593697432
 40
0.0393626795107542
 50
171.5698966947791
 51
180.4334275361526
 73
     0
 72
     1
 10
2.257138372636379
 20
0.3572253591981966
 11
2.310532446287798
 21
0.3572253591981966
 72
     1
 10
2.310532446287798
 20
0.3572253591981966
 11
2.310532446287798
 21
0.367418047889942
 72
     2
 10
2.275762964348938
 20
0.36817833181333
 40
0.0347777932873957
 50
358.7473463266968
 51
388.6031824377397
 73
     1
 72
     2
 10
2.281548948774631
 20
0.3715980049238856
 40
0.0280617767156418
 50
28.12879544758857
 51
54.95063515022645
 73
     1
 72
     2
 10
2.282693890302713
 20
0.3712425033481648
 40
0.0277188046407911
 50
57.31076922041544
 51
82.4940245374038
 73
     1
 72
     2
 10
2.280728554650892
 20
0.3702747845720343
 40
0.0289922752746188
 50
78.89077226525315
 51
93.81071159195634
 73
     1
 72
     2
 10
2.277977672205905
 20
0.3689225917587153
 40
0.0302915785144063
 50
88.44115042377268
 51
109.8107905333598
 73
     1
 72
     2
 10
2.275222109874093
 20
0.3727814463646621
 40
0.0257592548203171
 50
106.9521716693699
 51
124.603661569856
 73
     1
 72
     2
 10
2.274773416578598
 20
0.370745022031955
 40
0.027223416564771
 50
121.3907074886569
 51
136.2843774046689
 73
     1
 72
     2
 10
2.281149153841504
 20
0.3640611980123525
 40
0.0364531928221072
 50
135.6167017519909
 51
147.4469381469264
 73
     1
 72
     2
 10
2.274957111114595
 20
0.367416191215975
 40
0.0294330181030494
 50
146.4659438100723
 51
157.2122986253005
 73
     1
 72
     2
 10
2.267138403680966
 20
0.3693204846406612
 40
0.0215246798664316
 50
153.8226534473667
 51
165.5519937306932
 73
     1
 72
     2
 10
2.282236151108303
 20
0.3626756489903522
 40
0.0378968651110208
 50
161.515271747222
 51
170.1818189345484
 73
     1
 72
     2
 10
2.283166665329934
 20
0.3609961355594354
 40
0.0391287629611654
 50
167.9903558377853
 51
176.6960496179407
 73
     1
 72
     2
 10
2.304890836559504
 20
0.3584175027964993
 40
0.0609797779044622
 50
175.4535176021835
 51
184.5464823978164
 73
     1
 72
     2
 10
2.295769604053971
 20
0.3567421254133762
 40
0.0517631080522538
 50
183.4981100536811
 51
194.429389032572
 73
     1
 72
     2
 10
2.267924221356157
 20
0.3485424727520852
 40
0.0227749164074815
 50
191.9070472796621
 51
206.3889894285758
 73
     1
 72
     2
 10
2.273199831303323
 20
0.3487142209845105
 40
0.0276640261495296
 50
201.8464660881787
 51
222.1274079961559
 73
     1
 72
     2
 10
2.27556874488612
 20
0.3494265410796771
 40
0.0299175639630403
 50
220.0955596825676
 51
233.6759197426415
 73
     1
 72
     2
 10
2.276351476329496
 20
0.3502744687142416
 40
0.0310646393940598
 50
233.4391728830817
 51
246.8725717081748
 73
     1
 72
     2
 10
2.278595672201573
 20
0.3544982286952896
 40
0.035832707340859
 50
246.2252262725147
 51
255.2219052108666
 73
     1
 72
     2
 10
2.281256856845732
 20
0.3625382973605903
 40
0.0442887031977101
 50
254.5461626614621
 51
261.28331875032
 73
     1
 72
     2
 10
2.282043884726467
 20
0.3737944212376278
 40
0.0555418412898209
 50
262.2405778669421
 51
267.866769692275
 73
     1
 72
     2
 10
2.283144833705298
 20
0.3642090186578022
 40
0.0460271287848912
 50
266.0527719165295
 51
277.1377488483287
 73
     1
 72
     2
 10
2.281272771008767
 20
0.3743809067507015
 40
0.0563559280448384
 50
277.7413046158855
 51
284.930809102693
 73
     1
 72
     2
 10
2.279338009686233
 20
0.3840626065593292
 40
0.0662121975991039
 50
284.3899023200388
 51
289.2072984924262
 73
     1
 72
     2
 10
2.2245252206173
 20
0.5275821421545017
 40
0.2198223362827568
 50
290.3921624947603
 51
292.6481637583187
 73
     1
 72
     1
 10
2.309172482915673
 20
0.3247109995190845
 11
2.309172482915673
 21
0.3403736793267176
 72
     2
 10
2.305671207258226
 20
0.3412559357119335
 40
0.0036107211964766
 50
14.14304208538034
 51
40.5809188106621
 73
     0
 72
     2
 10
2.288515538402338
 20
0.3631952191068923
 40
0.0313981308170948
 50
50.67407287050084
 51
56.95139529671177
 73
     0
 72
     2
 10
2.289265767974786
 20
0.3612619791193873
 40
0.0293716166250663
 50
56.12144370235181
 51
61.7382303285629
 73
     0
 72
     2
 10
2.280777067438011
 20
0.3754051721516405
 40
0.0458548879987645
 50
60.76359459619522
 51
64.75139576529091
 73
     0
 72
     2
 10
2.279144285908056
 20
0.3763099703744814
 40
0.047382263147091
 50
63.43218982647736
 51
70.38756687457111
 73
     0
 72
     2
 10
2.276591631531688
 20
0.3888655443368394
 40
0.0600934929530564
 50
72.11336347133055
 51
75.85532826122167
 73
     0
 72
     2
 10
2.283489762083886
 20
0.3621959788453819
 40
0.0325472503124577
 50
76.15762347795572
 51
80.1548619188531
 73
     0
 72
     2
 10
2.280375450633645
 20
0.3826983276081179
 40
0.0532819675598692
 50
80.6249603204364
 51
83.12798914716191
 73
     0
 72
     2
 10
2.282758565718186
 20
0.368048205585744
 40
0.0384568363547721
 50
84.04143915734456
 51
95.95856084265543
 73
     0
 72
     2
 10
2.281672526878255
 20
0.3621321664056745
 40
0.0324633646414816
 50
95.13601524590475
 51
98.33322003417473
 73
     0
 72
     2
 10
2.28073781445788
 20
0.3541936259354742
 40
0.0244742127063064
 50
98.86157888906135
 51
112.110164074241
 73
     0
 72
     2
 10
2.279691010914149
 20
0.3522740777554137
 40
0.0223031909484424
 50
111.4747791446618
 51
123.1250142208017
 73
     0
 72
     2
 10
2.280026853888051
 20
0.3517336784423094
 40
0.0220416868943367
 50
124.6239441549396
 51
138.7251729097469
 73
     0
 97
        1
330
602
 75
     0
 76
     1
 98
        1
 10
-6.623918024059631
 20
-0.1308261527660757
  0
HATCH
  5
5F0
330
5DA
100
AcDbEntity
  8
CONTINUOUS1
 62
     9
100
AcDbHatch
 10
0.0
 20
0.0
 30
0.0
210
0.0
220
0.0
230
1.0
  2
SOLID
 70
     1
 71
     1
 91
        2
 92
       16
 93
       18
 72
     2
 10
2.101715475561753
 20
0.3528851545616271
 40
0.0664396543383199
 50
198.4619958207183
 51
200.1842354247361
 73
     0
 72
     2
 10
2.126856338028808
 20
0.3352454129199108
 40
0.096445586517071
 50
204.8718608834226
 51
205.9393865440841
 73
     0
 72
     2
 10
2.065142067085734
 20
0.3643060230231959
 40
0.0282500412151287
 50
207.6881291807204
 51
212.1468522298009
 73
     0
 72
     2
 10
2.06321009509015
 20
0.3643452262975984
 40
0.0266120055644413
 50
214.289143935524
 51
220.152251626646
 73
     0
 72
     2
 10
2.058686569650484
 20
0.3678076991082785
 40
0.0209235948276609
 50
220.892661179859
 51
232.6516971443595
 73
     0
 72
     2
 10
2.05719658138728
 20
0.3706911836161677
 40
0.0177364140530899
 50
230.8268348175522
 51
247.1055208447452
 73
     0
 72
     2
 10
2.057118792149061
 20
0.3703911970057605
 40
0.0179834923783286
 50
247.7056716288168
 51
261.2030821657686
 73
     0
 72
     2
 10
2.058452148465288
 20
0.3671765463522348
 40
0.021380205129606
 50
258.9888491837334
 51
271.7108857746265
 73
     0
 72
     2
 10
2.059650477989436
 20
0.3639169558453035
 40
0.0246366297664502
 50
268.6975355392314
 51
280.2804749251206
 73
     0
 72
     2
 10
2.060897782283406
 20
0.3696082130283622
 40
0.018815327611566
 50
279.6361688889214
 51
298.0573516428338
 73
     0
 72
     2
 10
2.061963969590546
 20
0.3730218708912918
 40
0.0153157982727261
 50
300.5449189786844
 51
323.3255645340623
 73
     0
 72
     2
 10
2.058354527077018
 20
0.3712331984285728
 40
0.0192925244149349
 50
325.4679485472512
 51
338.7424644189146
 73
     0
 72
     2
 10
2.056024250862277
 20
0.3699536532301173
 40
0.0219309169395808
 50
337.834252272396
 51
350.2507032171141
 73
     0
 72
     2
 10
2.037178237437474
 20
0.3664737796651569
 40
0.0410947224300675
 50
349.9184788839777
 51
358.9348353768806
 73
     0
 72
     1
 10
2.078265858667439
 20
0.3672377124287327
 11
2.037441464426283
 21
0.3672377124287327
 72
     2
 10
2.088423640626022
 20
0.3622878182681919
 40
0.0512219068588993
 50
185.545504702488
 51
188.201143057913
 73
     0
 72
     2
 10
2.389138525687483
 20
0.3072422365031111
 40
0.3569017845617042
 50
190.0614576245198
 51
190.4239000934009
 73
     0
 72
     2
 10
2.223013760831502
 20
0.3231292571124805
 40
0.1911897814441117
 50
194.7530117273464
 51
195.4074903055051
 73
     0
 97
        1
330
5FE
 92
        1
 93
       47
 72
     2
 10
2.061826303585647
 20
0.3532598947256552
 40
0.0241752923918273
 50
138.3496533346511
 51
148.4595555609686
 73
     0
 72
     2
 10
2.061321162805342
 20
0.3521059761880958
 40
0.0231523339774945
 50
150.2396979683238
 51
156.5937677099167
 73
     0
 72
     2
 10
2.077200392262041
 20
0.3585924636724106
 40
0.040303192361997
 50
157.0988242481769
 51
160.8634840437796
 73
     0
 72
     2
 10
2.139486967419102
 20
0.3744094790060188
 40
0.1044765553251907
 50
163.8678439431619
 51
165.4002231692524
 73
     0
 72
     2
 10
2.071169313317291
 20
0.3551965516179019
 40
0.033550015770866
 50
167.7439659185812
 51
173.0844435487628
 73
     0
 72
     2
 10
2.076800767659179
 20
0.356927593697432
 40
0.0393626795107542
 50
171.5698966947791
 51
180.4334275361526
 73
     0
 72
     1
 10
2.037439214412732
 20
0.3572253591981966
 11
2.09083328806415
 21
0.3572253591981966
 72
     1
 10
2.09083328806415
 20
0.3572253591981966
 11
2.09083328806415
 21
0.367418047889942
 72
     2
 10
2.05606380612529
 20
0.36817833181333
 40
0.0347777932873957
 50
358.7473463266968
 51
388.6031824377397
 73
     1
 72
     2
 10
2.061849790550983
 20
0.3715980049238856
 40
0.0280617767156418
 50
28.12879544758857
 51
54.95063515022645
 73
     1
 72
     2
 10
2.062994732079065
 20
0.3712425033481648
 40
0.0277188046407911
 50
57.31076922041544
 51
82.4940245374038
 73
     1
 72
     2
 10
2.061029396427244
 20
0.3702747845720343
 40
0.0289922752746188
 50
78.89077226525315
 51
93.81071159195634
 73
     1
 72
     2
 10
2.058278513982257
 20
0.3689225917587153
 40
0.0302915785144063
 50
88.44115042377268
 51
109.8107905333598
 73
     1
 72
     2
 10
2.055522951650445
 20
0.3727814463646621
 40
0.0257592548203171
 50
106.9521716693699
 51
124.603661569856
 73
     1
 72
     2
 10
2.055074258354951
 20
0.370745022031955
 40
0.027223416564771
 50
121.3907074886569
 51
136.2843774046689
 73
     1
 72
     2
 10
2.061449995617856
 20
0.3640611980123525
 40
0.0364531928221072
 50
135.6167017519909
 51
147.4469381469264
 73
     1
 72
     2
 10
2.055257952890947
 20
0.367416191215975
 40
0.0294330181030494
 50
146.4659438100723
 51
157.2122986253005
 73
     1
 72
     2
 10
2.047439245457319
 20
0.3693204846406612
 40
0.0215246798664316
 50
153.8226534473667
 51
165.5519937306932
 73
     1
 72
     2
 10
2.062536992884655
 20
0.3626756489903522
 40
0.0378968651110208
 50
161.515271747222
 51
170.1818189345484
 73
     1
 72
     2
 10
2.063467507106286
 20
0.3609961355594354
 40
0.0391287629611654
 50
167.9903558377853
 51
176.6960496179407
 73
     1
 72
     2
 10
2.085191678335856
 20
0.3584175027964993
 40
0.0609797779044622
 50
175.4535176021835
 51
184.5464823978164
 73
     1
 72
     2
 10
2.076070445830323
 20
0.3567421254133762
 40
0.0517631080522538
 50
183.4981100536811
 51
194.429389032572
 73
     1
 72
     2
 10
2.048225063132509
 20
0.3485424727520852
 40
0.0227749164074815
 50
191.9070472796621
 51
206.3889894285758
 73
     1
 72
     2
 10
2.053500673079675
 20
0.3487142209845105
 40
0.0276640261495296
 50
201.8464660881787
 51
222.1274079961559
 73
     1
 72
     2
 10
2.055869586662472
 20
0.3494265410796771
 40
0.0299175639630403
 50
220.0955596825676
 51
233.6759197426415
 73
     1
 72
     2
 10
2.056652318105848
 20
0.3502744687142416
 40
0.0310646393940598
 50
233.4391728830817
 51
246.8725717081748
 73
     1
 72
     2
 10
2.058896513977925
 20
0.3544982286952896
 40
0.035832707340859
 50
246.2252262725147
 51
255.2219052108666
 73
     1
 72
     2
 10
2.061557698622085
 20
0.3625382973605903
 40
0.0442887031977101
 50
254.5461626614621
 51
261.28331875032
 73
     1
 72
     2
 10
2.06234472650282
 20
0.3737944212376278
 40
0.0555418412898209
 50
262.2405778669421
 51
267.866769692275
 73
     1
 72
     2
 10
2.063445675481736
 20
0.3642090186586808
 40
0.0460271287857736
 50
266.052771916499
 51
277.1377488482981
 73
     1
 72
     2
 10
2.061573612785204
 20
0.3743809067493442
 40
0.056355928043505
 50
277.7413046161573
 51
284.9308091029648
 73
     1
 72
     2
 10
2.059638851462585
 20
0.3840626065593292
 40
0.0662121975991039
 50
284.3899023200388
 51
289.2072984924262
 73
     1
 72
     2
 10
2.004826062393652
 20
0.5275821421545017
 40
0.2198223362827568
 50
290.3921624947603
 51
292.6481637583187
 73
     1
 72
     1
 10
2.089473324692026
 20
0.3247109995190845
 11
2.089473324692026
 21
0.3403736793267176
 72
     2
 10
2.085972049034579
 20
0.3412559357119335
 40
0.0036107211964766
 50
14.14304208538034
 51
40.5809188106621
 73
     0
 72
     2
 10
2.06881638017869
 20
0.3631952191068923
 40
0.0313981308170948
 50
50.67407287050084
 51
56.95139529671177
 73
     0
 72
     2
 10
2.069566609751138
 20
0.3612619791193873
 40
0.0293716166250663
 50
56.12144370235181
 51
61.7382303285629
 73
     0
 72
     2
 10
2.061077909214363
 20
0.3754051721516405
 40
0.0458548879987645
 50
60.76359459619522
 51
64.75139576529091
 73
     0
 72
     2
 10
2.059445127684409
 20
0.3763099703744814
 40
0.047382263147091
 50
63.43218982647736
 51
70.38756687457111
 73
     0
 72
     2
 10
2.056892473308041
 20
0.3888655443368394
 40
0.0600934929530564
 50
72.11336347133055
 51
75.85532826122167
 73
     0
 72
     2
 10
2.063790603860239
 20
0.3621959788453819
 40
0.0325472503124577
 50
76.15762347795572
 51
80.1548619188531
 73
     0
 72
     2
 10
2.060676292409997
 20
0.3826983276081179
 40
0.0532819675598692
 50
80.6249603204364
 51
83.12798914716191
 73
     0
 72
     2
 10
2.063059407494538
 20
0.368048205585744
 40
0.0384568363547721
 50
84.04143915734456
 51
95.95856084265543
 73
     0
 72
     2
 10
2.061973368654692
 20
0.3621321664026192
 40
0.0324633646384463
 50
95.13601524653735
 51
98.33322003480732
 73
     0
 72
     2
 10
2.061038656234403
 20
0.3541936259354742
 40
0.0244742127063064
 50
98.86157888906135
 51
112.110164074241
 73
     0
 72
     2
 10
2.059991852690671
 20
0.3522740777554137
 40
0.0223031909484424
 50
111.4747791446618
 51
123.1250142208017
 73
     0
 72
     2
 10
2.060327695664488
 20
0.3517336784429987
 40
0.0220416868948555
 50
124.6239441537391
 51
138.7251729085464
 73
     0
 97
        1
330
5FF
 75
     0
 76
     1
 98
        1
 10
-6.623918024059631
 20
-0.1308261527660757
  0
HATCH
  5
5F1
330
5DA
100
AcDbEntity
  8
CONTINUOUS1
 62
     9
100
AcDbHatch
 10
0.0
 20
0.0
 30
0.0
210
0.0
220
0.0
230
1.0
  2
SOLID
 70
     1
 71
     1
 91
        1
 92
        1
 93
       78
 72
     1
 10
1.93678687597961
 20
0.3185392197908646
 11
1.939564494073497
 21
0.3185392197908646
 72
     1
 10
1.939564494073497
 20
0.3185392197908646
 11
1.942342112167555
 21
0.3185392197908646
 72
     1
 10
1.942342112167555
 20
0.3185392197908646
 11
1.945119730261442
 21
0.3185392197908646
 72
     1
 10
1.945119730261442
 20
0.3185392197908646
 11
1.9478973483555
 21
0.3185392197908646
 72
     1
 10
1.9478973483555
 20
0.3185392197908646
 11
1.950674966449557
 21
0.3185392197908646
 72
     1
 10
1.950674966449557
 20
0.3185392197908646
 11
1.950674966449557
 21
0.3213168378847518
 72
     1
 10
1.950674966449557
 20
0.3213168378847518
 11
1.950674966449557
 21
0.3240944559788095
 72
     1
 10
1.950674966449557
 20
0.3240944559788095
 11
1.950674966449557
 21
0.3713139635765974
 72
     1
 10
1.950674966449557
 20
0.3713139635765974
 11
1.950674966449557
 21
0.3740915816706551
 72
     1
 10
1.950674966449557
 20
0.3740915816706551
 11
1.950674966449557
 21
0.3764121066624857
 72
     1
 10
1.950674966449557
 20
0.3764121066624857
 11
1.953452584543445
 21
0.3787302038875286
 72
     1
 10
1.953452584543445
 20
0.3787302038875286
 11
1.956003614602682
 21
0.3809067470338623
 72
     1
 10
1.956003614602682
 20
0.3809067470338623
 11
1.958366196022527
 21
0.3826818394989009
 72
     1
 10
1.958366196022527
 20
0.3826818394989009
 11
1.961291878825964
 21
0.3848664295055646
 72
     1
 10
1.961291878825964
 20
0.3848664295055646
 11
1.963519951262444
 21
0.3862728726654727
 72
     1
 10
1.963519951262444
 20
0.3862728726654727
 11
1.965368566166691
 21
0.3871741628932459
 72
     1
 10
1.965368566166691
 20
0.3871741628932459
 11
1.967340675013392
 21
0.3877239703094806
 72
     1
 10
1.967340675013392
 20
0.3877239703094806
 11
1.97011829310745
 21
0.3879796721404323
 72
     1
 10
1.97011829310745
 20
0.3879796721404323
 11
1.972895911201337
 21
0.3879796721404323
 72
     1
 10
1.972895911201337
 20
0.3879796721404323
 11
1.975673529295395
 21
0.3875908056072608
 72
     1
 10
1.975673529295395
 20
0.3875908056072608
 11
1.978408481664164
 21
0.3864723471903067
 72
     1
 10
1.978408481664164
 20
0.3864723471903067
 11
1.980423256236154
 21
0.3848131875133736
 72
     1
 10
1.980423256236154
 20
0.3848131875133736
 11
1.982347794679387
 21
0.3828455775268371
 72
     1
 10
1.982347794679387
 20
0.3828455775268371
 11
1.983898127081747
 21
0.3807960064739295
 72
     1
 10
1.983898127081747
 20
0.3807960064739295
 11
1.985408544715742
 21
0.3785266344276583
 72
     1
 10
1.985408544715742
 20
0.3785266344276583
 11
1.986436641229861
 21
0.3760636905171855
 72
     1
 10
1.986436641229861
 20
0.3760636905171855
 11
1.986784001671285
 21
0.3740915816706551
 72
     1
 10
1.986784001671285
 20
0.3740915816706551
 11
1.986784001671285
 21
0.3713139635765974
 72
     1
 10
1.986784001671285
 20
0.3713139635765974
 11
1.986784001671285
 21
0.3240944559788095
 72
     1
 10
1.986784001671285
 20
0.3240944559788095
 11
1.986784001671285
 21
0.3213168378847518
 72
     1
 10
1.986784001671285
 20
0.3213168378847518
 11
1.986784001671285
 21
0.3185392197908646
 72
     1
 10
1.986784001671285
 20
0.3185392197908646
 11
1.989561619765343
 21
0.3185392197908646
 72
     1
 10
1.989561619765343
 20
0.3185392197908646
 11
1.99233923785923
 21
0.3185392197908646
 72
     1
 10
1.99233923785923
 20
0.3185392197908646
 11
1.995116855953288
 21
0.3185392197908646
 72
     1
 10
1.995116855953288
 20
0.3185392197908646
 11
1.997894474047175
 21
0.3185392197908646
 72
     1
 10
1.997894474047175
 20
0.3185392197908646
 11
2.000672092141233
 21
0.3185392197908646
 72
     1
 10
2.000672092141233
 20
0.3185392197908646
 11
2.000672092141233
 21
0.3213168378847518
 72
     1
 10
2.000672092141233
 20
0.3213168378847518
 11
2.000672092141233
 21
0.3240944559788095
 72
     1
 10
2.000672092141233
 20
0.3240944559788095
 11
2.000672092141233
 21
0.3740915816706551
 72
     1
 10
2.000672092141233
 20
0.3740915816706551
 11
2.000672092141233
 21
0.3768691997645424
 72
     1
 10
2.000672092141233
 20
0.3768691997645424
 11
2.000394330331776
 21
0.3796468178584296
 72
     1
 10
2.000394330331776
 20
0.3796468178584296
 11
1.999755478170161
 21
0.3824244359524873
 72
     1
 10
1.999755478170161
 20
0.3824244359524873
 11
1.998811088018246
 21
0.3852020540465451
 72
     1
 10
1.998811088018246
 20
0.3852020540465451
 11
1.997366726609445
 21
0.3877019103309753
 72
     1
 10
1.997366726609445
 20
0.3877019103309753
 11
1.995116855953288
 21
0.3898406762634186
 72
     1
 10
1.995116855953288
 20
0.3898406762634186
 11
1.992605073201364
 21
0.3920766850267801
 72
     1
 10
1.992605073201364
 20
0.3920766850267801
 11
1.989896866645583
 21
0.3938452989406192
 72
     1
 10
1.989896866645583
 20
0.3938452989406192
 11
1.987855574154341
 21
0.3953124560483166
 72
     1
 10
1.987855574154341
 20
0.3953124560483166
 11
1.985252932763362
 21
0.3964598354054947
 72
     1
 10
1.985252932763362
 20
0.3964598354054947
 11
1.982498395711534
 21
0.3975734953987744
 72
     1
 10
1.982498395711534
 20
0.3975734953987744
 11
1.980191734394711
 21
0.3984640481231172
 72
     1
 10
1.980191734394711
 20
0.3984640481231172
 11
1.978042304217613
 21
0.3990083828482516
 72
     1
 10
1.978042304217613
 20
0.3990083828482516
 11
1.975645085390201
 21
0.3994741650645897
 72
     1
 10
1.975645085390201
 20
0.3994741650645897
 11
1.972895911201337
 21
0.3994820966067327
 72
     1
 10
1.972895911201337
 20
0.3994820966067327
 11
1.970108168823831
 21
0.3992749623910759
 72
     1
 10
1.970108168823831
 20
0.3992749623910759
 11
1.967507332098964
 21
0.39861794944045
 72
     1
 10
1.967507332098964
 20
0.39861794944045
 11
1.965118580538248
 21
0.3974235736599217
 72
     1
 10
1.965118580538248
 20
0.3974235736599217
 11
1.962966544042192
 21
0.3962323293606009
 72
     1
 10
1.962966544042192
 20
0.3962323293606009
 11
1.960659803288965
 21
0.3947017891629803
 72
     1
 10
1.960659803288965
 20
0.3947017891629803
 11
1.958231061444994
 21
0.3928857065760103
 72
     1
 10
1.958231061444994
 20
0.3928857065760103
 11
1.95606354555176
 21
0.3912294853105327
 72
     1
 10
1.95606354555176
 20
0.3912294853105327
 11
1.953417691445029
 21
0.3893715454285034
 72
     1
 10
1.953417691445029
 20
0.3893715454285034
 11
1.950674966449557
 21
0.3873342800367259
 72
     1
 10
1.950674966449557
 20
0.3873342800367259
 11
1.950674966449557
 21
0.3935349083285478
 72
     1
 10
1.950674966449557
 20
0.3935349083285478
 11
1.950674966449557
 21
0.396312526422435
 72
     1
 10
1.950674966449557
 20
0.396312526422435
 11
1.950674966449557
 21
0.39075729023449
 72
     1
 10
1.950674966449557
 20
0.39075729023449
 11
1.950674966449557
 21
0.3935349083285478
 72
     1
 10
1.950674966449557
 20
0.3935349083285478
 11
1.950674966449557
 21
0.396312526422435
 72
     1
 10
1.950674966449557
 20
0.396312526422435
 11
1.9478973483555
 21
0.396312526422435
 72
     1
 10
1.9478973483555
 20
0.396312526422435
 11
1.945119730261442
 21
0.396312526422435
 72
     1
 10
1.945119730261442
 20
0.396312526422435
 11
1.942342112167555
 21
0.396312526422435
 72
     1
 10
1.942342112167555
 20
0.396312526422435
 11
1.939564494073497
 21
0.396312526422435
 72
     1
 10
1.939564494073497
 20
0.396312526422435
 11
1.93678687597961
 21
0.396312526422435
 72
     1
 10
1.93678687597961
 20
0.396312526422435
 11
1.93678687597961
 21
0.3935349083285478
 72
     1
 10
1.93678687597961
 20
0.3935349083285478
 11
1.93678687597961
 21
0.39075729023449
 72
     1
 10
1.93678687597961
 20
0.39075729023449
 11
1.93678687597961
 21
0.3240944559788095
 72
     1
 10
1.93678687597961
 20
0.3240944559788095
 11
1.93678687597961
 21
0.3213168378847518
 72
     1
 10
1.93678687597961
 20
0.3213168378847518
 11
1.93678687597961
 21
0.3185392197908646
 97
        1
330
5F9
 75
     0
 76
     1
 98
        1
 10
-6.623918024059631
 20
-0.1308261527660757
  0
HATCH
  5
5F2
330
5DA
100
AcDbEntity
  8
CONTINUOUS1
 62
     9
100
AcDbHatch
 10
0.0
 20
0.0
 30
0.0
210
0.0
220
0.0
230
1.0
  2
SOLID
 70
     1
 71
     1
 91
        1
 92
        1
 93
       78
 72
     1
 10
1.847903096971979
 20
0.3185392197908646
 11
1.850680715066037
 21
0.3185392197908646
 72
     1
 10
1.850680715066037
 20
0.3185392197908646
 11
1.853458333160094
 21
0.3185392197908646
 72
     1
 10
1.853458333160094
 20
0.3185392197908646
 11
1.856235951253982
 21
0.3185392197908646
 72
     1
 10
1.856235951253982
 20
0.3185392197908646
 11
1.859013569348039
 21
0.3185392197908646
 72
     1
 10
1.859013569348039
 20
0.3185392197908646
 11
1.861791187441927
 21
0.3185392197908646
 72
     1
 10
1.861791187441927
 20
0.3185392197908646
 11
1.861791187441927
 21
0.3213168378847518
 72
     1
 10
1.861791187441927
 20
0.3213168378847518
 11
1.861791187441927
 21
0.3240944559788095
 72
     1
 10
1.861791187441927
 20
0.3240944559788095
 11
1.861791187441927
 21
0.3713139635765974
 72
     1
 10
1.861791187441927
 20
0.3713139635765974
 11
1.861791187441927
 21
0.3740915816706551
 72
     1
 10
1.861791187441927
 20
0.3740915816706551
 11
1.861791187441927
 21
0.3764121066624857
 72
     1
 10
1.861791187441927
 20
0.3764121066624857
 11
1.864568805535984
 21
0.3787302038875286
 72
     1
 10
1.864568805535984
 20
0.3787302038875286
 11
1.867119835595051
 21
0.3809067470338623
 72
     1
 10
1.867119835595051
 20
0.3809067470338623
 11
1.869482417015067
 21
0.3826818394989009
 72
     1
 10
1.869482417015067
 20
0.3826818394989009
 11
1.872408099818333
 21
0.3848664295055646
 72
     1
 10
1.872408099818333
 20
0.3848664295055646
 11
1.874636172254813
 21
0.3862728726654727
 72
     1
 10
1.874636172254813
 20
0.3862728726654727
 11
1.876484787159231
 21
0.3871741628932459
 72
     1
 10
1.876484787159231
 20
0.3871741628932459
 11
1.878456896005932
 21
0.3877239703094806
 72
     1
 10
1.878456896005932
 20
0.3877239703094806
 11
1.881234514099819
 21
0.3879796721404323
 72
     1
 10
1.881234514099819
 20
0.3879796721404323
 11
1.884012132193877
 21
0.3879796721404323
 72
     1
 10
1.884012132193877
 20
0.3879796721404323
 11
1.886789750287764
 21
0.3875908056072608
 72
     1
 10
1.886789750287764
 20
0.3875908056072608
 11
1.889524702656704
 21
0.3864723471903067
 72
     1
 10
1.889524702656704
 20
0.3864723471903067
 11
1.891539477228523
 21
0.3848131875133736
 72
     1
 10
1.891539477228523
 20
0.3848131875133736
 11
1.893464015671927
 21
0.3828455775268371
 72
     1
 10
1.893464015671927
 20
0.3828455775268371
 11
1.895014348074116
 21
0.3807960064739295
 72
     1
 10
1.895014348074116
 20
0.3807960064739295
 11
1.896524765708281
 21
0.3785266344276583
 72
     1
 10
1.896524765708281
 20
0.3785266344276583
 11
1.897552862222401
 21
0.3760636905171855
 72
     1
 10
1.897552862222401
 20
0.3760636905171855
 11
1.897900222663825
 21
0.3740915816706551
 72
     1
 10
1.897900222663825
 20
0.3740915816706551
 11
1.897900222663825
 21
0.3713139635765974
 72
     1
 10
1.897900222663825
 20
0.3713139635765974
 11
1.897900222663825
 21
0.3240944559788095
 72
     1
 10
1.897900222663825
 20
0.3240944559788095
 11
1.897900222663825
 21
0.3213168378847518
 72
     1
 10
1.897900222663825
 20
0.3213168378847518
 11
1.897900222663825
 21
0.3185392197908646
 72
     1
 10
1.897900222663825
 20
0.3185392197908646
 11
1.900677840757712
 21
0.3185392197908646
 72
     1
 10
1.900677840757712
 20
0.3185392197908646
 11
1.90345545885177
 21
0.3185392197908646
 72
     1
 10
1.90345545885177
 20
0.3185392197908646
 11
1.906233076945657
 21
0.3185392197908646
 72
     1
 10
1.906233076945657
 20
0.3185392197908646
 11
1.909010695039714
 21
0.3185392197908646
 72
     1
 10
1.909010695039714
 20
0.3185392197908646
 11
1.911788313133772
 21
0.3185392197908646
 72
     1
 10
1.911788313133772
 20
0.3185392197908646
 11
1.911788313133772
 21
0.3213168378847518
 72
     1
 10
1.911788313133772
 20
0.3213168378847518
 11
1.911788313133772
 21
0.3240944559788095
 72
     1
 10
1.911788313133772
 20
0.3240944559788095
 11
1.911788313133772
 21
0.3740915816706551
 72
     1
 10
1.911788313133772
 20
0.3740915816706551
 11
1.911788313133772
 21
0.3768691997645424
 72
     1
 10
1.911788313133772
 20
0.3768691997645424
 11
1.911510551324315
 21
0.3796468178584296
 72
     1
 10
1.911510551324315
 20
0.3796468178584296
 11
1.910871699162701
 21
0.3824244359524873
 72
     1
 10
1.910871699162701
 20
0.3824244359524873
 11
1.909927309010786
 21
0.3852020540465451
 72
     1
 10
1.909927309010786
 20
0.3852020540465451
 11
1.908482947601815
 21
0.3877019103309753
 72
     1
 10
1.908482947601815
 20
0.3877019103309753
 11
1.906233076945657
 21
0.3898406762634186
 72
     1
 10
1.906233076945657
 20
0.3898406762634186
 11
1.903721294193903
 21
0.3920766850267801
 72
     1
 10
1.903721294193903
 20
0.3920766850267801
 11
1.901013087638123
 21
0.3938452989406192
 72
     1
 10
1.901013087638123
 20
0.3938452989406192
 11
1.898971795146881
 21
0.3953124560483166
 72
     1
 10
1.898971795146881
 20
0.3953124560483166
 11
1.896369153755731
 21
0.3964598354054947
 72
     1
 10
1.896369153755731
 20
0.3964598354054947
 11
1.893614616703903
 21
0.3975734953987744
 72
     1
 10
1.893614616703903
 20
0.3975734953987744
 11
1.89130795538708
 21
0.3984640481231172
 72
     1
 10
1.89130795538708
 20
0.3984640481231172
 11
1.889158525210152
 21
0.3990083828482516
 72
     1
 10
1.889158525210152
 20
0.3990083828482516
 11
1.886761306382741
 21
0.3994741650645897
 72
     1
 10
1.886761306382741
 20
0.3994741650645897
 11
1.884012132193877
 21
0.3994820966067327
 72
     1
 10
1.884012132193877
 20
0.3994820966067327
 11
1.88122438981637
 21
0.3992749623910759
 72
     1
 10
1.88122438981637
 20
0.3992749623910759
 11
1.878623553091504
 21
0.39861794944045
 72
     1
 10
1.878623553091504
 20
0.39861794944045
 11
1.876234801530788
 21
0.3974235736599217
 72
     1
 10
1.876234801530788
 20
0.3974235736599217
 11
1.874082765034561
 21
0.3962323293606009
 72
     1
 10
1.874082765034561
 20
0.3962323293606009
 11
1.871776024281334
 21
0.3947017891629803
 72
     1
 10
1.871776024281334
 20
0.3947017891629803
 11
1.869347282437363
 21
0.3928857065760103
 72
     1
 10
1.869347282437363
 20
0.3928857065760103
 11
1.8671797665443
 21
0.3912294853105327
 72
     1
 10
1.8671797665443
 20
0.3912294853105327
 11
1.864533912437398
 21
0.3893715454285034
 72
     1
 10
1.864533912437398
 20
0.3893715454285034
 11
1.861791187441927
 21
0.3873342800367259
 72
     1
 10
1.861791187441927
 20
0.3873342800367259
 11
1.861791187441927
 21
0.3935349083285478
 72
     1
 10
1.861791187441927
 20
0.3935349083285478
 11
1.861791187441927
 21
0.396312526422435
 72
     1
 10
1.861791187441927
 20
0.396312526422435
 11
1.861791187441927
 21
0.432421561644333
 72
     1
 10
1.861791187441927
 20
0.432421561644333
 11
1.861791187441927
 21
0.4351991797382202
 72
     1
 10
1.861791187441927
 20
0.4351991797382202
 11
1.861791187441927
 21
0.4379767978321075
 72
     1
 10
1.861791187441927
 20
0.4379767978321075
 11
1.859013569348039
 21
0.4379767978321075
 72
     1
 10
1.859013569348039
 20
0.4379767978321075
 11
1.856235951253982
 21
0.4379767978321075
 72
     1
 10
1.856235951253982
 20
0.4379767978321075
 11
1.853458333160094
 21
0.4379767978321075
 72
     1
 10
1.853458333160094
 20
0.4379767978321075
 11
1.850680715066037
 21
0.4379767978321075
 72
     1
 10
1.850680715066037
 20
0.4379767978321075
 11
1.847903096971979
 21
0.4379767978321075
 72
     1
 10
1.847903096971979
 20
0.4379767978321075
 11
1.847903096971979
 21
0.4351991797382202
 72
     1
 10
1.847903096971979
 20
0.4351991797382202
 11
1.847903096971979
 21
0.432421561644333
 72
     1
 10
1.847903096971979
 20
0.432421561644333
 11
1.847903096971979
 21
0.3240944559788095
 72
     1
 10
1.847903096971979
 20
0.3240944559788095
 11
1.847903096971979
 21
0.3213168378847518
 72
     1
 10
1.847903096971979
 20
0.3213168378847518
 11
1.847903096971979
 21
0.3185392197908646
 97
        1
330
5F8
 75
     0
 76
     1
 98
        1
 10
-6.623918024059631
 20
-0.1308261527660757
  0
HATCH
  5
5F3
330
5DA
100
AcDbEntity
  8
CONTINUOUS1
 62
     9
100
AcDbHatch
 10
0.0
 20
0.0
 30
0.0
210
0.0
220
0.0
230
1.0
  2
SOLID
 70
     1
 71
     1
 91
        1
 92
        1
 93
       12
 72
     1
 10
2.047689882598749
 20
0.6638644919422068
 11
2.026127593512317
 21
0.6638644919422068
 72
     1
 10
2.026127593512317
 20
0.6638644919422068
 11
2.026127406012253
 21
0.5568018132491948
 72
     2
 10
2.047689923847382
 20
0.5568015038747939
 40
0.0215625178373483
 50
179.999177932392
 51
269.9998903944058
 73
     1
 72
     1
 10
2.047689882598749
 20
0.5352389860374847
 11
2.16525206565112
 21
0.5352391641624768
 72
     2
 10
2.165252113464067
 20
0.5568015929365722
 40
0.0215624287741484
 50
269.9998729512306
 51
359.9996387857453
 73
     1
 72
     1
 10
2.186814542237787
 20
0.5568014569988696
 11
2.186814898487941
 21
0.6638644919422068
 72
     1
 10
2.186814898487941
 20
0.6638644919422068
 11
2.16525206565112
 21
0.6638644919422068
 72
     1
 10
2.16525206565112
 20
0.6638644919422068
 11
2.16525206565112
 21
0.5675830496674626
 72
     2
 10
2.154470694233568
 20
0.5675829165415133
 40
0.0107813714183743
 50
359.9992925246018
 51
449.9992925333428
 73
     0
 72
     1
 10
2.154470827357872
 20
0.5568015451239608
 11
2.058471120891997
 21
0.5568015451239608
 72
     2
 10
2.058471160267021
 20
0.5675830102922954
 40
0.0107814651684066
 50
90.00020925010334
 51
180.0002092508632
 73
     0
 72
     1
 10
2.047689695098686
 20
0.5675830496674626
 11
2.047689882598749
 21
0.6638644919422068
 97
        1
330
5F6
 75
     0
 76
     1
 98
        1
 10
-6.623918024059631
 20
-0.1308261527660757
  0
HATCH
  5
5F4
330
5DA
100
AcDbEntity
  8
CONTINUOUS1
 62
     9
100
AcDbHatch
 10
0.0
 20
0.0
 30
0.0
210
0.0
220
0.0
230
1.0
  2
SOLID
 70
     1
 71
     1
 91
        2
 92
        1
 93
       11
 72
     2
 10
1.859439987429169
 20
0.6423016656678994
 40
0.021562648149145
 50
90.00000747299615
 51
179.9997683268519
 73
     1
 72
     1
 10
1.837877339280201
 20
0.6423017528555879
 11
1.837877170530109
 21
0.5568018132491948
 72
     2
 10
1.859439857117431
 20
0.5568016726252254
 40
0.0215626865877801
 50
179.9996263378447
 51
269.9998903896797
 73
     1
 72
     1
 10
1.859439815866696
 20
0.5352389860374847
 11
1.986189823671427
 21
0.5352391641624768
 72
     2
 10
1.986190043351474
 20
0.5568016288008568
 40
0.021562464639499
 50
269.9994162661957
 51
311.7040125634689
 73
     1
 72
     1
 10
2.000535176793139
 20
0.5407032739821039
 11
2.007752112757859
 21
0.5352391641624768
 72
     1
 10
2.007752112757859
 20
0.5352391641624768
 11
2.020768165011109
 21
0.5524296310179584
 72
     1
 10
2.020768165011109
 20
0.5524296310179584
 11
2.007752300257923
 21
0.5622850574563363
 72
     1
 10
2.007752300257923
 20
0.5622850574563363
 11
2.007752469008014
 21
0.6423016628555165
 72
     2
 10
1.986189820858957
 20
0.6423016656679872
 40
0.0215626481490576
 50
359.9999925267666
 51
449.9999925267678
 73
     1
 72
     1
 10
1.986189823671427
 20
0.6638643138170442
 11
1.859439984616788
 21
0.6638643138170442
 97
        1
330
5F7
 92
       16
 93
       10
 72
     2
 10
1.870221492910582
 20
0.6315205108123614
 40
0.0107811520434708
 50
90.00043844291294
 51
179.9999701074038
 73
     1
 72
     1
 10
1.859440340867113
 20
0.6315205164371496
 11
1.859440340867113
 21
0.5675830496674626
 72
     2
 10
1.870221627908248
 20
0.5675828321650959
 40
0.0107812870433294
 50
179.9988441113203
 51
269.9988441346395
 73
     1
 72
     1
 10
1.87022141041027
 20
0.5568015451239608
 11
1.979274912904006
 21
0.5568015451239608
 72
     1
 10
1.979274912904006
 20
0.5568015451239608
 11
1.936536734983437
 21
0.5891612556392834
 72
     1
 10
1.936536734983437
 20
0.5891612556392834
 11
1.949552787236687
 21
0.6063515462445826
 72
     1
 10
1.949552787236687
 20
0.6063515462445826
 11
1.986189823671427
 21
0.5786120318725812
 72
     1
 10
1.986189823671427
 20
0.5786120318725812
 11
1.986189823671427
 21
0.6315204283122289
 72
     2
 10
1.975408587253074
 20
0.631520426437163
 40
0.0107812364183532
 50
0.0000099648460607
 51
90.00000996484372
 73
     1
 72
     1
 10
1.975408585378009
 20
0.6423016628555165
 11
1.87022141041027
 21
0.6423016628555165
 97
        1
330
5FA
 75
     0
 76
     1
 98
        1
 10
-6.623918024059631
 20
-0.1308261527660757
  0
HATCH
  5
5F5
330
5DA
100
AcDbEntity
  8
CONTINUOUS1
 62
     9
100
AcDbHatch
 10
0.0
 20
0.0
 30
0.0
210
0.0
220
0.0
230
1.0
  2
SOLID
 70
     1
 71
     0
 91
        2
 92
        7
 72
     1
 73
     1
 93
       21
 10
2.220103921565996
 20
0.432421561644333
 42
0.0
 10
2.220103921565996
 20
0.4351991797382202
 42
0.0
 10
2.220103921565996
 20
0.4379767978321075
 42
0.0
 10
2.217326303472109
 20
0.4379767978321075
 42
0.0
 10
2.214548685378051
 20
0.4379767978321075
 42
0.0
 10
2.211771067283994
 20
0.4379767978321075
 42
0.0
 10
2.208993449190106
 20
0.4379767978321075
 42
0.0
 10
2.206215831096052
 20
0.4379767978321075
 42
0.0
 10
2.206215831096049
 20
0.4351991797382202
 42
0.0
 10
2.206215831096049
 20
0.432421561644333
 42
0.0
 10
2.206215831096049
 20
0.40186776261038
 42
0.0
 10
2.206215831096049
 20
0.3990901445163222
 42
0.0
 10
2.206215831096049
 20
0.3971180356697919
 42
0.0
 10
2.206215831096049
 20
0.3941013219383648
 42
0.0
 10
2.201629434357208
 20
0.3959268898694769
 42
1.048263601672966
 10
2.180190518556941
 20
0.3185392197908646
 42
0.0
 10
2.214548685378051
 20
0.3185392197908646
 42
0.0
 10
2.217326303472109
 20
0.3185392197908646
 42
0.0
 10
2.220103921565996
 20
0.3185392197908643
 42
0.0
 10
2.220103921565996
 20
0.3213168378847518
 42
0.0
 10
2.220103921565996
 20
0.3240944559788095
 42
0.0
 97
        0
 92
       22
 72
     1
 73
     1
 93
        3
 10
2.206215831096049
 20
0.3829908495624749
 42
0.0
 10
2.206215831096049
 20
0.3296496921667545
 42
0.0
 10
2.184394809861462
 20
0.3296496921667545
 42
-1.076204956628309
 97
        0
 75
     0
 76
     1
 47
0.0005102668735142
 98
        2
 10
2.160923651331266
 20
0.3732541591595107
 10
2.160923651331266
 20
0.3732541591595107
  0
LWPOLYLINE
  5
5F6
102
{ACAD_REACTORS
330
5F3
102
}
330
5DA
100
AcDbEntity
  8
CONTINUOUS1
  6
CONTINUOUS
 62
     9
100
AcDbPolyline
 90
       13
 70
     0
 43
0.0
 10
2.047689882598749
 20
0.6638644919422068
 10
2.026127593512317
 20
0.6638644919422068
 10
2.026127406012253
 20
0.5568018132491948
 42
0.4142172044487012
 10
2.047689882598749
 20
0.5352389860374847
 10
2.16525206565112
 20
0.5352391641624768
 42
0.4142123653311114
 10
2.186814542237787
 20
0.5568014569988696
 10
2.186814898487941
 20
0.6638644919422068
 10
2.16525206565112
 20
0.6638644919422068
 10
2.16525206565112
 20
0.5675830496674626
 42
-0.414213562417775
 10
2.154470827357872
 20
0.5568015451239608
 10
2.058471120891997
 20
0.5568015451239608
 42
-0.4142135623770039
 10
2.047689695098686
 20
0.5675830496674626
 10
2.047689882598749
 20
0.6638644919422068
  0
LWPOLYLINE
  5
5F7
102
{ACAD_REACTORS
330
5F4
102
}
330
5DA
100
AcDbEntity
  8
CONTINUOUS1
  6
CONTINUOUS
 62
     9
100
AcDbPolyline
 90
       12
 70
     0
 43
0.0
 10
1.859439984616788
 20
0.6638643138170442
 42
0.4142123398702456
 10
1.837877339280201
 20
0.6423017528555879
 10
1.837877170530109
 20
0.5568018132491948
 42
0.4142149121937861
 10
1.859439815866696
 20
0.5352389860374847
 10
1.986189823671427
 20
0.5352391641624768
 42
0.1840061449277652
 10
2.000535176793139
 20
0.5407032739821039
 10
2.007752112757859
 20
0.5352391641624768
 10
2.020768165011109
 20
0.5524296310179584
 10
2.007752300257923
 20
0.5622850574563363
 10
2.007752469008014
 20
0.6423016628555165
 42
0.4142135623731064
 10
1.986189823671427
 20
0.6638643138170442
 10
1.859439984616788
 20
0.6638643138170442
  0
LWPOLYLINE
  5
5F8
102
{ACAD_REACTORS
330
5F2
102
}
330
5DA
100
AcDbEntity
  8
CONTINUOUS1
  6
CONTINUOUS
 62
     9
100
AcDbPolyline
 90
       79
 70
     0
 43
0.0
 10
1.847903096971979
 20
0.3185392197908646
 10
1.850680715066037
 20
0.3185392197908646
 10
1.853458333160094
 20
0.3185392197908646
 10
1.856235951253982
 20
0.3185392197908646
 10
1.859013569348039
 20
0.3185392197908646
 10
1.861791187441927
 20
0.3185392197908646
 10
1.861791187441927
 20
0.3213168378847518
 10
1.861791187441927
 20
0.3240944559788095
 10
1.861791187441927
 20
0.3713139635765974
 10
1.861791187441927
 20
0.3740915816706551
 10
1.861791187441927
 20
0.3764121066624857
 10
1.864568805535984
 20
0.3787302038875286
 10
1.867119835595051
 20
0.3809067470338623
 10
1.869482417015067
 20
0.3826818394989009
 10
1.872408099818333
 20
0.3848664295055646
 10
1.874636172254813
 20
0.3862728726654727
 10
1.876484787159231
 20
0.3871741628932459
 10
1.878456896005932
 20
0.3877239703094806
 10
1.881234514099819
 20
0.3879796721404323
 10
1.884012132193877
 20
0.3879796721404323
 10
1.886789750287764
 20
0.3875908056072608
 10
1.889524702656704
 20
0.3864723471903067
 10
1.891539477228523
 20
0.3848131875133736
 10
1.893464015671927
 20
0.3828455775268371
 10
1.895014348074116
 20
0.3807960064739295
 10
1.896524765708281
 20
0.3785266344276583
 10
1.897552862222401
 20
0.3760636905171855
 10
1.897900222663825
 20
0.3740915816706551
 10
1.897900222663825
 20
0.3713139635765974
 10
1.897900222663825
 20
0.3240944559788095
 10
1.897900222663825
 20
0.3213168378847518
 10
1.897900222663825
 20
0.3185392197908646
 10
1.900677840757712
 20
0.3185392197908646
 10
1.90345545885177
 20
0.3185392197908646
 10
1.906233076945657
 20
0.3185392197908646
 10
1.909010695039714
 20
0.3185392197908646
 10
1.911788313133772
 20
0.3185392197908646
 10
1.911788313133772
 20
0.3213168378847518
 10
1.911788313133772
 20
0.3240944559788095
 10
1.911788313133772
 20
0.3740915816706551
 10
1.911788313133772
 20
0.3768691997645424
 10
1.911510551324315
 20
0.3796468178584296
 10
1.910871699162701
 20
0.3824244359524873
 10
1.909927309010786
 20
0.3852020540465451
 10
1.908482947601815
 20
0.3877019103309753
 10
1.906233076945657
 20
0.3898406762634186
 10
1.903721294193903
 20
0.3920766850267801
 10
1.901013087638123
 20
0.3938452989406192
 10
1.898971795146881
 20
0.3953124560483166
 10
1.896369153755731
 20
0.3964598354054947
 10
1.893614616703903
 20
0.3975734953987744
 10
1.89130795538708
 20
0.3984640481231172
 10
1.889158525210152
 20
0.3990083828482516
 10
1.886761306382741
 20
0.3994741650645897
 10
1.884012132193877
 20
0.3994820966067327
 10
1.88122438981637
 20
0.3992749623910759
 10
1.878623553091504
 20
0.39861794944045
 10
1.876234801530788
 20
0.3974235736599217
 10
1.874082765034561
 20
0.3962323293606009
 10
1.871776024281334
 20
0.3947017891629803
 10
1.869347282437363
 20
0.3928857065760103
 10
1.8671797665443
 20
0.3912294853105327
 10
1.864533912437398
 20
0.3893715454285034
 10
1.861791187441927
 20
0.3873342800367259
 10
1.861791187441927
 20
0.3935349083285478
 10
1.861791187441927
 20
0.396312526422435
 10
1.861791187441927
 20
0.432421561644333
 10
1.861791187441927
 20
0.4351991797382202
 10
1.861791187441927
 20
0.4379767978321075
 10
1.859013569348039
 20
0.4379767978321075
 10
1.856235951253982
 20
0.4379767978321075
 10
1.853458333160094
 20
0.4379767978321075
 10
1.850680715066037
 20
0.4379767978321075
 10
1.847903096971979
 20
0.4379767978321075
 10
1.847903096971979
 20
0.4351991797382202
 10
1.847903096971979
 20
0.432421561644333
 10
1.847903096971979
 20
0.3240944559788095
 10
1.847903096971979
 20
0.3213168378847518
 10
1.847903096971979
 20
0.3185392197908646
  0
LWPOLYLINE
  5
5F9
102
{ACAD_REACTORS
330
5F1
102
}
330
5DA
100
AcDbEntity
  8
CONTINUOUS1
  6
CONTINUOUS
 62
     9
100
AcDbPolyline
 90
       79
 70
     0
 43
0.0
 10
1.93678687597961
 20
0.3185392197908646
 10
1.939564494073497
 20
0.3185392197908646
 10
1.942342112167555
 20
0.3185392197908646
 10
1.945119730261442
 20
0.3185392197908646
 10
1.9478973483555
 20
0.3185392197908646
 10
1.950674966449557
 20
0.3185392197908646
 10
1.950674966449557
 20
0.3213168378847518
 10
1.950674966449557
 20
0.3240944559788095
 10
1.950674966449557
 20
0.3713139635765974
 10
1.950674966449557
 20
0.3740915816706551
 10
1.950674966449557
 20
0.3764121066624857
 10
1.953452584543445
 20
0.3787302038875286
 10
1.956003614602682
 20
0.3809067470338623
 10
1.958366196022527
 20
0.3826818394989009
 10
1.961291878825964
 20
0.3848664295055646
 10
1.963519951262444
 20
0.3862728726654727
 10
1.965368566166691
 20
0.3871741628932459
 10
1.967340675013392
 20
0.3877239703094806
 10
1.97011829310745
 20
0.3879796721404323
 10
1.972895911201337
 20
0.3879796721404323
 10
1.975673529295395
 20
0.3875908056072608
 10
1.978408481664164
 20
0.3864723471903067
 10
1.980423256236154
 20
0.3848131875133736
 10
1.982347794679387
 20
0.3828455775268371
 10
1.983898127081747
 20
0.3807960064739295
 10
1.985408544715742
 20
0.3785266344276583
 10
1.986436641229861
 20
0.3760636905171855
 10
1.986784001671285
 20
0.3740915816706551
 10
1.986784001671285
 20
0.3713139635765974
 10
1.986784001671285
 20
0.3240944559788095
 10
1.986784001671285
 20
0.3213168378847518
 10
1.986784001671285
 20
0.3185392197908646
 10
1.989561619765343
 20
0.3185392197908646
 10
1.99233923785923
 20
0.3185392197908646
 10
1.995116855953288
 20
0.3185392197908646
 10
1.997894474047175
 20
0.3185392197908646
 10
2.000672092141233
 20
0.3185392197908646
 10
2.000672092141233
 20
0.3213168378847518
 10
2.000672092141233
 20
0.3240944559788095
 10
2.000672092141233
 20
0.3740915816706551
 10
2.000672092141233
 20
0.3768691997645424
 10
2.000394330331776
 20
0.3796468178584296
 10
1.999755478170161
 20
0.3824244359524873
 10
1.998811088018246
 20
0.3852020540465451
 10
1.997366726609445
 20
0.3877019103309753
 10
1.995116855953288
 20
0.3898406762634186
 10
1.992605073201364
 20
0.3920766850267801
 10
1.989896866645583
 20
0.3938452989406192
 10
1.987855574154341
 20
0.3953124560483166
 10
1.985252932763362
 20
0.3964598354054947
 10
1.982498395711534
 20
0.3975734953987744
 10
1.980191734394711
 20
0.3984640481231172
 10
1.978042304217613
 20
0.3990083828482516
 10
1.975645085390201
 20
0.3994741650645897
 10
1.972895911201337
 20
0.3994820966067327
 10
1.970108168823831
 20
0.3992749623910759
 10
1.967507332098964
 20
0.39861794944045
 10
1.965118580538248
 20
0.3974235736599217
 10
1.962966544042192
 20
0.3962323293606009
 10
1.960659803288965
 20
0.3947017891629803
 10
1.958231061444994
 20
0.3928857065760103
 10
1.95606354555176
 20
0.3912294853105327
 10
1.953417691445029
 20
0.3893715454285034
 10
1.950674966449557
 20
0.3873342800367259
 10
1.950674966449557
 20
0.3935349083285478
 10
1.950674966449557
 20
0.396312526422435
 10
1.950674966449557
 20
0.39075729023449
 10
1.950674966449557
 20
0.3935349083285478
 10
1.950674966449557
 20
0.396312526422435
 10
1.9478973483555
 20
0.396312526422435
 10
1.945119730261442
 20
0.396312526422435
 10
1.942342112167555
 20
0.396312526422435
 10
1.939564494073497
 20
0.396312526422435
 10
1.93678687597961
 20
0.396312526422435
 10
1.93678687597961
 20
0.3935349083285478
 10
1.93678687597961
 20
0.39075729023449
 10
1.93678687597961
 20
0.3240944559788095
 10
1.93678687597961
 20
0.3213168378847518
 10
1.93678687597961
 20
0.3185392197908646
  0
LWPOLYLINE
  5
5FA
102
{ACAD_REACTORS
330
5F4
102
}
330
5DA
100
AcDbEntity
  8
CONTINUOUS1
  6
CONTINUOUS
 62
     9
100
AcDbPolyline
 90
       11
 70
     0
 43
0.0
 10
1.87022141041027
 20
0.6423016628555165
 42
0.4142111682669343
 10
1.859440340867113
 20
0.6315205164371496
 10
1.859440340867113
 20
0.5675830496674626
 42
0.4142135624923141
 10
1.87022141041027
 20
0.5568015451239608
 10
1.979274912904006
 20
0.5568015451239608
 10
1.936536734983437
 20
0.5891612556392834
 10
1.949552787236687
 20
0.6063515462445826
 10
1.986189823671427
 20
0.5786120318725812
 10
1.986189823671427
 20
0.6315204283122289
 42
0.414213562373068
 10
1.975408585378009
 20
0.6423016628555165
 10
1.87022141041027
 20
0.6423016628555165
  0
LWPOLYLINE
  5
5FB
330
5DA
100
AcDbEntity
  8
CONTINUOUS1
 62
     9
100
AcDbPolyline
 90
        3
 70
     1
 43
0.0
 10
2.206215831096049
 20
0.3296496921667545
 10
2.206215831096049
 20
0.3829908495624754
 42
1.076204956628191
 10
2.184394809861462
 20
0.3296496921667545
  0
LWPOLYLINE
  5
5FC
330
5DA
100
AcDbEntity
  8
CONTINUOUS1
  6
CONTINUOUS
 62
     9
100
AcDbPolyline
 90
       22
 70
     0
 43
0.0
 10
2.201629434357208
 20
0.3959268898694763
 42
1.048263601673104
 10
2.180190518556944
 20
0.3185392197908646
 10
2.214548685378051
 20
0.3185392197908646
 10
2.217326303472109
 20
0.3185392197908646
 10
2.220103921565996
 20
0.3185392197908646
 10
2.220103921565996
 20
0.3213168378847518
 10
2.220103921565996
 20
0.3240944559788095
 10
2.220103921565996
 20
0.432421561644333
 10
2.220103921565996
 20
0.4351991797382202
 10
2.220103921565996
 20
0.4379767978321075
 10
2.217326303472109
 20
0.4379767978321075
 10
2.214548685378051
 20
0.4379767978321075
 10
2.211771067283994
 20
0.4379767978321075
 10
2.208993449190106
 20
0.4379767978321075
 10
2.206215831096049
 20
0.4379767978321075
 10
2.206215831096049
 20
0.4351991797382202
 10
2.206215831096049
 20
0.432421561644333
 10
2.206215831096049
 20
0.40186776261038
 10
2.206215831096049
 20
0.3990901445163222
 10
2.206215831096049
 20
0.3971180356697919
 10
2.206215831096049
 20
0.3941013219383653
 10
2.200684753003745
 20
0.3963029105415221
  0
LWPOLYLINE
  5
5FD
102
{ACAD_REACTORS
330
5EE
102
}
330
5DA
100
AcDbEntity
  8
CONTINUOUS1
  6
CONTINUOUS
 62
     9
100
AcDbPolyline
 90
       21
 70
     0
 43
0.0
 10
2.114554433994531
 20
0.3185392197908646
 10
2.117332052088588
 20
0.3185392197908646
 10
2.120109670182646
 20
0.3185392197908646
 10
2.122887288276533
 20
0.3185392197908646
 10
2.125664906370591
 20
0.3185392197908646
 10
2.128442524464478
 20
0.3185392197908646
 10
2.128442524464478
 20
0.3213168378847518
 10
2.128442524464478
 20
0.3240944559788095
 10
2.128442524464478
 20
0.39075729023449
 10
2.128442524464478
 20
0.3935349083285478
 10
2.128443163460961
 20
0.396312526422435
 10
2.125664906370591
 20
0.396312526422435
 10
2.122887288276533
 20
0.396312526422435
 10
2.120109670182646
 20
0.396312526422435
 10
2.117332052088588
 20
0.396312526422435
 10
2.114554433994531
 20
0.396312526422435
 10
2.114554433994531
 20
0.3935349083285478
 10
2.114554433994531
 20
0.39075729023449
 10
2.114554433994531
 20
0.3240944559788095
 10
2.114554433994531
 20
0.3213168378847518
 10
2.114554433994531
 20
0.3185392197908646
  0
LWPOLYLINE
  5
5FE
102
{ACAD_REACTORS
330
5F0
102
}
330
5DA
100
AcDbEntity
  8
CONTINUOUS1
 62
     9
100
AcDbPolyline
 90
       18
 70
     1
 43
0.0
 10
2.038695210178193
 20
0.3739249696649272
 42
-0.0075148293555971
 10
2.039356013682695
 20
0.3758094905988973
 42
-0.004657993094582
 10
2.04012694049155
 20
0.3774326474991771
 42
-0.0194573042781228
 10
2.04122312161596
 20
0.3793376189554469
 42
-0.025588215895386
 10
2.042869643316212
 20
0.3815052047880845
 42
-0.0513535452749696
 10
2.045993086639416
 20
0.3844411686669678
 42
-0.0711488595792178
 10
2.05029649225165
 20
0.387030374336121
 42
-0.0589617480196389
 10
2.054368528547261
 20
0.388163142544784
 42
-0.055567443413236
 10
2.059090479130848
 20
0.3885472203085105
 42
-0.0505831829207604
 10
2.064047301410798
 20
0.3881580670007456
 42
-0.0805511158347094
 10
2.069747668259342
 20
0.386212311056966
 42
-0.0997279791482863
 10
2.074247886376642
 20
0.3821694970928324
 42
-0.05798586112659
 10
2.07633439185648
 20
0.3782279079159712
 42
-0.0542300556945522
 10
2.077638444514636
 20
0.3736673778522577
 42
-0.0393615860447316
 10
2.078265858667439
 20
0.3672377124287327
 10
2.037441464426283
 20
0.3672377124287327
 42
-0.0115879268951182
 10
2.037725560475539
 20
0.3695945556602855
 42
-0.0015814549261624
 10
2.038127018079851
 20
0.3718162665023788
 42
-0.0028557092809637
  0
LWPOLYLINE
  5
5FF
102
{ACAD_REACTORS
330
5F0
102
}
330
5DA
100
AcDbEntity
  8
CONTINUOUS1
 62
     9
100
AcDbPolyline
 90
       47
 70
     1
 43
0.0
 10
2.043762176988739
 20
0.3371934049870338
 42
-0.0441414060654578
 10
2.041222399913497
 20
0.3406137919386656
 42
-0.0277319653937625
 10
2.040074001493767
 20
0.342908764392917
 42
-0.0164279047561354
 10
2.03912434719442
 20
0.3453802682993233
 42
-0.0066863653619568
 10
2.038383944154166
 20
0.3480745345536893
 42
-0.0233064481414024
 10
2.037863384418049
 20
0.3511569156956971
 42
-0.0386937426355895
 10
2.037439214412732
 20
0.3572253591981966
 10
2.09083328806415
 20
0.3572253591981966
 10
2.09083328806415
 20
0.367418047889942
 42
0.1310126142130034
 10
2.086597191819212
 20
0.384827874269718
 42
0.1175696112009137
 10
2.077965163461872
 20
0.3945709905457311
 42
0.1103270754359441
 10
2.066615628186159
 20
0.3987237922934814
 42
0.0651926395407652
 10
2.059102557033643
 20
0.3992029596881825
 42
0.0935138111535395
 10
2.048012240298962
 20
0.3974214224988377
 42
0.0771718076448178
 10
2.040894364920664
 20
0.3939838910158646
 42
0.0650775313207389
 10
2.035397751656748
 20
0.3895585675142574
 42
0.0516650400356126
 10
2.030723836739614
 20
0.3836759482660459
 42
0.0469242136237456
 10
2.028122290424708
 20
0.3788161200391191
 42
0.051223632580995
 10
2.026595295387071
 20
0.3746909211984648
 42
0.037832980863087
 10
2.02519517139601
 20
0.3691379050324035
 42
0.0380040356892352
 10
2.024403782199872
 20
0.3632512380642088
 42
0.0396963751324013
 10
2.024403782199872
 20
0.3535837675287898
 42
0.0477329049617882
 10
2.025940180595942
 20
0.3438434486300826
 42
0.0632736306522388
 10
2.027823357022132
 20
0.3384198641380185
 42
0.0887240198666166
 10
2.03298350835573
 20
0.3301577047572555
 42
0.0593249496237894
 10
2.038147862544949
 20
0.3253225760990977
 42
0.0586814778487906
 10
2.04445082971765
 20
0.321706383342701
 42
0.039275593781097
 10
2.049756446549199
 20
0.3198508322162757
 42
0.0294048595279412
 10
2.054845807362514
 20
0.3187611372579231
 42
0.0245538255625254
 10
2.060277276366523
 20
0.3182910719351076
 42
0.0484050884053723
 10
2.069164787393422
 20
0.318538586832347
 42
0.0313804255658969
 10
2.076093852673157
 20
0.3199276859149341
 42
0.0210229524573495
 10
2.081421799827726
 20
0.3215361459892283
 42
0.0098439804496088
 10
2.089473324692026
 20
0.3247109995190845
 10
2.089473324692026
 20
0.3403736793267176
 42
-0.1158714317854296
 10
2.088714348426808
 20
0.3389070845880729
 42
-0.0273968376187686
 10
2.085939360030554
 20
0.3368770470617056
 42
-0.0245127629396402
 10
2.083474088120656
 20
0.3353916503899091
 42
-0.0174018213192927
 10
2.080637160672413
 20
0.3339310062675627
 42
-0.0303578783463293
 10
2.075349268004035
 20
0.3316766063780965
 42
-0.0163288525489418
 10
2.071577587289514
 20
0.3305939790356552
 42
-0.0174430116847887
 10
2.069355720146038
 20
0.33012803560564
 42
-0.0109219578339942
 10
2.067051578922619
 20
0.329799142463799
 42
-0.0520451680420305
 10
2.059067236066457
 20
0.329799142463799
 42
-0.0139513426612014
 10
2.057268456374604
 20
0.3300115523971959
 42
-0.0578723374760443
 10
2.051826841083116
 20
0.3315192009325761
 42
-0.0508775714496942
 10
2.047803880554656
 20
0.3335955965084172
 42
-0.061605978241212
  0
CIRCLE
  5
600
102
{ACAD_REACTORS
330
5EE
102
}
330
5DA
100
AcDbEntity
  8
CONTINUOUS1
 62
     9
100
AcDbCircle
 10
2.12149847922959
 20
0.4213110892682726
 30
0.0
 40
0.0083328542819542
  0
LWPOLYLINE
  5
601
102
{ACAD_REACTORS
330
5EF
102
}
330
5DA
100
AcDbEntity
  8
CONTINUOUS1
 62
     9
100
AcDbPolyline
 90
       18
 70
     1
 43
0.0
 10
2.258394368401841
 20
0.3739249696649272
 42
-0.0075148293555971
 10
2.259055171906343
 20
0.3758094905988973
 42
-0.004657993094582
 10
2.259826098715198
 20
0.3774326474991771
 42
-0.0194573042781228
 10
2.260922279839608
 20
0.3793376189554469
 42
-0.025588215895386
 10
2.26256880153986
 20
0.3815052047880845
 42
-0.0513535452749696
 10
2.265692244863064
 20
0.3844411686669678
 42
-0.0711488595792178
 10
2.269995650475298
 20
0.387030374336121
 42
-0.0589617480196389
 10
2.274067686770738
 20
0.388163142544784
 42
-0.055567443413236
 10
2.278789637354496
 20
0.3885472203085105
 42
-0.0505831829207604
 10
2.283746459634446
 20
0.3881580670007456
 42
-0.0805511158347094
 10
2.289446826482819
 20
0.386212311056966
 42
-0.0997279791482863
 10
2.29394704460012
 20
0.3821694970928324
 42
-0.05798586112659
 10
2.296033550079958
 20
0.3782279079159712
 42
-0.0542300556945522
 10
2.297337602738284
 20
0.3736673778522577
 42
-0.0393615860447316
 10
2.297965016891087
 20
0.3672377124287327
 10
2.257140622649931
 20
0.3672377124287327
 42
-0.0115879268951182
 10
2.257424718699017
 20
0.3695945556602855
 42
-0.0015814549261624
 10
2.257826176303499
 20
0.3718162665023788
 42
-0.0028557092809637
  0
LWPOLYLINE
  5
602
102
{ACAD_REACTORS
330
5EF
102
}
330
5DA
100
AcDbEntity
  8
CONTINUOUS1
 62
     9
100
AcDbPolyline
 90
       47
 70
     1
 43
0.0
 10
2.263461335212387
 20
0.3371934049870338
 42
-0.0441414060654578
 10
2.260921558137145
 20
0.3406137919386656
 42
-0.0277319653937625
 10
2.259773159717415
 20
0.342908764392917
 42
-0.0164279047561354
 10
2.258823505418067
 20
0.3453802682993233
 42
-0.0066863653619568
 10
2.258083102377813
 20
0.3480745345536893
 42
-0.0233064481414024
 10
2.257562542641696
 20
0.3511569156956971
 42
-0.0386937426355895
 10
2.257138372636379
 20
0.3572253591981966
 10
2.310532446287798
 20
0.3572253591981966
 10
2.310532446287798
 20
0.367418047889942
 42
0.1310126142130034
 10
2.30629635004286
 20
0.384827874269718
 42
0.1175696112009137
 10
2.29766432168552
 20
0.3945709905457311
 42
0.1103270754359441
 10
2.286314786409807
 20
0.3987237922934814
 42
0.0651926395407652
 10
2.278801715257291
 20
0.3992029596881825
 42
0.0935138111535395
 10
2.26771139852261
 20
0.3974214224988377
 42
0.0771718076448178
 10
2.260593523144311
 20
0.3939838910158646
 42
0.0650775313207389
 10
2.255096909880396
 20
0.3895585675142574
 42
0.0516650400356126
 10
2.250422994963262
 20
0.3836759482660459
 42
0.0469242136237456
 10
2.247821448648355
 20
0.3788161200391191
 42
0.051223632580995
 10
2.246294453610719
 20
0.3746909211984648
 42
0.037832980863087
 10
2.244894329619658
 20
0.3691379050324035
 42
0.0380040356892352
 10
2.24410294042352
 20
0.3632512380642088
 42
0.0396963751324013
 10
2.24410294042352
 20
0.3535837675287898
 42
0.0477329049617882
 10
2.245639338819589
 20
0.3438434486300826
 42
0.0632736306522388
 10
2.24752251524578
 20
0.3384198641380185
 42
0.0887240198666166
 10
2.252682666579378
 20
0.3301577047572555
 42
0.0593249496237894
 10
2.257847020768597
 20
0.3253225760990977
 42
0.0586814778487906
 10
2.264149987941298
 20
0.321706383342701
 42
0.039275593781097
 10
2.269455604772847
 20
0.3198508322162757
 42
0.0294048595279412
 10
2.274544965586162
 20
0.3187611372579231
 42
0.0245538255625254
 10
2.279976434590171
 20
0.3182910719351076
 42
0.0484050884053723
 10
2.288863945616899
 20
0.318538586832347
 42
0.0313804255658969
 10
2.295793010896804
 20
0.3199276859149341
 42
0.0210229524573495
 10
2.301120958051374
 20
0.3215361459892283
 42
0.0098439804496088
 10
2.309172482915673
 20
0.3247109995190845
 10
2.309172482915673
 20
0.3403736793267176
 42
-0.1158714317854296
 10
2.308413506650456
 20
0.3389070845880729
 42
-0.0273968376187686
 10
2.305638518254202
 20
0.3368770470617056
 42
-0.0245127629396402
 10
2.303173246344304
 20
0.3353916503899091
 42
-0.0174018213192927
 10
2.300336318896061
 20
0.3339310062675627
 42
-0.0303578783463293
 10
2.295048426227683
 20
0.3316766063780965
 42
-0.0163288525489418
 10
2.291276745513162
 20
0.3305939790356552
 42
-0.0174430116847887
 10
2.289054878369686
 20
0.33012803560564
 42
-0.0109219578339942
 10
2.286750737146267
 20
0.329799142463799
 42
-0.0520451680420305
 10
2.278766394290105
 20
0.329799142463799
 42
-0.0139513426612014
 10
2.276967614598081
 20
0.3300115523971959
 42
-0.0578723374760443
 10
2.271525999306593
 20
0.3315192009325761
 42
-0.0508775714496942
 10
2.267503038778134
 20
0.3335955965084172
 42
-0.061605978241212
  0
LWPOLYLINE
  5
603
102
{ACAD_REACTORS
330
5EC
102
}
330
5DA
100
AcDbEntity
  8
CONTINUOUS1
  6
CONTINUOUS
 62
     9
100
AcDbPolyline
 90
        4
 70
     0
 43
0.0
 10
2.278033314329977
 20
0.6359049480514618
 10
2.315470001287028
 20
0.5783643742108216
 10
2.240596983623252
 20
0.578364196085659
 10
2.278033126829914
 20
0.635904589926327
  0
HATCH
  5
604
330
5DA
100
AcDbEntity
  8
CONTINUOUS1
 62
     9
100
AcDbHatch
 10
0.0
 20
0.0
 30
0.0
210
0.0
220
0.0
230
1.0
  2
SOLID
 70
     1
 71
     1
 91
        1
 92
        1
 93
       79
 72
     1
 10
2.768100195328234
 20
0.3193447290382215
 11
2.770072304174934
 21
0.3185392197908646
 72
     1
 10
2.770072304174934
 20
0.3185392197908646
 11
2.776853223288274
 21
0.3177266059119579
 72
     1
 10
2.776853223288274
 20
0.3177266059119579
 11
2.783960394644882
 21
0.3185392197908646
 72
     1
 10
2.783960394644882
 20
0.3185392197908646
 11
2.78673801273894
 21
0.3190948244196652
 72
     1
 10
2.78673801273894
 20
0.3190948244196652
 11
2.788710121585641
 21
0.3197586133924238
 72
     1
 10
2.788710121585641
 20
0.3197586133924238
 11
2.790321140080184
 21
0.3205113286375654
 72
     1
 10
2.790321140080184
 20
0.3205113286375654
 11
2.792293248926885
 21
0.3213168378847518
 72
     1
 10
2.792293248926885
 20
0.3213168378847518
 11
2.795070867020772
 21
0.3223769226657969
 72
     1
 10
2.795070867020772
 20
0.3223769226657969
 11
2.79784848511483
 21
0.323705589445638
 72
     1
 10
2.79784848511483
 20
0.323705589445638
 11
2.79784848511483
 21
0.3240944559788095
 72
     1
 10
2.79784848511483
 20
0.3240944559788095
 11
2.79784848511483
 21
0.3268720740728673
 72
     1
 10
2.79784848511483
 20
0.3268720740728673
 11
2.79784848511483
 21
0.3296496921667545
 72
     1
 10
2.79784848511483
 20
0.3296496921667545
 11
2.79784848511483
 21
0.3324273102608122
 72
     1
 10
2.79784848511483
 20
0.3324273102608122
 11
2.79784848511483
 21
0.3348160618216985
 72
     1
 10
2.79784848511483
 20
0.3348160618216985
 11
2.795070867020772
 21
0.3340302206436268
 72
     1
 10
2.795070867020772
 20
0.3340302206436268
 11
2.792365821896428
 21
0.3330627471016219
 72
     1
 10
2.792365821896428
 20
0.3330627471016219
 11
2.789656082622375
 21
0.3319722328952826
 72
     1
 10
2.789656082622375
 20
0.3319722328952826
 11
2.787543521986126
 21
0.3310528956835701
 72
     1
 10
2.787543521986126
 20
0.3310528956835701
 11
2.785932503491583
 21
0.3304552014141114
 72
     1
 10
2.785932503491583
 20
0.3304552014141114
 11
2.783960394644882
 21
0.3296496921667545
 72
     1
 10
2.783960394644882
 20
0.3296496921667545
 11
2.781182776550995
 21
0.3294142968159695
 72
     1
 10
2.781182776550995
 20
0.3294142968159695
 11
2.778405158456937
 21
0.3296496921667545
 72
     1
 10
2.778405158456937
 20
0.3296496921667545
 11
2.776433049610236
 21
0.3304552014141114
 72
     1
 10
2.776433049610236
 20
0.3304552014141114
 11
2.774670597445183
 21
0.3314126783258194
 72
     1
 10
2.774670597445183
 20
0.3314126783258194
 11
2.772849922268992
 21
0.3324273102608122
 72
     1
 10
2.772849922268992
 20
0.3324273102608122
 11
2.771309634063275
 21
0.3337080859405437
 72
     1
 10
2.771309634063275
 20
0.3337080859405437
 11
2.770072304174934
 21
0.33520492835487
 72
     1
 10
2.770072304174934
 20
0.33520492835487
 11
2.769017502196309
 21
0.3370752134098898
 72
     1
 10
2.769017502196309
 20
0.3370752134098898
 11
2.768100195328234
 21
0.3387880556961141
 72
     1
 10
2.768100195328234
 20
0.3387880556961141
 11
2.767294686081047
 21
0.3407601645426444
 72
     1
 10
2.767294686081047
 20
0.3407601645426444
 11
2.767294686081047
 21
0.3435377826367021
 72
     1
 10
2.767294686081047
 20
0.3435377826367021
 11
2.767294686081047
 21
0.3796468178584296
 72
     1
 10
2.767294686081047
 20
0.3796468178584296
 11
2.767294686081047
 21
0.3824244359524873
 72
     1
 10
2.767294686081047
 20
0.3824244359524873
 11
2.767294686081047
 21
0.3852020540465451
 72
     1
 10
2.767294686081047
 20
0.3852020540465451
 11
2.770072304174934
 21
0.3852020540465451
 72
     1
 10
2.770072304174934
 20
0.3852020540465451
 11
2.772849922268992
 21
0.3852020540465451
 72
     1
 10
2.772849922268992
 20
0.3852020540465451
 11
2.78673801273894
 21
0.3852020540465451
 72
     1
 10
2.78673801273894
 20
0.3852020540465451
 11
2.789515630832827
 21
0.3852020540465451
 72
     1
 10
2.789515630832827
 20
0.3852020540465451
 11
2.792293248926885
 21
0.3852020540465451
 72
     1
 10
2.792293248926885
 20
0.3852020540465451
 11
2.792293248926885
 21
0.3879796721404323
 72
     1
 10
2.792293248926885
 20
0.3879796721404323
 11
2.792293248926885
 21
0.39075729023449
 72
     1
 10
2.792293248926885
 20
0.39075729023449
 11
2.792293248926885
 21
0.3935349083285478
 72
     1
 10
2.792293248926885
 20
0.3935349083285478
 11
2.792293248926885
 21
0.396312526422435
 72
     1
 10
2.792293248926885
 20
0.396312526422435
 11
2.789515630832827
 21
0.396312526422435
 72
     1
 10
2.789515630832827
 20
0.396312526422435
 11
2.78673801273894
 21
0.396312526422435
 72
     1
 10
2.78673801273894
 20
0.396312526422435
 11
2.772849922268992
 21
0.396312526422435
 72
     1
 10
2.772849922268992
 20
0.396312526422435
 11
2.770072304174934
 21
0.396312526422435
 72
     1
 10
2.770072304174934
 20
0.396312526422435
 11
2.767294686081047
 21
0.396312526422435
 72
     1
 10
2.767294686081047
 20
0.396312526422435
 11
2.767294686081047
 21
0.3990901445163222
 72
     1
 10
2.767294686081047
 20
0.3990901445163222
 11
2.767294686081047
 21
0.40186776261038
 72
     1
 10
2.767294686081047
 20
0.40186776261038
 11
2.767294686081047
 21
0.4046453807044377
 72
     1
 10
2.767294686081047
 20
0.4046453807044377
 11
2.767294686081047
 21
0.4074229987983249
 72
     1
 10
2.767294686081047
 20
0.4074229987983249
 11
2.767294686081047
 21
0.4101951770153965
 72
     1
 10
2.767294686081047
 20
0.4101951770153965
 11
2.765072591605903
 21
0.4082562842266957
 72
     1
 10
2.765072591605903
 20
0.4082562842266957
 11
2.762850497130589
 21
0.4063119515608383
 72
     1
 10
2.762850497130589
 20
0.4063119515608383
 11
2.749517930279555
 21
0.3946459555660344
 72
     1
 10
2.749517930279555
 20
0.3946459555660344
 11
2.747295835804241
 21
0.392701622900177
 72
     1
 10
2.747295835804241
 20
0.392701622900177
 11
2.745037428605176
 21
0.390774564389972
 72
     1
 10
2.745037428605176
 20
0.390774564389972
 11
2.742784501548531
 21
0.3888087685731994
 72
     1
 10
2.742784501548531
 20
0.3888087685731994
 11
2.740784200988546
 21
0.3870634024897304
 72
     1
 10
2.740784200988546
 20
0.3870634024897304
 11
2.73865097726642
 21
0.3852020540465451
 72
     1
 10
2.73865097726642
 20
0.3852020540465451
 11
2.74229612323521
 21
0.3852020540465451
 72
     1
 10
2.74229612323521
 20
0.3852020540465451
 11
2.745073741329097
 21
0.3852020540465451
 72
     1
 10
2.745073741329097
 20
0.3852020540465451
 11
2.747851359423155
 21
0.3852020540465451
 72
     1
 10
2.747851359423155
 20
0.3852020540465451
 11
2.750628977517042
 21
0.3852020540465451
 72
     1
 10
2.750628977517042
 20
0.3852020540465451
 11
2.7534065956111
 21
0.3852020540465451
 72
     1
 10
2.7534065956111
 20
0.3852020540465451
 11
2.7534065956111
 21
0.3824244359524873
 72
     1
 10
2.7534065956111
 20
0.3824244359524873
 11
2.7534065956111
 21
0.3796468178584296
 72
     1
 10
2.7534065956111
 20
0.3796468178584296
 11
2.7534065956111
 21
0.3379825464487572
 72
     1
 10
2.7534065956111
 20
0.3379825464487572
 11
2.7534065956111
 21
0.33520492835487
 72
     1
 10
2.7534065956111
 20
0.33520492835487
 11
2.753795462144271
 21
0.3324273102608122
 72
     1
 10
2.753795462144271
 20
0.3324273102608122
 11
2.754795404658043
 21
0.3296496921667545
 72
     1
 10
2.754795404658043
 20
0.3296496921667545
 11
2.756573080238158
 21
0.3272609406060388
 72
     1
 10
2.756573080238158
 20
0.3272609406060388
 11
2.758810686828073
 21
0.3252801639712293
 72
     1
 10
2.758810686828073
 20
0.3252801639712293
 11
2.760933940645745
 21
0.323705589445638
 72
     1
 10
2.760933940645745
 20
0.323705589445638
 11
2.762735804659516
 21
0.322316540818179
 72
     1
 10
2.762735804659516
 20
0.322316540818179
 11
2.764517067986989
 21
0.3213168378847518
 72
     1
 10
2.764517067986989
 20
0.3213168378847518
 11
2.766384493876135
 21
0.3202550358792001
 72
     1
 10
2.766384493876135
 20
0.3202550358792001
 11
2.768100195328234
 21
0.3193447290382215
 97
        1
330
613
 75
     0
 76
     1
 98
        1
 10
-6.623918024059631
 20
-0.1308261527660757
  0
HATCH
  5
605
330
5DA
100
AcDbEntity
  8
CONTINUOUS1
 62
     9
100
AcDbHatch
 10
0.0
 20
0.0
 30
0.0
210
0.0
220
0.0
230
1.0
  2
SOLID
 70
     1
 71
     1
 91
        1
 92
        1
 93
        4
 72
     1
 10
2.728340921353581
 20
0.3820863083685713
 11
2.728340921353581
 21
0.3931967807444612
 72
     2
 10
2.706296461134867
 20
0.3584765545696773
 40
0.041127269930821
 50
57.58784372121546
 51
302.4121562787845
 73
     1
 72
     1
 10
2.728340921353581
 20
0.3237563283948935
 11
2.728340921353581
 21
0.3348668007707834
 72
     2
 10
2.710219154518597
 20
0.3584765545696773
 40
0.0297627100188458
 50
52.49180531393238
 51
307.5081946860675
 73
     0
 97
        1
330
614
 75
     0
 76
     1
 98
        1
 10
-6.623918024059631
 20
-0.1308261527660757
  0
HATCH
  5
606
330
5DA
100
AcDbEntity
  8
CONTINUOUS1
 62
     9
100
AcDbHatch
 10
0.0
 20
0.0
 30
0.0
210
0.0
220
0.0
230
1.0
  2
SOLID
 70
     1
 71
     1
 91
        2
 92
       16
 93
       18
 72
     2
 10
2.660106775440887
 20
0.3528851545616271
 40
0.0664396543383199
 50
198.4619958207183
 51
200.1842354247361
 73
     0
 72
     2
 10
2.685247637907941
 20
0.3352454129199108
 40
0.096445586517071
 50
204.8718608834226
 51
205.9393865440841
 73
     0
 72
     2
 10
2.623533366964867
 20
0.3643060230231959
 40
0.0282500412151287
 50
207.6881291807204
 51
212.1468522298009
 73
     0
 72
     2
 10
2.621601394969284
 20
0.3643452262975984
 40
0.0266120055644413
 50
214.289143935524
 51
220.152251626646
 73
     0
 72
     2
 10
2.617077869529618
 20
0.3678076991082785
 40
0.0209235948276609
 50
220.892661179859
 51
232.6516971443595
 73
     0
 72
     2
 10
2.615587881266414
 20
0.3706911836161677
 40
0.0177364140530899
 50
230.8268348175522
 51
247.1055208447452
 73
     0
 72
     2
 10
2.61551009202811
 20
0.370391197006481
 40
0.0179834923776296
 50
247.7056716281972
 51
261.203082165149
 73
     0
 72
     2
 10
2.616843448344337
 20
0.36717654635147
 40
0.0213802051303731
 50
258.9888491839005
 51
271.7108857747937
 73
     0
 72
     2
 10
2.618041777868569
 20
0.3639169558453035
 40
0.0246366297664502
 50
268.6975355392314
 51
280.2804749251206
 73
     0
 72
     2
 10
2.619289082162454
 20
0.369608213028888
 40
0.0188153276110619
 50
279.6361688894454
 51
298.0573516433577
 73
     0
 72
     2
 10
2.620355269469509
 20
0.3730218708912918
 40
0.0153157982727261
 50
300.5449189786844
 51
323.3255645340623
 73
     0
 72
     2
 10
2.61674582695598
 20
0.3712331984285728
 40
0.0192925244149349
 50
325.4679485472512
 51
338.7424644189146
 73
     0
 72
     2
 10
2.614415550741325
 20
0.3699536532293334
 40
0.0219309169397976
 50
337.8342522704153
 51
350.2507032151334
 73
     0
 72
     2
 10
2.595569537316608
 20
0.3664737796651569
 40
0.0410947224300675
 50
349.9184788839777
 51
358.9348353768806
 73
     0
 72
     1
 10
2.636657158546572
 20
0.3672377124287327
 11
2.595832764305416
 21
0.3672377124287327
 72
     2
 10
2.64681494050507
 20
0.3622878182718704
 40
0.051221906858459
 50
185.5455046984018
 51
188.2011430538267
 73
     0
 72
     2
 10
2.947529825566531
 20
0.3072422364761533
 40
0.3569017845664977
 50
190.0614576287786
 51
190.4239000976597
 73
     0
 72
     2
 10
2.781405060710635
 20
0.3231292571124805
 40
0.1911897814441117
 50
194.7530117273464
 51
195.4074903055051
 73
     0
 97
        1
330
60D
 92
        1
 93
       47
 72
     2
 10
2.62021760346478
 20
0.3532598947256552
 40
0.0241752923918273
 50
138.3496533346511
 51
148.4595555609686
 73
     0
 72
     2
 10
2.619712462684475
 20
0.3521059761880958
 40
0.0231523339774945
 50
150.2396979683238
 51
156.5937677099167
 73
     0
 72
     2
 10
2.635591692141174
 20
0.3585924636724106
 40
0.040303192361997
 50
157.0988242481769
 51
160.8634840437796
 73
     0
 72
     2
 10
2.697878267298236
 20
0.3744094790060188
 40
0.1044765553251907
 50
163.8678439431619
 51
165.4002231692524
 73
     0
 72
     2
 10
2.629560613196424
 20
0.3551965516179019
 40
0.033550015770866
 50
167.7439659185812
 51
173.0844435487628
 73
     0
 72
     2
 10
2.635192067538312
 20
0.356927593697432
 40
0.0393626795107542
 50
171.5698966947791
 51
180.4334275361526
 73
     0
 72
     1
 10
2.595830514291865
 20
0.3572253591981966
 11
2.649224587943283
 21
0.3572253591981966
 72
     1
 10
2.649224587943283
 20
0.3572253591981966
 11
2.649224587943283
 21
0.367418047889942
 72
     2
 10
2.614455106004424
 20
0.36817833181333
 40
0.0347777932873957
 50
358.7473463266968
 51
388.6031824377397
 73
     1
 72
     2
 10
2.620241090430116
 20
0.3715980049238856
 40
0.0280617767156418
 50
28.12879544758857
 51
54.95063515022645
 73
     1
 72
     2
 10
2.621386031958198
 20
0.3712425033481648
 40
0.0277188046407911
 50
57.31076922041544
 51
82.4940245374038
 73
     1
 72
     2
 10
2.619420696306377
 20
0.3702747845720343
 40
0.0289922752746188
 50
78.89077226525315
 51
93.81071159195634
 73
     1
 72
     2
 10
2.61666981386139
 20
0.3689225917587153
 40
0.0302915785144063
 50
88.44115042377268
 51
109.8107905333598
 73
     1
 72
     2
 10
2.613914251529578
 20
0.3727814463646621
 40
0.0257592548203171
 50
106.9521716693699
 51
124.603661569856
 73
     1
 72
     2
 10
2.613465558234084
 20
0.370745022031955
 40
0.027223416564771
 50
121.3907074886569
 51
136.2843774046689
 73
     1
 72
     2
 10
2.619841295496989
 20
0.3640611980123525
 40
0.0364531928221072
 50
135.6167017519909
 51
147.4469381469264
 73
     1
 72
     2
 10
2.61364925277008
 20
0.367416191215975
 40
0.0294330181030494
 50
146.4659438100723
 51
157.2122986253005
 73
     1
 72
     2
 10
2.605830545336452
 20
0.3693204846406612
 40
0.0215246798664316
 50
153.8226534473667
 51
165.5519937306932
 73
     1
 72
     2
 10
2.620928292763789
 20
0.3626756489903522
 40
0.0378968651110208
 50
161.515271747222
 51
170.1818189345484
 73
     1
 72
     2
 10
2.62185880698542
 20
0.3609961355594354
 40
0.0391287629611654
 50
167.9903558377853
 51
176.6960496179407
 73
     1
 72
     2
 10
2.64358297821499
 20
0.3584175027964993
 40
0.0609797779044622
 50
175.4535176021835
 51
184.5464823978164
 73
     1
 72
     2
 10
2.634461745709456
 20
0.3567421254133762
 40
0.0517631080522538
 50
183.4981100536811
 51
194.429389032572
 73
     1
 72
     2
 10
2.606616363011642
 20
0.3485424727520852
 40
0.0227749164074815
 50
191.9070472796621
 51
206.3889894285758
 73
     1
 72
     2
 10
2.611891972958808
 20
0.3487142209845105
 40
0.0276640261495296
 50
201.8464660881787
 51
222.1274079961559
 73
     1
 72
     2
 10
2.614260886541606
 20
0.3494265410796771
 40
0.0299175639630403
 50
220.0955596825676
 51
233.6759197426415
 73
     1
 72
     2
 10
2.615043617984982
 20
0.3502744687142416
 40
0.0310646393940598
 50
233.4391728830817
 51
246.8725717081748
 73
     1
 72
     2
 10
2.617287813857059
 20
0.3544982286952896
 40
0.035832707340859
 50
246.2252262725147
 51
255.2219052108666
 73
     1
 72
     2
 10
2.619948998501218
 20
0.3625382973605903
 40
0.0442887031977101
 50
254.5461626614621
 51
261.28331875032
 73
     1
 72
     2
 10
2.620736026381953
 20
0.3737944212376278
 40
0.0555418412898209
 50
262.2405778669421
 51
267.866769692275
 73
     1
 72
     2
 10
2.621836975360784
 20
0.3642090186578022
 40
0.0460271287848912
 50
266.0527719165295
 51
277.1377488483287
 73
     1
 72
     2
 10
2.619964912664253
 20
0.3743809067507015
 40
0.0563559280448384
 50
277.7413046158855
 51
284.930809102693
 73
     1
 72
     2
 10
2.618030151341718
 20
0.3840626065593292
 40
0.0662121975991039
 50
284.3899023200388
 51
289.2072984924262
 73
     1
 72
     2
 10
2.563217362272785
 20
0.5275821421545017
 40
0.2198223362827568
 50
290.3921624947603
 51
292.6481637583187
 73
     1
 72
     1
 10
2.647864624571159
 20
0.3247109995190845
 11
2.647864624571159
 21
0.3403736793267176
 72
     2
 10
2.644363348913712
 20
0.3412559357119335
 40
0.0036107211964766
 50
14.14304208538034
 51
40.5809188106621
 73
     0
 72
     2
 10
2.627207680057823
 20
0.3631952191068923
 40
0.0313981308170948
 50
50.67407287050084
 51
56.95139529671177
 73
     0
 72
     2
 10
2.627957909630271
 20
0.3612619791193873
 40
0.0293716166250663
 50
56.12144370235181
 51
61.7382303285629
 73
     0
 72
     2
 10
2.619469209093496
 20
0.3754051721516405
 40
0.0458548879987645
 50
60.76359459619522
 51
64.75139576529091
 73
     0
 72
     2
 10
2.617836427563542
 20
0.3763099703744814
 40
0.047382263147091
 50
63.43218982647736
 51
70.38756687457111
 73
     0
 72
     2
 10
2.615283773187174
 20
0.3888655443368394
 40
0.0600934929530564
 50
72.11336347133055
 51
75.85532826122167
 73
     0
 72
     2
 10
2.622181903739372
 20
0.3621959788453819
 40
0.0325472503124577
 50
76.15762347795572
 51
80.1548619188531
 73
     0
 72
     2
 10
2.61906759228913
 20
0.3826983276081179
 40
0.0532819675598692
 50
80.6249603204364
 51
83.12798914716191
 73
     0
 72
     2
 10
2.621450707373671
 20
0.368048205585744
 40
0.0384568363547721
 50
84.04143915734456
 51
95.95856084265543
 73
     0
 72
     2
 10
2.62036466853374
 20
0.3621321664056745
 40
0.0324633646414816
 50
95.13601524590475
 51
98.33322003417473
 73
     0
 72
     2
 10
2.619429956113451
 20
0.35419362593474
 40
0.0244742127055942
 50
98.86157888952332
 51
112.110164074703
 73
     0
 72
     2
 10
2.61838315256972
 20
0.3522740777562495
 40
0.022303190949189
 50
111.4747791436719
 51
123.1250142198119
 73
     0
 72
     2
 10
2.618718995543536
 20
0.3517336784423094
 40
0.0220416868943367
 50
124.6239441549396
 51
138.7251729097469
 73
     0
 97
        1
330
60E
 75
     0
 76
     1
 98
        1
 10
-6.623918024059631
 20
-0.1308261527660757
  0
HATCH
  5
607
330
5DA
100
AcDbEntity
  8
CONTINUOUS1
 62
     9
100
AcDbHatch
 10
0.0
 20
0.0
 30
0.0
210
0.0
220
0.0
230
1.0
  2
SOLID
 70
     1
 71
     1
 91
        1
 92
        1
 93
       20
 72
     1
 10
2.545085238562226
 20
0.3185392197908646
 11
2.547862856656283
 21
0.3185392197908646
 72
     1
 10
2.547862856656283
 20
0.3185392197908646
 11
2.550640474750171
 21
0.3185392197908646
 72
     1
 10
2.550640474750171
 20
0.3185392197908646
 11
2.553418092844228
 21
0.3185392197908646
 72
     1
 10
2.553418092844228
 20
0.3185392197908646
 11
2.556195710938116
 21
0.3185392197908646
 72
     1
 10
2.556195710938116
 20
0.3185392197908646
 11
2.558973329032173
 21
0.3185392197908646
 72
     1
 10
2.558973329032173
 20
0.3185392197908646
 11
2.558973329032173
 21
0.3213168378847518
 72
     1
 10
2.558973329032173
 20
0.3213168378847518
 11
2.558973329032173
 21
0.3240944559788095
 72
     1
 10
2.558973329032173
 20
0.3240944559788095
 11
2.558973329032173
 21
0.432421561644333
 72
     1
 10
2.558973329032173
 20
0.432421561644333
 11
2.558973329032173
 21
0.4351991797382202
 72
     1
 10
2.558973329032173
 20
0.4351991797382202
 11
2.558973329032173
 21
0.4379767978321075
 72
     1
 10
2.558973329032173
 20
0.4379767978321075
 11
2.556195710938116
 21
0.4379767978321075
 72
     1
 10
2.556195710938116
 20
0.4379767978321075
 11
2.553418092844228
 21
0.4379767978321075
 72
     1
 10
2.553418092844228
 20
0.4379767978321075
 11
2.550640474750171
 21
0.4379767978321075
 72
     1
 10
2.550640474750171
 20
0.4379767978321075
 11
2.547862856656283
 21
0.4379767978321075
 72
     1
 10
2.547862856656283
 20
0.4379767978321075
 11
2.545085238562226
 21
0.4379767978321075
 72
     1
 10
2.545085238562226
 20
0.4379767978321075
 11
2.545085238562226
 21
0.4351991797382202
 72
     1
 10
2.545085238562226
 20
0.4351991797382202
 11
2.545085238562226
 21
0.432421561644333
 72
     1
 10
2.545085238562226
 20
0.432421561644333
 11
2.545085238562226
 21
0.3240944559788095
 72
     1
 10
2.545085238562226
 20
0.3240944559788095
 11
2.545085238562226
 21
0.3213168378847518
 72
     1
 10
2.545085238562226
 20
0.3213168378847518
 11
2.545085238562226
 21
0.3185392197908646
 97
        1
330
611
 75
     0
 76
     1
 98
        1
 10
-6.623918024059631
 20
-0.1308261527660757
  0
HATCH
  5
608
330
5DA
100
AcDbEntity
  8
CONTINUOUS1
 62
     9
100
AcDbHatch
 10
0.0
 20
0.0
 30
0.0
210
0.0
220
0.0
230
1.0
  2
SOLID
 70
     1
 71
     1
 91
        1
 92
        1
 93
       60
 72
     1
 10
2.456201459554765
 20
0.3185392197908646
 11
2.458979077648653
 21
0.3185392197908646
 72
     1
 10
2.458979077648653
 20
0.3185392197908646
 11
2.46175669574271
 21
0.3185392197908646
 72
     1
 10
2.46175669574271
 20
0.3185392197908646
 11
2.520086675716388
 21
0.3185392197908646
 72
     1
 10
2.520086675716388
 20
0.3185392197908646
 11
2.522864293810275
 21
0.3185392197908646
 72
     1
 10
2.522864293810275
 20
0.3185392197908646
 11
2.525641911904333
 21
0.3185392197908646
 72
     1
 10
2.525641911904333
 20
0.3185392197908646
 11
2.525641911904333
 21
0.3213168378847518
 72
     1
 10
2.525641911904333
 20
0.3213168378847518
 11
2.525641911904333
 21
0.3240944559788095
 72
     1
 10
2.525641911904333
 20
0.3240944559788095
 11
2.525641911904333
 21
0.3268720740728673
 72
     1
 10
2.525641911904333
 20
0.3268720740728673
 11
2.525641911904333
 21
0.3296496921667545
 72
     1
 10
2.525641911904333
 20
0.3296496921667545
 11
2.525641911904333
 21
0.3324273102608122
 72
     1
 10
2.525641911904333
 20
0.3324273102608122
 11
2.522864293810275
 21
0.3324273102608122
 72
     1
 10
2.522864293810275
 20
0.3324273102608122
 11
2.520086675716388
 21
0.3324273102608122
 72
     1
 10
2.520086675716388
 20
0.3324273102608122
 11
2.478422404306545
 21
0.3324273102608122
 72
     1
 10
2.478422404306545
 20
0.3324273102608122
 11
2.475644786212658
 21
0.3324273102608122
 72
     1
 10
2.475644786212658
 20
0.3324273102608122
 11
2.4728671681186
 21
0.3324273102608122
 72
     1
 10
2.4728671681186
 20
0.3324273102608122
 11
2.4728671681186
 21
0.33520492835487
 72
     1
 10
2.4728671681186
 20
0.33520492835487
 11
2.4728671681186
 21
0.3379825464487572
 72
     1
 10
2.4728671681186
 20
0.3379825464487572
 11
2.4728671681186
 21
0.3657587273886524
 72
     1
 10
2.4728671681186
 20
0.3657587273886524
 11
2.4728671681186
 21
0.3685363454825397
 72
     1
 10
2.4728671681186
 20
0.3685363454825397
 11
2.4728671681186
 21
0.3713139635765974
 72
     1
 10
2.4728671681186
 20
0.3713139635765974
 11
2.475644786212658
 21
0.3713139635765974
 72
     1
 10
2.475644786212658
 20
0.3713139635765974
 11
2.478422404306545
 21
0.3713139635765974
 72
     1
 10
2.478422404306545
 20
0.3713139635765974
 11
2.51730905762233
 21
0.3713139635765974
 72
     1
 10
2.51730905762233
 20
0.3713139635765974
 11
2.520086675716388
 21
0.3713139635765974
 72
     1
 10
2.520086675716388
 20
0.3713139635765974
 11
2.522864293810275
 21
0.3713139635765974
 72
     1
 10
2.522864293810275
 20
0.3713139635765974
 11
2.522864293810275
 21
0.3740915816706551
 72
     1
 10
2.522864293810275
 20
0.3740915816706551
 11
2.522864293810275
 21
0.3768691997645424
 72
     1
 10
2.522864293810275
 20
0.3768691997645424
 11
2.522864293810275
 21
0.3796468178584296
 72
     1
 10
2.522864293810275
 20
0.3796468178584296
 11
2.522864293810275
 21
0.3824244359524873
 72
     1
 10
2.522864293810275
 20
0.3824244359524873
 11
2.522864293810275
 21
0.3852020540465451
 72
     1
 10
2.522864293810275
 20
0.3852020540465451
 11
2.520086675716388
 21
0.3852020540465451
 72
     1
 10
2.520086675716388
 20
0.3852020540465451
 11
2.51730905762233
 21
0.3852020540465451
 72
     1
 10
2.51730905762233
 20
0.3852020540465451
 11
2.478422404306545
 21
0.3852020540465451
 72
     1
 10
2.478422404306545
 20
0.3852020540465451
 11
2.475644786212658
 21
0.3852020540465451
 72
     1
 10
2.475644786212658
 20
0.3852020540465451
 11
2.4728671681186
 21
0.3852020540465451
 72
     1
 10
2.4728671681186
 20
0.3852020540465451
 11
2.4728671681186
 21
0.3879796721404323
 72
     1
 10
2.4728671681186
 20
0.3879796721404323
 11
2.4728671681186
 21
0.39075729023449
 72
     1
 10
2.4728671681186
 20
0.39075729023449
 11
2.4728671681186
 21
0.4185334711742148
 72
     1
 10
2.4728671681186
 20
0.4185334711742148
 11
2.4728671681186
 21
0.4213110892682726
 72
     1
 10
2.4728671681186
 20
0.4213110892682726
 11
2.4728671681186
 21
0.4240887073623303
 72
     1
 10
2.4728671681186
 20
0.4240887073623303
 11
2.475644786212658
 21
0.4240887073623303
 72
     1
 10
2.475644786212658
 20
0.4240887073623303
 11
2.478422404306545
 21
0.4240887073623303
 72
     1
 10
2.478422404306545
 20
0.4240887073623303
 11
2.51730905762233
 21
0.4240887073623303
 72
     1
 10
2.51730905762233
 20
0.4240887073623303
 11
2.520086675716388
 21
0.4240887073623303
 72
     1
 10
2.520086675716388
 20
0.4240887073623303
 11
2.522864293810275
 21
0.4240887073623303
 72
     1
 10
2.522864293810275
 20
0.4240887073623303
 11
2.522864293810275
 21
0.4268663254562175
 72
     1
 10
2.522864293810275
 20
0.4268663254562175
 11
2.522864293810275
 21
0.4296439435502753
 72
     1
 10
2.522864293810275
 20
0.4296439435502753
 11
2.522864293810275
 21
0.432421561644333
 72
     1
 10
2.522864293810275
 20
0.432421561644333
 11
2.522864293810275
 21
0.4351991797382202
 72
     1
 10
2.522864293810275
 20
0.4351991797382202
 11
2.522864293810275
 21
0.4379767978321075
 72
     1
 10
2.522864293810275
 20
0.4379767978321075
 11
2.520086675716388
 21
0.4379767978321075
 72
     1
 10
2.520086675716388
 20
0.4379767978321075
 11
2.51730905762233
 21
0.4379767978321075
 72
     1
 10
2.51730905762233
 20
0.4379767978321075
 11
2.46175669574271
 21
0.4379767978321075
 72
     1
 10
2.46175669574271
 20
0.4379767978321075
 11
2.458979077648653
 21
0.4379767978321075
 72
     1
 10
2.458979077648653
 20
0.4379767978321075
 11
2.456201459554765
 21
0.4379767978321075
 72
     1
 10
2.456201459554765
 20
0.4379767978321075
 11
2.456201459554765
 21
0.4351991797382202
 72
     1
 10
2.456201459554765
 20
0.4351991797382202
 11
2.456201459554765
 21
0.432421561644333
 72
     1
 10
2.456201459554765
 20
0.432421561644333
 11
2.456201459554765
 21
0.3240944559788095
 72
     1
 10
2.456201459554765
 20
0.3240944559788095
 11
2.456201459554765
 21
0.3213168378847518
 72
     1
 10
2.456201459554765
 20
0.3213168378847518
 11
2.456201459554765
 21
0.3185392197908646
 97
        1
330
60F
 75
     0
 76
     1
 98
        1
 10
-6.623918024059631
 20
-0.1308261527660757
  0
HATCH
  5
609
330
5DA
100
AcDbEntity
  8
CONTINUOUS1
 62
     9
100
AcDbHatch
 10
0.0
 20
0.0
 30
0.0
210
0.0
220
0.0
230
1.0
  2
SOLID
 70
     1
 71
     1
 91
        1
 92
        1
 93
       63
 72
     1
 10
2.333986263419465
 20
0.3185392197908646
 11
2.336763881513352
 21
0.3185392197908646
 72
     1
 10
2.336763881513352
 20
0.3185392197908646
 11
2.33954149960741
 21
0.3185392197908646
 72
     1
 10
2.33954149960741
 20
0.3185392197908646
 11
2.342319117701297
 21
0.3185392197908646
 72
     1
 10
2.342319117701297
 20
0.3185392197908646
 11
2.345096735795355
 21
0.3185392197908646
 72
     1
 10
2.345096735795355
 20
0.3185392197908646
 11
2.347874353889242
 21
0.3185392197908646
 72
     1
 10
2.347874353889242
 20
0.3185392197908646
 11
2.347874353889242
 21
0.3213168378847518
 72
     1
 10
2.347874353889242
 20
0.3213168378847518
 11
2.347874353889242
 21
0.3240944559788095
 72
     1
 10
2.347874353889242
 20
0.3240944559788095
 11
2.347874353889242
 21
0.3629811092945947
 72
     1
 10
2.347874353889242
 20
0.3629811092945947
 11
2.347874353889242
 21
0.3657587273886524
 72
     1
 10
2.347874353889242
 20
0.3657587273886524
 11
2.347874353889242
 21
0.3685363454825397
 72
     1
 10
2.347874353889242
 20
0.3685363454825397
 11
2.348586194660104
 21
0.3713139635765974
 72
     1
 10
2.348586194660104
 20
0.3713139635765974
 11
2.349735358012228
 21
0.3740915816706551
 72
     1
 10
2.349735358012228
 20
0.3740915816706551
 11
2.3511797194212
 21
0.3764803332313709
 72
     1
 10
2.3511797194212
 20
0.3764803332313709
 11
2.353429590077357
 21
0.378258008811486
 72
     1
 10
2.353429590077357
 20
0.378258008811486
 11
2.356207208171245
 21
0.3803481447481549
 72
     1
 10
2.356207208171245
 20
0.3803481447481549
 11
2.358708187386159
 21
0.3821533245041455
 72
     1
 10
2.358708187386159
 20
0.3821533245041455
 11
2.360746259593074
 21
0.3835311386972085
 72
     1
 10
2.360746259593074
 20
0.3835311386972085
 11
2.362567953606546
 21
0.3843965447991882
 72
     1
 10
2.362567953606546
 20
0.3843965447991882
 11
2.364540062453247
 21
0.3852020540465451
 72
     1
 10
2.364540062453247
 20
0.3852020540465451
 11
2.367317680547134
 21
0.3860225445559995
 72
     1
 10
2.367317680547134
 20
0.3860225445559995
 11
2.371041809419384
 21
0.3859647625154712
 72
     1
 10
2.371041809419384
 20
0.3859647625154712
 11
2.373644053628343
 21
0.3851557727118125
 72
     1
 10
2.373644053628343
 20
0.3851557727118125
 11
2.375650534829137
 21
0.3838132449996015
 72
     1
 10
2.375650534829137
 20
0.3838132449996015
 11
2.377749804062805
 21
0.3819776024104162
 72
     1
 10
2.377749804062805
 20
0.3819776024104162
 11
2.379816961970139
 21
0.3796468178584296
 72
     1
 10
2.379816961970139
 20
0.3796468178584296
 11
2.381205771017082
 21
0.3784524420782422
 72
     1
 10
2.381205771017082
 20
0.3784524420782422
 11
2.382248692300752
 21
0.380049012932091
 72
     1
 10
2.382248692300752
 20
0.380049012932091
 11
2.383757731757302
 21
0.3823591474088066
 72
     1
 10
2.383757731757302
 20
0.3823591474088066
 11
2.385542235943237
 21
0.3850909809773389
 72
     1
 10
2.385542235943237
 20
0.3850909809773389
 11
2.386582283838979
 21
0.3866831530647805
 72
     1
 10
2.386582283838979
 20
0.3866831530647805
 11
2.387955382985555
 21
0.3887851813877892
 72
     1
 10
2.387955382985555
 20
0.3887851813877892
 11
2.386761007205027
 21
0.39075729023449
 72
     1
 10
2.386761007205027
 20
0.39075729023449
 11
2.384708963404055
 21
0.3932298076646252
 72
     1
 10
2.384708963404055
 20
0.3932298076646252
 11
2.38166327412026
 21
0.3956385659741959
 72
     1
 10
2.38166327412026
 20
0.3956385659741959
 11
2.379947253551311
 21
0.3970016751998178
 72
     1
 10
2.379947253551311
 20
0.3970016751998178
 11
2.377622643675838
 21
0.3982846352691358
 72
     1
 10
2.377622643675838
 20
0.3982846352691358
 11
2.375650534829137
 21
0.3990901445163222
 72
     1
 10
2.375650534829137
 20
0.3990901445163222
 11
2.37287291673525
 21
0.3990901445163222
 72
     1
 10
2.37287291673525
 20
0.3990901445163222
 11
2.370095298641192
 21
0.3990901445163222
 72
     1
 10
2.370095298641192
 20
0.3990901445163222
 11
2.367317680547134
 21
0.3987012779831507
 72
     1
 10
2.367317680547134
 20
0.3987012779831507
 11
2.364540062453247
 21
0.3977013354693786
 72
     1
 10
2.364540062453247
 20
0.3977013354693786
 11
2.361956877625775
 21
0.3961180931558492
 72
     1
 10
2.361956877625775
 20
0.3961180931558492
 11
2.359679230788774
 21
0.394229312851849
 72
     1
 10
2.359679230788774
 20
0.394229312851849
 11
2.357596017218188
 21
0.3921460992814336
 72
     1
 10
2.357596017218188
 20
0.3921460992814336
 11
2.355512803647773
 21
0.3900628857110182
 72
     1
 10
2.355512803647773
 20
0.3900628857110182
 11
2.35378697604543
 21
0.3878950002004449
 72
     1
 10
2.35378697604543
 20
0.3878950002004449
 11
2.3521136744877
 21
0.3860075632937314
 72
     1
 10
2.3521136744877
 20
0.3860075632937314
 11
2.347874353889242
 21
0.3814779152569376
 72
     1
 10
2.347874353889242
 20
0.3814779152569376
 11
2.347874353889242
 21
0.3860075632937314
 72
     1
 10
2.347874353889242
 20
0.3860075632937314
 11
2.347874353889242
 21
0.3879796721404323
 72
     1
 10
2.347874353889242
 20
0.3879796721404323
 11
2.347874353889242
 21
0.39075729023449
 72
     1
 10
2.347874353889242
 20
0.39075729023449
 11
2.347874353889242
 21
0.3935349083285478
 72
     1
 10
2.347874353889242
 20
0.3935349083285478
 11
2.347874353889242
 21
0.396312526422435
 72
     1
 10
2.347874353889242
 20
0.396312526422435
 11
2.345096735795355
 21
0.396312526422435
 72
     1
 10
2.345096735795355
 20
0.396312526422435
 11
2.342319117701297
 21
0.396312526422435
 72
     1
 10
2.342319117701297
 20
0.396312526422435
 11
2.33954149960741
 21
0.396312526422435
 72
     1
 10
2.33954149960741
 20
0.396312526422435
 11
2.336763881513352
 21
0.396312526422435
 72
     1
 10
2.336763881513352
 20
0.396312526422435
 11
2.333986263419465
 21
0.396312526422435
 72
     1
 10
2.333986263419465
 20
0.396312526422435
 11
2.333986263419465
 21
0.3935349083285478
 72
     1
 10
2.333986263419465
 20
0.3935349083285478
 11
2.333986263419465
 21
0.39075729023449
 72
     1
 10
2.333986263419465
 20
0.39075729023449
 11
2.333986263419465
 21
0.3240944559788095
 72
     1
 10
2.333986263419465
 20
0.3240944559788095
 11
2.333986263419465
 21
0.3213168378847518
 72
     1
 10
2.333986263419465
 20
0.3213168378847518
 11
2.333986263419465
 21
0.3185392197908646
 97
        1
330
610
 75
     0
 76
     1
 98
        1
 10
-6.623918024059631
 20
-0.1308261527660757
  0
HATCH
  5
60A
330
5DA
100
AcDbEntity
  8
CONTINUOUS1
 62
     9
100
AcDbHatch
 10
0.0
 20
0.0
 30
0.0
210
0.0
220
0.0
230
1.0
  2
SOLID
 70
     1
 71
     1
 91
        2
 92
        1
 93
       13
 72
     2
 10
2.507627067133951
 20
0.5672078009861301
 40
0.0215625675244637
 50
0.0002565813902296
 51
90.00070498518821
 73
     1
 72
     2
 10
2.507627067134452
 20
0.6103329360318659
 40
0.0215625675245372
 50
269.9992950134807
 51
359.9995092535441
 73
     1
 72
     1
 10
2.529189634658198
 20
0.6103327513454251
 11
2.529189634658198
 21
0.6423016562928301
 72
     2
 10
2.50762667305249
 20
0.6423015303381832
 40
0.0215629616060761
 50
0.0003346789653151
 51
89.99920945081219
 73
     1
 72
     1
 10
2.507626970571468
 20
0.6638644919422068
 11
2.376002128332206
 21
0.6638644919422068
 72
     1
 10
2.376002128332206
 20
0.6638644919422068
 11
2.376002128332206
 21
0.5352391641624768
 72
     1
 10
2.376002128332206
 20
0.5352391641624768
 11
2.397564961169027
 21
0.5352391641624768
 72
     1
 10
2.397564961169027
 20
0.5352391641624768
 11
2.397564961169027
 21
0.577989312090836
 72
     1
 10
2.397564961169027
 20
0.577989312090836
 11
2.496845563528129
 21
0.577989312090836
 72
     2
 10
2.496845471653383
 20
0.5672081694230766
 40
0.0107811426681508
 50
270.0004882631974
 51
360.0004882673548
 73
     0
 72
     1
 10
2.507626614321143
 20
0.5672080775475484
 11
2.507626970571468
 21
0.5352391641624768
 72
     1
 10
2.507626970571468
 20
0.5352391641624768
 11
2.529189634658198
 21
0.5352391641624768
 72
     1
 10
2.529189634658198
 20
0.5352391641624768
 11
2.529189634658198
 21
0.5672078975474056
 97
        1
330
60C
 92
       16
 93
        6
 72
     2
 10
2.496845471653383
 20
0.6315205201877572
 40
0.0107811426681508
 50
270.0004882631974
 51
360.0004882673548
 73
     0
 72
     1
 10
2.507626614321143
 20
0.6315204283122289
 11
2.507626970571468
 21
0.6103328394705163
 72
     2
 10
2.496845649778499
 20
0.6103329257201973
 40
0.0107813207933138
 50
0.0004583615308307
 51
90.00045836519477
 73
     0
 72
     1
 10
2.496845563528129
 20
0.5995516049272287
 11
2.397564961169027
 21
0.5995518730522922
 72
     1
 10
2.397564961169027
 20
0.5995518730522922
 11
2.397564961169027
 21
0.6423016628555165
 72
     1
 10
2.397564961169027
 20
0.6423016628555165
 11
2.496845563528129
 21
0.6423016628555165
 97
        1
330
612
 75
     0
 76
     1
 98
        1
 10
-6.623918024059631
 20
-0.1308261527660757
  0
LWPOLYLINE
  5
60B
102
{ACAD_REACTORS
330
615
102
}
330
5DA
100
AcDbEntity
  8
CONTINUOUS1
  6
CONTINUOUS
 62
     9
100
AcDbPolyline
 90
       13
 70
     0
 43
0.0
 10
2.682377122234047
 20
0.6638644919422068
 10
2.545877089309929
 20
0.6638644919422068
 10
2.545877089309929
 20
0.5352391641624768
 10
2.682377122234047
 20
0.5352391641624768
 10
2.682377122234047
 20
0.5568015451239608
 10
2.567439378396361
 20
0.5568015451239608
 10
2.567439378396361
 20
0.5887705485089332
 10
2.682377122234047
 20
0.5887705485089332
 10
2.682377122234047
 20
0.6103328394705163
 10
2.567439378396361
 20
0.6103328394705163
 10
2.567439378396361
 20
0.6423016628555165
 10
2.682377122234047
 20
0.6423016628555165
 10
2.682377122234047
 20
0.6638644919422068
  0
LWPOLYLINE
  5
60C
102
{ACAD_REACTORS
330
60A
102
}
330
5DA
100
AcDbEntity
  8
CONTINUOUS1
  6
CONTINUOUS
 62
     9
100
AcDbPolyline
 90
       14
 70
     0
 43
0.0
 10
2.529189634658198
 20
0.5672078975474056
 42
0.4142158545932141
 10
2.507626801821377
 20
0.588770368508961
 42
0.4142146575582358
 10
2.529189634658198
 20
0.6103327513454251
 10
2.529189634658198
 20
0.6423016562928301
 42
0.4142078102735817
 10
2.507626970571468
 20
0.6638644919422068
 10
2.376002128332206
 20
0.6638644919422068
 10
2.376002128332206
 20
0.5352391641624768
 10
2.397564961169027
 20
0.5352391641624768
 10
2.397564961169027
 20
0.577989312090836
 10
2.496845563528129
 20
0.577989312090836
 42
-0.4142135623943674
 10
2.507626614321143
 20
0.5672080775475484
 10
2.507626970571468
 20
0.5352391641624768
 10
2.529189634658198
 20
0.5352391641624768
 10
2.529189634658198
 20
0.5672078975474056
  0
LWPOLYLINE
  5
60D
102
{ACAD_REACTORS
330
606
102
}
330
5DA
100
AcDbEntity
  8
CONTINUOUS1
 62
     9
100
AcDbPolyline
 90
       18
 70
     1
 43
0.0
 10
2.597086510057327
 20
0.3739249696649272
 42
-0.0075148293555971
 10
2.597747313561828
 20
0.3758094905988973
 42
-0.004657993094582
 10
2.598518240370683
 20
0.3774326474991771
 42
-0.0194573042781228
 10
2.599614421495093
 20
0.3793376189554469
 42
-0.025588215895386
 10
2.601260943195345
 20
0.3815052047880845
 42
-0.0513535452749696
 10
2.60438438651855
 20
0.3844411686669678
 42
-0.0711488595792178
 10
2.608687792130783
 20
0.387030374336121
 42
-0.0589617480196389
 10
2.612759828426224
 20
0.388163142544784
 42
-0.055567443413236
 10
2.617481779009981
 20
0.3885472203085105
 42
-0.0505831829207604
 10
2.622438601289932
 20
0.3881580670007456
 42
-0.0805511158347094
 10
2.628138968138305
 20
0.386212311056966
 42
-0.0997279791482863
 10
2.632639186255605
 20
0.3821694970928324
 42
-0.05798586112659
 10
2.634725691735443
 20
0.3782279079159712
 42
-0.0542300556945522
 10
2.63602974439377
 20
0.3736673778522577
 42
-0.0393615860447316
 10
2.636657158546572
 20
0.3672377124287327
 10
2.595832764305416
 20
0.3672377124287327
 42
-0.0115879268951182
 10
2.596116860354502
 20
0.3695945556602855
 42
-0.0015814549261624
 10
2.596518317958985
 20
0.3718162665023788
 42
-0.0028557092809637
  0
LWPOLYLINE
  5
60E
102
{ACAD_REACTORS
330
606
102
}
330
5DA
100
AcDbEntity
  8
CONTINUOUS1
 62
     9
100
AcDbPolyline
 90
       47
 70
     1
 43
0.0
 10
2.602153476867872
 20
0.3371934049870338
 42
-0.0441414060654578
 10
2.59961369979263
 20
0.3406137919386656
 42
-0.0277319653937625
 10
2.5984653013729
 20
0.342908764392917
 42
-0.0164279047561354
 10
2.597515647073553
 20
0.3453802682993233
 42
-0.0066863653619568
 10
2.596775244033299
 20
0.3480745345536893
 42
-0.0233064481414024
 10
2.596254684297182
 20
0.3511569156956971
 42
-0.0386937426355895
 10
2.595830514291865
 20
0.3572253591981966
 10
2.649224587943283
 20
0.3572253591981966
 10
2.649224587943283
 20
0.367418047889942
 42
0.1310126142130034
 10
2.644988491698345
 20
0.384827874269718
 42
0.1175696112009137
 10
2.636356463341005
 20
0.3945709905457311
 42
0.1103270754359441
 10
2.625006928065293
 20
0.3987237922934814
 42
0.0651926395407652
 10
2.617493856912776
 20
0.3992029596881825
 42
0.0935138111535395
 10
2.606403540178096
 20
0.3974214224988377
 42
0.0771718076448178
 10
2.599285664799797
 20
0.3939838910158646
 42
0.0650775313207389
 10
2.593789051535882
 20
0.3895585675142574
 42
0.0516650400356126
 10
2.589115136618747
 20
0.3836759482660459
 42
0.0469242136237456
 10
2.586513590303841
 20
0.3788161200391191
 42
0.051223632580995
 10
2.584986595266205
 20
0.3746909211984648
 42
0.037832980863087
 10
2.583586471275143
 20
0.3691379050324035
 42
0.0380040356892352
 10
2.582795082079005
 20
0.3632512380642088
 42
0.0396963751324013
 10
2.582795082079005
 20
0.3535837675287898
 42
0.0477329049617882
 10
2.584331480475075
 20
0.3438434486300826
 42
0.0632736306522388
 10
2.586214656901265
 20
0.3384198641380185
 42
0.0887240198666166
 10
2.591374808234863
 20
0.3301577047572555
 42
0.0593249496237894
 10
2.596539162424083
 20
0.3253225760990977
 42
0.0586814778487906
 10
2.602842129596783
 20
0.321706383342701
 42
0.039275593781097
 10
2.608147746428333
 20
0.3198508322162757
 42
0.0294048595279412
 10
2.613237107241648
 20
0.3187611372579231
 42
0.0245538255625254
 10
2.618668576245656
 20
0.3182910719351076
 42
0.0484050884053723
 10
2.627556087272385
 20
0.318538586832347
 42
0.0313804255658969
 10
2.63448515255229
 20
0.3199276859149341
 42
0.0210229524573495
 10
2.639813099706859
 20
0.3215361459892283
 42
0.0098439804496088
 10
2.647864624571159
 20
0.3247109995190845
 10
2.647864624571159
 20
0.3403736793267176
 42
-0.1158714317854296
 10
2.647105648305942
 20
0.3389070845880729
 42
-0.0273968376187686
 10
2.644330659909687
 20
0.3368770470617056
 42
-0.0245127629396402
 10
2.641865387999789
 20
0.3353916503899091
 42
-0.0174018213192927
 10
2.639028460551546
 20
0.3339310062675627
 42
-0.0303578783463293
 10
2.633740567883169
 20
0.3316766063780965
 42
-0.0163288525489418
 10
2.629968887168647
 20
0.3305939790356552
 42
-0.0174430116847887
 10
2.627747020025172
 20
0.33012803560564
 42
-0.0109219578339942
 10
2.625442878801752
 20
0.329799142463799
 42
-0.0520451680420305
 10
2.617458535945591
 20
0.329799142463799
 42
-0.0139513426612014
 10
2.615659756253567
 20
0.3300115523971959
 42
-0.0578723374760443
 10
2.610218140962249
 20
0.3315192009325761
 42
-0.0508775714496942
 10
2.606195180433619
 20
0.3335955965084172
 42
-0.061605978241212
  0
LWPOLYLINE
  5
60F
102
{ACAD_REACTORS
330
608
102
}
330
5DA
100
AcDbEntity
  8
CONTINUOUS1
  6
CONTINUOUS
 62
     9
100
AcDbPolyline
 90
       61
 70
     0
 43
0.0
 10
2.456201459554765
 20
0.3185392197908646
 10
2.458979077648653
 20
0.3185392197908646
 10
2.46175669574271
 20
0.3185392197908646
 10
2.520086675716388
 20
0.3185392197908646
 10
2.522864293810275
 20
0.3185392197908646
 10
2.525641911904333
 20
0.3185392197908646
 10
2.525641911904333
 20
0.3213168378847518
 10
2.525641911904333
 20
0.3240944559788095
 10
2.525641911904333
 20
0.3268720740728673
 10
2.525641911904333
 20
0.3296496921667545
 10
2.525641911904333
 20
0.3324273102608122
 10
2.522864293810275
 20
0.3324273102608122
 10
2.520086675716388
 20
0.3324273102608122
 10
2.478422404306545
 20
0.3324273102608122
 10
2.475644786212658
 20
0.3324273102608122
 10
2.4728671681186
 20
0.3324273102608122
 10
2.4728671681186
 20
0.33520492835487
 10
2.4728671681186
 20
0.3379825464487572
 10
2.4728671681186
 20
0.3657587273886524
 10
2.4728671681186
 20
0.3685363454825397
 10
2.4728671681186
 20
0.3713139635765974
 10
2.475644786212658
 20
0.3713139635765974
 10
2.478422404306545
 20
0.3713139635765974
 10
2.51730905762233
 20
0.3713139635765974
 10
2.520086675716388
 20
0.3713139635765974
 10
2.522864293810275
 20
0.3713139635765974
 10
2.522864293810275
 20
0.3740915816706551
 10
2.522864293810275
 20
0.3768691997645424
 10
2.522864293810275
 20
0.3796468178584296
 10
2.522864293810275
 20
0.3824244359524873
 10
2.522864293810275
 20
0.3852020540465451
 10
2.520086675716388
 20
0.3852020540465451
 10
2.51730905762233
 20
0.3852020540465451
 10
2.478422404306545
 20
0.3852020540465451
 10
2.475644786212658
 20
0.3852020540465451
 10
2.4728671681186
 20
0.3852020540465451
 10
2.4728671681186
 20
0.3879796721404323
 10
2.4728671681186
 20
0.39075729023449
 10
2.4728671681186
 20
0.4185334711742148
 10
2.4728671681186
 20
0.4213110892682726
 10
2.4728671681186
 20
0.4240887073623303
 10
2.475644786212658
 20
0.4240887073623303
 10
2.478422404306545
 20
0.4240887073623303
 10
2.51730905762233
 20
0.4240887073623303
 10
2.520086675716388
 20
0.4240887073623303
 10
2.522864293810275
 20
0.4240887073623303
 10
2.522864293810275
 20
0.4268663254562175
 10
2.522864293810275
 20
0.4296439435502753
 10
2.522864293810275
 20
0.432421561644333
 10
2.522864293810275
 20
0.4351991797382202
 10
2.522864293810275
 20
0.4379767978321075
 10
2.520086675716388
 20
0.4379767978321075
 10
2.51730905762233
 20
0.4379767978321075
 10
2.46175669574271
 20
0.4379767978321075
 10
2.458979077648653
 20
0.4379767978321075
 10
2.456201459554765
 20
0.4379767978321075
 10
2.456201459554765
 20
0.4351991797382202
 10
2.456201459554765
 20
0.432421561644333
 10
2.456201459554765
 20
0.3240944559788095
 10
2.456201459554765
 20
0.3213168378847518
 10
2.456201459554765
 20
0.3185392197908646
  0
LWPOLYLINE
  5
610
102
{ACAD_REACTORS
330
609
102
}
330
5DA
100
AcDbEntity
  8
CONTINUOUS1
  6
CONTINUOUS
 62
     9
100
AcDbPolyline
 90
       64
 70
     0
 43
0.0
 10
2.333986263419465
 20
0.3185392197908646
 10
2.336763881513352
 20
0.3185392197908646
 10
2.33954149960741
 20
0.3185392197908646
 10
2.342319117701297
 20
0.3185392197908646
 10
2.345096735795355
 20
0.3185392197908646
 10
2.347874353889242
 20
0.3185392197908646
 10
2.347874353889242
 20
0.3213168378847518
 10
2.347874353889242
 20
0.3240944559788095
 10
2.347874353889242
 20
0.3629811092945947
 10
2.347874353889242
 20
0.3657587273886524
 10
2.347874353889242
 20
0.3685363454825397
 10
2.348586194660104
 20
0.3713139635765974
 10
2.349735358012228
 20
0.3740915816706551
 10
2.3511797194212
 20
0.3764803332313709
 10
2.353429590077357
 20
0.378258008811486
 10
2.356207208171245
 20
0.3803481447481549
 10
2.358708187386159
 20
0.3821533245041455
 10
2.360746259593074
 20
0.3835311386972085
 10
2.362567953606546
 20
0.3843965447991882
 10
2.364540062453247
 20
0.3852020540465451
 10
2.367317680547134
 20
0.3860225445559995
 10
2.371041809419384
 20
0.3859647625154712
 10
2.373644053628343
 20
0.3851557727118125
 10
2.375650534829137
 20
0.3838132449996015
 10
2.377749804062805
 20
0.3819776024104162
 10
2.379816961970139
 20
0.3796468178584296
 10
2.381205771017082
 20
0.3784524420782422
 10
2.382248692300752
 20
0.380049012932091
 10
2.383757731757302
 20
0.3823591474088066
 10
2.385542235943237
 20
0.3850909809773389
 10
2.386582283838979
 20
0.3866831530647805
 10
2.387955382985555
 20
0.3887851813877892
 10
2.386761007205027
 20
0.39075729023449
 10
2.384708963404055
 20
0.3932298076646252
 10
2.38166327412026
 20
0.3956385659741959
 10
2.379947253551311
 20
0.3970016751998178
 10
2.377622643675838
 20
0.3982846352691358
 10
2.375650534829137
 20
0.3990901445163222
 10
2.37287291673525
 20
0.3990901445163222
 10
2.370095298641192
 20
0.3990901445163222
 10
2.367317680547134
 20
0.3987012779831507
 10
2.364540062453247
 20
0.3977013354693786
 10
2.361956877625775
 20
0.3961180931558492
 10
2.359679230788774
 20
0.394229312851849
 10
2.357596017218188
 20
0.3921460992814336
 10
2.355512803647773
 20
0.3900628857110182
 10
2.35378697604543
 20
0.3878950002004449
 10
2.3521136744877
 20
0.3860075632937314
 10
2.347874353889242
 20
0.3814779152569376
 10
2.347874353889242
 20
0.3860075632937314
 10
2.347874353889242
 20
0.3879796721404323
 10
2.347874353889242
 20
0.39075729023449
 10
2.347874353889242
 20
0.3935349083285478
 10
2.347874353889242
 20
0.396312526422435
 10
2.345096735795355
 20
0.396312526422435
 10
2.342319117701297
 20
0.396312526422435
 10
2.33954149960741
 20
0.396312526422435
 10
2.336763881513352
 20
0.396312526422435
 10
2.333986263419465
 20
0.396312526422435
 10
2.333986263419465
 20
0.3935349083285478
 10
2.333986263419465
 20
0.39075729023449
 10
2.333986263419465
 20
0.3240944559788095
 10
2.333986263419465
 20
0.3213168378847518
 10
2.333986263419465
 20
0.3185392197908646
  0
LWPOLYLINE
  5
611
102
{ACAD_REACTORS
330
607
102
}
330
5DA
100
AcDbEntity
  8
CONTINUOUS1
  6
CONTINUOUS
 62
     9
100
AcDbPolyline
 90
       21
 70
     0
 43
0.0
 10
2.545085238562226
 20
0.3185392197908646
 10
2.547862856656283
 20
0.3185392197908646
 10
2.550640474750171
 20
0.3185392197908646
 10
2.553418092844228
 20
0.3185392197908646
 10
2.556195710938116
 20
0.3185392197908646
 10
2.558973329032173
 20
0.3185392197908646
 10
2.558973329032173
 20
0.3213168378847518
 10
2.558973329032173
 20
0.3240944559788095
 10
2.558973329032173
 20
0.432421561644333
 10
2.558973329032173
 20
0.4351991797382202
 10
2.558973329032173
 20
0.4379767978321075
 10
2.556195710938116
 20
0.4379767978321075
 10
2.553418092844228
 20
0.4379767978321075
 10
2.550640474750171
 20
0.4379767978321075
 10
2.547862856656283
 20
0.4379767978321075
 10
2.545085238562226
 20
0.4379767978321075
 10
2.545085238562226
 20
0.4351991797382202
 10
2.545085238562226
 20
0.432421561644333
 10
2.545085238562226
 20
0.3240944559788095
 10
2.545085238562226
 20
0.3213168378847518
 10
2.545085238562226
 20
0.3185392197908646
  0
LWPOLYLINE
  5
612
102
{ACAD_REACTORS
330
60A
102
}
330
5DA
100
AcDbEntity
  8
CONTINUOUS1
  6
CONTINUOUS
 62
     9
100
AcDbPolyline
 90
        7
 70
     1
 43
0.0
 10
2.496845563528129
 20
0.6423016628555165
 42
-0.4142135623943683
 10
2.507626614321143
 20
0.6315204283122289
 10
2.507626970571468
 20
0.6103328394705163
 42
-0.4142135623918344
 10
2.496845563528129
 20
0.5995516049272287
 10
2.397564961169027
 20
0.5995518730522922
 10
2.397564961169027
 20
0.6423016628555165
 10
2.496845563528129
 20
0.6423016628555165
  0
LWPOLYLINE
  5
613
102
{ACAD_REACTORS
330
604
102
}
330
5DA
100
AcDbEntity
  8
CONTINUOUS1
  6
CONTINUOUS
 62
     9
100
AcDbPolyline
 90
       80
 70
     0
 43
0.0
 10
2.768100195328234
 20
0.3193447290382215
 10
2.770072304174934
 20
0.3185392197908646
 10
2.776853223288274
 20
0.3177266059119579
 10
2.783960394644882
 20
0.3185392197908646
 10
2.78673801273894
 20
0.3190948244196652
 10
2.788710121585641
 20
0.3197586133924238
 10
2.790321140080184
 20
0.3205113286375654
 10
2.792293248926885
 20
0.3213168378847518
 10
2.795070867020772
 20
0.3223769226657969
 10
2.79784848511483
 20
0.323705589445638
 10
2.79784848511483
 20
0.3240944559788095
 10
2.79784848511483
 20
0.3268720740728673
 10
2.79784848511483
 20
0.3296496921667545
 10
2.79784848511483
 20
0.3324273102608122
 10
2.79784848511483
 20
0.3348160618216985
 10
2.795070867020772
 20
0.3340302206436268
 10
2.792365821896428
 20
0.3330627471016219
 10
2.789656082622375
 20
0.3319722328952826
 10
2.787543521986126
 20
0.3310528956835701
 10
2.785932503491583
 20
0.3304552014141114
 10
2.783960394644882
 20
0.3296496921667545
 10
2.781182776550995
 20
0.3294142968159695
 10
2.778405158456937
 20
0.3296496921667545
 10
2.776433049610236
 20
0.3304552014141114
 10
2.774670597445183
 20
0.3314126783258194
 10
2.772849922268992
 20
0.3324273102608122
 10
2.771309634063275
 20
0.3337080859405437
 10
2.770072304174934
 20
0.33520492835487
 10
2.769017502196309
 20
0.3370752134098898
 10
2.768100195328234
 20
0.3387880556961141
 10
2.767294686081047
 20
0.3407601645426444
 10
2.767294686081047
 20
0.3435377826367021
 10
2.767294686081047
 20
0.3796468178584296
 10
2.767294686081047
 20
0.3824244359524873
 10
2.767294686081047
 20
0.3852020540465451
 10
2.770072304174934
 20
0.3852020540465451
 10
2.772849922268992
 20
0.3852020540465451
 10
2.78673801273894
 20
0.3852020540465451
 10
2.789515630832827
 20
0.3852020540465451
 10
2.792293248926885
 20
0.3852020540465451
 10
2.792293248926885
 20
0.3879796721404323
 10
2.792293248926885
 20
0.39075729023449
 10
2.792293248926885
 20
0.3935349083285478
 10
2.792293248926885
 20
0.396312526422435
 10
2.789515630832827
 20
0.396312526422435
 10
2.78673801273894
 20
0.396312526422435
 10
2.772849922268992
 20
0.396312526422435
 10
2.770072304174934
 20
0.396312526422435
 10
2.767294686081047
 20
0.396312526422435
 10
2.767294686081047
 20
0.3990901445163222
 10
2.767294686081047
 20
0.40186776261038
 10
2.767294686081047
 20
0.4046453807044377
 10
2.767294686081047
 20
0.4074229987983249
 10
2.767294686081047
 20
0.4101951770153965
 10
2.765072591605903
 20
0.4082562842266957
 10
2.762850497130589
 20
0.4063119515608383
 10
2.749517930279555
 20
0.3946459555660344
 10
2.747295835804241
 20
0.392701622900177
 10
2.745037428605176
 20
0.390774564389972
 10
2.742784501548531
 20
0.3888087685731994
 10
2.740784200988546
 20
0.3870634024897304
 10
2.73865097726642
 20
0.3852020540465451
 10
2.74229612323521
 20
0.3852020540465451
 10
2.745073741329097
 20
0.3852020540465451
 10
2.747851359423155
 20
0.3852020540465451
 10
2.750628977517042
 20
0.3852020540465451
 10
2.7534065956111
 20
0.3852020540465451
 10
2.7534065956111
 20
0.3824244359524873
 10
2.7534065956111
 20
0.3796468178584296
 10
2.7534065956111
 20
0.3379825464487572
 10
2.7534065956111
 20
0.33520492835487
 10
2.753795462144271
 20
0.3324273102608122
 10
2.754795404658043
 20
0.3296496921667545
 10
2.756573080238158
 20
0.3272609406060388
 10
2.758810686828073
 20
0.3252801639712293
 10
2.760933940645745
 20
0.323705589445638
 10
2.762735804659516
 20
0.322316540818179
 10
2.764517067986989
 20
0.3213168378847518
 10
2.766384493876135
 20
0.3202550358792001
 10
2.768100195328234
 20
0.3193447290382215
  0
LWPOLYLINE
  5
614
102
{ACAD_REACTORS
330
605
102
}
330
5DA
100
AcDbEntity
  8
CONTINUOUS1
  6
CONTINUOUS
 62
     9
100
AcDbPolyline
 90
        4
 70
     1
 43
0.0
 10
2.728340921353581
 20
0.3820863083685713
 10
2.728340921353581
 20
0.3931967807444612
 42
1.819450421535996
 10
2.728340921353581
 20
0.3237563283948935
 10
2.728340921353581
 20
0.3348668007707834
 42
-2.028165022884401
  0
HATCH
  5
615
330
5DA
100
AcDbEntity
  8
CONTINUOUS1
 62
     9
100
AcDbHatch
 10
0.0
 20
0.0
 30
0.0
210
0.0
220
0.0
230
1.0
  2
SOLID
 70
     1
 71
     1
 91
        1
 92
        1
 93
       12
 72
     1
 10
2.682377122234047
 20
0.6638644919422068
 11
2.545877089309929
 21
0.6638644919422068
 72
     1
 10
2.545877089309929
 20
0.6638644919422068
 11
2.545877089309929
 21
0.5352391641624768
 72
     1
 10
2.545877089309929
 20
0.5352391641624768
 11
2.682377122234047
 21
0.5352391641624768
 72
     1
 10
2.682377122234047
 20
0.5352391641624768
 11
2.682377122234047
 21
0.5568015451239608
 72
     1
 10
2.682377122234047
 20
0.5568015451239608
 11
2.567439378396361
 21
0.5568015451239608
 72
     1
 10
2.567439378396361
 20
0.5568015451239608
 11
2.567439378396361
 21
0.5887705485089332
 72
     1
 10
2.567439378396361
 20
0.5887705485089332
 11
2.682377122234047
 21
0.5887705485089332
 72
     1
 10
2.682377122234047
 20
0.5887705485089332
 11
2.682377122234047
 21
0.6103328394705163
 72
     1
 10
2.682377122234047
 20
0.6103328394705163
 11
2.567439378396361
 21
0.6103328394705163
 72
     1
 10
2.567439378396361
 20
0.6103328394705163
 11
2.567439378396361
 21
0.6423016628555165
 72
     1
 10
2.567439378396361
 20
0.6423016628555165
 11
2.682377122234047
 21
0.6423016628555165
 72
     1
 10
2.682377122234047
 20
0.6423016628555165
 11
2.682377122234047
 21
0.6638644919422068
 97
        1
330
60B
 75
     0
 76
     1
 98
        1
 10
-6.623918024059631
 20
-0.1308261527660757
  0
HATCH
  5
616
330
5DA
100
AcDbEntity
  8
CONTINUOUS1
 62
     9
100
AcDbHatch
 10
0.0
 20
0.0
 30
0.0
210
0.0
220
0.0
230
1.0
  2
SOLID
 70
     1
 71
     1
 91
        1
 92
        1
 93
        4
 72
     1
 10
2.981203152099315
 20
0.3820863083685713
 11
2.981203152099315
 21
0.3931967807444612
 72
     2
 10
2.959158691880601
 20
0.3584765545696773
 40
0.041127269930821
 50
57.58784372121546
 51
302.4121562787845
 73
     1
 72
     1
 10
2.981203152099315
 20
0.3237563283948935
 11
2.981203152099315
 21
0.3348668007707834
 72
     2
 10
2.963081385264331
 20
0.3584765545696773
 40
0.0297627100188458
 50
52.49180531393238
 51
307.5081946860675
 73
     0
 97
        1
330
618
 75
     0
 76
     1
 98
        1
 10
-6.623918024059631
 20
-0.1308261527660757
  0
HATCH
  5
617
330
5DA
100
AcDbEntity
  8
CONTINUOUS1
 62
     9
100
AcDbHatch
 10
0.0
 20
0.0
 30
0.0
210
0.0
220
0.0
230
1.0
  2
SOLID
 70
     1
 71
     1
 91
        2
 92
        1
 93
       20
 72
     1
 10
2.883954646028403
 20
0.3185392197908646
 11
2.88673226412229
 21
0.3185392197908646
 72
     1
 10
2.88673226412229
 20
0.3185392197908646
 11
2.889509882216348
 21
0.3185392197908646
 72
     1
 10
2.889509882216348
 20
0.3185392197908646
 11
2.892287500310406
 21
0.3185392197908646
 72
     1
 10
2.892287500310406
 20
0.3185392197908646
 11
2.895065118404293
 21
0.3185392197908646
 72
     1
 10
2.895065118404293
 20
0.3185392197908646
 11
2.897842736498351
 21
0.3185392197908646
 72
     1
 10
2.897842736498351
 20
0.3185392197908646
 11
2.897842736498351
 21
0.3213168378847518
 72
     1
 10
2.897842736498351
 20
0.3213168378847518
 11
2.897842736498351
 21
0.3240944559788095
 72
     1
 10
2.897842736498351
 20
0.3240944559788095
 11
2.897842736498351
 21
0.39075729023449
 72
     1
 10
2.897842736498351
 20
0.39075729023449
 11
2.897842736498351
 21
0.3935349083285478
 72
     1
 10
2.897842736498351
 20
0.3935349083285478
 11
2.897843375494833
 21
0.396312526422435
 72
     1
 10
2.897843375494833
 20
0.396312526422435
 11
2.895065118404293
 21
0.396312526422435
 72
     1
 10
2.895065118404293
 20
0.396312526422435
 11
2.892287500310406
 21
0.396312526422435
 72
     1
 10
2.892287500310406
 20
0.396312526422435
 11
2.889509882216348
 21
0.396312526422435
 72
     1
 10
2.889509882216348
 20
0.396312526422435
 11
2.88673226412229
 21
0.396312526422435
 72
     1
 10
2.88673226412229
 20
0.396312526422435
 11
2.883954646028403
 21
0.396312526422435
 72
     1
 10
2.883954646028403
 20
0.396312526422435
 11
2.883954646028403
 21
0.3935349083285478
 72
     1
 10
2.883954646028403
 20
0.3935349083285478
 11
2.883954646028403
 21
0.39075729023449
 72
     1
 10
2.883954646028403
 20
0.39075729023449
 11
2.883954646028403
 21
0.3240944559788095
 72
     1
 10
2.883954646028403
 20
0.3240944559788095
 11
2.883954646028403
 21
0.3213168378847518
 72
     1
 10
2.883954646028403
 20
0.3213168378847518
 11
2.883954646028403
 21
0.3185392197908646
 97
        1
330
619
 92
        1
 93
        1
 72
     2
 10
2.890898691263291
 20
0.4213110892682726
 40
0.0083328542819542
 50
0.0
 51
360.0
 73
     1
 97
        1
330
61A
 75
     0
 76
     1
 98
        1
 10
-6.623918024059631
 20
-0.1308261527660757
  0
LWPOLYLINE
  5
618
102
{ACAD_REACTORS
330
616
102
}
330
5DA
100
AcDbEntity
  8
CONTINUOUS1
  6
CONTINUOUS
 62
     9
100
AcDbPolyline
 90
        4
 70
     1
 43
0.0
 10
2.981203152099315
 20
0.3820863083685713
 10
2.981203152099315
 20
0.3931967807444612
 42
1.819450421535996
 10
2.981203152099315
 20
0.3237563283948935
 10
2.981203152099315
 20
0.3348668007707834
 42
-2.028165022884401
  0
LWPOLYLINE
  5
619
102
{ACAD_REACTORS
330
617
102
}
330
5DA
100
AcDbEntity
  8
CONTINUOUS1
  6
CONTINUOUS
 62
     9
100
AcDbPolyline
 90
       21
 70
     0
 43
0.0
 10
2.883954646028403
 20
0.3185392197908646
 10
2.88673226412229
 20
0.3185392197908646
 10
2.889509882216348
 20
0.3185392197908646
 10
2.892287500310406
 20
0.3185392197908646
 10
2.895065118404293
 20
0.3185392197908646
 10
2.897842736498351
 20
0.3185392197908646
 10
2.897842736498351
 20
0.3213168378847518
 10
2.897842736498351
 20
0.3240944559788095
 10
2.897842736498351
 20
0.39075729023449
 10
2.897842736498351
 20
0.3935349083285478
 10
2.897843375494833
 20
0.396312526422435
 10
2.895065118404293
 20
0.396312526422435
 10
2.892287500310406
 20
0.396312526422435
 10
2.889509882216348
 20
0.396312526422435
 10
2.88673226412229
 20
0.396312526422435
 10
2.883954646028403
 20
0.396312526422435
 10
2.883954646028403
 20
0.3935349083285478
 10
2.883954646028403
 20
0.39075729023449
 10
2.883954646028403
 20
0.3240944559788095
 10
2.883954646028403
 20
0.3213168378847518
 10
2.883954646028403
 20
0.3185392197908646
  0
CIRCLE
  5
61A
102
{ACAD_REACTORS
330
617
102
}
330
5DA
100
AcDbEntity
  8
CONTINUOUS1
 62
     9
100
AcDbCircle
 10
2.890898691263291
 20
0.4213110892682726
 30
0.0
 40
0.0083328542819542
  0
LWPOLYLINE
  5
61B
102
{ACAD_REACTORS
330
5EA
102
}
330
5DA
100
AcDbEntity
  8
CONTINUOUS1
  6
CONTINUOUS
 62
     9
100
AcDbPolyline
 90
        7
 70
     0
 43
0.0
 10
2.846064035419235
 20
0.6423016628555165
 10
2.959782634710521
 20
0.6423016628555165
 42
-0.4142135623918432
 10
2.97056404175391
 20
0.6315204283122381
 10
2.97056404175391
 20
0.5675829596674955
 42
-0.4142111173935808
 10
2.959782634710521
 20
0.5568015451240994
 10
2.846064035419235
 20
0.5568015451240994
 10
2.846064035419235
 20
0.6423016628555165
  0
ENDBLK
  5
61D
330
5DA
100
AcDbEntity
  8
0
100
AcDbBlockEnd
  0
BLOCK
  5
6AB
330
6AA
100
AcDbEntity
  8
0
100
AcDbBlockBegin
  2
SCH_ISO
 70
     0
 10
0.0
 20
0.0
 30
0.0
  3
SCH_ISO
  1

  0
ENDBLK
  5
6AC
330
6AA
100
AcDbEntity
  8
0
100
AcDbBlockEnd
  0
BLOCK
  5
A64
330
A59
100
AcDbEntity
  8
0
100
AcDbBlockBegin
  2
*D4
 70
     1
 10
0.0
 20
0.0
 30
0.0
  3
*D4
  1

  0
LINE
  5
1045
330
A59
100
AcDbEntity
  8
DIM
100
AcDbLine
 10
2.692584355236434
 20
2.177849229718443
 30
0.0
 11
2.692584355236434
 21
1.262835008550389
 31
0.0
  0
LINE
  5
1046
330
A59
100
AcDbEntity
  8
DIM
100
AcDbLine
 10
8.992584355236502
 20
2.177849229718443
 30
0.0
 11
8.992584355236502
 21
1.262835008550389
 31
0.0
  0
LINE
  5
1047
330
A59
100
AcDbEntity
  8
DIM
100
AcDbLine
 10
2.762584355236433
 20
1.325335008550389
 30
0.0
 11
5.612108164760277
 21
1.325335008550389
 31
0.0
  0
LINE
  5
1048
330
A59
100
AcDbEntity
  8
DIM
100
AcDbLine
 10
8.922584355236502
 20
1.325335008550389
 30
0.0
 11
6.073060545712658
 21
1.325335008550389
 31
0.0
  0
INSERT
  5
1049
330
A59
100
AcDbEntity
  8
DIM
100
AcDbBlockReference
  2
SEARROW
 10
2.692584355236434
 20
1.325335008550389
 30
0.0
 41
0.07
 42
0.07
 43
0.07
 50
180.0
  0
INSERT
  5
104A
330
A59
100
AcDbEntity
  8
DIM
100
AcDbBlockReference
  2
SEARROW
 10
8.992584355236502
 20
1.325335008550389
 30
0.0
 41
0.07
 42
0.07
 43
0.07
  0
MTEXT
  5
104B
330
A59
100
AcDbEntity
  8
DIM
100
AcDbMText
 10
5.842584355236468
 20
1.325335008550389
 30
0.0
 40
0.1
 41
0.0
 71
     5
 72
     1
  1
\A1;6.30\P{\H0.8x; [160]
  7
ROMANS
1001
ACAD
1000
MTEXTBEGIN
1070
    73
1070
     1
1070
    44
1040
1.0
1070
    74
1070
     0
1000
MTEXTEND
  0
POINT
  5
104C
330
A59
100
AcDbEntity
  8
DEFPOINTS
 62
     0
100
AcDbPoint
 10
2.692584355236434
 20
2.240349229718443
 30
0.0
  0
POINT
  5
104D
330
A59
100
AcDbEntity
  8
DEFPOINTS
 62
     0
100
AcDbPoint
 10
8.992584355236502
 20
2.240349229718443
 30
0.0
  0
POINT
  5
104E
330
A59
100
AcDbEntity
  8
DEFPOINTS
 62
     0
100
AcDbPoint
 10
8.992584355236502
 20
1.325335008550389
 30
0.0
  0
ENDBLK
  5
A65
330
A59
100
AcDbEntity
  8
0
100
AcDbBlockEnd
  0
BLOCK
  5
A72
330
A67
100
AcDbEntity
  8
0
100
AcDbBlockBegin
  2
*D5
 70
     1
 10
0.0
 20
0.0
 30
0.0
  3
*D5
  1

  0
LINE
  5
104F
330
A67
100
AcDbEntity
  8
DIM
100
AcDbLine
 10
2.748209355236454
 20
2.122224229718444
 30
0.0
 11
1.69634751293597
 21
2.122224229718444
 31
0.0
  0
LINE
  5
1050
330
A67
100
AcDbEntity
  8
DIM
100
AcDbLine
 10
4.047584355236452
 20
9.571974229718442
 30
0.0
 11
1.696347512935972
 21
9.571974229718444
 31
0.0
  0
LINE
  5
1051
330
A67
100
AcDbEntity
  8
DIM
100
AcDbLine
 10
1.75884751293597
 20
2.192224229718444
 30
0.0
 11
1.758847512935971
 21
5.660432563051777
 31
0.0
  0
LINE
  5
1052
330
A67
100
AcDbEntity
  8
DIM
100
AcDbLine
 10
1.758847512935972
 20
9.501974229718443
 30
0.0
 11
1.758847512935971
 21
6.03376589638511
 31
0.0
  0
INSERT
  5
1053
330
A67
100
AcDbEntity
  8
DIM
100
AcDbBlockReference
  2
SEARROW
 10
1.75884751293597
 20
2.122224229718444
 30
0.0
 41
0.07
 42
0.07
 43
0.07
 50
270.0
  0
INSERT
  5
1054
330
A67
100
AcDbEntity
  8
DIM
100
AcDbBlockReference
  2
SEARROW
 10
1.758847512935972
 20
9.571974229718444
 30
0.0
 41
0.07
 42
0.07
 43
0.07
 50
90.0
  0
MTEXT
  5
1055
330
A67
100
AcDbEntity
  8
DIM
100
AcDbMText
 10
1.75884751293597
 20
5.847099229718444
 30
0.0
 40
0.1
 41
0.0
 71
     5
 72
     1
  1
\A1;7.45\P{\H0.8x; [189]
  7
ROMANS
1001
ACAD
1000
MTEXTBEGIN
1070
    73
1070
     1
1070
    44
1040
1.0
1070
    74
1070
     0
1000
MTEXTEND
  0
POINT
  5
1056
330
A67
100
AcDbEntity
  8
DEFPOINTS
 62
     0
100
AcDbPoint
 10
2.810709355236454
 20
2.122224229718444
 30
0.0
  0
POINT
  5
1057
330
A67
100
AcDbEntity
  8
DEFPOINTS
 62
     0
100
AcDbPoint
 10
4.110084355236452
 20
9.571974229718442
 30
0.0
  0
POINT
  5
1058
330
A67
100
AcDbEntity
  8
DEFPOINTS
 62
     0
100
AcDbPoint
 10
1.758847512935972
 20
9.571974229718444
 30
0.0
  0
ENDBLK
  5
A73
330
A67
100
AcDbEntity
  8
0
100
AcDbBlockEnd
  0
ENDSEC
  0
SECTION
  2
ENTITIES
  0
LWPOLYLINE
  5
5B2
330
1F
100
AcDbEntity
  8
VIEWPORT
100
AcDbPolyline
 90
        6
 70
     1
 43
0.0
 10
0.0
 20
0.0
 10
8.002499999999999
 20
0.0
 10
8.002499999999999
 20
0.912
 10
16.39999999999999
 20
0.912
 10
16.39999999999999
 20
10.0954
 10
0.0
 20
10.0954
  0
VIEWPORT
  5
5B3
330
1F
100
AcDbEntity
  8
VIEWPORT
100
AcDbViewport
 10
8.199999999999999
 20
5.047699999999999
 30
0.0
 40
16.39999999999999
 41
10.0954
 69
     0
1001
ACAD
1000
MVIEW
1002
{
1070
    16
1010
0.0
1020
0.0
1030
0.0
1010
0.0
1020
0.0
1030
1.0
1040
0.0
1040
10.0954
1040
8.199999999999999
1040
5.047699999999999
1040
50.0
1040
0.0
1040
0.0
1070
     0
1070
   100
1070
     1
1070
     0
1070
     0
1070
     0
1070
     0
1070
     0
1040
0.0
1040
0.0
1040
0.0
1040
0.0
1040
0.0
1040
0.0
1040
0.0
1070
     0
1002
{
1002
}
1002
}
  0
MTEXT
  5
873
330
1F
100
AcDbEntity
  8
TEXT1
100
AcDbMText
 10
15.6034702757385
 20
2.148829389573863
 30
0.0
 40
0.0799999956
 41
0.0
 71
     5
 72
     1
  1
CATALOG\PNUMBER
  7
ROMANS
1001
ACAD
1000
MTEXTBEGIN
1070
    73
1070
     1
1070
    44
1040
1.0
1070
    74
1070
     0
1000
MTEXTEND
  0
LWPOLYLINE
  5
874
330
1F
100
AcDbEntity
  8
CONTINUOUS1
100
AcDbPolyline
 90
        4
 70
     1
 43
0.0
 10
15.05694053772703
 20
2.346419718069589
 10
16.15000001374999
 20
2.346419718069589
 10
16.15000001374999
 20
1.95123906107814
 10
15.05694053772703
 20
1.95123906107814
  0
TEXT
  5
875
330
1F
100
AcDbEntity
  8
TEXT1
100
AcDbText
 10
15.29052482759678
 20
2.474358943953012
 30
0.0
 40
0.079999994633271
  1
MILLIMETERS
  7
ROMANS
 11
15.29052482759678
 21
2.514358941269647
 31
0.0
100
AcDbText
 73
     2
  0
TEXT
  5
876
330
1F
100
AcDbEntity
  8
TEXT1
100
AcDbText
 10
15.29052482759678
 20
2.614358950694381
 30
0.0
 40
0.0999999976915376
  1
INCHES
  7
ROMANS
 11
15.29052482759678
 21
2.66435894954015
 31
0.0
100
AcDbText
 73
     2
  0
LWPOLYLINE
  5
877
330
1F
100
AcDbEntity
  8
CONTINUOUS1
100
AcDbPolyline
 90
        4
 70
     1
 43
0.0
 10
15.05694053772703
 20
1.95123906107814
 10
16.15000001374999
 20
1.95123906107814
 10
16.15000001374999
 20
1.161999986250011
 10
15.05694053772703
 20
1.161999986250011
  0
MTEXT
  5
878
330
1F
100
AcDbEntity
  8
TEXT1
100
AcDbMText
 10
15.60347027573851
 20
1.556619523664076
 30
0.0
 40
0.0799999956
 41
0.0
 71
     5
 72
     1
  1
ATS48D17Y\PATS48D22Y\PATS48D32Y\PATS48D38Y\PATS48D47Y
  7
ROMANS
1001
ACAD
1000
MTEXTBEGIN
1070
    73
1070
     1
1070
    44
1040
1.0
1070
    74
1070
     0
1000
MTEXTEND
  0
TEXT
  5
879
330
1F
100
AcDbEntity
  8
TEXT1
100
AcDbText
 10
14.11931971680731
 20
2.561754742342561
 30
0.0
 40
0.079999994633271
  1
DUAL DIMENSIONS:
  7
ROMANS
 11
14.11931971680731
 21
2.601754739659196
 31
0.0
100
AcDbText
 73
     2
  0
INSERT
  5
87A
330
1F
100
AcDbEntity
  8
CONTINUOUS1
 62
   255
100
AcDbBlockReference
  2
SCH_ISO
 10
-950.3358633413304
 20
-109.1666897774134
 30
0.0
  0
CIRCLE
  5
87B
330
1F
100
AcDbEntity
  8
CONTINUOUS1
100
AcDbCircle
 10
6.157584355236465
 20
3.657849229718443
 30
0.0
 40
0.083671875
  0
CIRCLE
  5
87C
330
1F
100
AcDbEntity
  8
CONTINUOUS1
100
AcDbCircle
 10
6.157584355236465
 20
3.657849229718443
 30
0.0
 40
0.0441
  0
CIRCLE
  5
87D
330
1F
100
AcDbEntity
  8
CONTINUOUS1
100
AcDbCircle
 10
6.157584355236465
 20
3.657849229718443
 30
0.0
 40
0.0590625
  0
ARC
  5
87E
330
1F
100
AcDbEntity
  8
CONTINUOUS1
100
AcDbCircle
 10
2.99183435523652
 20
3.401911729718442
 30
0.0
 40
0.11615617125
100
AcDbArc
 50
97.79292999999704
 51
262.2070700000029
  0
ARC
  5
87F
330
1F
100
AcDbEntity
  8
CONTINUOUS1
100
AcDbCircle
 10
2.99183435523652
 20
3.401911729718442
 30
0.0
 40
0.11615617125
100
AcDbArc
 50
277.792929999997
 51
82.20707000000295
  0
CIRCLE
  5
880
330
1F
100
AcDbEntity
  8
CONTINUOUS1
100
AcDbCircle
 10
2.99183435523652
 20
3.401911729718442
 30
0.0
 40
0.1378125
  0
CIRCLE
  5
881
330
1F
100
AcDbEntity
  8
CONTINUOUS1
100
AcDbCircle
 10
2.99183435523652
 20
3.401911729718442
 30
0.0
 40
0.1299375
  0
CIRCLE
  5
882
330
1F
100
AcDbEntity
  8
CONTINUOUS1
100
AcDbCircle
 10
4.267584355236479
 20
2.397849229718442
 30
0.0
 40
0.083671875
  0
CIRCLE
  5
883
330
1F
100
AcDbEntity
  8
CONTINUOUS1
100
AcDbCircle
 10
4.267584355236479
 20
2.397849229718442
 30
0.0
 40
0.0441
  0
CIRCLE
  5
884
330
1F
100
AcDbEntity
  8
CONTINUOUS1
100
AcDbCircle
 10
4.267584355236479
 20
2.397849229718442
 30
0.0
 40
0.0590625
  0
ARC
  5
885
330
1F
100
AcDbEntity
  8
CONTINUOUS1
100
AcDbCircle
 10
4.110084355236509
 20
3.801567979718441
 30
0.0
 40
0.0590625
100
AcDbArc
 50
90.0
 51
180.0
  0
ARC
  5
886
330
1F
100
AcDbEntity
  8
CONTINUOUS1
100
AcDbCircle
 10
4.110084355236509
 20
3.801567979718441
 30
0.0
 40
0.118125
100
AcDbArc
 50
90.0
 51
180.0
  0
LWPOLYLINE
  5
887
330
1F
100
AcDbEntity
  8
CONTINUOUS1
100
AcDbPolyline
 90
       21
 70
     0
 43
0.0
 10
5.645709355236434
 20
2.232760092218441
 10
5.665800094611498
 20
2.229902175968444
 10
5.685453771486507
 20
2.227637444093442
 10
5.704973140236418
 20
2.225973732218442
 10
5.724528694611493
 20
2.22494730471844
 10
5.744146855236479
 20
2.224599229718442
 10
5.763767614611495
 20
2.224947383468443
 10
5.783325216486517
 20
2.225974047218443
 10
5.802844467111484
 20
2.227637877218441
 10
5.822494127736447
 20
2.229902215343443
 10
5.842584355236411
 20
2.232760092218441
 10
5.862675094611475
 20
2.229902175968444
 10
5.882328771486484
 20
2.227637444093442
 10
5.901848140236509
 20
2.225973732218442
 10
5.92140369461147
 20
2.22494730471844
 10
5.941021855236456
 20
2.224599229718442
 10
5.960642614611472
 20
2.224947383468443
 10
5.980200216486494
 20
2.225974047218443
 10
5.999719467111461
 20
2.227637877218441
 10
6.019369127736425
 20
2.229902215343443
 10
6.039459355236502
 20
2.232760092218441
  0
LINE
  5
888
330
1F
100
AcDbEntity
  8
CONTINUOUS1
100
AcDbLine
 10
5.61027185523649
 20
2.224599229718442
 30
0.0
 11
5.645709355236547
 21
2.260036729718443
 31
0.0
  0
LINE
  5
889
330
1F
100
AcDbEntity
  8
CONTINUOUS1
100
AcDbLine
 10
5.842584355236525
 20
2.232760092218441
 30
0.0
 11
5.842584355236525
 21
2.409375906593442
 31
0.0
  0
LINE
  5
88A
330
1F
100
AcDbEntity
  8
CONTINUOUS1
100
AcDbLine
 10
6.074896855236559
 20
2.224599229718442
 30
0.0
 11
6.039459355236502
 21
2.260036729718443
 31
0.0
  0
CIRCLE
  5
88B
330
1F
100
AcDbEntity
  8
CONTINUOUS1
100
AcDbCircle
 10
5.52758435523647
 20
3.657849229718443
 30
0.0
 40
0.083671875
  0
CIRCLE
  5
88C
330
1F
100
AcDbEntity
  8
CONTINUOUS1
100
AcDbCircle
 10
5.52758435523647
 20
3.657849229718443
 30
0.0
 40
0.0441
  0
CIRCLE
  5
88D
330
1F
100
AcDbEntity
  8
CONTINUOUS1
100
AcDbCircle
 10
5.52758435523647
 20
3.657849229718443
 30
0.0
 40
0.0590625
  0
LINE
  5
88E
330
1F
100
AcDbEntity
  8
CONTINUOUS1
100
AcDbLine
 10
3.375318544611516
 20
6.094114709093446
 30
0.0
 11
3.588000165861515
 21
6.094114709093446
 31
0.0
  0
LINE
  5
88F
330
1F
100
AcDbEntity
  8
CONTINUOUS1
100
AcDbLine
 10
3.392541799611493
 20
6.124156495343441
 30
0.0
 11
3.337940605236511
 21
6.124156495343441
 31
0.0
  0
LINE
  5
890
330
1F
100
AcDbEntity
  8
CONTINUOUS1
100
AcDbLine
 10
3.757284355236507
 20
6.351337487843444
 30
0.0
 11
3.778246817736501
 21
6.650764872218445
 31
0.0
  0
LINE
  5
891
330
1F
100
AcDbEntity
  8
CONTINUOUS1
100
AcDbLine
 10
3.913209355236531
 20
6.351337487843444
 30
0.0
 11
3.892246932111518
 21
6.650764872218445
 31
0.0
  0
LINE
  5
892
330
1F
100
AcDbEntity
  8
CONTINUOUS1
100
AcDbLine
 10
3.625378105236521
 20
6.124156495343441
 30
0.0
 11
3.570777462111507
 21
6.124156495343441
 31
0.0
  0
LINE
  5
893
330
1F
100
AcDbEntity
  8
CONTINUOUS1
100
AcDbLine
 10
3.892246932111518
 20
6.914161729718443
 30
0.0
 11
3.913209355236531
 21
6.935124192218445
 31
0.0
  0
LINE
  5
894
330
1F
100
AcDbEntity
  8
CONTINUOUS1
100
AcDbLine
 10
3.778246817736501
 20
6.914161729718443
 30
0.0
 11
3.757284355236507
 21
6.935124192218445
 31
0.0
  0
CIRCLE
  5
895
330
1F
100
AcDbEntity
  8
CONTINUOUS1
100
AcDbCircle
 10
7.417584355236456
 20
2.397849229718442
 30
0.0
 40
0.083671875
  0
CIRCLE
  5
896
330
1F
100
AcDbEntity
  8
CONTINUOUS1
100
AcDbCircle
 10
7.417584355236456
 20
2.397849229718442
 30
0.0
 40
0.0441
  0
CIRCLE
  5
897
330
1F
100
AcDbEntity
  8
CONTINUOUS1
100
AcDbCircle
 10
7.417584355236456
 20
2.397849229718442
 30
0.0
 40
0.0590625
  0
ARC
  5
898
330
1F
100
AcDbEntity
  8
CONTINUOUS1
100
AcDbCircle
 10
7.575084355236484
 20
3.801567979718441
 30
0.0
 40
0.0590625
100
AcDbArc
 50
0.0
 51
90.0
  0
ARC
  5
899
330
1F
100
AcDbEntity
  8
CONTINUOUS1
100
AcDbCircle
 10
7.575084355236484
 20
3.801567979718441
 30
0.0
 40
0.118125
100
AcDbArc
 50
0.0
 51
90.0
  0
LINE
  5
89A
330
1F
100
AcDbEntity
  8
CONTINUOUS1
100
AcDbLine
 10
8.018053105236461
 20
6.351337487843444
 30
0.0
 11
7.997090682111505
 21
6.650764872218445
 31
0.0
  0
LINE
  5
89B
330
1F
100
AcDbEntity
  8
CONTINUOUS1
100
AcDbLine
 10
7.997090682111505
 20
6.914161729718443
 30
0.0
 11
8.018053105236461
 21
6.935124192218445
 31
0.0
  0
LINE
  5
89C
330
1F
100
AcDbEntity
  8
CONTINUOUS1
100
AcDbLine
 10
7.840865605236515
 20
6.351337487843444
 30
0.0
 11
7.861828067736453
 21
6.650764872218445
 31
0.0
  0
LINE
  5
89D
330
1F
100
AcDbEntity
  8
CONTINUOUS1
100
AcDbLine
 10
7.861828067736453
 20
6.914161729718443
 30
0.0
 11
7.840865605236515
 21
6.935124192218445
 31
0.0
  0
LINE
  5
89E
330
1F
100
AcDbEntity
  8
CONTINUOUS1
100
AcDbLine
 10
7.892840605236486
 20
9.028599229718444
 30
0.0
 11
5.413790605236457
 21
9.028599229718444
 31
0.0
  0
LINE
  5
89F
330
1F
100
AcDbEntity
  8
CONTINUOUS1
100
AcDbLine
 10
8.78859989935502
 20
8.721474229718438
 30
0.0
 11
2.895585090326576
 21
8.721474229718438
 31
0.0
  0
LWPOLYLINE
  5
8A0
330
1F
100
AcDbEntity
  8
CONTINUOUS1
100
AcDbPolyline
 90
        3
 70
     0
 43
0.0
 10
6.265172014611451
 20
9.193974229718442
 10
6.213500635236485
 20
9.110068742843445
 10
6.182708558361426
 20
9.060099229718446
  0
LWPOLYLINE
  5
8A1
330
1F
100
AcDbEntity
  8
CONTINUOUS1
100
AcDbPolyline
 90
        3
 70
     0
 43
0.0
 10
6.149235319611491
 20
9.060099229718446
 10
6.180002708361442
 20
9.111484667843441
 10
6.229361830236442
 20
9.193974229718442
  0
LINE
  5
8A2
330
1F
100
AcDbEntity
  8
CONTINUOUS1
100
AcDbLine
 10
5.335040605236557
 20
9.028599229718444
 30
0.0
 11
2.934740605236484
 21
9.028599229718444
 31
0.0
  0
CIRCLE
  5
8A3
330
1F
100
AcDbEntity
  8
CONTINUOUS1
100
AcDbCircle
 10
2.99183435523652
 20
7.941849229718442
 30
0.0
 40
0.197215318125
  0
CIRCLE
  5
8A4
330
1F
100
AcDbEntity
  8
CONTINUOUS1
100
AcDbCircle
 10
2.99183435523652
 20
7.941849229718442
 30
0.0
 40
0.216900140625
  0
CIRCLE
  5
8A5
330
1F
100
AcDbEntity
  8
CONTINUOUS1
100
AcDbCircle
 10
2.99183435523652
 20
7.941849229718442
 30
0.0
 40
0.25572668625
  0
CIRCLE
  5
8A6
330
1F
100
AcDbEntity
  8
CONTINUOUS1
100
AcDbCircle
 10
2.99183435523652
 20
7.941849229718442
 30
0.0
 40
0.1575
  0
LINE
  5
8A7
330
1F
100
AcDbEntity
  8
CONTINUOUS1
100
AcDbLine
 10
3.011521855236495
 20
7.785584541593443
 30
0.0
 11
3.011521855236495
 21
7.906600690343445
 31
0.0
  0
LINE
  5
8A8
330
1F
100
AcDbEntity
  8
CONTINUOUS1
100
AcDbLine
 10
2.972146855236488
 20
7.906602737843442
 30
0.0
 11
2.972146855236488
 21
7.785584541593443
 31
0.0
  0
LINE
  5
8A9
330
1F
100
AcDbEntity
  8
CONTINUOUS1
100
AcDbLine
 10
2.972146855236488
 20
8.098113917843441
 30
0.0
 11
2.972146855236488
 21
7.977101273468441
 31
0.0
  0
LWPOLYLINE
  5
8AA
330
1F
100
AcDbEntity
  8
CONTINUOUS1
100
AcDbPolyline
 90
       14
 70
     1
 43
0.0
 10
8.992584355236502
 20
2.240349229718443
 42
-0.4142135623730951
 10
8.874459355236425
 20
2.122224229718444
 10
2.810709355236454
 20
2.122224229718444
 42
-0.408489092650038
 10
2.692584355236434
 20
2.240349229718443
 10
2.692584355236434
 20
8.328551183468441
 10
2.695009776486429
 20
8.342156860343443
 10
2.701987735236471
 20
8.354085949718445
 10
2.712658596486463
 20
8.362868189093447
 10
2.725707156486478
 20
8.367421514093443
 42
-0.080039221031759
 10
8.959461553986514
 20
8.367421514093443
 10
8.972510113986416
 20
8.362868189093447
 10
8.983180975236408
 20
8.354085949718445
 10
8.990158933986506
 20
8.342156860343443
 10
8.992584355236502
 20
8.328551183468441
  0
LINE
  5
8AB
330
1F
100
AcDbEntity
  8
CONTINUOUS1
100
AcDbLine
 10
3.011521855236495
 20
7.977102100343444
 30
0.0
 11
3.011521855236495
 21
8.098113917843441
 31
0.0
  0
LINE
  5
8AC
330
1F
100
AcDbEntity
  8
CONTINUOUS1
100
AcDbLine
 10
3.233995093986507
 20
9.060099229718446
 30
0.0
 11
3.233995093986507
 21
9.193974229718442
 31
0.0
  0
LINE
  5
8AD
330
1F
100
AcDbEntity
  8
CONTINUOUS1
100
AcDbLine
 10
2.934740605236484
 20
8.918349229718444
 30
0.0
 11
2.895585090326576
 21
8.918349229718444
 31
0.0
  0
CIRCLE
  5
8AE
330
1F
100
AcDbEntity
  8
CONTINUOUS1
100
AcDbCircle
 10
3.38479685523653
 20
8.890786729718442
 30
0.0
 40
0.0196875
  0
CIRCLE
  5
8AF
330
1F
100
AcDbEntity
  8
CONTINUOUS1
100
AcDbCircle
 10
3.084759355236499
 20
8.890786729718442
 30
0.0
 40
0.0196875
  0
LINE
  5
8B0
330
1F
100
AcDbEntity
  8
CONTINUOUS1
100
AcDbLine
 10
3.404484355236505
 20
8.741161729718442
 30
0.0
 11
3.404484355236505
 21
8.890786729718442
 31
0.0
  0
LINE
  5
8B1
330
1F
100
AcDbEntity
  8
CONTINUOUS1
100
AcDbLine
 10
3.365109355236498
 20
8.741161729718442
 30
0.0
 11
3.365109355236498
 21
8.890786729718442
 31
0.0
  0
LINE
  5
8B2
330
1F
100
AcDbEntity
  8
CONTINUOUS1
100
AcDbLine
 10
3.104446855236531
 20
8.741161729718442
 30
0.0
 11
3.104446855236531
 21
8.890786729718442
 31
0.0
  0
LINE
  5
8B3
330
1F
100
AcDbEntity
  8
CONTINUOUS1
100
AcDbLine
 10
3.065071855236524
 20
8.741161729718442
 30
0.0
 11
3.065071855236524
 21
8.890786729718442
 31
0.0
  0
LINE
  5
8B4
330
1F
100
AcDbEntity
  8
CONTINUOUS1
100
AcDbLine
 10
4.109296855236507
 20
9.193974229718442
 30
0.0
 11
4.109296855236507
 21
9.060099229718446
 31
0.0
  0
LINE
  5
8B5
330
1F
100
AcDbEntity
  8
CONTINUOUS1
100
AcDbLine
 10
3.92265935523649
 20
9.193974229718442
 30
0.0
 11
3.92265935523649
 21
9.060099229718446
 31
0.0
  0
LINE
  5
8B6
330
1F
100
AcDbEntity
  8
CONTINUOUS1
100
AcDbLine
 10
3.522609355236525
 20
9.193974229718442
 30
0.0
 11
3.522609355236525
 21
9.060099229718446
 31
0.0
  0
CIRCLE
  5
8B7
330
1F
100
AcDbEntity
  8
CONTINUOUS1
100
AcDbCircle
 10
3.684834355236503
 20
8.890786729718442
 30
0.0
 40
0.0196875
  0
LINE
  5
8B8
330
1F
100
AcDbEntity
  8
CONTINUOUS1
100
AcDbLine
 10
3.704521855236478
 20
8.741161729718442
 30
0.0
 11
3.704521855236478
 21
8.890786729718442
 31
0.0
  0
LINE
  5
8B9
330
1F
100
AcDbEntity
  8
CONTINUOUS1
100
AcDbLine
 10
3.665146855236528
 20
8.741161729718442
 30
0.0
 11
3.665146855236528
 21
8.890786729718442
 31
0.0
  0
CIRCLE
  5
8BA
330
1F
100
AcDbEntity
  8
CONTINUOUS1
100
AcDbCircle
 10
3.984871855236477
 20
8.890786729718442
 30
0.0
 40
0.0196875
  0
CIRCLE
  5
8BB
330
1F
100
AcDbEntity
  8
CONTINUOUS1
100
AcDbCircle
 10
4.284909355236507
 20
8.890786729718442
 30
0.0
 40
0.0196875
  0
LINE
  5
8BC
330
1F
100
AcDbEntity
  8
CONTINUOUS1
100
AcDbLine
 10
4.109296855236507
 20
9.103411729718445
 30
0.0
 11
3.92265935523649
 21
9.103411729718445
 31
0.0
  0
LINE
  5
8BD
330
1F
100
AcDbEntity
  8
CONTINUOUS1
100
AcDbLine
 10
4.304596855236482
 20
8.741161729718442
 30
0.0
 11
4.304596855236482
 21
8.890786729718442
 31
0.0
  0
LINE
  5
8BE
330
1F
100
AcDbEntity
  8
CONTINUOUS1
100
AcDbLine
 10
4.265221855236532
 20
8.741161729718442
 30
0.0
 11
4.265221855236532
 21
8.890786729718442
 31
0.0
  0
LINE
  5
8BF
330
1F
100
AcDbEntity
  8
CONTINUOUS1
100
AcDbLine
 10
4.004559355236509
 20
8.741161729718442
 30
0.0
 11
4.004559355236509
 21
8.890786729718442
 31
0.0
  0
LINE
  5
8C0
330
1F
100
AcDbEntity
  8
CONTINUOUS1
100
AcDbLine
 10
3.965184355236502
 20
8.741161729718442
 30
0.0
 11
3.965184355236502
 21
8.890786729718442
 31
0.0
  0
LINE
  5
8C1
330
1F
100
AcDbEntity
  8
CONTINUOUS1
100
AcDbLine
 10
5.119659355236493
 20
9.193974229718442
 30
0.0
 11
5.119659355236493
 21
9.060099229718446
 31
0.0
  0
LINE
  5
8C2
330
1F
100
AcDbEntity
  8
CONTINUOUS1
100
AcDbLine
 10
4.719609355236528
 20
9.193974229718442
 30
0.0
 11
4.719609355236528
 21
9.060099229718446
 31
0.0
  0
LINE
  5
8C3
330
1F
100
AcDbEntity
  8
CONTINUOUS1
100
AcDbLine
 10
4.509346855236529
 20
9.193974229718442
 30
0.0
 11
4.509346855236529
 21
9.060099229718446
 31
0.0
  0
CIRCLE
  5
8C4
330
1F
100
AcDbEntity
  8
CONTINUOUS1
100
AcDbCircle
 10
4.584946855236481
 20
8.890786729718442
 30
0.0
 40
0.0196875
  0
LINE
  5
8C5
330
1F
100
AcDbEntity
  8
CONTINUOUS1
100
AcDbLine
 10
4.719609355236528
 20
9.103411729718445
 30
0.0
 11
4.509346855236529
 21
9.103411729718445
 31
0.0
  0
LINE
  5
8C6
330
1F
100
AcDbEntity
  8
CONTINUOUS1
100
AcDbLine
 10
4.604634355236512
 20
8.741161729718442
 30
0.0
 11
4.604634355236512
 21
8.890786729718442
 31
0.0
  0
LINE
  5
8C7
330
1F
100
AcDbEntity
  8
CONTINUOUS1
100
AcDbLine
 10
4.565259355236506
 20
8.741161729718442
 30
0.0
 11
4.565259355236506
 21
8.890786729718442
 31
0.0
  0
CIRCLE
  5
8C8
330
1F
100
AcDbEntity
  8
CONTINUOUS1
100
AcDbCircle
 10
4.884984355236454
 20
8.890786729718442
 30
0.0
 40
0.0196875
  0
CIRCLE
  5
8C9
330
1F
100
AcDbEntity
  8
CONTINUOUS1
100
AcDbCircle
 10
5.185021855236485
 20
8.890786729718442
 30
0.0
 40
0.0196875
  0
LINE
  5
8CA
330
1F
100
AcDbEntity
  8
CONTINUOUS1
100
AcDbLine
 10
5.204709355236516
 20
8.741161729718442
 30
0.0
 11
5.204709355236516
 21
8.890786729718442
 31
0.0
  0
LINE
  5
8CB
330
1F
100
AcDbEntity
  8
CONTINUOUS1
100
AcDbLine
 10
5.165334355236453
 20
8.741161729718442
 30
0.0
 11
5.165334355236453
 21
8.890786729718442
 31
0.0
  0
LINE
  5
8CC
330
1F
100
AcDbEntity
  8
CONTINUOUS1
100
AcDbLine
 10
4.904671855236486
 20
8.741161729718442
 30
0.0
 11
4.904671855236486
 21
8.890786729718442
 31
0.0
  0
LINE
  5
8CD
330
1F
100
AcDbEntity
  8
CONTINUOUS1
100
AcDbLine
 10
4.865296855236536
 20
8.741161729718442
 30
0.0
 11
4.865296855236536
 21
8.890786729718442
 31
0.0
  0
LWPOLYLINE
  5
8CE
330
1F
100
AcDbEntity
  8
CONTINUOUS1
100
AcDbPolyline
 90
        3
 70
     0
 43
0.0
 10
5.455806722736454
 20
9.193974229718442
 10
5.506017840861503
 20
9.110061497843446
 10
5.535933390861444
 20
9.060099229718446
  0
LWPOLYLINE
  5
8CF
330
1F
100
AcDbEntity
  8
CONTINUOUS1
100
AcDbPolyline
 90
        3
 70
     0
 43
0.0
 10
5.502460191486491
 20
9.060099229718446
 10
5.470791902736507
 20
9.111491125343441
 10
5.419996853361411
 20
9.193974229718442
  0
LINE
  5
8D0
330
1F
100
AcDbEntity
  8
CONTINUOUS1
100
AcDbLine
 10
5.936897993361483
 20
9.060099229718446
 30
0.0
 11
5.937320290236542
 21
9.193974229718442
 31
0.0
  0
LINE
  5
8D1
330
1F
100
AcDbEntity
  8
CONTINUOUS1
100
AcDbLine
 10
5.959660287111503
 20
9.060099229718446
 30
0.0
 11
5.959930478361528
 21
9.193974229718442
 31
0.0
  0
LINE
  5
8D2
330
1F
100
AcDbEntity
  8
CONTINUOUS1
100
AcDbLine
 10
5.725238232111522
 20
9.193974229718442
 30
0.0
 11
5.725508423361546
 21
9.060099229718446
 31
0.0
  0
LINE
  5
8D3
330
1F
100
AcDbEntity
  8
CONTINUOUS1
100
AcDbLine
 10
5.747848420236508
 20
9.193974229718442
 30
0.0
 11
5.748270717111566
 21
9.060099229718446
 31
0.0
  0
CIRCLE
  5
8D4
330
1F
100
AcDbEntity
  8
CONTINUOUS1
100
AcDbCircle
 10
5.553178105236455
 20
8.890786729718442
 30
0.0
 40
0.0196875
  0
LINE
  5
8D5
330
1F
100
AcDbEntity
  8
CONTINUOUS1
100
AcDbLine
 10
5.335040605236557
 20
9.01678672971844
 30
0.0
 11
5.413790605236457
 21
9.01678672971844
 31
0.0
  0
LINE
  5
8D6
330
1F
100
AcDbEntity
  8
CONTINUOUS1
100
AcDbLine
 10
5.335040605236557
 20
8.997099229718443
 30
0.0
 11
5.413790605236457
 21
8.997099229718443
 31
0.0
  0
LINE
  5
8D7
330
1F
100
AcDbEntity
  8
CONTINUOUS1
100
AcDbLine
 10
5.413790605236457
 20
8.792349229718439
 30
0.0
 11
5.335040605236557
 21
8.792349229718439
 31
0.0
  0
LINE
  5
8D8
330
1F
100
AcDbEntity
  8
CONTINUOUS1
100
AcDbLine
 10
5.572865605236486
 20
8.741161729718442
 30
0.0
 11
5.572865605236486
 21
8.890786729718442
 31
0.0
  0
LINE
  5
8D9
330
1F
100
AcDbEntity
  8
CONTINUOUS1
100
AcDbLine
 10
5.533490605236536
 20
8.741161729718442
 30
0.0
 11
5.533490605236536
 21
8.890786729718442
 31
0.0
  0
CIRCLE
  5
8DA
330
1F
100
AcDbEntity
  8
CONTINUOUS1
100
AcDbCircle
 10
6.153253105236515
 20
8.890786729718442
 30
0.0
 40
0.0196875
  0
CIRCLE
  5
8DB
330
1F
100
AcDbEntity
  8
CONTINUOUS1
100
AcDbCircle
 10
5.953228105236533
 20
8.890786729718442
 30
0.0
 40
0.0196875
  0
CIRCLE
  5
8DC
330
1F
100
AcDbEntity
  8
CONTINUOUS1
100
AcDbCircle
 10
5.753203105236551
 20
8.890786729718442
 30
0.0
 40
0.0196875
  0
LINE
  5
8DD
330
1F
100
AcDbEntity
  8
CONTINUOUS1
100
AcDbLine
 10
6.172940605236547
 20
8.741161729718442
 30
0.0
 11
6.172940605236547
 21
8.890786729718442
 31
0.0
  0
LINE
  5
8DE
330
1F
100
AcDbEntity
  8
CONTINUOUS1
100
AcDbLine
 10
6.133565605236483
 20
8.741161729718442
 30
0.0
 11
6.133565605236483
 21
8.890786729718442
 31
0.0
  0
LINE
  5
8DF
330
1F
100
AcDbEntity
  8
CONTINUOUS1
100
AcDbLine
 10
5.972915605236451
 20
8.741161729718442
 30
0.0
 11
5.972915605236451
 21
8.890786729718442
 31
0.0
  0
LINE
  5
8E0
330
1F
100
AcDbEntity
  8
CONTINUOUS1
100
AcDbLine
 10
5.933540605236501
 20
8.741161729718442
 30
0.0
 11
5.933540605236501
 21
8.890786729718442
 31
0.0
  0
LINE
  5
8E1
330
1F
100
AcDbEntity
  8
CONTINUOUS1
100
AcDbLine
 10
5.772890605236469
 20
8.741161729718442
 30
0.0
 11
5.772890605236469
 21
8.890786729718442
 31
0.0
  0
LINE
  5
8E2
330
1F
100
AcDbEntity
  8
CONTINUOUS1
100
AcDbLine
 10
5.733515605236519
 20
8.741161729718442
 30
0.0
 11
5.733515605236519
 21
8.890786729718442
 31
0.0
  0
LINE
  5
8E3
330
1F
100
AcDbEntity
  8
CONTINUOUS1
100
AcDbLine
 10
7.955541237111518
 20
9.203329847843441
 30
0.0
 11
8.048371855236453
 21
9.110499229718442
 31
0.0
  0
LINE
  5
8E4
330
1F
100
AcDbEntity
  8
CONTINUOUS1
100
AcDbLine
 10
7.099457625861489
 20
9.193974229718442
 30
0.0
 11
7.098079697736537
 21
9.115032552218444
 31
0.0
  0
LINE
  5
8E5
330
1F
100
AcDbEntity
  8
CONTINUOUS1
100
AcDbLine
 10
7.079773118361529
 20
9.193974229718442
 30
0.0
 11
7.078401175236493
 21
9.115376059718443
 31
0.0
  0
LINE
  5
8E6
330
1F
100
AcDbEntity
  8
CONTINUOUS1
100
AcDbLine
 10
6.967895592111474
 20
9.193974229718442
 30
0.0
 11
6.969269267736493
 21
9.115275259718444
 31
0.0
  0
LINE
  5
8E7
330
1F
100
AcDbEntity
  8
CONTINUOUS1
100
AcDbLine
 10
6.950547872736549
 20
9.060099269093441
 30
0.0
 11
6.948211084611514
 21
9.193974269093445
 31
0.0
  0
LINE
  5
8E8
330
1F
100
AcDbEntity
  8
CONTINUOUS1
100
AcDbLine
 10
6.544950328986558
 20
9.193974229718442
 30
0.0
 11
6.496223805861475
 21
9.060099229718446
 31
0.0
  0
LINE
  5
8E9
330
1F
100
AcDbEntity
  8
CONTINUOUS1
100
AcDbLine
 10
6.470949544611542
 20
9.193974229718442
 30
0.0
 11
6.422223021486459
 21
9.060099229718446
 31
0.0
  0
CIRCLE
  5
8EA
330
1F
100
AcDbEntity
  8
CONTINUOUS1
100
AcDbCircle
 10
6.55330310523648
 20
8.890786729718442
 30
0.0
 40
0.0196875
  0
CIRCLE
  5
8EB
330
1F
100
AcDbEntity
  8
CONTINUOUS1
100
AcDbCircle
 10
6.353278105236498
 20
8.890786729718442
 30
0.0
 40
0.0196875
  0
LINE
  5
8EC
330
1F
100
AcDbEntity
  8
CONTINUOUS1
100
AcDbLine
 10
6.572990605236512
 20
8.741161729718442
 30
0.0
 11
6.572990605236512
 21
8.890786729718442
 31
0.0
  0
LINE
  5
8ED
330
1F
100
AcDbEntity
  8
CONTINUOUS1
100
AcDbLine
 10
6.533615605236448
 20
8.741161729718442
 30
0.0
 11
6.533615605236448
 21
8.890786729718442
 31
0.0
  0
LINE
  5
8EE
330
1F
100
AcDbEntity
  8
CONTINUOUS1
100
AcDbLine
 10
6.372965605236529
 20
8.741161729718442
 30
0.0
 11
6.372965605236529
 21
8.890786729718442
 31
0.0
  0
LINE
  5
8EF
330
1F
100
AcDbEntity
  8
CONTINUOUS1
100
AcDbLine
 10
6.333590605236466
 20
8.741161729718442
 30
0.0
 11
6.333590605236466
 21
8.890786729718442
 31
0.0
  0
CIRCLE
  5
8F0
330
1F
100
AcDbEntity
  8
CONTINUOUS1
100
AcDbCircle
 10
6.753328105236462
 20
8.890786729718442
 30
0.0
 40
0.0196875
  0
CIRCLE
  5
8F1
330
1F
100
AcDbEntity
  8
CONTINUOUS1
100
AcDbCircle
 10
6.953353105236558
 20
8.890786729718442
 30
0.0
 40
0.0196875
  0
LINE
  5
8F2
330
1F
100
AcDbEntity
  8
CONTINUOUS1
100
AcDbLine
 10
7.087098167736556
 20
9.115224229718442
 30
0.0
 11
7.087098167736556
 21
9.060099229718446
 31
0.0
  0
LINE
  5
8F3
330
1F
100
AcDbEntity
  8
CONTINUOUS1
100
AcDbLine
 10
7.058956855236559
 20
9.115224229718442
 30
0.0
 11
7.058956855236559
 21
9.060099229718446
 31
0.0
  0
LINE
  5
8F4
330
1F
100
AcDbEntity
  8
CONTINUOUS1
100
AcDbLine
 10
7.033020542736451
 20
9.115224229718442
 30
0.0
 11
7.033020542736451
 21
9.060099229718446
 31
0.0
  0
LINE
  5
8F5
330
1F
100
AcDbEntity
  8
CONTINUOUS1
100
AcDbLine
 10
7.010285417736511
 20
9.115224229718442
 30
0.0
 11
7.010285417736511
 21
9.060099229718446
 31
0.0
  0
LINE
  5
8F6
330
1F
100
AcDbEntity
  8
CONTINUOUS1
100
AcDbLine
 10
6.991629542736475
 20
9.115224229718442
 30
0.0
 11
6.991629542736475
 21
9.060099229718446
 31
0.0
  0
LINE
  5
8F7
330
1F
100
AcDbEntity
  8
CONTINUOUS1
100
AcDbLine
 10
6.977765605236484
 20
9.115224229718442
 30
0.0
 11
6.977765605236484
 21
9.060099229718446
 31
0.0
  0
LINE
  5
8F8
330
1F
100
AcDbEntity
  8
CONTINUOUS1
100
AcDbLine
 10
6.973040605236477
 20
8.741161729718442
 30
0.0
 11
6.973040605236477
 21
8.890786729718442
 31
0.0
  0
LINE
  5
8F9
330
1F
100
AcDbEntity
  8
CONTINUOUS1
100
AcDbLine
 10
6.933665605236527
 20
8.741161729718442
 30
0.0
 11
6.933665605236527
 21
8.890786729718442
 31
0.0
  0
LINE
  5
8FA
330
1F
100
AcDbEntity
  8
CONTINUOUS1
100
AcDbLine
 10
6.773015605236494
 20
8.741161729718442
 30
0.0
 11
6.773015605236494
 21
8.890786729718442
 31
0.0
  0
LINE
  5
8FB
330
1F
100
AcDbEntity
  8
CONTINUOUS1
100
AcDbLine
 10
6.733640605236544
 20
8.741161729718442
 30
0.0
 11
6.733640605236544
 21
8.890786729718442
 31
0.0
  0
CIRCLE
  5
8FC
330
1F
100
AcDbEntity
  8
CONTINUOUS1
100
AcDbCircle
 10
7.553428105236505
 20
8.890786729718442
 30
0.0
 40
0.0196875
  0
CIRCLE
  5
8FD
330
1F
100
AcDbEntity
  8
CONTINUOUS1
100
AcDbCircle
 10
7.153378105236541
 20
8.890786729718442
 30
0.0
 40
0.0196875
  0
CIRCLE
  5
8FE
330
1F
100
AcDbEntity
  8
CONTINUOUS1
100
AcDbCircle
 10
7.353403105236523
 20
8.890786729718442
 30
0.0
 40
0.0196875
  0
LINE
  5
8FF
330
1F
100
AcDbEntity
  8
CONTINUOUS1
100
AcDbLine
 10
7.533740605236474
 20
8.741161729718442
 30
0.0
 11
7.533740605236474
 21
8.890786729718442
 31
0.0
  0
LINE
  5
900
330
1F
100
AcDbEntity
  8
CONTINUOUS1
100
AcDbLine
 10
7.373090605236555
 20
8.741161729718442
 30
0.0
 11
7.373090605236555
 21
8.890786729718442
 31
0.0
  0
LINE
  5
901
330
1F
100
AcDbEntity
  8
CONTINUOUS1
100
AcDbLine
 10
7.333715605236491
 20
8.741161729718442
 30
0.0
 11
7.333715605236491
 21
8.890786729718442
 31
0.0
  0
LINE
  5
902
330
1F
100
AcDbEntity
  8
CONTINUOUS1
100
AcDbLine
 10
7.263502105236469
 20
9.115224229718442
 30
0.0
 11
7.263502105236469
 21
9.060099229718446
 31
0.0
  0
LINE
  5
903
330
1F
100
AcDbEntity
  8
CONTINUOUS1
100
AcDbLine
 10
7.254965605236478
 20
9.115224229718442
 30
0.0
 11
7.254965605236478
 21
9.060099229718446
 31
0.0
  0
LINE
  5
904
330
1F
100
AcDbEntity
  8
CONTINUOUS1
100
AcDbLine
 10
7.241101667736487
 20
9.115224229718442
 30
0.0
 11
7.241101667736487
 21
9.060099229718446
 31
0.0
  0
LINE
  5
905
330
1F
100
AcDbEntity
  8
CONTINUOUS1
100
AcDbLine
 10
7.222445792736564
 20
9.115224229718442
 30
0.0
 11
7.222445792736564
 21
9.060099229718446
 31
0.0
  0
LINE
  5
906
330
1F
100
AcDbEntity
  8
CONTINUOUS1
100
AcDbLine
 10
7.199710667736511
 20
9.115224229718442
 30
0.0
 11
7.199710667736511
 21
9.060099229718446
 31
0.0
  0
LINE
  5
907
330
1F
100
AcDbEntity
  8
CONTINUOUS1
100
AcDbLine
 10
7.173774355236517
 20
9.115224229718442
 30
0.0
 11
7.173774355236517
 21
9.060099229718446
 31
0.0
  0
LINE
  5
908
330
1F
100
AcDbEntity
  8
CONTINUOUS1
100
AcDbLine
 10
7.173065605236459
 20
8.741161729718442
 30
0.0
 11
7.173065605236459
 21
8.890786729718442
 31
0.0
  0
LINE
  5
909
330
1F
100
AcDbEntity
  8
CONTINUOUS1
100
AcDbLine
 10
7.14563304273652
 20
9.115224229718442
 30
0.0
 11
7.14563304273652
 21
9.060099229718446
 31
0.0
  0
LINE
  5
90A
330
1F
100
AcDbEntity
  8
CONTINUOUS1
100
AcDbLine
 10
7.133690605236509
 20
8.741161729718442
 30
0.0
 11
7.133690605236509
 21
8.890786729718442
 31
0.0
  0
LINE
  5
90B
330
1F
100
AcDbEntity
  8
CONTINUOUS1
100
AcDbLine
 10
7.116365605236481
 20
9.115224229718442
 30
0.0
 11
7.116365605236481
 21
9.060099229718446
 31
0.0
  0
CIRCLE
  5
90C
330
1F
100
AcDbEntity
  8
CONTINUOUS1
100
AcDbCircle
 10
7.753453105236488
 20
8.890786729718442
 30
0.0
 40
0.0196875
  0
LINE
  5
90D
330
1F
100
AcDbEntity
  8
CONTINUOUS1
100
AcDbLine
 10
7.77314060523652
 20
8.741161729718442
 30
0.0
 11
7.77314060523652
 21
8.890786729718442
 31
0.0
  0
LINE
  5
90E
330
1F
100
AcDbEntity
  8
CONTINUOUS1
100
AcDbLine
 10
7.733765605236456
 20
8.741161729718442
 30
0.0
 11
7.733765605236456
 21
8.890786729718442
 31
0.0
  0
LINE
  5
90F
330
1F
100
AcDbEntity
  8
CONTINUOUS1
100
AcDbLine
 10
7.573115605236537
 20
8.741161729718442
 30
0.0
 11
7.573115605236537
 21
8.890786729718442
 31
0.0
  0
LWPOLYLINE
  5
910
330
1F
100
AcDbEntity
  8
CONTINUOUS1
100
AcDbPolyline
 90
        6
 70
     0
 43
0.0
 10
8.982775885236449
 20
8.806964717843442
 10
8.97812124836146
 20
8.823567068468442
 10
8.965281848361499
 20
8.837670957218449
 10
8.946180681486524
 20
8.847004170968446
 10
8.923722362736455
 20
8.850153934718441
 10
8.788599895258428
 20
8.850153934718441
  0
LWPOLYLINE
  5
911
330
1F
100
AcDbEntity
  8
CONTINUOUS1
100
AcDbPolyline
 90
        6
 70
     0
 43
0.0
 10
8.977499202111474
 20
9.109263563468445
 10
8.97278459711147
 20
9.125971399718444
 10
8.95993267586148
 20
9.140022880343444
 10
8.940868088361483
 20
9.149313805343446
 10
8.918445718986461
 20
9.152452780343445
 10
8.78859988563461
 20
9.152452780343445
  0
LINE
  5
912
330
1F
100
AcDbEntity
  8
CONTINUOUS1
100
AcDbLine
 10
8.982775859948858
 20
8.806964717843442
 30
0.0
 11
8.788599896633471
 21
8.806964717843442
 31
0.0
  0
LINE
  5
913
330
1F
100
AcDbEntity
  8
CONTINUOUS1
100
AcDbLine
 10
8.923722362736455
 20
8.806964717843442
 30
0.0
 11
8.923722362736455
 21
8.850153934718441
 31
0.0
  0
LINE
  5
914
330
1F
100
AcDbEntity
  8
CONTINUOUS1
100
AcDbLine
 10
8.976478975174089
 20
9.167712994718442
 30
0.0
 11
8.788599885148826
 21
9.167712994718442
 31
0.0
  0
LINE
  5
915
330
1F
100
AcDbEntity
  8
CONTINUOUS1
100
AcDbLine
 10
8.917425473361461
 20
9.167712994718442
 30
0.0
 11
8.917425473361461
 21
9.152452780343445
 31
0.0
  0
LWPOLYLINE
  5
918
330
1F
100
AcDbEntity
  8
CONTINUOUS1
100
AcDbPolyline
 90
        4
 70
     0
 43
0.0
 10
4.098935712637697
 20
9.494607978909535
 10
4.110084355236452
 20
9.571974229718442
 10
7.480584355236445
 20
9.571974229718442
 10
7.490291788960078
 20
9.502902211155991
  0
LWPOLYLINE
  5
919
330
1F
100
AcDbEntity
  8
CONTINUOUS1
100
AcDbPolyline
 90
        2
 70
     0
 43
0.0
 10
4.229612522736445
 20
9.571974229718442
 10
4.22177643507986
 20
9.505142871127119
  0
LWPOLYLINE
  5
91A
330
1F
100
AcDbEntity
  8
CONTINUOUS1
100
AcDbPolyline
 90
        6
 70
     0
 43
0.0
 10
8.990968368217934
 20
8.337616246787916
 10
8.974660482856691
 20
9.271894346848647
 42
0.3639343308209082
 10
8.924853786711381
 20
9.32919773453915
 42
0.0786907347180963
 10
2.760314923761498
 20
9.32919773453915
 42
0.3639343308209082
 10
2.710508227616301
 20
9.271894346848647
 10
2.694200342254944
 20
8.337616246787916
  0
LWPOLYLINE
  5
91B
330
1F
100
AcDbEntity
  8
CONTINUOUS1
100
AcDbPolyline
 90
        4
 70
     1
 43
0.0
 10
3.22114974836144
 20
7.028001312218442
 10
3.742516879611471
 20
7.028001312218442
 10
3.742516879611471
 20
5.807724229718445
 10
3.22114974836144
 20
5.807724229718445
  0
LWPOLYLINE
  5
91C
330
1F
100
AcDbEntity
  8
CONTINUOUS1
100
AcDbPolyline
 90
        4
 70
     1
 43
0.0
 10
3.928324748361447
 20
6.248376312218439
 10
4.449343962111484
 20
6.248376312218439
 10
4.449343962111484
 20
5.028447147218443
 10
3.928324748361447
 20
5.028447147218443
  0
LWPOLYLINE
  5
91D
330
1F
100
AcDbEntity
  8
CONTINUOUS1
100
AcDbPolyline
 90
        4
 70
     1
 43
0.0
 10
4.874899748361443
 20
7.028001312218442
 10
5.396266879611474
 20
7.028001312218442
 10
5.396266879611474
 20
5.807724229718445
 10
4.874899748361443
 20
5.807724229718445
  0
LWPOLYLINE
  5
91E
330
1F
100
AcDbEntity
  8
CONTINUOUS1
100
AcDbPolyline
 90
        4
 70
     1
 43
0.0
 10
5.582074748361449
 20
6.248376312218439
 10
6.10344187961148
 20
6.248376312218439
 10
6.10344187961148
 20
5.028099229718442
 10
5.582074748361449
 20
5.028099229718442
  0
LWPOLYLINE
  5
91F
330
1F
100
AcDbEntity
  8
CONTINUOUS1
100
AcDbPolyline
 90
        4
 70
     1
 43
0.0
 10
6.528649748361502
 20
7.028001312218442
 10
7.050016879611419
 20
7.028001312218442
 10
7.050016879611419
 20
5.807724229718445
 10
6.528649748361502
 20
5.807724229718445
  0
LWPOLYLINE
  5
920
330
1F
100
AcDbEntity
  8
CONTINUOUS1
100
AcDbPolyline
 90
        4
 70
     1
 43
0.0
 10
7.235476830861514
 20
6.24872422971844
 10
7.756843962111432
 20
6.24872422971844
 10
7.756843962111432
 20
5.028447147218443
 10
7.235476830861514
 20
5.028447147218443
  0
LWPOLYLINE
  5
921
330
1F
100
AcDbEntity
  8
CONTINUOUS1
100
AcDbPolyline
 90
        4
 70
     1
 43
0.0
 10
8.048371855236453
 20
9.237286729718441
 10
8.688609355236465
 20
9.237286729718441
 10
8.688609355236465
 20
8.721474229718438
 10
8.048371855236453
 20
8.721474229718438
  0
LWPOLYLINE
  5
922
330
1F
100
AcDbEntity
  8
CONTINUOUS1
100
AcDbPolyline
 90
        4
 70
     1
 43
0.0
 10
5.645709355236434
 20
2.417536729718442
 10
6.039459355236502
 20
2.417536729718442
 10
6.039459355236502
 20
2.224599229718442
 10
5.645709355236434
 20
2.224599229718442
  0
LWPOLYLINE
  5
923
330
1F
100
AcDbEntity
  8
CONTINUOUS1
100
AcDbPolyline
 90
        4
 70
     1
 43
0.0
 10
5.563024138986477
 20
2.224599229718442
 10
6.122146855236408
 20
2.224599229718442
 10
6.122146855236408
 20
2.181286729718443
 10
5.563024138986477
 20
2.181286729718443
  0
LWPOLYLINE
  5
924
330
1F
100
AcDbEntity
  8
CONTINUOUS1
100
AcDbPolyline
 90
        4
 70
     1
 43
0.0
 10
4.110084355236452
 20
3.91969297971844
 10
7.575084355236484
 20
3.91969297971844
 10
7.575084355236484
 20
3.801567979718441
 10
4.110084355236452
 20
3.801567979718441
  0
LWPOLYLINE
  5
925
330
1F
100
AcDbEntity
  8
CONTINUOUS1
100
AcDbPolyline
 90
        8
 70
     1
 43
0.0
 10
8.138146855236485
 20
8.839599229718444
 10
8.138146855236485
 20
9.103411729718445
 10
8.248396855236435
 20
9.103411729718445
 10
8.248396855236435
 20
9.182161729718444
 10
8.488584355236483
 20
9.182161729718444
 10
8.488584355236483
 20
9.103411729718445
 10
8.598834355236434
 20
9.103411729718445
 10
8.598834355236434
 20
8.839599229718444
  0
LWPOLYLINE
  5
926
330
1F
100
AcDbEntity
  8
CONTINUOUS1
100
AcDbPolyline
 90
        4
 70
     1
 43
0.0
 10
7.892840605236486
 20
8.780536729718441
 10
7.980646855236457
 20
8.780536729718441
 10
7.980646855236457
 20
8.721474229718438
 10
7.892840605236486
 20
8.721474229718438
  0
LWPOLYLINE
  5
927
330
1F
100
AcDbEntity
  8
CONTINUOUS1
100
AcDbPolyline
 90
        4
 70
     1
 43
0.0
 10
7.892840605236486
 20
8.878974229718444
 10
8.048371855236453
 20
8.878974229718444
 10
8.048371855236453
 20
8.81518672971844
 10
7.892840605236486
 20
8.81518672971844
  0
LWPOLYLINE
  5
928
330
1F
100
AcDbEntity
  8
CONTINUOUS1
100
AcDbPolyline
 90
        4
 70
     1
 43
0.0
 10
7.892840605236486
 20
8.914411729718445
 10
8.048371855236453
 20
8.914411729718445
 10
8.048371855236453
 20
8.878974229718444
 10
7.892840605236486
 20
8.878974229718444
  0
LWPOLYLINE
  5
929
330
1F
100
AcDbEntity
  8
CONTINUOUS1
100
AcDbPolyline
 90
        4
 70
     1
 43
0.0
 10
5.413790605236457
 20
9.060099229718446
 10
7.892840605236486
 20
9.060099229718446
 10
7.892840605236486
 20
8.721474229718438
 10
5.413790605236457
 20
8.721474229718438
  0
LWPOLYLINE
  5
92A
330
1F
100
AcDbEntity
  8
CONTINUOUS1
100
AcDbPolyline
 90
        4
 70
     1
 43
0.0
 10
5.433478105236488
 20
9.001036729718443
 10
7.873153105236454
 20
9.001036729718443
 10
7.873153105236454
 20
8.741161729718442
 10
5.433478105236488
 20
8.741161729718442
  0
LWPOLYLINE
  5
92B
330
1F
100
AcDbEntity
  8
CONTINUOUS1
100
AcDbPolyline
 90
        4
 70
     1
 43
0.0
 10
2.954428105236459
 20
9.001036729718443
 10
5.315353105236411
 20
9.001036729718443
 10
5.315353105236411
 20
8.741161729718442
 10
2.954428105236459
 20
8.741161729718442
  0
LWPOLYLINE
  5
92C
330
1F
100
AcDbEntity
  8
CONTINUOUS1
100
AcDbPolyline
 90
        4
 70
     1
 43
0.0
 10
2.934740605236484
 20
9.060099229718446
 10
5.335040605236443
 20
9.060099229718446
 10
5.335040605236443
 20
8.721474229718438
 10
2.934740605236484
 20
8.721474229718438
  0
LWPOLYLINE
  5
92D
330
1F
100
AcDbEntity
  8
CONTINUOUS1
100
AcDbPolyline
 90
        4
 70
     0
 43
0.0
 10
6.966346855236409
 20
9.060099229718446
 10
6.966346855236409
 20
9.115224229718442
 10
7.266384355236439
 20
9.115224229718442
 10
7.266384355236439
 20
9.060099229718446
  0
LWPOLYLINE
  5
92E
330
1F
100
AcDbEntity
  8
CONTINUOUS1
100
AcDbPolyline
 90
        2
 70
     0
 43
0.0
 10
4.585717080351244
 20
9.193630737017727
 10
4.585717080351244
 20
9.103411729718445
  0
LWPOLYLINE
  5
92F
330
1F
100
AcDbEntity
  8
CONTINUOUS1
100
AcDbPolyline
 90
        2
 70
     0
 43
0.0
 10
4.605395592111463
 20
9.193974229718442
 10
4.605395592111463
 20
9.103411729718445
  0
LWPOLYLINE
  5
930
330
1F
100
AcDbEntity
  8
CONTINUOUS1
100
AcDbPolyline
 90
       13
 70
     0
 43
0.0
 10
2.957374797378079
 20
7.908795746120176
 42
-0.412740197463161
 10
2.980425743645199
 20
7.895487307423493
 42
0.7907614618568865
 10
3.003396668587654
 20
7.896135061254284
 42
-0.4389252711599453
 10
3.022551977225319
 20
7.907538631807227
 42
0.8128514096706162
 10
3.036324682829175
 20
7.93295536643459
 42
-0.4730481067824947
 10
3.036324682829175
 20
7.950772272256017
 42
0.8355337561072399
 10
3.02179425812325
 20
7.975939706102224
 42
-0.4839690409828662
 10
3.006364366595974
 20
7.984848159012933
 42
0.8877121210452232
 10
2.977182461212933
 20
7.98405563960086
 42
-0.4989595277896093
 10
2.964474024957624
 20
7.977166113089694
 42
0.8212515915081706
 10
2.946863618983186
 20
7.95420908167177
 42
-0.3888694934763107
 10
2.945966603105844
 20
7.928555352875818
 42
0.7869771933146152
 10
2.956940633485956
 20
7.908675014623369
  0
LWPOLYLINE
  5
931
330
1F
100
AcDbEntity
  8
CONTINUOUS1
100
AcDbPolyline
 90
       11
 70
     1
 43
0.0
 10
7.970249362608299
 20
9.232662041214972
 42
-0.409110801427709
 10
7.930880359611435
 20
9.193974229718442
 10
2.973777334611455
 20
9.193974229718442
 42
0.4140447419629638
 10
2.89558509032652
 20
9.116598614093447
 10
2.89558509032652
 20
8.721474229718438
 42
0.4037021429513977
 10
2.969607049611468
 20
8.638786729718447
 10
8.715561660861411
 20
8.638786729718447
 42
0.3913320140611283
 10
8.78859989935502
 20
8.721474229718438
 10
8.788599883986492
 20
9.204223778468445
 42
0.3880926695009259
 10
8.721423358840254
 20
9.280746102267286
 42
0.0100170238166641
 10
7.970249374611469
 20
9.377174845356158
  0
LWPOLYLINE
  5
932
330
1F
100
AcDbEntity
  8
CONTINUOUS1
100
AcDbPolyline
 90
        4
 70
     1
 43
0.0
 10
8.5167374802365
 20
9.284099312843444
 10
8.620293730236497
 20
9.284099312843444
 10
8.620293730236497
 20
9.237286729718441
 10
8.5167374802365
 20
9.237286729718441
  0
LWPOLYLINE
  5
933
330
1F
100
AcDbEntity
  8
CONTINUOUS1
100
AcDbPolyline
 90
        4
 70
     1
 43
0.0
 10
8.116687480236421
 20
9.284097383468441
 10
8.220243730236418
 20
9.284097383468441
 10
8.220243730236418
 20
9.237286729718441
 10
8.116687480236421
 20
9.237286729718441
  0
LWPOLYLINE
  5
934
330
1F
100
AcDbEntity
  8
CONTINUOUS1
100
AcDbPolyline
 90
        6
 70
     0
 43
0.0
 10
2.702392825236486
 20
8.806964717843442
 10
2.707047462111475
 20
8.823567068468442
 10
2.719886862111437
 20
8.837670957218449
 10
2.738988028986469
 20
8.847004170968446
 10
2.76144634773648
 20
8.850153934718441
 10
2.89558509032652
 20
8.850153934718441
  0
LINE
  5
935
330
1F
100
AcDbEntity
  8
CONTINUOUS1
100
AcDbLine
 10
2.76144634773648
 20
8.806964717843442
 30
0.0
 11
2.76144634773648
 21
8.850153934718441
 31
0.0
  0
LINE
  5
936
330
1F
100
AcDbEntity
  8
CONTINUOUS1
100
AcDbLine
 10
2.702392850524191
 20
8.806964717843442
 30
0.0
 11
2.895585090326576
 21
8.806964717843442
 31
0.0
  0
LWPOLYLINE
  5
937
330
1F
100
AcDbEntity
  8
CONTINUOUS1
100
AcDbPolyline
 90
        6
 70
     0
 43
0.0
 10
2.707669508361462
 20
9.109263563468445
 10
2.712384113361466
 20
9.125971399718444
 10
2.725236034611455
 20
9.140022880343444
 10
2.744300622111452
 20
9.149313805343446
 10
2.766722991486474
 20
9.152452780343445
 10
2.904562603243974
 20
9.152452780343445
  0
LINE
  5
938
330
1F
100
AcDbEntity
  8
CONTINUOUS1
100
AcDbLine
 10
2.767743237111474
 20
9.167712994718442
 30
0.0
 11
2.767743237111474
 21
9.152452780343445
 31
0.0
  0
LINE
  5
939
330
1F
100
AcDbEntity
  8
CONTINUOUS1
100
AcDbLine
 10
2.708689735298847
 20
9.167712994718442
 30
0.0
 11
2.915106812609636
 21
9.167712994718442
 31
0.0
  0
LWPOLYLINE
  5
93A
330
1F
100
AcDbEntity
  8
CONTINUOUS1
100
AcDbPolyline
 90
        4
 70
     1
 43
0.0
 10
2.735058167736454
 20
8.319109412843445
 42
-0.0796059750161268
 10
8.950110542736481
 20
8.319109412843445
 10
8.950110542736481
 20
3.960879347843444
 10
2.735058167736454
 20
3.960879347843444
  0
LWPOLYLINE
  5
93B
330
1F
100
AcDbEntity
  8
CONTINUOUS1
100
AcDbPolyline
 90
        4
 70
     1
 43
0.0
 10
5.785490605236489
 20
3.144005479718444
 42
0.9999999999999998
 10
5.899678105236446
 20
3.144005479718444
 10
5.899678105236446
 20
3.62044297971844
 42
0.9999999999999998
 10
5.785490605236489
 20
3.62044297971844
  0
LWPOLYLINE
  5
93C
330
1F
100
AcDbEntity
  8
CONTINUOUS1
100
AcDbPolyline
 90
        4
 70
     1
 43
0.0
 10
3.619865605236455
 20
3.144005479718444
 42
0.9999999999999998
 10
3.734053105236469
 20
3.144005479718444
 10
3.734053105236469
 20
3.62044297971844
 42
0.9999999999999998
 10
3.619865605236455
 20
3.62044297971844
  0
LWPOLYLINE
  5
93D
330
1F
100
AcDbEntity
  8
CONTINUOUS1
100
AcDbPolyline
 90
        4
 70
     1
 43
0.0
 10
3.816740605236432
 20
3.144005479718444
 42
0.9999999999999998
 10
3.930928105236446
 20
3.144005479718444
 10
3.930928105236446
 20
3.62044297971844
 42
0.9999999999999998
 10
3.816740605236432
 20
3.62044297971844
  0
LWPOLYLINE
  5
93E
330
1F
100
AcDbEntity
  8
CONTINUOUS1
100
AcDbPolyline
 90
        4
 70
     1
 43
0.0
 10
4.013615605236466
 20
3.144005479718444
 42
0.9999999999999998
 10
4.12780310523648
 20
3.144005479718444
 10
4.12780310523648
 20
3.62044297971844
 42
0.9999999999999998
 10
4.013615605236466
 20
3.62044297971844
  0
LWPOLYLINE
  5
93F
330
1F
100
AcDbEntity
  8
CONTINUOUS1
100
AcDbPolyline
 90
        4
 70
     1
 43
0.0
 10
4.210490605236444
 20
3.144005479718444
 42
0.9999999999999998
 10
4.324678105236458
 20
3.144005479718444
 10
4.324678105236458
 20
3.62044297971844
 42
0.9999999999999998
 10
4.210490605236444
 20
3.62044297971844
  0
LWPOLYLINE
  5
940
330
1F
100
AcDbEntity
  8
CONTINUOUS1
100
AcDbPolyline
 90
        4
 70
     1
 43
0.0
 10
4.407365605236478
 20
3.144005479718444
 42
0.9999999999999998
 10
4.521553105236435
 20
3.144005479718444
 10
4.521553105236435
 20
3.62044297971844
 42
0.9999999999999998
 10
4.407365605236478
 20
3.62044297971844
  0
LWPOLYLINE
  5
941
330
1F
100
AcDbEntity
  8
CONTINUOUS1
100
AcDbPolyline
 90
        4
 70
     1
 43
0.0
 10
4.604240605236455
 20
3.144005479718444
 42
0.9999999999999998
 10
4.718428105236469
 20
3.144005479718444
 10
4.718428105236469
 20
3.62044297971844
 42
0.9999999999999998
 10
4.604240605236455
 20
3.62044297971844
  0
LWPOLYLINE
  5
942
330
1F
100
AcDbEntity
  8
CONTINUOUS1
100
AcDbPolyline
 90
        4
 70
     1
 43
0.0
 10
4.801115605236432
 20
3.144005479718444
 42
0.9999999999999998
 10
4.915303105236446
 20
3.144005479718444
 10
4.915303105236446
 20
3.62044297971844
 42
0.9999999999999998
 10
4.801115605236432
 20
3.62044297971844
  0
LWPOLYLINE
  5
943
330
1F
100
AcDbEntity
  8
CONTINUOUS1
100
AcDbPolyline
 90
        4
 70
     1
 43
0.0
 10
4.997990605236466
 20
3.144005479718444
 42
0.9999999999999998
 10
5.112178105236424
 20
3.144005479718444
 10
5.112178105236424
 20
3.62044297971844
 42
0.9999999999999998
 10
4.997990605236466
 20
3.62044297971844
  0
LWPOLYLINE
  5
944
330
1F
100
AcDbEntity
  8
CONTINUOUS1
100
AcDbPolyline
 90
        4
 70
     1
 43
0.0
 10
5.194865605236444
 20
3.144005479718444
 42
0.9999999999999998
 10
5.309053105236401
 20
3.144005479718444
 10
5.309053105236401
 20
3.62044297971844
 42
0.9999999999999998
 10
5.194865605236444
 20
3.62044297971844
  0
LWPOLYLINE
  5
945
330
1F
100
AcDbEntity
  8
CONTINUOUS1
100
AcDbPolyline
 90
        4
 70
     1
 43
0.0
 10
6.376115605236421
 20
3.144005479718444
 42
0.9999999999999998
 10
6.490303105236492
 20
3.144005479718444
 10
6.490303105236492
 20
3.62044297971844
 42
0.9999999999999998
 10
6.376115605236421
 20
3.62044297971844
  0
LWPOLYLINE
  5
946
330
1F
100
AcDbEntity
  8
CONTINUOUS1
100
AcDbPolyline
 90
        4
 70
     1
 43
0.0
 10
6.572990605236512
 20
3.144005479718444
 42
0.9999999999999998
 10
6.687178105236469
 20
3.144005479718444
 10
6.687178105236469
 20
3.62044297971844
 42
0.9999999999999998
 10
6.572990605236512
 20
3.62044297971844
  0
LWPOLYLINE
  5
947
330
1F
100
AcDbEntity
  8
CONTINUOUS1
100
AcDbPolyline
 90
        4
 70
     1
 43
0.0
 10
6.769865605236489
 20
3.144005479718444
 42
0.9999999999999998
 10
6.884053105236446
 20
3.144005479718444
 10
6.884053105236446
 20
3.62044297971844
 42
0.9999999999999998
 10
6.769865605236489
 20
3.62044297971844
  0
LWPOLYLINE
  5
948
330
1F
100
AcDbEntity
  8
CONTINUOUS1
100
AcDbPolyline
 90
        4
 70
     1
 43
0.0
 10
6.966740605236466
 20
3.144005479718444
 42
0.9999999999999998
 10
7.080928105236424
 20
3.144005479718444
 10
7.080928105236424
 20
3.62044297971844
 42
0.9999999999999998
 10
6.966740605236466
 20
3.62044297971844
  0
LWPOLYLINE
  5
949
330
1F
100
AcDbEntity
  8
CONTINUOUS1
100
AcDbPolyline
 90
        4
 70
     1
 43
0.0
 10
7.163615605236444
 20
3.144005479718444
 42
0.9999999999999998
 10
7.277803105236401
 20
3.144005479718444
 10
7.277803105236401
 20
3.62044297971844
 42
0.9999999999999998
 10
7.163615605236444
 20
3.62044297971844
  0
LWPOLYLINE
  5
94A
330
1F
100
AcDbEntity
  8
CONTINUOUS1
100
AcDbPolyline
 90
        4
 70
     1
 43
0.0
 10
7.360490605236421
 20
3.144005479718444
 42
0.9999999999999998
 10
7.474678105236492
 20
3.144005479718444
 10
7.474678105236492
 20
3.62044297971844
 42
0.9999999999999998
 10
7.360490605236421
 20
3.62044297971844
  0
LWPOLYLINE
  5
94B
330
1F
100
AcDbEntity
  8
CONTINUOUS1
100
AcDbPolyline
 90
        4
 70
     1
 43
0.0
 10
7.557365605236512
 20
3.144005479718444
 42
0.9999999999999998
 10
7.671553105236469
 20
3.144005479718444
 10
7.671553105236469
 20
3.62044297971844
 42
0.9999999999999998
 10
7.557365605236512
 20
3.62044297971844
  0
LWPOLYLINE
  5
94C
330
1F
100
AcDbEntity
  8
CONTINUOUS1
100
AcDbPolyline
 90
        4
 70
     1
 43
0.0
 10
7.754240605236489
 20
3.144005479718444
 42
0.9999999999999998
 10
7.868428105236446
 20
3.144005479718444
 10
7.868428105236446
 20
3.62044297971844
 42
0.9999999999999998
 10
7.754240605236489
 20
3.62044297971844
  0
LWPOLYLINE
  5
94D
330
1F
100
AcDbEntity
  8
CONTINUOUS1
100
AcDbPolyline
 90
        4
 70
     1
 43
0.0
 10
7.951115605236466
 20
3.144005479718444
 42
0.9999999999999998
 10
8.065303105236424
 20
3.144005479718444
 10
8.065303105236424
 20
3.62044297971844
 42
0.9999999999999998
 10
7.951115605236466
 20
3.62044297971844
  0
LWPOLYLINE
  5
94E
330
1F
100
AcDbEntity
  8
CONTINUOUS1
100
AcDbPolyline
 90
        4
 70
     1
 43
0.0
 10
7.951115605236466
 20
2.395880479718442
 42
0.9999999999999998
 10
8.065303105236424
 20
2.395880479718442
 10
8.065303105236424
 20
2.872317979718442
 42
0.9999999999999998
 10
7.951115605236466
 20
2.872317979718442
  0
LWPOLYLINE
  5
94F
330
1F
100
AcDbEntity
  8
CONTINUOUS1
100
AcDbPolyline
 90
        4
 70
     1
 43
0.0
 10
7.754240605236489
 20
2.395880479718442
 42
0.9999999999999998
 10
7.868428105236446
 20
2.395880479718442
 10
7.868428105236446
 20
2.872317979718442
 42
0.9999999999999998
 10
7.754240605236489
 20
2.872317979718442
  0
LWPOLYLINE
  5
950
330
1F
100
AcDbEntity
  8
CONTINUOUS1
100
AcDbPolyline
 90
        4
 70
     1
 43
0.0
 10
6.966740605236466
 20
2.395880479718442
 42
0.9999999999999998
 10
7.080928105236424
 20
2.395880479718442
 10
7.080928105236424
 20
2.872317979718442
 42
0.9999999999999998
 10
6.966740605236466
 20
2.872317979718442
  0
LWPOLYLINE
  5
951
330
1F
100
AcDbEntity
  8
CONTINUOUS1
100
AcDbPolyline
 90
        4
 70
     1
 43
0.0
 10
6.769865605236489
 20
2.395880479718442
 42
0.9999999999999998
 10
6.884053105236446
 20
2.395880479718442
 10
6.884053105236446
 20
2.872317979718442
 42
0.9999999999999998
 10
6.769865605236489
 20
2.872317979718442
  0
LWPOLYLINE
  5
952
330
1F
100
AcDbEntity
  8
CONTINUOUS1
100
AcDbPolyline
 90
        4
 70
     1
 43
0.0
 10
6.572990605236512
 20
2.395880479718442
 42
0.9999999999999998
 10
6.687178105236469
 20
2.395880479718442
 10
6.687178105236469
 20
2.872317979718442
 42
0.9999999999999998
 10
6.572990605236512
 20
2.872317979718442
  0
LWPOLYLINE
  5
953
330
1F
100
AcDbEntity
  8
CONTINUOUS1
100
AcDbPolyline
 90
        4
 70
     1
 43
0.0
 10
6.376115605236421
 20
2.395880479718442
 42
0.9999999999999998
 10
6.490303105236492
 20
2.395880479718442
 10
6.490303105236492
 20
2.872317979718442
 42
0.9999999999999998
 10
6.376115605236421
 20
2.872317979718442
  0
LWPOLYLINE
  5
954
330
1F
100
AcDbEntity
  8
CONTINUOUS1
100
AcDbPolyline
 90
        4
 70
     1
 43
0.0
 10
6.179240605236444
 20
2.395880479718442
 42
0.9999999999999998
 10
6.293428105236401
 20
2.395880479718442
 10
6.293428105236401
 20
2.872317979718442
 42
0.9999999999999998
 10
6.179240605236444
 20
2.872317979718442
  0
LWPOLYLINE
  5
955
330
1F
100
AcDbEntity
  8
CONTINUOUS1
100
AcDbPolyline
 90
        4
 70
     1
 43
0.0
 10
5.391740605236421
 20
2.395880479718442
 42
0.9999999999999998
 10
5.505928105236492
 20
2.395880479718442
 10
5.505928105236492
 20
2.872317979718442
 42
0.9999999999999998
 10
5.391740605236421
 20
2.872317979718442
  0
LWPOLYLINE
  5
956
330
1F
100
AcDbEntity
  8
CONTINUOUS1
100
AcDbPolyline
 90
        4
 70
     1
 43
0.0
 10
5.194865605236444
 20
2.395880479718442
 42
0.9999999999999998
 10
5.309053105236401
 20
2.395880479718442
 10
5.309053105236401
 20
2.872317979718442
 42
0.9999999999999998
 10
5.194865605236444
 20
2.872317979718442
  0
LWPOLYLINE
  5
957
330
1F
100
AcDbEntity
  8
CONTINUOUS1
100
AcDbPolyline
 90
        4
 70
     1
 43
0.0
 10
4.997990605236466
 20
2.395880479718442
 42
0.9999999999999998
 10
5.112178105236424
 20
2.395880479718442
 10
5.112178105236424
 20
2.872317979718442
 42
0.9999999999999998
 10
4.997990605236466
 20
2.872317979718442
  0
LWPOLYLINE
  5
958
330
1F
100
AcDbEntity
  8
CONTINUOUS1
100
AcDbPolyline
 90
        4
 70
     1
 43
0.0
 10
4.801115605236432
 20
2.395880479718442
 42
0.9999999999999998
 10
4.915303105236446
 20
2.395880479718442
 10
4.915303105236446
 20
2.872317979718442
 42
0.9999999999999998
 10
4.801115605236432
 20
2.872317979718442
  0
LWPOLYLINE
  5
959
330
1F
100
AcDbEntity
  8
CONTINUOUS1
100
AcDbPolyline
 90
        4
 70
     1
 43
0.0
 10
4.604240605236455
 20
2.395880479718442
 42
0.9999999999999998
 10
4.718428105236469
 20
2.395880479718442
 10
4.718428105236469
 20
2.872317979718442
 42
0.9999999999999998
 10
4.604240605236455
 20
2.872317979718442
  0
LWPOLYLINE
  5
95A
330
1F
100
AcDbEntity
  8
CONTINUOUS1
100
AcDbPolyline
 90
        4
 70
     1
 43
0.0
 10
3.816740605236432
 20
2.395880479718442
 42
0.9999999999999998
 10
3.930928105236446
 20
2.395880479718442
 10
3.930928105236446
 20
2.872317979718442
 42
0.9999999999999998
 10
3.816740605236432
 20
2.872317979718442
  0
LWPOLYLINE
  5
95B
330
1F
100
AcDbEntity
  8
CONTINUOUS1
100
AcDbPolyline
 90
        4
 70
     1
 43
0.0
 10
3.619865605236455
 20
2.395880479718442
 42
0.9999999999999998
 10
3.734053105236469
 20
2.395880479718442
 10
3.734053105236469
 20
2.872317979718442
 42
0.9999999999999998
 10
3.619865605236455
 20
2.872317979718442
  0
LWPOLYLINE
  5
95C
330
1F
100
AcDbEntity
  8
CONTINUOUS1
100
AcDbPolyline
 90
        4
 70
     1
 43
0.0
 10
4.600303105236449
 20
6.38456797971844
 42
0.9999999999999998
 10
4.714490605236463
 20
6.38456797971844
 10
4.714490605236463
 20
6.861005479718443
 42
1.206896551724125
 10
4.600303105236449
 20
6.861005479718443
  0
LWPOLYLINE
  5
95D
330
1F
100
AcDbEntity
  8
CONTINUOUS1
100
AcDbPolyline
 90
        4
 70
     1
 43
0.0
 10
4.245928105236444
 20
6.38456797971844
 42
0.9999999999999998
 10
4.360115605236458
 20
6.38456797971844
 10
4.360115605236458
 20
6.861005479718443
 42
1.206896551724125
 10
4.245928105236444
 20
6.861005479718443
  0
LWPOLYLINE
  5
95E
330
1F
100
AcDbEntity
  8
CONTINUOUS1
100
AcDbPolyline
 90
        4
 70
     1
 43
0.0
 10
4.017553105236473
 20
6.38456797971844
 42
0.9999999999999998
 10
4.131740605236487
 20
6.38456797971844
 10
4.131740605236487
 20
6.861005479718443
 42
1.206896551724125
 10
4.017553105236473
 20
6.861005479718443
  0
LWPOLYLINE
  5
95F
330
1F
100
AcDbEntity
  8
CONTINUOUS1
100
AcDbPolyline
 90
        4
 70
     1
 43
0.0
 10
5.671303105236418
 20
6.38456797971844
 42
0.9999999999999998
 10
5.785490605236489
 20
6.38456797971844
 10
5.785490605236489
 20
6.861005479718443
 42
1.206896551724125
 10
5.671303105236418
 20
6.861005479718443
  0
LWPOLYLINE
  5
960
330
1F
100
AcDbEntity
  8
CONTINUOUS1
100
AcDbPolyline
 90
        4
 70
     1
 43
0.0
 10
5.899678105236446
 20
6.38456797971844
 42
0.9999999999999998
 10
6.013865605236517
 20
6.38456797971844
 10
6.013865605236517
 20
6.861005479718443
 42
1.206896551724125
 10
5.899678105236446
 20
6.861005479718443
  0
LWPOLYLINE
  5
961
330
1F
100
AcDbEntity
  8
CONTINUOUS1
100
AcDbPolyline
 90
        4
 70
     1
 43
0.0
 10
6.254053105236451
 20
6.38456797971844
 42
0.9999999999999998
 10
6.368240605236408
 20
6.38456797971844
 10
6.368240605236408
 20
6.861005479718443
 42
1.206896551724125
 10
6.254053105236451
 20
6.861005479718443
  0
LWPOLYLINE
  5
962
330
1F
100
AcDbEntity
  8
CONTINUOUS1
100
AcDbPolyline
 90
        4
 70
     1
 43
0.0
 10
7.325053105236477
 20
6.38456797971844
 42
0.9999999999999998
 10
7.439240605236435
 20
6.38456797971844
 10
7.439240605236435
 20
6.861005479718443
 42
1.206896551724125
 10
7.325053105236477
 20
6.861005479718443
  0
LWPOLYLINE
  5
963
330
1F
100
AcDbEntity
  8
CONTINUOUS1
100
AcDbPolyline
 90
        4
 70
     1
 43
0.0
 10
7.553428105236505
 20
6.38456797971844
 42
0.9999999999999998
 10
7.667615605236463
 20
6.38456797971844
 10
7.667615605236463
 20
6.861005479718443
 42
1.206896551724125
 10
7.553428105236505
 20
6.861005479718443
  0
LWPOLYLINE
  5
964
330
1F
100
AcDbEntity
  8
CONTINUOUS1
100
AcDbPolyline
 90
        4
 70
     1
 43
0.0
 10
8.238553105236476
 20
6.38456797971844
 42
0.9999999999999998
 10
8.352740605236434
 20
6.38456797971844
 10
8.352740605236434
 20
6.861005479718443
 42
1.206896551724125
 10
8.238553105236476
 20
6.861005479718443
  0
LWPOLYLINE
  5
965
330
1F
100
AcDbEntity
  8
CONTINUOUS1
100
AcDbPolyline
 90
        4
 70
     1
 43
0.0
 10
8.238553105236476
 20
7.183880479718439
 42
0.9999999999999998
 10
8.352740605236434
 20
7.183880479718439
 10
8.352740605236434
 20
7.660317979718442
 42
1.137931034482781
 10
8.238553105236476
 20
7.660317979718442
  0
LWPOLYLINE
  5
966
330
1F
100
AcDbEntity
  8
CONTINUOUS1
100
AcDbPolyline
 90
        4
 70
     1
 43
0.0
 10
7.78180310523642
 20
7.183880479718439
 42
0.9999999999999998
 10
7.895990605236491
 20
7.183880479718439
 10
7.895990605236491
 20
7.660317979718442
 42
1.137931034482781
 10
7.78180310523642
 20
7.660317979718442
  0
LWPOLYLINE
  5
967
330
1F
100
AcDbEntity
  8
CONTINUOUS1
100
AcDbPolyline
 90
        4
 70
     1
 43
0.0
 10
7.553428105236505
 20
7.183880479718439
 42
0.9999999999999998
 10
7.667615605236463
 20
7.183880479718439
 10
7.667615605236463
 20
7.660317979718442
 42
1.137931034482781
 10
7.553428105236505
 20
7.660317979718442
  0
LWPOLYLINE
  5
968
330
1F
100
AcDbEntity
  8
CONTINUOUS1
100
AcDbPolyline
 90
        4
 70
     1
 43
0.0
 10
7.325053105236477
 20
7.183880479718439
 42
0.9999999999999998
 10
7.439240605236435
 20
7.183880479718439
 10
7.439240605236435
 20
7.660317979718442
 42
1.137931034482781
 10
7.325053105236477
 20
7.660317979718442
  0
LWPOLYLINE
  5
969
330
1F
100
AcDbEntity
  8
CONTINUOUS1
100
AcDbPolyline
 90
        4
 70
     1
 43
0.0
 10
7.08486560523643
 20
7.183880479718439
 42
0.9999999999999998
 10
7.199053105236501
 20
7.183880479718439
 10
7.199053105236501
 20
7.660317979718442
 42
1.137931034482781
 10
7.08486560523643
 20
7.660317979718442
  0
LWPOLYLINE
  5
96A
330
1F
100
AcDbEntity
  8
CONTINUOUS1
100
AcDbPolyline
 90
        4
 70
     1
 43
0.0
 10
6.846253105236499
 20
7.183880479718439
 42
0.9999999999999998
 10
6.960440605236456
 20
7.183880479718439
 10
6.960440605236456
 20
7.660317979718442
 42
1.137931034482781
 10
6.846253105236499
 20
7.660317979718442
  0
LWPOLYLINE
  5
96B
330
1F
100
AcDbEntity
  8
CONTINUOUS1
100
AcDbPolyline
 90
        4
 70
     1
 43
0.0
 10
6.617878105236471
 20
7.183880479718439
 42
0.9999999999999998
 10
6.732065605236428
 20
7.183880479718439
 10
6.732065605236428
 20
7.660317979718442
 42
1.137931034482781
 10
6.617878105236471
 20
7.660317979718442
  0
LWPOLYLINE
  5
96C
330
1F
100
AcDbEntity
  8
CONTINUOUS1
100
AcDbPolyline
 90
        4
 70
     1
 43
0.0
 10
6.377690605236423
 20
7.183880479718439
 42
0.9999999999999998
 10
6.491878105236494
 20
7.183880479718439
 10
6.491878105236494
 20
7.660317979718442
 42
1.137931034482781
 10
6.377690605236423
 20
7.660317979718442
  0
LWPOLYLINE
  5
96D
330
1F
100
AcDbEntity
  8
CONTINUOUS1
100
AcDbPolyline
 90
        4
 70
     1
 43
0.0
 10
6.149315605236509
 20
7.183880479718439
 42
0.9999999999999998
 10
6.263503105236466
 20
7.183880479718439
 10
6.263503105236466
 20
7.660317979718442
 42
1.137931034482781
 10
6.149315605236509
 20
7.660317979718442
  0
LWPOLYLINE
  5
96E
330
1F
100
AcDbEntity
  8
CONTINUOUS1
100
AcDbPolyline
 90
        4
 70
     1
 43
0.0
 10
5.899678105236446
 20
7.183880479718439
 42
0.9999999999999998
 10
6.013865605236517
 20
7.183880479718439
 10
6.013865605236517
 20
7.660317979718442
 42
1.137931034482781
 10
5.899678105236446
 20
7.660317979718442
  0
LWPOLYLINE
  5
96F
330
1F
100
AcDbEntity
  8
CONTINUOUS1
100
AcDbPolyline
 90
        4
 70
     1
 43
0.0
 10
5.672893759767319
 20
7.183902642153121
 42
0.9999999999999998
 10
5.78708125976739
 20
7.183902642153121
 10
5.78708125976739
 20
7.660340142153124
 42
1.137031223536347
 10
5.672893759767319
 20
7.660340142153124
  0
LWPOLYLINE
  5
970
330
1F
100
AcDbEntity
  8
CONTINUOUS1
100
AcDbPolyline
 90
        4
 70
     1
 43
0.0
 10
5.442928105236504
 20
7.183880479718439
 42
0.9999999999999998
 10
5.557115605236461
 20
7.183880479718439
 10
5.557115605236461
 20
7.66819297971844
 42
0.9999999999999998
 10
5.442928105236504
 20
7.66819297971844
  0
LWPOLYLINE
  5
971
330
1F
100
AcDbEntity
  8
CONTINUOUS1
100
AcDbPolyline
 90
        4
 70
     1
 43
0.0
 10
5.19250310523644
 20
7.183880479718439
 42
0.9999999999999998
 10
5.306690605236511
 20
7.183880479718439
 10
5.306690605236511
 20
7.66819297971844
 42
0.9999999999999998
 10
5.19250310523644
 20
7.66819297971844
  0
LWPOLYLINE
  5
972
330
1F
100
AcDbEntity
  8
CONTINUOUS1
100
AcDbPolyline
 90
        4
 70
     1
 43
0.0
 10
4.964128105236412
 20
7.183880479718439
 42
0.9999999999999998
 10
5.078315605236483
 20
7.183880479718439
 10
5.078315605236483
 20
7.66819297971844
 42
0.9999999999999998
 10
4.964128105236412
 20
7.66819297971844
  0
LWPOLYLINE
  5
973
330
1F
100
AcDbEntity
  8
CONTINUOUS1
100
AcDbPolyline
 90
        4
 70
     1
 43
0.0
 10
4.723940605236478
 20
7.183880479718439
 42
0.9999999999999998
 10
4.838128105236435
 20
7.183880479718439
 10
4.838128105236435
 20
7.66819297971844
 42
0.9999999999999998
 10
4.723940605236478
 20
7.66819297971844
  0
LWPOLYLINE
  5
974
330
1F
100
AcDbEntity
  8
CONTINUOUS1
100
AcDbPolyline
 90
        4
 70
     1
 43
0.0
 10
4.49556560523645
 20
7.183880479718439
 42
0.9999999999999998
 10
4.609753105236464
 20
7.183880479718439
 10
4.609753105236464
 20
7.66819297971844
 42
0.9999999999999998
 10
4.49556560523645
 20
7.66819297971844
  0
LWPOLYLINE
  5
975
330
1F
100
AcDbEntity
  8
CONTINUOUS1
100
AcDbPolyline
 90
        4
 70
     1
 43
0.0
 10
4.245928105236444
 20
7.183880479718439
 42
0.9999999999999998
 10
4.360115605236458
 20
7.183880479718439
 10
4.360115605236458
 20
7.660317979718442
 42
1.137931034482781
 10
4.245928105236444
 20
7.660317979718442
  0
LWPOLYLINE
  5
976
330
1F
100
AcDbEntity
  8
CONTINUOUS1
100
AcDbPolyline
 90
        4
 70
     1
 43
0.0
 10
4.017553105236473
 20
7.183880479718439
 42
0.9999999999999998
 10
4.131740605236487
 20
7.183880479718439
 10
4.131740605236487
 20
7.660317979718442
 42
1.137931034482781
 10
4.017553105236473
 20
7.660317979718442
  0
LWPOLYLINE
  5
977
330
1F
100
AcDbEntity
  8
CONTINUOUS1
100
AcDbPolyline
 90
        4
 70
     1
 43
0.0
 10
3.789178105236445
 20
7.183880479718439
 42
0.9999999999999998
 10
3.903365605236459
 20
7.183880479718439
 10
3.903365605236459
 20
7.660317979718442
 42
1.137931034482781
 10
3.789178105236445
 20
7.660317979718442
  0
LWPOLYLINE
  5
978
330
1F
100
AcDbEntity
  8
CONTINUOUS1
100
AcDbPolyline
 90
        4
 70
     1
 43
0.0
 10
3.538753105236438
 20
7.183880479718439
 42
0.9999999999999998
 10
3.652940605236452
 20
7.183880479718439
 10
3.652940605236452
 20
7.660317979718442
 42
1.137931034482781
 10
3.538753105236438
 20
7.660317979718442
  0
LWPOLYLINE
  5
979
330
1F
100
AcDbEntity
  8
CONTINUOUS1
100
AcDbPolyline
 90
        4
 70
     1
 43
0.0
 10
3.310378105236466
 20
7.183880479718439
 42
0.9999999999999998
 10
3.42456560523648
 20
7.183880479718439
 10
3.42456560523648
 20
7.660317979718442
 42
1.057409733325782
 10
3.310378105236466
 20
7.660317979718442
  0
LWPOLYLINE
  5
97A
330
1F
100
AcDbEntity
  8
CONTINUOUS1
100
AcDbPolyline
 90
        4
 70
     1
 43
0.0
 10
5.442928105236504
 20
7.979255479718446
 42
0.9999999999999998
 10
5.557115605236461
 20
7.979255479718446
 10
5.557115605236461
 20
8.455692979718442
 42
0.9070310344827419
 10
5.442928105236504
 20
8.455692979718442
  0
LWPOLYLINE
  5
97B
330
1F
100
AcDbEntity
  8
CONTINUOUS1
100
AcDbPolyline
 90
        4
 70
     1
 43
0.0
 10
5.672635312843411
 20
7.979271024491275
 42
0.9999999999999998
 10
5.786822812843368
 20
7.979271024491275
 10
5.786822812843368
 20
8.455708524491278
 42
0.9532839144159366
 10
5.672635312843411
 20
8.455708524491278
  0
LWPOLYLINE
  5
97C
330
1F
100
AcDbEntity
  8
CONTINUOUS1
100
AcDbPolyline
 90
        4
 70
     1
 43
0.0
 10
5.899678105236446
 20
7.979255479718446
 42
0.9999999999999998
 10
6.013865605236517
 20
7.979255479718446
 10
6.013865605236517
 20
8.455692979718442
 42
0.9538041379310062
 10
5.899678105236446
 20
8.455692979718442
  0
LWPOLYLINE
  5
97D
330
1F
100
AcDbEntity
  8
CONTINUOUS1
100
AcDbPolyline
 90
        4
 70
     1
 43
0.0
 10
6.149315605236509
 20
7.973562957218447
 42
0.9002951724137734
 10
6.263503105236466
 20
7.973562957218447
 10
6.263503105236466
 20
8.450000457218443
 42
0.9999999999999998
 10
6.149315605236509
 20
8.450000457218443
  0
LWPOLYLINE
  5
97E
330
1F
100
AcDbEntity
  8
CONTINUOUS1
100
AcDbPolyline
 90
        4
 70
     1
 43
0.0
 10
6.377690605236423
 20
7.979255479718446
 42
0.9999999999999998
 10
6.491878105236494
 20
7.979255479718446
 10
6.491878105236494
 20
8.455692979718442
 42
0.8023710344827618
 10
6.377690605236423
 20
8.455692979718442
  0
LWPOLYLINE
  5
97F
330
1F
100
AcDbEntity
  8
CONTINUOUS1
100
AcDbPolyline
 90
        4
 70
     1
 43
0.0
 10
8.238553105236476
 20
6.073505479718441
 10
8.238553105236476
 20
5.62463047971844
 42
0.9999999999999998
 10
8.352740605236434
 20
5.62463047971844
 10
8.352740605236434
 20
6.073505479718441
 42
0.9999999999999998
  0
LWPOLYLINE
  5
980
330
1F
100
AcDbEntity
  8
CONTINUOUS1
100
AcDbPolyline
 90
        4
 70
     1
 43
0.0
 10
8.010178105236448
 20
6.073505479718441
 10
8.010178105236448
 20
5.62463047971844
 42
0.9999999999999998
 10
8.124365605236405
 20
5.62463047971844
 10
8.124365605236405
 20
6.073505479718441
 42
0.9999999999999998
  0
LWPOLYLINE
  5
981
330
1F
100
AcDbEntity
  8
CONTINUOUS1
100
AcDbPolyline
 90
        4
 70
     1
 43
0.0
 10
6.254053105236451
 20
6.073505479718441
 10
6.254053105236451
 20
5.62463047971844
 42
0.9999999999999998
 10
6.368240605236408
 20
5.62463047971844
 10
6.368240605236408
 20
6.073505479718441
 42
0.9999999999999998
  0
LWPOLYLINE
  5
982
330
1F
100
AcDbEntity
  8
CONTINUOUS1
100
AcDbPolyline
 90
        4
 70
     1
 43
0.0
 10
4.600303105236449
 20
6.073505479718441
 10
4.600303105236449
 20
5.62463047971844
 42
0.9999999999999998
 10
4.714490605236463
 20
5.62463047971844
 10
4.714490605236463
 20
6.073505479718441
 42
0.9999999999999998
  0
LWPOLYLINE
  5
983
330
1F
100
AcDbEntity
  8
CONTINUOUS1
100
AcDbPolyline
 90
        4
 70
     1
 43
0.0
 10
4.723940605236478
 20
8.428130479718447
 10
4.723940605236478
 20
7.979255479718446
 42
0.9999999999999998
 10
4.838128105236435
 20
7.979255479718446
 10
4.838128105236435
 20
8.428130479718447
 42
0.936773793103438
  0
LWPOLYLINE
  5
984
330
1F
100
AcDbEntity
  8
CONTINUOUS1
100
AcDbPolyline
 90
        4
 70
     1
 43
0.0
 10
6.846253105236499
 20
8.428130479718447
 10
6.846253105236499
 20
7.979255479718446
 42
0.9999999999999998
 10
6.960440605236456
 20
7.979255479718446
 10
6.960440605236456
 20
8.428130479718447
 42
0.9375241379310558
  0
LWPOLYLINE
  5
985
330
1F
100
AcDbEntity
  8
CONTINUOUS1
100
AcDbPolyline
 90
        4
 70
     1
 43
0.0
 10
5.391740605236421
 20
3.144005479718444
 42
0.9999999999999998
 10
5.505928105236492
 20
3.144005479718444
 10
5.505928105236492
 20
3.325130479718438
 42
0.9999999999999998
 10
5.391740605236421
 20
3.325130479718438
  0
LWPOLYLINE
  5
986
330
1F
100
AcDbEntity
  8
CONTINUOUS1
100
AcDbPolyline
 90
        4
 70
     1
 43
0.0
 10
5.588615605236512
 20
3.144005479718444
 42
0.9999999999999998
 10
5.702803105236469
 20
3.144005479718444
 10
5.702803105236469
 20
3.325130479718438
 42
0.9999999999999998
 10
5.588615605236512
 20
3.325130479718438
  0
LWPOLYLINE
  5
987
330
1F
100
AcDbEntity
  8
CONTINUOUS1
100
AcDbPolyline
 90
        4
 70
     1
 43
0.0
 10
5.982365605236466
 20
3.144005479718444
 42
0.9999999999999998
 10
6.096553105236424
 20
3.144005479718444
 10
6.096553105236424
 20
3.325130479718438
 42
0.9999999999999998
 10
5.982365605236466
 20
3.325130479718438
  0
LWPOLYLINE
  5
988
330
1F
100
AcDbEntity
  8
CONTINUOUS1
100
AcDbPolyline
 90
        4
 70
     1
 43
0.0
 10
6.179240605236444
 20
3.144005479718444
 42
0.9999999999999998
 10
6.293428105236401
 20
3.144005479718444
 10
6.293428105236401
 20
3.325130479718438
 42
0.9999999999999998
 10
6.179240605236444
 20
3.325130479718438
  0
LWPOLYLINE
  5
989
330
1F
100
AcDbEntity
  8
CONTINUOUS1
100
AcDbPolyline
 90
        4
 70
     1
 43
0.0
 10
7.557365605236512
 20
2.691192979718444
 42
0.9999999999999998
 10
7.671553105236469
 20
2.691192979718444
 10
7.671553105236469
 20
2.872317979718442
 42
0.9999999999999998
 10
7.557365605236512
 20
2.872317979718442
  0
LWPOLYLINE
  5
98A
330
1F
100
AcDbEntity
  8
CONTINUOUS1
100
AcDbPolyline
 90
        4
 70
     1
 43
0.0
 10
7.360490605236421
 20
2.691192979718444
 42
0.9999999999999998
 10
7.474678105236492
 20
2.691192979718444
 10
7.474678105236492
 20
2.872317979718442
 42
0.9999999999999998
 10
7.360490605236421
 20
2.872317979718442
  0
LWPOLYLINE
  5
98B
330
1F
100
AcDbEntity
  8
CONTINUOUS1
100
AcDbPolyline
 90
        4
 70
     1
 43
0.0
 10
7.163615605236444
 20
2.691192979718444
 42
0.9999999999999998
 10
7.277803105236401
 20
2.691192979718444
 10
7.277803105236401
 20
2.872317979718442
 42
0.9999999999999998
 10
7.163615605236444
 20
2.872317979718442
  0
LWPOLYLINE
  5
98C
330
1F
100
AcDbEntity
  8
CONTINUOUS1
100
AcDbPolyline
 90
       12
 70
     1
 43
0.0
 10
3.007584355236431
 20
3.274462769093446
 10
3.007584355236431
 20
3.386161729718438
 10
3.041053105236485
 20
3.386161729718438
 10
3.041053105236485
 20
3.417661729718446
 10
3.007584355236431
 20
3.417661729718446
 10
3.007584355236431
 20
3.52936072971844
 42
0.1057353502108466
 10
2.976084355236437
 20
3.52936072971844
 10
2.976084355236437
 20
3.417661729718446
 10
2.94261560523644
 20
3.417661729718446
 10
2.94261560523644
 20
3.386161729718438
 10
2.976084355236437
 20
3.386161729718438
 10
2.976084355236437
 20
3.274462769093446
 42
0.0628185632701629
  0
ARC
  5
98D
330
1F
100
AcDbEntity
  8
CONTINUOUS1
100
AcDbCircle
 10
8.693334355236473
 20
3.401911729718442
 30
0.0
 40
0.11615617125
100
AcDbArc
 50
97.79292999999704
 51
262.2070700000029
  0
CIRCLE
  5
98E
330
1F
100
AcDbEntity
  8
CONTINUOUS1
100
AcDbCircle
 10
8.693334355236473
 20
3.401911729718442
 30
0.0
 40
0.1299375
  0
CIRCLE
  5
98F
330
1F
100
AcDbEntity
  8
CONTINUOUS1
100
AcDbCircle
 10
8.693334355236473
 20
3.401911729718442
 30
0.0
 40
0.1378125
  0
ARC
  5
990
330
1F
100
AcDbEntity
  8
CONTINUOUS1
100
AcDbCircle
 10
8.693334355236473
 20
3.401911729718442
 30
0.0
 40
0.11615617125
100
AcDbArc
 50
277.792929999997
 51
82.20707000000295
  0
LWPOLYLINE
  5
991
330
1F
100
AcDbEntity
  8
CONTINUOUS1
100
AcDbPolyline
 90
       12
 70
     1
 43
0.0
 10
8.709084355236498
 20
3.274462769093446
 10
8.709084355236498
 20
3.386161729718438
 10
8.742553105236495
 20
3.386161729718438
 10
8.742553105236495
 20
3.417661729718446
 10
8.709084355236498
 20
3.417661729718446
 10
8.709084355236498
 20
3.52936072971844
 42
0.1057353502108466
 10
8.677584355236447
 20
3.52936072971844
 10
8.677584355236447
 20
3.417661729718446
 10
8.64411560523645
 20
3.417661729718446
 10
8.64411560523645
 20
3.386161729718438
 10
8.677584355236447
 20
3.386161729718438
 10
8.677584355236447
 20
3.274462769093446
 42
0.0628185632701629
  0
CIRCLE
  5
992
330
1F
100
AcDbEntity
  8
CONTINUOUS1
100
AcDbCircle
 10
2.99183435523652
 20
5.185599229718441
 30
0.0
 40
0.25572668625
  0
CIRCLE
  5
993
330
1F
100
AcDbEntity
  8
CONTINUOUS1
100
AcDbCircle
 10
2.99183435523652
 20
5.185599229718441
 30
0.0
 40
0.216900140625
  0
CIRCLE
  5
994
330
1F
100
AcDbEntity
  8
CONTINUOUS1
100
AcDbCircle
 10
2.99183435523652
 20
5.185599229718441
 30
0.0
 40
0.1575
  0
CIRCLE
  5
995
330
1F
100
AcDbEntity
  8
CONTINUOUS1
100
AcDbCircle
 10
2.99183435523652
 20
5.185599229718441
 30
0.0
 40
0.197215318125
  0
LWPOLYLINE
  5
996
330
1F
100
AcDbEntity
  8
CONTINUOUS1
100
AcDbPolyline
 90
       13
 70
     0
 43
0.0
 10
2.957374797378079
 20
5.152545746120175
 42
-0.412740197463161
 10
2.980425743645199
 20
5.139237307423492
 42
0.7907614618568865
 10
3.003396668587654
 20
5.139885061254283
 42
-0.4389252711599453
 10
3.022551977225319
 20
5.151288631807233
 42
0.8128514096706162
 10
3.036324682829175
 20
5.176705366434589
 42
-0.4730481067824947
 10
3.036324682829175
 20
5.194522272256023
 42
0.8355337561072399
 10
3.02179425812325
 20
5.219689706102222
 42
-0.4839690409828662
 10
3.006364366595974
 20
5.228598159012932
 42
0.8877121210452232
 10
2.977182461212933
 20
5.227805639600859
 42
-0.4989595277896093
 10
2.964474024957624
 20
5.220916113089693
 42
0.8212515915081706
 10
2.946863618983186
 20
5.197959081671768
 42
-0.3888694934763107
 10
2.945966603105844
 20
5.172305352875817
 42
0.7869771933146152
 10
2.956940633485956
 20
5.152425014623375
  0
LINE
  5
997
330
1F
100
AcDbEntity
  8
CONTINUOUS1
100
AcDbLine
 10
2.972146855236488
 20
5.150352737843441
 30
0.0
 11
2.972146855236488
 21
5.029334541593442
 31
0.0
  0
LINE
  5
998
330
1F
100
AcDbEntity
  8
CONTINUOUS1
100
AcDbLine
 10
3.011521855236495
 20
5.029334541593442
 30
0.0
 11
3.011521855236495
 21
5.150350690343444
 31
0.0
  0
LINE
  5
999
330
1F
100
AcDbEntity
  8
CONTINUOUS1
100
AcDbLine
 10
3.011521855236495
 20
5.220852100343442
 30
0.0
 11
3.011521855236495
 21
5.34186391784344
 31
0.0
  0
LINE
  5
99A
330
1F
100
AcDbEntity
  8
CONTINUOUS1
100
AcDbLine
 10
2.972146855236488
 20
5.34186391784344
 30
0.0
 11
2.972146855236488
 21
5.22085127346844
 31
0.0
  0
CIRCLE
  5
99B
330
1F
100
AcDbEntity
  8
CONTINUOUS1
100
AcDbCircle
 10
8.693334355236473
 20
5.185599229718441
 30
0.0
 40
0.25572668625
  0
CIRCLE
  5
99C
330
1F
100
AcDbEntity
  8
CONTINUOUS1
100
AcDbCircle
 10
8.693334355236473
 20
5.185599229718441
 30
0.0
 40
0.216900140625
  0
CIRCLE
  5
99D
330
1F
100
AcDbEntity
  8
CONTINUOUS1
100
AcDbCircle
 10
8.693334355236473
 20
5.185599229718441
 30
0.0
 40
0.1575
  0
CIRCLE
  5
99E
330
1F
100
AcDbEntity
  8
CONTINUOUS1
100
AcDbCircle
 10
8.693334355236473
 20
5.185599229718441
 30
0.0
 40
0.197215318125
  0
LWPOLYLINE
  5
99F
330
1F
100
AcDbEntity
  8
CONTINUOUS1
100
AcDbPolyline
 90
       13
 70
     0
 43
0.0
 10
8.658874797378032
 20
5.152545746120175
 42
-0.412740197463161
 10
8.681925743645209
 20
5.139237307423492
 42
0.7907614618568865
 10
8.704896668587664
 20
5.139885061254283
 42
-0.4389252711599453
 10
8.724051977225329
 20
5.151288631807233
 42
0.8128514096706162
 10
8.737824682829185
 20
5.176705366434589
 42
-0.4730481067824947
 10
8.737824682829185
 20
5.194522272256023
 42
0.8355337561072399
 10
8.723294258123317
 20
5.219689706102222
 42
-0.4839690409828662
 10
8.707864366595984
 20
5.228598159012932
 42
0.8877121210452232
 10
8.678682461213
 20
5.227805639600859
 42
-0.4989595277896093
 10
8.665974024957634
 20
5.220916113089693
 42
0.8212515915081706
 10
8.648363618983196
 20
5.197959081671768
 42
-0.3888694934763107
 10
8.647466603105797
 20
5.172305352875817
 42
0.7869771933146152
 10
8.658440633485909
 20
5.152425014623375
  0
LINE
  5
9A0
330
1F
100
AcDbEntity
  8
CONTINUOUS1
100
AcDbLine
 10
8.673646855236555
 20
5.150352737843441
 30
0.0
 11
8.673646855236555
 21
5.029334541593442
 31
0.0
  0
LINE
  5
9A1
330
1F
100
AcDbEntity
  8
CONTINUOUS1
100
AcDbLine
 10
8.713021855236505
 20
5.029334541593442
 30
0.0
 11
8.713021855236505
 21
5.150350690343444
 31
0.0
  0
LINE
  5
9A2
330
1F
100
AcDbEntity
  8
CONTINUOUS1
100
AcDbLine
 10
8.713021855236505
 20
5.220852100343442
 30
0.0
 11
8.713021855236505
 21
5.34186391784344
 31
0.0
  0
LINE
  5
9A3
330
1F
100
AcDbEntity
  8
CONTINUOUS1
100
AcDbLine
 10
8.673646855236555
 20
5.34186391784344
 30
0.0
 11
8.673646855236555
 21
5.22085127346844
 31
0.0
  0
CIRCLE
  5
9A4
330
1F
100
AcDbEntity
  8
CONTINUOUS1
100
AcDbCircle
 10
8.693334355236473
 20
7.941849229718442
 30
0.0
 40
0.25572668625
  0
CIRCLE
  5
9A5
330
1F
100
AcDbEntity
  8
CONTINUOUS1
100
AcDbCircle
 10
8.693334355236473
 20
7.941849229718442
 30
0.0
 40
0.216900140625
  0
CIRCLE
  5
9A6
330
1F
100
AcDbEntity
  8
CONTINUOUS1
100
AcDbCircle
 10
8.693334355236473
 20
7.941849229718442
 30
0.0
 40
0.1575
  0
CIRCLE
  5
9A7
330
1F
100
AcDbEntity
  8
CONTINUOUS1
100
AcDbCircle
 10
8.693334355236473
 20
7.941849229718442
 30
0.0
 40
0.197215318125
  0
LWPOLYLINE
  5
9A8
330
1F
100
AcDbEntity
  8
CONTINUOUS1
100
AcDbPolyline
 90
       13
 70
     0
 43
0.0
 10
8.658874797378032
 20
7.908795746120176
 42
-0.412740197463161
 10
8.681925743645209
 20
7.895487307423493
 42
0.7907614618568865
 10
8.704896668587664
 20
7.896135061254284
 42
-0.4389252711599453
 10
8.724051977225329
 20
7.907538631807227
 42
0.8128514096706162
 10
8.737824682829185
 20
7.93295536643459
 42
-0.4730481067824947
 10
8.737824682829185
 20
7.950772272256017
 42
0.8355337561072399
 10
8.723294258123317
 20
7.975939706102224
 42
-0.4839690409828662
 10
8.707864366595984
 20
7.984848159012933
 42
0.8877121210452232
 10
8.678682461213
 20
7.98405563960086
 42
-0.4989595277896093
 10
8.665974024957634
 20
7.977166113089694
 42
0.8212515915081706
 10
8.648363618983196
 20
7.95420908167177
 42
-0.3888694934763107
 10
8.647466603105797
 20
7.928555352875818
 42
0.7869771933146152
 10
8.658440633485909
 20
7.908675014623369
  0
LINE
  5
9A9
330
1F
100
AcDbEntity
  8
CONTINUOUS1
100
AcDbLine
 10
8.673646855236555
 20
7.906602737843442
 30
0.0
 11
8.673646855236555
 21
7.785584541593443
 31
0.0
  0
LINE
  5
9AA
330
1F
100
AcDbEntity
  8
CONTINUOUS1
100
AcDbLine
 10
8.713021855236505
 20
7.785584541593443
 30
0.0
 11
8.713021855236505
 21
7.906600690343445
 31
0.0
  0
LINE
  5
9AB
330
1F
100
AcDbEntity
  8
CONTINUOUS1
100
AcDbLine
 10
8.713021855236505
 20
7.977102100343444
 30
0.0
 11
8.713021855236505
 21
8.098113917843441
 31
0.0
  0
LINE
  5
9AC
330
1F
100
AcDbEntity
  8
CONTINUOUS1
100
AcDbLine
 10
8.673646855236555
 20
8.098113917843441
 30
0.0
 11
8.673646855236555
 21
7.977101273468441
 31
0.0
  0
LWPOLYLINE
  5
9AD
330
1F
100
AcDbEntity
  8
CONTINUOUS1
100
AcDbPolyline
 90
        4
 70
     1
 43
0.0
 10
8.010178105236448
 20
7.380755479718445
 42
0.9999999999999998
 10
8.124365605236405
 20
7.380755479718445
 10
8.12401123023649
 20
7.659470432843427
 42
1.137931034482781
 10
8.009823730236419
 20
7.659470432843427
  0
LWPOLYLINE
  5
9AE
330
1F
100
AcDbEntity
  8
CONTINUOUS1
100
AcDbPolyline
 90
        4
 70
     1
 43
0.0
 10
4.49556560523645
 20
8.428130479718447
 10
4.49556560523645
 20
7.979255479718446
 42
0.9999999999999998
 10
4.609753105236464
 20
7.979255479718446
 10
4.609753105236464
 20
8.428130479718447
 42
0.6955496551724369
  0
LWPOLYLINE
  5
9AF
330
1F
100
AcDbEntity
  8
CONTINUOUS1
100
AcDbPolyline
 90
        4
 70
     1
 43
0.0
 10
4.245928105236444
 20
8.396228303468447
 10
4.245928105236444
 20
7.979255479718446
 42
0.9999999999999998
 10
4.360115605236458
 20
7.979255479718446
 10
4.360115605236458
 20
8.396228303468447
 42
0.936773793103438
  0
LWPOLYLINE
  5
9B0
330
1F
100
AcDbEntity
  8
CONTINUOUS1
100
AcDbPolyline
 90
        4
 70
     1
 43
0.0
 10
4.017553105236473
 20
8.376822059093441
 10
4.017553105236473
 20
7.979255479718446
 42
0.9999999999999998
 10
4.131740605236487
 20
7.979255479718446
 10
4.131740605236487
 20
8.376822059093441
 42
0.936773793103438
  0
LWPOLYLINE
  5
9B1
330
1F
100
AcDbEntity
  8
CONTINUOUS1
100
AcDbPolyline
 90
        4
 70
     1
 43
0.0
 10
3.789178105236445
 20
8.354712248468445
 10
3.789178105236445
 20
7.979255479718446
 42
0.9999999999999998
 10
3.903365605236459
 20
7.979255479718446
 10
3.903365605236459
 20
8.354712248468445
 42
0.936773793103438
  0
LWPOLYLINE
  5
9B2
330
1F
100
AcDbEntity
  8
CONTINUOUS1
100
AcDbPolyline
 90
        4
 70
     1
 43
0.0
 10
3.538753105236438
 20
8.327349104093443
 10
3.538753105236438
 20
7.979255479718446
 42
0.9999999999999998
 10
3.652940605236452
 20
7.979255479718446
 10
3.652940605236452
 20
8.327349104093443
 42
0.936773793103438
  0
LWPOLYLINE
  5
9B3
330
1F
100
AcDbEntity
  8
CONTINUOUS1
100
AcDbPolyline
 90
        4
 70
     1
 43
0.0
 10
3.310378105236466
 20
8.299539919718441
 10
3.310378105236466
 20
7.979255479718446
 42
0.9999999999999998
 10
3.42456560523648
 20
7.979255479718446
 10
3.42456560523648
 20
8.299539919718441
 42
0.936773793103438
  0
LWPOLYLINE
  5
9B4
330
1F
100
AcDbEntity
  8
CONTINUOUS1
100
AcDbPolyline
 90
        4
 70
     1
 43
0.0
 10
7.08486560523643
 20
8.410120512218441
 10
7.08486560523643
 20
7.979255479718446
 42
0.9999999999999998
 10
7.199053105236501
 20
7.979255479718446
 10
7.199053105236501
 20
8.410120512218441
 42
0.9964551154989189
  0
LWPOLYLINE
  5
9B5
330
1F
100
AcDbEntity
  8
CONTINUOUS1
100
AcDbPolyline
 90
        4
 70
     1
 43
0.0
 10
8.238553105236476
 20
5.313567979718442
 10
8.238553105236476
 20
4.41188047971844
 42
0.9999999999999998
 10
8.352740605236434
 20
4.41188047971844
 10
8.352740605236434
 20
5.313567979718442
 42
0.9999999999999998
  0
LWPOLYLINE
  5
9B6
330
1F
100
AcDbEntity
  8
CONTINUOUS1
100
AcDbPolyline
 90
        4
 70
     1
 43
0.0
 10
8.010178105236448
 20
5.313567979718442
 10
8.010178105236448
 20
4.41188047971844
 42
0.9999999999999998
 10
8.124365605236405
 20
4.41188047971844
 10
8.124365605236405
 20
5.313567979718442
 42
0.9999999999999998
  0
LWPOLYLINE
  5
9B7
330
1F
100
AcDbEntity
  8
CONTINUOUS1
100
AcDbPolyline
 90
        4
 70
     1
 43
0.0
 10
6.846253105236499
 20
5.312890808468445
 10
6.846253105236499
 20
4.411203308468444
 42
0.9999999999999998
 10
6.960440605236456
 20
4.411203308468444
 10
6.960440605236456
 20
5.312890808468445
 42
0.9999999999999998
  0
LWPOLYLINE
  5
9B8
330
1F
100
AcDbEntity
  8
CONTINUOUS1
100
AcDbPolyline
 90
        4
 70
     1
 43
0.0
 10
6.617878105236471
 20
5.312890808468445
 10
6.617878105236471
 20
4.411203308468444
 42
0.9999999999999998
 10
6.732065605236428
 20
4.411203308468444
 10
6.732065605236428
 20
5.312890808468445
 42
0.9999999999999998
  0
LWPOLYLINE
  5
9B9
330
1F
100
AcDbEntity
  8
CONTINUOUS1
100
AcDbPolyline
 90
        4
 70
     1
 43
0.0
 10
6.254053105236451
 20
5.313567979718442
 10
6.254053105236451
 20
4.41188047971844
 42
0.9999999999999998
 10
6.368240605236408
 20
4.41188047971844
 10
6.368240605236408
 20
5.313567979718442
 42
0.9999999999999998
  0
LWPOLYLINE
  5
9BA
330
1F
100
AcDbEntity
  8
CONTINUOUS1
100
AcDbPolyline
 90
        4
 70
     1
 43
0.0
 10
5.19250310523644
 20
5.312890808468445
 10
5.19250310523644
 20
4.411203308468444
 42
0.9999999999999998
 10
5.306690605236511
 20
4.411203308468444
 10
5.306690605236511
 20
5.312890808468445
 42
0.9999999999999998
  0
LWPOLYLINE
  5
9BB
330
1F
100
AcDbEntity
  8
CONTINUOUS1
100
AcDbPolyline
 90
        4
 70
     1
 43
0.0
 10
4.964128105236412
 20
5.312890808468445
 10
4.964128105236412
 20
4.411203308468444
 42
0.9999999999999998
 10
5.078315605236483
 20
4.411203308468444
 10
5.078315605236483
 20
5.312890808468445
 42
0.9999999999999998
  0
LWPOLYLINE
  5
9BC
330
1F
100
AcDbEntity
  8
CONTINUOUS1
100
AcDbPolyline
 90
        4
 70
     1
 43
0.0
 10
4.600303105236449
 20
5.313567979718442
 10
4.600303105236449
 20
4.41188047971844
 42
0.9999999999999998
 10
4.714490605236463
 20
4.41188047971844
 10
4.714490605236463
 20
5.313567979718442
 42
0.9999999999999998
  0
LWPOLYLINE
  5
9BD
330
1F
100
AcDbEntity
  8
CONTINUOUS1
100
AcDbPolyline
 90
        4
 70
     1
 43
0.0
 10
3.538753105236438
 20
5.312890808468445
 10
3.538753105236438
 20
4.411203308468444
 42
0.9999999999999998
 10
3.652940605236452
 20
4.411203308468444
 10
3.652940605236452
 20
5.312890808468445
 42
0.9999999999999998
  0
LWPOLYLINE
  5
9BE
330
1F
100
AcDbEntity
  8
CONTINUOUS1
100
AcDbPolyline
 90
        4
 70
     1
 43
0.0
 10
3.310378105236466
 20
5.312890808468445
 10
3.310378105236466
 20
4.411203308468444
 42
0.9999999999999998
 10
3.42456560523648
 20
4.411203308468444
 10
3.42456560523648
 20
5.312890808468445
 42
0.9999999999999998
  0
LWPOLYLINE
  5
9BF
330
1F
100
AcDbEntity
  8
CONTINUOUS1
100
AcDbPolyline
 90
        4
 70
     1
 43
0.0
 10
8.238553105236476
 20
8.298734267843443
 10
8.238553105236476
 20
7.979255479718446
 42
0.9999999999999998
 10
8.352740605236434
 20
7.979255479718446
 10
8.352740605236434
 20
8.298734267843443
 42
0.9999999999999998
  0
LWPOLYLINE
  5
9C0
330
1F
100
AcDbEntity
  8
CONTINUOUS1
100
AcDbPolyline
 90
        4
 70
     1
 43
0.0
 10
8.010178105236448
 20
8.326279915343448
 10
8.010178105236448
 20
7.979255479718446
 42
0.9999999999999998
 10
8.124365605236405
 20
7.979255479718446
 10
8.124365605236405
 20
8.326279915343448
 42
0.9999999999999998
  0
LWPOLYLINE
  5
9C1
330
1F
100
AcDbEntity
  8
CONTINUOUS1
100
AcDbPolyline
 90
        4
 70
     1
 43
0.0
 10
7.78180310523642
 20
8.351102427218449
 10
7.78180310523642
 20
7.979255479718446
 42
0.9999999999999998
 10
7.895990605236491
 20
7.979255479718446
 10
7.895990605236491
 20
8.351102427218449
 42
0.9999999999999998
  0
LWPOLYLINE
  5
9C2
330
1F
100
AcDbEntity
  8
CONTINUOUS1
100
AcDbPolyline
 90
        4
 70
     1
 43
0.0
 10
7.553428105236505
 20
8.373212237843446
 10
7.553428105236505
 20
7.979255479718446
 42
0.9999999999999998
 10
7.667615605236463
 20
7.979255479718446
 10
7.667615605236463
 20
8.373212237843446
 42
0.9999999999999998
  0
LWPOLYLINE
  5
9C3
330
1F
100
AcDbEntity
  8
CONTINUOUS1
100
AcDbPolyline
 90
        4
 70
     1
 43
0.0
 10
7.325053105236477
 20
8.392618482218445
 10
7.325053105236477
 20
7.979255479718446
 42
0.9999999999999998
 10
7.439240605236435
 20
7.979255479718446
 10
7.439240605236435
 20
8.392618482218445
 42
0.9999999999999998
  0
LWPOLYLINE
  5
9C4
330
1F
100
AcDbEntity
  8
CONTINUOUS1
100
AcDbPolyline
 90
        4
 70
     1
 43
0.0
 10
5.19250310523644
 20
7.979255479718446
 42
0.9999999999999998
 10
5.306690605236511
 20
7.979255479718446
 10
5.306690605236511
 20
8.449693647218445
 42
0.9070310344827419
 10
5.19250310523644
 20
8.449693647218445
  0
LWPOLYLINE
  5
9C5
330
1F
100
AcDbEntity
  8
CONTINUOUS1
100
AcDbPolyline
 90
        4
 70
     1
 43
0.0
 10
4.964128105236412
 20
7.979255479718446
 42
0.9999999999999998
 10
5.078315605236483
 20
7.979255479718446
 10
5.078315605236483
 20
8.441419502843444
 42
0.9070310344827419
 10
4.964128105236412
 20
8.441419502843444
  0
LWPOLYLINE
  5
9C6
330
1F
100
AcDbEntity
  8
CONTINUOUS1
100
AcDbPolyline
 90
        4
 70
     1
 43
0.0
 10
6.617878105236471
 20
8.439211392218439
 10
6.617878105236471
 20
7.979255479718446
 42
0.9999999999999998
 10
6.732065605236428
 20
7.979255479718446
 10
6.732065605236428
 20
8.439211392218439
 42
0.9375241379310558
  0
LWPOLYLINE
  5
9C7
330
1F
100
AcDbEntity
  8
CONTINUOUS1
100
AcDbPolyline
 90
        4
 70
     1
 43
0.0
 10
3.337940605236454
 20
6.268411729718444
 10
3.625378105236464
 20
6.268411729718444
 10
3.625378105236464
 20
5.894349229718443
 10
3.337940605236454
 20
5.894349229718443
  0
LWPOLYLINE
  5
9C8
330
1F
100
AcDbEntity
  8
CONTINUOUS1
100
AcDbPolyline
 90
        4
 70
     1
 43
0.0
 10
3.432440605236436
 20
6.210781495343439
 10
3.530878105236482
 20
6.210781495343439
 10
3.530878105236482
 20
6.191093995343443
 10
3.432440605236436
 20
6.191093995343443
  0
LWPOLYLINE
  5
9C9
330
1F
100
AcDbEntity
  8
CONTINUOUS1
100
AcDbPolyline
 90
        4
 70
     1
 43
0.0
 10
3.355659355236483
 20
6.230468995343443
 10
3.607659355236435
 20
6.230468995343443
 10
3.607659355236435
 20
6.210781495343439
 10
3.355659355236483
 20
6.210781495343439
  0
LWPOLYLINE
  5
9CA
330
1F
100
AcDbEntity
  8
CONTINUOUS1
100
AcDbPolyline
 90
        4
 70
     1
 43
0.0
 10
3.355659355236483
 20
6.26837605371071
 10
3.607659355236435
 20
6.26837605371071
 10
3.607659355236435
 20
6.210781495343439
 10
3.355659355236483
 20
6.210781495343439
  0
LWPOLYLINE
  5
9CB
330
1F
100
AcDbEntity
  8
CONTINUOUS1
100
AcDbPolyline
 90
        4
 70
     1
 43
0.0
 10
3.34465998836147
 20
6.268411729718444
 10
3.618658722111447
 20
6.268411729718444
 10
3.618658722111447
 20
6.210781495343439
 10
3.34465998836147
 20
6.210781495343439
  0
LWPOLYLINE
  5
9CC
330
1F
100
AcDbEntity
  8
CONTINUOUS1
100
AcDbPolyline
 90
        8
 70
     1
 43
0.0
 10
3.570253105236432
 20
6.183125125343444
 10
3.393065605236486
 20
6.183125125343444
 10
3.393065605236486
 20
6.130062745343444
 42
-0.4142135623730951
 10
3.34778435523647
 20
6.084781495343442
 10
3.34778435523647
 20
5.946968995343439
 10
3.615534355236448
 20
5.946968995343439
 10
3.615534355236448
 20
6.084781495343442
 42
-0.4142135623730951
 10
3.570253105236432
 20
6.130062745343444
  0
LWPOLYLINE
  5
9CD
330
1F
100
AcDbEntity
  8
CONTINUOUS1
100
AcDbPolyline
 90
        4
 70
     0
 43
0.0
 10
3.337940605236454
 20
6.210781495343439
 42
0.3185962206159981
 10
3.363534355236438
 20
6.183218995343445
 10
3.599784355236479
 20
6.183218995343445
 42
0.3185962206161545
 10
3.625378105236464
 20
6.210781495343439
  0
LWPOLYLINE
  5
9CE
330
1F
100
AcDbEntity
  8
CONTINUOUS1
100
AcDbPolyline
 90
        8
 70
     1
 43
0.0
 10
5.224003105236491
 20
6.183125125343444
 10
5.046815605236432
 20
6.183125125343444
 10
5.046815605236432
 20
6.130062745343444
 42
-0.4142135623730951
 10
5.001534355236415
 20
6.084781495343442
 10
5.001534355236415
 20
5.946968995343439
 10
5.269284355236507
 20
5.946968995343439
 10
5.269284355236507
 20
6.084781495343442
 42
-0.4142135623730951
 10
5.224003105236491
 20
6.130062745343444
  0
LWPOLYLINE
  5
9CF
330
1F
100
AcDbEntity
  8
CONTINUOUS1
100
AcDbPolyline
 90
        4
 70
     1
 43
0.0
 10
4.991690605236456
 20
6.268411729718444
 10
5.279128105236466
 20
6.268411729718444
 10
5.279128105236466
 20
5.894349229718443
 10
4.991690605236456
 20
5.894349229718443
  0
LWPOLYLINE
  5
9D0
330
1F
100
AcDbEntity
  8
CONTINUOUS1
100
AcDbPolyline
 90
        4
 70
     0
 43
0.0
 10
4.991690605236456
 20
6.210781495343439
 42
0.3185962206159981
 10
5.017284355236441
 20
6.183218995343445
 10
5.253534355236482
 20
6.183218995343445
 42
0.3185962206161545
 10
5.279128105236466
 20
6.210781495343439
  0
LWPOLYLINE
  5
9D1
330
1F
100
AcDbEntity
  8
CONTINUOUS1
100
AcDbPolyline
 90
        4
 70
     1
 43
0.0
 10
4.998409988361416
 20
6.268411729718444
 10
5.272408722111507
 20
6.268411729718444
 10
5.272408722111507
 20
6.210781495343439
 10
4.998409988361416
 20
6.210781495343439
  0
LWPOLYLINE
  5
9D2
330
1F
100
AcDbEntity
  8
CONTINUOUS1
100
AcDbPolyline
 90
        4
 70
     1
 43
0.0
 10
5.009409355236428
 20
6.26837605371071
 10
5.261409355236494
 20
6.26837605371071
 10
5.261409355236494
 20
6.210781495343439
 10
5.009409355236428
 20
6.210781495343439
  0
LINE
  5
9D3
330
1F
100
AcDbEntity
  8
CONTINUOUS1
100
AcDbLine
 10
5.029068544611462
 20
6.094114709093446
 30
0.0
 11
5.241750165861461
 21
6.094114709093446
 31
0.0
  0
LWPOLYLINE
  5
9D4
330
1F
100
AcDbEntity
  8
CONTINUOUS1
100
AcDbPolyline
 90
        4
 70
     1
 43
0.0
 10
5.009409355236428
 20
6.230468995343443
 10
5.261409355236494
 20
6.230468995343443
 10
5.261409355236494
 20
6.210781495343439
 10
5.009409355236428
 20
6.210781495343439
  0
LINE
  5
9D5
330
1F
100
AcDbEntity
  8
CONTINUOUS1
100
AcDbLine
 10
5.046291799611552
 20
6.124156495343441
 30
0.0
 11
4.991690605236456
 21
6.124156495343441
 31
0.0
  0
LINE
  5
9D6
330
1F
100
AcDbEntity
  8
CONTINUOUS1
100
AcDbLine
 10
5.279128105236466
 20
6.124156495343441
 30
0.0
 11
5.224527462111566
 21
6.124156495343441
 31
0.0
  0
LWPOLYLINE
  5
9D7
330
1F
100
AcDbEntity
  8
CONTINUOUS1
100
AcDbPolyline
 90
        4
 70
     1
 43
0.0
 10
5.086190605236495
 20
6.210781495343439
 10
5.184628105236427
 20
6.210781495343439
 10
5.184628105236427
 20
6.191093995343443
 10
5.086190605236495
 20
6.191093995343443
  0
LWPOLYLINE
  5
9D8
330
1F
100
AcDbEntity
  8
CONTINUOUS1
100
AcDbPolyline
 90
        8
 70
     1
 43
0.0
 10
6.877753105236436
 20
6.183125125343444
 10
6.700565605236491
 20
6.183125125343444
 10
6.700565605236491
 20
6.130062745343444
 42
-0.4142135623730951
 10
6.655284355236474
 20
6.084781495343442
 10
6.655284355236474
 20
5.946968995343439
 10
6.923034355236453
 20
5.946968995343439
 10
6.923034355236453
 20
6.084781495343442
 42
-0.4142135623730951
 10
6.877753105236436
 20
6.130062745343444
  0
LWPOLYLINE
  5
9D9
330
1F
100
AcDbEntity
  8
CONTINUOUS1
100
AcDbPolyline
 90
        4
 70
     1
 43
0.0
 10
6.645440605236515
 20
6.268411729718444
 10
6.932878105236412
 20
6.268411729718444
 10
6.932878105236412
 20
5.894349229718443
 10
6.645440605236515
 20
5.894349229718443
  0
LWPOLYLINE
  5
9DA
330
1F
100
AcDbEntity
  8
CONTINUOUS1
100
AcDbPolyline
 90
        4
 70
     0
 43
0.0
 10
6.645440605236515
 20
6.210781495343439
 42
0.3185962206159981
 10
6.6710343552365
 20
6.183218995343445
 10
6.907284355236427
 20
6.183218995343445
 42
0.3185962206161545
 10
6.932878105236412
 20
6.210781495343439
  0
LWPOLYLINE
  5
9DB
330
1F
100
AcDbEntity
  8
CONTINUOUS1
100
AcDbPolyline
 90
        4
 70
     1
 43
0.0
 10
6.652159988361475
 20
6.268411729718444
 10
6.926158722111452
 20
6.268411729718444
 10
6.926158722111452
 20
6.210781495343439
 10
6.652159988361475
 20
6.210781495343439
  0
LWPOLYLINE
  5
9DC
330
1F
100
AcDbEntity
  8
CONTINUOUS1
100
AcDbPolyline
 90
        4
 70
     1
 43
0.0
 10
6.663159355236487
 20
6.26837605371071
 10
6.91515935523644
 20
6.26837605371071
 10
6.91515935523644
 20
6.210781495343439
 10
6.663159355236487
 20
6.210781495343439
  0
LINE
  5
9DD
330
1F
100
AcDbEntity
  8
CONTINUOUS1
100
AcDbLine
 10
6.682818544611521
 20
6.094114709093446
 30
0.0
 11
6.89550016586152
 21
6.094114709093446
 31
0.0
  0
LWPOLYLINE
  5
9DE
330
1F
100
AcDbEntity
  8
CONTINUOUS1
100
AcDbPolyline
 90
        4
 70
     1
 43
0.0
 10
6.663159355236487
 20
6.230468995343443
 10
6.91515935523644
 20
6.230468995343443
 10
6.91515935523644
 20
6.210781495343439
 10
6.663159355236487
 20
6.210781495343439
  0
LINE
  5
9DF
330
1F
100
AcDbEntity
  8
CONTINUOUS1
100
AcDbLine
 10
6.700041799611497
 20
6.124156495343441
 30
0.0
 11
6.645440605236515
 21
6.124156495343441
 31
0.0
  0
LINE
  5
9E0
330
1F
100
AcDbEntity
  8
CONTINUOUS1
100
AcDbLine
 10
6.932878105236525
 20
6.124156495343441
 30
0.0
 11
6.878277462111512
 21
6.124156495343441
 31
0.0
  0
LWPOLYLINE
  5
9E1
330
1F
100
AcDbEntity
  8
CONTINUOUS1
100
AcDbPolyline
 90
        4
 70
     1
 43
0.0
 10
6.739940605236441
 20
6.210781495343439
 10
6.838378105236486
 20
6.210781495343439
 10
6.838378105236486
 20
6.191093995343443
 10
6.739940605236441
 20
6.191093995343443
  0
LWPOLYLINE
  5
9E2
330
1F
100
AcDbEntity
  8
CONTINUOUS1
100
AcDbPolyline
 90
        8
 70
     1
 43
0.0
 10
7.584928105236443
 20
5.423487977843443
 10
7.407740605236497
 20
5.423487977843443
 10
7.407740605236497
 20
5.370425597843443
 42
-0.4142135623730951
 10
7.362459355236481
 20
5.325144347843441
 10
7.362459355236481
 20
5.187331847843445
 10
7.630209355236459
 20
5.187331847843445
 10
7.630209355236459
 20
5.325144347843441
 42
-0.4142135623730951
 10
7.584928105236443
 20
5.370425597843443
  0
LWPOLYLINE
  5
9E3
330
1F
100
AcDbEntity
  8
CONTINUOUS1
100
AcDbPolyline
 90
        4
 70
     1
 43
0.0
 10
7.352615605236408
 20
5.508774582218443
 10
7.640053105236418
 20
5.508774582218443
 10
7.640053105236418
 20
5.134712082218442
 10
7.352615605236408
 20
5.134712082218442
  0
LWPOLYLINE
  5
9E4
330
1F
100
AcDbEntity
  8
CONTINUOUS1
100
AcDbPolyline
 90
        4
 70
     0
 43
0.0
 10
7.352615605236408
 20
5.451144347843445
 42
0.3185962206159981
 10
7.378209355236506
 20
5.423581847843443
 10
7.614459355236434
 20
5.423581847843443
 42
0.3185962206161545
 10
7.640053105236418
 20
5.451144347843445
  0
LWPOLYLINE
  5
9E5
330
1F
100
AcDbEntity
  8
CONTINUOUS1
100
AcDbPolyline
 90
        4
 70
     1
 43
0.0
 10
7.359334988361482
 20
5.508774582218443
 10
7.633333722111458
 20
5.508774582218443
 10
7.633333722111458
 20
5.451144347843445
 10
7.359334988361482
 20
5.451144347843445
  0
LWPOLYLINE
  5
9E6
330
1F
100
AcDbEntity
  8
CONTINUOUS1
100
AcDbPolyline
 90
        4
 70
     1
 43
0.0
 10
7.370334355236494
 20
5.508738906210709
 10
7.622334355236446
 20
5.508738906210709
 10
7.622334355236446
 20
5.451144347843445
 10
7.370334355236494
 20
5.451144347843445
  0
LINE
  5
9E7
330
1F
100
AcDbEntity
  8
CONTINUOUS1
100
AcDbLine
 10
7.389993544611527
 20
5.334477561593445
 30
0.0
 11
7.602675165861526
 21
5.334477561593445
 31
0.0
  0
LWPOLYLINE
  5
9E8
330
1F
100
AcDbEntity
  8
CONTINUOUS1
100
AcDbPolyline
 90
        4
 70
     1
 43
0.0
 10
7.370334355236494
 20
5.470831847843442
 10
7.622334355236446
 20
5.470831847843442
 10
7.622334355236446
 20
5.451144347843445
 10
7.370334355236494
 20
5.451144347843445
  0
LINE
  5
9E9
330
1F
100
AcDbEntity
  8
CONTINUOUS1
100
AcDbLine
 10
7.407216799611504
 20
5.36451934784344
 30
0.0
 11
7.352615605236522
 21
5.36451934784344
 31
0.0
  0
LINE
  5
9EA
330
1F
100
AcDbEntity
  8
CONTINUOUS1
100
AcDbLine
 10
7.640053105236532
 20
5.36451934784344
 30
0.0
 11
7.585452462111518
 21
5.36451934784344
 31
0.0
  0
LWPOLYLINE
  5
9EB
330
1F
100
AcDbEntity
  8
CONTINUOUS1
100
AcDbPolyline
 90
        4
 70
     1
 43
0.0
 10
7.447115605236447
 20
5.451144347843445
 10
7.545553105236493
 20
5.451144347843445
 10
7.545553105236493
 20
5.431456847843442
 10
7.447115605236447
 20
5.431456847843442
  0
LWPOLYLINE
  5
9EC
330
1F
100
AcDbEntity
  8
CONTINUOUS1
100
AcDbPolyline
 90
        8
 70
     1
 43
0.0
 10
5.931178105236497
 20
5.423487977843443
 10
5.753990605236438
 20
5.423487977843443
 10
5.753990605236438
 20
5.370425597843443
 42
-0.4142135623730951
 10
5.708709355236422
 20
5.325144347843441
 10
5.708709355236422
 20
5.187331847843445
 10
5.976459355236514
 20
5.187331847843445
 10
5.976459355236514
 20
5.325144347843441
 42
-0.4142135623730951
 10
5.931178105236497
 20
5.370425597843443
  0
LWPOLYLINE
  5
9ED
330
1F
100
AcDbEntity
  8
CONTINUOUS1
100
AcDbPolyline
 90
        4
 70
     1
 43
0.0
 10
5.698865605236463
 20
5.508774582218443
 10
5.986303105236473
 20
5.508774582218443
 10
5.986303105236473
 20
5.134712082218442
 10
5.698865605236463
 20
5.134712082218442
  0
LWPOLYLINE
  5
9EE
330
1F
100
AcDbEntity
  8
CONTINUOUS1
100
AcDbPolyline
 90
        4
 70
     0
 43
0.0
 10
5.698865605236463
 20
5.451144347843445
 42
0.3185962206159981
 10
5.724459355236447
 20
5.423581847843443
 10
5.960709355236488
 20
5.423581847843443
 42
0.3185962206161545
 10
5.986303105236473
 20
5.451144347843445
  0
LWPOLYLINE
  5
9EF
330
1F
100
AcDbEntity
  8
CONTINUOUS1
100
AcDbPolyline
 90
        4
 70
     1
 43
0.0
 10
5.705584988361422
 20
5.508774582218443
 10
5.979583722111513
 20
5.508774582218443
 10
5.979583722111513
 20
5.451144347843445
 10
5.705584988361422
 20
5.451144347843445
  0
LWPOLYLINE
  5
9F0
330
1F
100
AcDbEntity
  8
CONTINUOUS1
100
AcDbPolyline
 90
        4
 70
     1
 43
0.0
 10
5.716584355236435
 20
5.508738906210709
 10
5.968584355236501
 20
5.508738906210709
 10
5.968584355236501
 20
5.451144347843445
 10
5.716584355236435
 20
5.451144347843445
  0
LINE
  5
9F1
330
1F
100
AcDbEntity
  8
CONTINUOUS1
100
AcDbLine
 10
5.736243544611468
 20
5.334477561593445
 30
0.0
 11
5.948925165861467
 21
5.334477561593445
 31
0.0
  0
LWPOLYLINE
  5
9F2
330
1F
100
AcDbEntity
  8
CONTINUOUS1
100
AcDbPolyline
 90
        4
 70
     1
 43
0.0
 10
5.716584355236435
 20
5.470831847843442
 10
5.968584355236501
 20
5.470831847843442
 10
5.968584355236501
 20
5.451144347843445
 10
5.716584355236435
 20
5.451144347843445
  0
LINE
  5
9F3
330
1F
100
AcDbEntity
  8
CONTINUOUS1
100
AcDbLine
 10
5.753466799611558
 20
5.36451934784344
 30
0.0
 11
5.698865605236463
 21
5.36451934784344
 31
0.0
  0
LINE
  5
9F4
330
1F
100
AcDbEntity
  8
CONTINUOUS1
100
AcDbLine
 10
5.986303105236473
 20
5.36451934784344
 30
0.0
 11
5.931702462111459
 21
5.36451934784344
 31
0.0
  0
LWPOLYLINE
  5
9F5
330
1F
100
AcDbEntity
  8
CONTINUOUS1
100
AcDbPolyline
 90
        4
 70
     1
 43
0.0
 10
5.793365605236502
 20
5.451144347843445
 10
5.891803105236434
 20
5.451144347843445
 10
5.891803105236434
 20
5.431456847843442
 10
5.793365605236502
 20
5.431456847843442
  0
LWPOLYLINE
  5
9F6
330
1F
100
AcDbEntity
  8
CONTINUOUS1
100
AcDbPolyline
 90
        8
 70
     1
 43
0.0
 10
4.277428105236438
 20
5.423487977843443
 10
4.100240605236436
 20
5.423487977843443
 10
4.100240605236436
 20
5.370425597843443
 42
-0.4142135623730951
 10
4.054959355236476
 20
5.325144347843441
 10
4.054959355236476
 20
5.187331847843445
 10
4.322709355236455
 20
5.187331847843445
 10
4.322709355236455
 20
5.325144347843441
 42
-0.4142135623730951
 10
4.277428105236438
 20
5.370425597843443
  0
LWPOLYLINE
  5
9F7
330
1F
100
AcDbEntity
  8
CONTINUOUS1
100
AcDbPolyline
 90
        4
 70
     1
 43
0.0
 10
4.04511560523646
 20
5.508774582218443
 10
4.33255310523647
 20
5.508774582218443
 10
4.33255310523647
 20
5.134712082218442
 10
4.04511560523646
 20
5.134712082218442
  0
LWPOLYLINE
  5
9F8
330
1F
100
AcDbEntity
  8
CONTINUOUS1
100
AcDbPolyline
 90
        4
 70
     0
 43
0.0
 10
4.04511560523646
 20
5.451144347843445
 42
0.3185962206159981
 10
4.070709355236445
 20
5.423581847843443
 10
4.306959355236486
 20
5.423581847843443
 42
0.3185962206161545
 10
4.33255310523647
 20
5.451144347843445
  0
LWPOLYLINE
  5
9F9
330
1F
100
AcDbEntity
  8
CONTINUOUS1
100
AcDbPolyline
 90
        4
 70
     1
 43
0.0
 10
4.051834988361477
 20
5.508774582218443
 10
4.325833722111454
 20
5.508774582218443
 10
4.325833722111454
 20
5.451144347843445
 10
4.051834988361477
 20
5.451144347843445
  0
LWPOLYLINE
  5
9FA
330
1F
100
AcDbEntity
  8
CONTINUOUS1
100
AcDbPolyline
 90
        4
 70
     1
 43
0.0
 10
4.062834355236432
 20
5.508738906210709
 10
4.314834355236442
 20
5.508738906210709
 10
4.314834355236442
 20
5.451144347843445
 10
4.062834355236432
 20
5.451144347843445
  0
LINE
  5
9FB
330
1F
100
AcDbEntity
  8
CONTINUOUS1
100
AcDbLine
 10
4.082493544611523
 20
5.334477561593445
 30
0.0
 11
4.295175165861522
 21
5.334477561593445
 31
0.0
  0
LWPOLYLINE
  5
9FC
330
1F
100
AcDbEntity
  8
CONTINUOUS1
100
AcDbPolyline
 90
        4
 70
     1
 43
0.0
 10
4.062834355236432
 20
5.470831847843442
 10
4.314834355236442
 20
5.470831847843442
 10
4.314834355236442
 20
5.451144347843445
 10
4.062834355236432
 20
5.451144347843445
  0
LINE
  5
9FD
330
1F
100
AcDbEntity
  8
CONTINUOUS1
100
AcDbLine
 10
4.099716799611499
 20
5.36451934784344
 30
0.0
 11
4.045115605236517
 21
5.36451934784344
 31
0.0
  0
LINE
  5
9FE
330
1F
100
AcDbEntity
  8
CONTINUOUS1
100
AcDbLine
 10
4.332553105236527
 20
5.36451934784344
 30
0.0
 11
4.277952462111514
 21
5.36451934784344
 31
0.0
  0
LWPOLYLINE
  5
9FF
330
1F
100
AcDbEntity
  8
CONTINUOUS1
100
AcDbPolyline
 90
        4
 70
     1
 43
0.0
 10
4.139615605236443
 20
5.451144347843445
 10
4.238053105236431
 20
5.451144347843445
 10
4.238053105236431
 20
5.431456847843442
 10
4.139615605236443
 20
5.431456847843442
  0
LWPOLYLINE
  5
A00
330
1F
100
AcDbEntity
  8
CONTINUOUS1
100
AcDbPolyline
 90
        4
 70
     1
 43
0.0
 10
4.017553105236473
 20
4.664119485968441
 10
4.017553105236473
 20
4.40775334971844
 42
0.9999999999999998
 10
4.131740605236487
 20
4.40775334971844
 10
4.131740605236487
 20
4.664119485968441
 42
0.9999999999999998
  0
LWPOLYLINE
  5
A01
330
1F
100
AcDbEntity
  8
CONTINUOUS1
100
AcDbPolyline
 90
        4
 70
     1
 43
0.0
 10
4.245928105236444
 20
4.664119485968441
 10
4.245928105236444
 20
4.40775334971844
 42
0.9999999999999998
 10
4.360115605236458
 20
4.40775334971844
 10
4.360115605236458
 20
4.664119485968441
 42
0.9999999999999998
  0
LWPOLYLINE
  5
A02
330
1F
100
AcDbEntity
  8
CONTINUOUS1
100
AcDbPolyline
 90
        4
 70
     1
 43
0.0
 10
5.671303105236418
 20
4.664119485968441
 10
5.671303105236418
 20
4.40775334971844
 42
0.9999999999999998
 10
5.785490605236489
 20
4.40775334971844
 10
5.785490605236489
 20
4.664119485968441
 42
0.9999999999999998
  0
LWPOLYLINE
  5
A03
330
1F
100
AcDbEntity
  8
CONTINUOUS1
100
AcDbPolyline
 90
        4
 70
     1
 43
0.0
 10
5.899678105236446
 20
4.664119485968441
 10
5.899678105236446
 20
4.40775334971844
 42
0.9999999999999998
 10
6.013865605236517
 20
4.40775334971844
 10
6.013865605236517
 20
4.664119485968441
 42
0.9999999999999998
  0
LWPOLYLINE
  5
A04
330
1F
100
AcDbEntity
  8
CONTINUOUS1
100
AcDbPolyline
 90
        4
 70
     1
 43
0.0
 10
7.325053105236477
 20
4.664119485968441
 10
7.325053105236477
 20
4.40775334971844
 42
0.9999999999999998
 10
7.439240605236435
 20
4.40775334971844
 10
7.439240605236435
 20
4.664119485968441
 42
0.9999999999999998
  0
LWPOLYLINE
  5
A05
330
1F
100
AcDbEntity
  8
CONTINUOUS1
100
AcDbPolyline
 90
        4
 70
     1
 43
0.0
 10
7.553428105236505
 20
4.664119485968441
 10
7.553428105236505
 20
4.40775334971844
 42
0.9999999999999998
 10
7.667615605236463
 20
4.40775334971844
 10
7.667615605236463
 20
4.664119485968441
 42
0.9999999999999998
  0
LWPOLYLINE
  5
A06
330
1F
100
AcDbEntity
  8
CONTINUOUS1
100
AcDbPolyline
 90
        4
 70
     1
 43
0.0
 10
3.75728435523645
 20
6.935124192218445
 10
3.913209355236475
 20
6.935124192218445
 10
3.913209355236475
 20
6.351337487843444
 10
3.75728435523645
 20
6.351337487843444
  0
LWPOLYLINE
  5
A07
330
1F
100
AcDbEntity
  8
CONTINUOUS1
100
AcDbPolyline
 90
        4
 70
     1
 43
0.0
 10
3.778246817736444
 20
6.914161729718443
 10
3.892246932111461
 20
6.914161729718443
 10
3.892246932111461
 20
6.650764872218445
 10
3.778246817736444
 20
6.650764872218445
  0
LWPOLYLINE
  5
A08
330
1F
100
AcDbEntity
  8
CONTINUOUS1
100
AcDbPolyline
 90
        4
 70
     1
 43
0.0
 10
7.840865605236515
 20
6.935124192218445
 10
8.018053105236461
 20
6.935124192218445
 10
8.018053105236461
 20
6.351337487843444
 10
7.840865605236515
 20
6.351337487843444
  0
LWPOLYLINE
  5
A09
330
1F
100
AcDbEntity
  8
CONTINUOUS1
100
AcDbPolyline
 90
        4
 70
     1
 43
0.0
 10
7.861828067736453
 20
6.914161729718443
 10
7.997090682111505
 20
6.914161729718443
 10
7.997090682111505
 20
6.650764872218445
 10
7.861828067736453
 20
6.650764872218445
  0
LWPOLYLINE
  5
A0A
330
1F
100
AcDbEntity
  8
CONTINUOUS1
100
AcDbPolyline
 90
        8
 70
     0
 43
0.0
 10
5.563021855236414
 20
2.220661729718443
 10
2.865834355236486
 20
2.220661729718443
 10
2.787084355236473
 20
2.299411729718443
 10
2.787084355236473
 20
3.840942979718441
 10
2.865834355236486
 20
3.91969297971844
 10
3.991959355236431
 20
3.91969297971844
 10
3.991959355236431
 20
3.801567979718441
 10
4.110084355236452
 20
3.801567979718441
  0
LWPOLYLINE
  5
A0B
330
1F
100
AcDbEntity
  8
CONTINUOUS1
100
AcDbPolyline
 90
        8
 70
     0
 43
0.0
 10
7.575084355236484
 20
3.801567979718441
 10
7.693209355236447
 20
3.801567979718441
 10
7.693209355236447
 20
3.91969297971844
 10
8.819334355236449
 20
3.91969297971844
 10
8.898084355236463
 20
3.840942979718441
 10
8.898084355236463
 20
2.299411729718443
 10
8.819334355236449
 20
2.220661729718443
 10
6.122146855236408
 20
2.220661729718443
  0
LWPOLYLINE
  5
A0C
330
1F
100
AcDbEntity
  8
CONTINUOUS1
100
AcDbPolyline
 90
        4
 70
     0
 43
0.0
 10
4.671355588140457
 20
3.919961194441341
 42
0.3688109682998955
 10
4.632467715861437
 20
3.953161729718445
 10
4.383075994611445
 20
3.953161729718445
 42
0.3688109682998955
 10
4.344188122332482
 20
3.919961194441341
  0
LWPOLYLINE
  5
A0D
330
1F
100
AcDbEntity
  8
CONTINUOUS1
100
AcDbPolyline
 90
        4
 70
     0
 43
0.0
 10
5.116293088140494
 20
3.919961194441341
 42
0.3688109682998955
 10
5.077405215861475
 20
3.953161729718445
 10
4.828013494611482
 20
3.953161729718445
 42
0.3688109682998955
 10
4.78912562233252
 20
3.919961194441341
  0
LWPOLYLINE
  5
A0E
330
1F
100
AcDbEntity
  8
CONTINUOUS1
100
AcDbPolyline
 90
        4
 70
     0
 43
0.0
 10
5.561230588140418
 20
3.919961194441341
 42
0.3688109682998955
 10
5.522342715861512
 20
3.953161729718445
 10
5.272950994611463
 20
3.953161729718445
 42
0.3688109682998955
 10
5.234063122332443
 20
3.919961194441341
  0
LWPOLYLINE
  5
A0F
330
1F
100
AcDbEntity
  8
CONTINUOUS1
100
AcDbPolyline
 90
        4
 70
     0
 43
0.0
 10
6.451105588140379
 20
3.919961194441341
 42
0.3688109682998955
 10
6.412217715861473
 20
3.953161729718445
 10
6.162825994611424
 20
3.953161729718445
 42
0.3688109682998955
 10
6.123938122332518
 20
3.919961194441341
  0
LWPOLYLINE
  5
A10
330
1F
100
AcDbEntity
  8
CONTINUOUS1
100
AcDbPolyline
 90
        4
 70
     0
 43
0.0
 10
6.896043088140416
 20
3.919961194441341
 42
0.3688109682998955
 10
6.85715521586151
 20
3.953161729718445
 10
6.607763494611461
 20
3.953161729718445
 42
0.3688109682998955
 10
6.568875622332441
 20
3.919961194441341
  0
LWPOLYLINE
  5
A11
330
1F
100
AcDbEntity
  8
CONTINUOUS1
100
AcDbPolyline
 90
        4
 70
     0
 43
0.0
 10
7.340980588140453
 20
3.919961194441341
 42
0.3688109682998955
 10
7.302092715861434
 20
3.953161729718445
 10
7.052700994611498
 20
3.953161729718445
 42
0.3688109682998955
 10
7.013813122332479
 20
3.919961194441341
  0
LWPOLYLINE
  5
A12
330
1F
100
AcDbEntity
  8
CONTINUOUS1
100
AcDbPolyline
 90
        6
 70
     0
 43
0.0
 10
5.685084355236497
 20
2.417536729718442
 10
5.685084355236497
 20
2.614411729718444
 42
-0.4142135623730951
 10
5.724459355236447
 20
2.653786729718444
 10
5.960709355236488
 20
2.653786729718444
 42
-0.4142135623730951
 10
6.000084355236438
 20
2.614411729718444
 10
6.000084355236438
 20
2.417536729718442
  0
LWPOLYLINE
  5
A13
330
1F
100
AcDbEntity
  8
CONTINUOUS1
100
AcDbPolyline
 90
        6
 70
     0
 43
0.0
 10
5.724459355236447
 20
2.417536729718442
 10
5.724459355236447
 20
2.575036729718444
 10
5.744146855236479
 20
2.594724229718444
 10
5.941021855236456
 20
2.594724229718444
 10
5.960709355236488
 20
2.575036729718444
 10
5.960709355236488
 20
2.417536729718442
  0
LWPOLYLINE
  5
A14
330
1F
100
AcDbEntity
  8
CONTINUOUS1
100
AcDbPolyline
 90
       21
 70
     0
 43
0.0
 10
5.645709355236434
 20
2.409375906593442
 10
5.665800094611498
 20
2.412233822843443
 10
5.685453771486507
 20
2.414498554718441
 10
5.704973140236418
 20
2.416162266593442
 10
5.724528694611493
 20
2.417188694093443
 10
5.744146855236479
 20
2.417536769093445
 10
5.763767614611495
 20
2.417188615343444
 10
5.783325216486517
 20
2.416161951593444
 10
5.802844467111484
 20
2.414498121593442
 10
5.822494127736447
 20
2.412233783468444
 10
5.842584355236411
 20
2.409375906593442
 10
5.862675094611475
 20
2.412233822843443
 10
5.882328771486484
 20
2.414498554718441
 10
5.901848140236509
 20
2.416162266593442
 10
5.92140369461147
 20
2.417188694093443
 10
5.941021855236456
 20
2.417536769093445
 10
5.960642614611472
 20
2.417188615343444
 10
5.980200216486494
 20
2.416161951593444
 10
5.999719467111461
 20
2.414498121593442
 10
6.019369127736425
 20
2.412233783468444
 10
6.039459355236502
 20
2.409375906593442
  0
DIMENSION
  5
A58
330
1F
100
AcDbEntity
  8
DIM
100
AcDbDimension
  2
*D4
 10
8.992584355236502
 20
1.325335008550389
 30
0.0
 11
5.842584355236468
 21
1.325335008550389
 31
0.0
 70
    32
  3
SCHNEIDERELECTRIC_DUAL_BEL
100
AcDbAlignedDimension
 13
2.692584355236434
 23
2.240349229718443
 33
0.0
 14
8.992584355236502
 24
2.240349229718443
 34
0.0
100
AcDbRotatedDimension
1001
ACAD
1000
DSTYLE
1002
{
1070
    40
1040
1.0
1002
}
  0
DIMENSION
  5
A66
330
1F
100
AcDbEntity
  8
DIM
100
AcDbDimension
  2
*D5
 10
1.758847512935972
 20
9.571974229718444
 30
0.0
 11
1.75884751293597
 21
5.847099229718444
 31
0.0
 70
    32
  3
SCHNEIDERELECTRIC_DUAL_BEL
100
AcDbAlignedDimension
 13
2.810709355236454
 23
2.122224229718444
 33
0.0
 14
4.110084355236452
 24
9.571974229718442
 34
0.0
 50
90.0
100
AcDbRotatedDimension
1001
ACAD
1000
DSTYLE
1002
{
1070
    40
1040
1.0
1002
}
  0
VIEWPORT
  5
32
330
1B
100
AcDbEntity
 67
     1
  8
0
100
AcDbViewport
 10
8.200532303936633
 20
4.967098920424233
 30
0.0
 40
17.38062768670907
 41
10.35318587660873
 68
     1
 69
     1
1001
ACAD
1000
MVIEW
1002
{
1070
    16
1010
0.0
1020
0.0
1030
0.0
1010
0.0
1020
0.0
1030
1.0
1040
0.0
1040
10.35318587660873
1040
8.200532303936633
1040
4.967098920424233
1040
50.0
1040
0.0
1040
0.0
1070
     0
1070
   100
1070
     1
1070
     0
1070
     0
1070
     0
1070
     0
1070
     0
1040
0.0
1040
0.0
1040
0.0
1040
0.5
1040
0.5
1040
0.5
1040
0.5
1070
     0
1002
{
1002
}
1002
}
  0
LWPOLYLINE
  5
5AF
330
1B
100
AcDbEntity
 67
     1
  8
VIEWPORT
100
AcDbPolyline
 90
        6
 70
     1
 43
0.0
 10
0.0
 20
0.0
 10
8.002499999999999
 20
0.0
 10
8.002499999999999
 20
0.912
 10
16.39999999999999
 20
0.912
 10
16.39999999999999
 20
10.0954
 10
0.0
 20
10.0954
  0
VIEWPORT
  5
5B0
330
1B
100
AcDbEntity
 67
     1
  8
VIEWPORT
100
AcDbViewport
 10
8.199999999999999
 20
5.047699999999999
 30
0.0
 40
16.39999999999999
 41
10.0954
 68
     2
 69
     2
1001
ACAD
1000
MVIEW
1002
{
1070
    16
1010
0.0
1020
0.0
1030
0.0
1010
0.0
1020
0.0
1030
1.0
1040
0.0
1040
10.09539999523466
1040
8.186841139292697
1040
5.014573605866207
1040
50.0
1040
0.0
1040
0.0
1070
     0
1070
   100
1070
     1
1070
     0
1070
     0
1070
     0
1070
     0
1070
     0
1040
0.0
1040
0.0
1040
0.0
1040
0.0
1040
0.0
1040
0.0
1040
0.0
1070
     0
1002
{
1002
}
1002
}
  0
INSERT
  5
5D0
330
1B
100
AcDbEntity
 67
     1
  8
TITLEBLOCK
100
AcDbBlockReference
 66
     1
  2
TB-PAD
 10
0.0
 20
0.0
 30
0.0
  0
ATTRIB
  5
5D2
330
5D0
100
AcDbEntity
 67
     1
  8
TEXT1
 62
     0
100
AcDbText
 10
10.10183835760059
 20
0.7474460800344916
 30
0.0
 40
0.1
  1

  7
ROMANS
 72
     4
 11
10.10183835760059
 21
0.7474460800344916
 31
0.0
100
AcDbAttribute
  2
DESCRIPTION 1
 70
     0
  0
ATTRIB
  5
5D3
330
5D0
100
AcDbEntity
 67
     1
  8
TEXT1
 62
     0
100
AcDbText
 10
8.506600262362496
 20
0.5517231627161465
 30
0.0
 40
0.1
  1
ALTISTART 48 PANEL-MOUNT SOFT START
  7
ROMANS
 72
     4
 11
10.10183835760059
 21
0.6017231627161466
 31
0.0
100
AcDbAttribute
  2
DESCRIPTION 2
 70
     0
  0
ATTRIB
  5
5D4
330
5D0
100
AcDbEntity
 67
     1
  8
TEXT1
 62
     0
100
AcDbText
 10
8.724695500457734
 20
0.4236192930168493
 30
0.0
 40
0.08
  1
17A, 22A, 32A, 38A, 47A - 208V TO 690V
  7
ROMANS
 72
     4
 11
10.10183835760059
 21
0.4560002453978016
 31
0.0
100
AcDbAttribute
  2
DESCRIPTION 3
 70
     0
  0
ATTRIB
  5
5D5
330
5D0
100
AcDbEntity
 67
     1
  8
TEXT1
 62
     0
100
AcDbText
 10
8.943743119505352
 20
0.2878963756985058
 30
0.0
 40
0.08
  1
10-30 HP @ 480V, STANDARD DUTY
  7
ROMANS
 72
     4
 11
10.10183835760059
 21
0.3202773280794582
 31
0.0
100
AcDbAttribute
  2
DESCRIPTION 4
 70
     0
  0
ATTRIB
  5
5D6
330
5D0
100
AcDbEntity
 67
     1
  8
TEXT1
 62
     0
100
AcDbText
 10
9.696124071886305
 20
0.1445544107611148
 30
0.0
 40
0.08
  1
BOTTOM VIEW
  7
ROMANS
 72
     4
 11
10.10183835760059
 21
0.1845544107611148
 31
0.0
100
AcDbAttribute
  2
DESCRIPTION 5
 70
     0
  0
ATTRIB
  5
5D7
330
5D0
100
AcDbEntity
 67
     1
  8
TEXT1
 62
     0
100
AcDbText
 10
12.74772367969455
 20
0.09654053761198
 30
0.0
 40
0.12
  1
ATS48-02
 41
0.9512024731840066
  7
M_STANDARD
 11
12.74772367969455
 21
0.1565405376119799
 31
0.0
100
AcDbAttribute
  2
DWGNO
 70
     0
 74
     2
  0
ATTRIB
  5
5D8
330
5D0
100
AcDbEntity
 67
     1
  8
TEXT1
 62
     0
100
AcDbText
 10
14.2026836057749
 20
-0.1507193164174602
 30
0.0
 40
0.08
  1
ATS48D17Y, D22Y, D32Y, D47Y_BV
  7
ROMANS
 72
     2
 11
16.35506455815586
 21
-0.1107193164174602
 31
0.0
100
AcDbAttribute
  2
REF
 70
     0
 74
     2
  0
ATTRIB
  5
5D9
330
5D0
100
AcDbEntity
 67
     1
  8
TEXT1
 62
     0
100
AcDbText
 10
0.0266402460664743
 20
-0.1507193164174602
 30
0.0
 40
0.08
  1
APRIL 2004
  7
ROMANS
 11
0.0266402460664743
 21
-0.1107193164174602
 31
0.0
100
AcDbAttribute
  2
DATE
 70
     0
 74
     2
  0
SEQEND
  5
5D1
330
5D0
100
AcDbEntity
 67
     1
  8
TITLEBLOCK
  0
INSERT
  5
61E
330
1B
100
AcDbEntity
 67
     1
  8
TITLEBLOCK
100
AcDbBlockReference
  2
LOGO-PAD
 10
12.275
 20
0.152
 30
0.0
  0
ENDSEC
  0
SECTION
  2
OBJECTS
  0
DICTIONARY
  5
C
330
0
100
AcDbDictionary
  3
ACAD_GROUP
350
D
  3
ACAD_LAYOUT
350
1A
  3
ACAD_MLINESTYLE
350
17
  3
ACAD_PLOTSETTINGS
350
19
  3
ACAD_PLOTSTYLENAME
350
E
  3
ACDBHEADERROUNDTRIPXREC
350
1059
  3
ACDBVARIABLEDICTIONARY
350
39D
  3
ASE_INDEX_DICTIONARY
350
159
  3
DWGPROPS
350
72
  0
DICTIONARY
  5
73
330
1F
100
AcDbDictionary
280
     1
  3
ACAD_LAYOUTSELFREF
360
107B
  0
DICTIONARY
  5
75
330
1B
100
AcDbDictionary
280
     1
  3
ACAD_LAYOUTSELFREF
360
107A
  0
DICTIONARY
  5
D
102
{ACAD_REACTORS
330
C
102
}
330
C
100
AcDbDictionary
  0
DICTIONARY
  5
1A
102
{ACAD_REACTORS
330
C
102
}
330
C
100
AcDbDictionary
  0
DICTIONARY
  5
17
102
{ACAD_REACTORS
330
C
102
}
330
C
100
AcDbDictionary
  3
STANDARD
350
18
  0
DICTIONARY
  5
19
102
{ACAD_REACTORS
330
C
102
}
330
C
100
AcDbDictionary
  3
A_SIZE_PAPER
350
5AE
  3
B_SIZE_PAPER
350
5AD
  3
D_SIZE_PAPER
350
5BE
  0
ACDBDICTIONARYWDFLT
  5
E
102
{ACAD_REACTORS
330
C
102
}
330
C
100
AcDbDictionary
281
     1
  3
Normal
350
F
100
AcDbDictionaryWithDefault
340
F
  0
DICTIONARY
  5
1059
102
{ACAD_REACTORS
330
C
102
}
330
C
100
AcDbDictionary
  3
CEPSNTYPE
350
1063
  3
DIMSTYLEDATA
350
1067
  3
FINGERPRINTGUID
350
1064
  3
HYPERLINKBASE
350
105C
  3
INSUNITS
350
1062
  3
LAYOUTDICT
350
105E
  3
LWETCUNION
350
1061
  3
PLOTSETDICT
350
105F
  3
PLOTSTYLNAMDICT
350
1060
  3
PSVPSCALE
350
1066
  3
PUCSBASE
350
106A
  3
PUCSORGBACK
350
1070
  3
PUCSORGBOTTOM
350
106C
  3
PUCSORGFRONT
350
106F
  3
PUCSORGLEFT
350
106D
  3
PUCSORGRIGHT
350
106E
  3
PUCSORGTOP
350
106B
  3
PUCSORTHOREF
350
1068
  3
PUCSORTHOVIEW
350
1069
  3
STYLESHEET
350
105D
  3
TSTACKALIGN
350
105A
  3
TSTACKSIZE
350
105B
  3
UCSBASE
350
1073
  3
UCSORGBACK
350
1079
  3
UCSORGBOTTOM
350
1075
  3
UCSORGFRONT
350
1078
  3
UCSORGLEFT
350
1076
  3
UCSORGRIGHT
350
1077
  3
UCSORGTOP
350
1074
  3
UCSORTHOREF
350
1071
  3
UCSORTHOVIEW
350
1072
  3
VERSIONGUID
350
1065
  0
DICTIONARY
  5
39D
102
{ACAD_REACTORS
330
C
102
}
330
C
100
AcDbDictionary
  3
DIMASSOC
350
39E
  0
DICTIONARY
  5
159
102
{ACAD_REACTORS
330
C
102
}
330
C
100
AcDbDictionary
  3
ASEBLOCKHIERARCHYINDEXRECORD
350
15A
1001
DCO15
1040
1380956594.129
  0
XRECORD
  5
72
102
{ACAD_REACTORS
330
C
102
}
330
C
100
AcDbXrecord
  1
DWGPROPS COOKIE
  2

  3

  4

  6

  7

  8
mgp706
  9

300
=
301
=
302
=
303
=
304
=
305
=
306
=
307
=
308
=
309
=
 40
0.0868964930555556
 41
2451764.576708576
 42
2451774.507474664
  1

 90
        0
  0
XRECORD
  5
107B
102
{ACAD_REACTORS
330
73
102
}
330
73
100
AcDbXrecord
340
1F
  0
XRECORD
  5
107A
102
{ACAD_REACTORS
330
75
102
}
330
75
100
AcDbXrecord
340
1B
  0
MLINESTYLE
  5
18
102
{ACAD_REACTORS
330
17
102
}
330
17
100
AcDbMlineStyle
  2
STANDARD
 70
     0
  3

 62
   256
 51
90.0
 52
90.0
 71
     2
 49
0.5
 62
   256
  6
BYLAYER
 49
-0.5
 62
   256
  6
BYLAYER
  0
PLOTSETTINGS
  5
5AE
102
{ACAD_REACTORS
330
19
102
}
330
19
100
AcDbPlotSettings
  1
A Size Paper
  2
none_device
  4
ANSI_A_(8.50_x_11.00_Inches)
  6

 40
6.349999904632568
 41
19.04999923706054
 42
6.350006103515625
 43
19.04998779296875
 44
215.8999938964843
 45
279.3999938964843
 46
0.0
 47
0.0
 48
0.0
 49
0.0
140
0.0
141
0.0
142
1.0
143
1.6
 70
 15012
 72
     0
 73
     1
 74
     1
  7
monochrome.ctb
 75
    16
147
1.0
148
0.0
149
0.0
  0
PLOTSETTINGS
  5
5AD
102
{ACAD_REACTORS
330
19
102
}
330
19
100
AcDbPlotSettings
  1
B Size Paper
  2
none_device
  4
ANSI_B_(11.00_x_17.00_Inches)
  6

 40
6.349999904632568
 41
19.04999923706054
 42
6.350006103515625
 43
19.04998779296875
 44
279.3999938964843
 45
431.7999877929687
 46
0.0
 47
0.0
 48
0.0
 49
0.0
140
0.0
141
0.0
142
1.0
143
1.0
 70
 15012
 72
     0
 73
     1
 74
     1
  7
monochrome.ctb
 75
    16
147
1.0
148
0.0
149
0.0
  0
PLOTSETTINGS
  5
5BE
102
{ACAD_REACTORS
330
19
102
}
330
19
100
AcDbPlotSettings
  1
D Size Paper
  2
none_device
  4
ANSI_D_(22.00_x_34.00_Inches)
  6

 40
6.349999904632568
 41
19.04999923706054
 42
6.3499755859375
 43
19.04998779296875
 44
558.7999877929687
 45
863.5999755859375
 46
8.889999999999998
 47
-3.809999999999999
 48
0.0
 49
0.0
140
0.0
141
0.0
142
1.0
143
0.5
 70
   740
 72
     0
 73
     1
 74
     1
  7
monochrome.ctb
 75
     0
147
2.0
148
0.0034886547032954
149
0.0199946439100934
  0
ACDBPLACEHOLDER
  5
F
102
{ACAD_REACTORS
330
E
102
}
330
E
100
AcDbPlaceHolder
280
     0
  0
XRECORD
  5
1063
102
{ACAD_REACTORS
330
1059
102
}
330
1059
100
AcDbXrecord
 90
        0
  0
XRECORD
  5
1067
102
{ACAD_REACTORS
330
1059
102
}
330
1059
100
AcDbXrecord
1000
DSTYLE
1002
{
1070
    79
 70
     1
1070
   148
 40
0.1
1070
   341
340
195
1070
   342
340
195
1070
   371
 70
    -1
1070
   372
 70
    -1
1002
}
  0
XRECORD
  5
1064
102
{ACAD_REACTORS
330
1059
102
}
330
1059
100
AcDbXrecord
  1
{4E694E3A-6C64-11D4-81E3-0004AC4461C9}
  0
XRECORD
  5
105C
102
{ACAD_REACTORS
330
1059
102
}
330
1059
100
AcDbXrecord
  1

  0
XRECORD
  5
1062
102
{ACAD_REACTORS
330
1059
102
}
330
1059
100
AcDbXrecord
 90
        1
  0
XRECORD
  5
105E
102
{ACAD_REACTORS
330
1059
102
}
330
1059
100
AcDbXrecord
340
1A
  0
XRECORD
  5
1061
102
{ACAD_REACTORS
330
1059
102
}
330
1059
100
AcDbXrecord
 90
    10269
  0
XRECORD
  5
105F
102
{ACAD_REACTORS
330
1059
102
}
330
1059
100
AcDbXrecord
340
19
  0
XRECORD
  5
1060
102
{ACAD_REACTORS
330
1059
102
}
330
1059
100
AcDbXrecord
340
E
  0
XRECORD
  5
1066
102
{ACAD_REACTORS
330
1059
102
}
330
1059
100
AcDbXrecord
 40
0.0
  0
XRECORD
  5
106A
102
{ACAD_REACTORS
330
1059
102
}
330
1059
100
AcDbXrecord
340
0
  0
XRECORD
  5
1070
102
{ACAD_REACTORS
330
1059
102
}
330
1059
100
AcDbXrecord
 10
0.0
 20
0.0
 30
0.0
  0
XRECORD
  5
106C
102
{ACAD_REACTORS
330
1059
102
}
330
1059
100
AcDbXrecord
 10
0.0
 20
0.0
 30
0.0
  0
XRECORD
  5
106F
102
{ACAD_REACTORS
330
1059
102
}
330
1059
100
AcDbXrecord
 10
0.0
 20
0.0
 30
0.0
  0
XRECORD
  5
106D
102
{ACAD_REACTORS
330
1059
102
}
330
1059
100
AcDbXrecord
 10
0.0
 20
0.0
 30
0.0
  0
XRECORD
  5
106E
102
{ACAD_REACTORS
330
1059
102
}
330
1059
100
AcDbXrecord
 10
0.0
 20
0.0
 30
0.0
  0
XRECORD
  5
106B
102
{ACAD_REACTORS
330
1059
102
}
330
1059
100
AcDbXrecord
 10
0.0
 20
0.0
 30
0.0
  0
XRECORD
  5
1068
102
{ACAD_REACTORS
330
1059
102
}
330
1059
100
AcDbXrecord
340
0
  0
XRECORD
  5
1069
102
{ACAD_REACTORS
330
1059
102
}
330
1059
100
AcDbXrecord
 70
     0
  0
XRECORD
  5
105D
102
{ACAD_REACTORS
330
1059
102
}
330
1059
100
AcDbXrecord
  1

  0
XRECORD
  5
105A
102
{ACAD_REACTORS
330
1059
102
}
330
1059
100
AcDbXrecord
 90
        1
  0
XRECORD
  5
105B
102
{ACAD_REACTORS
330
1059
102
}
330
1059
100
AcDbXrecord
 90
       70
  0
XRECORD
  5
1073
102
{ACAD_REACTORS
330
1059
102
}
330
1059
100
AcDbXrecord
340
0
  0
XRECORD
  5
1079
102
{ACAD_REACTORS
330
1059
102
}
330
1059
100
AcDbXrecord
 10
0.0
 20
0.0
 30
0.0
  0
XRECORD
  5
1075
102
{ACAD_REACTORS
330
1059
102
}
330
1059
100
AcDbXrecord
 10
0.0
 20
0.0
 30
0.0
  0
XRECORD
  5
1078
102
{ACAD_REACTORS
330
1059
102
}
330
1059
100
AcDbXrecord
 10
0.0
 20
0.0
 30
0.0
  0
XRECORD
  5
1076
102
{ACAD_REACTORS
330
1059
102
}
330
1059
100
AcDbXrecord
 10
0.0
 20
0.0
 30
0.0
  0
XRECORD
  5
1077
102
{ACAD_REACTORS
330
1059
102
}
330
1059
100
AcDbXrecord
 10
0.0
 20
0.0
 30
0.0
  0
XRECORD
  5
1074
102
{ACAD_REACTORS
330
1059
102
}
330
1059
100
AcDbXrecord
 10
0.0
 20
0.0
 30
0.0
  0
XRECORD
  5
1071
102
{ACAD_REACTORS
330
1059
102
}
330
1059
100
AcDbXrecord
340
0
  0
XRECORD
  5
1072
102
{ACAD_REACTORS
330
1059
102
}
330
1059
100
AcDbXrecord
 70
     0
  0
XRECORD
  5
1065
102
{ACAD_REACTORS
330
1059
102
}
330
1059
100
AcDbXrecord
  1
{79A2DCE2-5B62-4BE0-A532-1856846C57C5}
  0
DICTIONARYVAR
  5
39E
102
{ACAD_REACTORS
330
39D
102
}
330
39D
100
DictionaryVariables
280
     0
  1
1
  0
XRECORD
  5
15A
102
{ACAD_REACTORS
330
159
102
}
330
159
100
AcDbXrecord
  0
ENDSEC
  0
EOF
