  0
SECTION
  2
HEADER
  9
$ACADVER
  1
AC1012
  9
$DWGCODEPAGE
  3
ANSI_1252
  9
$INSBASE
 10
402.590624
 20
-1.041018
 30
0.0
  9
$EXTMIN
 10
40.893953
 20
39.21714
 30
0.0
  9
$EXTMAX
 10
151.470575
 20
149.391967
 30
0.0
  9
$LIMMIN
 10
-407.970438
 20
-367.832444
  9
$LIMMAX
 10
429.804077
 20
234.370848
  9
$ORTHOMODE
 70
     1
  9
$REGENMODE
 70
     1
  9
$FILLMODE
 70
     1
  9
$QTEXTMODE
 70
     0
  9
$MIRRTEXT
 70
     1
  9
$DRAGMODE
 70
     2
  9
$LTSCALE
 40
10.0
  9
$OSMODE
 70
    37
  9
$ATTMODE
 70
     1
  9
$TEXTSIZE
 40
6.0
  9
$TRACEWID
 40
1.0
  9
$TEXTSTYLE
  7
ROMANS
  9
$CLAYER
  8
POINTILLE_COURT
  9
$CELTYPE
  6
BYLAYER
  9
$CECOLOR
 62
   256
  9
$CELTSCALE
 40
1.0
  9
$DELOBJ
 70
     1
  9
$DISPSILH
 70
     0
  9
$DIMSCALE
 40
1.0
  9
$DIMASZ
 40
5.0
  9
$DIMEXO
 40
2.0
  9
$DIMDLI
 40
0.38
  9
$DIMRND
 40
0.0
  9
$DIMDLE
 40
0.0
  9
$DIMEXE
 40
2.5
  9
$DIMTP
 40
0.0
  9
$DIMTM
 40
0.0
  9
$DIMTXT
 40
2.5
  9
$DIMCEN
 40
0.0
  9
$DIMTSZ
 40
0.0
  9
$DIMTOL
 70
     0
  9
$DIMLIM
 70
     0
  9
$DIMTIH
 70
     1
  9
$DIMTOH
 70
     1
  9
$DIMSE1
 70
     0
  9
$DIMSE2
 70
     0
  9
$DIMTAD
 70
     1
  9
$DIMZIN
 70
    12
  9
$DIMBLK
  1
OPEN30
  9
$DIMASO
 70
     1
  9
$DIMSHO
 70
     1
  9
$DIMPOST
  1

  9
$DIMAPOST
  1

  9
$DIMALT
 70
     0
  9
$DIMALTD
 70
     2
  9
$DIMALTF
 40
25.4
  9
$DIMLFAC
 40
1.0
  9
$DIMTOFL
 70
     0
  9
$DIMTVP
 40
0.0
  9
$DIMTIX
 70
     0
  9
$DIMSOXD
 70
     0
  9
$DIMSAH
 70
     0
  9
$DIMBLK1
  1

  9
$DIMBLK2
  1

  9
$DIMSTYLE
  2
SC_DEFAUT
  9
$DIMCLRD
 70
     0
  9
$DIMCLRE
 70
     0
  9
$DIMCLRT
 70
     0
  9
$DIMTFAC
 40
1.0
  9
$DIMGAP
 40
2.0
  9
$DIMJUST
 70
     0
  9
$DIMSD1
 70
     0
  9
$DIMSD2
 70
     0
  9
$DIMTOLJ
 70
     1
  9
$DIMTZIN
 70
    12
  9
$DIMALTZ
 70
    12
  9
$DIMALTTZ
 70
    12
  9
$DIMFIT
 70
     5
  9
$DIMUPT
 70
     0
  9
$DIMUNIT
 70
     2
  9
$DIMDEC
 70
     1
  9
$DIMTDEC
 70
     1
  9
$DIMALTU
 70
     2
  9
$DIMALTTD
 70
     2
  9
$DIMTXSTY
  7
ROMANS
  9
$DIMAUNIT
 70
     0
  9
$LUNITS
 70
     2
  9
$LUPREC
 70
     1
  9
$SKETCHINC
 40
0.1
  9
$FILLETRAD
 40
0.0
  9
$AUNITS
 70
     0
  9
$AUPREC
 70
     0
  9
$MENU
  1
acad
  9
$ELEVATION
 40
0.0
  9
$PELEVATION
 40
0.0
  9
$THICKNESS
 40
0.0
  9
$LIMCHECK
 70
     0
  9
$BLIPMODE
 70
     0
  9
$CHAMFERA
 40
0.0
  9
$CHAMFERB
 40
0.0
  9
$CHAMFERC
 40
0.0
  9
$CHAMFERD
 40
0.0
  9
$SKPOLY
 70
     0
  9
$TDCREATE
 40
2450373.687919444
  9
$TDUPDATE
 40
2453644.601755474
  9
$TDINDWG
 40
1.0682537269
  9
$TDUSRTIMER
 40
1.0682537269
  9
$USRTIMER
 70
     1
  9
$ANGBASE
 50
0.0
  9
$ANGDIR
 70
     0
  9
$PDMODE
 70
    32
  9
$PDSIZE
 40
0.0
  9
$PLINEWID
 40
0.0
  9
$COORDS
 70
     1
  9
$SPLFRAME
 70
     0
  9
$SPLINETYPE
 70
     6
  9
$SPLINESEGS
 70
     8
  9
$ATTDIA
 70
     0
  9
$ATTREQ
 70
     1
  9
$HANDLING
 70
     1
  9
$HANDSEED
  5
C3B9
  9
$SURFTAB1
 70
     6
  9
$SURFTAB2
 70
     6
  9
$SURFTYPE
 70
     6
  9
$SURFU
 70
     6
  9
$SURFV
 70
     6
  9
$UCSNAME
  2

  9
$UCSORG
 10
0.0
 20
0.0
 30
0.0
  9
$UCSXDIR
 10
1.0
 20
0.0
 30
0.0
  9
$UCSYDIR
 10
0.0
 20
1.0
 30
0.0
  9
$PUCSNAME
  2

  9
$PUCSORG
 10
0.0
 20
0.0
 30
0.0
  9
$PUCSXDIR
 10
1.0
 20
0.0
 30
0.0
  9
$PUCSYDIR
 10
0.0
 20
1.0
 30
0.0
  9
$USERI1
 70
     0
  9
$USERI2
 70
     0
  9
$USERI3
 70
     0
  9
$USERI4
 70
     0
  9
$USERI5
 70
     0
  9
$USERR1
 40
0.0
  9
$USERR2
 40
0.0
  9
$USERR3
 40
0.0
  9
$USERR4
 40
0.0
  9
$USERR5
 40
0.0
  9
$WORLDVIEW
 70
     1
  9
$SHADEDGE
 70
     3
  9
$SHADEDIF
 70
    70
  9
$TILEMODE
 70
     1
  9
$MAXACTVP
 70
    16
  9
$PINSBASE
 10
0.0
 20
0.0
 30
0.0
  9
$PLIMCHECK
 70
     0
  9
$PEXTMIN
 10
1.000000E+20
 20
1.000000E+20
 30
1.000000E+20
  9
$PEXTMAX
 10
-1.000000E+20
 20
-1.000000E+20
 30
-1.000000E+20
  9
$PLIMMIN
 10
0.0
 20
0.0
  9
$PLIMMAX
 10
12.0
 20
9.0
  9
$UNITMODE
 70
     0
  9
$VISRETAIN
 70
     0
  9
$PLINEGEN
 70
     0
  9
$PSLTSCALE
 70
     0
  9
$TREEDEPTH
 70
  3020
  9
$PICKSTYLE
 70
     0
  9
$CMLSTYLE
  2
STANDARD
  9
$CMLJUST
 70
     0
  9
$CMLSCALE
 40
1.0
  9
$SAVEIMAGES
 70
     1
  0
ENDSEC
  0
SECTION
  2
CLASSES
  0
CLASS
  1
ACDBDICTIONARYWDFLT
  2
AcDbDictionaryWithDefault
  3
AutoCAD 2000
 90
    32768
280
     0
281
     0
  0
CLASS
  1
ACDBPLACEHOLDER
  2
AcDbPlaceHolder
  3
AutoCAD 2000
 90
    32768
280
     0
281
     0
  0
CLASS
  1
LAYOUT
  2
AcDbLayout
  3
AutoCAD 2000
 90
    32768
280
     0
281
     0
  0
CLASS
  1
DICTIONARYVAR
  2
AcDbDictionaryVar
  3
"AutoCAD"
 90
    32768
280
     0
281
     0
  0
CLASS
  1
LONG_TRANSACTION
  2
AcDbLongTransaction
  3
AutoCAD 2000
 90
    32768
280
     0
281
     0
  0
CLASS
  1
LWPOLYLINE
  2
AcDbPolyline
  3
"AutoCAD"
 90
    32768
280
     0
281
     1
  0
CLASS
  1
HATCH
  2
AcDbHatch
  3
"ACAD_SEDONA"
 90
    32768
280
     0
281
     1
  0
CLASS
  1
XRECORD
  2
AcDbXrecord
  3
"<Built In>"
 90
    32768
280
     0
281
     0
  0
CLASS
  1
LONG_TRANSACTION
  2
AcDbLongTransaction
  3
AutoCAD 2000
 90
    32768
280
     0
281
     0
  0
CLASS
  1
LWPOLYLINE
  2
AcDbPolyline
  3
"AutoCAD"
 90
    32768
280
     0
281
     1
  0
CLASS
  1
HATCH
  2
AcDbHatch
  3
"ACAD_SEDONA"
 90
    32768
280
     0
281
     1
  0
CLASS
  1
XRECORD
  2
AcDbXrecord
  3
"<Built In>"
 90
    32768
280
     0
281
     0
  0
CLASS
  1
LONG_TRANSACTION
  2
AcDbLongTransaction
  3
AutoCAD 2000
 90
    32768
280
     0
281
     0
  0
CLASS
  1
LWPOLYLINE
  2
AcDbPolyline
  3
"AutoCAD"
 90
    32768
280
     0
281
     1
  0
CLASS
  1
HATCH
  2
AcDbHatch
  3
"ACAD_SEDONA"
 90
    32768
280
     0
281
     1
  0
CLASS
  1
XRECORD
  2
AcDbXrecord
  3
"<Built In>"
 90
    32768
280
     0
281
     0
  0
CLASS
  1
LONG_TRANSACTION
  2
AcDbLongTransaction
  3
AutoCAD 2000
 90
    32768
280
     0
281
     0
  0
CLASS
  1
LWPOLYLINE
  2
AcDbPolyline
  3
"AutoCAD"
 90
    32768
280
     0
281
     1
  0
CLASS
  1
HATCH
  2
AcDbHatch
  3
"ACAD_SEDONA"
 90
    32768
280
     0
281
     1
  0
CLASS
  1
XRECORD
  2
AcDbXrecord
  3
"<Built In>"
 90
    32768
280
     0
281
     0
  0
CLASS
  1
LONG_TRANSACTION
  2
AcDbLongTransaction
  3
AutoCAD 2000
 90
    32768
280
     0
281
     0
  0
CLASS
  1
LWPOLYLINE
  2
AcDbPolyline
  3
"AutoCAD"
 90
    32768
280
     0
281
     1
  0
CLASS
  1
HATCH
  2
AcDbHatch
  3
"ACAD_SEDONA"
 90
    32768
280
     0
281
     1
  0
CLASS
  1
XRECORD
  2
AcDbXrecord
  3
"<Built In>"
 90
    32768
280
     0
281
     0
  0
CLASS
  1
LONG_TRANSACTION
  2
AcDbLongTransaction
  3
AutoCAD 2000
 90
    32768
280
     0
281
     0
  0
CLASS
  1
LWPOLYLINE
  2
AcDbPolyline
  3
"AutoCAD"
 90
    32768
280
     0
281
     1
  0
CLASS
  1
HATCH
  2
AcDbHatch
  3
"ACAD_SEDONA"
 90
    32768
280
     0
281
     1
  0
CLASS
  1
XRECORD
  2
AcDbXrecord
  3
"<Built In>"
 90
    32768
280
     0
281
     0
  0
CLASS
  1
LONG_TRANSACTION
  2
AcDbLongTransaction
  3
AutoCAD 2000
 90
    32768
280
     0
281
     0
  0
CLASS
  1
LWPOLYLINE
  2
AcDbPolyline
  3
"AutoCAD"
 90
    32768
280
     0
281
     1
  0
CLASS
  1
HATCH
  2
AcDbHatch
  3
"ACAD_SEDONA"
 90
    32768
280
     0
281
     1
  0
CLASS
  1
XRECORD
  2
AcDbXrecord
  3
"<Built In>"
 90
    32768
280
     0
281
     0
  0
CLASS
  1
LONG_TRANSACTION
  2
AcDbLongTransaction
  3
AutoCAD 2000
 90
    32768
280
     0
281
     0
  0
CLASS
  1
LWPOLYLINE
  2
AcDbPolyline
  3
"AutoCAD"
 90
    32768
280
     0
281
     1
  0
CLASS
  1
HATCH
  2
AcDbHatch
  3
"ACAD_SEDONA"
 90
    32768
280
     0
281
     1
  0
CLASS
  1
XRECORD
  2
AcDbXrecord
  3
"<Built In>"
 90
    32768
280
     0
281
     0
  0
CLASS
  1
LONG_TRANSACTION
  2
AcDbLongTransaction
  3
AutoCAD 2000
 90
    32768
280
     0
281
     0
  0
CLASS
  1
LWPOLYLINE
  2
AcDbPolyline
  3
"AutoCAD"
 90
    32768
280
     0
281
     1
  0
CLASS
  1
HATCH
  2
AcDbHatch
  3
"ACAD_SEDONA"
 90
    32768
280
     0
281
     1
  0
CLASS
  1
XRECORD
  2
AcDbXrecord
  3
"<Built In>"
 90
    32768
280
     0
281
     0
  0
CLASS
  1
LONG_TRANSACTION
  2
AcDbLongTransaction
  3
AutoCAD 2000
 90
    32768
280
     0
281
     0
  0
CLASS
  1
LWPOLYLINE
  2
AcDbPolyline
  3
"AutoCAD"
 90
    32768
280
     0
281
     1
  0
CLASS
  1
HATCH
  2
AcDbHatch
  3
"ACAD_SEDONA"
 90
    32768
280
     0
281
     1
  0
CLASS
  1
XRECORD
  2
AcDbXrecord
  3
"<Built In>"
 90
    32768
280
     0
281
     0
  0
CLASS
  1
LONG_TRANSACTION
  2
AcDbLongTransaction
  3
AutoCAD 2000
 90
    32768
280
     0
281
     0
  0
CLASS
  1
LWPOLYLINE
  2
AcDbPolyline
  3
"AutoCAD"
 90
    32768
280
     0
281
     1
  0
CLASS
  1
HATCH
  2
AcDbHatch
  3
"ACAD_SEDONA"
 90
    32768
280
     0
281
     1
  0
CLASS
  1
XRECORD
  2
AcDbXrecord
  3
"<Built In>"
 90
    32768
280
     0
281
     0
  0
CLASS
  1
LONG_TRANSACTION
  2
AcDbLongTransaction
  3
AutoCAD 2000
 90
    32768
280
     0
281
     0
  0
CLASS
  1
LWPOLYLINE
  2
AcDbPolyline
  3
"AutoCAD"
 90
    32768
280
     0
281
     1
  0
CLASS
  1
HATCH
  2
AcDbHatch
  3
"ACAD_SEDONA"
 90
    32768
280
     0
281
     1
  0
CLASS
  1
XRECORD
  2
AcDbXrecord
  3
"<Built In>"
 90
    32768
280
     0
281
     0
  0
CLASS
  1
LONG_TRANSACTION
  2
AcDbLongTransaction
  3
AutoCAD 2000
 90
    32768
280
     0
281
     0
  0
CLASS
  1
LWPOLYLINE
  2
AcDbPolyline
  3
"AutoCAD"
 90
    32768
280
     0
281
     1
  0
CLASS
  1
HATCH
  2
AcDbHatch
  3
"ACAD_SEDONA"
 90
    32768
280
     0
281
     1
  0
CLASS
  1
XRECORD
  2
AcDbXrecord
  3
"<Built In>"
 90
    32768
280
     0
281
     0
  0
CLASS
  1
LONG_TRANSACTION
  2
AcDbLongTransaction
  3
AutoCAD 2000
 90
    32768
280
     0
281
     0
  0
CLASS
  1
LWPOLYLINE
  2
AcDbPolyline
  3
"AutoCAD"
 90
    32768
280
     0
281
     1
  0
CLASS
  1
HATCH
  2
AcDbHatch
  3
"ACAD_SEDONA"
 90
    32768
280
     0
281
     1
  0
CLASS
  1
XRECORD
  2
AcDbXrecord
  3
"<Built In>"
 90
    32768
280
     0
281
     0
  0
CLASS
  1
LONG_TRANSACTION
  2
AcDbLongTransaction
  3
AutoCAD 2000
 90
    32768
280
     0
281
     0
  0
CLASS
  1
LWPOLYLINE
  2
AcDbPolyline
  3
"AutoCAD"
 90
    32768
280
     0
281
     1
  0
CLASS
  1
HATCH
  2
AcDbHatch
  3
"ACAD_SEDONA"
 90
    32768
280
     0
281
     1
  0
CLASS
  1
XRECORD
  2
AcDbXrecord
  3
"<Built In>"
 90
    32768
280
     0
281
     0
  0
CLASS
  1
LONG_TRANSACTION
  2
AcDbLongTransaction
  3
AutoCAD 2000
 90
    32768
280
     0
281
     0
  0
CLASS
  1
LWPOLYLINE
  2
AcDbPolyline
  3
"AutoCAD"
 90
    32768
280
     0
281
     1
  0
CLASS
  1
HATCH
  2
AcDbHatch
  3
"ACAD_SEDONA"
 90
    32768
280
     0
281
     1
  0
CLASS
  1
XRECORD
  2
AcDbXrecord
  3
"<Built In>"
 90
    32768
280
     0
281
     0
  0
CLASS
  1
TABLESTYLE
  2
AcDbTableStyle
  3
ObjectDBX Classes
 90
    34815
280
     0
281
     0
  0
CLASS
  1
SORTENTSTABLE
  2
AcDbSortentsTable
  3
"AutoCAD"
 90
    32768
280
     0
281
     0
  0
CLASS
  1
DIMASSOC
  2
AcDbDimAssoc
  3
"AcDbDimAssoc|Product Desc:     AcDim ARX App For Dimension|Company:          Autodesk, Inc.|WEB Address:      www.autodesk.com"
 90
    32768
280
     0
281
     0
  0
CLASS
  1
ACAD_PROXY_OBJECT_WRAPPER
  2
AcDbProxyObjectWrapper
  3
AutoCAD 2000
 90
    32768
280
     0
281
     0
  0
CLASS
  1
LONG_TRANSACTION
  2
AcDbLongTransaction
  3
AutoCAD 2000
 90
    32768
280
     0
281
     0
  0
CLASS
  1
LWPOLYLINE
  2
AcDbPolyline
  3
"AutoCAD"
 90
    32768
280
     0
281
     1
  0
CLASS
  1
HATCH
  2
AcDbHatch
  3
"ACAD_SEDONA"
 90
    32768
280
     0
281
     1
  0
CLASS
  1
XRECORD
  2
AcDbXrecord
  3
"<Built In>"
 90
    32768
280
     0
281
     0
  0
CLASS
  1
LONG_TRANSACTION
  2
AcDbLongTransaction
  3
AutoCAD 2000
 90
    32768
280
     0
281
     0
  0
CLASS
  1
LWPOLYLINE
  2
AcDbPolyline
  3
"AutoCAD"
 90
    32768
280
     0
281
     1
  0
CLASS
  1
HATCH
  2
AcDbHatch
  3
"ACAD_SEDONA"
 90
    32768
280
     0
281
     1
  0
CLASS
  1
XRECORD
  2
AcDbXrecord
  3
"<Built In>"
 90
    32768
280
     0
281
     0
  0
ENDSEC
  0
SECTION
  2
TABLES
  0
TABLE
  2
VPORT
  5
7CF0
100
AcDbSymbolTable
 70
     2
  0
VPORT
  5
C3B8
100
AcDbSymbolTableRecord
100
AcDbViewportTableRecord
  2
*ACTIVE
 70
     0
 10
0.0
 20
0.0
 11
1.0
 21
1.0
 12
96.182264
 22
94.304554
 13
0.0
 23
0.0
 14
1.0
 24
1.0
 15
10.0
 25
10.0
 16
0.0
 26
0.0
 36
1.0
 17
0.0
 27
0.0
 37
0.0
 40
111.320492
 41
1.673611
 42
50.0
 43
0.0
 44
0.0
 50
0.0
 51
0.0
 71
     0
 72
   100
 73
     1
 74
     3
 75
     0
 76
     0
 77
     0
 78
     0
  0
ENDTAB
  0
TABLE
  2
LTYPE
  5
7CED
100
AcDbSymbolTable
 70
     3
  0
LTYPE
  5
7CFB
102
{ACAD_XDICTIONARY
360
C37D
102
}
100
AcDbSymbolTableRecord
100
AcDbLinetypeTableRecord
  2
BYBLOCK
 70
     0
  3

 72
    65
 73
     0
 40
0.0
  0
LTYPE
  5
7CFC
102
{ACAD_XDICTIONARY
360
C37F
102
}
100
AcDbSymbolTableRecord
100
AcDbLinetypeTableRecord
  2
BYLAYER
 70
     0
  3

 72
    65
 73
     0
 40
0.0
  0
LTYPE
  5
7CFD
100
AcDbSymbolTableRecord
100
AcDbLinetypeTableRecord
  2
CONTINUOUS
 70
     0
  3
Solid line
 72
    65
 73
     0
 40
0.0
  0
LTYPE
  5
7D15
100
AcDbSymbolTableRecord
100
AcDbLinetypeTableRecord
  2
AXES2
 70
     0
  3
___ _ ___ _ ___ _ ___ _ ___ _ ___ _ ___ _ ___ _
 72
    65
 73
     4
 40
1.125
 49
0.75
 74
     0
 49
-0.125
 74
     0
 49
0.125
 74
     0
 49
-0.125
 74
     0
  0
LTYPE
  5
B527
100
AcDbSymbolTableRecord
100
AcDbLinetypeTableRecord
  2
CACHE2
 70
     0
  3
Caché (x.5) _ _ _ _ _ _ _ _ _ _ _ _ _ _ _ _ _
 72
    65
 73
     2
 40
0.1875
 49
0.125
 74
     0
 49
-0.0625
 74
     0
  0
ENDTAB
  0
TABLE
  2
LAYER
  5
7CEA
100
AcDbSymbolTable
 70
     6
  0
LAYER
  5
7CF8
100
AcDbSymbolTableRecord
100
AcDbLayerTableRecord
  2
0
 70
     0
 62
   255
  6
CONTINUOUS
  0
LAYER
  5
7D1C
100
AcDbSymbolTableRecord
100
AcDbLayerTableRecord
  2
COTATION1
 70
     0
 62
     2
  6
CONTINUOUS
  0
LAYER
  5
7D1D
100
AcDbSymbolTableRecord
100
AcDbLayerTableRecord
  2
AXE
 70
     0
 62
    80
  6
AXES2
  0
LAYER
  5
7D1E
102
{ACAD_XDICTIONARY
360
C3AE
102
}
100
AcDbSymbolTableRecord
100
AcDbLayerTableRecord
  2
DEFPOINTS
 70
     0
 62
     7
  6
CONTINUOUS
  0
LAYER
  5
7D1F
100
AcDbSymbolTableRecord
100
AcDbLayerTableRecord
  2
ALPHA
 70
     0
 62
   254
  6
CONTINUOUS
  0
LAYER
  5
B528
100
AcDbSymbolTableRecord
100
AcDbLayerTableRecord
  2
POINTILLE_COURT
 70
     0
 62
    41
  6
CACHE2
  0
ENDTAB
  0
TABLE
  2
STYLE
  5
7CEB
100
AcDbSymbolTable
 70
     1
  0
STYLE
  5
7CF9
100
AcDbSymbolTableRecord
100
AcDbTextStyleTableRecord
  2
ROMANS
 70
     0
 40
0.0
 41
1.0
 50
0.0
 71
     0
 42
6.0
  3
romans
  4

  0
ENDTAB
  0
TABLE
  2
VIEW
  5
7CEE
100
AcDbSymbolTable
 70
     0
  0
ENDTAB
  0
TABLE
  2
UCS
  5
7CEF
100
AcDbSymbolTable
 70
     0
  0
ENDTAB
  0
TABLE
  2
APPID
  5
7CF1
100
AcDbSymbolTable
 70
     2
  0
APPID
  5
7CFA
100
AcDbSymbolTableRecord
100
AcDbRegAppTableRecord
  2
ACAD
 70
     0
  0
APPID
  5
BDDF
100
AcDbSymbolTableRecord
100
AcDbRegAppTableRecord
  2
DCO15
 70
     0
  0
ENDTAB
  0
TABLE
  2
DIMSTYLE
  5
7CF2
100
AcDbSymbolTable
 70
     1
  0
DIMSTYLE
105
7D18
102
{ACAD_XDICTIONARY
360
C3AC
102
}
102
{ACAD_REACTORS
330
BDEC
330
BE4F
330
BE8F
330
BEFA
330
BF58
330
BF59
102
}
100
AcDbSymbolTableRecord
100
AcDbDimStyleTableRecord
  2
SC_DEFAUT
 70
     0
  3

  4

  5
OPEN30
  6

  7

 40
1.0
 41
5.0
 42
2.0
 43
0.38
 44
2.5
 45
0.0
 46
0.0
 47
0.0
 48
0.0
140
2.5
141
0.0
142
0.0
143
25.4
144
1.0
145
0.0
146
1.0
147
2.0
 71
     0
 72
     0
 73
     1
 74
     1
 75
     0
 76
     0
 77
     1
 78
    12
170
     0
171
     2
172
     0
173
     0
174
     0
175
     0
176
     0
177
     0
178
     0
270
     2
271
     1
272
     1
273
     2
274
     2
340
7CF9
275
     0
280
     0
281
     0
282
     0
283
     1
284
    12
285
    12
286
    12
287
     5
288
     0
  0
ENDTAB
  0
TABLE
  2
BLOCK_RECORD
  5
7CE9
100
AcDbSymbolTable
 70
     9
  0
BLOCK_RECORD
  5
7D06
102
{ACAD_XDICTIONARY
360
800F
102
}
100
AcDbSymbolTableRecord
100
AcDbBlockTableRecord
  2
*MODEL_SPACE
  0
BLOCK_RECORD
  5
7D02
102
{ACAD_XDICTIONARY
360
8011
102
}
100
AcDbSymbolTableRecord
100
AcDbBlockTableRecord
  2
*PAPER_SPACE
  0
BLOCK_RECORD
  5
7D0A
100
AcDbSymbolTableRecord
100
AcDbBlockTableRecord
  2
COTE
  0
BLOCK_RECORD
  5
7D0B
100
AcDbSymbolTableRecord
100
AcDbBlockTableRecord
  2
FOND
  0
BLOCK_RECORD
  5
7D0C
100
AcDbSymbolTableRecord
100
AcDbBlockTableRecord
  2
_OPEN30
  0
BLOCK_RECORD
  5
BDED
100
AcDbSymbolTableRecord
100
AcDbBlockTableRecord
  2
*D3
  0
BLOCK_RECORD
  5
BE50
100
AcDbSymbolTableRecord
100
AcDbBlockTableRecord
  2
*D4
  0
BLOCK_RECORD
  5
BE90
100
AcDbSymbolTableRecord
100
AcDbBlockTableRecord
  2
*D5
  0
BLOCK_RECORD
  5
BEFB
100
AcDbSymbolTableRecord
100
AcDbBlockTableRecord
  2
*D6
  0
BLOCK_RECORD
  5
BF5A
100
AcDbSymbolTableRecord
100
AcDbBlockTableRecord
  2
*D7
  0
BLOCK_RECORD
  5
BF67
100
AcDbSymbolTableRecord
100
AcDbBlockTableRecord
  2
*D8
  0
ENDTAB
  0
ENDSEC
  0
SECTION
  2
BLOCKS
  0
BLOCK
  5
7D24
100
AcDbEntity
  8
0
100
AcDbBlockBegin
  2
*MODEL_SPACE
 70
     0
 10
0.0
 20
0.0
 30
0.0
  3
*MODEL_SPACE
  1

  0
ENDBLK
  5
7D25
100
AcDbEntity
  8
0
100
AcDbBlockEnd
  0
BLOCK
  5
7D22
100
AcDbEntity
 67
     1
  8
0
100
AcDbBlockBegin
  2
*PAPER_SPACE
 70
     0
 10
0.0
 20
0.0
 30
0.0
  3
*PAPER_SPACE
  1

  0
ENDBLK
  5
7D23
100
AcDbEntity
 67
     1
  8
0
100
AcDbBlockEnd
  0
BLOCK
  5
E
100
AcDbEntity
  8
0
100
AcDbBlockBegin
  2
COTE
 70
     0
 10
0.0
 20
0.0
 30
0.0
  3
COTE
  1

  0
ENDBLK
  5
F
100
AcDbEntity
  8
0
100
AcDbBlockEnd
  0
BLOCK
  5
74
100
AcDbEntity
  8
0
100
AcDbBlockBegin
  2
FOND
 70
     0
 10
0.0
 20
0.0
 30
0.0
  3
FOND
  1

  0
ENDBLK
  5
75
100
AcDbEntity
  8
0
100
AcDbBlockEnd
  0
BLOCK
  5
4B08
100
AcDbEntity
  8
0
100
AcDbBlockBegin
  2
_OPEN30
 70
     0
 10
0.0
 20
0.0
 30
0.0
  3
_OPEN30
  1

  0
LINE
  5
4B05
100
AcDbEntity
  8
COTATION1
 62
     0
100
AcDbLine
 10
-1.0
 20
0.267949
 30
0.0
 11
0.0
 21
0.0
 31
0.0
1001
ACAD
1000
RTLwPs
1070
   158
  0
LINE
  5
4B06
100
AcDbEntity
  8
COTATION1
 62
     0
100
AcDbLine
 10
0.0
 20
0.0
 30
0.0
 11
-1.0
 21
-0.267949
 31
0.0
1001
ACAD
1000
RTLwPs
1070
   158
  0
LINE
  5
4B07
100
AcDbEntity
  8
COTATION1
 62
     0
100
AcDbLine
 10
0.0
 20
0.0
 30
0.0
 11
-1.0
 21
0.0
 31
0.0
1001
ACAD
1000
RTLwPs
1070
   158
  0
ENDBLK
  5
4B09
100
AcDbEntity
  8
0
100
AcDbBlockEnd
  0
BLOCK
  5
BDF8
100
AcDbEntity
  8
0
100
AcDbBlockBegin
  2
*D3
 70
     1
 10
0.0
 20
0.0
 30
0.0
  3
*D3
  1

  0
LINE
  5
C2B4
100
AcDbEntity
  8
COTATION1
 62
     0
100
AcDbLine
 10
109.944077
 20
144.729996
 30
0.0
 11
151.45415
 21
144.729996
 31
0.0
1001
ACAD
1000
RTLwPs
1070
   158
  0
LINE
  5
C2B5
100
AcDbEntity
  8
COTATION1
 62
     0
100
AcDbLine
 10
109.944077
 20
76.743261
 30
0.0
 11
151.45415
 21
76.743261
 31
0.0
1001
ACAD
1000
RTLwPs
1070
   158
  0
LINE
  5
C2B6
100
AcDbEntity
  8
COTATION1
 62
     0
100
AcDbLine
 10
148.95415
 20
139.729996
 30
0.0
 11
148.95415
 21
113.986629
 31
0.0
1001
ACAD
1000
RTLwPs
1070
   158
  0
LINE
  5
C2B7
100
AcDbEntity
  8
COTATION1
 62
     0
100
AcDbLine
 10
148.95415
 20
81.743261
 30
0.0
 11
148.95415
 21
107.486629
 31
0.0
1001
ACAD
1000
RTLwPs
1070
   158
  0
INSERT
  5
C2B8
100
AcDbEntity
  8
COTATION1
 62
     0
100
AcDbBlockReference
  2
_OPEN30
 10
148.95415
 20
144.729996
 30
0.0
 41
5.0
 42
5.0
 43
5.0
 50
90.0
1001
ACAD
1000
RTLwPs
1070
   158
  0
INSERT
  5
C2B9
100
AcDbEntity
  8
COTATION1
 62
     0
100
AcDbBlockReference
  2
_OPEN30
 10
148.95415
 20
76.743261
 30
0.0
 41
5.0
 42
5.0
 43
5.0
 50
270.0
1001
ACAD
1000
RTLwPs
1070
   158
  0
MTEXT
  5
C2BA
100
AcDbEntity
  8
COTATION1
 62
     0
100
AcDbMText
 10
148.95415
 20
110.736629
 30
0.0
 40
2.5
 41
0.0
 71
     5
 72
     1
  1
\A1;68
1001
ACAD
1000
MTEXTBEGIN
1070
    73
1070
     1
1070
    44
1040
1.0
1070
    74
1070
     0
1000
MTEXTEND
1000
MTEXTBEGIN
1070
    73
1070
     1
1070
    44
1040
1.0
1070
    74
1070
     0
1000
MTEXTEND
1000
MTEXTBEGIN
1070
    73
1070
     1
1070
    44
1040
1.0
1070
    74
1070
     0
1000
MTEXTEND
  0
POINT
  5
C2BB
100
AcDbEntity
  8
DEFPOINTS
 62
     0
100
AcDbPoint
 10
107.944077
 20
144.729996
 30
0.0
  0
POINT
  5
C2BC
100
AcDbEntity
  8
DEFPOINTS
 62
     0
100
AcDbPoint
 10
107.944077
 20
76.743261
 30
0.0
  0
POINT
  5
C2BD
100
AcDbEntity
  8
DEFPOINTS
 62
     0
100
AcDbPoint
 10
148.95415
 20
76.743261
 30
0.0
  0
ENDBLK
  5
BDF9
100
AcDbEntity
  8
0
100
AcDbBlockEnd
  0
BLOCK
  5
BE5B
100
AcDbEntity
  8
0
100
AcDbBlockBegin
  2
*D4
 70
     1
 10
0.0
 20
0.0
 30
0.0
  3
*D4
  1

  0
LINE
  5
C2BE
100
AcDbEntity
  8
COTATION1
 62
     0
100
AcDbLine
 10
130.95415
 20
110.738034
 30
0.0
 11
141.45415
 21
110.738034
 31
0.0
1001
ACAD
1000
RTLwPs
1070
   158
  0
LINE
  5
C2BF
100
AcDbEntity
  8
COTATION1
 62
     0
100
AcDbLine
 10
99.944077
 20
76.743261
 30
0.0
 11
141.45415
 21
76.743261
 31
0.0
1001
ACAD
1000
RTLwPs
1070
   158
  0
LINE
  5
C2C0
100
AcDbEntity
  8
COTATION1
 62
     0
100
AcDbLine
 10
138.95415
 20
105.738034
 30
0.0
 11
138.95415
 21
96.990648
 31
0.0
1001
ACAD
1000
RTLwPs
1070
   158
  0
LINE
  5
C2C1
100
AcDbEntity
  8
COTATION1
 62
     0
100
AcDbLine
 10
138.95415
 20
81.743261
 30
0.0
 11
138.95415
 21
90.490648
 31
0.0
1001
ACAD
1000
RTLwPs
1070
   158
  0
INSERT
  5
C2C2
100
AcDbEntity
  8
COTATION1
 62
     0
100
AcDbBlockReference
  2
_OPEN30
 10
138.95415
 20
110.738034
 30
0.0
 41
5.0
 42
5.0
 43
5.0
 50
90.0
1001
ACAD
1000
RTLwPs
1070
   158
  0
INSERT
  5
C2C3
100
AcDbEntity
  8
COTATION1
 62
     0
100
AcDbBlockReference
  2
_OPEN30
 10
138.95415
 20
76.743261
 30
0.0
 41
5.0
 42
5.0
 43
5.0
 50
270.0
1001
ACAD
1000
RTLwPs
1070
   158
  0
MTEXT
  5
C2C4
100
AcDbEntity
  8
COTATION1
 62
     0
100
AcDbMText
 10
138.95415
 20
93.740648
 30
0.0
 40
2.5
 41
0.0
 71
     5
 72
     1
  1
\A1;=
1001
ACAD
1000
MTEXTBEGIN
1070
    73
1070
     1
1070
    44
1040
1.0
1070
    74
1070
     0
1000
MTEXTEND
1000
MTEXTBEGIN
1070
    73
1070
     1
1070
    44
1040
1.0
1070
    74
1070
     0
1000
MTEXTEND
1000
MTEXTBEGIN
1070
    73
1070
     1
1070
    44
1040
1.0
1070
    74
1070
     0
1000
MTEXTEND
  0
POINT
  5
C2C5
100
AcDbEntity
  8
DEFPOINTS
 62
     0
100
AcDbPoint
 10
128.95415
 20
110.738034
 30
0.0
  0
POINT
  5
C2C6
100
AcDbEntity
  8
DEFPOINTS
 62
     0
100
AcDbPoint
 10
97.944077
 20
76.743261
 30
0.0
  0
POINT
  5
C2C7
100
AcDbEntity
  8
DEFPOINTS
 62
     0
100
AcDbPoint
 10
138.95415
 20
76.743261
 30
0.0
  0
ENDBLK
  5
BE5C
100
AcDbEntity
  8
0
100
AcDbBlockEnd
  0
BLOCK
  5
BE9B
100
AcDbEntity
  8
0
100
AcDbBlockBegin
  2
*D5
 70
     1
 10
0.0
 20
0.0
 30
0.0
  3
*D5
  1

  0
LINE
  5
C2C8
100
AcDbEntity
  8
COTATION1
 62
     0
100
AcDbLine
 10
130.95415
 20
110.738034
 30
0.0
 11
141.45415
 21
110.738034
 31
0.0
1001
ACAD
1000
RTLwPs
1070
   158
  0
LINE
  5
C2C9
100
AcDbEntity
  8
COTATION1
 62
     0
100
AcDbLine
 10
99.944077
 20
144.732807
 30
0.0
 11
141.45415
 21
144.732807
 31
0.0
1001
ACAD
1000
RTLwPs
1070
   158
  0
LINE
  5
C2CA
100
AcDbEntity
  8
COTATION1
 62
     0
100
AcDbLine
 10
138.95415
 20
115.738034
 30
0.0
 11
138.95415
 21
124.48542
 31
0.0
1001
ACAD
1000
RTLwPs
1070
   158
  0
LINE
  5
C2CB
100
AcDbEntity
  8
COTATION1
 62
     0
100
AcDbLine
 10
138.95415
 20
139.732807
 30
0.0
 11
138.95415
 21
130.98542
 31
0.0
1001
ACAD
1000
RTLwPs
1070
   158
  0
INSERT
  5
C2CC
100
AcDbEntity
  8
COTATION1
 62
     0
100
AcDbBlockReference
  2
_OPEN30
 10
138.95415
 20
110.738034
 30
0.0
 41
5.0
 42
5.0
 43
5.0
 50
270.0
1001
ACAD
1000
RTLwPs
1070
   158
  0
INSERT
  5
C2CD
100
AcDbEntity
  8
COTATION1
 62
     0
100
AcDbBlockReference
  2
_OPEN30
 10
138.95415
 20
144.732807
 30
0.0
 41
5.0
 42
5.0
 43
5.0
 50
90.0
1001
ACAD
1000
RTLwPs
1070
   158
  0
MTEXT
  5
C2CE
100
AcDbEntity
  8
COTATION1
 62
     0
100
AcDbMText
 10
138.95415
 20
127.73542
 30
0.0
 40
2.5
 41
0.0
 71
     5
 72
     1
  1
\A1;=
1001
ACAD
1000
MTEXTBEGIN
1070
    73
1070
     1
1070
    44
1040
1.0
1070
    74
1070
     0
1000
MTEXTEND
1000
MTEXTBEGIN
1070
    73
1070
     1
1070
    44
1040
1.0
1070
    74
1070
     0
1000
MTEXTEND
1000
MTEXTBEGIN
1070
    73
1070
     1
1070
    44
1040
1.0
1070
    74
1070
     0
1000
MTEXTEND
  0
POINT
  5
C2CF
100
AcDbEntity
  8
DEFPOINTS
 62
     0
100
AcDbPoint
 10
128.95415
 20
110.738034
 30
0.0
  0
POINT
  5
C2D0
100
AcDbEntity
  8
DEFPOINTS
 62
     0
100
AcDbPoint
 10
97.944077
 20
144.732807
 30
0.0
  0
POINT
  5
C2D1
100
AcDbEntity
  8
DEFPOINTS
 62
     0
100
AcDbPoint
 10
138.95415
 20
144.732807
 30
0.0
  0
ENDBLK
  5
BE9C
100
AcDbEntity
  8
0
100
AcDbBlockEnd
  0
BLOCK
  5
BF05
100
AcDbEntity
  8
0
100
AcDbBlockBegin
  2
*D6
 70
     1
 10
0.0
 20
0.0
 30
0.0
  3
*D6
  1

  0
LINE
  5
C2D2
100
AcDbEntity
  8
COTATION1
 62
     0
100
AcDbLine
 10
45.954252
 20
79.833792
 30
0.0
 11
45.954252
 21
39.251222
 31
0.0
1001
ACAD
1000
RTLwPs
1070
   158
  0
LINE
  5
C2D3
100
AcDbEntity
  8
COTATION1
 62
     0
100
AcDbLine
 10
113.95415
 20
79.833792
 30
0.0
 11
113.95415
 21
39.251222
 31
0.0
1001
ACAD
1000
RTLwPs
1070
   158
  0
LINE
  5
C2D4
100
AcDbEntity
  8
COTATION1
 62
     0
100
AcDbLine
 10
50.954252
 20
41.751222
 30
0.0
 11
108.95415
 21
41.751222
 31
0.0
1001
ACAD
1000
RTLwPs
1070
   158
  0
INSERT
  5
C2D5
100
AcDbEntity
  8
COTATION1
 62
     0
100
AcDbBlockReference
  2
_OPEN30
 10
45.954252
 20
41.751222
 30
0.0
 41
5.0
 42
5.0
 43
5.0
 50
180.0
1001
ACAD
1000
RTLwPs
1070
   158
  0
INSERT
  5
C2D6
100
AcDbEntity
  8
COTATION1
 62
     0
100
AcDbBlockReference
  2
_OPEN30
 10
113.95415
 20
41.751222
 30
0.0
 41
5.0
 42
5.0
 43
5.0
1001
ACAD
1000
RTLwPs
1070
   158
  0
MTEXT
  5
C2D7
100
AcDbEntity
  8
COTATION1
 62
     0
100
AcDbMText
 10
79.954201
 20
45.001222
 30
0.0
 40
2.5
 41
0.0
 71
     5
 72
     1
  1
\A1;68
1001
ACAD
1000
MTEXTBEGIN
1070
    73
1070
     1
1070
    44
1040
1.0
1070
    74
1070
     0
1000
MTEXTEND
1000
MTEXTBEGIN
1070
    73
1070
     1
1070
    44
1040
1.0
1070
    74
1070
     0
1000
MTEXTEND
1000
MTEXTBEGIN
1070
    73
1070
     1
1070
    44
1040
1.0
1070
    74
1070
     0
1000
MTEXTEND
  0
POINT
  5
C2D8
100
AcDbEntity
  8
DEFPOINTS
 62
     0
100
AcDbPoint
 10
45.954252
 20
81.833792
 30
0.0
  0
POINT
  5
C2D9
100
AcDbEntity
  8
DEFPOINTS
 62
     0
100
AcDbPoint
 10
113.95415
 20
81.833792
 30
0.0
  0
POINT
  5
C2DA
100
AcDbEntity
  8
DEFPOINTS
 62
     0
100
AcDbPoint
 10
113.95415
 20
41.751222
 30
0.0
  0
ENDBLK
  5
BF06
100
AcDbEntity
  8
0
100
AcDbBlockEnd
  0
BLOCK
  5
BF65
100
AcDbEntity
  8
0
100
AcDbBlockBegin
  2
*D7
 70
     1
 10
0.0
 20
0.0
 30
0.0
  3
*D7
  1

  0
LINE
  5
C2DB
100
AcDbEntity
  8
COTATION1
 62
     0
100
AcDbLine
 10
79.959377
 20
59.751222
 30
0.0
 11
79.959377
 21
49.251222
 31
0.0
1001
ACAD
1000
RTLwPs
1070
   158
  0
LINE
  5
C2DC
100
AcDbEntity
  8
COTATION1
 62
     0
100
AcDbLine
 10
45.954252
 20
77.833792
 30
0.0
 11
45.954252
 21
49.251222
 31
0.0
1001
ACAD
1000
RTLwPs
1070
   158
  0
LINE
  5
C2DD
100
AcDbEntity
  8
COTATION1
 62
     0
100
AcDbLine
 10
74.959377
 20
51.751222
 30
0.0
 11
50.954252
 21
51.751222
 31
0.0
1001
ACAD
1000
RTLwPs
1070
   158
  0
INSERT
  5
C2DE
100
AcDbEntity
  8
COTATION1
 62
     0
100
AcDbBlockReference
  2
_OPEN30
 10
79.959377
 20
51.751222
 30
0.0
 41
5.0
 42
5.0
 43
5.0
1001
ACAD
1000
RTLwPs
1070
   158
  0
INSERT
  5
C2DF
100
AcDbEntity
  8
COTATION1
 62
     0
100
AcDbBlockReference
  2
_OPEN30
 10
45.954252
 20
51.751222
 30
0.0
 41
5.0
 42
5.0
 43
5.0
 50
180.0
1001
ACAD
1000
RTLwPs
1070
   158
  0
MTEXT
  5
C2E0
100
AcDbEntity
  8
COTATION1
 62
     0
100
AcDbMText
 10
62.956815
 20
55.001222
 30
0.0
 40
2.5
 41
0.0
 71
     5
 72
     1
  1
\A1;=
1001
ACAD
1000
MTEXTBEGIN
1070
    73
1070
     1
1070
    44
1040
1.0
1070
    74
1070
     0
1000
MTEXTEND
1000
MTEXTBEGIN
1070
    73
1070
     1
1070
    44
1040
1.0
1070
    74
1070
     0
1000
MTEXTEND
1000
MTEXTBEGIN
1070
    73
1070
     1
1070
    44
1040
1.0
1070
    74
1070
     0
1000
MTEXTEND
  0
POINT
  5
C2E1
100
AcDbEntity
  8
DEFPOINTS
 62
     0
100
AcDbPoint
 10
79.959377
 20
61.751222
 30
0.0
  0
POINT
  5
C2E2
100
AcDbEntity
  8
DEFPOINTS
 62
     0
100
AcDbPoint
 10
45.954252
 20
79.833792
 30
0.0
  0
POINT
  5
C2E3
100
AcDbEntity
  8
DEFPOINTS
 62
     0
100
AcDbPoint
 10
45.954252
 20
51.751222
 30
0.0
  0
ENDBLK
  5
BF66
100
AcDbEntity
  8
0
100
AcDbBlockEnd
  0
BLOCK
  5
BF72
100
AcDbEntity
  8
0
100
AcDbBlockBegin
  2
*D8
 70
     1
 10
0.0
 20
0.0
 30
0.0
  3
*D8
  1

  0
LINE
  5
C2E4
100
AcDbEntity
  8
COTATION1
 62
     0
100
AcDbLine
 10
79.959377
 20
59.751222
 30
0.0
 11
79.959377
 21
49.251222
 31
0.0
1001
ACAD
1000
RTLwPs
1070
   158
  0
LINE
  5
C2E5
100
AcDbEntity
  8
COTATION1
 62
     0
100
AcDbLine
 10
113.95415
 20
77.833792
 30
0.0
 11
113.95415
 21
49.251222
 31
0.0
1001
ACAD
1000
RTLwPs
1070
   158
  0
LINE
  5
C2E6
100
AcDbEntity
  8
COTATION1
 62
     0
100
AcDbLine
 10
84.959377
 20
51.751222
 30
0.0
 11
108.95415
 21
51.751222
 31
0.0
1001
ACAD
1000
RTLwPs
1070
   158
  0
INSERT
  5
C2E7
100
AcDbEntity
  8
COTATION1
 62
     0
100
AcDbBlockReference
  2
_OPEN30
 10
79.959377
 20
51.751222
 30
0.0
 41
5.0
 42
5.0
 43
5.0
 50
180.0
1001
ACAD
1000
RTLwPs
1070
   158
  0
INSERT
  5
C2E8
100
AcDbEntity
  8
COTATION1
 62
     0
100
AcDbBlockReference
  2
_OPEN30
 10
113.95415
 20
51.751222
 30
0.0
 41
5.0
 42
5.0
 43
5.0
1001
ACAD
1000
RTLwPs
1070
   158
  0
MTEXT
  5
C2E9
100
AcDbEntity
  8
COTATION1
 62
     0
100
AcDbMText
 10
96.956763
 20
55.001222
 30
0.0
 40
2.5
 41
0.0
 71
     5
 72
     1
  1
\A1;=
1001
ACAD
1000
MTEXTBEGIN
1070
    73
1070
     1
1070
    44
1040
1.0
1070
    74
1070
     0
1000
MTEXTEND
1000
MTEXTBEGIN
1070
    73
1070
     1
1070
    44
1040
1.0
1070
    74
1070
     0
1000
MTEXTEND
1000
MTEXTBEGIN
1070
    73
1070
     1
1070
    44
1040
1.0
1070
    74
1070
     0
1000
MTEXTEND
  0
POINT
  5
C2EA
100
AcDbEntity
  8
DEFPOINTS
 62
     0
100
AcDbPoint
 10
79.959377
 20
61.751222
 30
0.0
  0
POINT
  5
C2EB
100
AcDbEntity
  8
DEFPOINTS
 62
     0
100
AcDbPoint
 10
113.95415
 20
79.833792
 30
0.0
  0
POINT
  5
C2EC
100
AcDbEntity
  8
DEFPOINTS
 62
     0
100
AcDbPoint
 10
113.95415
 20
51.751222
 30
0.0
  0
ENDBLK
  5
BF73
100
AcDbEntity
  8
0
100
AcDbBlockEnd
  0
ENDSEC
  0
SECTION
  2
ENTITIES
  0
INSERT
  5
A
100
AcDbEntity
  8
0
100
AcDbBlockReference
  2
COTE
 10
0.0
 20
0.0
 30
0.0
  0
INSERT
  5
17
100
AcDbEntity
  8
0
100
AcDbBlockReference
  2
COTE
 10
284.010391
 20
6.373258
 30
0.0
  0
INSERT
  5
72
100
AcDbEntity
  8
0
100
AcDbBlockReference
  2
FOND
 10
0.0
 20
0.0
 30
0.0
  0
SPLINE
  5
BB43
100
AcDbEntity
  8
ALPHA
100
AcDbSpline
210
-0.1953211129661391
220
0.9807393449993066
230
0.0
 70
    24
 71
     3
 72
     8
 73
     4
 74
     0
 42
0.0000001
 43
0.0000001
 40
10.0
 40
10.0
 40
10.0
 40
10.0
 40
11.0
 40
11.0
 40
11.0
 40
11.0
 10
49.57102467214827
 20
142.2615977995473
 30
0.0
 10
49.57102467214827
 20
142.2615977995473
 30
0.0
 10
61.96525786054326
 20
144.7299961900706
 30
0.0
 10
61.96525786054326
 20
144.7299961900706
 30
0.0
  0
SPLINE
  5
BB44
100
AcDbEntity
  8
ALPHA
100
AcDbSpline
210
0.1953921127708079
220
0.9807252022187256
230
0.0
 70
    24
 71
     3
 72
     8
 73
     4
 74
     0
 42
0.0000001
 43
0.0000001
 40
6.0
 40
6.0
 40
6.0
 40
6.0
 40
7.0
 40
7.0
 40
7.0
 40
7.0
 10
61.96525786054326
 20
76.74326125092209
 30
0.0
 10
61.96525786054326
 20
76.74326125092209
 30
0.0
 10
49.57102467214827
 20
79.21259252065574
 30
0.0
 10
49.57102467214827
 20
79.21259252065574
 30
0.0
  0
CIRCLE
  5
BB45
100
AcDbEntity
  8
ALPHA
100
AcDbCircle
 10
54.380485
 20
134.141636
 30
0.0
 40
4.229674
  0
SPLINE
  5
BB55
100
AcDbEntity
  8
ALPHA
100
AcDbSpline
210
-1.0
220
0.0
230
0.0
 70
    24
 71
     3
 72
     8
 73
     4
 74
     0
 42
0.0000001
 43
0.0000001
 40
8.0
 40
8.0
 40
8.0
 40
8.0
 40
9.0
 40
9.0
 40
9.0
 40
9.0
 10
45.95425197371343
 20
83.83379161350207
 30
0.0
 10
45.95425197371343
 20
83.83379161350207
 30
0.0
 10
45.95425197371343
 20
137.6403987067012
 30
0.0
 10
45.95425197371343
 20
137.6403987067012
 30
0.0
  0
SPLINE
  5
BB71
100
AcDbEntity
  8
ALPHA
100
AcDbSpline
210
0.0
220
0.0
230
-1.0
 70
     8
 71
     3
 72
     8
 73
     4
 74
     0
 42
0.0000001
 43
0.0000001
 40
7.0
 40
7.0
 40
7.0
 40
7.0
 40
8.0
 40
8.0
 40
8.0
 40
8.0
 10
49.57102467214827
 20
79.21259252065574
 30
0.0
 10
47.51029449653754
 20
79.68929379713249
 30
0.0
 10
45.95425197371343
 20
81.62799872068559
 30
0.0
 10
45.95425197371343
 20
83.83379161350207
 30
0.0
  0
SPLINE
  5
BB8C
100
AcDbEntity
  8
ALPHA
100
AcDbSpline
210
0.0
220
0.0
230
-1.0
 70
     8
 71
     3
 72
     8
 73
     4
 74
     0
 42
0.0000001
 43
0.0000001
 40
9.0
 40
9.0
 40
9.0
 40
9.0
 40
10.0
 40
10.0
 40
10.0
 40
10.0
 10
45.95425197371343
 20
137.6403987067012
 30
0.0
 10
45.95425197371343
 20
139.8452587203072
 30
0.0
 10
47.51029449653754
 20
141.7839636438603
 30
0.0
 10
49.57102467214827
 20
142.2615977995473
 30
0.0
  0
LINE
  5
BB8D
100
AcDbEntity
  8
ALPHA
100
AcDbLine
 10
65.025102
 20
135.564276
 30
0.0
 11
65.025102
 21
124.012639
 31
0.0
  0
LINE
  5
BB8E
100
AcDbEntity
  8
ALPHA
100
AcDbLine
 10
94.881436
 20
95.757387
 30
0.0
 11
94.881436
 21
97.459049
 31
0.0
  0
SPLINE
  5
BB99
100
AcDbEntity
  8
ALPHA
100
AcDbSpline
210
-1.0
220
0.0
230
0.0
 70
    24
 71
     3
 72
     8
 73
     4
 74
     0
 42
0.0000001
 43
0.0000001
 40
2.0
 40
2.0
 40
2.0
 40
2.0
 40
3.0
 40
3.0
 40
3.0
 40
3.0
 10
113.9541498124215
 20
137.6403987067012
 30
0.0
 10
113.9541498124215
 20
137.6403987067012
 30
0.0
 10
113.9541498124215
 20
83.83379161350207
 30
0.0
 10
113.9541498124215
 20
83.83379161350207
 30
0.0
  0
CIRCLE
  5
BB9A
100
AcDbEntity
  8
ALPHA
100
AcDbCircle
 10
79.953968
 20
110.736629
 30
0.0
 40
19.978074
  0
LINE
  5
BB9C
100
AcDbEntity
  8
ALPHA
100
AcDbLine
 10
65.025102
 20
95.757387
 30
0.0
 11
65.025102
 21
83.8156
 31
0.0
  0
LINE
  5
BB9D
100
AcDbEntity
  8
ALPHA
100
AcDbLine
 10
94.881436
 20
83.8156
 30
0.0
 11
94.881436
 21
95.757387
 31
0.0
  0
CIRCLE
  5
BB9E
100
AcDbEntity
  8
ALPHA
100
AcDbCircle
 10
105.527453
 20
87.332089
 30
0.0
 40
4.230142
  0
SPLINE
  5
BB9F
100
AcDbEntity
  8
ALPHA
100
AcDbSpline
210
-0.1953921127708113
220
0.9807252022187247
230
0.0
 70
    24
 71
     3
 72
     8
 73
     4
 74
     0
 42
0.0000001
 43
0.0000001
 40
4.0
 40
4.0
 40
4.0
 40
4.0
 40
5.0
 40
5.0
 40
5.0
 40
5.0
 10
110.3383099931967
 20
79.21259252065574
 30
0.0
 10
110.3383099931967
 20
79.21259252065574
 30
0.0
 10
97.94407680480198
 20
76.74326125092209
 30
0.0
 10
97.94407680480198
 20
76.74326125092209
 30
0.0
  0
SPLINE
  5
BBA0
100
AcDbEntity
  8
ALPHA
100
AcDbSpline
210
0.0
220
1.0
230
0.0
 70
    24
 71
     3
 72
     8
 73
     4
 74
     0
 42
0.0000001
 43
0.0000001
 40
5.0
 40
5.0
 40
5.0
 40
5.0
 40
6.0
 40
6.0
 40
6.0
 40
6.0
 10
97.94407680480198
 20
76.74326125092209
 30
0.0
 10
97.94407680480198
 20
76.74326125092209
 30
0.0
 10
61.96525786054326
 20
76.74326125092209
 30
0.0
 10
61.96525786054326
 20
76.74326125092209
 30
0.0
  0
LINE
  5
BBA1
100
AcDbEntity
  8
ALPHA
100
AcDbLine
 10
65.025102
 20
83.8156
 30
0.0
 11
94.881436
 21
83.8156
 31
0.0
  0
SPLINE
  5
BBA2
100
AcDbEntity
  8
ALPHA
100
AcDbSpline
210
0.0
220
0.0
230
1.0
 70
     8
 71
     3
 72
     8
 73
     4
 74
     0
 42
0.0000001
 43
0.0000001
 40
3.0
 40
3.0
 40
3.0
 40
3.0
 40
4.0
 40
4.0
 40
4.0
 40
4.0
 10
113.9541498124215
 20
83.83379161350207
 30
0.0
 10
113.9541498124215
 20
81.62799872068559
 30
0.0
 10
112.3981072895972
 20
79.68929379713249
 30
0.0
 10
110.3383099931967
 20
79.21259252065574
 30
0.0
  0
LINE
  5
BBA3
100
AcDbEntity
  8
ALPHA
100
AcDbLine
 10
94.881436
 20
95.757387
 30
0.0
 11
93.173111
 21
95.757387
 31
0.0
  0
LINE
  5
BBA4
100
AcDbEntity
  8
ALPHA
100
AcDbLine
 10
65.025102
 20
95.757387
 30
0.0
 11
66.734824
 21
95.757387
 31
0.0
  0
SPLINE
  5
BBB5
100
AcDbEntity
  8
ALPHA
100
AcDbSpline
210
0.1953211129661425
220
0.9807393449993057
230
0.0
 70
    24
 71
     3
 72
     8
 73
     4
 74
     0
 42
0.0000001
 43
0.0000001
 40
0.0
 40
0.0
 40
0.0
 40
0.0
 40
1.0
 40
1.0
 40
1.0
 40
1.0
 10
97.94407680480198
 20
144.7299961900706
 30
0.0
 10
97.94407680480198
 20
144.7299961900706
 30
0.0
 10
110.3383099931967
 20
142.2615977995473
 30
0.0
 10
110.3383099931967
 20
142.2615977995473
 30
0.0
  0
LINE
  5
BBB6
100
AcDbEntity
  8
ALPHA
100
AcDbLine
 10
94.881436
 20
135.564276
 30
0.0
 11
65.025102
 21
135.564276
 31
0.0
  0
SPLINE
  5
BBB7
100
AcDbEntity
  8
ALPHA
100
AcDbSpline
210
0.0
220
0.0
230
1.0
 70
     8
 71
     3
 72
     8
 73
     4
 74
     0
 42
0.0000001
 43
0.0000001
 40
1.0
 40
1.0
 40
1.0
 40
1.0
 40
2.0
 40
2.0
 40
2.0
 40
2.0
 10
110.3383099931967
 20
142.2615977995473
 30
0.0
 10
112.3981072895972
 20
141.7839636438603
 30
0.0
 10
113.9541498124215
 20
139.8452587203072
 30
0.0
 10
113.9541498124215
 20
137.6403987067012
 30
0.0
  0
SPLINE
  5
BBB8
100
AcDbEntity
  8
ALPHA
100
AcDbSpline
210
0.0
220
1.0
230
0.0
 70
    24
 71
     3
 72
     8
 73
     4
 74
     0
 42
0.0000001
 43
0.0000001
 40
11.0
 40
11.0
 40
11.0
 40
11.0
 40
12.0
 40
12.0
 40
12.0
 40
12.0
 10
61.96525786054326
 20
144.7299961900706
 30
0.0
 10
61.96525786054326
 20
144.7299961900706
 30
0.0
 10
97.94407680480198
 20
144.7299961900706
 30
0.0
 10
97.94407680480198
 20
144.7299961900706
 30
0.0
  0
LINE
  5
BD2F
100
AcDbEntity
  8
AXE
100
AcDbLine
 10
40.954252
 20
110.738034
 30
0.0
 11
128.95415
 21
110.738034
 31
0.0
  0
TEXT
  5
BD30
100
AcDbEntity
  8
AXE
100
AcDbText
 10
122.477959
 20
111.738034
 30
0.0
 40
8.0
  1
X
 72
     2
 11
128.95415
 21
111.738034
 31
0.0
100
AcDbText
  0
DIMENSION
  5
BDEC
100
AcDbEntity
  8
COTATION1
100
AcDbDimension
  2
*D3
 10
148.95415
 20
76.743261
 30
0.0
 11
148.95415
 21
110.736629
 31
0.0
 70
    32
  3
SC_DEFAUT
100
AcDbAlignedDimension
 13
107.944077
 23
144.729996
 33
0.0
 14
107.944077
 24
76.743261
 34
0.0
 50
90.0
100
AcDbRotatedDimension
  0
TEXT
  5
BE36
100
AcDbEntity
  8
AXE
100
AcDbText
 10
72.671649
 20
61.394863
 30
0.0
 40
8.0
  1
Y
 72
     2
 11
79.14784
 21
61.394863
 31
0.0
100
AcDbText
  0
LINE
  5
BE37
100
AcDbEntity
  8
AXE
100
AcDbLine
 10
79.954668
 20
61.394863
 30
0.0
 11
79.954668
 21
149.373636
 31
0.0
  0
DIMENSION
  5
BE4F
100
AcDbEntity
  8
COTATION1
100
AcDbDimension
  2
*D4
 10
138.95415
 20
76.743261
 30
0.0
 11
138.95415
 21
93.740648
 31
0.0
 70
    32
  1
=
  3
SC_DEFAUT
100
AcDbAlignedDimension
 13
128.95415
 23
110.738034
 33
0.0
 14
97.944077
 24
76.743261
 34
0.0
 50
90.0
100
AcDbRotatedDimension
  0
DIMENSION
  5
BE8F
100
AcDbEntity
  8
COTATION1
100
AcDbDimension
  2
*D5
 10
138.95415
 20
144.732807
 30
0.0
 11
138.95415
 21
127.73542
 31
0.0
 70
    32
  1
=
  3
SC_DEFAUT
100
AcDbAlignedDimension
 13
128.95415
 23
110.738034
 33
0.0
 14
97.944077
 24
144.732807
 34
0.0
 50
270.0
100
AcDbRotatedDimension
  0
DIMENSION
  5
BEFA
100
AcDbEntity
  8
COTATION1
100
AcDbDimension
  2
*D6
 10
113.95415
 20
41.751222
 30
0.0
 11
79.954201
 21
45.001222
 31
0.0
 70
    32
  3
SC_DEFAUT
100
AcDbAlignedDimension
 13
45.954252
 23
81.833792
 33
0.0
 14
113.95415
 24
81.833792
 34
0.0
100
AcDbRotatedDimension
1001
ACAD
1000
DSTYLE
1002
{
1070
   271
1070
     2
1002
}
  0
DIMENSION
  5
BF58
100
AcDbEntity
  8
COTATION1
100
AcDbDimension
  2
*D7
 10
45.954252
 20
51.751222
 30
0.0
 11
62.956815
 21
55.001222
 31
0.0
 70
    32
  1
=
  3
SC_DEFAUT
100
AcDbAlignedDimension
 13
79.959377
 23
61.751222
 33
0.0
 14
45.954252
 24
79.833792
 34
0.0
100
AcDbRotatedDimension
  0
DIMENSION
  5
BF59
100
AcDbEntity
  8
COTATION1
100
AcDbDimension
  2
*D8
 10
113.95415
 20
51.751222
 30
0.0
 11
96.956763
 21
55.001222
 31
0.0
 70
    32
  1
=
  3
SC_DEFAUT
100
AcDbAlignedDimension
 13
79.959377
 23
61.751222
 33
0.0
 14
113.95415
 24
79.833792
 34
0.0
 50
180.0
100
AcDbRotatedDimension
  0
LINE
  5
C2F0
100
AcDbEntity
  8
ALPHA
100
AcDbLine
 10
65.025102
 20
97.46062
 30
0.0
 11
65.025102
 21
95.757387
 31
0.0
  0
LINE
  5
C2F1
100
AcDbEntity
  8
ALPHA
100
AcDbLine
 10
93.173111
 20
95.757387
 30
0.0
 11
94.881436
 21
95.757387
 31
0.0
  0
LINE
  5
C2F2
100
AcDbEntity
  8
ALPHA
100
AcDbLine
 10
66.734824
 20
95.757387
 30
0.0
 11
65.025102
 21
95.757387
 31
0.0
  0
LINE
  5
C2F3
100
AcDbEntity
  8
ALPHA
100
AcDbLine
 10
94.881436
 20
124.01421
 30
0.0
 11
94.881436
 21
135.564276
 31
0.0
  0
LINE
  5
C2F4
100
AcDbEntity
  8
POINTILLE_COURT
100
AcDbLine
 10
65.025102
 20
124.012639
 30
0.0
 11
65.025102
 21
97.46062
 31
0.0
  0
LINE
  5
C2F5
100
AcDbEntity
  8
POINTILLE_COURT
100
AcDbLine
 10
66.734824
 20
95.757387
 30
0.0
 11
93.173111
 21
95.757387
 31
0.0
  0
LINE
  5
C2F6
100
AcDbEntity
  8
POINTILLE_COURT
100
AcDbLine
 10
94.881436
 20
97.459049
 30
0.0
 11
94.881436
 21
124.01421
 31
0.0
  0
VIEWPORT
  5
494D
102
{ACAD_XDICTIONARY
360
C32A
102
}
100
AcDbEntity
 67
     1
  8
0
100
AcDbViewport
 10
6.0
 20
4.5
 30
0.0
 40
13.37404
 41
9.064748
 68
    -1
 69
     1
1001
ACAD
1000
MVIEW
1002
{
1070
    16
1010
0.0
1020
0.0
1030
0.0
1010
0.0
1020
0.0
1030
1.0
1040
0.0
1040
9.064748
1040
6.0
1040
4.5
1040
50.0
1040
0.0
1040
0.0
1070
     0
1070
   100
1070
     1
1070
     1
1070
     0
1070
     0
1070
     0
1070
     0
1040
0.0
1040
0.0
1040
0.0
1040
10.0
1040
10.0
1040
10.0
1040
10.0
1070
     0
1002
{
1002
}
1002
}
  0
ENDSEC
  0
SECTION
  2
OBJECTS
  0
DICTIONARY
  5
7CF4
102
{ACAD_XDICTIONARY
360
C3A4
102
}
100
AcDbDictionary
  3
ACAD_COLOR
350
BD9E
  3
ACAD_GROUP
350
7CF5
  3
ACAD_LAYOUT
350
7D01
  3
ACAD_MATERIAL
350
BD9D
  3
ACAD_MLINESTYLE
350
7CFE
  3
ACAD_PLOTSETTINGS
350
7D00
  3
ACAD_PLOTSTYLENAME
350
7CF6
  3
ACAD_TABLESTYLE
350
BD9F
  3
ACDBHEADERROUNDTRIPXREC
350
C383
  3
ACDBVARIABLEDICTIONARY
350
8048
  3
ASE_INDEX_DICTIONARY
350
BDDE
  0
DICTIONARY
  5
C37D
100
AcDbDictionary
  3
ACAD_XREC_ROUNDTRIP
360
C37E
  0
DICTIONARY
  5
C37F
100
AcDbDictionary
  3
ACAD_XREC_ROUNDTRIP
360
C380
  0
DICTIONARY
  5
C3AE
100
AcDbDictionary
  3
ACAD_XREC_ROUNDTRIP
360
C3AF
  0
DICTIONARY
  5
C3AC
100
AcDbDictionary
  3
ACAD_XREC_ROUNDTRIP
360
C3AD
  0
DICTIONARY
  5
800F
100
AcDbDictionary
  3
ACAD_LAYOUTSELFREF
360
C3AB
  3
ACAD_SORTENTS
360
BDC4
  3
ACAD_XREC_ROUNDTRIP
360
C37B
  0
DICTIONARY
  5
8011
100
AcDbDictionary
  3
ACAD_LAYOUTSELFREF
360
C3AA
  3
ACAD_XREC_ROUNDTRIP
360
C37C
  0
DICTIONARY
  5
C32A
100
AcDbDictionary
  3
ACAD_XREC_ROUNDTRIP
360
C32B
  0
DICTIONARY
  5
C3A4
100
AcDbDictionary
  3
ACAD_XREC_ROUNDTRIP
360
C3A5
  0
DICTIONARY
  5
BD9E
102
{ACAD_REACTORS
330
7CF4
102
}
100
AcDbDictionary
  0
DICTIONARY
  5
7CF5
102
{ACAD_REACTORS
330
7CF4
102
}
100
AcDbDictionary
  0
DICTIONARY
  5
7D01
102
{ACAD_XDICTIONARY
360
C3A8
102
}
102
{ACAD_REACTORS
330
7CF4
102
}
100
AcDbDictionary
  3
MODEL
350
7D09
  3
PRÉSENTATION1
350
7D05
  0
DICTIONARY
  5
BD9D
102
{ACAD_REACTORS
330
7CF4
102
}
100
AcDbDictionary
  0
DICTIONARY
  5
7CFE
102
{ACAD_XDICTIONARY
360
C3A6
102
}
102
{ACAD_REACTORS
330
7CF4
102
}
100
AcDbDictionary
  3
STANDARD
350
7CFF
  0
DICTIONARY
  5
7D00
102
{ACAD_REACTORS
330
7CF4
102
}
100
AcDbDictionary
  0
ACAD_ZOMBIE_OBJECT
  5
7CF6
102
{ACAD_REACTORS
330
7CF4
102
}
100
AcDbZombieObject
 90
      499
 91
      500
 93
       86
310
405010041939BDC9B585B0
350
7CF7
340
7CF7
 94
        0
  0
DICTIONARY
  5
BD9F
102
{ACAD_XDICTIONARY
360
C3B0
102
}
102
{ACAD_REACTORS
330
7CF4
102
}
100
AcDbDictionary
  3
STANDARD
350
BDA0
  0
DICTIONARY
  5
C383
102
{ACAD_REACTORS
330
7CF4
102
}
100
AcDbDictionary
  3
CEPSNTYPE
350
C38D
  3
DIMSTYLEDATA
350
C391
  3
FINGERPRINTGUID
350
C38E
  3
HYPERLINKBASE
350
C386
  3
INSUNITS
350
C38C
  3
LAYOUTDICT
350
C388
  3
LWETCUNION
350
C38B
  3
PLOTSETDICT
350
C389
  3
PLOTSTYLNAMDICT
350
C38A
  3
PSVPSCALE
350
C390
  3
PUCSBASE
350
C394
  3
PUCSORGBACK
350
C39A
  3
PUCSORGBOTTOM
350
C396
  3
PUCSORGFRONT
350
C399
  3
PUCSORGLEFT
350
C397
  3
PUCSORGRIGHT
350
C398
  3
PUCSORGTOP
350
C395
  3
PUCSORTHOREF
350
C392
  3
PUCSORTHOVIEW
350
C393
  3
STYLESHEET
350
C387
  3
TSTACKALIGN
350
C384
  3
TSTACKSIZE
350
C385
  3
UCSBASE
350
C39D
  3
UCSORGBACK
350
C3A3
  3
UCSORGBOTTOM
350
C39F
  3
UCSORGFRONT
350
C3A2
  3
UCSORGLEFT
350
C3A0
  3
UCSORGRIGHT
350
C3A1
  3
UCSORGTOP
350
C39E
  3
UCSORTHOREF
350
C39B
  3
UCSORTHOVIEW
350
C39C
  3
VERSIONGUID
350
C38F
  0
DICTIONARY
  5
8048
102
{ACAD_REACTORS
330
7CF4
102
}
100
AcDbDictionary
  3
CTABLESTYLE
350
BDE2
  3
DIMASSOC
350
804A
  3
HIDETEXT
350
8049
  3
PROJECTNAME
350
C308
  0
DICTIONARY
  5
BDDE
102
{ACAD_XDICTIONARY
360
C3B2
102
}
102
{ACAD_REACTORS
330
7CF4
102
}
100
AcDbDictionary
  3
ASEBLOCKHIERARCHYINDEXRECORD
350
BDE0
1001
DCO15
1040
1538222681.453
  0
XRECORD
  5
C37E
102
{ACAD_REACTORS
330
C37D
102
}
100
AcDbXrecord
102
EXTNAMES
  1
BYBLOCK
  2
ByBlock
  0
XRECORD
  5
C380
102
{ACAD_REACTORS
330
C37F
102
}
100
AcDbXrecord
102
EXTNAMES
  1
BYLAYER
  2
ByLayer
  0
XRECORD
  5
C3AF
102
{ACAD_REACTORS
330
C3AE
102
}
100
AcDbXrecord
102
PLOTBIT
280
     0
  0
XRECORD
  5
C3AD
102
{ACAD_REACTORS
330
C3AC
102
}
100
AcDbXrecord
102
ACADR14ROUNDTRIP
1000
DSTYLE
1002
{
1070
   279
 70
     2
1070
   341
340
7D0C
1070
   342
340
7D0C
1002
}
  0
XRECORD
  5
C3AB
102
{ACAD_REACTORS
330
800F
102
}
100
AcDbXrecord
340
7D06
  0
SORTENTSTABLE
  5
BDC4
102
{ACAD_REACTORS
330
800F
102
}
100
AcDbSortentsTable
330
7D06
331
BF59
  5
C2F3
331
C2F0
  5
BB8E
331
BB45
  5
BB45
331
17
  5
17
331
BE36
  5
BF59
331
BBA0
  5
BBA2
331
BB8E
  5
BB99
331
BBB7
  5
BE35
331
C2F1
  5
BBB9
331
BD2F
  5
BE8F
331
BB9C
  5
BB9E
331
BE37
  5
BFD0
331
BBA1
  5
BBA3
331
BBB8
  5
BE4F
331
C2F2
  5
BBB7
331
A
  5
A
331
BD30
  5
BECA
331
BB9D
  5
BB9F
331
BEFA
  5
C2F1
331
BB71
  5
BB71
331
BBA2
  5
BBA4
331
BDEC
  5
BECB
331
BB99
  5
BB9C
331
C2F3
  5
BB9A
331
BBA3
  5
BBB6
331
BB55
  5
BB55
331
BB9E
  5
BBA0
331
BB43
  5
BB43
331
BBB5
  5
BDE4
331
72
  5
72
331
BB8C
  5
BB8C
331
BE8F
  5
C2F0
331
BB9A
  5
BB9D
331
BB9F
  5
BBA1
331
BBA4
  5
BBB8
331
BB44
  5
BB44
331
BBB6
  5
BDE7
331
BB8D
  5
BB8D
331
BF58
  5
C2F2
331
BE4F
  5
BFD1
  0
XRECORD
  5
C37B
102
{ACAD_REACTORS
330
800F
102
}
100
AcDbXrecord
102
EXTNAMES
  1
*MODEL_SPACE
  2
*Model_Space
  0
XRECORD
  5
C3AA
102
{ACAD_REACTORS
330
8011
102
}
100
AcDbXrecord
340
7D02
  0
XRECORD
  5
C37C
102
{ACAD_REACTORS
330
8011
102
}
100
AcDbXrecord
102
EXTNAMES
  1
*PAPER_SPACE
  2
*Paper_Space
  0
XRECORD
  5
C32B
102
{ACAD_REACTORS
330
C32A
102
}
100
AcDbXrecord
102
SHADEPLOT
 70
     0
102
UCS
 74
     0
 71
     0
 10
0.0
 20
0.0
 30
0.0
 10
0.0
 20
0.0
 30
0.0
 10
0.0
 20
0.0
 30
0.0
146
0.0
 79
     0
102
VIEW
281
     0
102
NEWVIEWCONTROL
280
     4
  0
XRECORD
  5
C3A5
102
{ACAD_REACTORS
330
C3A4
102
}
100
AcDbXrecord
102
EXTNAMES
  1
ACDBVARIABLEDICTIONARY
  2
AcDbVariableDictionary
  0
DICTIONARY
  5
C3A8
100
AcDbDictionary
  3
ACAD_XREC_ROUNDTRIP
360
C3A9
  0
ACAD_ZOMBIE_OBJECT
  5
7D09
102
{ACAD_XDICTIONARY
360
C32E
102
}
102
{ACAD_REACTORS
330
7D01
102
}
100
AcDbZombieObject
 90
      499
 91
      502
 93
      428
310
A2C01AAAAAAAAA5A69054D6F64656C901A800000000000000000000000000000000000000000000A1000000000000008902A6A6AAAA0
330
7D06
330
0
340
0
340
0
 94
        0
  0
ACAD_ZOMBIE_OBJECT
  5
7D05
102
{ACAD_XDICTIONARY
360
C32C
102
}
102
{ACAD_REACTORS
330
7D01
102
}
100
AcDbZombieObject
 90
      499
 91
      502
 93
     1484
310
9154850204C617365724A65742035303030204E2050532C00800000040B87E17400000003838A84550000000000444F1640000000000611C510000000080253F6A40000000101FA3DC901024134A901416AA5910690D5072E973656E746174696F6E31406A800000000000000000000000000000000000000000000A100000
310
0000000008902A6A6A10232D5E076BC5510408CB5781DAF154410232D5E076BC5510408CB5781DAF15C410232D5E076BC5710408CB5781DAF15C40
330
7D02
330
494D
340
0
340
0
 94
        0
  0
DICTIONARY
  5
C3A6
100
AcDbDictionary
  3
ACAD_XREC_ROUNDTRIP
360
C3A7
  0
MLINESTYLE
  5
7CFF
102
{ACAD_REACTORS
330
7CFE
102
}
100
AcDbMlineStyle
  2
STANDARD
 70
     0
  3

 62
   256
 51
90.0
 52
90.0
 71
     2
 49
0.5
 62
   256
  6
BYLAYER
 49
-0.5
 62
   256
  6
BYLAYER
  0
ACAD_ZOMBIE_OBJECT
  5
7CF7
102
{ACAD_REACTORS
330
7CF6
102
}
100
AcDbZombieObject
 90
      499
 91
      501
 93
        0
 94
        0
  0
DICTIONARY
  5
C3B0
100
AcDbDictionary
  3
ACAD_XREC_ROUNDTRIP
360
C3B1
  0
ACAD_ZOMBIE_OBJECT
  5
BDA0
102
{ACAD_REACTORS
330
BD9F
102
}
100
AcDbZombieObject
 90
      499
 91
      571
 93
     1841
310
4214DD185B99185C9928B81E85EB51B8AE3F2E07A17AD46E2B8FC02B5E8DC0F42B1CFD028000000C1008070000C3001FDFF8000000C1003FBFF000000182007F7FE00000030400FEFFC00000060801FDFF8000000C1003FBFF00000018200000000000000681FA0B0000001820100E000186003FBFF000000182007F7FE000
310
00030400FEFFC00000060801FDFF8000000C1003FBFF000000182007F7FE000000304000AD7A3703D0AC73F4160000003040201C00030C007F7FE00000030400FEFFC00000060801FDFF8000000C1003FBFF000000182007F7FE00000030400FEFFC00000060805A
340
7CF9
340
7CF9
340
7CF9
 94
        0
1001
ACAD
1000
AcadProxyRoundTripData
1071
      568
1071
   393239
1070
     0
  0
XRECORD
  5
C38D
102
{ACAD_REACTORS
330
C383
102
}
100
AcDbXrecord
 90
        0
  0
XRECORD
  5
C391
102
{ACAD_REACTORS
330
C383
102
}
100
AcDbXrecord
1000
DSTYLE
1002
{
1070
   279
 70
     2
1070
   341
340
7D0C
1070
   342
340
7D0C
1002
}
  0
XRECORD
  5
C38E
102
{ACAD_REACTORS
330
C383
102
}
100
AcDbXrecord
  1
{20110D97-5561-4CA7-8FED-06A9B97BF164}
  0
XRECORD
  5
C386
102
{ACAD_REACTORS
330
C383
102
}
100
AcDbXrecord
  1

  0
XRECORD
  5
C38C
102
{ACAD_REACTORS
330
C383
102
}
100
AcDbXrecord
 90
        0
  0
XRECORD
  5
C388
102
{ACAD_REACTORS
330
C383
102
}
100
AcDbXrecord
340
7D01
  0
XRECORD
  5
C38B
102
{ACAD_REACTORS
330
C383
102
}
100
AcDbXrecord
 90
    14877
  0
XRECORD
  5
C389
102
{ACAD_REACTORS
330
C383
102
}
100
AcDbXrecord
340
7D00
  0
XRECORD
  5
C38A
102
{ACAD_REACTORS
330
C383
102
}
100
AcDbXrecord
340
7CF6
  0
XRECORD
  5
C390
102
{ACAD_REACTORS
330
C383
102
}
100
AcDbXrecord
 40
0.0
  0
XRECORD
  5
C394
102
{ACAD_REACTORS
330
C383
102
}
100
AcDbXrecord
340
0
  0
XRECORD
  5
C39A
102
{ACAD_REACTORS
330
C383
102
}
100
AcDbXrecord
 10
0.0
 20
0.0
 30
0.0
  0
XRECORD
  5
C396
102
{ACAD_REACTORS
330
C383
102
}
100
AcDbXrecord
 10
0.0
 20
0.0
 30
0.0
  0
XRECORD
  5
C399
102
{ACAD_REACTORS
330
C383
102
}
100
AcDbXrecord
 10
0.0
 20
0.0
 30
0.0
  0
XRECORD
  5
C397
102
{ACAD_REACTORS
330
C383
102
}
100
AcDbXrecord
 10
0.0
 20
0.0
 30
0.0
  0
XRECORD
  5
C398
102
{ACAD_REACTORS
330
C383
102
}
100
AcDbXrecord
 10
0.0
 20
0.0
 30
0.0
  0
XRECORD
  5
C395
102
{ACAD_REACTORS
330
C383
102
}
100
AcDbXrecord
 10
0.0
 20
0.0
 30
0.0
  0
XRECORD
  5
C392
102
{ACAD_REACTORS
330
C383
102
}
100
AcDbXrecord
340
0
  0
XRECORD
  5
C393
102
{ACAD_REACTORS
330
C383
102
}
100
AcDbXrecord
 70
     0
  0
XRECORD
  5
C387
102
{ACAD_REACTORS
330
C383
102
}
100
AcDbXrecord
  1

  0
XRECORD
  5
C384
102
{ACAD_REACTORS
330
C383
102
}
100
AcDbXrecord
 90
        1
  0
XRECORD
  5
C385
102
{ACAD_REACTORS
330
C383
102
}
100
AcDbXrecord
 90
       70
  0
XRECORD
  5
C39D
102
{ACAD_REACTORS
330
C383
102
}
100
AcDbXrecord
340
0
  0
XRECORD
  5
C3A3
102
{ACAD_REACTORS
330
C383
102
}
100
AcDbXrecord
 10
0.0
 20
0.0
 30
0.0
  0
XRECORD
  5
C39F
102
{ACAD_REACTORS
330
C383
102
}
100
AcDbXrecord
 10
0.0
 20
0.0
 30
0.0
  0
XRECORD
  5
C3A2
102
{ACAD_REACTORS
330
C383
102
}
100
AcDbXrecord
 10
0.0
 20
0.0
 30
0.0
  0
XRECORD
  5
C3A0
102
{ACAD_REACTORS
330
C383
102
}
100
AcDbXrecord
 10
0.0
 20
0.0
 30
0.0
  0
XRECORD
  5
C3A1
102
{ACAD_REACTORS
330
C383
102
}
100
AcDbXrecord
 10
0.0
 20
0.0
 30
0.0
  0
XRECORD
  5
C39E
102
{ACAD_REACTORS
330
C383
102
}
100
AcDbXrecord
 10
0.0
 20
0.0
 30
0.0
  0
XRECORD
  5
C39B
102
{ACAD_REACTORS
330
C383
102
}
100
AcDbXrecord
340
0
  0
XRECORD
  5
C39C
102
{ACAD_REACTORS
330
C383
102
}
100
AcDbXrecord
 70
     0
  0
XRECORD
  5
C38F
102
{ACAD_REACTORS
330
C383
102
}
100
AcDbXrecord
  1
{8595746B-7A69-4C81-B058-B946D9E14EAB}
  0
DICTIONARYVAR
  5
BDE2
102
{ACAD_REACTORS
330
8048
102
}
100
DictionaryVariables
280
     0
  1
STANDARD
  0
DICTIONARYVAR
  5
804A
102
{ACAD_REACTORS
330
8048
102
}
100
DictionaryVariables
280
     0
  1
2
  0
DICTIONARYVAR
  5
8049
102
{ACAD_REACTORS
330
8048
102
}
100
DictionaryVariables
280
     0
  1
1
  0
DICTIONARYVAR
  5
C308
102
{ACAD_REACTORS
330
8048
102
}
100
DictionaryVariables
280
     0
  1

  0
DICTIONARY
  5
C3B2
100
AcDbDictionary
  3
ACAD_XREC_ROUNDTRIP
360
C3B3
  0
XRECORD
  5
BDE0
102
{ACAD_REACTORS
330
BDDE
102
}
100
AcDbXrecord
330
A
330
17
330
72
330
0
330
0
330
0
330
0
330
0
330
0
330
0
330
0
330
0
330
0
330
0
330
0
330
0
330
0
330
0
330
0
330
0
330
0
330
0
330
0
330
0
330
0
330
0
330
0
330
0
330
0
330
0
330
0
330
0
330
0
330
0
330
0
330
0
330
0
330
0
330
0
330
0
330
0
330
0
330
0
330
0
330
0
330
0
330
0
330
0
330
0
330
0
330
0
330
0
330
0
330
0
330
0
330
0
330
0
  0
XRECORD
  5
C3A9
102
{ACAD_REACTORS
330
C3A8
102
}
100
AcDbXrecord
102
EXTNAMES
  1
MODEL
  2
Model
  1
PRÉSENTATION1
  2
Présentation1
  0
DICTIONARY
  5
C32E
100
AcDbDictionary
  3
ACAD_XREC_ROUNDTRIP
360
C32F
  0
DICTIONARY
  5
C32C
100
AcDbDictionary
  3
ACAD_XREC_ROUNDTRIP
360
C32D
  0
XRECORD
  5
C3A7
102
{ACAD_REACTORS
330
C3A6
102
}
100
AcDbXrecord
102
EXTNAMES
  1
STANDARD
  2
Standard
  0
XRECORD
  5
C3B1
102
{ACAD_REACTORS
330
C3B0
102
}
100
AcDbXrecord
102
EXTNAMES
  1
STANDARD
  2
Standard
  0
XRECORD
  5
C3B3
102
{ACAD_REACTORS
330
C3B2
102
}
100
AcDbXrecord
102
EXTNAMES
  1
ASEBLOCKHIERARCHYINDEXRECORD
  2
ASEBlockHierarchyIndexRecord
  0
XRECORD
  5
C32F
102
{ACAD_REACTORS
330
C32E
102
}
100
AcDbXrecord
102
SHADEPLOT
 70
     0
102
SHADEPLOTRESLEVEL
 70
     2
102
SHADEPLOTCUSTOMDPI
 70
   300
  0
XRECORD
  5
C32D
102
{ACAD_REACTORS
330
C32C
102
}
100
AcDbXrecord
102
SHADEPLOT
 70
     0
102
SHADEPLOTRESLEVEL
 70
     2
102
SHADEPLOTCUSTOMDPI
 70
   300
  0
ENDSEC
  0
EOF
