  0
SECTION
  2
HEADER
  9
$ACADVER
  1
AC1009
  9
$INSBASE
 10
402.590624
 20
-1.041018
 30
0.0
  9
$EXTMIN
 10
-2.769197
 20
0.724096
 30
0.0
  9
$EXTMAX
 10
60.491102
 20
95.524096
 30
0.0
  9
$LIMMIN
 10
-407.970438
 20
-367.832444
  9
$LIMMAX
 10
429.804077
 20
234.370848
  9
$ORTHOMODE
 70
     0
  9
$REGENMODE
 70
     1
  9
$FILLMODE
 70
     1
  9
$QTEXTMODE
 70
     0
  9
$MIRRTEXT
 70
     1
  9
$DRAGMODE
 70
     2
  9
$LTSCALE
 40
10.0
  9
$OSMODE
 70
    35
  9
$ATTMODE
 70
     1
  9
$TEXTSIZE
 40
6.0
  9
$TRACEWID
 40
1.0
  9
$TEXTSTYLE
  7
ROMANS
  9
$CLAYER
  8
COTATION1
  9
$CELTYPE
  6
BYLAYER
  9
$CECOLOR
 62
   256
  9
$DIMSCALE
 40
1.0
  9
$DIMASZ
 40
5.0
  9
$DIMEXO
 40
2.0
  9
$DIMDLI
 40
0.38
  9
$DIMRND
 40
0.0
  9
$DIMDLE
 40
0.0
  9
$DIMEXE
 40
2.5
  9
$DIMTP
 40
0.0
  9
$DIMTM
 40
0.0
  9
$DIMTXT
 40
2.5
  9
$DIMCEN
 40
0.0
  9
$DIMTSZ
 40
0.0
  9
$DIMTOL
 70
     0
  9
$DIMLIM
 70
     0
  9
$DIMTIH
 70
     1
  9
$DIMTOH
 70
     1
  9
$DIMSE1
 70
     0
  9
$DIMSE2
 70
     0
  9
$DIMTAD
 70
     1
  9
$DIMZIN
 70
    12
  9
$DIMBLK
  1
OPEN30
  9
$DIMASO
 70
     1
  9
$DIMSHO
 70
     1
  9
$DIMPOST
  1

  9
$DIMAPOST
  1

  9
$DIMALT
 70
     0
  9
$DIMALTD
 70
     2
  9
$DIMALTF
 40
25.4
  9
$DIMLFAC
 40
1.0
  9
$DIMTOFL
 70
     0
  9
$DIMTVP
 40
0.0
  9
$DIMTIX
 70
     0
  9
$DIMSOXD
 70
     0
  9
$DIMSAH
 70
     0
  9
$DIMBLK1
  1

  9
$DIMBLK2
  1

  9
$DIMSTYLE
  2
SC_DEFAUT
  9
$DIMCLRD
 70
     0
  9
$DIMCLRE
 70
     0
  9
$DIMCLRT
 70
     0
  9
$DIMTFAC
 40
1.0
  9
$DIMGAP
 40
2.0
  9
$LUNITS
 70
     2
  9
$LUPREC
 70
     1
  9
$SKETCHINC
 40
0.1
  9
$FILLETRAD
 40
0.0
  9
$AUNITS
 70
     0
  9
$AUPREC
 70
     0
  9
$MENU
  1
acad
  9
$ELEVATION
 40
0.0
  9
$PELEVATION
 40
0.0
  9
$THICKNESS
 40
0.0
  9
$LIMCHECK
 70
     0
  9
$BLIPMODE
 70
     0
  9
$CHAMFERA
 40
0.0
  9
$CHAMFERB
 40
0.0
  9
$SKPOLY
 70
     0
  9
$TDCREATE
 40
2450373.687919
  9
$TDUPDATE
 40
2453038.397801
  9
$TDINDWG
 40
1.105034
  9
$TDUSRTIMER
 40
1.105034
  9
$USRTIMER
 70
     1
  9
$ANGBASE
 50
0.0
  9
$ANGDIR
 70
     0
  9
$PDMODE
 70
    32
  9
$PDSIZE
 40
0.0
  9
$PLINEWID
 40
0.0
  9
$COORDS
 70
     1
  9
$SPLFRAME
 70
     0
  9
$SPLINETYPE
 70
     6
  9
$SPLINESEGS
 70
     8
  9
$ATTDIA
 70
     0
  9
$ATTREQ
 70
     1
  9
$HANDLING
 70
     1
  9
$HANDSEED
  5
B4E0
  9
$SURFTAB1
 70
     6
  9
$SURFTAB2
 70
     6
  9
$SURFTYPE
 70
     6
  9
$SURFU
 70
     6
  9
$SURFV
 70
     6
  9
$UCSNAME
  2

  9
$UCSORG
 10
0.0
 20
0.0
 30
0.0
  9
$UCSXDIR
 10
1.0
 20
0.0
 30
0.0
  9
$UCSYDIR
 10
0.0
 20
1.0
 30
0.0
  9
$PUCSNAME
  2

  9
$PUCSORG
 10
0.0
 20
0.0
 30
0.0
  9
$PUCSXDIR
 10
1.0
 20
0.0
 30
0.0
  9
$PUCSYDIR
 10
0.0
 20
1.0
 30
0.0
  9
$USERI1
 70
     0
  9
$USERI2
 70
     0
  9
$USERI3
 70
     0
  9
$USERI4
 70
     0
  9
$USERI5
 70
     0
  9
$USERR1
 40
0.0
  9
$USERR2
 40
0.0
  9
$USERR3
 40
0.0
  9
$USERR4
 40
0.0
  9
$USERR5
 40
0.0
  9
$WORLDVIEW
 70
     1
  9
$SHADEDGE
 70
     3
  9
$SHADEDIF
 70
    70
  9
$TILEMODE
 70
     1
  9
$MAXACTVP
 70
    16
  9
$PLIMCHECK
 70
     0
  9
$PEXTMIN
 10
-1.452248
 20
-0.437698
 30
0.0
  9
$PEXTMAX
 10
12.749749
 20
8.310198
 30
0.0
  9
$PLIMMIN
 10
0.0
 20
0.0
  9
$PLIMMAX
 10
12.0
 20
9.0
  9
$UNITMODE
 70
     0
  9
$VISRETAIN
 70
     0
  9
$PLINEGEN
 70
     0
  9
$PSLTSCALE
 70
     0
  0
ENDSEC
  0
SECTION
  2
TABLES
  0
TABLE
  2
VPORT
 70
     2
  0
VPORT
  2
*ACTIVE
 70
     0
 10
0.0
 20
0.0
 11
1.0
 21
1.0
 12
28.845574
 22
48.130366
 13
0.0
 23
0.0
 14
1.0
 24
1.0
 15
10.0
 25
10.0
 16
0.0
 26
0.0
 36
1.0
 17
0.0
 27
0.0
 37
0.0
 40
95.51242
 41
1.466346
 42
50.0
 43
0.0
 44
0.0
 50
0.0
 51
0.0
 71
     0
 72
   100
 73
     1
 74
     0
 75
     0
 76
     0
 77
     0
 78
     0
  0
ENDTAB
  0
TABLE
  2
LTYPE
 70
     2
  0
LTYPE
  2
CONTINUOUS
 70
     0
  3
Solid line
 72
    65
 73
     0
 40
0.0
  0
LTYPE
  2
AXES2
 70
     0
  3
___ _ ___ _ ___ _ ___ _ ___ _ ___ _ ___ _ ___ _
 72
    65
 73
     4
 40
1.125
 49
0.75
 49
-0.125
 49
0.125
 49
-0.125
  0
ENDTAB
  0
TABLE
  2
LAYER
 70
     5
  0
LAYER
  2
0
 70
     0
 62
   255
  6
CONTINUOUS
  0
LAYER
  2
COTATION1
 70
     0
 62
     2
  6
CONTINUOUS
  0
LAYER
  2
AXE
 70
     0
 62
    80
  6
AXES2
  0
LAYER
  2
DEFPOINTS
 70
     0
 62
     7
  6
CONTINUOUS
  0
LAYER
  2
ALPHA
 70
     0
 62
   254
  6
CONTINUOUS
  0
ENDTAB
  0
TABLE
  2
STYLE
 70
     2
  0
STYLE
  2
ROMANS
 70
     0
 40
0.0
 41
1.0
 50
0.0
 71
     0
 42
6.0
  3
romans
  4

  0
STYLE
  2
STANDARD
 70
     0
 40
0.0
 41
1.0
 50
0.0
 71
     0
 42
0.2
  3
txt
  4

  0
ENDTAB
  0
TABLE
  2
VIEW
 70
     0
  0
ENDTAB
  0
TABLE
  2
UCS
 70
     0
  0
ENDTAB
  0
TABLE
  2
APPID
 70
     1
  0
APPID
  2
ACAD
 70
     0
  0
ENDTAB
  0
TABLE
  2
DIMSTYLE
 70
     2
  0
DIMSTYLE
  2
SC_DEFAUT
 70
     0
  3

  4

  5
OPEN30
  6

  7

 40
1.0
 41
5.0
 42
2.0
 43
0.38
 44
2.5
 45
0.0
 46
0.0
 47
0.0
 48
0.0
140
2.5
141
0.0
142
0.0
143
25.4
144
1.0
145
0.0
146
1.0
147
2.0
 71
     0
 72
     0
 73
     1
 74
     1
 75
     0
 76
     0
 77
     1
 78
    12
170
     0
171
     2
172
     0
173
     0
174
     0
175
     0
176
     0
177
     0
178
     0
  0
DIMSTYLE
  2
STANDARD
 70
     0
  3

  4

  5

  6

  7

 40
1.0
 41
0.18
 42
0.0625
 43
0.38
 44
0.18
 45
0.0
 46
0.0
 47
0.0
 48
0.0
140
0.18
141
0.09
142
0.0
143
25.4
144
1.0
145
0.0
146
1.0
147
0.09
 71
     0
 72
     0
 73
     1
 74
     1
 75
     0
 76
     0
 77
     0
 78
     0
170
     0
171
     2
172
     0
173
     0
174
     0
175
     0
176
     0
177
     0
178
     0
  0
ENDTAB
  0
ENDSEC
  0
SECTION
  2
BLOCKS
  0
BLOCK
  8
0
  2
$MODEL_SPACE
 70
     0
 10
0.0
 20
0.0
 30
0.0
  3
$MODEL_SPACE
  1

  0
ENDBLK
  5
B2EE
  8
0
  0
BLOCK
 67
     1
  8
0
  2
$PAPER_SPACE
 70
     0
 10
0.0
 20
0.0
 30
0.0
  3
$PAPER_SPACE
  1

  0
ENDBLK
  5
B2EC
 67
     1
  8
0
  0
BLOCK
  8
0
  2
COTE
 70
     0
 10
0.0
 20
0.0
 30
0.0
  3
COTE
  1

  0
ENDBLK
  5
F
  8
0
  0
BLOCK
  8
0
  2
FOND
 70
     0
 10
0.0
 20
0.0
 30
0.0
  3
FOND
  1

  0
ENDBLK
  5
75
  8
0
  0
BLOCK
  8
0
  2
_OPEN30
 70
     0
 10
0.0
 20
0.0
 30
0.0
  3
_OPEN30
  1

  0
LINE
  5
4B05
  8
COTATION1
 62
     0
 10
-1.0
 20
0.267949
 30
0.0
 11
0.0
 21
0.0
 31
0.0
1001
ACAD
1000
RTLwPs
1070
   158
  0
LINE
  5
4B06
  8
COTATION1
 62
     0
 10
0.0
 20
0.0
 30
0.0
 11
-1.0
 21
-0.267949
 31
0.0
1001
ACAD
1000
RTLwPs
1070
   158
  0
LINE
  5
4B07
  8
COTATION1
 62
     0
 10
0.0
 20
0.0
 30
0.0
 11
-1.0
 21
0.0
 31
0.0
1001
ACAD
1000
RTLwPs
1070
   158
  0
ENDBLK
  5
4B09
  8
0
  0
BLOCK
  8
0
  2
*D3
 70
     1
 10
0.0
 20
0.0
 30
0.0
  3
*D3
  1

  0
LINE
  5
B091
  8
COTATION1
 62
     0
 10
19.149169
 20
68.337436
 30
0.0
 11
19.149169
 21
93.524096
 31
0.0
1001
ACAD
1000
RTLwPs
1070
   158
  0
LINE
  5
B092
  8
COTATION1
 62
     0
 10
50.491102
 20
77.816407
 30
0.0
 11
50.491102
 21
93.524096
 31
0.0
1001
ACAD
1000
RTLwPs
1070
   158
  0
LINE
  5
B093
  8
COTATION1
 62
     0
 10
24.149169
 20
91.024096
 30
0.0
 11
45.491102
 21
91.024096
 31
0.0
1001
ACAD
1000
RTLwPs
1070
   158
  0
INSERT
  5
B094
  8
COTATION1
 62
     0
  2
_OPEN30
 10
19.149169
 20
91.024096
 30
0.0
 41
5.0
 42
5.0
 43
5.0
 50
180.0
1001
ACAD
1000
RTLwPs
1070
   158
  0
INSERT
  5
B095
  8
COTATION1
 62
     0
  2
_OPEN30
 10
50.491102
 20
91.024096
 30
0.0
 41
5.0
 42
5.0
 43
5.0
1001
ACAD
1000
RTLwPs
1070
   158
  0
TEXT
  5
B096
  8
COTATION1
 62
     0
 10
30.653469
 20
93.024096
 30
0.0
 40
2.5
  1
31.3
1001
ACAD
1000
MTEXTBEGIN
1070
    73
1070
     1
1070
    44
1040
1.0
1070
    74
1070
     0
1000
MTEXTEND
  0
POINT
  5
B097
  8
DEFPOINTS
 62
     0
 10
19.149169
 20
66.337436
 30
0.0
  0
POINT
  5
B098
  8
DEFPOINTS
 62
     0
 10
50.491102
 20
75.816407
 30
0.0
  0
POINT
  5
B099
  8
DEFPOINTS
 62
     0
 10
50.491102
 20
91.024096
 30
0.0
  0
ENDBLK
  5
B05F
  8
0
  0
ENDSEC
  0
SECTION
  2
ENTITIES
  0
INSERT
  5
A
  8
0
  2
COTE
 10
0.0
 20
0.0
 30
0.0
  0
INSERT
  5
17
  8
0
  2
COTE
 10
284.010391
 20
6.373258
 30
0.0
  0
INSERT
  5
72
  8
0
  2
FOND
 10
0.0
 20
0.0
 30
0.0
  0
POLYLINE
  5
AEF2
  8
ALPHA
 66
     1
 10
0.0
 20
0.0
 30
0.0
  0
VERTEX
  5
B2F4
  8
ALPHA
 10
32.196184
 20
75.731592
 30
0.0
  0
VERTEX
  5
B2F5
  8
ALPHA
 10
33.306531
 20
75.618825
 30
0.0
  0
VERTEX
  5
B2F6
  8
ALPHA
 10
34.558593
 20
75.519924
 30
0.0
  0
VERTEX
  5
B2F7
  8
ALPHA
 10
35.89525
 20
75.447774
 30
0.0
  0
VERTEX
  5
B2F8
  8
ALPHA
 10
37.289692
 20
75.409607
 30
0.0
  0
VERTEX
  5
B2F9
  8
ALPHA
 10
38.692517
 20
75.409607
 30
0.0
  0
VERTEX
  5
B2FA
  8
ALPHA
 10
40.086947
 20
75.447774
 30
0.0
  0
VERTEX
  5
B2FB
  8
ALPHA
 10
41.423596
 20
75.519923
 30
0.0
  0
VERTEX
  5
B2FC
  8
ALPHA
 10
42.675666
 20
75.618824
 30
0.0
  0
SEQEND
  5
B2FD
  8
ALPHA
  0
LINE
  5
AEF4
  8
ALPHA
 10
25.891102
 20
76.024096
 30
0.0
 11
50.191102
 21
76.024096
 31
0.0
  0
POLYLINE
  5
AEF5
  8
ALPHA
 66
     1
 10
0.0
 20
0.0
 30
0.0
  0
VERTEX
  5
B2FE
  8
ALPHA
 10
50.491102
 20
74.286385
 30
0.0
  0
VERTEX
  5
B2FF
  8
ALPHA
 10
42.28869
 20
74.268455
 30
0.0
  0
VERTEX
  5
B300
  8
ALPHA
 10
25.891102
 20
74.232324
 30
0.0
  0
SEQEND
  5
B301
  8
ALPHA
  0
POLYLINE
  5
AEF6
  8
ALPHA
 66
     1
 10
0.0
 20
0.0
 30
0.0
  0
VERTEX
  5
B302
  8
ALPHA
 10
50.491102
 20
73.318968
 30
0.0
  0
VERTEX
  5
B303
  8
ALPHA
 10
42.289854
 20
73.301337
 30
0.0
  0
VERTEX
  5
B304
  8
ALPHA
 10
25.894593
 20
73.265808
 30
0.0
  0
SEQEND
  5
B305
  8
ALPHA
  0
LINE
  5
AEF7
  8
0
  6
CONTINUOUS
 62
     2
 10
40.755632
 20
18.874096
 30
0.0
 11
1.069756
 21
18.874096
 31
0.0
  0
LINE
  5
AEF8
  8
ALPHA
 10
37.337617
 20
14.624096
 30
0.0
 11
35.618478
 21
14.624096
 31
0.0
  0
LINE
  5
AEF9
  8
ALPHA
 10
35.594351
 20
14.074096
 30
0.0
 11
37.453931
 21
14.074096
 31
0.0
  0
LINE
  5
AEFA
  8
ALPHA
 10
39.772191
 20
10.799371
 30
0.0
 11
35.459693
 21
10.724096
 31
0.0
  0
ARC
  5
AEFC
  8
ALPHA
 10
-163.857118
 20
-6.085489
 30
0.0
 40
200.1
 50
6.069269
 51
18.867673
  0
ARC
  5
AEFD
  8
ALPHA
 10
-163.807118
 20
-6.385489
 30
0.0
 40
200.0
 50
6.000468
 51
18.828099
  0
POLYLINE
  5
AEFE
  8
ALPHA
 66
     1
 10
0.0
 20
0.0
 30
0.0
  0
VERTEX
  5
B306
  8
ALPHA
 10
21.948386
 20
59.466352
 30
0.0
  0
VERTEX
  5
B307
  8
ALPHA
 10
21.935129
 20
37.770117
 30
0.0
  0
VERTEX
  5
B308
  8
ALPHA
 10
21.927122
 20
15.118077
 30
0.0
  0
SEQEND
  5
B309
  8
ALPHA
  0
POLYLINE
  5
AEFF
  8
ALPHA
 66
     1
 10
0.0
 20
0.0
 30
0.0
  0
VERTEX
  5
B30A
  8
ALPHA
 10
20.97298
 20
59.116637
 30
0.0
  0
VERTEX
  5
B30B
  8
ALPHA
 10
20.959796
 20
37.606788
 30
0.0
  0
VERTEX
  5
B30C
  8
ALPHA
 10
20.951812
 20
15.158209
 30
0.0
  0
SEQEND
  5
B30D
  8
ALPHA
  0
LINE
  5
AF00
  8
ALPHA
 10
20.091102
 20
60.86271
 30
0.0
 11
20.091102
 21
15.713741
 31
0.0
  0
LINE
  5
AF01
  8
0
  6
CONTINUOUS
 62
     2
 10
2.230803
 20
21.374096
 30
0.0
 11
2.230803
 21
26.841046
 31
0.0
  0
SOLID
  5
AF02
  8
0
  6
CONTINUOUS
 62
     2
 10
3.674179
 20
18.874096
 30
0.0
 11
0.787428
 21
18.874096
 31
0.0
 12
2.230803
 22
21.374096
 32
0.0
 13
2.230803
 23
21.374096
 33
0.0
  0
ARC
  5
AF03
  8
ALPHA
 10
33.841102
 20
34.255928
 30
0.0
 40
23.5
 50
235.481886
 51
269.0
  0
ARC
  5
AF04
  8
ALPHA
 10
21.091102
 20
15.717116
 30
0.0
 40
1.0
 50
180.000002
 51
235.481894
  0
POLYLINE
  5
AF05
  8
ALPHA
 66
     1
 10
0.0
 20
0.0
 30
0.0
  0
VERTEX
  5
B30E
  8
ALPHA
 10
20.135722
 20
15.686765
 30
0.0
  0
VERTEX
  5
B30F
  8
ALPHA
 10
20.215328
 20
15.632998
 30
0.0
  0
VERTEX
  5
B310
  8
ALPHA
 10
20.335628
 20
15.552673
 30
0.0
  0
VERTEX
  5
B311
  8
ALPHA
 10
20.497653
 20
15.446223
 30
0.0
  0
VERTEX
  5
B312
  8
ALPHA
 10
20.702572
 20
15.314402
 30
0.0
  0
VERTEX
  5
B313
  8
ALPHA
 10
20.951812
 20
15.158209
 30
0.0
  0
SEQEND
  5
B314
  8
ALPHA
  0
LINE
  5
AF06
  8
ALPHA
 10
20.091102
 20
15.717113
 30
0.0
 11
20.135722
 21
15.686765
 31
0.0
  0
POLYLINE
  5
AF07
  8
ALPHA
 66
     1
 10
0.0
 20
0.0
 30
0.0
  0
VERTEX
  5
B315
  8
ALPHA
 10
21.927122
 20
15.118077
 30
0.0
  0
VERTEX
  5
B316
  8
ALPHA
 10
22.695537
 20
14.576435
 30
0.0
  0
VERTEX
  5
B317
  8
ALPHA
 10
23.489625
 20
14.064887
 30
0.0
  0
VERTEX
  5
B318
  8
ALPHA
 10
24.307041
 20
13.585322
 30
0.0
  0
VERTEX
  5
B319
  8
ALPHA
 10
25.145439
 20
13.139327
 30
0.0
  0
VERTEX
  5
B31A
  8
ALPHA
 10
26.003372
 20
12.727841
 30
0.0
  0
VERTEX
  5
B31B
  8
ALPHA
 10
26.88004
 20
12.351471
 30
0.0
  0
VERTEX
  5
B31C
  8
ALPHA
 10
27.774721
 20
12.010829
 30
0.0
  0
VERTEX
  5
B31D
  8
ALPHA
 10
28.686074
 20
11.706717
 30
0.0
  0
VERTEX
  5
B31E
  8
ALPHA
 10
29.6125
 20
11.439907
 30
0.0
  0
VERTEX
  5
B31F
  8
ALPHA
 10
30.552051
 20
11.211173
 30
0.0
  0
VERTEX
  5
B320
  8
ALPHA
 10
31.502617
 20
11.02121
 30
0.0
  0
VERTEX
  5
B321
  8
ALPHA
 10
32.462737
 20
10.870507
 30
0.0
  0
VERTEX
  5
B322
  8
ALPHA
 10
33.430971
 20
10.759507
 30
0.0
  0
SEQEND
  5
B323
  8
ALPHA
  0
LINE
  5
AF08
  8
ALPHA
 10
28.879897
 20
11.286792
 30
0.0
 11
24.755635
 21
11.286793
 31
0.0
  0
LINE
  5
AF09
  8
ALPHA
 10
30.655859
 20
10.974096
 30
0.0
 11
25.219227
 21
10.974096
 31
0.0
  0
LINE
  5
AF0A
  8
ALPHA
 10
24.755635
 20
11.286793
 30
0.0
 11
24.117384
 21
12.866519
 31
0.0
  0
POLYLINE
  5
AF0B
  8
ALPHA
 66
     1
 10
0.0
 20
0.0
 30
0.0
  0
VERTEX
  5
B324
  8
ALPHA
 10
21.927122
 20
15.118077
 30
0.0
  0
VERTEX
  5
B325
  8
ALPHA
 10
21.753626
 20
14.879337
 30
0.0
  0
VERTEX
  5
B326
  8
ALPHA
 10
21.60358
 20
14.657713
 30
0.0
  0
VERTEX
  5
B327
  8
ALPHA
 10
21.492091
 20
14.477134
 30
0.0
  0
VERTEX
  5
B328
  8
ALPHA
 10
21.429208
 20
14.355938
 30
0.0
  0
VERTEX
  5
B329
  8
ALPHA
 10
21.419813
 20
14.306954
 30
0.0
  0
SEQEND
  5
B32A
  8
ALPHA
  0
POLYLINE
  5
AF0C
  8
ALPHA
 66
     1
 10
0.0
 20
0.0
 30
0.0
  0
VERTEX
  5
B32B
  8
ALPHA
 10
20.951812
 20
15.158209
 30
0.0
  0
VERTEX
  5
B32C
  8
ALPHA
 10
20.982515
 20
14.906459
 30
0.0
  0
VERTEX
  5
B32D
  8
ALPHA
 10
21.075308
 20
14.670893
 30
0.0
  0
VERTEX
  5
B32E
  8
ALPHA
 10
21.224268
 20
14.466673
 30
0.0
  0
VERTEX
  5
B32F
  8
ALPHA
 10
21.419812
 20
14.306953
 30
0.0
  0
SEQEND
  5
B330
  8
ALPHA
  0
POLYLINE
  5
AF0D
  8
ALPHA
 66
     1
 10
0.0
 20
0.0
 30
0.0
  0
VERTEX
  5
B331
  8
ALPHA
 10
21.927122
 20
15.118077
 30
0.0
  0
VERTEX
  5
B332
  8
ALPHA
 10
21.646059
 20
15.125652
 30
0.0
  0
VERTEX
  5
B333
  8
ALPHA
 10
21.387911
 20
15.133247
 30
0.0
  0
VERTEX
  5
B334
  8
ALPHA
 10
21.175374
 20
15.141052
 30
0.0
  0
VERTEX
  5
B335
  8
ALPHA
 10
21.025861
 20
15.149294
 30
0.0
  0
VERTEX
  5
B336
  8
ALPHA
 10
20.951811
 20
15.158209
 30
0.0
  0
SEQEND
  5
B337
  8
ALPHA
  0
ARC
  5
AF0E
  8
ALPHA
 10
25.219227
 20
11.474096
 30
0.0
 40
0.5
 50
202.000002
 51
270.0
  0
LINE
  5
AF10
  8
ALPHA
 10
33.430971
 20
10.759507
 30
0.0
 11
35.459693
 21
10.724096
 31
0.0
  0
ARC
  5
AF11
  8
ALPHA
 10
35.618478
 20
15.124096
 30
0.0
 40
0.5
 50
186.069269
 51
270.0
  0
ARC
  5
AF12
  8
ALPHA
 10
35.594351
 20
14.574096
 30
0.0
 40
0.5
 50
186.186694
 51
270.0
  0
POLYLINE
  5
AF13
  8
ALPHA
 66
     1
 10
0.0
 20
0.0
 30
0.0
  0
VERTEX
  5
B338
  8
ALPHA
 10
35.459693
 20
10.724096
 30
0.0
  0
VERTEX
  5
B339
  8
ALPHA
 10
35.339499
 20
12.070308
 30
0.0
  0
VERTEX
  5
B33A
  8
ALPHA
 10
35.21809
 20
13.335981
 30
0.0
  0
VERTEX
  5
B33B
  8
ALPHA
 10
35.097105
 20
14.520195
 30
0.0
  0
SEQEND
  5
B33C
  8
ALPHA
  0
LINE
  5
AF14
  8
ALPHA
 10
35.741102
 20
14.624096
 30
0.0
 11
35.858008
 21
14.074096
 31
0.0
  0
LINE
  5
AF15
  8
ALPHA
 10
35.379844
 20
14.128844
 30
0.0
 11
35.846371
 21
14.128844
 31
0.0
  0
LINE
  5
AF16
  8
0
  6
CONTINUOUS
 62
     2
 10
-2.769197
 20
31.841046
 30
0.0
 11
7.230803
 21
31.841046
 31
0.0
  0
LINE
  5
AF17
  8
0
  6
CONTINUOUS
 62
     2
 10
7.230803
 20
26.841046
 30
0.0
 11
-2.769197
 21
26.841046
 31
0.0
  0
TEXT
  5
AF18
  8
0
  6
CONTINUOUS
 62
     2
 10
-1.519197
 20
28.091046
 30
0.0
 40
2.5
  1
ENTRY
 41
0.642857
  7
STANDARD
 72
     5
 11
5.980803
 21
28.091046
 31
0.0
  0
LINE
  5
AF19
  8
0
  6
CONTINUOUS
 62
     2
 10
-2.769197
 20
26.841046
 30
0.0
 11
-2.769197
 21
31.841046
 31
0.0
  0
POLYLINE
  5
AF1A
  8
ALPHA
 66
     1
 10
0.0
 20
0.0
 30
0.0
  0
VERTEX
  5
B33D
  8
ALPHA
 10
25.894593
 20
73.265808
 30
0.0
  0
VERTEX
  5
B33E
  8
ALPHA
 10
25.869739
 20
69.812316
 30
0.0
  0
VERTEX
  5
B33F
  8
ALPHA
 10
25.794897
 20
66.236158
 30
0.0
  0
VERTEX
  5
B340
  8
ALPHA
 10
25.670236
 20
62.541027
 30
0.0
  0
SEQEND
  5
B341
  8
ALPHA
  0
LINE
  5
AF1B
  8
ALPHA
 10
25.491102
 20
71.508288
 30
0.0
 11
25.491102
 21
60.329599
 31
0.0
  0
POLYLINE
  5
AF1C
  8
ALPHA
 66
     1
 10
0.0
 20
0.0
 30
0.0
  0
VERTEX
  5
B342
  8
ALPHA
 10
20.759448
 20
68.964354
 30
0.0
  0
VERTEX
  5
B343
  8
ALPHA
 10
20.757229
 20
68.936199
 30
0.0
  0
VERTEX
  5
B344
  8
ALPHA
 10
20.749232
 20
68.849128
 30
0.0
  0
VERTEX
  5
B345
  8
ALPHA
 10
20.731784
 20
68.691915
 30
0.0
  0
VERTEX
  5
B346
  8
ALPHA
 10
20.699314
 20
68.440019
 30
0.0
  0
VERTEX
  5
B347
  8
ALPHA
 10
20.646283
 20
68.063036
 30
0.0
  0
VERTEX
  5
B348
  8
ALPHA
 10
20.570728
 20
67.537575
 30
0.0
  0
VERTEX
  5
B349
  8
ALPHA
 10
20.478368
 20
66.872891
 30
0.0
  0
VERTEX
  5
B34A
  8
ALPHA
 10
20.379956
 20
66.103506
 30
0.0
  0
VERTEX
  5
B34B
  8
ALPHA
 10
20.289992
 20
65.309319
 30
0.0
  0
VERTEX
  5
B34C
  8
ALPHA
 10
20.215301
 20
64.533691
 30
0.0
  0
SEQEND
  5
B34D
  8
ALPHA
  0
POLYLINE
  5
AF1D
  8
ALPHA
 66
     1
 10
0.0
 20
0.0
 30
0.0
  0
VERTEX
  5
B34E
  8
ALPHA
 10
20.267954
 20
64.182036
 30
0.0
  0
VERTEX
  5
B34F
  8
ALPHA
 10
20.307492
 20
64.811745
 30
0.0
  0
VERTEX
  5
B350
  8
ALPHA
 10
20.358271
 20
65.44179
 30
0.0
  0
VERTEX
  5
B351
  8
ALPHA
 10
20.420361
 20
66.071818
 30
0.0
  0
VERTEX
  5
B352
  8
ALPHA
 10
20.493375
 20
66.701389
 30
0.0
  0
VERTEX
  5
B353
  8
ALPHA
 10
20.577988
 20
67.336636
 30
0.0
  0
VERTEX
  5
B354
  8
ALPHA
 10
20.675011
 20
67.980869
 30
0.0
  0
VERTEX
  5
B355
  8
ALPHA
 10
20.783955
 20
68.630223
 30
0.0
  0
SEQEND
  5
B356
  8
ALPHA
  0
POLYLINE
  5
AF1E
  8
ALPHA
 66
     1
 10
0.0
 20
0.0
 30
0.0
  0
VERTEX
  5
B357
  8
ALPHA
 10
21.788006
 20
68.322559
 30
0.0
  0
VERTEX
  5
B358
  8
ALPHA
 10
21.947518
 20
69.008387
 30
0.0
  0
VERTEX
  5
B359
  8
ALPHA
 10
22.106971
 20
69.633882
 30
0.0
  0
VERTEX
  5
B35A
  8
ALPHA
 10
22.246622
 20
70.150117
 30
0.0
  0
VERTEX
  5
B35B
  8
ALPHA
 10
22.365932
 20
70.576631
 30
0.0
  0
VERTEX
  5
B35C
  8
ALPHA
 10
22.466276
 20
70.930166
 30
0.0
  0
VERTEX
  5
B35D
  8
ALPHA
 10
22.552621
 20
71.233842
 30
0.0
  0
VERTEX
  5
B35E
  8
ALPHA
 10
22.638357
 20
71.537843
 30
0.0
  0
VERTEX
  5
B35F
  8
ALPHA
 10
22.728902
 20
71.865373
 30
0.0
  0
SEQEND
  5
B360
  8
ALPHA
  0
LINE
  5
AF1F
  8
ALPHA
 10
20.691368
 20
68.383531
 30
0.0
 11
20.099577
 21
68.331756
 31
0.0
  0
POLYLINE
  5
AF20
  8
ALPHA
 66
     1
 10
0.0
 20
0.0
 30
0.0
  0
VERTEX
  5
B361
  8
ALPHA
 10
21.247192
 20
64.392551
 30
0.0
  0
VERTEX
  5
B362
  8
ALPHA
 10
20.954801
 20
64.393619
 30
0.0
  0
VERTEX
  5
B363
  8
ALPHA
 10
20.689717
 20
64.370067
 30
0.0
  0
VERTEX
  5
B364
  8
ALPHA
 10
20.475304
 20
64.323972
 30
0.0
  0
VERTEX
  5
B365
  8
ALPHA
 10
20.33046
 20
64.259398
 30
0.0
  0
VERTEX
  5
B366
  8
ALPHA
 10
20.267954
 20
64.182036
 30
0.0
  0
SEQEND
  5
B367
  8
ALPHA
  0
POLYLINE
  5
AF21
  8
ALPHA
 66
     1
 10
0.0
 20
0.0
 30
0.0
  0
VERTEX
  5
B368
  8
ALPHA
 10
21.235602
 20
62.735789
 30
0.0
  0
VERTEX
  5
B369
  8
ALPHA
 10
20.938922
 20
62.692335
 30
0.0
  0
VERTEX
  5
B36A
  8
ALPHA
 10
20.671026
 20
62.590046
 30
0.0
  0
VERTEX
  5
B36B
  8
ALPHA
 10
20.456234
 20
62.43821
 30
0.0
  0
VERTEX
  5
B36C
  8
ALPHA
 10
20.314046
 20
62.25061
 30
0.0
  0
VERTEX
  5
B36D
  8
ALPHA
 10
20.257371
 20
62.044278
 30
0.0
  0
SEQEND
  5
B36E
  8
ALPHA
  0
POLYLINE
  5
AF22
  8
ALPHA
 66
     1
 10
0.0
 20
0.0
 30
0.0
  0
VERTEX
  5
B36F
  8
ALPHA
 10
20.366156
 20
60.756053
 30
0.0
  0
VERTEX
  5
B370
  8
ALPHA
 10
20.353298
 20
60.76473
 30
0.0
  0
VERTEX
  5
B371
  8
ALPHA
 10
20.34056
 20
60.773452
 30
0.0
  0
VERTEX
  5
B372
  8
ALPHA
 10
20.32786
 20
60.782281
 30
0.0
  0
VERTEX
  5
B373
  8
ALPHA
 10
20.315091
 20
60.791302
 30
0.0
  0
VERTEX
  5
B374
  8
ALPHA
 10
20.302047
 20
60.800673
 30
0.0
  0
VERTEX
  5
B375
  8
ALPHA
 10
20.288485
 20
60.810596
 30
0.0
  0
VERTEX
  5
B376
  8
ALPHA
 10
20.274189
 20
60.82127
 30
0.0
  0
VERTEX
  5
B377
  8
ALPHA
 10
20.259026
 20
60.832862
 30
0.0
  0
VERTEX
  5
B378
  8
ALPHA
 10
20.242968
 20
60.84548
 30
0.0
  0
SEQEND
  5
B379
  8
ALPHA
  0
POLYLINE
  5
AF23
  8
ALPHA
 66
     1
 10
0.0
 20
0.0
 30
0.0
  0
VERTEX
  5
B37A
  8
ALPHA
 10
20.40421
 20
60.593082
 30
0.0
  0
VERTEX
  5
B37B
  8
ALPHA
 10
20.390515
 20
60.60174
 30
0.0
  0
VERTEX
  5
B37C
  8
ALPHA
 10
20.377178
 20
60.610307
 30
0.0
  0
VERTEX
  5
B37D
  8
ALPHA
 10
20.364129
 20
60.618825
 30
0.0
  0
VERTEX
  5
B37E
  8
ALPHA
 10
20.351291
 20
60.627344
 30
0.0
  0
VERTEX
  5
B37F
  8
ALPHA
 10
20.33858
 20
60.635922
 30
0.0
  0
VERTEX
  5
B380
  8
ALPHA
 10
20.325914
 20
60.644622
 30
0.0
  0
SEQEND
  5
B381
  8
ALPHA
  0
POLYLINE
  5
AF24
  8
ALPHA
 66
     1
 10
0.0
 20
0.0
 30
0.0
  0
VERTEX
  5
B382
  8
ALPHA
 10
20.333854
 20
60.60809
 30
0.0
  0
VERTEX
  5
B383
  8
ALPHA
 10
20.334868
 20
60.607096
 30
0.0
  0
VERTEX
  5
B384
  8
ALPHA
 10
20.344548
 20
60.598942
 30
0.0
  0
VERTEX
  5
B385
  8
ALPHA
 10
20.353736
 20
60.593252
 30
0.0
  0
VERTEX
  5
B386
  8
ALPHA
 10
20.362415
 20
60.589609
 30
0.0
  0
VERTEX
  5
B387
  8
ALPHA
 10
20.370576
 20
60.587641
 30
0.0
  0
VERTEX
  5
B388
  8
ALPHA
 10
20.378223
 20
60.587019
 30
0.0
  0
VERTEX
  5
B389
  8
ALPHA
 10
20.385381
 20
60.587462
 30
0.0
  0
VERTEX
  5
B38A
  8
ALPHA
 10
20.392075
 20
60.588739
 30
0.0
  0
VERTEX
  5
B38B
  8
ALPHA
 10
20.39834
 20
60.590662
 30
0.0
  0
VERTEX
  5
B38C
  8
ALPHA
 10
20.40421
 20
60.593082
 30
0.0
  0
SEQEND
  5
B38D
  8
ALPHA
  0
LINE
  5
AF25
  8
ALPHA
 10
20.360036
 20
61.009084
 30
0.0
 11
20.3421
 21
61.080495
 31
0.0
  0
LINE
  5
AF26
  8
0
  6
CONTINUOUS
 62
     2
 10
7.230803
 20
31.841046
 30
0.0
 11
7.230803
 21
26.841046
 31
0.0
  0
POLYLINE
  5
AF27
  8
ALPHA
 66
     1
 10
0.0
 20
0.0
 30
0.0
  0
VERTEX
  5
B38E
  8
ALPHA
 10
20.257371
 20
62.044278
 30
0.0
  0
VERTEX
  5
B38F
  8
ALPHA
 10
20.251064
 20
62.182853
 30
0.0
  0
VERTEX
  5
B390
  8
ALPHA
 10
20.245524
 20
62.330885
 30
0.0
  0
VERTEX
  5
B391
  8
ALPHA
 10
20.240926
 20
62.488828
 30
0.0
  0
VERTEX
  5
B392
  8
ALPHA
 10
20.237466
 20
62.657155
 30
0.0
  0
VERTEX
  5
B393
  8
ALPHA
 10
20.235361
 20
62.837305
 30
0.0
  0
VERTEX
  5
B394
  8
ALPHA
 10
20.23489
 20
63.031159
 30
0.0
  0
VERTEX
  5
B395
  8
ALPHA
 10
20.236387
 20
63.238335
 30
0.0
  0
VERTEX
  5
B396
  8
ALPHA
 10
20.24013
 20
63.456068
 30
0.0
  0
VERTEX
  5
B397
  8
ALPHA
 10
20.246241
 20
63.68006
 30
0.0
  0
VERTEX
  5
B398
  8
ALPHA
 10
20.254582
 20
63.903996
 30
0.0
  0
VERTEX
  5
B399
  8
ALPHA
 10
20.264725
 20
64.120747
 30
0.0
  0
SEQEND
  5
B39A
  8
ALPHA
  0
POLYLINE
  5
AF28
  8
ALPHA
 66
     1
 10
0.0
 20
0.0
 30
0.0
  0
VERTEX
  5
B39B
  8
ALPHA
 10
20.123742
 20
63.215661
 30
0.0
  0
VERTEX
  5
B39C
  8
ALPHA
 10
20.104111
 20
62.7585
 30
0.0
  0
VERTEX
  5
B39D
  8
ALPHA
 10
20.094987
 20
62.466059
 30
0.0
  0
SEQEND
  5
B39E
  8
ALPHA
  0
POLYLINE
  5
AF29
  8
ALPHA
 66
     1
 10
0.0
 20
0.0
 30
0.0
  0
VERTEX
  5
B39F
  8
ALPHA
 10
20.286691
 20
60.672631
 30
0.0
  0
VERTEX
  5
B3A0
  8
ALPHA
 10
20.272472
 20
60.683236
 30
0.0
  0
VERTEX
  5
B3A1
  8
ALPHA
 10
20.257411
 20
60.69477
 30
0.0
  0
VERTEX
  5
B3A2
  8
ALPHA
 10
20.241485
 20
60.707333
 30
0.0
  0
VERTEX
  5
B3A3
  8
ALPHA
 10
20.224724
 20
60.721014
 30
0.0
  0
VERTEX
  5
B3A4
  8
ALPHA
 10
20.207315
 20
60.735789
 30
0.0
  0
SEQEND
  5
B3A5
  8
ALPHA
  0
POLYLINE
  5
AF2A
  8
ALPHA
 66
     1
 10
0.0
 20
0.0
 30
0.0
  0
VERTEX
  5
B3A6
  8
ALPHA
 10
20.325914
 20
60.644622
 30
0.0
  0
VERTEX
  5
B3A7
  8
ALPHA
 10
20.313189
 20
60.653523
 30
0.0
  0
VERTEX
  5
B3A8
  8
ALPHA
 10
20.300193
 20
60.662793
 30
0.0
  0
VERTEX
  5
B3A9
  8
ALPHA
 10
20.286691
 20
60.672631
 30
0.0
  0
SEQEND
  5
B3AA
  8
ALPHA
  0
POLYLINE
  5
AF2B
  8
ALPHA
 66
     1
 10
0.0
 20
0.0
 30
0.0
  0
VERTEX
  5
B3AB
  8
ALPHA
 10
20.207315
 20
60.735789
 30
0.0
  0
VERTEX
  5
B3AC
  8
ALPHA
 10
20.189512
 20
60.751592
 30
0.0
  0
VERTEX
  5
B3AD
  8
ALPHA
 10
20.171506
 20
60.768428
 30
0.0
  0
VERTEX
  5
B3AE
  8
ALPHA
 10
20.164077
 20
60.775666
 30
0.0
  0
SEQEND
  5
B3AF
  8
ALPHA
  0
POLYLINE
  5
AF2C
  8
ALPHA
 66
     1
 10
0.0
 20
0.0
 30
0.0
  0
VERTEX
  5
B3B0
  8
ALPHA
 10
20.226052
 20
60.859209
 30
0.0
  0
VERTEX
  5
B3B1
  8
ALPHA
 10
20.20846
 20
60.87404
 30
0.0
  0
VERTEX
  5
B3B2
  8
ALPHA
 10
20.190457
 20
60.889907
 30
0.0
  0
VERTEX
  5
B3B3
  8
ALPHA
 10
20.172245
 20
60.906818
 30
0.0
  0
VERTEX
  5
B3B4
  8
ALPHA
 10
20.154033
 20
60.924808
 30
0.0
  0
VERTEX
  5
B3B5
  8
ALPHA
 10
20.136072
 20
60.943913
 30
0.0
  0
VERTEX
  5
B3B6
  8
ALPHA
 10
20.118634
 20
60.9642
 30
0.0
  0
VERTEX
  5
B3B7
  8
ALPHA
 10
20.102031
 20
60.985739
 30
0.0
  0
SEQEND
  5
B3B8
  8
ALPHA
  0
LINE
  5
AF2D
  8
ALPHA
 10
20.242968
 20
60.84548
 30
0.0
 11
20.226052
 21
60.859209
 31
0.0
  0
POLYLINE
  5
AF2E
  8
ALPHA
 66
     1
 10
0.0
 20
0.0
 30
0.0
  0
VERTEX
  5
B3B9
  8
ALPHA
 10
20.16389
 20
60.775851
 30
0.0
  0
VERTEX
  5
B3BA
  8
ALPHA
 10
20.153493
 20
60.786321
 30
0.0
  0
VERTEX
  5
B3BB
  8
ALPHA
 10
20.135711
 20
60.805294
 30
0.0
  0
VERTEX
  5
B3BC
  8
ALPHA
 10
20.118416
 20
60.825407
 30
0.0
  0
VERTEX
  5
B3BD
  8
ALPHA
 10
20.101916
 20
60.846734
 30
0.0
  0
VERTEX
  5
B3BE
  8
ALPHA
 10
20.086606
 20
60.869353
 30
0.0
  0
VERTEX
  5
B3BF
  8
ALPHA
 10
20.072978
 20
60.893351
 30
0.0
  0
VERTEX
  5
B3C0
  8
ALPHA
 10
20.06165
 20
60.918832
 30
0.0
  0
SEQEND
  5
B3C1
  8
ALPHA
  0
LINE
  5
AF2F
  8
ALPHA
 10
20.333854
 20
60.608084
 30
0.0
 11
20.16389
 21
60.775851
 31
0.0
  0
POLYLINE
  5
AF30
  8
ALPHA
 66
     1
 10
0.0
 20
0.0
 30
0.0
  0
VERTEX
  5
B3C2
  8
ALPHA
 10
20.102031
 20
60.985739
 30
0.0
  0
VERTEX
  5
B3C3
  8
ALPHA
 10
20.086654
 20
61.008597
 30
0.0
  0
VERTEX
  5
B3C4
  8
ALPHA
 10
20.072994
 20
61.032852
 30
0.0
  0
SEQEND
  5
B3C5
  8
ALPHA
  0
POLYLINE
  5
AF31
  8
ALPHA
 66
     1
 10
0.0
 20
0.0
 30
0.0
  0
VERTEX
  5
B3C6
  8
ALPHA
 10
20.038795
 20
60.953858
 30
0.0
  0
VERTEX
  5
B3C7
  8
ALPHA
 10
20.035858
 20
60.962919
 30
0.0
  0
VERTEX
  5
B3C8
  8
ALPHA
 10
20.035859
 20
61.01406
 30
0.0
  0
VERTEX
  5
B3C9
  8
ALPHA
 10
20.061652
 20
61.058577
 30
0.0
  0
SEQEND
  5
B3CA
  8
ALPHA
  0
LINE
  5
AF32
  8
ALPHA
 10
20.061652
 20
61.058577
 30
0.0
 11
20.026096
 21
61.152431
 31
0.0
  0
LINE
  5
AF33
  8
ALPHA
 10
20.026096
 20
61.152431
 30
0.0
 11
19.968476
 21
61.303771
 31
0.0
  0
LINE
  5
AF34
  8
ALPHA
 10
19.937209
 20
61.220373
 30
0.0
 11
20.038795
 21
60.953858
 31
0.0
  0
LINE
  5
AF35
  8
ALPHA
 10
19.968476
 20
61.303771
 30
0.0
 11
19.913242
 21
61.448022
 31
0.0
  0
LINE
  5
AF36
  8
ALPHA
 10
19.913242
 20
61.448022
 30
0.0
 11
19.870392
 21
61.559272
 31
0.0
  0
LINE
  5
AF37
  8
ALPHA
 10
19.870467
 20
61.39398
 30
0.0
 11
19.937209
 21
61.220373
 31
0.0
  0
LINE
  5
AF38
  8
ALPHA
 10
20.094966
 20
62.466059
 30
0.0
 11
20.257339
 21
62.044279
 31
0.0
  0
POLYLINE
  5
AF39
  8
ALPHA
 66
     1
 10
0.0
 20
0.0
 30
0.0
  0
VERTEX
  5
B3CB
  8
ALPHA
 10
20.284953
 20
61.279412
 30
0.0
  0
VERTEX
  5
B3CC
  8
ALPHA
 10
20.161543
 20
61.599068
 30
0.0
  0
VERTEX
  5
B3CD
  8
ALPHA
 10
20.091102
 20
61.779774
 30
0.0
  0
SEQEND
  5
B3CE
  8
ALPHA
  0
LINE
  5
AF3A
  8
ALPHA
 10
19.847884
 20
61.452363
 30
0.0
 11
19.870467
 21
61.39398
 31
0.0
  0
LINE
  5
AF3B
  8
ALPHA
 10
20.072994
 20
61.032852
 30
0.0
 11
20.061652
 21
61.058577
 31
0.0
  0
POLYLINE
  5
AF3C
  8
ALPHA
 66
     1
 10
0.0
 20
0.0
 30
0.0
  0
VERTEX
  5
B3CF
  8
ALPHA
 10
20.038826
 20
60.953776
 30
0.0
  0
VERTEX
  5
B3D0
  8
ALPHA
 10
20.058106
 20
60.911639
 30
0.0
  0
VERTEX
  5
B3D1
  8
ALPHA
 10
20.10641
 20
60.839275
 30
0.0
  0
VERTEX
  5
B3D2
  8
ALPHA
 10
20.16389
 20
60.775851
 30
0.0
  0
SEQEND
  5
B3D3
  8
ALPHA
  0
POLYLINE
  5
AF3D
  8
ALPHA
 66
     1
 10
0.0
 20
0.0
 30
0.0
  0
VERTEX
  5
B3D4
  8
ALPHA
 10
20.3421
 20
61.080495
 30
0.0
  0
VERTEX
  5
B3D5
  8
ALPHA
 10
20.315749
 20
61.182078
 30
0.0
  0
VERTEX
  5
B3D6
  8
ALPHA
 10
20.305996
 20
61.216629
 30
0.0
  0
VERTEX
  5
B3D7
  8
ALPHA
 10
20.295728
 20
61.249258
 30
0.0
  0
VERTEX
  5
B3D8
  8
ALPHA
 10
20.284953
 20
61.279412
 30
0.0
  0
SEQEND
  5
B3D9
  8
ALPHA
  0
POLYLINE
  5
AF3E
  8
ALPHA
 66
     1
 10
0.0
 20
0.0
 30
0.0
  0
VERTEX
  5
B3DA
  8
ALPHA
 10
20.32499
 20
61.146183
 30
0.0
  0
VERTEX
  5
B3DB
  8
ALPHA
 10
20.309327
 20
61.297357
 30
0.0
  0
VERTEX
  5
B3DC
  8
ALPHA
 10
20.294704
 20
61.463742
 30
0.0
  0
VERTEX
  5
B3DD
  8
ALPHA
 10
20.281175
 20
61.644157
 30
0.0
  0
VERTEX
  5
B3DE
  8
ALPHA
 10
20.268722
 20
61.838009
 30
0.0
  0
VERTEX
  5
B3DF
  8
ALPHA
 10
20.257339
 20
62.044279
 30
0.0
  0
SEQEND
  5
B3E0
  8
ALPHA
  0
LINE
  5
AF3F
  8
ALPHA
 10
20.094966
 20
62.466059
 30
0.0
 11
20.091102
 21
62.325379
 31
0.0
  0
LINE
  5
AF40
  8
ALPHA
 10
20.091102
 20
62.331024
 30
0.0
 11
20.091102
 21
61.779983
 31
0.0
  0
LINE
  5
AF41
  8
ALPHA
 10
20.284953
 20
61.279412
 30
0.0
 11
20.061652
 21
61.058577
 31
0.0
  0
LINE
  5
AF42
  8
ALPHA
 10
20.091102
 20
61.779983
 30
0.0
 11
19.870391
 21
61.559273
 31
0.0
  0
POLYLINE
  5
AF43
  8
ALPHA
 66
     1
 10
0.0
 20
0.0
 30
0.0
  0
VERTEX
  5
B3E1
  8
ALPHA
 10
19.870392
 20
61.559272
 30
0.0
  0
VERTEX
  5
B3E2
  8
ALPHA
 10
19.843254
 20
61.509193
 30
0.0
  0
VERTEX
  5
B3E3
  8
ALPHA
 10
19.847884
 20
61.452363
 30
0.0
  0
SEQEND
  5
B3E4
  8
ALPHA
  0
ARC
  5
AF44
  8
ALPHA
 10
24.091102
 20
65.674096
 30
0.0
 40
4.986291
 50
165.622209
 51
172.277901
  0
ARC
  5
AF45
  8
ALPHA
 10
24.091102
 20
65.674096
 30
0.0
 40
4.986291
 50
187.722099
 51
194.377791
  0
ARC
  5
AF46
  8
ALPHA
 10
24.091102
 20
65.674096
 30
0.0
 40
5.0
 50
151.320939
 51
165.606745
  0
ARC
  5
AF47
  8
ALPHA
 10
24.091102
 20
65.674096
 30
0.0
 40
5.0
 50
194.393255
 51
208.679061
  0
ARC
  5
AF48
  8
ALPHA
 10
20.143155
 20
67.833659
 30
0.0
 40
0.5
 50
95.0
 51
151.320939
  0
ARC
  5
AF49
  8
ALPHA
 10
20.143155
 20
63.514533
 30
0.0
 40
0.5
 50
208.679061
 51
265.0
  0
LINE
  5
AF4A
  8
ALPHA
 10
19.178707
 20
66.245369
 30
0.0
 11
19.991102
 21
66.224096
 31
0.0
  0
LINE
  5
AF4B
  8
ALPHA
 10
19.178707
 20
65.102823
 30
0.0
 11
19.991102
 21
65.124096
 31
0.0
  0
LINE
  5
AF4C
  8
ALPHA
 10
19.145699
 20
66.307194
 30
0.0
 11
19.189814
 21
66.28964
 31
0.0
  0
LINE
  5
AF4D
  8
ALPHA
 10
19.260984
 20
66.912264
 30
0.0
 11
19.24804
 21
66.916975
 31
0.0
  0
LINE
  5
AF4E
  8
ALPHA
 10
20.115129
 20
63.015075
 30
0.0
 11
20.099577
 21
63.016435
 31
0.0
  0
LINE
  5
AF4F
  8
ALPHA
 10
19.191689
 20
66.298629
 30
0.0
 11
19.146797
 21
66.317779
 31
0.0
  0
POLYLINE
  5
AF50
  8
ALPHA
 66
     1
 10
0.0
 20
0.0
 30
0.0
  0
VERTEX
  5
B3E5
  8
ALPHA
 10
19.264125
 20
64.752061
 30
0.0
  0
VERTEX
  5
B3E6
  8
ALPHA
 10
19.224011
 20
64.825676
 30
0.0
  0
VERTEX
  5
B3E7
  8
ALPHA
 10
19.192003
 20
64.896468
 30
0.0
  0
VERTEX
  5
B3E8
  8
ALPHA
 10
19.166663
 20
64.964578
 30
0.0
  0
SEQEND
  5
B3E9
  8
ALPHA
  0
LINE
  5
AF51
  8
ALPHA
 10
19.187998
 20
65.057831
 30
0.0
 11
19.178707
 21
65.102823
 31
0.0
  0
POLYLINE
  5
AF52
  8
ALPHA
 66
     1
 10
0.0
 20
0.0
 30
0.0
  0
VERTEX
  5
B3EA
  8
ALPHA
 10
19.180567
 20
65.102871
 30
0.0
  0
VERTEX
  5
B3EB
  8
ALPHA
 10
19.20337
 20
64.993572
 30
0.0
  0
VERTEX
  5
B3EC
  8
ALPHA
 10
19.230807
 20
64.877429
 30
0.0
  0
VERTEX
  5
B3ED
  8
ALPHA
 10
19.264125
 20
64.752061
 30
0.0
  0
SEQEND
  5
B3EE
  8
ALPHA
  0
LINE
  5
AF53
  8
ALPHA
 10
19.166663
 20
64.964578
 30
0.0
 11
19.146797
 21
65.030412
 31
0.0
  0
POLYLINE
  5
AF54
  8
ALPHA
 66
     1
 10
0.0
 20
0.0
 30
0.0
  0
VERTEX
  5
B3EF
  8
ALPHA
 10
19.150029
 20
65.004096
 30
0.0
  0
VERTEX
  5
B3F0
  8
ALPHA
 10
19.148309
 20
65.017408
 30
0.0
  0
VERTEX
  5
B3F1
  8
ALPHA
 10
19.146797
 20
65.030412
 30
0.0
  0
SEQEND
  5
B3F2
  8
ALPHA
  0
LINE
  5
AF55
  8
ALPHA
 10
19.145699
 20
65.040997
 30
0.0
 11
19.146838
 21
65.03043
 31
0.0
  0
POLYLINE
  5
AF56
  8
ALPHA
 66
     1
 10
0.0
 20
0.0
 30
0.0
  0
VERTEX
  5
B3F3
  8
ALPHA
 10
20.215301
 20
64.533691
 30
0.0
  0
VERTEX
  5
B3F4
  8
ALPHA
 10
20.159898
 20
63.823292
 30
0.0
  0
VERTEX
  5
B3F5
  8
ALPHA
 10
20.123742
 20
63.215661
 30
0.0
  0
SEQEND
  5
B3F6
  8
ALPHA
  0
LINE
  5
AF57
  8
ALPHA
 10
20.264725
 20
64.120747
 30
0.0
 11
20.267954
 21
64.182036
 31
0.0
  0
LINE
  5
AF58
  8
ALPHA
 10
20.099577
 20
68.331756
 30
0.0
 11
20.099577
 21
63.016435
 31
0.0
  0
LINE
  5
AF59
  8
ALPHA
 10
19.991102
 20
65.124096
 30
0.0
 11
19.991102
 21
66.224096
 31
0.0
  0
LINE
  5
AF5A
  8
ALPHA
 10
19.704494
 20
65.116591
 30
0.0
 11
19.704494
 21
63.274581
 31
0.0
  0
LINE
  5
AF5B
  8
ALPHA
 10
19.704494
 20
68.07361
 30
0.0
 11
19.704494
 21
66.231601
 31
0.0
  0
POLYLINE
  5
AF5C
  8
ALPHA
 66
     1
 10
0.0
 20
0.0
 30
0.0
  0
VERTEX
  5
B3F7
  8
ALPHA
 10
19.146797
 20
66.317779
 30
0.0
  0
VERTEX
  5
B3F8
  8
ALPHA
 10
19.148308
 20
66.330775
 30
0.0
  0
VERTEX
  5
B3F9
  8
ALPHA
 10
19.150029
 20
66.344096
 30
0.0
  0
SEQEND
  5
B3FA
  8
ALPHA
  0
LINE
  5
AF5D
  8
ALPHA
 10
19.146839
 20
66.317775
 30
0.0
 11
19.145699
 21
66.307194
 31
0.0
  0
POLYLINE
  5
AF5E
  8
ALPHA
 66
     1
 10
0.0
 20
0.0
 30
0.0
  0
VERTEX
  5
B3FB
  8
ALPHA
 10
19.146797
 20
66.317779
 30
0.0
  0
VERTEX
  5
B3FC
  8
ALPHA
 10
19.166663
 20
66.383614
 30
0.0
  0
VERTEX
  5
B3FD
  8
ALPHA
 10
19.192003
 20
66.451724
 30
0.0
  0
VERTEX
  5
B3FE
  8
ALPHA
 10
19.224011
 20
66.522515
 30
0.0
  0
VERTEX
  5
B3FF
  8
ALPHA
 10
19.264125
 20
66.59613
 30
0.0
  0
SEQEND
  5
B400
  8
ALPHA
  0
POLYLINE
  5
AF5F
  8
ALPHA
 66
     1
 10
0.0
 20
0.0
 30
0.0
  0
VERTEX
  5
B401
  8
ALPHA
 10
19.264125
 20
66.59613
 30
0.0
  0
VERTEX
  5
B402
  8
ALPHA
 10
19.230994
 20
66.471509
 30
0.0
  0
VERTEX
  5
B403
  8
ALPHA
 10
19.203373
 20
66.354632
 30
0.0
  0
VERTEX
  5
B404
  8
ALPHA
 10
19.180567
 20
66.245321
 30
0.0
  0
SEQEND
  5
B405
  8
ALPHA
  0
LINE
  5
AF60
  8
ALPHA
 10
19.178707
 20
66.245369
 30
0.0
 11
19.188001
 21
66.290361
 31
0.0
  0
LINE
  5
AF61
  8
ALPHA
 10
19.24804
 20
64.431217
 30
0.0
 11
19.260984
 21
64.435928
 31
0.0
  0
LINE
  5
AF62
  8
ALPHA
 10
19.189813
 20
65.058553
 30
0.0
 11
19.145699
 21
65.040997
 31
0.0
  0
LINE
  5
AF63
  8
ALPHA
 10
19.146797
 20
65.030412
 30
0.0
 11
19.19169
 21
65.049557
 31
0.0
  0
LINE
  5
AF64
  8
ALPHA
 10
21.247192
 20
64.392553
 30
0.0
 11
25.491102
 21
64.448963
 31
0.0
  0
LINE
  5
AF65
  8
ALPHA
 10
25.491102
 20
59.986133
 30
0.0
 11
21.989802
 21
59.943159
 31
0.0
  0
LINE
  5
AF66
  8
ALPHA
 10
25.491102
 20
59.511787
 30
0.0
 11
21.989802
 21
59.468654
 31
0.0
  0
LINE
  5
AF67
  8
ALPHA
 10
21.40559
 20
61.586426
 30
0.0
 11
25.491102
 21
61.648337
 31
0.0
  0
POLYLINE
  5
AF68
  8
ALPHA
 66
     1
 10
0.0
 20
0.0
 30
0.0
  0
VERTEX
  5
B406
  8
ALPHA
 10
21.342123
 20
61.793693
 30
0.0
  0
VERTEX
  5
B407
  8
ALPHA
 10
21.323172
 20
61.891036
 30
0.0
  0
VERTEX
  5
B408
  8
ALPHA
 10
21.305557
 20
62.001057
 30
0.0
  0
VERTEX
  5
B409
  8
ALPHA
 10
21.289178
 20
62.123814
 30
0.0
  0
VERTEX
  5
B40A
  8
ALPHA
 10
21.273961
 20
62.259498
 30
0.0
  0
VERTEX
  5
B40B
  8
ALPHA
 10
21.259967
 20
62.407136
 30
0.0
  0
VERTEX
  5
B40C
  8
ALPHA
 10
21.247177
 20
62.566195
 30
0.0
  0
VERTEX
  5
B40D
  8
ALPHA
 10
21.235602
 20
62.7358
 30
0.0
  0
SEQEND
  5
B40E
  8
ALPHA
  0
POLYLINE
  5
AF69
  8
ALPHA
 66
     1
 10
0.0
 20
0.0
 30
0.0
  0
VERTEX
  5
B40F
  8
ALPHA
 10
21.40559
 20
61.586426
 30
0.0
  0
VERTEX
  5
B410
  8
ALPHA
 10
21.104431
 20
61.530804
 30
0.0
  0
VERTEX
  5
B411
  8
ALPHA
 10
20.833196
 20
61.388408
 30
0.0
  0
VERTEX
  5
B412
  8
ALPHA
 10
20.617358
 20
61.172612
 30
0.0
  0
VERTEX
  5
B413
  8
ALPHA
 10
20.477189
 20
60.903684
 30
0.0
  0
VERTEX
  5
B414
  8
ALPHA
 10
20.425853
 20
60.606881
 30
0.0
  0
SEQEND
  5
B415
  8
ALPHA
  0
POLYLINE
  5
AF6A
  8
ALPHA
 66
     1
 10
0.0
 20
0.0
 30
0.0
  0
VERTEX
  5
B416
  8
ALPHA
 10
21.907535
 20
59.936923
 30
0.0
  0
VERTEX
  5
B417
  8
ALPHA
 10
21.637562
 20
59.873995
 30
0.0
  0
VERTEX
  5
B418
  8
ALPHA
 10
21.389608
 20
59.751353
 30
0.0
  0
VERTEX
  5
B419
  8
ALPHA
 10
21.183385
 20
59.575087
 30
0.0
  0
VERTEX
  5
B41A
  8
ALPHA
 10
21.039018
 20
59.35711
 30
0.0
  0
VERTEX
  5
B41B
  8
ALPHA
 10
20.97298
 20
59.116637
 30
0.0
  0
SEQEND
  5
B41C
  8
ALPHA
  0
POLYLINE
  5
AF6B
  8
ALPHA
 66
     1
 10
0.0
 20
0.0
 30
0.0
  0
VERTEX
  5
B41D
  8
ALPHA
 10
21.989802
 20
59.468654
 30
0.0
  0
VERTEX
  5
B41E
  8
ALPHA
 10
21.969043
 20
59.467949
 30
0.0
  0
VERTEX
  5
B41F
  8
ALPHA
 10
21.948386
 20
59.466351
 30
0.0
  0
SEQEND
  5
B420
  8
ALPHA
  0
POLYLINE
  5
AF6C
  8
ALPHA
 66
     1
 10
0.0
 20
0.0
 30
0.0
  0
VERTEX
  5
B421
  8
ALPHA
 10
21.989802
 20
59.94316
 30
0.0
  0
VERTEX
  5
B422
  8
ALPHA
 10
21.948581
 20
59.940919
 30
0.0
  0
VERTEX
  5
B423
  8
ALPHA
 10
21.907528
 20
59.936989
 30
0.0
  0
SEQEND
  5
B424
  8
ALPHA
  0
POLYLINE
  5
AF6D
  8
ALPHA
 66
     1
 10
0.0
 20
0.0
 30
0.0
  0
VERTEX
  5
B425
  8
ALPHA
 10
21.948389
 20
59.466353
 30
0.0
  0
VERTEX
  5
B426
  8
ALPHA
 10
21.675314
 20
59.439596
 30
0.0
  0
VERTEX
  5
B427
  8
ALPHA
 10
21.421215
 20
59.387284
 30
0.0
  0
VERTEX
  5
B428
  8
ALPHA
 10
21.206193
 20
59.312249
 30
0.0
  0
VERTEX
  5
B429
  8
ALPHA
 10
21.050961
 20
59.219244
 30
0.0
  0
VERTEX
  5
B42A
  8
ALPHA
 10
20.97298
 20
59.116637
 30
0.0
  0
SEQEND
  5
B42B
  8
ALPHA
  0
POLYLINE
  5
AF6E
  8
ALPHA
 66
     1
 10
0.0
 20
0.0
 30
0.0
  0
VERTEX
  5
B42C
  8
ALPHA
 10
20.40626
 20
60.729743
 30
0.0
  0
VERTEX
  5
B42D
  8
ALPHA
 10
20.392563
 20
60.738608
 30
0.0
  0
VERTEX
  5
B42E
  8
ALPHA
 10
20.379219
 20
60.747363
 30
0.0
  0
VERTEX
  5
B42F
  8
ALPHA
 10
20.366156
 20
60.756053
 30
0.0
  0
SEQEND
  5
B430
  8
ALPHA
  0
POLYLINE
  5
AF6F
  8
ALPHA
 66
     1
 10
0.0
 20
0.0
 30
0.0
  0
VERTEX
  5
B431
  8
ALPHA
 10
21.40559
 20
61.586426
 30
0.0
  0
VERTEX
  5
B432
  8
ALPHA
 10
21.403339
 20
61.591236
 30
0.0
  0
VERTEX
  5
B433
  8
ALPHA
 10
21.401098
 20
61.596185
 30
0.0
  0
VERTEX
  5
B434
  8
ALPHA
 10
21.398868
 20
61.601274
 30
0.0
  0
SEQEND
  5
B435
  8
ALPHA
  0
POLYLINE
  5
AF70
  8
ALPHA
 66
     1
 10
0.0
 20
0.0
 30
0.0
  0
VERTEX
  5
B436
  8
ALPHA
 10
21.989802
 20
59.943159
 30
0.0
  0
VERTEX
  5
B437
  8
ALPHA
 10
21.850847
 20
60.33895
 30
0.0
  0
VERTEX
  5
B438
  8
ALPHA
 10
21.722738
 20
60.701062
 30
0.0
  0
VERTEX
  5
B439
  8
ALPHA
 10
21.605691
 20
61.029624
 30
0.0
  0
VERTEX
  5
B43A
  8
ALPHA
 10
21.499925
 20
61.324687
 30
0.0
  0
VERTEX
  5
B43B
  8
ALPHA
 10
21.40559
 20
61.586426
 30
0.0
  0
SEQEND
  5
B43C
  8
ALPHA
  0
POLYLINE
  5
AF71
  8
ALPHA
 66
     1
 10
0.0
 20
0.0
 30
0.0
  0
VERTEX
  5
B43D
  8
ALPHA
 10
20.97298
 20
59.116637
 30
0.0
  0
VERTEX
  5
B43E
  8
ALPHA
 10
20.843716
 20
59.472849
 30
0.0
  0
VERTEX
  5
B43F
  8
ALPHA
 10
20.724197
 20
59.799893
 30
0.0
  0
VERTEX
  5
B440
  8
ALPHA
 10
20.614604
 20
60.097864
 30
0.0
  0
VERTEX
  5
B441
  8
ALPHA
 10
20.515115
 20
60.366811
 30
0.0
  0
VERTEX
  5
B442
  8
ALPHA
 10
20.425853
 20
60.606881
 30
0.0
  0
SEQEND
  5
B443
  8
ALPHA
  0
POLYLINE
  5
AF72
  8
ALPHA
 66
     1
 10
0.0
 20
0.0
 30
0.0
  0
VERTEX
  5
B444
  8
ALPHA
 10
20.425853
 20
60.606881
 30
0.0
  0
VERTEX
  5
B445
  8
ALPHA
 10
20.4223
 20
60.616676
 30
0.0
  0
VERTEX
  5
B446
  8
ALPHA
 10
20.419445
 20
60.63648
 30
0.0
  0
SEQEND
  5
B447
  8
ALPHA
  0
POLYLINE
  5
AF73
  8
ALPHA
 66
     1
 10
0.0
 20
0.0
 30
0.0
  0
VERTEX
  5
B448
  8
ALPHA
 10
21.398868
 20
61.601274
 30
0.0
  0
VERTEX
  5
B449
  8
ALPHA
 10
21.379052
 20
61.653987
 30
0.0
  0
VERTEX
  5
B44A
  8
ALPHA
 10
21.360141
 20
61.718116
 30
0.0
  0
VERTEX
  5
B44B
  8
ALPHA
 10
21.342123
 20
61.793693
 30
0.0
  0
SEQEND
  5
B44C
  8
ALPHA
  0
POLYLINE
  5
AF74
  8
ALPHA
 66
     1
 10
0.0
 20
0.0
 30
0.0
  0
VERTEX
  5
B44D
  8
ALPHA
 10
21.948389
 20
59.466353
 30
0.0
  0
VERTEX
  5
B44E
  8
ALPHA
 10
21.929398
 20
59.664623
 30
0.0
  0
VERTEX
  5
B44F
  8
ALPHA
 10
21.914986
 20
59.830624
 30
0.0
  0
VERTEX
  5
B450
  8
ALPHA
 10
21.907535
 20
59.936923
 30
0.0
  0
SEQEND
  5
B451
  8
ALPHA
  0
POLYLINE
  5
AF75
  8
ALPHA
 66
     1
 10
0.0
 20
0.0
 30
0.0
  0
VERTEX
  5
B452
  8
ALPHA
 10
20.408232
 20
60.731469
 30
0.0
  0
VERTEX
  5
B453
  8
ALPHA
 10
20.402308
 20
60.774163
 30
0.0
  0
VERTEX
  5
B454
  8
ALPHA
 10
20.39583
 20
60.81873
 30
0.0
  0
VERTEX
  5
B455
  8
ALPHA
 10
20.388588
 20
60.864741
 30
0.0
  0
VERTEX
  5
B456
  8
ALPHA
 10
20.380375
 20
60.911787
 30
0.0
  0
VERTEX
  5
B457
  8
ALPHA
 10
20.371038
 20
60.959422
 30
0.0
  0
SEQEND
  5
B458
  8
ALPHA
  0
POLYLINE
  5
AF76
  8
ALPHA
 66
     1
 10
0.0
 20
0.0
 30
0.0
  0
VERTEX
  5
B459
  8
ALPHA
 10
20.406288
 20
60.730606
 30
0.0
  0
VERTEX
  5
B45A
  8
ALPHA
 10
20.408248
 20
60.717044
 30
0.0
  0
VERTEX
  5
B45B
  8
ALPHA
 10
20.410037
 20
60.703894
 30
0.0
  0
VERTEX
  5
B45C
  8
ALPHA
 10
20.411615
 20
60.690059
 30
0.0
  0
VERTEX
  5
B45D
  8
ALPHA
 10
20.412948
 20
60.675136
 30
0.0
  0
VERTEX
  5
B45E
  8
ALPHA
 10
20.413932
 20
60.658417
 30
0.0
  0
VERTEX
  5
B45F
  8
ALPHA
 10
20.414256
 20
60.639579
 30
0.0
  0
VERTEX
  5
B460
  8
ALPHA
 10
20.413523
 20
60.622351
 30
0.0
  0
VERTEX
  5
B461
  8
ALPHA
 10
20.412128
 20
60.610887
 30
0.0
  0
VERTEX
  5
B462
  8
ALPHA
 10
20.410438
 20
60.603306
 30
0.0
  0
VERTEX
  5
B463
  8
ALPHA
 10
20.408542
 20
60.598177
 30
0.0
  0
VERTEX
  5
B464
  8
ALPHA
 10
20.406464
 20
60.594869
 30
0.0
  0
VERTEX
  5
B465
  8
ALPHA
 10
20.40421
 20
60.593082
 30
0.0
  0
SEQEND
  5
B466
  8
ALPHA
  0
LINE
  5
AF77
  8
ALPHA
 10
20.411037
 20
60.702123
 30
0.0
 11
20.406288
 21
60.730606
 31
0.0
  0
POLYLINE
  5
AF78
  8
ALPHA
 66
     1
 10
0.0
 20
0.0
 30
0.0
  0
VERTEX
  5
B467
  8
ALPHA
 10
21.989802
 20
59.468654
 30
0.0
  0
VERTEX
  5
B468
  8
ALPHA
 10
21.988043
 20
59.669357
 30
0.0
  0
VERTEX
  5
B469
  8
ALPHA
 10
21.988043
 20
59.836896
 30
0.0
  0
VERTEX
  5
B46A
  8
ALPHA
 10
21.989802
 20
59.94316
 30
0.0
  0
SEQEND
  5
B46B
  8
ALPHA
  0
POLYLINE
  5
AF79
  8
ALPHA
 66
     1
 10
0.0
 20
0.0
 30
0.0
  0
VERTEX
  5
B46C
  8
ALPHA
 10
20.419445
 20
60.63648
 30
0.0
  0
VERTEX
  5
B46D
  8
ALPHA
 10
20.415475
 20
60.674099
 30
0.0
  0
VERTEX
  5
B46E
  8
ALPHA
 10
20.411037
 20
60.702123
 30
0.0
  0
SEQEND
  5
B46F
  8
ALPHA
  0
POLYLINE
  5
AF7A
  8
ALPHA
 66
     1
 10
0.0
 20
0.0
 30
0.0
  0
VERTEX
  5
B470
  8
ALPHA
 10
21.235602
 20
62.735789
 30
0.0
  0
VERTEX
  5
B471
  8
ALPHA
 10
21.229393
 20
62.843469
 30
0.0
  0
VERTEX
  5
B472
  8
ALPHA
 10
21.223943
 20
62.958435
 30
0.0
  0
VERTEX
  5
B473
  8
ALPHA
 10
21.219446
 20
63.080956
 30
0.0
  0
VERTEX
  5
B474
  8
ALPHA
 10
21.216093
 20
63.211456
 30
0.0
  0
VERTEX
  5
B475
  8
ALPHA
 10
21.214097
 20
63.351042
 30
0.0
  0
VERTEX
  5
B476
  8
ALPHA
 10
21.213735
 20
63.501184
 30
0.0
  0
VERTEX
  5
B477
  8
ALPHA
 10
21.215335
 20
63.661603
 30
0.0
  0
VERTEX
  5
B478
  8
ALPHA
 10
21.219169
 20
63.830182
 30
0.0
  0
VERTEX
  5
B479
  8
ALPHA
 10
21.225354
 20
64.003626
 30
0.0
  0
VERTEX
  5
B47A
  8
ALPHA
 10
21.233751
 20
64.177077
 30
0.0
  0
VERTEX
  5
B47B
  8
ALPHA
 10
21.243932
 20
64.345039
 30
0.0
  0
SEQEND
  5
B47C
  8
ALPHA
  0
LINE
  5
AF7B
  8
ALPHA
 10
21.243932
 20
64.345039
 30
0.0
 11
21.247192
 21
64.392553
 31
0.0
  0
POLYLINE
  5
AF7C
  8
ALPHA
 66
     1
 10
0.0
 20
0.0
 30
0.0
  0
VERTEX
  5
B47D
  8
ALPHA
 10
21.247192
 20
64.392553
 30
0.0
  0
VERTEX
  5
B47E
  8
ALPHA
 10
21.289597
 20
65.036257
 30
0.0
  0
VERTEX
  5
B47F
  8
ALPHA
 10
21.350578
 20
65.682487
 30
0.0
  0
VERTEX
  5
B480
  8
ALPHA
 10
21.430533
 20
66.331695
 30
0.0
  0
VERTEX
  5
B481
  8
ALPHA
 10
21.52942
 20
66.984368
 30
0.0
  0
VERTEX
  5
B482
  8
ALPHA
 10
21.648227
 20
67.646533
 30
0.0
  0
VERTEX
  5
B483
  8
ALPHA
 10
21.788006
 20
68.322559
 30
0.0
  0
SEQEND
  5
B484
  8
ALPHA
  0
LINE
  5
AF7D
  8
ALPHA
 10
25.670236
 20
62.541027
 30
0.0
 11
25.491102
 21
58.623563
 31
0.0
  0
LINE
  5
AF7E
  8
ALPHA
 10
25.491102
 20
58.160493
 30
0.0
 11
25.491102
 21
60.329599
 31
0.0
  0
LINE
  5
AF7F
  8
0
  6
CONTINUOUS
 62
     2
 10
25.891102
 20
76.024096
 30
0.0
 11
2.230803
 21
76.024096
 31
0.0
  0
LINE
  5
AF80
  8
0
  6
CONTINUOUS
 62
     2
 10
-2.019197
 20
88.524096
 30
0.0
 11
6.480803
 21
88.524096
 31
0.0
  0
LINE
  5
AF81
  8
0
  6
CONTINUOUS
 62
     2
 10
6.480803
 20
83.524096
 30
0.0
 11
-2.019197
 21
83.524096
 31
0.0
  0
TEXT
  5
AF82
  8
0
  6
CONTINUOUS
 62
     2
 10
-0.769197
 20
84.774096
 30
0.0
 40
2.5
  1
HEAD
 41
0.654545
  7
STANDARD
 72
     5
 11
5.230803
 21
84.774096
 31
0.0
  0
LINE
  5
AF83
  8
0
  6
CONTINUOUS
 62
     2
 10
2.230803
 20
78.524096
 30
0.0
 11
2.230803
 21
83.524096
 31
0.0
  0
SOLID
  5
AF84
  8
0
  6
CONTINUOUS
 62
     2
 10
3.674179
 20
76.024096
 30
0.0
 11
0.787428
 21
76.024096
 31
0.0
 12
2.230803
 22
78.524096
 32
0.0
 13
2.230803
 23
78.524096
 33
0.0
  0
LINE
  5
AF85
  8
0
  6
CONTINUOUS
 62
     2
 10
-2.019197
 20
83.524096
 30
0.0
 11
-2.019197
 21
88.524096
 31
0.0
  0
LINE
  5
AF86
  8
0
  6
CONTINUOUS
 62
     2
 10
6.480803
 20
88.524096
 30
0.0
 11
6.480803
 21
83.524096
 31
0.0
  0
LINE
  5
AF87
  8
ALPHA
 10
22.778109
 20
72.044277
 30
0.0
 11
25.491102
 21
72.075559
 31
0.0
  0
LINE
  5
AF88
  8
ALPHA
 10
22.89587
 20
72.878796
 30
0.0
 11
25.491102
 21
72.924096
 31
0.0
  0
POLYLINE
  5
AF89
  8
ALPHA
 66
     1
 10
0.0
 20
0.0
 30
0.0
  0
VERTEX
  5
B485
  8
ALPHA
 10
22.895962
 20
72.878811
 30
0.0
  0
VERTEX
  5
B486
  8
ALPHA
 10
22.724404
 20
72.865949
 30
0.0
  0
VERTEX
  5
B487
  8
ALPHA
 10
22.30438
 20
72.745924
 30
0.0
  0
VERTEX
  5
B488
  8
ALPHA
 10
21.936797
 20
72.510016
 30
0.0
  0
VERTEX
  5
B489
  8
ALPHA
 10
21.652895
 20
72.178436
 30
0.0
  0
VERTEX
  5
B48A
  8
ALPHA
 10
21.486483
 20
71.813687
 30
0.0
  0
SEQEND
  5
B48B
  8
ALPHA
  0
POLYLINE
  5
AF8A
  8
ALPHA
 66
     1
 10
0.0
 20
0.0
 30
0.0
  0
VERTEX
  5
B48C
  8
ALPHA
 10
22.778109
 20
72.044279
 30
0.0
  0
VERTEX
  5
B48D
  8
ALPHA
 10
22.399392
 20
72.068809
 30
0.0
  0
VERTEX
  5
B48E
  8
ALPHA
 10
22.049196
 20
72.019271
 30
0.0
  0
VERTEX
  5
B48F
  8
ALPHA
 10
21.752897
 20
71.899254
 30
0.0
  0
VERTEX
  5
B490
  8
ALPHA
 10
21.531963
 20
71.717454
 30
0.0
  0
VERTEX
  5
B491
  8
ALPHA
 10
21.402404
 20
71.487044
 30
0.0
  0
SEQEND
  5
B492
  8
ALPHA
  0
POLYLINE
  5
AF8B
  8
ALPHA
 66
     1
 10
0.0
 20
0.0
 30
0.0
  0
VERTEX
  5
B493
  8
ALPHA
 10
22.728902
 20
71.865373
 30
0.0
  0
VERTEX
  5
B494
  8
ALPHA
 10
22.350488
 20
71.889577
 30
0.0
  0
VERTEX
  5
B495
  8
ALPHA
 10
22.000778
 20
71.84066
 30
0.0
  0
VERTEX
  5
B496
  8
ALPHA
 10
21.705255
 20
71.722188
 30
0.0
  0
VERTEX
  5
B497
  8
ALPHA
 10
21.485456
 20
71.542794
 30
0.0
  0
VERTEX
  5
B498
  8
ALPHA
 10
21.357398
 20
71.315551
 30
0.0
  0
SEQEND
  5
B499
  8
ALPHA
  0
POLYLINE
  5
AF8C
  8
ALPHA
 66
     1
 10
0.0
 20
0.0
 30
0.0
  0
VERTEX
  5
B49A
  8
ALPHA
 10
21.486115
 20
71.811772
 30
0.0
  0
VERTEX
  5
B49B
  8
ALPHA
 10
21.486476
 20
71.813654
 30
0.0
  0
VERTEX
  5
B49C
  8
ALPHA
 10
21.486482
 20
71.813686
 30
0.0
  0
SEQEND
  5
B49D
  8
ALPHA
  0
POLYLINE
  5
AF8D
  8
ALPHA
 66
     1
 10
0.0
 20
0.0
 30
0.0
  0
VERTEX
  5
B49E
  8
ALPHA
 10
20.783955
 20
68.630223
 30
0.0
  0
VERTEX
  5
B49F
  8
ALPHA
 10
20.89243
 20
69.218839
 30
0.0
  0
VERTEX
  5
B4A0
  8
ALPHA
 10
20.988387
 20
69.702587
 30
0.0
  0
VERTEX
  5
B4A1
  8
ALPHA
 10
21.07225
 20
70.101524
 30
0.0
  0
VERTEX
  5
B4A2
  8
ALPHA
 10
21.145126
 20
70.4323
 30
0.0
  0
VERTEX
  5
B4A3
  8
ALPHA
 10
21.210512
 20
70.717135
 30
0.0
  0
VERTEX
  5
B4A4
  8
ALPHA
 10
21.279062
 20
71.003781
 30
0.0
  0
VERTEX
  5
B4A5
  8
ALPHA
 10
21.357398
 20
71.315551
 30
0.0
  0
SEQEND
  5
B4A6
  8
ALPHA
  0
LINE
  5
AF8E
  8
ALPHA
 10
21.387298
 20
71.430072
 30
0.0
 11
21.430782
 21
71.593833
 31
0.0
  0
LINE
  5
AF8F
  8
ALPHA
 10
21.430782
 20
71.593833
 30
0.0
 11
21.452378
 21
71.675953
 31
0.0
  0
POLYLINE
  5
AF90
  8
ALPHA
 66
     1
 10
0.0
 20
0.0
 30
0.0
  0
VERTEX
  5
B4A7
  8
ALPHA
 10
21.357398
 20
71.315551
 30
0.0
  0
VERTEX
  5
B4A8
  8
ALPHA
 10
21.372271
 20
71.372813
 30
0.0
  0
VERTEX
  5
B4A9
  8
ALPHA
 10
21.387298
 20
71.430072
 30
0.0
  0
SEQEND
  5
B4AA
  8
ALPHA
  0
LINE
  5
AF91
  8
ALPHA
 10
21.452378
 20
71.675953
 30
0.0
 11
21.4669
 21
71.732197
 31
0.0
  0
LINE
  5
AF92
  8
ALPHA
 10
21.486483
 20
71.813687
 30
0.0
 11
20.759448
 21
68.964354
 31
0.0
  0
LINE
  5
AF93
  8
ALPHA
 10
21.4669
 20
71.732197
 30
0.0
 11
21.476227
 21
71.76934
 31
0.0
  0
POLYLINE
  5
AF94
  8
ALPHA
 66
     1
 10
0.0
 20
0.0
 30
0.0
  0
VERTEX
  5
B4AB
  8
ALPHA
 10
21.476227
 20
71.76934
 30
0.0
  0
VERTEX
  5
B4AC
  8
ALPHA
 10
21.479412
 20
71.7824
 30
0.0
  0
VERTEX
  5
B4AD
  8
ALPHA
 10
21.481816
 20
71.792493
 30
0.0
  0
VERTEX
  5
B4AE
  8
ALPHA
 10
21.483573
 20
71.800075
 30
0.0
  0
VERTEX
  5
B4AF
  8
ALPHA
 10
21.48481
 20
71.805591
 30
0.0
  0
VERTEX
  5
B4B0
  8
ALPHA
 10
21.485623
 20
71.809365
 30
0.0
  0
VERTEX
  5
B4B1
  8
ALPHA
 10
21.486115
 20
71.811772
 30
0.0
  0
SEQEND
  5
B4B2
  8
ALPHA
  0
POLYLINE
  5
AF95
  8
ALPHA
 66
     1
 10
0.0
 20
0.0
 30
0.0
  0
VERTEX
  5
B4B3
  8
ALPHA
 10
22.778109
 20
72.044277
 30
0.0
  0
VERTEX
  5
B4B4
  8
ALPHA
 10
22.794642
 20
72.177495
 30
0.0
  0
VERTEX
  5
B4B5
  8
ALPHA
 10
22.810245
 20
72.300876
 30
0.0
  0
VERTEX
  5
B4B6
  8
ALPHA
 10
22.82436
 20
72.410042
 30
0.0
  0
VERTEX
  5
B4B7
  8
ALPHA
 10
22.8366
 20
72.502395
 30
0.0
  0
VERTEX
  5
B4B8
  8
ALPHA
 10
22.847164
 20
72.579943
 30
0.0
  0
VERTEX
  5
B4B9
  8
ALPHA
 10
22.856274
 20
72.644768
 30
0.0
  0
VERTEX
  5
B4BA
  8
ALPHA
 10
22.864126
 20
72.698638
 30
0.0
  0
VERTEX
  5
B4BB
  8
ALPHA
 10
22.870883
 20
72.743067
 30
0.0
  0
VERTEX
  5
B4BC
  8
ALPHA
 10
22.876667
 20
72.779288
 30
0.0
  0
VERTEX
  5
B4BD
  8
ALPHA
 10
22.881582
 20
72.808383
 30
0.0
  0
VERTEX
  5
B4BE
  8
ALPHA
 10
22.885705
 20
72.831278
 30
0.0
  0
VERTEX
  5
B4BF
  8
ALPHA
 10
22.889126
 20
72.848914
 30
0.0
  0
VERTEX
  5
B4C0
  8
ALPHA
 10
22.891853
 20
72.861857
 30
0.0
  0
VERTEX
  5
B4C1
  8
ALPHA
 10
22.893954
 20
72.870899
 30
0.0
  0
VERTEX
  5
B4C2
  8
ALPHA
 10
22.895352
 20
72.876342
 30
0.0
  0
VERTEX
  5
B4C3
  8
ALPHA
 10
22.895926
 20
72.878689
 30
0.0
  0
VERTEX
  5
B4C4
  8
ALPHA
 10
22.895949
 20
72.878797
 30
0.0
  0
SEQEND
  5
B4C5
  8
ALPHA
  0
POLYLINE
  5
AF96
  8
ALPHA
 66
     1
 10
0.0
 20
0.0
 30
0.0
  0
VERTEX
  5
B4C6
  8
ALPHA
 10
22.728902
 20
71.865373
 30
0.0
  0
VERTEX
  5
B4C7
  8
ALPHA
 10
22.745183
 20
71.92513
 30
0.0
  0
VERTEX
  5
B4C8
  8
ALPHA
 10
22.761568
 20
71.984842
 30
0.0
  0
VERTEX
  5
B4C9
  8
ALPHA
 10
22.778109
 20
72.044277
 30
0.0
  0
SEQEND
  5
B4CA
  8
ALPHA
  0
LINE
  5
AF97
  8
ALPHA
 10
25.891102
 20
74.232324
 30
0.0
 11
25.891733
 21
74.174949
 31
0.0
  0
LINE
  5
AF98
  8
ALPHA
 10
25.491102
 20
75.624095
 30
0.0
 11
25.491102
 21
72.656045
 31
0.0
  0
POLYLINE
  5
AF99
  8
ALPHA
 66
     1
 10
0.0
 20
0.0
 30
0.0
  0
VERTEX
  5
B4CB
  8
ALPHA
 10
25.491102
 20
73.844212
 30
0.0
  0
VERTEX
  5
B4CC
  8
ALPHA
 10
25.52155
 20
73.992736
 30
0.0
  0
VERTEX
  5
B4CD
  8
ALPHA
 10
25.608259
 20
74.118648
 30
0.0
  0
VERTEX
  5
B4CE
  8
ALPHA
 10
25.738029
 20
74.202781
 30
0.0
  0
VERTEX
  5
B4CF
  8
ALPHA
 10
25.891102
 20
74.232324
 30
0.0
  0
SEQEND
  5
B4D0
  8
ALPHA
  0
POLYLINE
  5
AF9A
  8
ALPHA
 66
     1
 10
0.0
 20
0.0
 30
0.0
  0
VERTEX
  5
B4D1
  8
ALPHA
 10
25.491102
 20
73.264297
 30
0.0
  0
VERTEX
  5
B4D2
  8
ALPHA
 10
25.521885
 20
73.264878
 30
0.0
  0
VERTEX
  5
B4D3
  8
ALPHA
 10
25.609496
 20
73.26537
 30
0.0
  0
VERTEX
  5
B4D4
  8
ALPHA
 10
25.740451
 20
73.265697
 30
0.0
  0
VERTEX
  5
B4D5
  8
ALPHA
 10
25.894593
 20
73.265808
 30
0.0
  0
SEQEND
  5
B4D6
  8
ALPHA
  0
POLYLINE
  5
AF9B
  8
ALPHA
 66
     1
 10
0.0
 20
0.0
 30
0.0
  0
VERTEX
  5
B4D7
  8
ALPHA
 10
25.492755
 20
72.645996
 30
0.0
  0
VERTEX
  5
B4D8
  8
ALPHA
 10
25.491525
 20
72.651206
 30
0.0
  0
VERTEX
  5
B4D9
  8
ALPHA
 10
25.491102
 20
72.656045
 30
0.0
  0
SEQEND
  5
B4DA
  8
ALPHA
  0
LINE
  5
AF9C
  8
ALPHA
 10
25.894384
 20
73.441059
 30
0.0
 11
25.894593
 21
73.265808
 31
0.0
  0
LINE
  5
AF9D
  8
ALPHA
 10
25.89388
 20
73.692629
 30
0.0
 11
25.894384
 21
73.441059
 31
0.0
  0
LINE
  5
AF9E
  8
ALPHA
 10
25.893189
 20
73.912475
 30
0.0
 11
25.89388
 21
73.692629
 31
0.0
  0
LINE
  5
AF9F
  8
ALPHA
 10
25.892342
 20
74.089654
 30
0.0
 11
25.893189
 21
73.912475
 31
0.0
  0
LINE
  5
AFA0
  8
ALPHA
 10
25.891733
 20
74.174949
 30
0.0
 11
25.892342
 21
74.089654
 31
0.0
  0
POLYLINE
  5
AFA1
  8
ALPHA
 66
     1
 10
0.0
 20
0.0
 30
0.0
  0
VERTEX
  5
B4DB
  8
ALPHA
 10
25.491102
 20
72.504231
 30
0.0
  0
VERTEX
  5
B4DC
  8
ALPHA
 10
25.491517
 20
72.575215
 30
0.0
  0
VERTEX
  5
B4DD
  8
ALPHA
 10
25.492755
 20
72.645996
 30
0.0
  0
SEQEND
  5
B4DE
  8
ALPHA
  0
LINE
  5
AFA2
  8
ALPHA
 10
25.491102
 20
72.645996
 30
0.0
 11
25.491102
 21
72.504231
 31
0.0
  0
LINE
  5
AFA3
  8
ALPHA
 10
25.491102
 20
72.504231
 30
0.0
 11
25.491102
 21
71.508288
 31
0.0
  0
ARC
  5
AFA4
  8
ALPHA
 10
25.891102
 20
75.624096
 30
0.0
 40
0.4
 50
90.0
 51
180.0
  0
LINE
  5
AFA5
  8
ALPHA
 10
25.891102
 20
76.024096
 30
0.0
 11
25.891102
 21
74.232324
 31
0.0
  0
LINE
  5
AFA6
  8
ALPHA
 10
30.570639
 20
75.938502
 30
0.0
 11
31.267396
 21
75.843786
 31
0.0
  0
LINE
  5
AFA7
  8
ALPHA
 10
29.991102
 20
76.024096
 30
0.0
 11
30.13759
 21
76.00188
 31
0.0
  0
LINE
  5
AFA8
  8
ALPHA
 10
30.13759
 20
76.00188
 30
0.0
 11
30.570639
 21
75.938502
 31
0.0
  0
LINE
  5
AFAA
  8
ALPHA
 10
31.267396
 20
75.843786
 30
0.0
 11
32.196184
 21
75.731592
 31
0.0
  0
LINE
  5
AFAB
  8
ALPHA
 10
50.191102
 20
11.024096
 30
0.0
 11
50.191102
 21
58.103426
 31
0.0
  0
LINE
  5
AFAD
  8
ALPHA
 10
50.191102
 20
17.324096
 30
0.0
 11
38.1237
 21
17.324096
 31
0.0
  0
LINE
  5
AFAE
  8
ALPHA
 10
40.532671
 20
11.024096
 30
0.0
 11
50.191102
 21
11.024096
 31
0.0
  0
LINE
  5
AFAF
  8
ALPHA
 10
45.462977
 20
10.974096
 30
0.0
 11
40.4223
 21
10.974096
 31
0.0
  0
ARC
  5
AFB0
  8
ALPHA
 10
39.746012
 20
12.299142
 30
0.0
 40
1.5
 50
271.0
 51
20.0
  0
LINE
  5
AFB1
  8
ALPHA
 10
40.328484
 20
15.08452
 30
0.0
 11
41.155551
 21
12.812173
 31
0.0
  0
ARC
  5
AFB2
  8
ALPHA
 10
39.491102
 20
15.524096
 30
0.0
 40
2.0
 50
155.0
 51
180.0
  0
LINE
  5
AFB3
  8
ALPHA
 10
38.241102
 20
15.874096
 30
0.0
 11
39.200853
 21
15.874096
 31
0.0
  0
ARC
  5
AFB4
  8
ALPHA
 10
37.337617
 20
14.824096
 30
0.0
 40
0.2
 50
270.0
 51
11.802892
  0
ARC
  5
AFB5
  8
ALPHA
 10
39.491102
 20
15.274096
 30
0.0
 40
2.0
 50
180.0
 51
191.802892
  0
ARC
  5
AFB6
  8
ALPHA
 10
38.241102
 20
15.224096
 30
0.0
 40
0.65
 50
90.0
 51
180.0
  0
ARC
  5
AFB7
  8
ALPHA
 10
37.453931
 20
14.374096
 30
0.0
 40
0.3
 50
270.0
 51
21.50225
  0
ARC
  5
AFB8
  8
ALPHA
 10
39.591102
 20
15.224096
 30
0.0
 40
2.0
 50
180.0
 51
201.716769
  0
LINE
  5
AFB9
  8
ALPHA
 10
37.491102
 20
15.524096
 30
0.0
 11
37.491102
 21
15.274096
 31
0.0
  0
ARC
  5
AFBA
  8
ALPHA
 10
39.200853
 20
14.674096
 30
0.0
 40
1.2
 50
20.0
 51
90.0
  0
LINE
  5
AFBB
  8
ALPHA
 10
38.1237
 20
17.324096
 30
0.0
 11
37.678487
 21
16.369332
 31
0.0
  0
ARC
  5
AFBC
  8
ALPHA
 10
45.462977
 20
11.474096
 30
0.0
 40
0.5
 50
270.0
 51
294.521028
  0
LINE
  5
AFBD
  8
ALPHA
 10
50.491102
 20
75.816407
 30
0.0
 11
50.491102
 21
58.104389
 31
0.0
  0
LINE
  5
AFBF
  8
ALPHA
 10
50.491102
 20
30.024096
 30
0.0
 11
50.491102
 21
22.024096
 31
0.0
  0
LINE
  5
AFC0
  8
ALPHA
 10
50.491102
 20
22.024096
 30
0.0
 11
50.191102
 21
22.024096
 31
0.0
  0
LINE
  5
AFC1
  8
ALPHA
 10
50.491102
 20
30.024096
 30
0.0
 11
50.191102
 21
30.024096
 31
0.0
  0
LINE
  5
AFC2
  8
ALPHA
 10
50.491102
 20
58.104389
 30
0.0
 11
50.191102
 21
58.103426
 31
0.0
  0
LINE
  5
AFC3
  8
ALPHA
 10
44.713754
 20
75.843659
 30
0.0
 11
45.411558
 21
75.938501
 31
0.0
  0
LINE
  5
AFC4
  8
ALPHA
 10
42.675666
 20
75.618824
 30
0.0
 11
43.78601
 21
75.731591
 31
0.0
  0
LINE
  5
AFC5
  8
ALPHA
 10
43.78601
 20
75.731591
 30
0.0
 11
44.713754
 21
75.843659
 31
0.0
  0
LINE
  5
AFC6
  8
ALPHA
 10
45.411558
 20
75.938501
 30
0.0
 11
45.844614
 21
76.00188
 31
0.0
  0
LINE
  5
AFC7
  8
ALPHA
 10
45.844614
 20
76.00188
 30
0.0
 11
45.991102
 21
76.024096
 31
0.0
  0
LINE
  5
AFC9
  8
ALPHA
 10
50.191102
 20
75.816407
 30
0.0
 11
50.491102
 21
75.816407
 31
0.0
  0
LINE
  5
AFCA
  8
ALPHA
 10
50.191102
 20
75.816407
 30
0.0
 11
50.191102
 21
76.024083
 31
0.0
  0
TEXT
  5
B031
  8
AXE
 10
32.943483
 20
0.724096
 30
0.0
 40
5.0
  1
Y
 72
     2
 11
36.991102
 21
0.724096
 31
0.0
  0
LINE
  5
B032
  8
AXE
 10
37.991102
 20
0.724096
 30
0.0
 11
37.991102
 21
81.024096
 31
0.0
  0
LINE
  5
B034
  8
AXE
 10
14.591102
 20
43.374096
 30
0.0
 11
60.491102
 21
43.374096
 31
0.0
  0
TEXT
  5
B035
  8
AXE
 10
56.443483
 20
44.374096
 30
0.0
 40
5.0
  1
Z
 72
     2
 11
60.491102
 21
44.374096
 31
0.0
  0
DIMENSION
  5
B053
  8
COTATION1
  2
*D3
 10
50.491102
 20
91.024096
 30
0.0
 11
34.820135
 21
94.274096
 31
0.0
 13
19.149169
 23
66.337436
 33
0.0
 14
50.491102
 24
75.816407
 34
0.0
  0
ENDSEC
  0
EOF
