  0
SECTION
  2
HEADER
  9
$ACADVER
  1
AC1014
  9
$ACADMAINTVER
 70
     0
  9
$DWGCODEPAGE
  3
ANSI_1252
  9
$INSBASE
 10
-33.266676
 20
-9.255003
 30
0.0
  9
$EXTMIN
 10
55.322419
 20
146.25375
 30
0.0
  9
$EXTMAX
 10
156.123519
 20
248.597916
 30
0.0
  9
$LIMMIN
 10
0.0
 20
0.0
  9
$LIMMAX
 10
210.0
 20
297.0
  9
$ORTHOMODE
 70
     0
  9
$REGENMODE
 70
     1
  9
$FILLMODE
 70
     1
  9
$QTEXTMODE
 70
     0
  9
$MIRRTEXT
 70
     0
  9
$DRAGMODE
 70
     1
  9
$LTSCALE
 40
10.0
  9
$OSMODE
 70
     0
  9
$ATTMODE
 70
     1
  9
$TEXTSIZE
 40
2.499168
  9
$TRACEWID
 40
0.05
  9
$TEXTSTYLE
  7
ROMANS
  9
$CLAYER
  8
COTATION1
  9
$CELTYPE
  6
BYLAYER
  9
$CECOLOR
 62
   256
  9
$CELTSCALE
 40
1.0
  9
$DELOBJ
 70
     1
  9
$DISPSILH
 70
     0
  9
$DIMSCALE
 40
1.0
  9
$DIMASZ
 40
3.0
  9
$DIMEXO
 40
0.0625
  9
$DIMDLI
 40
0.38
  9
$DIMRND
 40
0.01
  9
$DIMDLE
 40
0.0
  9
$DIMEXE
 40
0.18
  9
$DIMTP
 40
0.0
  9
$DIMTM
 40
0.0
  9
$DIMTXT
 40
2.5
  9
$DIMCEN
 40
0.09
  9
$DIMTSZ
 40
0.0
  9
$DIMTOL
 70
     0
  9
$DIMLIM
 70
     0
  9
$DIMTIH
 70
     0
  9
$DIMTOH
 70
     0
  9
$DIMSE1
 70
     0
  9
$DIMSE2
 70
     0
  9
$DIMTAD
 70
     1
  9
$DIMZIN
 70
    12
  9
$DIMBLK
  1

  9
$DIMASO
 70
     1
  9
$DIMSHO
 70
     0
  9
$DIMPOST
  1

  9
$DIMAPOST
  1

  9
$DIMALT
 70
     0
  9
$DIMALTD
 70
     2
  9
$DIMALTF
 40
25.4
  9
$DIMLFAC
 40
1.0
  9
$DIMTOFL
 70
     1
  9
$DIMTVP
 40
0.0
  9
$DIMTIX
 70
     0
  9
$DIMSOXD
 70
     0
  9
$DIMSAH
 70
     0
  9
$DIMBLK1
  1

  9
$DIMBLK2
  1

  9
$DIMSTYLE
  2
SC_STAND
  9
$DIMCLRD
 70
     0
  9
$DIMCLRE
 70
     0
  9
$DIMCLRT
 70
     0
  9
$DIMTFAC
 40
1.0
  9
$DIMGAP
 40
1.0
  9
$DIMJUST
 70
     0
  9
$DIMSD1
 70
     0
  9
$DIMSD2
 70
     0
  9
$DIMTOLJ
 70
     1
  9
$DIMTZIN
 70
    12
  9
$DIMALTZ
 70
    12
  9
$DIMALTTZ
 70
    12
  9
$DIMFIT
 70
     5
  9
$DIMUPT
 70
     0
  9
$DIMUNIT
 70
     2
  9
$DIMDEC
 70
     3
  9
$DIMTDEC
 70
     3
  9
$DIMALTU
 70
     2
  9
$DIMALTTD
 70
     2
  9
$DIMTXSTY
  7
ROMANS
  9
$DIMAUNIT
 70
     0
  9
$LUNITS
 70
     2
  9
$LUPREC
 70
     3
  9
$SKETCHINC
 40
0.1
  9
$FILLETRAD
 40
0.0625
  9
$AUNITS
 70
     0
  9
$AUPREC
 70
     0
  9
$MENU
  1
ACAD
  9
$ELEVATION
 40
0.0
  9
$PELEVATION
 40
0.0
  9
$THICKNESS
 40
0.0
  9
$LIMCHECK
 70
     0
  9
$BLIPMODE
 70
     1
  9
$CHAMFERA
 40
0.0
  9
$CHAMFERB
 40
0.0
  9
$CHAMFERC
 40
0.0
  9
$CHAMFERD
 40
0.0
  9
$SKPOLY
 70
     0
  9
$TDCREATE
 40
2450598.639190000
  9
$TDUPDATE
 40
2451387.884317592
  9
$TDINDWG
 40
0.0006721181
  9
$TDUSRTIMER
 40
0.0006721181
  9
$USRTIMER
 70
     1
  9
$ANGBASE
 50
0.0
  9
$ANGDIR
 70
     0
  9
$PDMODE
 70
     0
  9
$PDSIZE
 40
0.0
  9
$PLINEWID
 40
0.0
  9
$COORDS
 70
     0
  9
$SPLFRAME
 70
     0
  9
$SPLINETYPE
 70
     6
  9
$SPLINESEGS
 70
     8
  9
$ATTDIA
 70
     0
  9
$ATTREQ
 70
     1
  9
$HANDLING
 70
     1
  9
$HANDSEED
  5
427
  9
$SURFTAB1
 70
     6
  9
$SURFTAB2
 70
     6
  9
$SURFTYPE
 70
     6
  9
$SURFU
 70
     6
  9
$SURFV
 70
     6
  9
$UCSNAME
  2

  9
$UCSORG
 10
0.0
 20
0.0
 30
0.0
  9
$UCSXDIR
 10
1.0
 20
0.0
 30
0.0
  9
$UCSYDIR
 10
0.0
 20
1.0
 30
0.0
  9
$PUCSNAME
  2

  9
$PUCSORG
 10
0.0
 20
0.0
 30
0.0
  9
$PUCSXDIR
 10
1.0
 20
0.0
 30
0.0
  9
$PUCSYDIR
 10
0.0
 20
1.0
 30
0.0
  9
$USERI1
 70
     0
  9
$USERI2
 70
     0
  9
$USERI3
 70
     0
  9
$USERI4
 70
     0
  9
$USERI5
 70
     0
  9
$USERR1
 40
0.0
  9
$USERR2
 40
0.0
  9
$USERR3
 40
0.0
  9
$USERR4
 40
0.0
  9
$USERR5
 40
0.0
  9
$WORLDVIEW
 70
     1
  9
$SHADEDGE
 70
     3
  9
$SHADEDIF
 70
    70
  9
$TILEMODE
 70
     1
  9
$MAXACTVP
 70
    16
  9
$PINSBASE
 10
0.0
 20
0.0
 30
0.0
  9
$PLIMCHECK
 70
     0
  9
$PEXTMIN
 10
1.000000E+20
 20
1.000000E+20
 30
1.000000E+20
  9
$PEXTMAX
 10
-1.000000E+20
 20
-1.000000E+20
 30
-1.000000E+20
  9
$PLIMMIN
 10
0.0
 20
0.0
  9
$PLIMMAX
 10
12.0
 20
9.0
  9
$UNITMODE
 70
     0
  9
$VISRETAIN
 70
     0
  9
$PLINEGEN
 70
     0
  9
$PSLTSCALE
 70
     1
  9
$TREEDEPTH
 70
  3020
  9
$PICKSTYLE
 70
     1
  9
$CMLSTYLE
  2
STANDARD
  9
$CMLJUST
 70
     0
  9
$CMLSCALE
 40
1.0
  9
$PROXYGRAPHICS
 70
     1
  9
$MEASUREMENT
 70
     0
  0
ENDSEC
  0
SECTION
  2
CLASSES
  0
CLASS
  1
DICTIONARYVAR
  2
AcDbDictionaryVar
  3
"AutoCAD"
 90
        0
280
     0
281
     0
  0
CLASS
  1
LWPOLYLINE
  2
AcDbPolyline
  3
"AutoCAD"
 90
        0
280
     0
281
     1
  0
ENDSEC
  0
SECTION
  2
TABLES
  0
TABLE
  2
VPORT
  5
3C8
100
AcDbSymbolTable
 70
     1
  0
VPORT
  5
422
100
AcDbSymbolTableRecord
100
AcDbViewportTableRecord
  2
*ACTIVE
 70
     0
 10
0.0
 20
0.0
 11
1.0
 21
1.0
 12
283.244621
 22
169.500718
 13
0.0
 23
0.0
 14
1.0
 24
1.0
 15
10.0
 25
10.0
 16
0.0
 26
0.0
 36
1.0
 17
0.0
 27
0.0
 37
0.0
 40
339.001436
 41
1.671053
 42
50.0
 43
0.0
 44
0.0
 50
0.0
 51
0.0
 71
     0
 72
   100
 73
     1
 74
     1
 75
     0
 76
     1
 77
     0
 78
     0
  0
ENDTAB
  0
TABLE
  2
LTYPE
  5
3C5
100
AcDbSymbolTable
 70
    24
  0
LTYPE
  5
3D1
100
AcDbSymbolTableRecord
100
AcDbLinetypeTableRecord
  2
BYBLOCK
 70
     0
  3

 72
    65
 73
     0
 40
0.0
  0
LTYPE
  5
3D2
100
AcDbSymbolTableRecord
100
AcDbLinetypeTableRecord
  2
BYLAYER
 70
     0
  3

 72
    65
 73
     0
 40
0.0
  0
LTYPE
  5
3D3
100
AcDbSymbolTableRecord
100
AcDbLinetypeTableRecord
  2
CONTINUOUS
 70
     0
  3
Solid line
 72
    65
 73
     0
 40
0.0
  0
LTYPE
  5
3E8
100
AcDbSymbolTableRecord
100
AcDbLinetypeTableRecord
  2
CADRA_SOLID
 70
     0
  3
Cadra_solid
 72
    65
 73
     0
 40
0.0
  0
LTYPE
  5
3E9
100
AcDbSymbolTableRecord
100
AcDbLinetypeTableRecord
  2
AXES
 70
     0
  3
____ _ ____ _ ____ _ ____ _ ____ _ ____ _ ____ 
 72
    65
 73
     4
 40
2.0
 49
1.25
 74
     0
 49
-0.25
 74
     0
 49
0.25
 74
     0
 49
-0.25
 74
     0
  0
LTYPE
  5
3EA
100
AcDbSymbolTableRecord
100
AcDbLinetypeTableRecord
  2
AXES2
 70
     0
  3
___ _ ___ _ ___ _ ___ _ ___ _ ___ _ ___ _ ___ _
 72
    65
 73
     4
 40
1.125
 49
0.75
 74
     0
 49
-0.125
 74
     0
 49
0.125
 74
     0
 49
-0.125
 74
     0
  0
LTYPE
  5
3EB
100
AcDbSymbolTableRecord
100
AcDbLinetypeTableRecord
  2
AXESX2
 70
     0
  3
________  __  ________  __  ________  __  _____
 72
    65
 73
     4
 40
4.0
 49
2.5
 74
     0
 49
-0.5
 74
     0
 49
0.5
 74
     0
 49
-0.5
 74
     0
  0
LTYPE
  5
3EC
100
AcDbSymbolTableRecord
100
AcDbLinetypeTableRecord
  2
TIRETPT
 70
     0
  3
__ . __ . __ . __ . __ . __ . __ . __ . __ . __
 72
    65
 73
     4
 40
1.0
 49
0.5
 74
     0
 49
-0.25
 74
     0
 49
0.0
 74
     0
 49
-0.25
 74
     0
  0
LTYPE
  5
3ED
100
AcDbSymbolTableRecord
100
AcDbLinetypeTableRecord
  2
TIRETPT2
 70
     0
  3
_._._._._._._._._._._._._._._._._._._._._._._._
 72
    65
 73
     4
 40
0.5
 49
0.25
 74
     0
 49
-0.125
 74
     0
 49
0.0
 74
     0
 49
-0.125
 74
     0
  0
LTYPE
  5
3EE
100
AcDbSymbolTableRecord
100
AcDbLinetypeTableRecord
  2
TIRETPTX2
 70
     0
  3
____  .  ____  .  ____  .  ____  .  ____  .  __
 72
    65
 73
     4
 40
2.0
 49
1.0
 74
     0
 49
-0.5
 74
     0
 49
0.0
 74
     0
 49
-0.5
 74
     0
  0
LTYPE
  5
3EF
100
AcDbSymbolTableRecord
100
AcDbLinetypeTableRecord
  2
DISCONTINU
 70
     0
  3
__ __ __ __ __ __ __ __ __ __ __ __ __ __ __ __
 72
    65
 73
     2
 40
0.75
 49
0.5
 74
     0
 49
-0.25
 74
     0
  0
LTYPE
  5
3F0
100
AcDbSymbolTableRecord
100
AcDbLinetypeTableRecord
  2
DISCONTINU2
 70
     0
  3
_ _ _ _ _ _ _ _ _ _ _ _ _ _ _ _ _ _ _ _ _ _ _ _
 72
    65
 73
     2
 40
0.375
 49
0.25
 74
     0
 49
-0.125
 74
     0
  0
LTYPE
  5
3F1
100
AcDbSymbolTableRecord
100
AcDbLinetypeTableRecord
  2
DISCONTINUX2
 70
     0
  3
____  ____  ____  ____  ____  ____  ____  ____ 
 72
    65
 73
     2
 40
1.5
 49
1.0
 74
     0
 49
-0.5
 74
     0
  0
LTYPE
  5
3F2
100
AcDbSymbolTableRecord
100
AcDbLinetypeTableRecord
  2
DIVISE
 70
     0
  3
____ . . ____ . . ____ . . ____ . . ____ . . __
 72
    65
 73
     6
 40
1.25
 49
0.5
 74
     0
 49
-0.25
 74
     0
 49
0.0
 74
     0
 49
-0.25
 74
     0
 49
0.0
 74
     0
 49
-0.25
 74
     0
  0
LTYPE
  5
3F3
100
AcDbSymbolTableRecord
100
AcDbLinetypeTableRecord
  2
DIVISE2
 70
     0
  3
__..__..__..__..__..__..__..__..__..__..__..__.
 72
    65
 73
     6
 40
0.625
 49
0.25
 74
     0
 49
-0.125
 74
     0
 49
0.0
 74
     0
 49
-0.125
 74
     0
 49
0.0
 74
     0
 49
-0.125
 74
     0
  0
LTYPE
  5
3F4
100
AcDbSymbolTableRecord
100
AcDbLinetypeTableRecord
  2
DIVISEX2
 70
     0
  3
________  .  .  ________  .  .  ________  .  . 
 72
    65
 73
     6
 40
2.5
 49
1.0
 74
     0
 49
-0.5
 74
     0
 49
0.0
 74
     0
 49
-0.5
 74
     0
 49
0.0
 74
     0
 49
-0.5
 74
     0
  0
LTYPE
  5
3F5
100
AcDbSymbolTableRecord
100
AcDbLinetypeTableRecord
  2
POINTILLE
 70
     0
  3
. . . . . . . . . . . . . . . . . . . . . . . .
 72
    65
 73
     2
 40
0.25
 49
0.0
 74
     0
 49
-0.25
 74
     0
  0
LTYPE
  5
3F6
100
AcDbSymbolTableRecord
100
AcDbLinetypeTableRecord
  2
POINTILLE2
 70
     0
  3
...............................................
 72
    65
 73
     2
 40
0.125
 49
0.0
 74
     0
 49
-0.125
 74
     0
  0
LTYPE
  5
3F7
100
AcDbSymbolTableRecord
100
AcDbLinetypeTableRecord
  2
POINTILLEX2
 70
     0
  3
.  .  .  .  .  .  .  .  .  .  .  .  .  .  .  . 
 72
    65
 73
     2
 40
0.5
 49
0.0
 74
     0
 49
-0.5
 74
     0
  0
LTYPE
  5
3F8
100
AcDbSymbolTableRecord
100
AcDbLinetypeTableRecord
  2
CACHE
 70
     0
  3
__ __ __ __ __ __ __ __ __ __ __ __ __ __ __ __
 72
    65
 73
     2
 40
0.375
 49
0.25
 74
     0
 49
-0.125
 74
     0
  0
LTYPE
  5
3F9
100
AcDbSymbolTableRecord
100
AcDbLinetypeTableRecord
  2
CACHE2
 70
     0
  3
_ _ _ _ _ _ _ _ _ _ _ _ _ _ _ _ _ _ _ _ _ _ _ _
 72
    65
 73
     2
 40
0.1875
 49
0.125
 74
     0
 49
-0.0625
 74
     0
  0
LTYPE
  5
3FA
100
AcDbSymbolTableRecord
100
AcDbLinetypeTableRecord
  2
CACHEX2
 70
     0
  3
____ ____ ____ ____ ____ ____ ____ ____ ____ __
 72
    65
 73
     2
 40
0.75
 49
0.5
 74
     0
 49
-0.25
 74
     0
  0
LTYPE
  5
3FB
100
AcDbSymbolTableRecord
100
AcDbLinetypeTableRecord
  2
FANTOME
 70
     0
  3
______  __  __  ______  __  __  ______  __  __ 
 72
    65
 73
     6
 40
2.5
 49
1.25
 74
     0
 49
-0.25
 74
     0
 49
0.25
 74
     0
 49
-0.25
 74
     0
 49
0.25
 74
     0
 49
-0.25
 74
     0
  0
LTYPE
  5
3FC
100
AcDbSymbolTableRecord
100
AcDbLinetypeTableRecord
  2
FANTOME2
 70
     0
  3
___ _ _ ___ _ _ ___ _ _ ___ _ _ ___ _ _ ___ _ _
 72
    65
 73
     6
 40
1.25
 49
0.625
 74
     0
 49
-0.125
 74
     0
 49
0.125
 74
     0
 49
-0.125
 74
     0
 49
0.125
 74
     0
 49
-0.125
 74
     0
  0
LTYPE
  5
3FD
100
AcDbSymbolTableRecord
100
AcDbLinetypeTableRecord
  2
FANTOMEX2
 70
     0
  3
____________    ____    ____    ____________   
 72
    65
 73
     6
 40
5.0
 49
2.5
 74
     0
 49
-0.5
 74
     0
 49
0.5
 74
     0
 49
-0.5
 74
     0
 49
0.5
 74
     0
 49
-0.5
 74
     0
  0
LTYPE
  5
3FE
100
AcDbSymbolTableRecord
100
AcDbLinetypeTableRecord
  2
0
 70
     0
  3
MEDUSA PEN 0
 72
    65
 73
     0
 40
0.0
  0
ENDTAB
  0
TABLE
  2
LAYER
  5
3C2
100
AcDbSymbolTable
 70
    21
  0
LAYER
  5
3CE
100
AcDbSymbolTableRecord
100
AcDbLayerTableRecord
  2
0
 70
     0
 62
   102
  6
CADRA_SOLID
  0
LAYER
  5
405
100
AcDbSymbolTableRecord
100
AcDbLayerTableRecord
  2
ALPHA
 70
     0
 62
   255
  6
CONTINUOUS
  0
LAYER
  5
406
100
AcDbSymbolTableRecord
100
AcDbLayerTableRecord
  2
AXE
 70
     0
 62
    80
  6
AXES2
  0
LAYER
  5
407
100
AcDbSymbolTableRecord
100
AcDbLayerTableRecord
  2
CONSTRUCTION
 70
     0
 62
     6
  6
CONTINUOUS
  0
LAYER
  5
408
100
AcDbSymbolTableRecord
100
AcDbLayerTableRecord
  2
COTATION1
 70
     0
 62
     2
  6
CONTINUOUS
  0
LAYER
  5
409
100
AcDbSymbolTableRecord
100
AcDbLayerTableRecord
  2
HACHURES
 70
     0
 62
     9
  6
CONTINUOUS
  0
LAYER
  5
40A
100
AcDbSymbolTableRecord
100
AcDbLayerTableRecord
  2
FMULT
 70
     0
 62
     6
  6
CONTINUOUS
  0
LAYER
  5
40B
100
AcDbSymbolTableRecord
100
AcDbLayerTableRecord
  2
TEXTE
 70
     0
 62
   131
  6
CONTINUOUS
  0
LAYER
  5
40C
100
AcDbSymbolTableRecord
100
AcDbLayerTableRecord
  2
FDP_CARTOUCHE
 70
     0
 62
     4
  6
CONTINUOUS
  0
LAYER
  5
40D
100
AcDbSymbolTableRecord
100
AcDbLayerTableRecord
  2
FDP_TEXTES
 70
     0
 62
     5
  6
CONTINUOUS
  0
LAYER
  5
40E
100
AcDbSymbolTableRecord
100
AcDbLayerTableRecord
  2
FDP_LOGO_MG
 70
     0
 62
    30
  6
CONTINUOUS
  0
LAYER
  5
40F
100
AcDbSymbolTableRecord
100
AcDbLayerTableRecord
  2
FDP_LOGO_SCH
 70
     0
 62
     3
  6
CONTINUOUS
  0
LAYER
  5
410
100
AcDbSymbolTableRecord
100
AcDbLayerTableRecord
  2
FDP_FDP
 70
     0
 62
     5
  6
CONTINUOUS
  0
LAYER
  5
411
100
AcDbSymbolTableRecord
100
AcDbLayerTableRecord
  2
COTATION2
 70
     0
 62
     2
  6
CONTINUOUS
  0
LAYER
  5
412
100
AcDbSymbolTableRecord
100
AcDbLayerTableRecord
  2
COTATION3
 70
     0
 62
     2
  6
CONTINUOUS
  0
LAYER
  5
413
100
AcDbSymbolTableRecord
100
AcDbLayerTableRecord
  2
COTATION4
 70
     0
 62
     2
  6
CONTINUOUS
  0
LAYER
  5
414
100
AcDbSymbolTableRecord
100
AcDbLayerTableRecord
  2
ASHADE
 70
     0
 62
     7
  6
CONTINUOUS
  0
LAYER
  5
415
100
AcDbSymbolTableRecord
100
AcDbLayerTableRecord
  2
POINTILLE_COURT
 70
     0
 62
    40
  6
CACHE2
  0
LAYER
  5
416
100
AcDbSymbolTableRecord
100
AcDbLayerTableRecord
  2
POINTILLE_MOYEN
 70
     0
 62
   140
  6
CACHE
  0
LAYER
  5
417
100
AcDbSymbolTableRecord
100
AcDbLayerTableRecord
  2
POINTILLE_LONG
 70
     0
 62
   240
  6
CACHEX2
  0
LAYER
  5
418
100
AcDbSymbolTableRecord
100
AcDbLayerTableRecord
  2
DEFPOINTS
 70
     0
 62
     7
  6
CONTINUOUS
  0
ENDTAB
  0
TABLE
  2
STYLE
  5
3C3
100
AcDbSymbolTable
 70
     4
  0
STYLE
  5
3CF
100
AcDbSymbolTableRecord
100
AcDbTextStyleTableRecord
  2
STANDARD
 70
     0
 40
0.0
 41
1.0
 50
0.0
 71
     0
 42
5.0
  3
txt
  4

  0
STYLE
  5
3E5
100
AcDbSymbolTableRecord
100
AcDbTextStyleTableRecord
  2
ROMANS
 70
     0
 40
0.0
 41
1.0
 50
0.0
 71
     0
 42
2.9
  3
romans.shx
  4

  0
STYLE
  5
3E6
100
AcDbSymbolTableRecord
100
AcDbTextStyleTableRecord
  2
INFOCAR
 70
     0
 40
0.0
 41
1.34
 50
0.0
 71
     0
 42
2.0
  3
ROMANS.SHX
  4

  0
STYLE
  5
3E7
100
AcDbSymbolTableRecord
100
AcDbTextStyleTableRecord
  2
CARTOUCHE
 70
     0
 40
0.0
 41
1.0
 50
0.0
 71
     0
 42
0.2
  3
ROMANS.SHX
  4

  0
ENDTAB
  0
TABLE
  2
VIEW
  5
3C6
100
AcDbSymbolTable
 70
     0
  0
ENDTAB
  0
TABLE
  2
UCS
  5
3C7
100
AcDbSymbolTable
 70
     0
  0
ENDTAB
  0
TABLE
  2
APPID
  5
3C9
100
AcDbSymbolTable
 70
     3
  0
APPID
  5
3D0
100
AcDbSymbolTableRecord
100
AcDbRegAppTableRecord
  2
ACAD
 70
     0
  0
APPID
  5
401
100
AcDbSymbolTableRecord
100
AcDbRegAppTableRecord
  2
AVE_RENDER
 70
     0
  0
APPID
  5
402
100
AcDbSymbolTableRecord
100
AcDbRegAppTableRecord
  2
AVE_MATERIAL
 70
     0
  0
ENDTAB
  0
TABLE
  2
DIMSTYLE
  5
3CA
100
AcDbSymbolTable
 70
     2
  0
DIMSTYLE
105
403
102
{ACAD_REACTORS
330
33C
330
349
102
}
100
AcDbSymbolTableRecord
100
AcDbDimStyleTableRecord
  2
SC_STAND
 70
     0
  3

  4

  5

  6

  7

 40
1.0
 41
3.0
 42
0.0625
 43
0.38
 44
0.18
 45
0.01
 46
0.0
 47
0.0
 48
0.0
140
2.5
141
0.09
142
0.0
143
25.4
144
1.0
145
0.0
146
1.0
147
1.0
 71
     0
 72
     0
 73
     0
 74
     0
 75
     0
 76
     0
 77
     1
 78
    12
170
     0
171
     2
172
     1
173
     0
174
     0
175
     0
176
     0
177
     0
178
     0
270
     2
271
     3
272
     3
273
     2
274
     2
340
3E5
275
     0
280
     0
281
     0
282
     0
283
     1
284
    12
285
    12
286
    12
287
     5
288
     0
  0
DIMSTYLE
105
404
100
AcDbSymbolTableRecord
100
AcDbDimStyleTableRecord
  2
STANDARD
 70
     0
  3

  4

  5

  6

  7

 40
1.0
 41
0.18
 42
0.0625
 43
0.38
 44
0.18
 45
0.0
 46
0.0
 47
0.0
 48
0.0
140
0.18
141
0.09
142
0.0
143
25.4
144
1.0
145
0.0
146
1.0
147
0.09
 71
     0
 72
     0
 73
     1
 74
     1
 75
     0
 76
     0
 77
     0
 78
     0
170
     0
171
     2
172
     0
173
     0
174
     0
175
     0
176
     0
177
     0
178
     0
270
     2
271
     3
272
     3
273
     2
274
     2
340
3E5
275
     0
280
     0
281
     0
282
     0
283
     1
284
    12
285
    12
286
    12
287
     5
288
     0
  0
ENDTAB
  0
TABLE
  2
BLOCK_RECORD
  5
3C1
100
AcDbSymbolTable
 70
     7
  0
BLOCK_RECORD
  5
3D7
100
AcDbSymbolTableRecord
100
AcDbBlockTableRecord
  2
*MODEL_SPACE
  0
BLOCK_RECORD
  5
3D4
100
AcDbSymbolTableRecord
100
AcDbBlockTableRecord
  2
*PAPER_SPACE
  0
BLOCK_RECORD
  5
3DC
100
AcDbSymbolTableRecord
100
AcDbBlockTableRecord
  2
AVE_RENDER
  0
BLOCK_RECORD
  5
3DD
100
AcDbSymbolTableRecord
100
AcDbBlockTableRecord
  2
AVE_GLOBAL
  0
BLOCK_RECORD
  5
3DE
100
AcDbSymbolTableRecord
100
AcDbBlockTableRecord
  2
SCH_ISO
  0
BLOCK_RECORD
  5
3E3
100
AcDbSymbolTableRecord
100
AcDbBlockTableRecord
  2
*D5
  0
BLOCK_RECORD
  5
3E4
100
AcDbSymbolTableRecord
100
AcDbBlockTableRecord
  2
*D6
  0
ENDTAB
  0
ENDSEC
  0
SECTION
  2
BLOCKS
  0
BLOCK
  5
41B
100
AcDbEntity
  8
0
100
AcDbBlockBegin
  2
*MODEL_SPACE
 70
     0
 10
0.0
 20
0.0
 30
0.0
  3
*MODEL_SPACE
  1

  0
ENDBLK
  5
41C
100
AcDbEntity
  8
0
100
AcDbBlockEnd
  0
BLOCK
  5
419
100
AcDbEntity
 67
     1
  8
0
100
AcDbBlockBegin
  2
*PAPER_SPACE
 70
     0
 10
0.0
 20
0.0
 30
0.0
  3
*PAPER_SPACE
  1

  0
ENDBLK
  5
41A
100
AcDbEntity
 67
     1
  8
0
100
AcDbBlockEnd
  0
BLOCK
  5
2F0
100
AcDbEntity
  8
0
100
AcDbBlockBegin
  2
AVE_RENDER
 70
     0
 10
0.0
 20
0.0
 30
0.0
  3
AVE_RENDER
  1
AVE_RENDER
  0
ENDBLK
  5
2F1
100
AcDbEntity
  8
0
100
AcDbBlockEnd
  0
BLOCK
  5
2F3
100
AcDbEntity
  8
0
100
AcDbBlockBegin
  2
AVE_GLOBAL
 70
     0
 10
0.0
 20
0.0
 30
0.0
  3
AVE_GLOBAL
  1
AVE_GLOBAL
  0
ENDBLK
  5
2F4
100
AcDbEntity
  8
0
100
AcDbBlockEnd
  0
BLOCK
  5
32D
100
AcDbEntity
  8
0
100
AcDbBlockBegin
  2
SCH_ISO
 70
     0
 10
0.0
 20
0.0
 30
0.0
  3
SCH_ISO
  1

  0
INSERT
  5
324
100
AcDbEntity
  8
ASHADE
 62
     1
100
AcDbBlockReference
  2
AVE_RENDER
 10
0.0
 20
0.0
 30
0.0
1001
AVE_RENDER
1002
{
1070
     6
1000
Pref
1070
    50
1070
    20
1070
     1
1070
     0
1000

1070
    10
1070
     1
1070
    30
1040
25.4
1070
     1
1040
0.3
1040
0.7
1040
0.0
1040
10.0
1010
-1.0
1020
-1.0
1030
-1.0
1040
0.3
1070
    49
1070
     0
1070
     0
1010
1.0
1020
1.0
1030
1.0
1040
45.0
1070
     1
1070
     0
1000
WCS
1040
0.0
1002
}
  0
INSERT
  5
325
100
AcDbEntity
  8
ASHADE
 62
     3
100
AcDbBlockReference
  2
AVE_RENDER
 10
0.0
 20
0.0
 30
0.0
1001
AVE_RENDER
1002
{
1070
     0
1000
Full Opt
1070
     0
1070
     1
1070
     1
1070
     1
1070
     0
1070
     0
1070
     0
1070
     1
1070
     1
1040
0.0001
1040
0.0001
1002
}
  0
INSERT
  5
326
100
AcDbEntity
  8
ASHADE
 62
     4
100
AcDbBlockReference
  2
AVE_RENDER
 10
0.0
 20
0.0
 30
0.0
1001
AVE_RENDER
1002
{
1070
     0
1000
Quick Opt
1070
     0
1070
     1
1070
     1
1070
     1
1070
     0
1070
     0
1070
     1
1002
}
  0
INSERT
  5
327
100
AcDbEntity
  8
ASHADE
 62
     5
100
AcDbBlockReference
  2
AVE_RENDER
 10
0.0
 20
0.0
 30
0.0
1001
AVE_RENDER
1002
{
1070
     1
1000
Scanl Opt
1070
     2
1070
     0
1070
     2
1040
2.0
1040
4.0
1070
     0
1070
     1
1070
     0
1040
0.03
1002
}
  0
INSERT
  5
328
100
AcDbEntity
  8
ASHADE
 62
     6
100
AcDbBlockReference
  2
AVE_RENDER
 10
0.0
 20
0.0
 30
0.0
1001
AVE_RENDER
1002
{
1070
     2
1000
Raytr Opt
1070
     2
1070
     0
1070
     2
1040
2.0
1040
4.0
1070
     0
1070
     1
1070
     1
1040
0.03
1070
     3
1040
0.03
1002
}
  0
INSERT
  5
329
100
AcDbEntity
  8
ASHADE
 62
     7
100
AcDbBlockReference
  2
AVE_RENDER
 10
0.0
 20
0.0
 30
0.0
1001
AVE_RENDER
1002
{
1070
     0
1000
RFile Opt
1070
     5
1070
   640
1070
   480
1070
 10000
1070
     3
1070
    32
1070
    24
1070
     0
1070
     0
1070
     0
1070
     1
1070
     0
1070
     0
1070
     0
1002
}
  0
INSERT
  5
32A
100
AcDbEntity
  8
ASHADE
 62
     8
100
AcDbBlockReference
  2
AVE_RENDER
 10
0.0
 20
0.0
 30
0.0
1001
AVE_RENDER
1002
{
1070
     0
1000
Fog Opt
1070
     0
1070
     0
1040
0.0
1040
1.0
1040
0.0
1040
1.0
1010
0.5
1020
0.5
1030
0.5
1002
}
  0
INSERT
  5
32B
100
AcDbEntity
  8
ASHADE
 62
     9
100
AcDbBlockReference
  2
AVE_RENDER
 10
0.0
 20
0.0
 30
0.0
1001
AVE_RENDER
1002
{
1070
     0
1000
BG Opt
1070
     0
1070
     1
1010
0.0
1020
0.0
1030
0.0
1010
1.0
1020
0.0
1030
0.0
1010
0.0
1020
1.0
1030
0.0
1010
0.0
1020
0.0
1030
1.0
1040
0.5
1040
0.33
1040
0.0
1000

1070
     1
1000

1070
     1
1070
     1
1040
1.0
1040
1.0
1040
0.0
1040
0.0
1070
     0
1002
}
  0
INSERT
  5
32C
100
AcDbEntity
  8
ASHADE
 62
     1
100
AcDbBlockReference
  2
AVE_GLOBAL
 10
0.0
 20
0.0
 30
0.0
1001
AVE_MATERIAL
1002
{
1000
*GLOBAL*
1000
1
1000
Finition globale.
1002
{
1002
}
1002
{
1070
    63
1002
{
1002
{
1010
-1.0
1020
-1.0
1030
-1.0
1002
}
1040
0.1
1000

1040
0.0
1002
{
1002
}
1040
0.0
1002
{
1002
}
1040
0.0
1002
}
1002
{
1002
{
1010
-1.0
1020
-1.0
1030
-1.0
1002
}
1040
0.7
1000

1040
0.0
1002
{
1002
}
1040
0.0
1002
{
1002
}
1040
0.0
1002
}
1002
{
1002
{
1010
-1.0
1020
-1.0
1030
-1.0
1002
}
1040
0.2
1000

1040
0.0
1002
{
1002
}
1040
0.0
1002
{
1002
}
1040
0.0
1002
}
1002
{
1070
     0
1002
{
1070
     1
1002
{
1040
1.0
1040
1.0
1000

1040
0.0
1002
{
1002
}
1040
0.0
1002
{
1002
}
1040
0.0
1002
}
1002
}
1040
1.0
1040
0.0
1040
0.0
1002
}
1002
{
1040
1.0
1040
1.0
1000

1040
0.0
1002
{
1002
}
1040
0.0
1002
{
1002
}
1040
0.0
1002
}
1002
{
1040
0.5
1040
1.0
1000

1040
0.0
1002
{
1002
}
1040
0.0
1002
{
1002
}
1040
0.0
1002
}
1002
{
1070
     0
1040
0.0
1002
{
1002
}
1040
1.0
1002
{
1002
}
1040
0.0
1002
}
1002
{
1040
0.0
1002
{
1002
{
1010
0.0
1020
0.0
1030
0.0
1002
}
1040
1.0
1000

1040
0.0
1002
{
1002
}
1040
0.0
1002
{
1002
}
1040
0.0
1002
}
1002
}
1002
{
1002
{
1070
     1
1002
{
1040
0.0
1040
1.0
1000

1040
0.0
1002
{
1002
}
1040
0.0
1002
{
1002
}
1040
0.0
1002
}
1002
}
1040
0.0
1002
{
1002
}
1010
1.0
1020
0.0
1030
0.0
1010
0.0
1020
1.0
1030
0.0
1010
0.0
1020
0.0
1030
1.0
1070
     0
1002
}
1002
{
1002
{
1040
1.0
1040
1.0
1002
{
1070
     1
1002
{
1040
1.0
1040
1.0
1000

1040
0.0
1002
{
1002
}
1040
0.0
1002
{
1002
}
1040
0.0
1002
}
1002
}
1002
}
1070
     0
1040
0.0
1002
{
1002
}
1002
}
1002
{
1002
}
1002
}
1002
{
1071
        3
1070
     3
1070
     0
1002
{
1070
     2
1070
     0
1070
     0
1040
0.0
1002
}
1070
     0
1070
     2
1002
{
1002
}
1002
}
1002
{
1040
8030.0
1040
190.300003
1040
0.305
1040
228.0
1040
545.0
1040
14.0
1040
17.4
1040
0.456
1002
}
1002
}
  0
ENDBLK
  5
32E
100
AcDbEntity
  8
0
100
AcDbBlockEnd
  0
BLOCK
  5
3AB
100
AcDbEntity
  8
0
100
AcDbBlockBegin
  2
*D5
 70
     1
 10
0.0
 20
0.0
 30
0.0
  3
*D5
  1

  0
LINE
  5
3AC
100
AcDbEntity
  8
0
  6
BYBLOCK
 62
     0
100
AcDbLine
 10
123.617997
 20
165.600937
 30
0.0
 11
155.803519
 21
165.600937
 31
0.0
  0
LINE
  5
3AD
100
AcDbEntity
  8
0
  6
BYBLOCK
 62
     0
100
AcDbLine
 10
110.184967
 20
248.597904
 30
0.0
 11
155.803519
 21
248.597904
 31
0.0
  0
LINE
  5
3AE
100
AcDbEntity
  8
0
  6
BYBLOCK
 62
     0
100
AcDbLine
 10
155.623519
 20
168.600937
 30
0.0
 11
155.623519
 21
245.597904
 31
0.0
  0
SOLID
  5
3AF
100
AcDbEntity
  8
0
  6
BYBLOCK
 62
     0
100
AcDbTrace
 10
155.123519
 20
168.600937
 30
0.0
 11
156.123519
 21
168.600937
 31
0.0
 12
155.623519
 22
165.600937
 32
0.0
 13
155.623519
 23
165.600937
 33
0.0
  0
SOLID
  5
3B0
100
AcDbEntity
  8
0
  6
BYBLOCK
 62
     0
100
AcDbTrace
 10
155.123519
 20
245.597904
 30
0.0
 11
156.123519
 21
245.597904
 31
0.0
 12
155.623519
 22
248.597904
 32
0.0
 13
155.623519
 23
248.597904
 33
0.0
  0
TEXT
  5
3B1
100
AcDbEntity
  8
0
  6
BYBLOCK
 62
     0
100
AcDbText
 10
154.373519
 20
204.718468
 30
0.0
 40
2.5
  1
83
 50
90.0
  7
ROMANS
 72
     1
 11
153.123519
 21
207.099421
 31
0.0
100
AcDbText
 73
     2
  0
POINT
  5
3B2
100
AcDbEntity
  8
DEFPOINTS
  6
BYBLOCK
 62
     0
100
AcDbPoint
 10
123.555497
 20
165.600937
 30
0.0
  0
POINT
  5
3B3
100
AcDbEntity
  8
DEFPOINTS
  6
BYBLOCK
 62
     0
100
AcDbPoint
 10
110.122467
 20
248.597904
 30
0.0
  0
POINT
  5
3B4
100
AcDbEntity
  8
DEFPOINTS
  6
BYBLOCK
 62
     0
100
AcDbPoint
 10
155.623519
 20
248.597904
 30
0.0
  0
ENDBLK
  5
3B5
100
AcDbEntity
  8
0
100
AcDbBlockEnd
  0
BLOCK
  5
3B6
100
AcDbEntity
  8
0
100
AcDbBlockBegin
  2
*D6
 70
     1
 10
0.0
 20
0.0
 30
0.0
  3
*D6
  1

  0
LINE
  5
3B7
100
AcDbEntity
  8
0
  6
BYBLOCK
 62
     0
100
AcDbLine
 10
56.089066
 20
166.520907
 30
0.0
 11
56.089066
 21
146.57375
 31
0.0
  0
LINE
  5
3B8
100
AcDbEntity
  8
0
  6
BYBLOCK
 62
     0
100
AcDbLine
 10
124.555345
 20
166.52091
 30
0.0
 11
124.555345
 21
146.57375
 31
0.0
  0
LINE
  5
3B9
100
AcDbEntity
  8
0
  6
BYBLOCK
 62
     0
100
AcDbLine
 10
59.089066
 20
146.75375
 30
0.0
 11
121.555345
 21
146.75375
 31
0.0
  0
SOLID
  5
3BA
100
AcDbEntity
  8
0
  6
BYBLOCK
 62
     0
100
AcDbTrace
 10
59.089066
 20
147.25375
 30
0.0
 11
59.089066
 21
146.25375
 31
0.0
 12
56.089066
 22
146.75375
 32
0.0
 13
56.089066
 23
146.75375
 33
0.0
  0
SOLID
  5
3BB
100
AcDbEntity
  8
0
  6
BYBLOCK
 62
     0
100
AcDbTrace
 10
121.555345
 20
147.25375
 30
0.0
 11
121.555345
 21
146.25375
 31
0.0
 12
124.555345
 22
146.75375
 32
0.0
 13
124.555345
 23
146.75375
 33
0.0
  0
TEXT
  5
3BC
100
AcDbEntity
  8
0
  6
BYBLOCK
 62
     0
100
AcDbText
 10
84.905539
 20
148.00375
 30
0.0
 40
2.5
  1
68.47
  7
ROMANS
 72
     1
 11
90.322205
 21
149.25375
 31
0.0
100
AcDbText
 73
     2
  0
POINT
  5
3BD
100
AcDbEntity
  8
DEFPOINTS
  6
BYBLOCK
 62
     0
100
AcDbPoint
 10
56.089066
 20
166.583407
 30
0.0
  0
POINT
  5
3BE
100
AcDbEntity
  8
DEFPOINTS
  6
BYBLOCK
 62
     0
100
AcDbPoint
 10
124.555345
 20
166.58341
 30
0.0
  0
POINT
  5
3BF
100
AcDbEntity
  8
DEFPOINTS
  6
BYBLOCK
 62
     0
100
AcDbPoint
 10
124.555345
 20
146.75375
 30
0.0
  0
ENDBLK
  5
3C0
100
AcDbEntity
  8
0
100
AcDbBlockEnd
  0
ENDSEC
  0
SECTION
  2
ENTITIES
  0
LINE
  5
1F
100
AcDbEntity
  8
ALPHA
100
AcDbLine
 10
123.955307
 20
190.499878
 30
0.0
 11
112.321518
 21
190.499878
 31
0.0
  0
LINE
  5
21
100
AcDbEntity
  8
ALPHA
100
AcDbLine
 10
56.689164
 20
190.499954
 30
0.0
 11
68.322388
 21
190.499954
 31
0.0
  0
LINE
  5
22
100
AcDbEntity
  8
ALPHA
100
AcDbLine
 10
56.08902
 20
166.583344
 30
0.0
 11
55.322457
 21
210.499912
 31
0.0
  0
LINE
  5
23
100
AcDbEntity
  8
ALPHA
100
AcDbLine
 10
124.555219
 20
166.583336
 30
0.0
 11
125.321786
 21
210.49993
 31
0.0
  0
LINE
  5
24
100
AcDbEntity
  8
ALPHA
100
AcDbLine
 10
112.321808
 20
185.60054
 30
0.0
 11
124.887207
 21
185.60054
 31
0.0
  0
LINE
  5
25
100
AcDbEntity
  8
ALPHA
100
AcDbLine
 10
102.850266
 20
166.592117
 30
0.0
 11
102.868515
 21
168.683422
 31
0.0
  0
LINE
  5
26
100
AcDbEntity
  8
ALPHA
100
AcDbLine
 10
119.875742
 20
168.683395
 30
0.0
 11
119.893992
 21
166.592106
 31
0.0
  0
LINE
  5
27
100
AcDbEntity
  8
ALPHA
100
AcDbLine
 10
55.756958
 20
185.60054
 30
0.0
 11
68.322022
 21
185.60054
 31
0.0
  0
LINE
  5
28
100
AcDbEntity
  8
ALPHA
100
AcDbLine
 10
60.750313
 20
166.579391
 30
0.0
 11
60.768677
 21
168.683422
 31
0.0
  0
LINE
  5
29
100
AcDbEntity
  8
ALPHA
100
AcDbLine
 10
77.775902
 20
168.683395
 30
0.0
 11
77.794152
 21
166.592075
 31
0.0
  0
LINE
  5
2A
100
AcDbEntity
  8
ALPHA
100
AcDbLine
 10
81.800393
 20
166.592064
 30
0.0
 11
81.818642
 21
168.683414
 31
0.0
  0
LINE
  5
2B
100
AcDbEntity
  8
ALPHA
100
AcDbLine
 10
98.825774
 20
168.683403
 30
0.0
 11
98.844025
 21
166.592098
 31
0.0
  0
ARC
  5
2C
100
AcDbEntity
  8
ALPHA
100
AcDbCircle
 10
123.955231
 20
189.499878
 30
0.0
 40
1.0
100
AcDbArc
 50
358.999333
 51
89.996222
  0
LINE
  5
2D
100
AcDbEntity
  8
ALPHA
100
AcDbLine
 10
57.088913
 20
165.600937
 30
0.0
 11
123.555497
 21
165.600937
 31
0.0
  0
ARC
  5
2E
100
AcDbEntity
  8
ALPHA
100
AcDbCircle
 10
57.088913
 20
166.600861
 30
0.0
 40
1.0
100
AcDbArc
 50
181.000081
 51
270.00358
  0
ARC
  5
2F
100
AcDbEntity
  8
ALPHA
100
AcDbCircle
 10
59.750534
 20
166.600861
 30
0.0
 40
1.0
100
AcDbArc
 50
270.00052
 51
359.500013
  0
ARC
  5
30
100
AcDbEntity
  8
ALPHA
100
AcDbCircle
 10
78.794159
 20
166.600861
 30
0.0
 40
1.0
100
AcDbArc
 50
180.500057
 51
270.003197
  0
ARC
  5
31
100
AcDbEntity
  8
ALPHA
100
AcDbCircle
 10
80.800507
 20
166.600861
 30
0.0
 40
1.0
100
AcDbArc
 50
270.001121
 51
359.500013
  0
ARC
  5
32
100
AcDbEntity
  8
ALPHA
100
AcDbCircle
 10
99.844056
 20
166.600861
 30
0.0
 40
1.0
100
AcDbArc
 50
180.500057
 51
270.003798
  0
ARC
  5
33
100
AcDbEntity
  8
ALPHA
100
AcDbCircle
 10
101.850403
 20
166.600861
 30
0.0
 40
1.0
100
AcDbArc
 50
270.001722
 51
359.500013
  0
ARC
  5
34
100
AcDbEntity
  8
ALPHA
100
AcDbCircle
 10
123.555497
 20
166.600861
 30
0.0
 40
1.0
100
AcDbArc
 50
270.001777
 51
359.000043
  0
ARC
  5
35
100
AcDbEntity
  8
ALPHA
100
AcDbCircle
 10
120.894043
 20
166.600861
 30
0.0
 40
1.0
100
AcDbArc
 50
180.500057
 51
270.004399
  0
ARC
  5
36
100
AcDbEntity
  8
ALPHA
100
AcDbCircle
 10
56.689164
 20
189.499954
 30
0.0
 40
1.0
100
AcDbArc
 50
89.998397
 51
181.000013
  0
LINE
  5
37
100
AcDbEntity
  8
ALPHA
100
AcDbLine
 10
81.802781
 20
166.866264
 30
0.0
 11
82.028386
 21
167.135132
 31
0.0
  0
LINE
  5
38
100
AcDbEntity
  8
ALPHA
100
AcDbLine
 10
98.615845
 20
167.135593
 30
0.0
 11
98.841648
 21
166.866493
 31
0.0
  0
LINE
  5
39
100
AcDbEntity
  8
ALPHA
100
AcDbLine
 10
102.852648
 20
166.866085
 30
0.0
 11
103.07853
 21
167.135281
 31
0.0
  0
LINE
  5
3A
100
AcDbEntity
  8
ALPHA
100
AcDbLine
 10
119.665991
 20
167.135292
 30
0.0
 11
119.891588
 21
166.866432
 31
0.0
  0
LINE
  5
3B
100
AcDbEntity
  8
ALPHA
100
AcDbLine
 10
91.802552
 20
186.900757
 30
0.0
 11
88.845368
 21
186.900757
 31
0.0
  0
LINE
  5
3C
100
AcDbEntity
  8
ALPHA
100
AcDbLine
 10
111.814751
 20
187.093557
 30
0.0
 11
112.321765
 21
187.600571
 31
0.0
  0
LINE
  5
3D
100
AcDbEntity
  8
ALPHA
100
AcDbLine
 10
111.107727
 20
186.800659
 30
0.0
 11
110.342591
 21
186.800659
 31
0.0
  0
ARC
  5
3E
100
AcDbEntity
  8
ALPHA
100
AcDbCircle
 10
111.107743
 20
187.800568
 30
0.0
 40
1.0
100
AcDbArc
 50
270.004235
 51
315.00297
  0
LINE
  5
3F
100
AcDbEntity
  8
ALPHA
100
AcDbLine
 10
112.321839
 20
185.900589
 30
0.0
 11
110.350403
 21
185.900589
 31
0.0
  0
LINE
  5
40
100
AcDbEntity
  8
ALPHA
100
AcDbLine
 10
68.322724
 20
187.600534
 30
0.0
 11
68.830094
 21
187.093164
 31
0.0
  0
LINE
  5
41
100
AcDbEntity
  8
ALPHA
100
AcDbLine
 10
69.537156
 20
186.800415
 30
0.0
 11
70.301148
 21
186.800415
 31
0.0
  0
LINE
  5
42
100
AcDbEntity
  8
ALPHA
100
AcDbLine
 10
68.322388
 20
185.900345
 30
0.0
 11
70.293335
 21
185.900345
 31
0.0
  0
ARC
  5
43
100
AcDbEntity
  8
ALPHA
100
AcDbCircle
 10
69.537156
 20
187.800323
 30
0.0
 40
1.0
100
AcDbArc
 50
225.000542
 51
270.000738
  0
LINE
  5
44
100
AcDbEntity
  8
ALPHA
100
AcDbLine
 10
68.322022
 20
210.449753
 30
0.0
 11
68.322022
 21
185.60054
 31
0.0
  0
LINE
  5
45
100
AcDbEntity
  8
ALPHA
100
AcDbLine
 10
112.321793
 20
198.900898
 30
0.0
 11
112.321793
 21
185.60054
 31
0.0
  0
LINE
  5
46
100
AcDbEntity
  8
ALPHA
100
AcDbLine
 10
93.62172
 20
207.249619
 30
0.0
 11
93.62172
 21
207.149826
 31
0.0
  0
LINE
  5
47
100
AcDbEntity
  8
ALPHA
100
AcDbLine
 10
70.293385
 20
185.900352
 30
0.0
 11
70.326466
 21
189.691483
 31
0.0
  0
LINE
  5
48
100
AcDbEntity
  8
ALPHA
100
AcDbLine
 10
78.536084
 20
187.600052
 30
0.0
 11
78.530495
 21
188.240362
 31
0.0
  0
LINE
  5
49
100
AcDbEntity
  8
ALPHA
100
AcDbLine
 10
80.608109
 20
187.600048
 30
0.0
 11
80.613697
 21
188.240358
 31
0.0
  0
LINE
  5
4A
100
AcDbEntity
  8
ALPHA
100
AcDbLine
 10
88.736893
 20
198.849788
 30
0.0
 11
88.808892
 21
207.100115
 31
0.0
  0
LINE
  5
4B
100
AcDbEntity
  8
ALPHA
100
AcDbLine
 10
91.835099
 20
207.100081
 30
0.0
 11
91.907097
 21
198.849721
 31
0.0
  0
LINE
  5
4C
100
AcDbEntity
  8
ALPHA
100
AcDbLine
 10
102.113552
 20
188.240345
 30
0.0
 11
102.107964
 21
187.599928
 31
0.0
  0
LINE
  5
4D
100
AcDbEntity
  8
ALPHA
100
AcDbLine
 10
100.030323
 20
188.24036
 30
0.0
 11
100.035912
 21
187.599928
 31
0.0
  0
LINE
  5
4E
100
AcDbEntity
  8
ALPHA
100
AcDbLine
 10
91.906186
 20
198.849688
 30
0.0
 11
91.835484
 21
190.748102
 31
0.0
  0
LINE
  5
4F
100
AcDbEntity
  8
ALPHA
100
AcDbLine
 10
110.350484
 20
185.900597
 30
0.0
 11
110.317436
 21
189.691498
 31
0.0
  0
LINE
  5
50
100
AcDbEntity
  8
ALPHA
100
AcDbLine
 10
91.836792
 20
190.900024
 30
0.0
 11
88.80716
 21
190.900024
 31
0.0
  0
LINE
  5
51
100
AcDbEntity
  8
ALPHA
100
AcDbLine
 10
79.821976
 20
201.149902
 30
0.0
 11
79.821976
 21
198.849854
 31
0.0
  0
LINE
  5
52
100
AcDbEntity
  8
ALPHA
100
AcDbLine
 10
84.221939
 20
201.149902
 30
0.0
 11
84.221939
 21
198.849854
 31
0.0
  0
LINE
  5
53
100
AcDbEntity
  8
ALPHA
100
AcDbLine
 10
87.864746
 20
201.149841
 30
0.0
 11
71.3219
 21
201.149841
 31
0.0
  0
LINE
  5
54
100
AcDbEntity
  8
ALPHA
100
AcDbLine
 10
71.321961
 20
201.149902
 30
0.0
 11
71.321961
 21
198.849854
 31
0.0
  0
LINE
  5
55
100
AcDbEntity
  8
ALPHA
100
AcDbLine
 10
91.835099
 20
207.100082
 30
0.0
 11
88.796631
 21
207.100082
 31
0.0
  0
LINE
  5
56
100
AcDbEntity
  8
ALPHA
100
AcDbLine
 10
98.921631
 20
200.649704
 30
0.0
 11
91.891373
 21
200.649704
 31
0.0
  0
LINE
  5
57
100
AcDbEntity
  8
ALPHA
100
AcDbLine
 10
98.92161
 20
200.649734
 30
0.0
 11
99.01326
 21
204.149686
 31
0.0
  0
ARC
  5
58
100
AcDbEntity
  8
ALPHA
100
AcDbCircle
 10
104.221802
 20
204.149826
 30
0.0
 40
3.200011
100
AcDbArc
 50
180.003311
 51
270.001121
  0
LINE
  5
59
100
AcDbEntity
  8
ALPHA
100
AcDbLine
 10
104.221802
 20
200.949814
 30
0.0
 11
107.221695
 21
200.949814
 31
0.0
  0
LINE
  5
5A
100
AcDbEntity
  8
ALPHA
100
AcDbLine
 10
107.331715
 20
198.849784
 30
0.0
 11
107.221655
 21
200.949853
 31
0.0
  0
ARC
  5
5B
100
AcDbEntity
  8
ALPHA
100
AcDbCircle
 10
87.864762
 20
202.04985
 30
0.0
 40
0.899999
100
AcDbArc
 50
269.999646
 51
359.499986
  0
ARC
  5
5C
100
AcDbEntity
  8
ALPHA
100
AcDbCircle
 10
104.221802
 20
204.149826
 30
0.0
 40
3.360839
100
AcDbArc
 50
180.003147
 51
270.000028
  0
LINE
  5
5D
100
AcDbEntity
  8
ALPHA
100
AcDbLine
 10
104.221802
 20
200.788986
 30
0.0
 11
107.230118
 21
200.788986
 31
0.0
  0
LINE
  5
5E
100
AcDbEntity
  8
ALPHA
100
AcDbLine
 10
101.221863
 20
204.149643
 30
0.0
 11
98.621827
 21
204.149643
 31
0.0
  0
LINE
  5
5F
100
AcDbEntity
  8
ALPHA
100
AcDbLine
 10
76.978516
 20
192.350449
 30
0.0
 11
76.658158
 21
192.350449
 31
0.0
  0
LINE
  5
60
100
AcDbEntity
  8
ALPHA
100
AcDbLine
 10
76.983841
 20
196.350403
 30
0.0
 11
76.658173
 21
196.350403
 31
0.0
  0
LINE
  5
61
100
AcDbEntity
  8
ALPHA
100
AcDbLine
 10
72.18602
 20
196.350403
 30
0.0
 11
71.860337
 21
196.350403
 31
0.0
  0
LINE
  5
62
100
AcDbEntity
  8
ALPHA
100
AcDbLine
 10
72.18602
 20
192.350449
 30
0.0
 11
71.860352
 21
192.350449
 31
0.0
  0
LINE
  5
63
100
AcDbEntity
  8
ALPHA
100
AcDbLine
 10
73.922074
 20
191.472946
 30
0.0
 11
73.922074
 21
193.850449
 31
0.0
  0
LINE
  5
64
100
AcDbEntity
  8
ALPHA
100
AcDbLine
 10
74.922089
 20
191.472946
 30
0.0
 11
74.922089
 21
193.850449
 31
0.0
  0
CIRCLE
  5
65
100
AcDbEntity
  8
ALPHA
100
AcDbCircle
 10
74.422089
 20
194.350449
 30
0.0
 40
2.999999
  0
LINE
  5
66
100
AcDbEntity
  8
ALPHA
100
AcDbLine
 10
74.922089
 20
191.472946
 30
0.0
 11
73.922074
 21
191.472946
 31
0.0
  0
LINE
  5
67
100
AcDbEntity
  8
ALPHA
100
AcDbLine
 10
74.922089
 20
197.227921
 30
0.0
 11
73.922074
 21
197.227921
 31
0.0
  0
ARC
  5
68
100
AcDbEntity
  8
ALPHA
100
AcDbCircle
 10
74.422089
 20
194.350449
 30
0.0
 40
2.790026
100
AcDbArc
 50
280.323777
 51
79.676188
  0
ARC
  5
69
100
AcDbEntity
  8
ALPHA
100
AcDbCircle
 10
74.422089
 20
194.350449
 30
0.0
 40
2.790026
100
AcDbArc
 50
100.323731
 51
259.676197
  0
LINE
  5
6A
100
AcDbEntity
  8
ALPHA
100
AcDbLine
 10
72.972077
 20
193.850449
 30
0.0
 11
72.972077
 21
194.850418
 31
0.0
  0
LINE
  5
6B
100
AcDbEntity
  8
ALPHA
100
AcDbLine
 10
75.872101
 20
193.850449
 30
0.0
 11
75.872101
 21
194.850418
 31
0.0
  0
LINE
  5
6C
100
AcDbEntity
  8
ALPHA
100
AcDbLine
 10
75.872101
 20
193.850449
 30
0.0
 11
74.922089
 21
193.850449
 31
0.0
  0
LINE
  5
6D
100
AcDbEntity
  8
ALPHA
100
AcDbLine
 10
75.872101
 20
194.850418
 30
0.0
 11
74.922089
 21
194.850418
 31
0.0
  0
LINE
  5
6E
100
AcDbEntity
  8
ALPHA
100
AcDbLine
 10
73.922074
 20
194.850418
 30
0.0
 11
72.972077
 21
194.850418
 31
0.0
  0
LINE
  5
6F
100
AcDbEntity
  8
ALPHA
100
AcDbLine
 10
73.922074
 20
193.850449
 30
0.0
 11
72.972077
 21
193.850449
 31
0.0
  0
LINE
  5
70
100
AcDbEntity
  8
ALPHA
100
AcDbLine
 10
74.922089
 20
194.850418
 30
0.0
 11
74.922089
 21
197.227921
 31
0.0
  0
LINE
  5
71
100
AcDbEntity
  8
ALPHA
100
AcDbLine
 10
73.922074
 20
194.850418
 30
0.0
 11
73.922074
 21
197.227921
 31
0.0
  0
LINE
  5
72
100
AcDbEntity
  8
ALPHA
100
AcDbLine
 10
87.283387
 20
192.349915
 30
0.0
 11
86.957962
 21
192.349915
 31
0.0
  0
LINE
  5
73
100
AcDbEntity
  8
ALPHA
100
AcDbLine
 10
87.284241
 20
196.349869
 30
0.0
 11
86.957978
 21
196.349869
 31
0.0
  0
LINE
  5
74
100
AcDbEntity
  8
ALPHA
100
AcDbLine
 10
82.48581
 20
196.349869
 30
0.0
 11
82.159913
 21
196.349869
 31
0.0
  0
LINE
  5
75
100
AcDbEntity
  8
ALPHA
100
AcDbLine
 10
82.485825
 20
192.349915
 30
0.0
 11
82.160767
 21
192.349915
 31
0.0
  0
LINE
  5
76
100
AcDbEntity
  8
ALPHA
100
AcDbLine
 10
84.221894
 20
191.472412
 30
0.0
 11
84.221894
 21
193.849915
 31
0.0
  0
LINE
  5
77
100
AcDbEntity
  8
ALPHA
100
AcDbLine
 10
85.221894
 20
191.472412
 30
0.0
 11
85.221894
 21
193.849915
 31
0.0
  0
CIRCLE
  5
78
100
AcDbEntity
  8
ALPHA
100
AcDbCircle
 10
84.721894
 20
194.349899
 30
0.0
 40
2.999999
  0
LINE
  5
79
100
AcDbEntity
  8
ALPHA
100
AcDbLine
 10
85.221894
 20
191.472412
 30
0.0
 11
84.221894
 21
191.472412
 31
0.0
  0
LINE
  5
7A
100
AcDbEntity
  8
ALPHA
100
AcDbLine
 10
85.221894
 20
197.227386
 30
0.0
 11
84.221894
 21
197.227386
 31
0.0
  0
ARC
  5
7B
100
AcDbEntity
  8
ALPHA
100
AcDbCircle
 10
84.721894
 20
194.349899
 30
0.0
 40
2.790026
100
AcDbArc
 50
280.323777
 51
79.676188
  0
ARC
  5
7C
100
AcDbEntity
  8
ALPHA
100
AcDbCircle
 10
84.721894
 20
194.349899
 30
0.0
 40
2.790026
100
AcDbArc
 50
100.323731
 51
259.676197
  0
LINE
  5
7D
100
AcDbEntity
  8
ALPHA
100
AcDbLine
 10
83.271897
 20
193.849915
 30
0.0
 11
83.271897
 21
194.849884
 31
0.0
  0
LINE
  5
7E
100
AcDbEntity
  8
ALPHA
100
AcDbLine
 10
86.171891
 20
193.849915
 30
0.0
 11
86.171891
 21
194.849884
 31
0.0
  0
LINE
  5
7F
100
AcDbEntity
  8
ALPHA
100
AcDbLine
 10
86.171891
 20
193.849915
 30
0.0
 11
85.221894
 21
193.849915
 31
0.0
  0
LINE
  5
80
100
AcDbEntity
  8
ALPHA
100
AcDbLine
 10
86.171891
 20
194.849884
 30
0.0
 11
85.221894
 21
194.849884
 31
0.0
  0
LINE
  5
81
100
AcDbEntity
  8
ALPHA
100
AcDbLine
 10
84.221894
 20
194.849884
 30
0.0
 11
83.271897
 21
194.849884
 31
0.0
  0
LINE
  5
82
100
AcDbEntity
  8
ALPHA
100
AcDbLine
 10
84.221894
 20
193.849915
 30
0.0
 11
83.271897
 21
193.849915
 31
0.0
  0
LINE
  5
83
100
AcDbEntity
  8
ALPHA
100
AcDbLine
 10
85.221894
 20
194.849884
 30
0.0
 11
85.221894
 21
197.227386
 31
0.0
  0
LINE
  5
84
100
AcDbEntity
  8
ALPHA
100
AcDbLine
 10
84.221894
 20
194.849884
 30
0.0
 11
84.221894
 21
197.227386
 31
0.0
  0
LINE
  5
85
100
AcDbEntity
  8
ALPHA
100
AcDbLine
 10
98.483094
 20
192.349716
 30
0.0
 11
98.157837
 21
192.349716
 31
0.0
  0
LINE
  5
86
100
AcDbEntity
  8
ALPHA
100
AcDbLine
 10
98.484253
 20
196.349686
 30
0.0
 11
98.157837
 21
196.349686
 31
0.0
  0
LINE
  5
87
100
AcDbEntity
  8
ALPHA
100
AcDbLine
 10
93.685746
 20
196.349686
 30
0.0
 11
93.35965
 21
196.349686
 31
0.0
  0
LINE
  5
88
100
AcDbEntity
  8
ALPHA
100
AcDbLine
 10
93.685746
 20
192.349716
 30
0.0
 11
93.36081
 21
192.349716
 31
0.0
  0
LINE
  5
89
100
AcDbEntity
  8
ALPHA
100
AcDbLine
 10
95.421814
 20
191.472214
 30
0.0
 11
95.421814
 21
193.849716
 31
0.0
  0
LINE
  5
8A
100
AcDbEntity
  8
ALPHA
100
AcDbLine
 10
96.421799
 20
191.472214
 30
0.0
 11
96.421799
 21
193.849716
 31
0.0
  0
CIRCLE
  5
8B
100
AcDbEntity
  8
ALPHA
100
AcDbCircle
 10
95.921814
 20
194.349716
 30
0.0
 40
2.999999
  0
LINE
  5
8C
100
AcDbEntity
  8
ALPHA
100
AcDbLine
 10
96.421799
 20
191.472214
 30
0.0
 11
95.421814
 21
191.472214
 31
0.0
  0
LINE
  5
8D
100
AcDbEntity
  8
ALPHA
100
AcDbLine
 10
96.421799
 20
197.227203
 30
0.0
 11
95.421814
 21
197.227203
 31
0.0
  0
ARC
  5
8E
100
AcDbEntity
  8
ALPHA
100
AcDbCircle
 10
95.921814
 20
194.349716
 30
0.0
 40
2.790026
100
AcDbArc
 50
280.323777
 51
79.676188
  0
ARC
  5
8F
100
AcDbEntity
  8
ALPHA
100
AcDbCircle
 10
95.921814
 20
194.349716
 30
0.0
 40
2.790026
100
AcDbArc
 50
100.323731
 51
259.676197
  0
LINE
  5
90
100
AcDbEntity
  8
ALPHA
100
AcDbLine
 10
94.471802
 20
193.849716
 30
0.0
 11
94.471802
 21
194.849686
 31
0.0
  0
LINE
  5
91
100
AcDbEntity
  8
ALPHA
100
AcDbLine
 10
97.371811
 20
193.849716
 30
0.0
 11
97.371811
 21
194.849686
 31
0.0
  0
LINE
  5
92
100
AcDbEntity
  8
ALPHA
100
AcDbLine
 10
97.371811
 20
193.849716
 30
0.0
 11
96.421799
 21
193.849716
 31
0.0
  0
LINE
  5
93
100
AcDbEntity
  8
ALPHA
100
AcDbLine
 10
97.371811
 20
194.849686
 30
0.0
 11
96.421799
 21
194.849686
 31
0.0
  0
LINE
  5
94
100
AcDbEntity
  8
ALPHA
100
AcDbLine
 10
95.421814
 20
194.849686
 30
0.0
 11
94.471802
 21
194.849686
 31
0.0
  0
LINE
  5
95
100
AcDbEntity
  8
ALPHA
100
AcDbLine
 10
95.421814
 20
193.849716
 30
0.0
 11
94.471802
 21
193.849716
 31
0.0
  0
LINE
  5
96
100
AcDbEntity
  8
ALPHA
100
AcDbLine
 10
96.421799
 20
194.849686
 30
0.0
 11
96.421799
 21
197.227203
 31
0.0
  0
LINE
  5
97
100
AcDbEntity
  8
ALPHA
100
AcDbLine
 10
95.421814
 20
194.849686
 30
0.0
 11
95.421814
 21
197.227203
 31
0.0
  0
LINE
  5
98
100
AcDbEntity
  8
ALPHA
100
AcDbLine
 10
108.783097
 20
192.349716
 30
0.0
 11
108.45784
 21
192.349716
 31
0.0
  0
LINE
  5
99
100
AcDbEntity
  8
ALPHA
100
AcDbLine
 10
108.784195
 20
196.349686
 30
0.0
 11
108.45784
 21
196.349686
 31
0.0
  0
LINE
  5
9A
100
AcDbEntity
  8
ALPHA
100
AcDbLine
 10
103.985718
 20
196.349686
 30
0.0
 11
103.659607
 21
196.349686
 31
0.0
  0
LINE
  5
9B
100
AcDbEntity
  8
ALPHA
100
AcDbLine
 10
103.985718
 20
192.349716
 30
0.0
 11
103.660706
 21
192.349716
 31
0.0
  0
LINE
  5
9C
100
AcDbEntity
  8
ALPHA
100
AcDbLine
 10
105.721802
 20
191.472214
 30
0.0
 11
105.721802
 21
193.849716
 31
0.0
  0
LINE
  5
9D
100
AcDbEntity
  8
ALPHA
100
AcDbLine
 10
106.721756
 20
191.472214
 30
0.0
 11
106.721756
 21
193.849716
 31
0.0
  0
CIRCLE
  5
9E
100
AcDbEntity
  8
ALPHA
100
AcDbCircle
 10
106.221802
 20
194.349716
 30
0.0
 40
2.999999
  0
LINE
  5
9F
100
AcDbEntity
  8
ALPHA
100
AcDbLine
 10
106.721756
 20
191.472214
 30
0.0
 11
105.721802
 21
191.472214
 31
0.0
  0
LINE
  5
A0
100
AcDbEntity
  8
ALPHA
100
AcDbLine
 10
106.721756
 20
197.227203
 30
0.0
 11
105.721802
 21
197.227203
 31
0.0
  0
ARC
  5
A1
100
AcDbEntity
  8
ALPHA
100
AcDbCircle
 10
106.221802
 20
194.349716
 30
0.0
 40
2.790026
100
AcDbArc
 50
280.323777
 51
79.676188
  0
ARC
  5
A2
100
AcDbEntity
  8
ALPHA
100
AcDbCircle
 10
106.221802
 20
194.349716
 30
0.0
 40
2.790026
100
AcDbArc
 50
100.323731
 51
259.676197
  0
LINE
  5
A3
100
AcDbEntity
  8
ALPHA
100
AcDbLine
 10
104.77179
 20
193.849716
 30
0.0
 11
104.77179
 21
194.849686
 31
0.0
  0
LINE
  5
A4
100
AcDbEntity
  8
ALPHA
100
AcDbLine
 10
107.671769
 20
193.849716
 30
0.0
 11
107.671769
 21
194.849686
 31
0.0
  0
LINE
  5
A5
100
AcDbEntity
  8
ALPHA
100
AcDbLine
 10
107.671769
 20
193.849716
 30
0.0
 11
106.721756
 21
193.849716
 31
0.0
  0
LINE
  5
A6
100
AcDbEntity
  8
ALPHA
100
AcDbLine
 10
107.671769
 20
194.849686
 30
0.0
 11
106.721756
 21
194.849686
 31
0.0
  0
LINE
  5
A7
100
AcDbEntity
  8
ALPHA
100
AcDbLine
 10
105.721802
 20
194.849686
 30
0.0
 11
104.77179
 21
194.849686
 31
0.0
  0
LINE
  5
A8
100
AcDbEntity
  8
ALPHA
100
AcDbLine
 10
105.721802
 20
193.849716
 30
0.0
 11
104.77179
 21
193.849716
 31
0.0
  0
LINE
  5
A9
100
AcDbEntity
  8
ALPHA
100
AcDbLine
 10
106.721756
 20
194.849686
 30
0.0
 11
106.721756
 21
197.227203
 31
0.0
  0
LINE
  5
AA
100
AcDbEntity
  8
ALPHA
100
AcDbLine
 10
105.721802
 20
194.849686
 30
0.0
 11
105.721802
 21
197.227203
 31
0.0
  0
ARC
  5
AB
100
AcDbEntity
  8
ALPHA
100
AcDbCircle
 10
71.254502
 20
201.292145
 30
0.0
 40
0.2
100
AcDbArc
 50
89.999873
 51
179.999964
  0
LINE
  5
AC
100
AcDbEntity
  8
ALPHA
100
AcDbLine
 10
82.821915
 20
201.492142
 30
0.0
 11
82.821915
 21
201.149826
 31
0.0
  0
LINE
  5
AD
100
AcDbEntity
  8
ALPHA
100
AcDbLine
 10
81.221878
 20
201.492142
 30
0.0
 11
81.221878
 21
201.149826
 31
0.0
  0
LINE
  5
AE
100
AcDbEntity
  8
ALPHA
100
AcDbLine
 10
91.821793
 20
207.446899
 30
0.0
 11
91.821793
 21
207.249619
 31
0.0
  0
LINE
  5
AF
100
AcDbEntity
  8
ALPHA
100
AcDbLine
 10
88.808487
 20
190.748074
 30
0.0
 11
88.737339
 21
198.901072
 31
0.0
  0
CIRCLE
  5
B0
100
AcDbEntity
  8
ALPHA
100
AcDbCircle
 10
106.221924
 20
194.350449
 30
0.0
 40
3.249993
  0
CIRCLE
  5
B1
100
AcDbEntity
  8
ALPHA
100
AcDbCircle
 10
95.921967
 20
194.350449
 30
0.0
 40
3.249993
  0
CIRCLE
  5
B2
100
AcDbEntity
  8
ALPHA
100
AcDbCircle
 10
84.722077
 20
194.350449
 30
0.0
 40
3.249993
  0
CIRCLE
  5
B3
100
AcDbEntity
  8
ALPHA
100
AcDbCircle
 10
74.422089
 20
194.350449
 30
0.0
 40
3.249993
  0
LINE
  5
B4
100
AcDbEntity
  8
ALPHA
100
AcDbLine
 10
91.871964
 20
190.750488
 30
0.0
 11
88.772065
 21
190.750488
 31
0.0
  0
LINE
  5
B5
100
AcDbEntity
  8
ALPHA
100
AcDbLine
 10
112.321854
 20
198.850464
 30
0.0
 11
91.90709
 21
198.850464
 31
0.0
  0
LINE
  5
B6
100
AcDbEntity
  8
ALPHA
100
AcDbLine
 10
88.736893
 20
198.850464
 30
0.0
 11
68.322098
 21
198.850464
 31
0.0
  0
LINE
  5
B7
100
AcDbEntity
  8
ALPHA
100
AcDbLine
 10
110.321732
 20
188.250519
 30
0.0
 11
102.121872
 21
188.250519
 31
0.0
  0
LINE
  5
B8
100
AcDbEntity
  8
ALPHA
100
AcDbLine
 10
78.522095
 20
189.9505
 30
0.0
 11
78.522095
 21
188.250504
 31
0.0
  0
LINE
  5
B9
100
AcDbEntity
  8
ALPHA
100
AcDbLine
 10
80.622132
 20
189.9505
 30
0.0
 11
80.622132
 21
188.250504
 31
0.0
  0
LINE
  5
BA
100
AcDbEntity
  8
ALPHA
100
AcDbLine
 10
100.021912
 20
189.9505
 30
0.0
 11
100.021912
 21
188.250504
 31
0.0
  0
LINE
  5
BB
100
AcDbEntity
  8
ALPHA
100
AcDbLine
 10
102.121888
 20
189.9505
 30
0.0
 11
102.121888
 21
188.250504
 31
0.0
  0
LINE
  5
BC
100
AcDbEntity
  8
ALPHA
100
AcDbLine
 10
110.321854
 20
189.750488
 30
0.0
 11
112.321915
 21
189.750488
 31
0.0
  0
LINE
  5
BD
100
AcDbEntity
  8
ALPHA
100
AcDbLine
 10
110.321854
 20
189.750488
 30
0.0
 11
110.321854
 21
188.250504
 31
0.0
  0
LINE
  5
BE
100
AcDbEntity
  8
ALPHA
100
AcDbLine
 10
70.32219
 20
189.750488
 30
0.0
 11
68.322083
 21
189.750488
 31
0.0
  0
LINE
  5
BF
100
AcDbEntity
  8
ALPHA
100
AcDbLine
 10
70.322174
 20
189.750488
 30
0.0
 11
70.322174
 21
188.250504
 31
0.0
  0
LINE
  5
C0
100
AcDbEntity
  8
ALPHA
100
AcDbLine
 10
80.622147
 20
189.750488
 30
0.0
 11
78.52211
 21
189.750488
 31
0.0
  0
LINE
  5
C1
100
AcDbEntity
  8
ALPHA
100
AcDbLine
 10
102.121872
 20
189.750488
 30
0.0
 11
100.021897
 21
189.750488
 31
0.0
  0
LINE
  5
C2
100
AcDbEntity
  8
ALPHA
100
AcDbLine
 10
78.472031
 20
190.050507
 30
0.0
 11
78.472031
 21
188.250519
 31
0.0
  0
LINE
  5
C3
100
AcDbEntity
  8
ALPHA
100
AcDbLine
 10
80.672181
 20
190.050507
 30
0.0
 11
80.672181
 21
188.250519
 31
0.0
  0
LINE
  5
C4
100
AcDbEntity
  8
ALPHA
100
AcDbLine
 10
99.971863
 20
190.050507
 30
0.0
 11
99.971863
 21
188.250504
 31
0.0
  0
LINE
  5
C5
100
AcDbEntity
  8
ALPHA
100
AcDbLine
 10
102.171936
 20
190.050507
 30
0.0
 11
102.171936
 21
188.250504
 31
0.0
  0
LINE
  5
C6
100
AcDbEntity
  8
ALPHA
100
AcDbLine
 10
80.622147
 20
189.950485
 30
0.0
 11
78.52211
 21
189.950485
 31
0.0
  0
LINE
  5
C7
100
AcDbEntity
  8
ALPHA
100
AcDbLine
 10
80.672181
 20
190.050491
 30
0.0
 11
78.472031
 21
190.050491
 31
0.0
  0
LINE
  5
C8
100
AcDbEntity
  8
ALPHA
100
AcDbLine
 10
102.171921
 20
190.050491
 30
0.0
 11
99.971848
 21
190.050491
 31
0.0
  0
LINE
  5
C9
100
AcDbEntity
  8
ALPHA
100
AcDbLine
 10
102.121872
 20
189.950485
 30
0.0
 11
100.021897
 21
189.950485
 31
0.0
  0
LWPOLYLINE
  5
CA
100
AcDbEntity
  8
ALPHA
100
AcDbPolyline
 90
       13
 70
     0
 43
0.0
 10
80.957225
 20
198.850461
 10
80.99351
 20
198.369952
 10
81.099891
 20
197.92219
 10
81.269119
 20
197.537687
 10
81.48966
 20
197.242648
 10
81.746486
 20
197.057179
 10
82.022095
 20
196.993918
 10
82.297703
 20
197.057178
 10
82.554529
 20
197.242647
 10
82.775071
 20
197.537686
 10
82.944298
 20
197.922188
 10
83.05068
 20
198.36995
 10
83.086965
 20
198.850459
  0
LINE
  5
D9
100
AcDbEntity
  8
ALPHA
100
AcDbLine
 10
78.522095
 20
188.250519
 30
0.0
 11
70.322205
 21
188.250519
 31
0.0
  0
LINE
  5
DA
100
AcDbEntity
  8
ALPHA
100
AcDbLine
 10
100.021897
 20
188.250519
 30
0.0
 11
80.61377
 21
188.250519
 31
0.0
  0
LINE
  5
DB
100
AcDbEntity
  8
ALPHA
100
AcDbLine
 10
68.321885
 20
187.600464
 30
0.0
 11
88.835968
 21
187.600464
 31
0.0
  0
LINE
  5
DC
100
AcDbEntity
  8
ALPHA
100
AcDbLine
 10
91.808045
 20
187.600464
 30
0.0
 11
112.322007
 21
187.600464
 31
0.0
  0
ARC
  5
DD
100
AcDbEntity
  8
ALPHA
100
AcDbCircle
 10
104.221756
 20
204.149902
 30
0.0
 40
2.999997
100
AcDbArc
 50
179.999964
 51
314.999746
  0
LINE
  5
DE
100
AcDbEntity
  8
ALPHA
100
AcDbLine
 10
101.221756
 20
207.149918
 30
0.0
 11
101.221756
 21
204.149918
 31
0.0
  0
LINE
  5
DF
100
AcDbEntity
  8
ALPHA
100
AcDbLine
 10
101.663914
 20
202.582179
 30
0.0
 11
103.231675
 21
204.149939
 31
0.0
  0
LINE
  5
E0
100
AcDbEntity
  8
ALPHA
100
AcDbLine
 10
102.653859
 20
201.592234
 30
0.0
 11
104.221619
 21
203.159994
 31
0.0
  0
LINE
  5
E1
100
AcDbEntity
  8
ALPHA
100
AcDbLine
 10
101.958912
 20
205.422722
 30
0.0
 11
103.231696
 21
204.149939
 31
0.0
  0
LINE
  5
E2
100
AcDbEntity
  8
ALPHA
100
AcDbLine
 10
104.22164
 20
203.159994
 30
0.0
 11
105.494435
 21
201.8872
 31
0.0
  0
LINE
  5
E3
100
AcDbEntity
  8
ALPHA
100
AcDbLine
 10
102.62435
 20
203.343093
 30
0.0
 11
103.414805
 21
202.552637
 31
0.0
  0
LINE
  5
E4
100
AcDbEntity
  8
ALPHA
100
AcDbLine
 10
101.742245
 20
202.461011
 30
0.0
 11
102.624327
 21
203.343093
 31
0.0
  0
LINE
  5
E5
100
AcDbEntity
  8
ALPHA
100
AcDbLine
 10
102.532713
 20
201.670566
 30
0.0
 11
103.414784
 21
202.552637
 31
0.0
  0
LINE
  5
E6
100
AcDbEntity
  8
ALPHA
100
AcDbLine
 10
103.776623
 20
204.149928
 30
0.0
 11
104.22163
 21
203.704922
 31
0.0
  0
LINE
  5
E7
100
AcDbEntity
  8
ALPHA
100
AcDbLine
 10
101.958826
 20
205.422598
 30
0.0
 11
103.776505
 21
204.149847
 31
0.0
  0
LINE
  5
E8
100
AcDbEntity
  8
ALPHA
100
AcDbLine
 10
102.624285
 20
203.343126
 30
0.0
 11
103.776575
 21
204.149977
 31
0.0
  0
LINE
  5
E9
100
AcDbEntity
  8
ALPHA
100
AcDbLine
 10
103.414727
 20
202.552568
 30
0.0
 11
104.221564
 21
203.704852
 31
0.0
  0
LINE
  5
EA
100
AcDbEntity
  8
ALPHA
100
AcDbLine
 10
104.221568
 20
203.704929
 30
0.0
 11
105.494368
 21
201.887186
 31
0.0
  0
ARC
  5
EB
100
AcDbEntity
  8
ALPHA
100
AcDbCircle
 10
104.221756
 20
204.149841
 30
0.0
 40
2.999997
100
AcDbArc
 50
315.000156
 51
89.999828
  0
LINE
  5
EC
100
AcDbEntity
  8
ALPHA
100
AcDbLine
 10
104.221665
 20
207.149826
 30
0.0
 11
101.221726
 21
207.149826
 31
0.0
  0
LINE
  5
ED
100
AcDbEntity
  8
ALPHA
100
AcDbLine
 10
104.221598
 20
205.139884
 30
0.0
 11
105.789326
 21
206.707612
 31
0.0
  0
LINE
  5
EE
100
AcDbEntity
  8
ALPHA
100
AcDbLine
 10
105.211543
 20
204.149939
 30
0.0
 11
106.779271
 21
205.717667
 31
0.0
  0
LINE
  5
EF
100
AcDbEntity
  8
ALPHA
100
AcDbLine
 10
104.221598
 20
205.139863
 30
0.0
 11
102.948836
 21
206.412624
 31
0.0
  0
LINE
  5
F0
100
AcDbEntity
  8
ALPHA
100
AcDbLine
 10
106.484335
 20
202.877123
 30
0.0
 11
105.211543
 21
204.149917
 31
0.0
  0
LINE
  5
F1
100
AcDbEntity
  8
ALPHA
100
AcDbLine
 10
101.958901
 20
205.422711
 30
0.0
 11
102.948836
 21
206.412646
 31
0.0
  0
LINE
  5
F2
100
AcDbEntity
  8
ALPHA
100
AcDbLine
 10
105.494402
 20
201.88721
 30
0.0
 11
106.484335
 21
202.877145
 31
0.0
  0
LINE
  5
F3
100
AcDbEntity
  8
ALPHA
100
AcDbLine
 10
105.8189
 20
204.956752
 30
0.0
 11
105.028443
 21
205.747209
 31
0.0
  0
LINE
  5
F4
100
AcDbEntity
  8
ALPHA
100
AcDbLine
 10
105.028443
 20
205.74723
 30
0.0
 11
105.910481
 21
206.629269
 31
0.0
  0
LINE
  5
F5
100
AcDbEntity
  8
ALPHA
100
AcDbLine
 10
105.8189
 20
204.956774
 30
0.0
 11
106.700938
 21
205.838812
 31
0.0
  0
LINE
  5
F6
100
AcDbEntity
  8
ALPHA
100
AcDbLine
 10
103.776591
 20
204.14994
 30
0.0
 11
104.221598
 21
204.594945
 31
0.0
  0
LINE
  5
F7
100
AcDbEntity
  8
ALPHA
100
AcDbLine
 10
104.221598
 20
203.704932
 30
0.0
 11
104.666603
 21
204.149939
 31
0.0
  0
LINE
  5
F8
100
AcDbEntity
  8
ALPHA
100
AcDbLine
 10
104.666603
 20
204.149917
 30
0.0
 11
104.221598
 21
204.594923
 31
0.0
  0
LINE
  5
F9
100
AcDbEntity
  8
ALPHA
100
AcDbLine
 10
104.221571
 20
204.594944
 30
0.0
 11
102.948845
 21
206.412589
 31
0.0
  0
LINE
  5
FA
100
AcDbEntity
  8
ALPHA
100
AcDbLine
 10
104.221531
 20
204.594917
 30
0.0
 11
105.02833
 21
205.747132
 31
0.0
  0
LINE
  5
FB
100
AcDbEntity
  8
ALPHA
100
AcDbLine
 10
104.666603
 20
204.149934
 30
0.0
 11
105.818886
 21
204.956769
 31
0.0
  0
LINE
  5
FC
100
AcDbEntity
  8
ALPHA
100
AcDbLine
 10
106.484269
 20
202.877079
 30
0.0
 11
104.666579
 21
204.149842
 31
0.0
  0
LINE
  5
FD
100
AcDbEntity
  8
ALPHA
100
AcDbLine
 10
98.621766
 20
207.149826
 30
0.0
 11
92.621827
 21
207.149826
 31
0.0
  0
LINE
  5
FE
100
AcDbEntity
  8
ALPHA
100
AcDbLine
 10
92.621827
 20
207.149826
 30
0.0
 11
92.621827
 21
201.149887
 31
0.0
  0
LINE
  5
FF
100
AcDbEntity
  8
ALPHA
100
AcDbLine
 10
98.621766
 20
207.149826
 30
0.0
 11
98.621766
 21
201.149887
 31
0.0
  0
LINE
  5
100
100
AcDbEntity
  8
ALPHA
100
AcDbLine
 10
98.621766
 20
201.149887
 30
0.0
 11
92.621827
 21
201.149887
 31
0.0
  0
LINE
  5
101
100
AcDbEntity
  8
ALPHA
100
AcDbLine
 10
91.821778
 20
207.250305
 30
0.0
 11
97.621766
 21
207.250305
 31
0.0
  0
LINE
  5
102
100
AcDbEntity
  8
ALPHA
100
AcDbLine
 10
107.221711
 20
204.150299
 30
0.0
 11
107.521759
 21
204.150299
 31
0.0
  0
LINE
  5
103
100
AcDbEntity
  8
ALPHA
100
AcDbLine
 10
107.521742
 20
204.150364
 30
0.0
 11
107.796854
 21
198.900899
 31
0.0
  0
ARC
  5
104
100
AcDbEntity
  8
ALPHA
100
AcDbCircle
 10
102.460526
 20
218.549957
 30
0.0
 40
1.499997
100
AcDbArc
 50
1.500007
 51
90.000255
  0
LINE
  5
105
100
AcDbEntity
  8
ALPHA
100
AcDbLine
 10
97.627068
 20
207.149806
 30
0.0
 11
97.621802
 21
207.250285
 31
0.0
  0
LINE
  5
106
100
AcDbEntity
  8
ALPHA
100
AcDbLine
 10
107.52167
 20
204.150321
 30
0.0
 11
107.671057
 21
209.855152
 31
0.0
  0
ARC
  5
107
100
AcDbEntity
  8
ALPHA
100
AcDbCircle
 10
107.870942
 20
209.849899
 30
0.0
 40
0.2
100
AcDbArc
 50
90.009271
 51
178.500218
  0
LINE
  5
108
100
AcDbEntity
  8
ALPHA
100
AcDbLine
 10
101.021841
 20
204.150318
 30
0.0
 11
100.940665
 21
207.250299
 31
0.0
  0
LINE
  5
109
100
AcDbEntity
  8
ALPHA
100
AcDbLine
 10
100.86102
 20
204.150304
 30
0.0
 11
100.779843
 21
207.2503
 31
0.0
  0
LINE
  5
10A
100
AcDbEntity
  8
ALPHA
100
AcDbLine
 10
99.102845
 20
207.250305
 30
0.0
 11
100.940674
 21
207.250305
 31
0.0
  0
LINE
  5
10B
100
AcDbEntity
  8
ALPHA
100
AcDbLine
 10
99.021656
 20
204.150321
 30
0.0
 11
99.102833
 21
207.250318
 31
0.0
  0
LINE
  5
10C
100
AcDbEntity
  8
ALPHA
100
AcDbLine
 10
88.845353
 20
188.250519
 30
0.0
 11
88.845353
 21
186.900757
 31
0.0
  0
LINE
  5
10D
100
AcDbEntity
  8
ALPHA
100
AcDbLine
 10
91.802536
 20
188.250519
 30
0.0
 11
91.802536
 21
186.900757
 31
0.0
  0
LINE
  5
10E
100
AcDbEntity
  8
ALPHA
100
AcDbLine
 10
56.49556
 20
220.097907
 30
0.0
 11
124.148613
 21
220.097893
 31
0.0
  0
LINE
  5
10F
100
AcDbEntity
  8
ALPHA
100
AcDbLine
 10
125.321259
 20
210.498179
 30
0.0
 11
125.095394
 21
219.123715
 31
0.0
  0
ARC
  5
110
100
AcDbEntity
  8
ALPHA
100
AcDbCircle
 10
124.097214
 20
219.099442
 30
0.0
 40
1.0
100
AcDbArc
 50
1.500437
 51
90.001567
  0
LINE
  5
111
100
AcDbEntity
  8
ALPHA
100
AcDbLine
 10
55.322419
 20
210.49832
 30
0.0
 11
55.548294
 21
219.124192
 31
0.0
  0
ARC
  5
112
100
AcDbEntity
  8
ALPHA
100
AcDbCircle
 10
56.548279
 20
219.099518
 30
0.0
 40
1.0
100
AcDbArc
 50
90.002004
 51
178.499727
  0
LINE
  5
113
100
AcDbEntity
  8
ALPHA
100
AcDbLine
 10
101.641177
 20
222.697827
 30
0.0
 11
106.02315
 21
222.697826
 31
0.0
  0
LINE
  5
114
100
AcDbEntity
  8
ALPHA
100
AcDbLine
 10
61.322163
 20
230.597914
 30
0.0
 11
62.52245
 21
230.597914
 31
0.0
  0
LINE
  5
115
100
AcDbEntity
  8
ALPHA
100
AcDbLine
 10
103.621918
 20
230.599121
 30
0.0
 11
104.622452
 21
230.599121
 31
0.0
  0
LINE
  5
116
100
AcDbEntity
  8
ALPHA
100
AcDbLine
 10
112.547382
 20
221.071895
 30
0.0
 11
112.323427
 21
229.624395
 31
0.0
  0
ARC
  5
117
100
AcDbEntity
  8
ALPHA
100
AcDbCircle
 10
113.547089
 20
221.098709
 30
0.0
 40
1.0
100
AcDbArc
 50
181.501854
 51
269.999919
  0
ARC
  5
118
100
AcDbEntity
  8
ALPHA
100
AcDbCircle
 10
101.398697
 20
221.098709
 30
0.0
 40
1.0
100
AcDbArc
 50
269.999755
 51
280.070022
  0
ARC
  5
119
100
AcDbEntity
  8
ALPHA
100
AcDbCircle
 10
103.621964
 20
229.598877
 30
0.0
 40
1.0
100
AcDbArc
 50
90.000255
 51
178.504644
  0
ARC
  5
11A
100
AcDbEntity
  8
ALPHA
100
AcDbCircle
 10
111.323807
 20
229.598877
 30
0.0
 40
1.0
100
AcDbArc
 50
1.495356
 51
90.000091
  0
LINE
  5
11B
100
AcDbEntity
  8
ALPHA
100
AcDbLine
 10
72.247597
 20
221.071901
 30
0.0
 11
72.023648
 21
229.624235
 31
0.0
  0
ARC
  5
11C
100
AcDbEntity
  8
ALPHA
100
AcDbCircle
 10
59.098832
 20
221.098877
 30
0.0
 40
1.0
100
AcDbArc
 50
270.000137
 51
292.10181
  0
ARC
  5
11D
100
AcDbEntity
  8
ALPHA
100
AcDbCircle
 10
73.247193
 20
221.098877
 30
0.0
 40
1.0
100
AcDbArc
 50
181.502346
 51
270.000083
  0
ARC
  5
11E
100
AcDbEntity
  8
ALPHA
100
AcDbCircle
 10
68.023957
 20
229.598877
 30
0.0
 40
1.0
100
AcDbArc
 50
1.497432
 51
87.483412
  0
ARC
  5
11F
100
AcDbEntity
  8
ALPHA
100
AcDbCircle
 10
71.023911
 20
229.598877
 30
0.0
 40
1.0
100
AcDbArc
 50
1.497432
 51
89.999927
  0
ARC
  5
120
100
AcDbEntity
  8
ALPHA
100
AcDbCircle
 10
61.322098
 20
229.598877
 30
0.0
 40
1.0
100
AcDbArc
 50
89.999818
 51
178.502677
  0
LINE
  5
121
100
AcDbEntity
  8
ALPHA
100
AcDbLine
 10
69.20504
 20
222.698045
 30
0.0
 11
69.023674
 21
229.624241
 31
0.0
  0
ARC
  5
122
100
AcDbEntity
  8
ALPHA
100
AcDbCircle
 10
70.247223
 20
221.098877
 30
0.0
 40
1.0
100
AcDbArc
 50
219.208378
 51
270.000137
  0
LINE
  5
123
100
AcDbEntity
  8
ALPHA
100
AcDbLine
 10
112.156968
 20
210.5
 30
0.0
 11
125.321275
 21
210.5
 31
0.0
  0
LINE
  5
124
100
AcDbEntity
  8
ALPHA
100
AcDbLine
 10
111.572355
 20
220.098116
 30
0.0
 11
111.362875
 21
228.097813
 31
0.0
  0
LINE
  5
125
100
AcDbEntity
  8
ALPHA
100
AcDbLine
 10
69.472424
 20
220.09812
 30
0.0
 11
69.404343
 21
222.698058
 31
0.0
  0
LINE
  5
126
100
AcDbEntity
  8
ALPHA
100
AcDbLine
 10
80.591267
 20
222.697832
 30
0.0
 11
83.170323
 21
222.697831
 31
0.0
  0
LINE
  5
127
100
AcDbEntity
  8
ALPHA
100
AcDbLine
 10
90.522362
 20
220.098117
 30
0.0
 11
90.312886
 21
228.097813
 31
0.0
  0
LINE
  5
128
100
AcDbEntity
  8
ALPHA
100
AcDbLine
 10
97.266795
 20
222.045485
 30
0.0
 11
97.663577
 21
237.198
 31
0.0
  0
LINE
  5
129
100
AcDbEntity
  8
ALPHA
100
AcDbLine
 10
103.653084
 20
230.598038
 30
0.0
 11
103.480257
 21
237.198071
 31
0.0
  0
LINE
  5
12A
100
AcDbEntity
  8
ALPHA
100
AcDbLine
 10
80.523175
 20
220.098104
 30
0.0
 11
80.591256
 21
222.698043
 31
0.0
  0
LINE
  5
12B
100
AcDbEntity
  8
ALPHA
100
AcDbLine
 10
101.573122
 20
220.098442
 30
0.0
 11
101.641196
 21
222.698046
 31
0.0
  0
LINE
  5
12C
100
AcDbEntity
  8
ALPHA
100
AcDbLine
 10
102.440907
 20
222.698031
 30
0.0
 11
102.622279
 21
229.624363
 31
0.0
  0
LINE
  5
12D
100
AcDbEntity
  8
ALPHA
100
AcDbLine
 10
68.321946
 20
210.499909
 30
0.0
 11
55.322464
 21
210.499909
 31
0.0
  0
LINE
  5
12E
100
AcDbEntity
  8
ALPHA
100
AcDbLine
 10
105.157593
 20
210.099518
 30
0.0
 11
111.193299
 21
210.099518
 31
0.0
  0
LINE
  5
12F
100
AcDbEntity
  8
ALPHA
100
AcDbLine
 10
112.460714
 20
198.900899
 30
0.0
 11
112.082199
 21
213.35581
 31
0.0
  0
ARC
  5
130
100
AcDbEntity
  8
ALPHA
100
AcDbCircle
 10
111.193329
 20
209.099518
 30
0.0
 40
1.0
100
AcDbArc
 50
1.500013
 51
89.999982
  0
LINE
  5
131
100
AcDbEntity
  8
ALPHA
100
AcDbLine
 10
104.158026
 20
211.073226
 30
0.0
 11
103.959916
 21
218.638748
 31
0.0
  0
ARC
  5
132
100
AcDbEntity
  8
ALPHA
100
AcDbCircle
 10
102.460434
 20
218.599609
 30
0.0
 40
1.499999
100
AcDbArc
 50
1.500007
 51
90.000255
  0
ARC
  5
133
100
AcDbEntity
  8
ALPHA
100
AcDbCircle
 10
105.157578
 20
211.099518
 30
0.0
 40
1.0
100
AcDbArc
 50
181.499942
 51
269.996859
  0
LINE
  5
134
100
AcDbEntity
  8
ALPHA
100
AcDbLine
 10
68.321946
 20
210.499991
 30
0.0
 11
68.547772
 21
219.124064
 31
0.0
  0
LINE
  5
135
100
AcDbEntity
  8
ALPHA
100
AcDbLine
 10
104.07277
 20
214.329987
 30
0.0
 11
111.08252
 21
214.329987
 31
0.0
  0
ARC
  5
136
100
AcDbEntity
  8
ALPHA
100
AcDbCircle
 10
111.08255
 20
213.32991
 30
0.0
 40
1.0
100
AcDbArc
 50
1.495345
 51
90.000201
  0
LINE
  5
137
100
AcDbEntity
  8
ALPHA
100
AcDbLine
 10
104.54712
 20
211.443024
 30
0.0
 11
111.422944
 21
211.443024
 31
0.0
  0
ARC
  5
138
100
AcDbEntity
  8
ALPHA
100
AcDbCircle
 10
95.267472
 20
222.098053
 30
0.0
 40
2.0
100
AcDbArc
 50
269.999973
 51
358.498352
  0
ARC
  5
139
100
AcDbEntity
  8
ALPHA
100
AcDbCircle
 10
69.547425
 20
219.0979
 30
0.0
 40
1.0
100
AcDbArc
 50
89.999818
 51
178.50377
  0
LINE
  5
13A
100
AcDbEntity
  8
ALPHA
100
AcDbLine
 10
97.743369
 20
233.291586
 30
0.0
 11
103.39884
 21
233.291584
 31
0.0
  0
LINE
  5
13B
100
AcDbEntity
  8
ALPHA
100
AcDbLine
 10
97.7533
 20
232.14234
 30
0.0
 11
103.378987
 21
232.142338
 31
0.0
  0
LINE
  5
13C
100
AcDbEntity
  8
ALPHA
100
AcDbLine
 10
66.55489
 20
222.697835
 30
0.0
 11
69.404332
 21
222.697834
 31
0.0
  0
LINE
  5
13D
100
AcDbEntity
  8
ALPHA
100
AcDbLine
 10
60.282502
 20
228.097898
 30
0.0
 11
60.322472
 21
229.624222
 31
0.0
  0
LINE
  5
13E
100
AcDbEntity
  8
ALPHA
100
AcDbLine
 10
97.663559
 20
237.198059
 30
0.0
 11
103.480256
 21
237.198059
 31
0.0
  0
LINE
  5
13F
100
AcDbEntity
  8
ALPHA
100
AcDbLine
 10
59.473198
 20
220.097904
 30
0.0
 11
59.682686
 21
228.097898
 31
0.0
  0
LINE
  5
140
100
AcDbEntity
  8
ALPHA
100
AcDbLine
 10
107.796845
 20
198.900898
 30
0.0
 11
112.460724
 21
198.900898
 31
0.0
  0
LINE
  5
141
100
AcDbEntity
  8
ALPHA
100
AcDbLine
 10
68.622239
 20
185.900345
 30
0.0
 11
68.622239
 21
185.596893
 31
0.0
  0
LINE
  5
142
100
AcDbEntity
  8
ALPHA
100
AcDbLine
 10
56.063614
 20
168.683392
 30
0.0
 11
55.772118
 21
185.382998
 31
0.0
  0
LINE
  5
143
100
AcDbEntity
  8
ALPHA
100
AcDbLine
 10
81.813431
 20
168.087601
 30
0.0
 11
82.036698
 21
168.087601
 31
0.0
  0
LINE
  5
144
100
AcDbEntity
  8
ALPHA
100
AcDbLine
 10
60.763459
 20
168.087601
 30
0.0
 11
60.98671
 21
168.087601
 31
0.0
  0
LINE
  5
145
100
AcDbEntity
  8
ALPHA
100
AcDbLine
 10
57.120316
 20
170.183224
 30
0.0
 11
56.722298
 21
185.38306
 31
0.0
  0
LINE
  5
146
100
AcDbEntity
  8
ALPHA
100
AcDbLine
 10
68.622254
 20
185.583221
 30
0.0
 11
78.797181
 21
185.583221
 31
0.0
  0
LINE
  5
147
100
AcDbEntity
  8
ALPHA
100
AcDbLine
 10
57.120469
 20
170.183334
 30
0.0
 11
123.524125
 21
170.183334
 31
0.0
  0
LINE
  5
148
100
AcDbEntity
  8
ALPHA
100
AcDbLine
 10
56.063584
 20
168.683411
 30
0.0
 11
124.580811
 21
168.683411
 31
0.0
  0
LINE
  5
149
100
AcDbEntity
  8
ALPHA
100
AcDbLine
 10
60.982315
 20
167.583435
 30
0.0
 11
77.561966
 21
167.583435
 31
0.0
  0
LINE
  5
14A
100
AcDbEntity
  8
ALPHA
100
AcDbLine
 10
77.557572
 20
168.087601
 30
0.0
 11
77.781098
 21
168.087601
 31
0.0
  0
LINE
  5
14B
100
AcDbEntity
  8
ALPHA
100
AcDbLine
 10
82.019211
 20
166.08345
 30
0.0
 11
98.625061
 21
166.08345
 31
0.0
  0
LINE
  5
14C
100
AcDbEntity
  8
ALPHA
100
AcDbLine
 10
82.032303
 20
167.583435
 30
0.0
 11
98.611939
 21
167.583435
 31
0.0
  0
LINE
  5
14D
100
AcDbEntity
  8
ALPHA
100
AcDbLine
 10
98.607544
 20
168.087601
 30
0.0
 11
98.830979
 21
168.087601
 31
0.0
  0
LINE
  5
14E
100
AcDbEntity
  8
ALPHA
100
AcDbLine
 10
82.019196
 20
166.08345
 30
0.0
 11
82.036686
 21
168.087585
 31
0.0
  0
LINE
  5
14F
100
AcDbEntity
  8
ALPHA
100
AcDbLine
 10
98.607546
 20
168.087574
 30
0.0
 11
98.625037
 21
166.083424
 31
0.0
  0
LINE
  5
150
100
AcDbEntity
  8
ALPHA
100
AcDbLine
 10
60.969231
 20
166.083458
 30
0.0
 11
60.986725
 21
168.087593
 31
0.0
  0
LINE
  5
151
100
AcDbEntity
  8
ALPHA
100
AcDbLine
 10
77.557579
 20
168.087582
 30
0.0
 11
77.57507
 21
166.083431
 31
0.0
  0
LINE
  5
152
100
AcDbEntity
  8
ALPHA
100
AcDbLine
 10
96.830653
 20
167.583416
 30
0.0
 11
98.089293
 21
166.083427
 31
0.0
  0
LINE
  5
153
100
AcDbEntity
  8
ALPHA
100
AcDbLine
 10
82.554909
 20
166.083431
 30
0.0
 11
83.813549
 21
167.58342
 31
0.0
  0
LINE
  5
154
100
AcDbEntity
  8
ALPHA
100
AcDbLine
 10
112.022171
 20
185.596893
 30
0.0
 11
112.022171
 21
187.600708
 31
0.0
  0
LINE
  5
155
100
AcDbEntity
  8
ALPHA
100
AcDbLine
 10
124.872274
 20
185.383001
 30
0.0
 11
124.58078
 21
168.68335
 31
0.0
  0
LINE
  5
156
100
AcDbEntity
  8
ALPHA
100
AcDbLine
 10
119.6577
 20
168.087585
 30
0.0
 11
119.880951
 21
168.087585
 31
0.0
  0
LINE
  5
157
100
AcDbEntity
  8
ALPHA
100
AcDbLine
 10
123.922121
 20
185.383043
 30
0.0
 11
123.524099
 21
170.18322
 31
0.0
  0
LINE
  5
158
100
AcDbEntity
  8
ALPHA
100
AcDbLine
 10
103.082444
 20
167.583435
 30
0.0
 11
119.662095
 21
167.583435
 31
0.0
  0
LINE
  5
159
100
AcDbEntity
  8
ALPHA
100
AcDbLine
 10
102.863312
 20
168.087585
 30
0.0
 11
103.086838
 21
168.087585
 31
0.0
  0
LINE
  5
15A
100
AcDbEntity
  8
ALPHA
100
AcDbLine
 10
103.069352
 20
166.08345
 30
0.0
 11
119.675187
 21
166.08345
 31
0.0
  0
LINE
  5
15B
100
AcDbEntity
  8
ALPHA
100
AcDbLine
 10
119.657698
 20
168.08757
 30
0.0
 11
119.675188
 21
166.083435
 31
0.0
  0
LINE
  5
15C
100
AcDbEntity
  8
ALPHA
100
AcDbLine
 10
103.069346
 20
166.083427
 30
0.0
 11
103.086834
 21
168.087578
 31
0.0
  0
LINE
  5
15D
100
AcDbEntity
  8
ALPHA
100
AcDbLine
 10
103.605084
 20
166.083427
 30
0.0
 11
104.863717
 21
167.583408
 31
0.0
  0
LINE
  5
15E
100
AcDbEntity
  8
ALPHA
100
AcDbLine
 10
117.880833
 20
167.583424
 30
0.0
 11
119.139475
 21
166.083435
 31
0.0
  0
LINE
  5
15F
100
AcDbEntity
  8
ALPHA
100
AcDbLine
 10
60.969223
 20
166.08345
 30
0.0
 11
77.575058
 21
166.08345
 31
0.0
  0
LINE
  5
160
100
AcDbEntity
  8
ALPHA
100
AcDbLine
 10
75.780693
 20
167.583427
 30
0.0
 11
77.039326
 21
166.08345
 31
0.0
  0
LINE
  5
161
100
AcDbEntity
  8
ALPHA
100
AcDbLine
 10
61.504933
 20
166.083462
 30
0.0
 11
62.763577
 21
167.58345
 31
0.0
  0
LINE
  5
162
100
AcDbEntity
  8
ALPHA
100
AcDbLine
 10
99.847229
 20
185.583221
 30
0.0
 11
99.847229
 21
182.600708
 31
0.0
  0
LINE
  5
163
100
AcDbEntity
  8
ALPHA
100
AcDbLine
 10
101.847229
 20
185.583221
 30
0.0
 11
101.847229
 21
182.600708
 31
0.0
  0
LINE
  5
164
100
AcDbEntity
  8
ALPHA
100
AcDbLine
 10
99.847229
 20
182.600708
 30
0.0
 11
101.847229
 21
182.600708
 31
0.0
  0
LINE
  5
165
100
AcDbEntity
  8
ALPHA
100
AcDbLine
 10
101.847229
 20
185.583221
 30
0.0
 11
112.022156
 21
185.583221
 31
0.0
  0
LINE
  5
166
100
AcDbEntity
  8
ALPHA
100
AcDbLine
 10
78.797181
 20
185.583221
 30
0.0
 11
78.797181
 21
182.600708
 31
0.0
  0
LINE
  5
167
100
AcDbEntity
  8
ALPHA
100
AcDbLine
 10
80.797181
 20
185.583221
 30
0.0
 11
80.797181
 21
182.600708
 31
0.0
  0
LINE
  5
168
100
AcDbEntity
  8
ALPHA
100
AcDbLine
 10
78.797181
 20
182.600708
 30
0.0
 11
80.797181
 21
182.600708
 31
0.0
  0
LINE
  5
169
100
AcDbEntity
  8
ALPHA
100
AcDbLine
 10
80.797181
 20
185.583221
 30
0.0
 11
99.847229
 21
185.583221
 31
0.0
  0
LINE
  5
16A
100
AcDbEntity
  8
ALPHA
100
AcDbLine
 10
57.314888
 20
170.383255
 30
0.0
 11
56.922097
 21
185.38324
 31
0.0
  0
LINE
  5
16B
100
AcDbEntity
  8
ALPHA
100
AcDbLine
 10
123.340369
 20
170.383274
 30
0.0
 11
123.733158
 21
185.383259
 31
0.0
  0
LINE
  5
16C
100
AcDbEntity
  8
ALPHA
100
AcDbLine
 10
55.772095
 20
185.38324
 30
0.0
 11
78.597046
 21
185.38324
 31
0.0
  0
LINE
  5
16D
100
AcDbEntity
  8
ALPHA
100
AcDbLine
 10
57.314866
 20
170.38327
 30
0.0
 11
123.340378
 21
170.38327
 31
0.0
  0
LINE
  5
16E
100
AcDbEntity
  8
ALPHA
100
AcDbLine
 10
78.597046
 20
182.38324
 30
0.0
 11
78.597046
 21
185.38324
 31
0.0
  0
LINE
  5
16F
100
AcDbEntity
  8
ALPHA
100
AcDbLine
 10
80.997055
 20
182.38324
 30
0.0
 11
80.997055
 21
185.38324
 31
0.0
  0
LINE
  5
170
100
AcDbEntity
  8
ALPHA
100
AcDbLine
 10
99.646973
 20
182.38324
 30
0.0
 11
99.646973
 21
185.38324
 31
0.0
  0
LINE
  5
171
100
AcDbEntity
  8
ALPHA
100
AcDbLine
 10
102.046967
 20
182.38324
 30
0.0
 11
102.046967
 21
185.38324
 31
0.0
  0
LINE
  5
172
100
AcDbEntity
  8
ALPHA
100
AcDbLine
 10
78.597046
 20
182.38324
 30
0.0
 11
80.997055
 21
182.38324
 31
0.0
  0
LINE
  5
173
100
AcDbEntity
  8
ALPHA
100
AcDbLine
 10
99.646973
 20
182.38324
 30
0.0
 11
102.046967
 21
182.38324
 31
0.0
  0
LINE
  5
174
100
AcDbEntity
  8
ALPHA
100
AcDbLine
 10
80.997055
 20
185.38324
 30
0.0
 11
99.646973
 21
185.38324
 31
0.0
  0
LINE
  5
175
100
AcDbEntity
  8
ALPHA
100
AcDbLine
 10
102.046967
 20
185.38324
 30
0.0
 11
124.8723
 21
185.38324
 31
0.0
  0
LINE
  5
176
100
AcDbEntity
  8
ALPHA
100
AcDbLine
 10
68.02245
 20
230.597912
 30
0.0
 11
71.023961
 21
230.597912
 31
0.0
  0
LINE
  5
177
100
AcDbEntity
  8
ALPHA
100
AcDbLine
 10
110.122467
 20
230.599121
 30
0.0
 11
111.323731
 21
230.599121
 31
0.0
  0
CIRCLE
  5
178
100
AcDbEntity
  8
ALPHA
100
AcDbCircle
 10
69.272187
 20
177.883255
 30
0.0
 40
4.5
  0
LINE
  5
179
100
AcDbEntity
  8
ALPHA
100
AcDbLine
 10
107.049286
 20
179.133255
 30
0.0
 11
115.695099
 21
179.133255
 31
0.0
  0
LINE
  5
17A
100
AcDbEntity
  8
ALPHA
100
AcDbLine
 10
107.049286
 20
176.633255
 30
0.0
 11
115.695099
 21
176.633255
 31
0.0
  0
CIRCLE
  5
17B
100
AcDbEntity
  8
ALPHA
100
AcDbCircle
 10
111.372193
 20
177.883255
 30
0.0
 40
4.5
  0
CIRCLE
  5
17C
100
AcDbEntity
  8
ALPHA
100
AcDbCircle
 10
90.32219
 20
177.883255
 30
0.0
 40
4.5
  0
LINE
  5
17D
100
AcDbEntity
  8
ALPHA
100
AcDbLine
 10
64.94928
 20
179.133255
 30
0.0
 11
73.595093
 21
179.133255
 31
0.0
  0
LINE
  5
17E
100
AcDbEntity
  8
ALPHA
100
AcDbLine
 10
64.94928
 20
176.633255
 30
0.0
 11
73.595093
 21
176.633255
 31
0.0
  0
LINE
  5
17F
100
AcDbEntity
  8
ALPHA
100
AcDbLine
 10
85.999283
 20
179.133255
 30
0.0
 11
94.645096
 21
179.133255
 31
0.0
  0
LINE
  5
180
100
AcDbEntity
  8
ALPHA
100
AcDbLine
 10
85.999283
 20
176.633255
 30
0.0
 11
94.645096
 21
176.633255
 31
0.0
  0
LINE
  5
181
100
AcDbEntity
  8
ALPHA
100
AcDbLine
 10
62.522446
 20
248.597916
 30
0.0
 11
62.522446
 21
228.0979
 31
0.0
  0
LINE
  5
182
100
AcDbEntity
  8
ALPHA
100
AcDbLine
 10
68.022446
 20
248.597916
 30
0.0
 11
68.022446
 21
222.697835
 31
0.0
  0
LINE
  5
183
100
AcDbEntity
  8
ALPHA
100
AcDbLine
 10
83.572449
 20
248.597916
 30
0.0
 11
83.572449
 21
228.097809
 31
0.0
  0
LINE
  5
184
100
AcDbEntity
  8
ALPHA
100
AcDbLine
 10
89.072449
 20
248.597916
 30
0.0
 11
89.072449
 21
228.097809
 31
0.0
  0
LINE
  5
185
100
AcDbEntity
  8
ALPHA
100
AcDbLine
 10
104.622452
 20
248.5979
 30
0.0
 11
104.622452
 21
222.697827
 31
0.0
  0
LINE
  5
186
100
AcDbEntity
  8
ALPHA
100
AcDbLine
 10
110.122467
 20
248.5979
 30
0.0
 11
110.122467
 21
228.097809
 31
0.0
  0
LINE
  5
187
100
AcDbEntity
  8
ALPHA
100
AcDbLine
 10
62.522438
 20
248.597912
 30
0.0
 11
68.022438
 21
248.597912
 31
0.0
  0
LINE
  5
188
100
AcDbEntity
  8
ALPHA
100
AcDbLine
 10
83.572441
 20
248.597908
 30
0.0
 11
89.072441
 21
248.597908
 31
0.0
  0
LINE
  5
189
100
AcDbEntity
  8
ALPHA
100
AcDbLine
 10
104.622445
 20
248.597904
 30
0.0
 11
110.122467
 21
248.597904
 31
0.0
  0
LINE
  5
18A
100
AcDbEntity
  8
ALPHA
100
AcDbLine
 10
59.682694
 20
228.097898
 30
0.0
 11
66.413502
 21
228.097898
 31
0.0
  0
LINE
  5
18B
100
AcDbEntity
  8
ALPHA
100
AcDbLine
 10
66.554894
 20
222.697853
 30
0.0
 11
66.413487
 21
228.097933
 31
0.0
  0
LINE
  5
18C
100
AcDbEntity
  8
ALPHA
100
AcDbLine
 10
83.311737
 20
228.097809
 30
0.0
 11
90.312912
 21
228.097809
 31
0.0
  0
LINE
  5
18D
100
AcDbEntity
  8
ALPHA
100
AcDbLine
 10
83.170323
 20
222.697835
 30
0.0
 11
83.311722
 21
228.097761
 31
0.0
  0
LINE
  5
18E
100
AcDbEntity
  8
ALPHA
100
AcDbLine
 10
106.164566
 20
228.097809
 30
0.0
 11
111.3629
 21
228.097809
 31
0.0
  0
LINE
  5
18F
100
AcDbEntity
  8
ALPHA
100
AcDbLine
 10
106.023154
 20
222.697838
 30
0.0
 11
106.164555
 21
228.097765
 31
0.0
  0
LINE
  5
190
100
AcDbEntity
  8
ALPHA
100
AcDbLine
 10
84.653485
 20
217.499944
 30
0.0
 11
84.653489
 21
219.049946
 31
0.0
  0
LINE
  5
191
100
AcDbEntity
  8
ALPHA
100
AcDbLine
 10
68.918423
 20
217.499945
 30
0.0
 11
68.918427
 21
219.052817
 31
0.0
  0
LINE
  5
192
100
AcDbEntity
  8
ALPHA
100
AcDbLine
 10
69.918423
 20
216.499949
 30
0.0
 11
83.653489
 21
216.49995
 31
0.0
  0
LINE
  5
193
100
AcDbEntity
  8
ALPHA
100
AcDbLine
 10
69.610321
 20
220.049943
 30
0.0
 11
102.460511
 21
220.049943
 31
0.0
  0
ARC
  5
194
100
AcDbEntity
  8
ALPHA
100
AcDbCircle
 10
83.653492
 20
219.049946
 30
0.0
 40
0.999999
100
AcDbArc
 50
0.0
 51
89.999982
  0
ARC
  5
195
100
AcDbEntity
  8
ALPHA
100
AcDbCircle
 10
83.653492
 20
217.499943
 30
0.0
 40
0.999999
100
AcDbArc
 50
270.000028
 51
0.00001
  0
ARC
  5
196
100
AcDbEntity
  8
ALPHA
100
AcDbCircle
 10
69.918419
 20
217.499943
 30
0.0
 40
0.999999
100
AcDbArc
 50
179.999964
 51
270.000001
  0
ARC
  5
197
100
AcDbEntity
  8
ALPHA
100
AcDbCircle
 10
69.918419
 20
219.049946
 30
0.0
 40
0.999999
100
AcDbArc
 50
89.999982
 51
179.835438
  0
LINE
  5
198
100
AcDbEntity
  8
ALPHA
100
AcDbLine
 10
84.228569
 20
219.526981
 30
0.0
 11
84.228569
 21
217.022918
 31
0.0
  0
LINE
  5
199
100
AcDbEntity
  8
ALPHA
100
AcDbLine
 10
84.276551
 20
219.57495
 30
0.0
 11
84.276551
 21
216.974948
 31
0.0
  0
CIRCLE
  5
19A
100
AcDbEntity
  8
ALPHA
100
AcDbCircle
 10
70.595375
 20
218.274947
 30
0.0
 40
0.978412
  0
LINE
  5
19B
100
AcDbEntity
  8
ALPHA
100
AcDbLine
 10
70.91911
 20
218.689514
 30
0.0
 11
71.248997
 21
218.689514
 31
0.0
  0
ARC
  5
19C
100
AcDbEntity
  8
ALPHA
100
AcDbCircle
 10
70.595375
 20
218.274947
 30
0.0
 40
0.525995
100
AcDbArc
 50
52.013444
 51
59.178507
  0
LINE
  5
19D
100
AcDbEntity
  8
ALPHA
100
AcDbLine
 10
70.719384
 20
218.726654
 30
0.0
 11
70.864876
 21
218.726654
 31
0.0
  0
ARC
  5
19E
100
AcDbEntity
  8
ALPHA
100
AcDbCircle
 10
70.595375
 20
218.274947
 30
0.0
 40
0.525995
100
AcDbArc
 50
120.821511
 51
127.986653
  0
LINE
  5
19F
100
AcDbEntity
  8
ALPHA
100
AcDbLine
 10
69.941754
 20
218.689514
 30
0.0
 11
70.271637
 21
218.689514
 31
0.0
  0
LINE
  5
1A0
100
AcDbEntity
  8
ALPHA
100
AcDbLine
 10
70.325875
 20
218.726654
 30
0.0
 11
70.471367
 21
218.726654
 31
0.0
  0
LINE
  5
1A1
100
AcDbEntity
  8
ALPHA
100
AcDbLine
 10
70.719384
 20
217.730385
 30
0.0
 11
70.756524
 21
217.730385
 31
0.0
  0
LINE
  5
1A2
100
AcDbEntity
  8
ALPHA
100
AcDbLine
 10
70.756524
 20
217.730385
 30
0.0
 11
70.756524
 21
217.500942
 31
0.0
  0
LINE
  5
1A3
100
AcDbEntity
  8
ALPHA
100
AcDbLine
 10
70.434224
 20
217.500942
 30
0.0
 11
70.756524
 21
217.500942
 31
0.0
  0
LINE
  5
1A4
100
AcDbEntity
  8
ALPHA
100
AcDbLine
 10
70.434224
 20
217.730385
 30
0.0
 11
70.434224
 21
217.500942
 31
0.0
  0
LINE
  5
1A5
100
AcDbEntity
  8
ALPHA
100
AcDbLine
 10
70.434224
 20
217.730385
 30
0.0
 11
70.471367
 21
217.730385
 31
0.0
  0
LINE
  5
1A6
100
AcDbEntity
  8
ALPHA
100
AcDbLine
 10
70.471367
 20
217.798084
 30
0.0
 11
70.471367
 21
217.730385
 31
0.0
  0
LINE
  5
1A7
100
AcDbEntity
  8
ALPHA
100
AcDbLine
 10
70.719384
 20
217.798084
 30
0.0
 11
70.719384
 21
217.730385
 31
0.0
  0
LINE
  5
1A8
100
AcDbEntity
  8
ALPHA
100
AcDbLine
 10
70.719384
 20
217.798084
 30
0.0
 11
71.205037
 21
217.798084
 31
0.0
  0
ARC
  5
1A9
100
AcDbEntity
  8
ALPHA
100
AcDbCircle
 10
70.595375
 20
218.274947
 30
0.0
 40
0.774009
100
AcDbArc
 50
321.968205
 51
345.659591
  0
LINE
  5
1AA
100
AcDbEntity
  8
ALPHA
100
AcDbLine
 10
69.985714
 20
217.798084
 30
0.0
 11
70.471367
 21
217.798084
 31
0.0
  0
ARC
  5
1AB
100
AcDbEntity
  8
ALPHA
100
AcDbCircle
 10
70.595375
 20
218.274947
 30
0.0
 40
0.774009
100
AcDbArc
 50
197.197684
 51
218.031728
  0
LINE
  5
1AC
100
AcDbEntity
  8
ALPHA
100
AcDbLine
 10
69.855977
 20
218.046094
 30
0.0
 11
69.932797
 21
218.046094
 31
0.0
  0
ARC
  5
1AD
100
AcDbEntity
  8
ALPHA
100
AcDbCircle
 10
70.595375
 20
218.274947
 30
0.0
 40
0.494845
100
AcDbArc
 50
9.336418
 51
13.726734
  0
ARC
  5
1AE
100
AcDbEntity
  8
ALPHA
100
AcDbCircle
 10
70.595375
 20
218.274947
 30
0.0
 40
0.525995
100
AcDbArc
 50
334.209407
 51
338.625179
  0
LINE
  5
1AF
100
AcDbEntity
  8
ALPHA
100
AcDbLine
 10
71.08519
 20
218.083239
 30
0.0
 11
71.345265
 21
218.083239
 31
0.0
  0
LINE
  5
1B0
100
AcDbEntity
  8
ALPHA
100
AcDbLine
 10
70.719384
 20
218.046094
 30
0.0
 11
71.068974
 21
218.046094
 31
0.0
  0
LINE
  5
1B1
100
AcDbEntity
  8
ALPHA
100
AcDbLine
 10
70.719384
 20
218.392369
 30
0.0
 11
71.076085
 21
218.392369
 31
0.0
  0
LINE
  5
1B2
100
AcDbEntity
  8
ALPHA
100
AcDbLine
 10
70.842797
 20
218.058083
 30
0.0
 11
71.072239
 21
218.058083
 31
0.0
  0
LINE
  5
1B3
100
AcDbEntity
  8
ALPHA
100
AcDbLine
 10
70.842797
 20
218.095226
 30
0.0
 11
70.842797
 21
218.058083
 31
0.0
  0
LINE
  5
1B4
100
AcDbEntity
  8
ALPHA
100
AcDbLine
 10
70.719384
 20
218.095226
 30
0.0
 11
70.842797
 21
218.095226
 31
0.0
  0
LINE
  5
1B5
100
AcDbEntity
  8
ALPHA
100
AcDbLine
 10
70.719384
 20
218.095226
 30
0.0
 11
70.719384
 21
218.046094
 31
0.0
  0
LINE
  5
1B6
100
AcDbEntity
  8
ALPHA
100
AcDbLine
 10
70.180809
 20
218.095226
 30
0.0
 11
70.180809
 21
218.046094
 31
0.0
  0
LINE
  5
1B7
100
AcDbEntity
  8
ALPHA
100
AcDbLine
 10
70.471367
 20
218.095226
 30
0.0
 11
70.471367
 21
218.046094
 31
0.0
  0
LINE
  5
1B8
100
AcDbEntity
  8
ALPHA
100
AcDbLine
 10
70.180809
 20
218.046094
 30
0.0
 11
70.471367
 21
218.046094
 31
0.0
  0
LINE
  5
1B9
100
AcDbEntity
  8
ALPHA
100
AcDbLine
 10
70.180809
 20
218.095226
 30
0.0
 11
70.471367
 21
218.095226
 31
0.0
  0
LINE
  5
1BA
100
AcDbEntity
  8
ALPHA
100
AcDbLine
 10
69.932797
 20
218.392369
 30
0.0
 11
69.932797
 21
218.046094
 31
0.0
  0
LINE
  5
1BB
100
AcDbEntity
  8
ALPHA
100
AcDbLine
 10
69.830326
 20
218.392369
 30
0.0
 11
69.932797
 21
218.392369
 31
0.0
  0
ARC
  5
1BC
100
AcDbEntity
  8
ALPHA
100
AcDbCircle
 10
70.595375
 20
218.274947
 30
0.0
 40
0.774009
100
AcDbArc
 50
151.827128
 51
171.274151
  0
LINE
  5
1BD
100
AcDbEntity
  8
ALPHA
100
AcDbLine
 10
69.913067
 20
218.640381
 30
0.0
 11
70.471367
 21
218.640381
 31
0.0
  0
ARC
  5
1BE
100
AcDbEntity
  8
ALPHA
100
AcDbCircle
 10
70.595375
 20
218.274947
 30
0.0
 40
0.774009
100
AcDbArc
 50
5.95335
 51
28.172922
  0
LINE
  5
1BF
100
AcDbEntity
  8
ALPHA
100
AcDbLine
 10
70.719384
 20
218.640381
 30
0.0
 11
71.277684
 21
218.640381
 31
0.0
  0
LINE
  5
1C0
100
AcDbEntity
  8
ALPHA
100
AcDbLine
 10
71.083664
 20
218.355227
 30
0.0
 11
71.365208
 21
218.355227
 31
0.0
  0
LINE
  5
1C1
100
AcDbEntity
  8
ALPHA
100
AcDbLine
 10
70.719384
 20
218.343241
 30
0.0
 11
70.842797
 21
218.343241
 31
0.0
  0
LINE
  5
1C2
100
AcDbEntity
  8
ALPHA
100
AcDbLine
 10
70.842797
 20
218.380383
 30
0.0
 11
70.842797
 21
218.343241
 31
0.0
  0
LINE
  5
1C3
100
AcDbEntity
  8
ALPHA
100
AcDbLine
 10
71.072239
 20
218.380383
 30
0.0
 11
71.072239
 21
218.058083
 31
0.0
  0
LINE
  5
1C4
100
AcDbEntity
  8
ALPHA
100
AcDbLine
 10
70.842797
 20
218.380383
 30
0.0
 11
71.072239
 21
218.380383
 31
0.0
  0
LINE
  5
1C5
100
AcDbEntity
  8
ALPHA
100
AcDbLine
 10
70.719384
 20
218.392369
 30
0.0
 11
70.719384
 21
218.343241
 31
0.0
  0
LINE
  5
1C6
100
AcDbEntity
  8
ALPHA
100
AcDbLine
 10
70.719384
 20
218.726654
 30
0.0
 11
70.719384
 21
218.640381
 31
0.0
  0
LINE
  5
1C7
100
AcDbEntity
  8
ALPHA
100
AcDbLine
 10
70.471367
 20
218.726654
 30
0.0
 11
70.471367
 21
218.640381
 31
0.0
  0
LINE
  5
1C8
100
AcDbEntity
  8
ALPHA
100
AcDbLine
 10
70.180809
 20
218.392369
 30
0.0
 11
70.180809
 21
218.343241
 31
0.0
  0
LINE
  5
1C9
100
AcDbEntity
  8
ALPHA
100
AcDbLine
 10
70.471367
 20
218.392369
 30
0.0
 11
70.471367
 21
218.343241
 31
0.0
  0
LINE
  5
1CA
100
AcDbEntity
  8
ALPHA
100
AcDbLine
 10
70.180809
 20
218.343241
 30
0.0
 11
70.471367
 21
218.343241
 31
0.0
  0
LINE
  5
1CB
100
AcDbEntity
  8
ALPHA
100
AcDbLine
 10
70.180809
 20
218.392369
 30
0.0
 11
70.471367
 21
218.392369
 31
0.0
  0
ARC
  5
1CC
100
AcDbEntity
  8
ALPHA
100
AcDbCircle
 10
70.595375
 20
218.274947
 30
0.0
 40
0.774009
100
AcDbArc
 50
115.308019
 51
147.614868
  0
LINE
  5
1CD
100
AcDbEntity
  8
ALPHA
100
AcDbLine
 10
70.2645
 20
218.97467
 30
0.0
 11
70.926251
 21
218.97467
 31
0.0
  0
ARC
  5
1CE
100
AcDbEntity
  8
ALPHA
100
AcDbCircle
 10
70.595375
 20
218.274947
 30
0.0
 40
0.774009
100
AcDbArc
 50
32.38514
 51
64.692055
  0
CIRCLE
  5
1CF
100
AcDbEntity
  8
ALPHA
100
AcDbCircle
 10
70.595375
 20
218.274947
 30
0.0
 40
0.795281
  0
LINE
  5
1D0
100
AcDbEntity
  8
ALPHA
100
AcDbLine
 10
69.295372
 20
216.974948
 30
0.0
 11
69.295372
 21
219.57495
 31
0.0
  0
LINE
  5
1D1
100
AcDbEntity
  8
ALPHA
100
AcDbLine
 10
71.895375
 20
219.526981
 30
0.0
 11
71.895375
 21
217.022918
 31
0.0
  0
LINE
  5
1D2
100
AcDbEntity
  8
ALPHA
100
AcDbLine
 10
69.295372
 20
219.57495
 30
0.0
 11
84.276551
 21
219.57495
 31
0.0
  0
LINE
  5
1D3
100
AcDbEntity
  8
ALPHA
100
AcDbLine
 10
69.295372
 20
216.974948
 30
0.0
 11
84.276551
 21
216.974948
 31
0.0
  0
LINE
  5
1D4
100
AcDbEntity
  8
ALPHA
100
AcDbLine
 10
71.895375
 20
217.022918
 30
0.0
 11
84.228569
 21
217.022918
 31
0.0
  0
LINE
  5
1D5
100
AcDbEntity
  8
ALPHA
100
AcDbLine
 10
71.895375
 20
219.526981
 30
0.0
 11
84.228569
 21
219.526981
 31
0.0
  0
LINE
  5
1D6
100
AcDbEntity
  8
ALPHA
100
AcDbLine
 10
83.707173
 20
218.076398
 30
0.0
 11
83.868843
 21
218.076398
 31
0.0
  0
LWPOLYLINE
  5
1D7
100
AcDbEntity
  8
ALPHA
100
AcDbPolyline
 90
        9
 70
     0
 43
0.0
 10
83.247577
 20
218.200999
 10
83.271739
 20
218.137266
 10
83.313523
 20
218.081824
 10
83.369879
 20
218.03872
 10
83.436692
 20
218.0111
 10
83.509085
 20
218.000981
 10
83.581774
 20
218.009101
 10
83.649452
 20
218.034867
 10
83.707179
 20
218.0764
  0
LINE
  5
1E2
100
AcDbEntity
  8
ALPHA
100
AcDbLine
 10
83.247582
 20
218.200998
 30
0.0
 11
83.917183
 21
218.200998
 31
0.0
  0
LINE
  5
1E3
100
AcDbEntity
  8
ALPHA
100
AcDbLine
 10
83.247582
 20
218.300676
 30
0.0
 11
83.778698
 21
218.300676
 31
0.0
  0
LWPOLYLINE
  5
1E4
100
AcDbEntity
  8
ALPHA
100
AcDbPolyline
 90
        9
 70
     0
 43
0.0
 10
83.778692
 20
218.300678
 10
83.745115
 20
218.380019
 10
83.68459
 20
218.444354
 10
83.604149
 20
218.48621
 10
83.513134
 20
218.500724
 10
83.42212
 20
218.48621
 10
83.341678
 20
218.444354
 10
83.281154
 20
218.380019
 10
83.247577
 20
218.300678
  0
LWPOLYLINE
  5
1EF
100
AcDbEntity
  8
ALPHA
100
AcDbPolyline
 90
       10
 70
     0
 43
0.0
 10
83.917177
 20
218.200998
 10
83.867994
 20
218.426586
 10
83.671138
 20
218.579038
 10
83.408531
 20
218.594912
 10
83.189453
 20
218.467601
 10
83.105073
 20
218.250086
 10
83.190506
 20
218.032884
 10
83.410198
 20
217.906382
 10
83.672726
 20
217.923224
 10
83.868842
 20
218.076399
  0
LINE
  5
1FB
100
AcDbEntity
  8
ALPHA
100
AcDbLine
 10
82.765511
 20
217.917535
 30
0.0
 11
82.765511
 21
218.07147
 31
0.0
  0
LINE
  5
1FC
100
AcDbEntity
  8
ALPHA
100
AcDbLine
 10
82.93372
 20
217.917535
 30
0.0
 11
82.7655
 21
217.917535
 31
0.0
  0
LINE
  5
1FD
100
AcDbEntity
  8
ALPHA
100
AcDbLine
 10
82.93372
 20
217.917535
 30
0.0
 11
82.93372
 21
218.584121
 31
0.0
  0
LINE
  5
1FE
100
AcDbEntity
  8
ALPHA
100
AcDbLine
 10
82.93372
 20
218.584126
 30
0.0
 11
82.7655
 21
218.584126
 31
0.0
  0
LINE
  5
1FF
100
AcDbEntity
  8
ALPHA
100
AcDbLine
 10
82.765511
 20
218.200842
 30
0.0
 11
82.765511
 21
218.584121
 31
0.0
  0
ARC
  5
200
100
AcDbEntity
  8
ALPHA
100
AcDbCircle
 10
82.584904
 20
218.200844
 30
0.0
 40
0.180668
100
AcDbArc
 50
296.387999
 51
359.999955
  0
ARC
  5
201
100
AcDbEntity
  8
ALPHA
100
AcDbCircle
 10
82.52884
 20
218.14934
 30
0.0
 40
0.249198
100
AcDbArc
 50
281.537256
 51
341.791545
  0
ARC
  5
202
100
AcDbEntity
  8
ALPHA
100
AcDbCircle
 10
82.535042
 20
218.301299
 30
0.0
 40
0.292808
100
AcDbArc
 50
243.610253
 51
296.38789
  0
ARC
  5
203
100
AcDbEntity
  8
ALPHA
100
AcDbCircle
 10
82.485207
 20
218.200846
 30
0.0
 40
0.180668
100
AcDbArc
 50
179.999964
 51
243.610062
  0
ARC
  5
204
100
AcDbEntity
  8
ALPHA
100
AcDbCircle
 10
82.47897
 20
218.393503
 30
0.0
 40
0.498396
100
AcDbArc
 50
243.612221
 51
281.537092
  0
ARC
  5
205
100
AcDbEntity
  8
ALPHA
100
AcDbCircle
 10
82.354397
 20
218.142365
 30
0.0
 40
0.218048
100
AcDbArc
 50
179.999964
 51
243.612357
  0
LINE
  5
206
100
AcDbEntity
  8
ALPHA
100
AcDbLine
 10
82.304486
 20
218.200842
 30
0.0
 11
82.304486
 21
218.584121
 31
0.0
  0
LINE
  5
207
100
AcDbEntity
  8
ALPHA
100
AcDbLine
 10
82.136307
 20
218.142363
 30
0.0
 11
82.136307
 21
218.584121
 31
0.0
  0
LINE
  5
208
100
AcDbEntity
  8
ALPHA
100
AcDbLine
 10
82.304486
 20
218.584126
 30
0.0
 11
82.136292
 21
218.584126
 31
0.0
  0
LINE
  5
209
100
AcDbEntity
  8
ALPHA
100
AcDbLine
 10
81.743874
 20
217.976612
 30
0.0
 11
81.743874
 21
217.609778
 31
0.0
  0
LINE
  5
20A
100
AcDbEntity
  8
ALPHA
100
AcDbLine
 10
81.743874
 20
217.609778
 30
0.0
 11
81.912087
 21
217.609778
 31
0.0
  0
LINE
  5
20B
100
AcDbEntity
  8
ALPHA
100
AcDbLine
 10
81.743874
 20
218.584141
 30
0.0
 11
81.743874
 21
218.525063
 31
0.0
  0
LINE
  5
20C
100
AcDbEntity
  8
ALPHA
100
AcDbLine
 10
81.912087
 20
218.584141
 30
0.0
 11
81.912087
 21
217.609778
 31
0.0
  0
LINE
  5
20D
100
AcDbEntity
  8
ALPHA
100
AcDbLine
 10
81.743874
 20
218.584141
 30
0.0
 11
81.912087
 21
218.584141
 31
0.0
  0
CIRCLE
  5
20E
100
AcDbEntity
  8
ALPHA
100
AcDbCircle
 10
81.487202
 20
218.250838
 30
0.0
 40
0.253559
  0
LWPOLYLINE
  5
20F
100
AcDbEntity
  8
ALPHA
100
AcDbPolyline
 90
        9
 70
     0
 43
0.0
 10
81.743876
 20
218.525063
 10
81.537473
 20
218.603717
 10
81.315429
 20
218.572582
 10
81.146827
 20
218.441346
 10
81.084124
 20
218.250838
 10
81.146828
 20
218.060331
 10
81.315429
 20
217.929094
 10
81.537473
 20
217.897959
 10
81.743876
 20
217.976613
  0
LINE
  5
21A
100
AcDbEntity
  8
ALPHA
100
AcDbLine
 10
80.9128
 20
218.831467
 30
0.0
 11
80.9128
 21
218.716213
 31
0.0
  0
LINE
  5
21B
100
AcDbEntity
  8
ALPHA
100
AcDbLine
 10
80.744591
 20
218.831467
 30
0.0
 11
80.744591
 21
218.716213
 31
0.0
  0
LINE
  5
21C
100
AcDbEntity
  8
ALPHA
100
AcDbLine
 10
80.744591
 20
218.831467
 30
0.0
 11
80.9128
 21
218.831467
 31
0.0
  0
LINE
  5
21D
100
AcDbEntity
  8
ALPHA
100
AcDbLine
 10
80.744591
 20
218.716213
 30
0.0
 11
80.9128
 21
218.716213
 31
0.0
  0
LINE
  5
21E
100
AcDbEntity
  8
ALPHA
100
AcDbLine
 10
80.744591
 20
217.917536
 30
0.0
 11
80.9128
 21
217.917536
 31
0.0
  0
LINE
  5
21F
100
AcDbEntity
  8
ALPHA
100
AcDbLine
 10
80.9128
 20
218.584141
 30
0.0
 11
80.9128
 21
217.917536
 31
0.0
  0
LINE
  5
220
100
AcDbEntity
  8
ALPHA
100
AcDbLine
 10
80.744591
 20
218.584141
 30
0.0
 11
80.9128
 21
218.584141
 31
0.0
  0
LINE
  5
221
100
AcDbEntity
  8
ALPHA
100
AcDbLine
 10
80.744591
 20
218.584141
 30
0.0
 11
80.744591
 21
217.917536
 31
0.0
  0
ARC
  5
222
100
AcDbEntity
  8
ALPHA
100
AcDbCircle
 10
80.115364
 20
218.200375
 30
0.0
 40
0.292808
100
AcDbArc
 50
63.612338
 51
116.387953
  0
ARC
  5
223
100
AcDbEntity
  8
ALPHA
100
AcDbCircle
 10
80.1652
 20
218.300831
 30
0.0
 40
0.180668
100
AcDbArc
 50
0.0
 51
63.612502
  0
LINE
  5
224
100
AcDbEntity
  8
ALPHA
100
AcDbLine
 10
80.345868
 20
218.300831
 30
0.0
 11
80.345868
 21
217.917536
 31
0.0
  0
LINE
  5
225
100
AcDbEntity
  8
ALPHA
100
AcDbLine
 10
80.345868
 20
217.917536
 30
0.0
 11
80.514084
 21
217.917536
 31
0.0
  0
LINE
  5
226
100
AcDbEntity
  8
ALPHA
100
AcDbLine
 10
80.514084
 20
218.35931
 30
0.0
 11
80.514084
 21
217.917536
 31
0.0
  0
ARC
  5
227
100
AcDbEntity
  8
ALPHA
100
AcDbCircle
 10
80.296029
 20
218.35931
 30
0.0
 40
0.218048
100
AcDbArc
 50
0.0
 51
63.612393
  0
ARC
  5
228
100
AcDbEntity
  8
ALPHA
100
AcDbCircle
 10
80.171433
 20
218.108171
 30
0.0
 40
0.498396
100
AcDbArc
 50
63.612284
 51
101.537155
  0
ARC
  5
229
100
AcDbEntity
  8
ALPHA
100
AcDbCircle
 10
80.121594
 20
218.352337
 30
0.0
 40
0.249198
100
AcDbArc
 50
101.537319
 51
161.805105
  0
LINE
  5
22A
100
AcDbEntity
  8
ALPHA
100
AcDbLine
 10
79.884858
 20
218.584141
 30
0.0
 11
79.884858
 21
218.430149
 31
0.0
  0
ARC
  5
22B
100
AcDbEntity
  8
ALPHA
100
AcDbCircle
 10
80.065522
 20
218.300831
 30
0.0
 40
0.180668
100
AcDbArc
 50
116.388063
 51
180.000019
  0
LINE
  5
22C
100
AcDbEntity
  8
ALPHA
100
AcDbLine
 10
79.884858
 20
218.300831
 30
0.0
 11
79.884858
 21
217.917536
 31
0.0
  0
LINE
  5
22D
100
AcDbEntity
  8
ALPHA
100
AcDbLine
 10
79.716641
 20
218.584141
 30
0.0
 11
79.884858
 21
218.584141
 31
0.0
  0
LINE
  5
22E
100
AcDbEntity
  8
ALPHA
100
AcDbLine
 10
79.716641
 20
217.917536
 30
0.0
 11
79.884858
 21
217.917536
 31
0.0
  0
LINE
  5
22F
100
AcDbEntity
  8
ALPHA
100
AcDbLine
 10
79.716641
 20
218.584141
 30
0.0
 11
79.716641
 21
217.917536
 31
0.0
  0
LINE
  5
230
100
AcDbEntity
  8
ALPHA
100
AcDbLine
 10
79.249825
 20
218.23375
 30
0.0
 11
79.317913
 21
218.301838
 31
0.0
  0
ARC
  5
231
100
AcDbEntity
  8
ALPHA
100
AcDbCircle
 10
79.205788
 20
218.277794
 30
0.0
 40
0.062299
100
AcDbArc
 50
285.82656
 51
316.283193
  0
ARC
  5
232
100
AcDbEntity
  8
ALPHA
100
AcDbCircle
 10
79.028237
 20
218.462654
 30
0.0
 40
0.467246
100
AcDbArc
 50
254.119838
 51
308.316132
  0
ARC
  5
233
100
AcDbEntity
  8
ALPHA
100
AcDbCircle
 10
78.925442
 20
218.101317
 30
0.0
 40
0.091572
100
AcDbArc
 50
120.410334
 51
254.119866
  0
ARC
  5
234
100
AcDbEntity
  8
ALPHA
100
AcDbCircle
 10
79.009549
 20
217.490788
 30
0.0
 40
0.716445
100
AcDbArc
 50
84.72112
 51
93.88248
  0
ARC
  5
235
100
AcDbEntity
  8
ALPHA
100
AcDbCircle
 10
78.97369
 20
218.019115
 30
0.0
 40
0.186898
100
AcDbArc
 50
93.88248
 51
120.410388
  0
ARC
  5
236
100
AcDbEntity
  8
ALPHA
100
AcDbCircle
 10
79.112339
 20
218.607454
 30
0.0
 40
0.404947
100
AcDbArc
 50
264.710074
 51
285.826669
  0
LINE
  5
237
100
AcDbEntity
  8
ALPHA
100
AcDbLine
 10
79.317925
 20
218.30183
 30
0.0
 11
79.317925
 21
218.096054
 31
0.0
  0
ARC
  5
238
100
AcDbEntity
  8
ALPHA
100
AcDbCircle
 10
79.112339
 20
218.137677
 30
0.0
 40
0.218048
100
AcDbArc
 50
289.783206
 51
340.537031
  0
ARC
  5
239
100
AcDbEntity
  8
ALPHA
100
AcDbCircle
 10
78.975281
 20
218.518726
 30
0.0
 40
0.622995
100
AcDbArc
 50
258.372478
 51
289.783206
  0
ARC
  5
23A
100
AcDbEntity
  8
ALPHA
100
AcDbCircle
 10
78.899945
 20
218.152599
 30
0.0
 40
0.249198
100
AcDbArc
 50
226.313305
 51
258.372478
  0
ARC
  5
23B
100
AcDbEntity
  8
ALPHA
100
AcDbCircle
 10
78.889595
 20
218.054512
 30
0.0
 40
0.249198
100
AcDbArc
 50
102.15832
 51
121.643156
  0
ARC
  5
23C
100
AcDbEntity
  8
ALPHA
100
AcDbCircle
 10
78.856911
 20
218.107549
 30
0.0
 40
0.186898
100
AcDbArc
 50
121.643156
 51
226.313291
  0
ARC
  5
23D
100
AcDbEntity
  8
ALPHA
100
AcDbCircle
 10
78.975281
 20
217.658736
 30
0.0
 40
0.654145
100
AcDbArc
 50
83.312899
 51
102.239517
  0
ARC
  5
23E
100
AcDbEntity
  8
ALPHA
100
AcDbCircle
 10
79.217629
 20
218.43512
 30
0.0
 40
0.124599
100
AcDbArc
 50
278.885175
 51
298.679555
  0
ARC
  5
23F
100
AcDbEntity
  8
ALPHA
100
AcDbCircle
 10
79.131028
 20
218.989084
 30
0.0
 40
0.685295
100
AcDbArc
 50
263.312453
 51
278.890038
  0
ARC
  5
240
100
AcDbEntity
  8
ALPHA
100
AcDbCircle
 10
79.240052
 20
218.394129
 30
0.0
 40
0.077874
100
AcDbArc
 50
298.679555
 51
55.411832
  0
ARC
  5
241
100
AcDbEntity
  8
ALPHA
100
AcDbCircle
 10
79.160481
 20
218.278727
 30
0.0
 40
0.218048
100
AcDbArc
 50
55.411802
 51
70.423403
  0
ARC
  5
242
100
AcDbEntity
  8
ALPHA
100
AcDbCircle
 10
79.087418
 20
218.073284
 30
0.0
 40
0.436097
100
AcDbArc
 50
70.423403
 51
109.639945
  0
ARC
  5
243
100
AcDbEntity
  8
ALPHA
100
AcDbCircle
 10
79.003663
 20
218.307983
 30
0.0
 40
0.186898
100
AcDbArc
 50
109.639945
 51
134.180924
  0
ARC
  5
244
100
AcDbEntity
  8
ALPHA
100
AcDbCircle
 10
78.947243
 20
218.366089
 30
0.0
 40
0.105909
100
AcDbArc
 50
134.09918
 51
162.895586
  0
ARC
  5
245
100
AcDbEntity
  8
ALPHA
100
AcDbCircle
 10
78.888062
 20
218.366089
 30
0.0
 40
0.186898
100
AcDbArc
 50
123.565335
 51
170.405952
  0
LINE
  5
246
100
AcDbEntity
  8
ALPHA
100
AcDbLine
 10
78.703782
 20
218.39724
 30
0.0
 11
78.84602
 21
218.39724
 31
0.0
  0
ARC
  5
247
100
AcDbEntity
  8
ALPHA
100
AcDbCircle
 10
78.991394
 20
218.210357
 30
0.0
 40
0.373797
100
AcDbArc
 50
101.469509
 51
123.565335
  0
ARC
  5
248
100
AcDbEntity
  8
ALPHA
100
AcDbCircle
 10
79.084305
 20
217.752445
 30
0.0
 40
0.841041
100
AcDbArc
 50
72.842656
 51
101.469509
  0
ARC
  5
249
100
AcDbEntity
  8
ALPHA
100
AcDbCircle
 10
79.268086
 20
218.347712
 30
0.0
 40
0.218048
100
AcDbArc
 50
0.0
 51
72.842656
  0
LINE
  5
24A
100
AcDbEntity
  8
ALPHA
100
AcDbLine
 10
79.317925
 20
218.065025
 30
0.0
 11
79.317925
 21
217.917536
 31
0.0
  0
LINE
  5
24B
100
AcDbEntity
  8
ALPHA
100
AcDbLine
 10
79.317925
 20
217.917536
 30
0.0
 11
79.486134
 21
217.917536
 31
0.0
  0
LINE
  5
24C
100
AcDbEntity
  8
ALPHA
100
AcDbLine
 10
79.486134
 20
218.347712
 30
0.0
 11
79.486134
 21
217.917536
 31
0.0
  0
LINE
  5
24D
100
AcDbEntity
  8
ALPHA
100
AcDbLine
 10
78.314858
 20
218.137451
 30
0.0
 11
78.486782
 21
218.137451
 31
0.0
  0
LINE
  5
24E
100
AcDbEntity
  8
ALPHA
100
AcDbLine
 10
78.314858
 20
218.364222
 30
0.0
 11
78.486782
 21
218.364222
 31
0.0
  0
ARC
  5
24F
100
AcDbEntity
  8
ALPHA
100
AcDbCircle
 10
78.099972
 20
218.250838
 30
0.0
 40
0.242968
100
AcDbArc
 50
27.818285
 51
332.181715
  0
LWPOLYLINE
  5
250
100
AcDbEntity
  8
ALPHA
100
AcDbPolyline
 90
        9
 70
     0
 43
0.0
 10
78.48678
 20
218.364224
 10
78.310564
 20
218.555739
 10
78.03412
 20
218.60214
 10
77.789017
 20
218.481342
 10
77.69191
 20
218.250838
 10
77.789017
 20
218.020334
 10
78.03412
 20
217.899536
 10
78.310564
 20
217.945937
 10
78.48678
 20
218.137453
  0
LINE
  5
25B
100
AcDbEntity
  8
ALPHA
100
AcDbLine
 10
77.322144
 20
218.076398
 30
0.0
 11
77.483807
 21
218.076398
 31
0.0
  0
LINE
  5
25C
100
AcDbEntity
  8
ALPHA
100
AcDbLine
 10
76.862542
 20
218.300676
 30
0.0
 11
77.393654
 21
218.300676
 31
0.0
  0
LINE
  5
25D
100
AcDbEntity
  8
ALPHA
100
AcDbLine
 10
76.862542
 20
218.200998
 30
0.0
 11
77.532143
 21
218.200998
 31
0.0
  0
LWPOLYLINE
  5
25E
100
AcDbEntity
  8
ALPHA
100
AcDbPolyline
 90
        9
 70
     0
 43
0.0
 10
76.862544
 20
218.200999
 10
76.886707
 20
218.137266
 10
76.928491
 20
218.081824
 10
76.984846
 20
218.03872
 10
77.051659
 20
218.0111
 10
77.124052
 20
218.000981
 10
77.196741
 20
218.009101
 10
77.264419
 20
218.034867
 10
77.322146
 20
218.0764
  0
LWPOLYLINE
  5
269
100
AcDbEntity
  8
ALPHA
100
AcDbPolyline
 90
        9
 70
     0
 43
0.0
 10
77.39366
 20
218.300678
 10
77.360083
 20
218.380019
 10
77.299558
 20
218.444354
 10
77.219116
 20
218.48621
 10
77.128102
 20
218.500724
 10
77.037088
 20
218.48621
 10
76.956646
 20
218.444354
 10
76.896121
 20
218.380019
 10
76.862544
 20
218.300678
  0
LWPOLYLINE
  5
274
100
AcDbEntity
  8
ALPHA
100
AcDbPolyline
 90
       10
 70
     0
 43
0.0
 10
77.532144
 20
218.200998
 10
77.482961
 20
218.426586
 10
77.286106
 20
218.579038
 10
77.023498
 20
218.594912
 10
76.80442
 20
218.467601
 10
76.720041
 20
218.250086
 10
76.805473
 20
218.032884
 10
77.025165
 20
217.906382
 10
77.287694
 20
217.923224
 10
77.483809
 20
218.076399
  0
LINE
  5
280
100
AcDbEntity
  8
ALPHA
100
AcDbLine
 10
75.365025
 20
218.584141
 30
0.0
 11
75.365025
 21
218.507787
 31
0.0
  0
ARC
  5
281
100
AcDbEntity
  8
ALPHA
100
AcDbCircle
 10
75.676522
 20
218.32083
 30
0.0
 40
0.280348
100
AcDbArc
 50
30.405103
 51
69.512638
  0
ARC
  5
282
100
AcDbEntity
  8
ALPHA
100
AcDbCircle
 10
75.632912
 20
218.204113
 30
0.0
 40
0.404947
100
AcDbArc
 50
69.512638
 51
131.41732
  0
ARC
  5
283
100
AcDbEntity
  8
ALPHA
100
AcDbCircle
 10
76.118847
 20
218.377098
 30
0.0
 40
0.218048
100
AcDbArc
 50
108.12643
 51
156.879828
  0
ARC
  5
284
100
AcDbEntity
  8
ALPHA
100
AcDbCircle
 10
76.20607
 20
218.110662
 30
0.0
 40
0.498396
100
AcDbArc
 50
63.612284
 51
108.126375
  0
ARC
  5
285
100
AcDbEntity
  8
ALPHA
100
AcDbCircle
 10
76.330662
 20
218.3618
 30
0.0
 40
0.218048
100
AcDbArc
 50
0.0
 51
63.612393
  0
LINE
  5
286
100
AcDbEntity
  8
ALPHA
100
AcDbLine
 10
76.548714
 20
218.3618
 30
0.0
 11
76.548714
 21
217.917536
 31
0.0
  0
LINE
  5
287
100
AcDbEntity
  8
ALPHA
100
AcDbLine
 10
76.380509
 20
217.917536
 30
0.0
 11
76.548714
 21
217.917536
 31
0.0
  0
LINE
  5
288
100
AcDbEntity
  8
ALPHA
100
AcDbLine
 10
76.380509
 20
218.311546
 30
0.0
 11
76.380509
 21
217.917536
 31
0.0
  0
ARC
  5
289
100
AcDbEntity
  8
ALPHA
100
AcDbCircle
 10
76.199833
 20
218.311546
 30
0.0
 40
0.180668
100
AcDbArc
 50
0.0
 51
51.317759
  0
ARC
  5
28A
100
AcDbEntity
  8
ALPHA
100
AcDbCircle
 10
76.168686
 20
218.272643
 30
0.0
 40
0.230508
100
AcDbArc
 50
51.317783
 51
128.682567
  0
ARC
  5
28B
100
AcDbEntity
  8
ALPHA
100
AcDbCircle
 10
76.137535
 20
218.311546
 30
0.0
 40
0.180668
100
AcDbArc
 50
128.682676
 51
180.000019
  0
LINE
  5
28C
100
AcDbEntity
  8
ALPHA
100
AcDbLine
 10
75.956871
 20
218.311546
 30
0.0
 11
75.956871
 21
217.917536
 31
0.0
  0
LINE
  5
28D
100
AcDbEntity
  8
ALPHA
100
AcDbLine
 10
75.788659
 20
217.917536
 30
0.0
 11
75.956871
 21
217.917536
 31
0.0
  0
LINE
  5
28E
100
AcDbEntity
  8
ALPHA
100
AcDbLine
 10
75.788659
 20
218.311546
 30
0.0
 11
75.788659
 21
217.917536
 31
0.0
  0
ARC
  5
28F
100
AcDbEntity
  8
ALPHA
100
AcDbCircle
 10
75.607991
 20
218.311546
 30
0.0
 40
0.180668
100
AcDbArc
 50
0.0
 51
51.317759
  0
ARC
  5
290
100
AcDbEntity
  8
ALPHA
100
AcDbCircle
 10
75.576844
 20
218.272643
 30
0.0
 40
0.230508
100
AcDbArc
 50
51.317783
 51
128.682567
  0
ARC
  5
291
100
AcDbEntity
  8
ALPHA
100
AcDbCircle
 10
75.545689
 20
218.311546
 30
0.0
 40
0.180668
100
AcDbArc
 50
128.682676
 51
180.000019
  0
LINE
  5
292
100
AcDbEntity
  8
ALPHA
100
AcDbLine
 10
75.365025
 20
218.311546
 30
0.0
 11
75.365025
 21
217.917536
 31
0.0
  0
LINE
  5
293
100
AcDbEntity
  8
ALPHA
100
AcDbLine
 10
75.196812
 20
217.917536
 30
0.0
 11
75.365025
 21
217.917536
 31
0.0
  0
LINE
  5
294
100
AcDbEntity
  8
ALPHA
100
AcDbLine
 10
75.196812
 20
218.584141
 30
0.0
 11
75.365025
 21
218.584141
 31
0.0
  0
LINE
  5
295
100
AcDbEntity
  8
ALPHA
100
AcDbLine
 10
75.196812
 20
218.584141
 30
0.0
 11
75.196812
 21
217.917536
 31
0.0
  0
LINE
  5
296
100
AcDbEntity
  8
ALPHA
100
AcDbLine
 10
74.81147
 20
218.076398
 30
0.0
 11
74.973133
 21
218.076398
 31
0.0
  0
LINE
  5
297
100
AcDbEntity
  8
ALPHA
100
AcDbLine
 10
74.351868
 20
218.300676
 30
0.0
 11
74.882985
 21
218.300676
 31
0.0
  0
LINE
  5
298
100
AcDbEntity
  8
ALPHA
100
AcDbLine
 10
74.351868
 20
218.200998
 30
0.0
 11
75.021466
 21
218.200998
 31
0.0
  0
LWPOLYLINE
  5
299
100
AcDbEntity
  8
ALPHA
100
AcDbPolyline
 90
        9
 70
     0
 43
0.0
 10
74.351867
 20
218.200999
 10
74.376029
 20
218.137266
 10
74.417813
 20
218.081824
 10
74.474169
 20
218.03872
 10
74.540982
 20
218.0111
 10
74.613375
 20
218.000981
 10
74.686064
 20
218.009101
 10
74.753742
 20
218.034867
 10
74.811469
 20
218.0764
  0
LWPOLYLINE
  5
2A4
100
AcDbEntity
  8
ALPHA
100
AcDbPolyline
 90
        9
 70
     0
 43
0.0
 10
74.882982
 20
218.300678
 10
74.849405
 20
218.380019
 10
74.78888
 20
218.444354
 10
74.708439
 20
218.48621
 10
74.617424
 20
218.500724
 10
74.52641
 20
218.48621
 10
74.445968
 20
218.444354
 10
74.385444
 20
218.380019
 10
74.351867
 20
218.300678
  0
LWPOLYLINE
  5
2AF
100
AcDbEntity
  8
ALPHA
100
AcDbPolyline
 90
       10
 70
     0
 43
0.0
 10
75.021467
 20
218.200998
 10
74.972284
 20
218.426586
 10
74.775428
 20
218.579038
 10
74.512821
 20
218.594912
 10
74.293743
 20
218.467601
 10
74.209363
 20
218.250086
 10
74.294796
 20
218.032884
 10
74.514488
 20
217.906382
 10
74.777016
 20
217.923224
 10
74.973132
 20
218.076399
  0
LINE
  5
2BB
100
AcDbEntity
  8
ALPHA
100
AcDbLine
 10
73.869835
 20
217.917536
 30
0.0
 11
74.038044
 21
217.917536
 31
0.0
  0
LINE
  5
2BC
100
AcDbEntity
  8
ALPHA
100
AcDbLine
 10
74.038044
 20
218.814651
 30
0.0
 11
74.038044
 21
217.917536
 31
0.0
  0
LINE
  5
2BD
100
AcDbEntity
  8
ALPHA
100
AcDbLine
 10
73.869835
 20
218.814651
 30
0.0
 11
74.038044
 21
218.814651
 31
0.0
  0
LINE
  5
2BE
100
AcDbEntity
  8
ALPHA
100
AcDbLine
 10
73.869835
 20
218.814651
 30
0.0
 11
73.869835
 21
217.917536
 31
0.0
  0
LINE
  5
2BF
100
AcDbEntity
  8
ALPHA
100
AcDbLine
 10
73.48449
 20
218.076398
 30
0.0
 11
73.646153
 21
218.076398
 31
0.0
  0
LINE
  5
2C0
100
AcDbEntity
  8
ALPHA
100
AcDbLine
 10
73.024887
 20
218.200998
 30
0.0
 11
73.694489
 21
218.200998
 31
0.0
  0
LINE
  5
2C1
100
AcDbEntity
  8
ALPHA
100
AcDbLine
 10
73.024887
 20
218.300676
 30
0.0
 11
73.556
 21
218.300676
 31
0.0
  0
LWPOLYLINE
  5
2C2
100
AcDbEntity
  8
ALPHA
100
AcDbPolyline
 90
        9
 70
     0
 43
0.0
 10
73.02489
 20
218.200999
 10
73.049052
 20
218.137266
 10
73.090837
 20
218.081824
 10
73.147192
 20
218.03872
 10
73.214005
 20
218.0111
 10
73.286398
 20
218.000981
 10
73.359087
 20
218.009101
 10
73.426765
 20
218.034867
 10
73.484492
 20
218.0764
  0
LWPOLYLINE
  5
2CD
100
AcDbEntity
  8
ALPHA
100
AcDbPolyline
 90
        9
 70
     0
 43
0.0
 10
73.556005
 20
218.300678
 10
73.522428
 20
218.380019
 10
73.461904
 20
218.444354
 10
73.381462
 20
218.48621
 10
73.290448
 20
218.500724
 10
73.199433
 20
218.48621
 10
73.118992
 20
218.444354
 10
73.058467
 20
218.380019
 10
73.02489
 20
218.300678
  0
LWPOLYLINE
  5
2D8
100
AcDbEntity
  8
ALPHA
100
AcDbPolyline
 90
       10
 70
     0
 43
0.0
 10
73.69449
 20
218.200998
 10
73.645307
 20
218.426586
 10
73.448452
 20
218.579038
 10
73.185844
 20
218.594912
 10
72.966766
 20
218.467601
 10
72.882387
 20
218.250086
 10
72.967819
 20
218.032884
 10
73.187511
 20
217.906382
 10
73.45004
 20
217.923224
 10
73.646155
 20
218.076399
  0
LINE
  5
2E4
100
AcDbEntity
  8
ALPHA
100
AcDbLine
 10
72.209553
 20
218.814651
 30
0.0
 11
72.209553
 21
218.702507
 31
0.0
  0
LINE
  5
2E5
100
AcDbEntity
  8
ALPHA
100
AcDbLine
 10
73.006985
 20
218.814651
 30
0.0
 11
73.006985
 21
218.702507
 31
0.0
  0
LINE
  5
2E6
100
AcDbEntity
  8
ALPHA
100
AcDbLine
 10
72.524163
 20
217.917536
 30
0.0
 11
72.692376
 21
217.917536
 31
0.0
  0
LINE
  5
2E7
100
AcDbEntity
  8
ALPHA
100
AcDbLine
 10
72.692376
 20
218.702507
 30
0.0
 11
72.692376
 21
217.917536
 31
0.0
  0
LINE
  5
2E8
100
AcDbEntity
  8
ALPHA
100
AcDbLine
 10
72.524163
 20
218.702507
 30
0.0
 11
72.524163
 21
217.917536
 31
0.0
  0
LINE
  5
2E9
100
AcDbEntity
  8
ALPHA
100
AcDbLine
 10
72.692376
 20
218.702507
 30
0.0
 11
73.006985
 21
218.702507
 31
0.0
  0
LINE
  5
2EA
100
AcDbEntity
  8
ALPHA
100
AcDbLine
 10
72.209553
 20
218.702507
 30
0.0
 11
72.524163
 21
218.702507
 31
0.0
  0
LINE
  5
2EB
100
AcDbEntity
  8
ALPHA
100
AcDbLine
 10
72.209553
 20
218.814651
 30
0.0
 11
73.006985
 21
218.814651
 31
0.0
  0
INSERT
  5
32F
100
AcDbEntity
  8
0
100
AcDbBlockReference
  2
SCH_ISO
 10
0.0
 20
0.0
 30
0.0
  0
DIMENSION
  5
33C
100
AcDbEntity
  8
COTATION1
100
AcDbDimension
  2
*D6
 10
124.555345
 20
146.75375
 30
0.0
 11
90.322205
 21
149.25375
 31
0.0
  3
SC_STAND
100
AcDbAlignedDimension
 13
56.089066
 23
166.583407
 33
0.0
 14
124.555345
 24
166.58341
 34
0.0
100
AcDbRotatedDimension
  0
DIMENSION
  5
349
100
AcDbEntity
  8
COTATION1
100
AcDbDimension
  2
*D5
 10
155.623519
 20
248.597904
 30
0.0
 11
153.123519
 21
207.099421
 31
0.0
  3
SC_STAND
100
AcDbAlignedDimension
 13
123.555497
 23
165.600937
 33
0.0
 14
110.122467
 24
248.597904
 34
0.0
 50
90.0
100
AcDbRotatedDimension
  0
ENDSEC
  0
SECTION
  2
OBJECTS
  0
DICTIONARY
  5
3CC
100
AcDbDictionary
  3
ACAD_GROUP
350
3CD
  3
ACAD_MLINESTYLE
350
3DA
  3
ACDBVARIABLEDICTIONARY
350
41D
  0
DICTIONARY
  5
3CD
102
{ACAD_REACTORS
330
3CC
102
}
100
AcDbDictionary
  0
DICTIONARY
  5
3DA
102
{ACAD_REACTORS
330
3CC
102
}
100
AcDbDictionary
  3
STANDARD
350
3DB
  0
DICTIONARY
  5
41D
102
{ACAD_REACTORS
330
3CC
102
}
100
AcDbDictionary
  3
DIMADEC
350
41E
  0
MLINESTYLE
  5
3DB
102
{ACAD_REACTORS
330
3DA
102
}
100
AcDbMlineStyle
  2
STANDARD
 70
     0
  3

 62
   256
 51
90.0
 52
90.0
 71
     2
 49
0.5
 62
   256
  6
BYLAYER
 49
-0.5
 62
   256
  6
BYLAYER
  0
DICTIONARYVAR
  5
41E
102
{ACAD_REACTORS
330
41D
102
}
100
DictionaryVariables
280
     0
  1
0
  0
ENDSEC
  0
EOF
